0
SECTION
2
HEADER
9
$ACADVER
1
AC1015
9
$DWGCODEPAGE
3
ANSI_1252
9
$HANDSEED
5
1a4
9
$ANGBASE
50
0
9
$ANGDIR
70
0
9
$ATTMODE
70
1
9
$AUNITS
70
0
9
$AUPREC
70
0
9
$CECOLOR
62
256
9
$CELTSCALE
40
1
9
$CELTYPE
6
ByLayer
9
$CELWEIGHT
370
18
9
$CLAYER
8
0
9
$CMLJUST
70
0
9
$CMLSCALE
40
1
9
$CMLSTYLE
2
Standard
9
$DIMSTYLE
2
Standard
9
$TEXTSIZE
40
0.2
9
$TEXTSTYLE
7
Standard
9
$LUNITS
70
2
9
$LUPREC
70
4
9
$EXTNAMES
290
1
9
$INSUNITS
70
4
9
$LTSCALE
40
1
9
$LWDISPLAY
290
1
9
$PDMODE
70
0
9
$PDSIZE
40
0
9
$PLINEGEN
70
0
0
ENDSEC
0
SECTION
2
CLASSES
0
CLASS
1
RASTERVARIABLES
2
AcDbRasterVariables
3
ISM
90
0
280
0
281
0
0
ENDSEC
0
SECTION
2
TABLES
0
TABLE
2
VPORT
5
19a
100
AcDbSymbolTable
0
VPORT
5
1
100
AcDbSymbolTableRecord
100
AcDbViewportTableRecord
2
*Active
70
0
10
0
20
0
11
1
21
1
12
-1
22
1
13
0
23
0
14
0.5
24
0.5
15
10
25
10
16
0
26
0
36
1
17
0
27
0
37
0
0
ENDTAB
0
TABLE
2
LTYPE
5
19b
100
AcDbSymbolTable
0
LTYPE
5
14
100
AcDbSymbolTableRecord
100
AcDbLinetypeTableRecord
70
0
2
ByBlock
3

72
65
73
0
40
0
0
LTYPE
5
15
100
AcDbSymbolTableRecord
100
AcDbLinetypeTableRecord
70
0
2
ByLayer
3

72
65
73
0
40
0
0
LTYPE
5
16
100
AcDbSymbolTableRecord
100
AcDbLinetypeTableRecord
70
0
2
CONTINUOUS
3
Solid line
72
65
73
0
40
0
0
LTYPE
5
6A
100
AcDbSymbolTableRecord
100
AcDbLinetypeTableRecord
70
0
2
CENTER
3
____ _ ____ _ ____ _ ____
72
65
73
4
40
47.5
49
22
74
0
49
-8.5
74
0
49
8.5
74
0
49
-8.5
74
0
0
LTYPE
5
6B
100
AcDbSymbolTableRecord
100
AcDbLinetypeTableRecord
70
0
2
DASHED
3
__ __ __ __ __ __ __ __ __
72
65
73
2
40
25.72
49
12.86
74
0
49
-12.86
74
0
0
ENDTAB
0
TABLE
2
LAYER
5
19c
100
AcDbSymbolTable
0
LAYER
5
10
100
AcDbSymbolTableRecord
100
AcDbLayerTableRecord
2
0
70
0
62
7
6
CONTINUOUS
290
1
370
-3
390
0
0
LAYER
5
6D
100
AcDbSymbolTableRecord
100
AcDbLayerTableRecord
2
81
70
0
62
-3
6
CONTINUOUS
290
1
370
-3
390
0
0
LAYER
5
6F
100
AcDbSymbolTableRecord
100
AcDbLayerTableRecord
2
1
70
0
62
4
6
CONTINUOUS
290
1
370
-3
390
0
0
LAYER
5
71
100
AcDbSymbolTableRecord
100
AcDbLayerTableRecord
2
80
70
0
62
-6
6
CONTINUOUS
290
1
370
-3
390
0
0
LAYER
5
75
100
AcDbSymbolTableRecord
100
AcDbLayerTableRecord
2
2
70
0
62
7
6
CONTINUOUS
290
1
370
-3
390
0
0
LAYER
5
A0
100
AcDbSymbolTableRecord
100
AcDbLayerTableRecord
2
4
70
0
62
-2
6
CENTER
290
1
370
-3
390
0
0
LAYER
5
186
100
AcDbSymbolTableRecord
100
AcDbLayerTableRecord
2
SK1
70
0
62
4
6
CONTINUOUS
290
1
370
-3
390
0
0
LAYER
5
187
100
AcDbSymbolTableRecord
100
AcDbLayerTableRecord
2
SK4
70
0
62
2
6
CENTER
290
1
370
-3
390
0
0
LAYER
5
188
100
AcDbSymbolTableRecord
100
AcDbLayerTableRecord
2
SK6
70
0
62
5
6
CONTINUOUS
290
1
370
-3
390
0
0
LAYER
5
189
100
AcDbSymbolTableRecord
100
AcDbLayerTableRecord
2
SK2
70
0
62
7
6
CONTINUOUS
290
1
370
-3
390
0
0
ENDTAB
0
TABLE
2
STYLE
5
19d
100
AcDbSymbolTable
0
STYLE
5
11
100
AcDbSymbolTableRecord
100
AcDbTextStyleTableRecord
2
Standard
3
txt
70
0
71
0
40
0
41
1
42
0
50
0
0
STYLE
5
F9
100
AcDbSymbolTableRecord
100
AcDbTextStyleTableRecord
2
iso_b_vert
3
simplex.shx
70
0
71
0
40
0
41
1
42
0
50
0
0
STYLE
5
FA
100
AcDbSymbolTableRecord
100
AcDbTextStyleTableRecord
2
DWGDirectTextStyle
3
simplex
70
0
71
0
40
0
41
1
42
0
50
0
0
ENDTAB
0
TABLE
2
DIMSTYLE
5
19e
100
AcDbSymbolTable
100
AcDbDimStyleTable
0
DIMSTYLE
105
27
100
AcDbSymbolTableRecord
100
AcDbDimStyleTableRecord
2
Standard
70
0
3
<>
41
0.18
42
0.0625
44
0.18
140
0.18
147
0.09
73
0
74
0
77
1
271
2
275
0
278
52
280
0
340
11
0
ENDTAB
0
TABLE
2
VIEW
5
19f
100
AcDbSymbolTable
0
ENDTAB
0
TABLE
2
UCS
5
1a0
100
AcDbSymbolTable
0
ENDTAB
0
TABLE
2
APPID
5
1a1
100
AcDbSymbolTable
0
APPID
5
12
100
AcDbSymbolTableRecord
100
AcDbRegAppTableRecord
2
ACAD
70
0
0
ENDTAB
0
TABLE
2
BLOCK_RECORD
5
1a2
100
AcDbSymbolTable
0
BLOCK_RECORD
5
1F
100
AcDbSymbolTableRecord
100
AcDbBlockTableRecord
2
*Model_Space
340
0
70
0
0
BLOCK_RECORD
5
1B
100
AcDbSymbolTableRecord
100
AcDbBlockTableRecord
2
*Paper_Space
340
0
70
0
0
BLOCK_RECORD
5
23
100
AcDbSymbolTableRecord
100
AcDbBlockTableRecord
2
*Paper_Space0
340
0
70
0
0
BLOCK_RECORD
5
FC
100
AcDbSymbolTableRecord
100
AcDbBlockTableRecord
2
DimnDraft3D1
340
0
70
0
0
BLOCK_RECORD
5
104
100
AcDbSymbolTableRecord
100
AcDbBlockTableRecord
2
DimnDraft3D2
340
0
70
0
0
BLOCK_RECORD
5
10F
100
AcDbSymbolTableRecord
100
AcDbBlockTableRecord
2
DimnDraft3D33
340
0
70
0
0
BLOCK_RECORD
5
119
100
AcDbSymbolTableRecord
100
AcDbBlockTableRecord
2
DimnDraft3D4
340
0
70
0
0
BLOCK_RECORD
5
123
100
AcDbSymbolTableRecord
100
AcDbBlockTableRecord
2
DimnDraft3D5
340
0
70
0
0
ENDTAB
0
ENDSEC
0
SECTION
2
BLOCKS
0
BLOCK
5
20
100
AcDbEntity
8
0
100
AcDbBlockBegin
2
*Model_Space
70
0
10
0
20
0
30
0
3
*Model_Space
0
ENDBLK
5
21
100
AcDbEntity
8
0
100
AcDbBlockEnd
0
BLOCK
5
1C
100
AcDbEntity
8
0
100
AcDbBlockBegin
2
*Paper_Space
70
0
10
0
20
0
30
0
3
*Paper_Space
0
ENDBLK
5
1D
100
AcDbEntity
8
0
100
AcDbBlockEnd
0
BLOCK
5
24
100
AcDbEntity
8
0
100
AcDbBlockBegin
2
*Paper_Space0
70
0
10
0
20
0
30
0
3
*Paper_Space0
0
ENDBLK
5
25
100
AcDbEntity
8
0
100
AcDbBlockEnd
0
BLOCK
5
101
100
AcDbEntity
8
0
100
AcDbBlockBegin
2
DimnDraft3D1
70
0
10
0
20
0
30
0
3
DimnDraft3D1
0
MTEXT
5
FD
100
AcDbEntity
8
2
62
256
6
ByLayer
370
18
48
1
60
0
100
AcDbMText
10
20.214442
20
-8.61874
30
0
210
0
220
0
230
1
1
\W1.0454;%%c17,7
40
3.5
41
0
44
1.084337
50
90
71
7
72
5
7
iso_b_vert
0
LINE
5
FE
100
AcDbEntity
8
2
62
256
6
ByLayer
370
13
48
1
60
0
100
AcDbLine
10
7.592342
20
8.85
30
0
11
23.964442
21
8.85
31
0
39
0
210
0
220
0
230
1
0
LINE
5
FF
100
AcDbEntity
8
2
62
256
6
ByLayer
370
13
48
1
60
0
100
AcDbLine
10
21.964442
20
8.85
30
0
11
21.964442
21
-9.49374
31
0
39
0
210
0
220
0
230
1
0
SOLID
5
100
100
AcDbEntity
8
2
62
256
6
ByLayer
370
13
48
1
60
0
100
AcDbTrace
10
21.964442
20
8.85
30
0
11
22.425226
21
5.350002
31
0
12
21.503658
22
5.349998
32
0
13
21.964442
23
8.85
33
0
39
0
210
0
220
0
230
1
0
ENDBLK
5
102
100
AcDbEntity
8
0
100
AcDbBlockEnd
0
BLOCK
5
10C
100
AcDbEntity
8
0
100
AcDbBlockBegin
2
DimnDraft3D2
70
0
10
0
20
0
30
0
3
DimnDraft3D2
0
MTEXT
5
105
100
AcDbEntity
8
SK2
62
256
6
ByLayer
370
18
48
1
60
0
100
AcDbMText
10
-16.354131
20
-3.909868
30
0
210
0
220
0
230
1
1
\W1.6313;%%c9
40
3.5
41
0
44
1.084337
50
90
71
7
72
5
7
iso_b_vert
0
LINE
5
107
100
AcDbEntity
8
SK2
62
256
6
ByLayer
370
13
48
1
60
0
100
AcDbLine
10
-1.5875
20
-4.5
30
0
11
-16.604131
21
-4.5
31
0
39
0
210
0
220
0
230
1
0
LINE
5
108
100
AcDbEntity
8
SK2
62
256
6
ByLayer
370
13
48
1
60
0
100
AcDbLine
10
-1.5875
20
4.5
30
0
11
-16.604131
21
4.5
31
0
39
0
210
0
220
0
230
1
0
LINE
5
109
100
AcDbEntity
8
SK2
62
256
6
ByLayer
370
13
48
1
60
0
100
AcDbLine
10
-14.604131
20
4.784868
30
0
11
-14.604131
21
-4.784868
31
0
39
0
210
0
220
0
230
1
0
SOLID
5
10A
100
AcDbEntity
8
SK2
62
256
6
ByLayer
370
13
48
1
60
0
100
AcDbTrace
10
-14.604131
20
-4.5
30
0
11
-15.064915
21
-1.000002
31
0
12
-14.143347
22
-0.999998
32
0
13
-14.604131
23
-4.5
33
0
39
0
210
0
220
0
230
1
0
SOLID
5
10B
100
AcDbEntity
8
SK2
62
256
6
ByLayer
370
13
48
1
60
0
100
AcDbTrace
10
-14.604131
20
4.5
30
0
11
-14.143347
21
1.000002
31
0
12
-15.064915
22
0.999998
32
0
13
-14.604131
23
4.5
33
0
39
0
210
0
220
0
230
1
0
ENDBLK
5
10D
100
AcDbEntity
8
0
100
AcDbBlockEnd
0
BLOCK
5
110
100
AcDbEntity
8
0
100
AcDbBlockBegin
2
DimnDraft3D33
70
0
10
0
20
0
30
0
3
DimnDraft3D33
0
LINE
5
112
100
AcDbEntity
8
2
62
256
6
ByLayer
370
25
48
1
60
0
100
AcDbLine
10
5.748563
20
10.4375
30
0
11
5.748563
21
31.099106
31
0
39
0
210
0
220
0
230
1
0
LINE
5
113
100
AcDbEntity
8
2
62
256
6
ByLayer
370
25
48
1
60
0
100
AcDbLine
10
0
20
6.482322
30
0
11
0
21
31.099106
31
0
39
0
210
0
220
0
230
1
0
LINE
5
114
100
AcDbEntity
8
2
62
256
6
ByLayer
370
25
48
1
60
0
100
AcDbLine
10
-8.75
20
29.099106
30
0
11
17.799337
21
29.099106
31
0
39
0
210
0
220
0
230
1
0
SOLID
5
115
100
AcDbEntity
8
2
62
256
6
ByLayer
370
25
48
1
60
0
100
AcDbTrace
10
5.748563
20
29.099106
30
0
11
9.248561
21
29.55989
31
0
12
9.248565
22
28.638322
32
0
13
5.748563
23
29.099106
33
0
39
0
210
0
220
0
230
1
0
SOLID
5
116
100
AcDbEntity
8
2
62
256
6
ByLayer
370
25
48
1
60
0
100
AcDbTrace
10
0
20
29.099106
30
0
11
-3.499998
21
28.638322
31
0
12
-3.500002
22
29.55989
32
0
13
0
23
29.099106
33
0
39
0
210
0
220
0
230
1
0
MTEXT
5
117
100
AcDbEntity
8
2
62
256
6
ByLayer
370
18
48
1
60
0
100
AcDbMText
10
10.826969
20
29.974106
30
0
210
0
220
0
230
1
1
\W0.7003;5,75
40
3.5
41
0
44
1.084337
50
0
71
7
72
5
7
iso_b_vert
0
ENDBLK
5
111
100
AcDbEntity
8
0
100
AcDbBlockEnd
0
BLOCK
5
120
100
AcDbEntity
8
0
100
AcDbBlockBegin
2
DimnDraft3D4
70
0
10
0
20
0
30
0
3
DimnDraft3D4
0
MTEXT
5
11A
100
AcDbEntity
8
2
62
256
6
ByLayer
370
18
48
1
60
0
100
AcDbMText
10
11.165107
20
17.59053
30
0
210
0
220
0
230
1
1
\W0.5971;1,71
40
3.5
41
0
44
1.084337
50
0
71
7
72
5
7
iso_b_vert
0
LINE
5
11B
100
AcDbEntity
8
2
62
256
6
ByLayer
370
13
48
1
60
0
100
AcDbLine
10
4.041445
20
10.333331
30
0
11
4.041445
21
18.71553
31
0
39
0
210
0
220
0
230
1
0
LINE
5
11C
100
AcDbEntity
8
2
62
256
6
ByLayer
370
13
48
1
60
0
100
AcDbLine
10
5.748563
20
10.333986
30
0
11
5.748563
21
18.71553
31
0
39
0
210
0
220
0
230
1
0
LINE
5
11D
100
AcDbEntity
8
2
62
256
6
ByLayer
370
13
48
1
60
0
100
AcDbLine
10
16.387476
20
16.71553
30
0
11
-4.708555
21
16.71553
31
0
39
0
210
0
220
0
230
1
0
SOLID
5
11E
100
AcDbEntity
8
2
62
256
6
ByLayer
370
13
48
1
60
0
100
AcDbTrace
10
4.041445
20
16.71553
30
0
11
0.541447
21
16.254746
31
0
12
0.541444
22
17.176313
32
0
13
4.041445
23
16.71553
33
0
39
0
210
0
220
0
230
1
0
SOLID
5
11F
100
AcDbEntity
8
2
62
256
6
ByLayer
370
13
48
1
60
0
100
AcDbTrace
10
5.748563
20
16.71553
30
0
11
9.248561
21
17.176313
31
0
12
9.248565
22
16.254746
32
0
13
5.748563
23
16.71553
33
0
39
0
210
0
220
0
230
1
0
ENDBLK
5
121
100
AcDbEntity
8
0
100
AcDbBlockEnd
0
BLOCK
5
12A
100
AcDbEntity
8
0
100
AcDbBlockBegin
2
DimnDraft3D5
70
0
10
0
20
0
30
0
3
DimnDraft3D5
0
MTEXT
5
124
100
AcDbEntity
8
2
62
256
6
ByLayer
370
18
48
1
60
0
100
AcDbMText
10
-8.179729
20
13.422592
30
0
210
0
220
0
230
1
1
\W0.6702;3,5
40
3.5
41
0
44
1.084337
50
90
71
7
72
5
7
iso_b_vert
0
LINE
5
125
100
AcDbEntity
8
2
62
256
6
ByLayer
370
13
48
1
60
0
100
AcDbLine
10
2.5525
20
5.35
30
0
11
-9.304729
21
5.35
31
0
39
0
210
0
220
0
230
1
0
LINE
5
126
100
AcDbEntity
8
2
62
256
6
ByLayer
370
13
48
1
60
0
100
AcDbLine
10
2.5525
20
8.85
30
0
11
-9.304729
21
8.85
31
0
39
0
210
0
220
0
230
1
0
LINE
5
127
100
AcDbEntity
8
2
62
256
6
ByLayer
370
13
48
1
60
0
100
AcDbLine
10
-7.304729
20
17.825223
30
0
11
-7.304729
21
-3.4
31
0
39
0
210
0
220
0
230
1
0
SOLID
5
128
100
AcDbEntity
8
2
62
256
6
ByLayer
370
13
48
1
60
0
100
AcDbTrace
10
-7.304729
20
5.35
30
0
11
-6.843945
21
1.850002
31
0
12
-7.765513
22
1.849998
32
0
13
-7.304729
23
5.35
33
0
39
0
210
0
220
0
230
1
0
SOLID
5
129
100
AcDbEntity
8
2
62
256
6
ByLayer
370
13
48
1
60
0
100
AcDbTrace
10
-7.304729
20
8.85
30
0
11
-7.765513
21
12.349998
31
0
12
-6.843945
22
12.350002
32
0
13
-7.304729
23
8.85
33
0
39
0
210
0
220
0
230
1
0
ENDBLK
5
12B
100
AcDbEntity
8
0
100
AcDbBlockEnd
0
ENDSEC
0
SECTION
2
ENTITIES
0
ELLIPSE
5
A3
100
AcDbEntity
8
1
62
256
6
ByLayer
370
18
48
1
60
0
100
AcDbEllipse
10
4.028934
20
-0.182859
30
0
11
0.396839004484245
21
8.7435533120579
31
0
210
0
220
0
230
1
40
0.026168
41
-2.0667149364825
42
-1.98445862090795
0
ELLIPSE
5
A4
100
AcDbEntity
8
1
62
256
6
ByLayer
370
18
48
1
60
0
100
AcDbEllipse
10
5.749665
20
-0.004523
30
0
11
0.396565033097699
21
8.73751690082519
31
0
210
0
220
0
230
1
40
0.026168
41
-2.17222565962432
42
-2.096209996138
0
ELLIPSE
5
A5
100
AcDbEntity
8
1
62
256
6
ByLayer
370
18
48
1
60
0
100
AcDbEllipse
10
4.028995
20
-0.182862
30
0
11
0.396680820574565
21
8.74006804616476
31
0
210
0
220
0
230
1
40
0.026168
41
-2.06660729859679
42
-1.98281798762458
0
ELLIPSE
5
A6
100
AcDbEntity
8
1
62
256
6
ByLayer
370
18
48
1
60
0
100
AcDbEllipse
10
5.603521
20
-0.00211
30
0
11
-0.206296091453977
21
4.54532153673091
31
0
210
0
220
0
230
1
40
0.026168
41
0.722206145908356
42
0.87082684829016
0
ELLIPSE
5
A7
100
AcDbEntity
8
1
62
256
6
ByLayer
370
18
48
1
60
0
100
AcDbEllipse
10
5.749665
20
0.004523
30
0
11
-0.396565033097682
21
8.73751690082519
31
0
210
0
220
0
230
1
40
0.026168
41
2.0153772808078
42
2.09139294429413
0
ELLIPSE
5
A8
100
AcDbEntity
8
1
62
256
6
ByLayer
370
18
48
1
60
0
100
AcDbEllipse
10
4.157726
20
0.188705
30
0
11
-0.2291795827558
21
5.04951347326585
31
0
210
0
220
0
230
1
40
0.026168
41
-3.07933577754365
42
-3.01715120453203
0
ELLIPSE
5
A9
100
AcDbEntity
8
1
62
256
6
ByLayer
370
13
48
1
60
0
100
AcDbEllipse
10
4.028995
20
0.182862
30
0
11
-0.396680820574549
21
8.74006804616476
31
0
210
0
220
0
230
1
40
0.026168
41
2.18454458907692
42
2.20478495280755
0
ELLIPSE
5
AA
100
AcDbEntity
8
1
62
256
6
ByLayer
370
18
48
1
60
0
100
AcDbEllipse
10
5.603521
20
0.00211
30
0
11
0.206296091453986
21
4.54532153673092
31
0
210
0
220
0
230
1
40
0.026168
41
2.91422370997101
42
3.13040115809284
0
ELLIPSE
5
AB
100
AcDbEntity
8
1
62
256
6
ByLayer
370
18
48
1
60
0
100
AcDbEllipse
10
4.028934
20
0.182859
30
0
11
-0.396839004484228
21
8.7435533120579
31
0
210
0
220
0
230
1
40
0.026168
41
2.18423301235852
42
2.20314431952418
0
POINT
5
6C
100
AcDbEntity
8
81
62
256
6
ByLayer
370
18
48
1
60
0
100
AcDbPoint
10
5.748563
20
8.85
30
0
39
0
210
0
220
0
230
1
50
360
0
POINT
5
6E
100
AcDbEntity
8
1
62
256
6
ByLayer
370
18
48
1
60
1
100
AcDbPoint
10
5.748563
20
-8.85
30
0
39
0
210
0
220
0
230
1
50
360
0
POINT
5
70
100
AcDbEntity
8
80
62
256
6
ByLayer
370
18
48
1
60
0
100
AcDbPoint
10
0
20
0
30
0
39
0
210
0
220
0
230
1
50
360
0
POINT
5
72
100
AcDbEntity
8
1
62
256
6
ByLayer
370
18
48
1
60
1
100
AcDbPoint
10
0
20
4.5
30
0
39
0
210
0
220
0
230
1
50
360
0
POINT
5
73
100
AcDbEntity
8
1
62
256
6
ByLayer
370
18
48
1
60
1
100
AcDbPoint
10
0
20
-4.5
30
0
39
0
210
0
220
0
230
1
50
360
0
POINT
5
74
100
AcDbEntity
8
2
62
256
6
ByLayer
370
18
48
1
60
1
100
AcDbPoint
10
4.14
20
5.35
30
0
39
0
210
0
220
0
230
1
50
360
0
SPLINE
5
AC
100
AcDbEntity
8
1
62
256
6
ByLayer
370
18
48
1
60
0
100
AcDbSpline
70
4
71
1
72
4
73
2
40
0
40
0
40
1
40
1
41
1
10
5.68783159337318
20
8.8426550770233
30
0
41
1
10
5.67699286658947
20
8.84391518915015
30
0
0
SPLINE
5
AD
100
AcDbEntity
8
1
62
256
6
ByLayer
370
18
48
1
60
0
100
AcDbSpline
70
4
71
1
72
4
73
2
40
0
40
0
40
1
40
1
41
1
10
5.39591251701165
20
-4.54286958477323
30
0
41
1
10
5.52647674492357
20
-4.5487782617823
30
0
0
SPLINE
5
AE
100
AcDbEntity
8
1
62
256
6
ByLayer
370
18
48
1
60
0
100
AcDbSpline
70
4
71
3
72
14
73
10
40
0
40
0
40
0
40
0
40
0.0375345674525088
40
0.0375345674525088
40
0.278150925589382
40
0.278150925589382
40
0.518767283726255
40
0.518767283726255
40
1
40
1
40
1
40
1
41
1
10
5.67472647457953
20
-3.10962591125249
30
0
41
1
10
5.67457893271759
20
-3.10161867029365
30
0
41
1
10
5.67443393280027
20
-3.09358314428377
30
0
41
1
10
5.67337828443738
20
-3.03382607742648
30
0
41
1
10
5.67257121891845
20
-2.98095972871491
30
0
41
1
10
5.67117845508227
20
-2.8728378225691
30
0
41
1
10
5.67059242922579
20
-2.81749810901621
30
0
41
1
10
5.66919296450683
20
-2.64908180675505
30
0
41
1
10
5.66873114922799
20
-2.53329654984884
30
0
41
1
10
5.66877327748432
20
-2.41398949627171
30
0
0
SPLINE
5
AF
100
AcDbEntity
8
1
62
256
6
ByLayer
370
18
48
1
60
0
100
AcDbSpline
70
4
71
3
72
10
73
6
40
0
40
0
40
0
40
0
40
0.551063058952813
40
0.551063058952813
40
1
40
1
40
1
40
1
41
1
10
5.66883086926129
20
-1.81532431661236
30
0
41
1
10
5.65972607598079
20
-1.86576741110011
30
0
41
1
10
5.65070608984877
20
-1.91625833936018
30
0
41
1
10
5.6345217606646
20
-2.00798650429746
30
0
41
1
10
5.62732330630473
20
-2.04920456913328
30
0
41
1
10
5.62020280924006
20
-2.09046646070655
30
0
0
SPLINE
5
B0
100
AcDbEntity
8
1
62
256
6
ByLayer
370
18
48
1
60
0
100
AcDbSpline
70
4
71
3
72
12
73
8
40
0
40
0
40
0
40
0
40
0.343507009340134
40
0.343507009340134
40
0.671749863885699
40
0.671749863885699
40
1
40
1
40
1
40
1
41
1
10
5.37155657366696
20
-4.42501430535597
30
0
41
1
10
5.37493481556768
20
-4.59908544052729
30
0
41
1
10
5.37980693901045
20
-4.7731511477611
30
0
41
1
10
5.39169828914194
20
-5.11352670136955
30
0
41
1
10
5.39859944029339
20
-5.27983978894449
30
0
41
1
10
5.41400816826902
20
-5.61245190234089
30
0
41
1
10
5.42251327850309
20
-5.77875192334176
30
0
41
1
10
5.4315840016352
20
-5.94504473157363
30
0
0
SPLINE
5
B1
100
AcDbEntity
8
1
62
256
6
ByLayer
370
18
48
1
60
0
100
AcDbSpline
70
4
71
3
72
14
73
10
40
0
40
0
40
0
40
0
40
0.5
40
0.5
40
0.75
40
0.75
40
0.875
40
0.875
40
1
40
1
40
1
40
1
41
1
10
5.4315840016352
20
-5.94504473157363
30
0
41
1
10
5.44030481814264
20
-6.10492273093141
30
0
41
1
10
5.45032240357114
20
-6.23162876102089
30
0
41
1
10
5.46738250060668
20
-6.37397262211229
30
0
41
1
10
5.47341034672834
20
-6.41340548051897
30
0
41
1
10
5.48299707377035
20
-6.46022549403281
30
0
41
1
10
5.48628962415359
20
-6.47379080999428
30
0
41
1
10
5.49302897960951
20
-6.49659255562892
30
0
41
1
10
5.49647532151008
20
-6.50583844366807
30
0
41
1
10
5.49999999985783
20
-6.51292701886194
30
0
0
SPLINE
5
B2
100
AcDbEntity
8
1
62
256
6
ByLayer
370
18
48
1
60
0
100
AcDbSpline
70
4
71
3
72
8
73
4
40
0
40
0
40
0
40
0
40
1
40
1
40
1
40
1
41
1
10
5.57936265633126
20
-6.36701438974279
30
0
41
1
10
5.58849796588547
20
-6.32194285524386
30
0
41
1
10
5.59788392255672
20
-6.26756596925279
30
0
41
1
10
5.60754113866079
20
-6.20351694146308
30
0
0
SPLINE
5
B3
100
AcDbEntity
8
1
62
256
6
ByLayer
370
18
48
1
60
0
100
AcDbSpline
70
4
71
3
72
8
73
4
40
0
40
0
40
0
40
0
40
1
40
1
40
1
40
1
41
1
10
5.71380290616716
20
-4.95695541241827
30
0
41
1
10
5.67594387152113
20
-5.37238707254673
30
0
41
1
10
5.64043369102569
20
-5.78791057881236
30
0
41
1
10
5.60754113866079
20
-6.20351694146308
30
0
0
SPLINE
5
B4
100
AcDbEntity
8
1
62
256
6
ByLayer
370
18
48
1
60
0
100
AcDbSpline
70
4
71
3
72
14
73
10
40
0
40
0
40
0
40
0
40
0.25
40
0.25
40
0.5
40
0.5
40
0.75
40
0.75
40
1
40
1
40
1
40
1
41
1
10
4.04134032909789
20
-4.35252321935687
30
0
41
1
10
4.04117626189313
20
-4.36174812332149
30
0
41
1
10
4.04348958940014
20
-4.37086011955341
30
0
41
1
10
4.05292824019935
20
-4.38819003043042
30
0
41
1
10
4.06000308277399
20
-4.39621704978018
30
0
41
1
10
4.07806849829871
20
-4.40984057558828
30
0
41
1
10
4.08910992620363
20
-4.41542506540347
30
0
41
1
10
4.11329044469872
20
-4.42297609772666
30
0
41
1
10
4.1265850669491
20
-4.4250000000097
30
0
41
1
10
4.13999999985009
20
-4.42500000001067
30
0
0
SPLINE
5
B5
100
AcDbEntity
8
1
62
256
6
ByLayer
370
18
48
1
60
0
100
AcDbSpline
70
4
71
3
72
8
73
4
40
0
40
0
40
0
40
0
40
1
40
1
40
1
40
1
41
1
10
4.04144540261501
20
-4.35003698403349
30
0
41
1
10
4.04139011835977
20
-4.35086481178774
30
0
41
1
10
4.04135508068083
20
-4.35169379134314
30
0
41
1
10
4.04134032909789
20
-4.35252321935687
30
0
0
SPLINE
5
B6
100
AcDbEntity
8
1
62
256
6
ByLayer
370
18
48
1
60
0
100
AcDbSpline
70
4
71
3
72
8
73
4
40
0
40
0
40
0
40
0
40
1
40
1
40
1
40
1
41
1
10
4.18021329775326
20
-6.20351694146308
30
0
41
1
10
4.14905919132664
20
-5.80319765269945
30
0
41
1
10
4.11549186359051
20
-5.40295342492226
30
0
41
1
10
4.0797090237283
20
-5.00279406003389
30
0
0
SPLINE
5
B7
100
AcDbEntity
8
1
62
256
6
ByLayer
370
18
48
1
60
0
100
AcDbSpline
70
4
71
3
72
8
73
4
40
0
40
0
40
0
40
0
40
1
40
1
40
1
40
1
41
1
10
4.0797090237283
20
-5.00279406003389
30
0
41
1
10
4.07942633835111
20
-4.99963279051397
30
0
41
1
10
4.07916371073273
20
-4.99647159843977
30
0
41
1
10
4.07892152189697
20
-4.99331048528251
30
0
0
SPLINE
5
B8
100
AcDbEntity
8
1
62
256
6
ByLayer
370
18
48
1
60
0
100
AcDbSpline
70
4
71
3
72
8
73
4
40
0
40
0
40
0
40
0
40
1
40
1
40
1
40
1
41
1
10
5.66883086926129
20
-1.81532431661236
30
0
41
1
10
5.66729423633154
20
-2.02453999095289
30
0
41
1
10
5.66734478446102
20
-2.22451437863023
30
0
41
1
10
5.66877327748455
20
-2.41398949627023
30
0
0
SPLINE
5
B9
100
AcDbEntity
8
1
62
256
6
ByLayer
370
18
48
1
60
0
100
AcDbSpline
70
4
71
3
72
8
73
4
40
0
40
0
40
0
40
0
40
1
40
1
40
1
40
1
41
1
10
5.66883086926129
20
-1.81532431661236
30
0
41
0.999980885462352
10
5.64709792931826
20
-1.80382755252462
30
0
41
0.999969151255418
10
5.62536578443413
20
-1.79230719383522
30
0
41
0.999964797379197
10
5.60363491582499
20
-1.78076349479414
30
0
0
SPLINE
5
BA
100
AcDbEntity
8
1
62
256
6
ByLayer
370
18
48
1
60
0
100
AcDbSpline
70
4
71
3
72
18
73
14
40
0
40
0
40
0
40
0
40
0.0312499999999983
40
0.0312499999999983
40
0.0624999999999966
40
0.0624999999999966
40
0.124999999999997
40
0.124999999999997
40
0.249999999999998
40
0.249999999999998
40
0.499999999999998
40
0.499999999999998
40
1
40
1
40
1
40
1
41
1
10
5.64999999985784
20
-4.42500000000774
30
0
41
1
10
5.65555745192489
20
-4.42500000000774
30
0
41
1
10
5.660219305471
20
-4.42139976015386
30
0
41
1
10
5.66704335823411
20
-4.41355585033094
30
0
41
1
10
5.66962065052797
20
-4.40907808106132
30
0
41
1
10
5.67632255366061
20
-4.39548231995533
30
0
41
1
10
5.67949720133851
20
-4.38584197112843
30
0
41
1
10
5.68763704422489
20
-4.3569625547577
30
0
41
1
10
5.691153582222
20
-4.33742323379764
30
0
41
1
10
5.69989287937179
20
-4.27853384360952
30
0
41
1
10
5.70300646319726
20
-4.23883901326545
30
0
41
1
10
5.70952633977845
20
-4.11998267589755
30
0
41
1
10
5.7098188805476
20
-4.04065156929846
30
0
41
1
10
5.70884145798794
20
-3.96129115788921
30
0
0
SPLINE
5
BB
100
AcDbEntity
8
1
62
256
6
ByLayer
370
18
48
1
60
0
100
AcDbSpline
70
4
71
3
72
20
73
16
40
0
40
0
40
0
40
0
40
0.499999999999998
40
0.499999999999998
40
0.75
40
0.75
40
0.875000000000003
40
0.875000000000003
40
0.937500000000004
40
0.937500000000004
40
0.968750000000004
40
0.968750000000004
40
0.984375000000002
40
0.984375000000002
40
1
40
1
40
1
40
1
41
1
10
4.09016540413489
20
-3.9612911578898
30
0
41
1
10
4.08871895942798
20
-4.04031691337551
30
0
41
1
10
4.08850523932077
20
-4.11937951724408
30
0
41
1
10
4.09358862966474
20
-4.23783686387463
30
0
41
1
10
4.09611125565834
20
-4.27732743049179
30
0
41
1
10
4.10350810063073
20
-4.33621257805896
30
0
41
1
10
4.10651948582358
20
-4.35581245156399
30
0
41
1
10
4.11353272777041
20
-4.38474551738926
30
0
41
1
10
4.11624476382198
20
-4.39433580868189
30
0
41
1
10
4.12208950772555
20
-4.40815913127844
30
0
41
1
10
4.12431557385136
20
-4.41269038849416
30
0
41
1
10
4.1288259653237
20
-4.41882290045814
30
0
41
1
10
4.1305442986679
20
-4.42077186619676
30
0
41
1
10
4.13471148031542
20
-4.42387212866976
30
0
41
1
10
4.13728167924123
20
-4.42500000000777
30
0
41
1
10
4.13999999985782
20
-4.42500000000777
30
0
0
SPLINE
5
BC
100
AcDbEntity
8
1
62
256
6
ByLayer
370
18
48
1
60
0
100
AcDbSpline
70
4
71
3
72
10
73
6
40
0
40
0
40
0
40
0
40
0.5
40
0.5
40
1
40
1
40
1
40
1
41
1
10
5.7088414579888
20
-3.96129115788321
30
0
41
1
10
5.71318292974632
20
-3.92827326336237
30
0
41
1
10
5.7152421875731
20
-3.89520007858351
30
0
41
1
10
5.71656324703986
20
-3.82898593621445
30
0
41
1
10
5.71577597802201
20
-3.79584378981409
30
0
41
1
10
5.71380290616773
20
-3.76267291545051
30
0
0
SPLINE
5
BD
100
AcDbEntity
8
1
62
256
6
ByLayer
370
18
48
1
60
0
100
AcDbSpline
70
4
71
3
72
8
73
4
40
0
40
0
40
0
40
0
40
1
40
1
40
1
40
1
41
1
10
5.71380290616716
20
-3.76267291544002
30
0
41
1
10
5.67594387152113
20
-3.12619468596586
30
0
41
1
10
5.64043369102569
20
-2.48957574004569
30
0
41
1
10
5.60754113866079
20
-1.85282985077879
30
0
0
SPLINE
5
BE
100
AcDbEntity
8
1
62
256
6
ByLayer
370
18
48
1
60
0
100
AcDbSpline
70
4
71
3
72
8
73
4
40
0
40
0
40
0
40
0
40
1
40
1
40
1
40
1
41
1
10
4.18021329775326
20
-1.85282985077879
30
0
41
1
10
4.14905919132664
20
-2.46615458404017
30
0
41
1
10
4.11549186359051
20
-3.07936431719847
30
0
41
1
10
4.0797090237283
20
-3.69244403286797
30
0
0
SPLINE
5
BF
100
AcDbEntity
8
1
62
256
6
ByLayer
370
18
48
1
60
0
100
AcDbSpline
70
4
71
3
72
8
73
4
40
0
40
0
40
0
40
0
40
1
40
1
40
1
40
1
41
1
10
4.0797090237283
20
-3.69244403286797
30
0
41
1
10
4.07942633835111
20
-3.69728737876585
30
0
41
1
10
4.07916371073273
20
-3.70213060601
30
0
41
1
10
4.07892152189697
20
-3.70697371234638
30
0
0
SPLINE
5
C0
100
AcDbEntity
8
1
62
256
6
ByLayer
370
18
48
1
60
0
100
AcDbSpline
70
4
71
3
72
10
73
6
40
0
40
0
40
0
40
0
40
0.5
40
0.5
40
1
40
1
40
1
40
1
41
1
10
4.07892152189697
20
-3.70697371234638
30
0
41
1
10
4.07679657331488
20
-3.7494668021302
30
0
41
1
10
4.07619212936567
20
-3.79193464773073
30
0
41
1
10
4.0791748817833
20
-3.87680074720944
30
0
41
1
10
4.08260294521818
20
-3.91934332010339
30
0
41
1
10
4.09016540408379
20
-3.96129115786394
30
0
0
SPLINE
5
C1
100
AcDbEntity
8
1
62
256
6
ByLayer
370
18
48
1
60
0
100
AcDbSpline
70
4
71
3
72
12
73
8
40
0
40
0
40
0
40
0
40
0.372212406437797
40
0.372212406437797
40
0.722904343360756
40
0.722904343360756
40
1
40
1
40
1
40
1
41
1
10
5.49999999985874
20
-5.10091645820293
30
0
41
1
10
5.49999999985783
20
-5.2759195290416
30
0
41
1
10
5.49999999985783
20
-5.45100655348907
30
0
41
1
10
5.49999999985783
20
-5.791186162332
30
0
41
1
10
5.49999999985783
20
-5.95627163267517
30
0
41
1
10
5.49999999985783
20
-6.25188372740774
30
0
41
1
10
5.49999999985783
20
-6.38239244852178
30
0
41
1
10
5.49999999985783
20
-6.51292701886172
30
0
0
SPLINE
5
C2
100
AcDbEntity
8
1
62
256
6
ByLayer
370
18
48
1
60
0
100
AcDbSpline
70
4
71
3
72
8
73
4
40
0
40
0
40
0
40
0
40
1
40
1
40
1
40
1
41
1
10
5.49999999985783
20
-6.45104701405668
30
0
41
0.999493316699254
10
5.52556476366142
20
-6.42799156251638
30
0
41
0.999493316699254
10
5.5520323931918
20
-6.3999664879078
30
0
41
1
10
5.57936265633126
20
-6.36701438974279
30
0
0
SPLINE
5
C3
100
AcDbEntity
8
1
62
256
6
ByLayer
370
18
48
1
60
0
100
AcDbSpline
70
4
71
3
72
16
73
12
40
0
40
0
40
0
40
0
40
0.162667749061434
40
0.162667749061434
40
0.404684537647532
40
0.404684537647532
40
0.646701418922178
40
0.646701418922178
40
0.888718453366346
40
0.888718453366346
40
1
40
1
40
1
40
1
41
1
10
5.57936265633126
20
-6.36701438974279
30
0
41
1
10
5.57491241822351
20
-6.29884375949024
30
0
41
1
10
5.57047967855411
20
-6.23061579066646
30
0
41
1
10
5.55950172291099
20
-6.06071537250261
30
0
41
1
10
5.55298065565046
20
-5.95896379597141
30
0
41
1
10
5.54004756379791
20
-5.75510424056696
30
0
41
1
10
5.53363546088693
20
-5.65299637082688
30
0
41
1
10
5.52094740547409
20
-5.44833639557996
30
0
41
1
10
5.5146713390927
20
-5.34578443060846
30
0
41
1
10
5.50563527149504
20
-5.19566872227622
30
0
41
1
10
5.50280739136687
20
-5.14832590353521
30
0
41
1
10
5.49999999985874
20
-5.10091645820293
30
0
0
SPLINE
5
C4
100
AcDbEntity
8
1
62
256
6
ByLayer
370
18
48
1
60
0
100
AcDbSpline
70
4
71
3
72
8
73
4
40
0
40
0
40
0
40
0
40
1
40
1
40
1
40
1
41
1
10
5.49999999985783
20
-0.957257910365996
30
0
41
0.999493316699254
10
5.52556476366142
20
-1.07958475510466
30
0
41
0.999493316699254
10
5.5520323931918
20
-1.20353389479134
30
0
41
1
10
5.57936265633126
20
-1.32891692054835
30
0
0
SPLINE
5
C5
100
AcDbEntity
8
1
62
256
6
ByLayer
370
18
48
1
60
0
100
AcDbSpline
70
4
71
3
72
16
73
12
40
0
40
0
40
0
40
0
40
0.172814730538571
40
0.172814730538571
40
0.414096995567682
40
0.414096995567682
40
0.655379353930813
40
0.655379353930813
40
0.919075651460055
40
0.919075651460055
40
1
40
1
40
1
40
1
41
1
10
5.57936265633126
20
-1.32891692054835
30
0
41
1
10
5.57463481897102
20
-1.25650507554383
30
0
41
1
10
5.56992672574506
20
-1.18415726076432
30
0
41
1
10
5.55869983397815
20
-1.01097533142143
30
0
41
1
10
5.55220252965913
20
-0.910210920376215
30
0
41
1
10
5.53931721883959
20
-0.70903715951269
30
0
41
1
10
5.53292913404172
20
-0.608627459275965
30
0
41
1
10
5.51970233061533
20
-0.398944947291881
30
0
41
1
10
5.51287663013264
20
-0.289714278389056
30
0
41
1
10
5.5040939345418
20
-0.147410988712124
30
0
41
1
10
5.5020415466069
20
-0.114027595301763
30
0
41
1
10
5.49999999985863
20
-0.0806795342866167
30
0
0
SPLINE
5
C6
100
AcDbEntity
8
1
62
256
6
ByLayer
370
18
48
1
60
0
100
AcDbSpline
70
4
71
3
72
12
73
8
40
0
40
0
40
0
40
0
40
0.0189819166980842
40
0.0189819166980842
40
0.540913652443697
40
0.540913652443697
40
1
40
1
40
1
40
1
41
1
10
5.49999999985783
20
-4.44707234927788
30
0
41
1
10
5.49999999985783
20
-4.44840507809346
30
0
41
1
10
5.49999999985783
20
-4.44972443107804
30
0
41
1
10
5.49999999985783
20
-4.48693931306738
30
0
41
1
10
5.49999999985783
20
-4.5128806145907
30
0
41
1
10
5.49999999985783
20
-4.54291371555556
30
0
41
1
10
5.49999999985781
20
-4.54918526780341
30
0
41
1
10
5.49999999985781
20
-4.54763583080165
30
0
0
SPLINE
5
C7
100
AcDbEntity
8
1
62
256
6
ByLayer
370
18
48
1
60
0
100
AcDbSpline
70
4
71
3
72
14
73
10
40
0
40
0
40
0
40
0
40
0.25
40
0.25
40
0.5
40
0.5
40
0.75
40
0.75
40
1
40
1
40
1
40
1
41
1
10
5.64999999985784
20
8.84999999999229
30
0
41
1
10
5.66366674807588
20
8.84999999999229
30
0
41
1
10
5.67710519325266
20
8.84718993156324
30
0
41
1
10
5.70178468821013
20
8.83649599196676
30
0
41
1
10
5.71297795303803
20
8.82857480037049
30
0
41
1
10
5.73109244369937
20
8.80924856679988
30
0
41
1
10
5.73816196424065
20
8.79769426956287
30
0
41
1
10
5.74717100615982
20
8.77298841864194
30
0
41
1
10
5.74919232223516
20
8.75975178342765
30
0
41
1
10
5.74856282553102
20
8.74648624498002
30
0
0
SPLINE
5
C8
100
AcDbEntity
8
SK1
62
256
6
ByLayer
370
18
48
1
60
0
100
AcDbSpline
70
4
71
3
72
8
73
4
40
0
40
0
40
0
40
0
40
1
40
1
40
1
40
1
41
0.994487578827258
10
-0.187585510124151
20
1.01990749756008
30
0
41
0.99218457493138
10
-0.41194612550256
20
1.15264470618126
30
0
41
0.994022048655628
10
-0.650431016514595
20
1.27594255567931
30
0
41
1
10
-0.900000000142171
20
1.38832154381788
30
0
0
SPLINE
5
C9
100
AcDbEntity
8
SK1
62
256
6
ByLayer
370
18
48
1
60
0
100
AcDbSpline
70
4
71
3
72
8
73
4
40
0
40
0
40
0
40
0
40
1
40
1
40
1
40
1
41
1
10
-0.900000000142171
20
0.524341440281177
30
0
41
1
10
-0.712823158636297
20
0.626310478647497
30
0
41
1
10
-0.524737807075354
20
0.728850386268874
30
0
41
1
10
-0.335983076939868
20
0.831810903023694
30
0
0
SPLINE
5
CA
100
AcDbEntity
8
SK1
62
256
6
ByLayer
370
18
48
1
60
0
100
AcDbSpline
70
4
71
3
72
8
73
4
40
0
40
0
40
0
40
0
40
1
40
1
40
1
40
1
41
1
10
-0.335983076939868
20
0.831810903023694
30
0
41
1
10
-0.223825630871087
20
0.897107314429438
30
0
41
1
10
-0.111830157232555
20
0.962362721796184
30
0
41
1
10
-2.19689E-11
20
1.02757627858533
30
0
0
SPLINE
5
CB
100
AcDbEntity
8
SK1
62
256
6
ByLayer
370
18
48
1
60
0
100
AcDbSpline
70
4
71
3
72
8
73
4
40
0
40
0
40
0
40
0
40
1
40
1
40
1
40
1
41
1
10
-0.900000000142171
20
-1.27972379005692
30
0
41
0.996666062293643
10
-0.761183189291199
20
-1.21335449951111
30
0
41
0.994619960855347
10
-0.625521156208143
20
-1.14375220578936
30
0
41
0.993861695685112
10
-0.493560754089591
20
-1.07116751108147
30
0
0
SPLINE
5
CC
100
AcDbEntity
8
1
62
256
6
ByLayer
370
18
48
1
60
0
100
AcDbSpline
70
4
71
3
72
12
73
8
40
0
40
0
40
0
40
0
40
0.334779059496872
40
0.334779059496872
40
0.669558118993745
40
0.669558118993745
40
1
40
1
40
1
40
1
41
1
10
5.64999999985784
20
8.84999999999229
30
0
41
1
10
5.65555745192489
20
8.84999999999229
30
0
41
1
10
5.660219305471
20
8.84952334974318
30
0
41
1
10
5.66704335823411
20
8.84848486294297
30
0
41
1
10
5.66962065052797
20
8.847892033043
30
0
41
1
10
5.67405964412546
20
8.84669980787461
30
0
41
1
10
5.67594967130444
20
8.84608899154131
30
0
41
1
10
5.67762470035532
20
8.84546898045289
30
0
0
SPLINE
5
CD
100
AcDbEntity
8
1
62
256
6
ByLayer
370
18
48
1
60
0
100
AcDbSpline
70
4
71
3
72
8
73
4
40
0
40
0
40
0
40
0
40
1
40
1
40
1
40
1
41
1
10
0.0999999998578289
20
4.90798555112025
30
0
41
1
10
0.066677647838069
20
4.90368805461173
30
0
41
1
10
0.0333441712718466
20
4.89929988726201
30
0
41
1
10
-2.19449E-11
20
4.89482160550262
30
0
0
SPLINE
5
CE
100
AcDbEntity
8
SK1
62
256
6
ByLayer
370
18
48
1
60
0
100
AcDbSpline
70
4
71
3
72
8
73
4
40
0
40
0
40
0
40
0
40
1
40
1
40
1
40
1
41
1
10
-0.34428197887425
20
4.84545851921973
30
0
41
1
10
-0.530250663222148
20
4.6466820060198
30
0
41
1
10
-0.715566478929418
20
4.44723413398441
30
0
41
1
10
-0.900000000142171
20
4.24687897958387
30
0
0
SPLINE
5
CF
100
AcDbEntity
8
SK1
62
256
6
ByLayer
370
18
48
1
60
0
100
AcDbSpline
70
4
71
3
72
8
73
4
40
0
40
0
40
0
40
0
40
1
40
1
40
1
40
1
41
1
10
-0.900000000142171
20
2.0268028692067
30
0
41
0.997134966683889
10
-0.69259682895627
20
2.04584388658931
30
0
41
0.997134966683889
10
-0.492838672311884
20
2.05318101643569
30
0
41
1
10
-0.302442471530895
20
2.04875119538144
30
0
0
SPLINE
5
D0
100
AcDbEntity
8
SK1
62
256
6
ByLayer
370
18
48
1
60
0
100
AcDbSpline
70
4
71
3
72
8
73
4
40
0
40
0
40
0
40
0
40
1
40
1
40
1
40
1
41
1
10
-0.302442471530895
20
2.04875119538144
30
0
41
0.99884441759094
10
-0.198374789213862
20
2.04632992222421
30
0
41
0.998546871558955
10
-0.0974730344654507
20
2.04039459158777
30
0
41
0.999107361904044
10
-2.02778E-11
20
2.0309573557269
30
0
0
SPLINE
5
D1
100
AcDbEntity
8
SK1
62
256
6
ByLayer
370
18
48
1
60
0
100
AcDbSpline
70
4
71
3
72
8
73
4
40
0
40
0
40
0
40
0
40
1
40
1
40
1
40
1
41
1
10
-0.900000000142171
20
-4.13273909449939
30
0
41
1
10
-0.712823158636297
20
-4.33657503976042
30
0
41
1
10
-0.524737807075354
20
-4.53955511143531
30
0
41
1
10
-0.335983076939868
20
-4.74190458641215
30
0
0
SPLINE
5
D2
100
AcDbEntity
8
SK1
62
256
6
ByLayer
370
18
48
1
60
0
100
AcDbSpline
70
4
71
3
72
8
73
4
40
0
40
0
40
0
40
0
40
1
40
1
40
1
40
1
41
1
10
-0.335983076939868
20
-4.74190458641215
30
0
41
1
10
-0.223823764753399
20
-4.76208359914577
30
0
41
1
10
-0.111818550112899
20
-4.78093942848969
30
0
41
1
10
2.05039E-11
20
-4.79844071025602
30
0
0
SPLINE
5
D3
100
AcDbEntity
8
1
62
256
6
ByLayer
370
18
48
1
60
0
100
AcDbSpline
70
4
71
3
72
8
73
4
40
0
40
0
40
0
40
0
40
1
40
1
40
1
40
1
41
1
10
4.04144540261501
20
8.74583051774482
30
0
41
1
10
4.04139011835977
20
8.74700094868882
30
0
41
1
10
4.04135508068083
20
8.74817232389569
30
0
41
1
10
4.04134032909789
20
8.74934364750979
30
0
0
SPLINE
5
D4
100
AcDbEntity
8
1
62
256
6
ByLayer
370
18
48
1
60
0
100
AcDbSpline
70
4
71
3
72
19
73
15
40
0
40
0
40
0
40
0
40
0.250000000000003
40
0.250000000000003
40
0.375000000000004
40
0.375000000000004
40
0.500000000000006
40
0.625000000000007
40
0.625000000000007
40
0.687500000000007
40
0.687500000000007
40
0.750000000000007
40
0.750000000000007
40
1
40
1
40
1
40
1
41
1
10
4.12187574153717
20
5.6709485553024
30
0
41
1
10
4.12174296504423
20
5.89784637719396
30
0
41
1
10
4.11967930649547
20
6.13622457759274
30
0
41
1
10
4.11403149313267
20
6.51073887288314
30
0
41
1
10
4.11170416899711
20
6.63896051058416
30
0
41
1
10
4.10629504909264
20
6.89647750594446
30
0
41
1
10
4.10012475446302
20
7.15590550163435
30
0
41
1
10
4.09249389386815
20
7.41907495574506
30
0
41
1
10
4.08622255495331
20
7.61786677552928
30
0
41
1
10
4.0840405087782
20
7.68436693240446
30
0
41
1
10
4.07949032340511
20
7.81784698728575
30
0
41
1
10
4.07711726172676
20
7.88495991164572
30
0
41
1
10
4.06483477839657
20
8.22012415584413
30
0
41
1
10
4.05377779668714
20
8.48473962354015
30
0
41
1
10
4.04144540261501
20
8.74583051774482
30
0
0
SPLINE
5
D5
100
AcDbEntity
8
1
62
256
6
ByLayer
370
18
48
1
60
0
100
AcDbSpline
70
4
71
3
72
14
73
10
40
0
40
0
40
0
40
0
40
0.25
40
0.25
40
0.5
40
0.5
40
0.75
40
0.75
40
1
40
1
40
1
40
1
41
1
10
4.04134032909789
20
8.74934364750979
30
0
41
1
10
4.04117626189313
20
8.76237111664861
30
0
41
1
10
4.04348958940014
20
8.77515262082244
30
0
41
1
10
4.05292824019935
20
8.79932034146299
30
0
41
1
10
4.06000308277399
20
8.81044005690126
30
0
41
1
10
4.07806849829871
20
8.82923560716389
30
0
41
1
10
4.08910992620363
20
8.83689662707209
30
0
41
1
10
4.11329044469872
20
8.84723842863423
30
0
41
1
10
4.1265850669491
20
8.84999999999104
30
0
41
1
10
4.13999999985009
20
8.84999999999238
30
0
0
SPLINE
5
D6
100
AcDbEntity
8
1
62
256
6
ByLayer
370
18
48
1
60
0
100
AcDbSpline
70
4
71
3
72
22
73
18
40
0
40
0
40
0
40
0
40
0.250000000000002
40
0.250000000000002
40
0.375000000000003
40
0.375000000000003
40
0.437500000000003
40
0.437500000000003
40
0.500000000000003
40
0.500000000000003
40
0.750000000000003
40
0.750000000000003
40
0.812500000000002
40
0.812500000000002
40
0.875000000000001
40
0.875000000000001
40
1
40
1
40
1
40
1
41
1
10
5.74856282553102
20
8.74648624498002
30
0
41
1
10
5.7361517692604
20
8.48494501204073
30
0
41
1
10
5.72511778751033
20
8.22153986372732
30
0
41
1
10
5.71049837815767
20
7.82374842210402
30
0
41
1
10
5.70595025019884
20
7.69070053950739
30
0
41
1
10
5.6996276745808
20
7.49043555142072
30
0
41
1
10
5.69759849352994
20
7.4233839773762
30
0
41
1
10
5.69373887510656
20
7.2899903173072
30
0
41
1
10
5.69191076206738
20
7.22374849815014
30
0
41
1
10
5.68327199532544
20
6.89477020210515
30
0
41
1
10
5.67794426357273
20
6.63866037910617
30
0
41
1
10
5.67337828443729
20
6.32733668607725
30
0
41
1
10
5.67257121891836
20
6.26551672777285
30
0
41
1
10
5.67117845508218
20
6.14278256047135
30
0
41
1
10
5.67059242922571
20
6.08178358964975
30
0
41
1
10
5.66919296450681
20
5.90151975355656
30
0
41
1
10
5.66873114922794
20
5.78459977587067
30
0
41
1
10
5.66877327748432
20
5.67094855531553
30
0
0
SPLINE
5
D7
100
AcDbEntity
8
1
62
256
6
ByLayer
370
18
48
1
60
0
100
AcDbSpline
70
4
71
3
72
10
73
6
40
0
40
0
40
0
40
0
40
0.513104281711144
40
0.513104281711144
40
1
40
1
40
1
40
1
41
1
10
5.66883086926293
20
5.09008269730282
30
0
41
1
10
5.65956791755664
20
5.00453293071442
30
0
41
1
10
5.65039273564858
20
4.91901951791956
30
0
41
1
10
5.63271618966814
20
4.75244591029386
30
0
41
1
10
5.62420434935805
20
4.67138130154626
30
0
41
1
10
5.61580508209278
20
4.59036365105587
30
0
0
SPLINE
5
D8
100
AcDbEntity
8
1
62
256
6
ByLayer
370
18
48
1
60
0
100
AcDbSpline
70
4
71
3
72
8
73
4
40
0
40
0
40
0
40
0
40
1
40
1
40
1
40
1
41
1
10
0.0999999998578289
20
-2.03939119086118
30
0
41
0.999599272280714
10
0.0671123740898568
20
-2.04183379892882
30
0
41
0.999301726248727
10
0.0337757317152636
20
-2.04385573477414
30
0
41
0.99910736190404
10
-2.08141E-11
20
-2.04545599611416
30
0
0
SPLINE
5
D9
100
AcDbEntity
8
SK1
62
256
6
ByLayer
370
18
48
1
60
0
100
AcDbSpline
70
4
71
3
72
8
73
4
40
0
40
0
40
0
40
0
40
1
40
1
40
1
40
1
41
1
10
-0.302442471530924
20
-2.04875119539685
30
0
41
0.997134966683889
10
-0.492838672311884
20
-2.04432137434264
30
0
41
0.997134966683889
10
-0.69259682895627
20
-2.02816267714255
30
0
41
1
10
-0.900000000142171
20
-2.00041398941406
30
0
0
SPLINE
5
DA
100
AcDbEntity
8
1
62
256
6
ByLayer
370
18
48
1
60
0
100
AcDbSpline
70
4
71
3
72
20
73
16
40
0
40
0
40
0
40
0
40
0.0786128961565076
40
0.156943803703481
40
0.234992816051976
40
0.312760027629714
40
0.390245533895532
40
0.467449431354071
40
0.544371817570744
40
0.621012791186919
40
0.697372451935429
40
0.773450900656303
40
0.849248239312798
40
0.924764571007717
40
1
40
1
40
1
40
1
41
1
10
4.12187574153717
20
5.6709485553024
30
0
41
1
10
4.12201320328793
20
5.65258874158801
30
0
41
1
10
4.12228763370697
20
5.61593497178046
30
0
41
1
10
4.12261379514379
20
5.56160429413231
30
0
41
1
10
4.12287631787743
20
5.50788584444763
30
0
41
1
10
4.12306918295522
20
5.45482588351231
30
0
41
1
10
4.12319399383168
20
5.40242149925245
30
0
41
1
10
4.12325032549106
20
5.35068240956593
30
0
41
1
10
4.1232382826999
20
5.29961460079619
30
0
41
1
10
4.12315786911927
20
5.24922430488851
30
0
41
1
10
4.12300896660523
20
5.19951838327941
30
0
41
1
10
4.12279204155183
20
5.15049888844217
30
0
41
1
10
4.12250535558499
20
5.10218434091394
30
0
41
1
10
4.12215536242635
20
5.05453049461724
30
0
41
1
10
4.12186331678649
20
5.023268257963
30
0
41
1
10
4.12171756605758
20
5.00766626581895
30
0
0
SPLINE
5
DB
100
AcDbEntity
8
1
62
256
6
ByLayer
370
18
48
1
60
0
100
AcDbSpline
70
4
71
3
72
14
73
10
40
0
40
0
40
0
40
0
40
0.248625005001548
40
0.248625005001548
40
0.497250010758565
40
0.497250010758565
40
0.74862498409825
40
0.74862498409825
40
1
40
1
40
1
40
1
41
1
10
4.12171756605758
20
5.00766626581895
30
0
41
1
10
3.78841427410694
20
5.00413293081968
30
0
41
1
10
3.45511174077896
20
5.00055927565967
30
0
41
1
10
2.78850834021131
20
4.9933270322723
30
0
41
1
10
2.45520746183053
20
4.98966844543418
30
0
41
1
10
1.78492098512734
20
4.98222070503783
30
0
41
1
10
1.44793539409412
20
4.97843055700812
30
0
41
1
10
0.773966176415428
20
4.97075338784308
30
0
41
1
10
0.436982535228253
20
4.96686636871868
30
0
41
1
10
0.0999999998578289
20
4.96292802059477
30
0
0
SPLINE
5
DC
100
AcDbEntity
8
1
62
256
6
ByLayer
370
18
48
1
60
0
100
AcDbSpline
70
4
71
3
72
8
73
4
40
0
40
0
40
0
40
0
40
1
40
1
40
1
40
1
41
1
10
5.66883086926293
20
5.09008269730282
30
0
41
1
10
5.66729423633157
20
5.27391621493015
30
0
41
1
10
5.66734478446102
20
5.46806390497673
30
0
41
1
10
5.66877327748443
20
5.67094855531636
30
0
0
SPLINE
5
DD
100
AcDbEntity
8
1
62
256
6
ByLayer
370
18
48
1
60
0
100
AcDbSpline
70
4
71
3
72
8
73
4
40
0
40
0
40
0
40
0
40
1
40
1
40
1
40
1
41
1
10
5.66883086926293
20
5.09008269730282
30
0
41
0.999950494691406
10
5.61254237213722
20
5.06391850864224
30
0
41
0.999950494691406
10
5.55626262952286
20
5.03799118526026
30
0
41
1
10
5.49999999985783
20
5.01230457777726
30
0
0
SPLINE
5
DE
100
AcDbEntity
8
1
62
256
6
ByLayer
370
18
48
1
60
0
100
AcDbSpline
70
4
71
3
72
14
73
10
40
0
40
0
40
0
40
0
40
0.25
40
0.25
40
0.5
40
0.5
40
0.75
40
0.75
40
1
40
1
40
1
40
1
41
1
10
5.64999999985784
20
-4.42500000000774
30
0
41
1
10
5.66366674807588
20
-4.42500000000774
30
0
41
1
10
5.67710519325266
20
-4.42294040581413
30
0
41
1
10
5.70178468821013
20
-4.41513283703279
30
0
41
1
10
5.71297795303803
20
-4.40935957068365
30
0
41
1
10
5.73109244369937
20
-4.39535566432153
30
0
41
1
10
5.73816196424065
20
-4.38701889889612
30
0
41
1
10
5.74717100615982
20
-4.36931421689229
30
0
41
1
10
5.74919232223516
20
-4.35988537869343
30
0
41
1
10
5.74856282553102
20
-4.35050082039837
30
0
0
SPLINE
5
DF
100
AcDbEntity
8
1
62
256
6
ByLayer
370
18
48
1
60
0
100
AcDbSpline
70
4
71
3
72
9
73
5
40
0
40
0
40
0
40
0
40
0.5
40
1
40
1
40
1
40
1
41
1
10
4.18021329775326
20
-6.20351694146308
30
0
41
1
10
4.19480938874426
20
-6.30176622565452
30
0
41
1
10
4.22276669999349
20
-6.45309078515666
30
0
41
1
10
4.24849275253823
20
-6.51761423726555
30
0
41
1
10
4.2608184190855
20
-6.52726090237445
30
0
0
SPLINE
5
E0
100
AcDbEntity
8
1
62
256
6
ByLayer
370
18
48
1
60
0
100
AcDbSpline
70
4
71
3
72
16
73
12
40
0
40
0
40
0
40
0
40
0.196463806380521
40
0.196463806380521
40
0.46430920425368
40
0.46430920425368
40
0.59823190319026
40
0.59823190319026
40
0.73215460212684
40
0.73215460212684
40
1
40
1
40
1
40
1
41
1
10
4.2685320798609
20
-6.53031412054557
30
0
41
1
10
4.27550185486075
20
-6.53030327735121
30
0
41
1
10
4.28217931372399
20
-6.52258028708391
30
0
41
1
10
4.29731226606211
20
-6.48663369227466
30
0
41
1
10
4.30553191215148
20
-6.45197758937996
30
0
41
1
10
4.31712736247098
20
-6.37888045380021
30
0
41
1
10
4.3208698219629
20
-6.35098502446746
30
0
41
1
10
4.32811035106323
20
-6.28795644636463
30
0
41
1
10
4.33159475014185
20
-6.25291951743662
30
0
41
1
10
4.34157821709314
20
-6.13805235061872
30
0
41
1
10
4.34764109705236
20
-6.04824035982875
30
0
41
1
10
4.35313580738287
20
-5.94504473157363
30
0
0
SPLINE
5
E1
100
AcDbEntity
8
1
62
256
6
ByLayer
370
18
48
1
60
0
100
AcDbSpline
70
4
71
3
72
10
73
6
40
0
40
0
40
0
40
0
40
0.395608037205861
40
0.395608037205861
40
1
40
1
40
1
40
1
41
1
10
4.35313580738287
20
-5.94504473157363
30
0
41
1
10
4.36102731231864
20
-5.79683513348002
30
0
41
1
10
4.36845955439179
20
-5.64861986966741
30
0
41
1
10
4.38568974313677
20
-5.27395365300706
30
0
41
1
10
4.39466495243713
20
-5.04749212412813
30
0
41
1
10
4.40153448948862
20
-4.82101745342925
30
0
0
SPLINE
5
E2
100
AcDbEntity
8
1
62
256
6
ByLayer
370
18
48
1
60
0
100
AcDbSpline
70
4
71
3
72
14
73
10
40
0
40
0
40
0
40
0
40
0.291628750288439
40
0.291628750288439
40
0.583254945629866
40
0.583254945629866
40
0.791625174297981
40
0.791625174297981
40
1
40
1
40
1
40
1
41
1
10
4.40153448948862
20
-4.82101745342925
30
0
41
1
10
3.98416614650472
20
-4.84634080863114
30
0
41
1
10
3.56647885766506
20
-4.87052108759778
30
0
41
1
10
2.73066925722964
20
-4.9170956574745
30
0
41
1
10
2.31253644929745
20
-4.93948767665339
30
0
41
1
10
1.59535728114423
20
-4.97663763412069
30
0
41
1
10
1.29638873624202
20
-4.99174860273195
30
0
41
1
10
0.69830153099943
20
-5.02132240817957
30
0
41
1
10
0.399181167373143
20
-5.03578512911952
30
0
41
1
10
0.0999999998578289
20
-5.0499612846981
30
0
0
SPLINE
5
E3
100
AcDbEntity
8
1
62
256
6
ByLayer
370
18
48
1
60
0
100
AcDbSpline
70
4
71
3
72
21
73
17
40
0
40
0
40
0
40
0
40
0.148016320183499
40
0.148016320183499
40
0.296032640366998
40
0.296032640366998
40
0.444048960550498
40
0.444048960550498
40
0.592065280733997
40
0.740081600917497
40
0.740081600917497
40
0.814089761009246
40
0.814089761009246
40
0.888097921100996
40
0.888097921100996
40
1
40
1
40
1
40
1
41
1
10
5.49999999985783
20
3.40628471503737
30
0
41
1
10
5.49999999985783
20
3.28976337690762
30
0
41
1
10
5.49999999985783
20
3.16552208926785
30
0
41
1
10
5.49999999985783
20
2.90493715864332
30
0
41
1
10
5.49999999985783
20
2.7683681143869
30
0
41
1
10
5.49999999985783
20
2.48268298101857
30
0
41
1
10
5.49999999985783
20
2.3328578615214
30
0
41
1
10
5.49999999985783
20
2.02667802241223
30
0
41
1
10
5.49999999985783
20
1.71289946557127
30
0
41
1
10
5.49999999985783
20
1.38421509912561
30
0
41
1
10
5.49999999985783
20
1.13199913176714
30
0
41
1
10
5.49999999985783
20
1.04683887320547
30
0
41
1
10
5.49999999985783
20
0.875154722009853
30
0
41
1
10
5.49999999985783
20
0.789127933673313
30
0
41
1
10
5.49999999985783
20
0.572571654671947
30
0
41
1
10
5.49999999985786
20
0.441814314831504
30
0
41
1
10
5.49999999985786
20
0.310644715051694
30
0
0
SPLINE
5
E4
100
AcDbEntity
8
SK1
62
256
6
ByLayer
370
18
48
1
60
0
100
AcDbSpline
70
4
71
3
72
12
73
8
40
0
40
0
40
0
40
0
40
0.5
40
0.5
40
0.75
40
0.75
40
1
40
1
40
1
40
1
41
1
10
-0.34428197887425
20
-1.17318440777959
30
0
41
1
10
-0.342888652663277
20
-0.844171398196806
30
0
41
1
10
-0.341486619468128
20
-0.512108623509107
30
0
41
1
10
-0.339396556964545
20
-0.009570199855375
30
0
41
1
10
-0.338701835236549
20
0.158752075269518
30
0
41
1
10
-0.337323270620146
20
0.496678989069295
30
0
41
1
10
-0.336645854993236
20
0.664710967886151
30
0
41
1
10
-0.335983076939868
20
0.831810903023694
30
0
0
SPLINE
5
E5
100
AcDbEntity
8
1
62
256
6
ByLayer
370
18
48
1
60
0
100
AcDbSpline
70
4
71
3
72
14
73
10
40
0
40
0
40
0
40
0
40
0.245050716289912
40
0.245050716289912
40
0.494858430491345
40
0.494858430491345
40
0.747429193863406
40
0.747429193863406
40
1
40
1
40
1
40
1
41
1
10
4.10267664790373
20
-3.28760932161495
30
0
41
1
10
3.77572035731515
20
-3.28821047954963
30
0
41
1
10
3.44876479810495
20
-3.28882630297028
30
0
41
1
10
2.78850834021131
20
-3.29010148837747
30
0
41
1
10
2.45520746183053
20
-3.2907614626412
30
0
41
1
10
1.78492098512734
20
-3.292123678866
30
0
41
1
10
1.44793539409412
20
-3.29282630634762
30
0
41
1
10
0.773966176415428
20
-3.2942696977064
30
0
41
1
10
0.436982535228253
20
-3.29501046035372
30
0
41
1
10
0.0999999998578289
20
-3.29577172424825
30
0
0
SPLINE
5
E6
100
AcDbEntity
8
1
62
256
6
ByLayer
370
18
48
1
60
0
100
AcDbSpline
70
4
71
3
72
8
73
4
40
0
40
0
40
0
40
0
40
1
40
1
40
1
40
1
41
1
10
0.0999999998578289
20
1.20007762889767
30
0
41
0.999054568968501
10
0.0671213449591068
20
1.18059223642563
30
0
41
0.998212701121319
10
0.0337849368449699
20
1.16085423252189
30
0
41
0.997474396458454
10
-1.66407E-11
20
1.14086912549353
30
0
0
SPLINE
5
E7
100
AcDbEntity
8
1
62
256
6
ByLayer
370
18
48
1
60
0
100
AcDbSpline
70
4
71
3
72
8
73
4
40
0
40
0
40
0
40
0
40
1
40
1
40
1
40
1
41
1
10
0.0999999998578289
20
-1.42724609062847
30
0
41
1
10
0.0666764441686863
20
-1.40820559053157
30
0
41
1
10
0.0333430924173183
20
-1.38915596624509
30
0
41
1
10
-2.4077E-11
20
-1.37009726934349
30
0
0
SPLINE
5
E8
100
AcDbEntity
8
SK1
62
256
6
ByLayer
370
18
48
1
60
0
100
AcDbSpline
70
4
71
3
72
8
73
4
40
0
40
0
40
0
40
0
40
1
40
1
40
1
40
1
41
1
10
-0.34428197887425
20
-1.17318440777959
30
0
41
1
10
-0.530250663222148
20
-1.06001626139175
30
0
41
1
10
-0.715566478929418
20
-0.947191288526142
30
0
41
1
10
-0.900000000142171
20
-0.834830084464784
30
0
0
SPLINE
5
E9
100
AcDbEntity
8
1
62
256
6
ByLayer
370
18
48
1
60
0
100
AcDbSpline
70
4
71
3
72
14
73
10
40
0
40
0
40
0
40
0
40
0.29162875028844
40
0.29162875028844
40
0.583254945629867
40
0.583254945629867
40
0.791625174297981
40
0.791625174297981
40
1
40
1
40
1
40
1
41
1
10
4.40153448948862
20
2.85930906504333
30
0
41
1
10
3.98416614650472
20
2.83072515321518
30
0
41
1
10
3.56647885766506
20
2.80343149657082
30
0
41
1
10
2.73066925722961
20
2.75086012961819
30
0
41
1
10
2.31253644929745
20
2.72558498354212
30
0
41
1
10
1.59535728114423
20
2.68365171284401
30
0
41
1
10
1.29638873624202
20
2.66659510281036
30
0
41
1
10
0.69830153099943
20
2.63321346595384
30
0
41
1
10
0.399181167373143
20
2.61688856994985
30
0
41
1
10
0.0999999998578289
20
2.6008871365739
30
0
0
SPLINE
5
EA
100
AcDbEntity
8
1
62
256
6
ByLayer
370
18
48
1
60
0
100
AcDbSpline
70
4
71
3
72
9
73
5
40
0
40
0
40
0
40
0
40
0.5
40
1
40
1
40
1
40
1
41
1
10
0.0999999998578289
20
2.6008871365739
30
0
41
1
10
0.0999999998578289
20
2.36479687409735
30
0
41
1
10
0.0999999998578289
20
1.87587821195811
30
0
41
1
10
0.0999999998578289
20
1.35480206289356
30
0
41
1
10
0.0999999998578289
20
1.08590568294923
30
0
0
SPLINE
5
EB
100
AcDbEntity
8
1
62
256
6
ByLayer
370
18
48
1
60
0
100
AcDbSpline
70
4
71
3
72
10
73
6
40
0
40
0
40
0
40
0
40
0.5
40
0.5
40
1
40
1
40
1
40
1
41
1
10
0.0999999998578289
20
-1.42724609062847
30
0
41
1
10
0.0999999998578289
20
-1.77073823206186
30
0
41
1
10
0.0999999998578289
20
-2.10285838530135
30
0
41
1
10
0.0999999998578289
20
-2.73278426266052
30
0
41
1
10
0.0999999998578289
20
-3.02689003741469
30
0
41
1
10
0.0999999998578289
20
-3.29577172424825
30
0
0
SPLINE
5
EC
100
AcDbEntity
8
1
62
256
6
ByLayer
370
18
48
1
60
0
100
AcDbSpline
70
4
71
3
72
22
73
18
40
0
40
0
40
0
40
0
40
0.25
40
0.25
40
0.375
40
0.375
40
0.4375
40
0.4375
40
0.5
40
0.5
40
0.75
40
0.75
40
0.8125
40
0.8125
40
0.875
40
0.875
40
1
40
1
40
1
40
1
41
1
10
4.18021329775326
20
-1.85282985077879
30
0
41
1
10
4.19911469189972
20
-1.49960561084862
30
0
41
1
10
4.21697504272535
20
-1.15876861723839
30
0
41
1
10
4.24238465100038
20
-0.665384165338452
30
0
41
1
10
4.25062242023677
20
-0.503926759761271
30
0
41
1
10
4.26263795147409
20
-0.266391467465923
30
0
41
1
10
4.26658674604462
20
-0.187975889175505
30
0
41
1
10
4.27427832131332
20
-0.0345907622476602
30
0
41
1
10
4.27803348360939
20
0.040622843973722
30
0
41
1
10
4.29637201474483
20
0.4094204656204
30
0
41
1
10
4.30965642518166
20
0.681437837098031
30
0
41
1
10
4.32464407308836
20
0.99218439071862
30
0
41
1
10
4.32756631909319
20
1.05298821171792
30
0
41
1
10
4.33321095676672
20
1.17080220868667
30
0
41
1
10
4.33593251038138
20
1.22779360980155
30
0
41
1
10
4.34380312339704
20
1.39306173770737
30
0
41
1
10
4.34865888167266
20
1.49564883845642
30
0
41
1
10
4.35313580738287
20
1.59055552291673
30
0
0
SPLINE
5
ED
100
AcDbEntity
8
1
62
256
6
ByLayer
370
18
48
1
60
0
100
AcDbSpline
70
4
71
3
72
10
73
6
40
0
40
0
40
0
40
0
40
0.395608037205869
40
0.395608037205869
40
1
40
1
40
1
40
1
41
1
10
4.35313580738287
20
1.59055552291673
30
0
41
1
10
4.36102731231864
20
1.7578481289012
30
0
41
1
10
4.36845955439179
20
1.9251471301051
30
0
41
1
10
4.38568974313677
20
2.34805420606838
30
0
41
1
10
4.39466495243713
20
2.60367421859593
30
0
41
1
10
4.40153448948862
20
2.85930906504333
30
0
0
SPLINE
5
EE
100
AcDbEntity
8
1
62
256
6
ByLayer
370
18
48
1
60
0
100
AcDbSpline
70
4
71
3
72
12
73
8
40
0
40
0
40
0
40
0
40
0.384281312995344
40
0.384281312995344
40
0.692137241839781
40
0.692137241839781
40
1
40
1
40
1
40
1
41
1
10
5.36977137648671
20
3.41993727989953
30
0
41
1
10
5.37310121092116
20
3.18557197111664
30
0
41
1
10
5.37863466861361
20
2.9512137290088
30
0
41
1
10
5.39169828914194
20
2.52913723412328
30
0
41
1
10
5.39859944029339
20
2.34141018953497
30
0
41
1
10
5.41400816826902
20
1.96597197265945
30
0
41
1
10
5.42251327850309
20
1.77825967705669
30
0
41
1
10
5.4315840016352
20
1.59055552291673
30
0
0
SPLINE
5
EF
100
AcDbEntity
8
1
62
256
6
ByLayer
370
18
48
1
60
0
100
AcDbSpline
70
4
71
3
72
14
73
10
40
0
40
0
40
0
40
0
40
0.5
40
0.5
40
0.75
40
0.75
40
0.875
40
0.875
40
1
40
1
40
1
40
1
41
1
10
5.4315840016352
20
1.59055552291673
30
0
41
1
10
5.44030481814264
20
1.41009212853348
30
0
41
1
10
5.45032240357114
20
1.20356028948009
30
0
41
1
10
5.46738250060665
20
0.856270201655605
30
0
41
1
10
5.47341034672834
20
0.734208943132785
30
0
41
1
10
5.48299707377035
20
0.541429875359626
30
0
41
1
10
5.48628962415359
20
0.475433398514326
30
0
41
1
10
5.49302897960951
20
0.340834125076498
30
0
41
1
10
5.49647532151008
20
0.272239600606895
30
0
41
1
10
5.49999999985783
20
0.202348845256466
30
0
0
SPLINE
5
F0
100
AcDbEntity
8
1
62
256
6
ByLayer
370
18
48
1
60
0
100
AcDbSpline
70
4
71
3
72
8
73
4
40
0
40
0
40
0
40
0
40
1
40
1
40
1
40
1
41
1
10
5.57936265633126
20
-1.32891692054835
30
0
41
1
10
5.58849796588547
20
-1.50041450903859
30
0
41
1
10
5.59788392255672
20
-1.67501158520338
30
0
41
1
10
5.60754113866079
20
-1.85282985077879
30
0
0
SPLINE
5
F1
100
AcDbEntity
8
SK1
62
256
6
ByLayer
370
18
48
1
60
0
100
AcDbSpline
70
4
71
3
72
8
73
4
40
0
40
0
40
0
40
0
40
1
40
1
40
1
40
1
41
1
10
-2.19449E-11
20
4.89482160550262
30
0
41
1
10
-0.114640065998478
20
4.87942489607974
30
0
41
1
10
-0.22940654817285
20
4.8629629962659
30
0
41
1
10
-0.34428197887425
20
4.84545851921973
30
0
0
SPLINE
5
F2
100
AcDbEntity
8
1
62
256
6
ByLayer
370
18
48
1
60
0
100
AcDbSpline
70
4
71
3
72
8
73
4
40
0
40
0
40
0
40
0
40
1
40
1
40
1
40
1
41
0.999107361904044
10
-2.02778E-11
20
2.0309573557269
30
0
41
0.99930172624873
10
0.0337757317156173
20
2.02768722518691
30
0
41
0.999599272280716
10
0.0671123740900315
20
2.0239989194966
30
0
41
1
10
0.0999999998578289
20
2.01989395363185
30
0
0
SPLINE
5
F3
100
AcDbEntity
8
SK1
62
256
6
ByLayer
370
18
48
1
60
0
100
AcDbSpline
70
4
71
3
72
8
73
4
40
0
40
0
40
0
40
0
40
1
40
1
40
1
40
1
41
0.997474396458454
10
-1.66407E-11
20
1.14086912549353
30
0
41
0.991472698449779
10
-0.276505625219865
20
0.977305270505
30
0
41
0.992314566296961
10
-0.578594528303364
20
0.799820025263068
30
0
41
1
10
-0.900000000142171
20
0.612092445573069
30
0
0
SPLINE
5
F4
100
AcDbEntity
8
1
62
256
6
ByLayer
370
18
48
1
60
0
100
AcDbSpline
70
4
71
3
72
8
73
4
40
0
40
0
40
0
40
0
40
1
40
1
40
1
40
1
41
1
10
-2.1969E-11
20
1.02757627858533
30
0
41
1
10
0.0333480635759616
20
1.04702314241434
30
0
41
1
10
0.0666814264275493
20
1.06646628468505
30
0
41
1
10
0.0999999998578289
20
1.08590568294923
30
0
0
SPLINE
5
F5
100
AcDbEntity
8
SK1
62
256
6
ByLayer
370
18
48
1
60
0
100
AcDbSpline
70
4
71
3
72
8
73
4
40
0
40
0
40
0
40
0
40
1
40
1
40
1
40
1
41
1
10
-2.4077E-11
20
-1.37009726934349
30
0
41
1
10
-0.114646250989444
20
-1.30456621064239
30
0
41
1
10
-0.229407660901858
20
-1.23892789128507
30
0
41
1
10
-0.34428197887425
20
-1.17318440777959
30
0
0
SPLINE
5
F6
100
AcDbEntity
8
SK1
62
256
6
ByLayer
370
18
48
1
60
0
100
AcDbSpline
70
4
71
3
72
8
73
4
40
0
40
0
40
0
40
0
40
1
40
1
40
1
40
1
41
0.99910736190404
10
-2.08141E-11
20
-2.04545599611416
30
0
41
0.998546871558955
10
-0.097473034465846
20
-2.05007417374345
30
0
41
0.998844417590942
10
-0.198374789214096
20
-2.05117246855409
30
0
41
1
10
-0.302442471530924
20
-2.04875119539685
30
0
0
SPLINE
5
F7
100
AcDbEntity
8
1
62
256
6
ByLayer
370
18
48
1
60
0
100
AcDbSpline
70
4
71
3
72
8
73
4
40
0
40
0
40
0
40
0
40
1
40
1
40
1
40
1
41
1
10
2.05039E-11
20
-4.79844071025602
30
0
41
1
10
0.0333502260332765
20
-4.80366052129563
30
0
41
1
10
0.066683847324499
20
-4.80875983869828
30
0
41
1
10
0.0999999998578289
20
-4.81373783033848
30
0
0
INSERT
5
118
100
AcDbEntity
8
2
62
256
6
ByLayer
370
25
48
1
60
0
100
AcDbBlockReference
2
DimnDraft3D33
10
0
20
0
30
0
41
1
42
1
43
1
50
0
210
0
220
0
230
1
0
LINE
5
76
100
AcDbEntity
8
1
62
256
6
ByLayer
370
18
48
1
60
0
100
AcDbLine
10
4.268119
20
-6.530307
30
0
11
5.5
21
-6.530307
31
0
39
0
210
0
220
0
230
1
0
LINE
5
77
100
AcDbEntity
8
1
62
256
6
ByLayer
370
18
48
1
60
0
100
AcDbLine
10
5.708841
20
-3.961291
30
0
11
4.090165
21
-3.961291
31
0
39
0
210
0
220
0
230
1
0
LINE
5
78
100
AcDbEntity
8
1
62
256
6
ByLayer
370
18
48
1
60
0
100
AcDbLine
10
5.607541
20
-1.85283
30
0
11
4.180213
21
-1.85283
31
0
39
0
210
0
220
0
230
1
0
LINE
5
79
100
AcDbEntity
8
1
62
256
6
ByLayer
370
18
48
1
60
0
100
AcDbLine
10
5.5
20
4.004388
30
0
11
0.1
21
4.004388
31
0
39
0
210
0
220
0
230
1
0
LINE
5
7A
100
AcDbEntity
8
1
62
256
6
ByLayer
370
18
48
1
60
0
100
AcDbLine
10
0.1
20
4.004388
30
0
11
0.1
21
3.816216
31
0
39
0
210
0
220
0
230
1
0
LINE
5
7B
100
AcDbEntity
8
1
62
256
6
ByLayer
370
18
48
1
60
0
100
AcDbLine
10
5.369771
20
3.419937
30
0
11
5.5
21
3.417003
31
0
39
0
210
0
220
0
230
1
0
LINE
5
7C
100
AcDbEntity
8
1
62
256
6
ByLayer
370
13
48
1
60
0
100
AcDbLine
10
5.5
20
3.816216
30
0
11
0.1
21
3.816216
31
0
39
0
210
0
220
0
230
1
0
LINE
5
7D
100
AcDbEntity
8
1
62
256
6
ByLayer
370
18
48
1
60
0
100
AcDbLine
10
0.1
20
3.816216
30
0
11
0.1
21
2.600887
31
0
39
0
210
0
220
0
230
1
0
LINE
5
7E
100
AcDbEntity
8
1
62
256
6
ByLayer
370
13
48
1
60
0
100
AcDbLine
10
5.431584
20
1.590556
30
0
11
4.353136
21
1.590556
31
0
39
0
210
0
220
0
230
1
0
LINE
5
7F
100
AcDbEntity
8
1
62
256
6
ByLayer
370
18
48
1
60
0
100
AcDbLine
10
4.074653
20
-3.780159
30
0
11
0.1
21
-3.780159
31
0
39
0
210
0
220
0
230
1
0
LINE
5
80
100
AcDbEntity
8
1
62
256
6
ByLayer
370
18
48
1
60
0
100
AcDbLine
10
0.1
20
-3.780159
30
0
11
0.1
21
-3.973264
31
0
39
0
210
0
220
0
230
1
0
LINE
5
81
100
AcDbEntity
8
SK1
62
256
6
ByLayer
370
18
48
1
60
0
100
AcDbLine
10
-0.9
20
-0.83483
30
0
11
-0.9
21
0.524341
31
0
39
0
210
0
220
0
230
1
0
LINE
5
83
100
AcDbEntity
8
SK1
62
256
6
ByLayer
370
18
48
1
60
0
100
AcDbLine
10
-0.9
20
0.524341
30
0
11
-0.9
21
0.612092
31
0
39
0
210
0
220
0
230
1
0
LINE
5
84
100
AcDbEntity
8
SK1
62
256
6
ByLayer
370
18
48
1
60
0
100
AcDbLine
10
-0.9
20
-4.132739
30
0
11
-0.9
21
-2.000414
31
0
39
0
210
0
220
0
230
1
0
LINE
5
85
100
AcDbEntity
8
SK1
62
256
6
ByLayer
370
18
48
1
60
0
100
AcDbLine
10
-0.9
20
-2.000414
30
0
11
-0.9
21
-1.279724
31
0
39
0
210
0
220
0
230
1
0
LINE
5
86
100
AcDbEntity
8
SK1
62
256
6
ByLayer
370
18
48
1
60
0
100
AcDbLine
10
-0.9
20
1.388322
30
0
11
-0.9
21
2.026803
31
0
39
0
210
0
220
0
230
1
0
LINE
5
87
100
AcDbEntity
8
SK1
62
256
6
ByLayer
370
18
48
1
60
0
100
AcDbLine
10
-0.9
20
4.246879
30
0
11
-0.9
21
2.026803
31
0
39
0
210
0
220
0
230
1
0
LINE
5
88
100
AcDbEntity
8
SK1
62
256
6
ByLayer
370
13
48
1
60
0
100
AcDbLine
10
-0.302442
20
-2.048751
30
0
11
-0.107577
21
-2.048751
31
0
39
0
210
0
220
0
230
1
0
LINE
5
89
100
AcDbEntity
8
1
62
256
6
ByLayer
370
18
48
1
60
0
100
AcDbLine
10
0.1
20
4.962928
30
0
11
0.1
21
4.004388
31
0
39
0
210
0
220
0
230
1
0
LINE
5
8A
100
AcDbEntity
8
1
62
256
6
ByLayer
370
18
48
1
60
0
100
AcDbLine
10
5.5
20
4.522741
30
0
11
5.615805
21
4.590364
31
0
39
0
210
0
220
0
230
1
0
LINE
5
8B
100
AcDbEntity
8
1
62
256
6
ByLayer
370
18
48
1
60
0
100
AcDbLine
10
5.5
20
5.012305
30
0
11
5.5
21
4.004388
31
0
39
0
210
0
220
0
230
1
0
LINE
5
8C
100
AcDbEntity
8
1
62
256
6
ByLayer
370
18
48
1
60
0
100
AcDbLine
10
5.5
20
4.004388
30
0
11
5.5
21
3.816216
31
0
39
0
210
0
220
0
230
1
0
LINE
5
8D
100
AcDbEntity
8
1
62
256
6
ByLayer
370
18
48
1
60
0
100
AcDbLine
10
5.5
20
3.816216
30
0
11
5.5
21
3.417003
31
0
39
0
210
0
220
0
230
1
0
LINE
5
8E
100
AcDbEntity
8
1
62
256
6
ByLayer
370
18
48
1
60
0
100
AcDbLine
10
4.121876
20
5.670949
30
0
11
5.668773
21
5.670949
31
0
39
0
210
0
220
0
230
1
0
LINE
5
8F
100
AcDbEntity
8
1
62
256
6
ByLayer
370
18
48
1
60
0
100
AcDbLine
10
5.65
20
8.85
30
0
11
4.14
21
8.85
31
0
39
0
210
0
220
0
230
1
0
LINE
5
90
100
AcDbEntity
8
1
62
256
6
ByLayer
370
13
48
1
60
0
100
AcDbLine
10
4.063516
20
-3.973264
30
0
11
0.1
21
-3.973264
31
0
39
0
210
0
220
0
230
1
0
LINE
5
91
100
AcDbEntity
8
1
62
256
6
ByLayer
370
18
48
1
60
0
100
AcDbLine
10
0.1
20
-3.973264
30
0
11
0.1
21
-5.049961
31
0
39
0
210
0
220
0
230
1
0
LINE
5
92
100
AcDbEntity
8
1
62
256
6
ByLayer
370
13
48
1
60
0
100
AcDbLine
10
5.431584
20
-5.945045
30
0
11
4.353136
21
-5.945045
31
0
39
0
210
0
220
0
230
1
0
LINE
5
93
100
AcDbEntity
8
1
62
256
6
ByLayer
370
18
48
1
60
0
100
AcDbLine
10
0.1
20
-3.295772
30
0
11
0.1
21
-3.780159
31
0
39
0
210
0
220
0
230
1
0
LINE
5
94
100
AcDbEntity
8
1
62
256
6
ByLayer
370
18
48
1
60
0
100
AcDbLine
10
5.65
20
-4.425
30
0
11
4.14
21
-4.425
31
0
39
0
210
0
220
0
230
1
0
LINE
5
95
100
AcDbEntity
8
1
62
256
6
ByLayer
370
18
48
1
60
0
100
AcDbLine
10
5.369771
20
3.419937
30
0
11
5.370102
21
3.4049
31
0
39
0
210
0
220
0
230
1
0
LINE
5
96
100
AcDbEntity
8
1
62
256
6
ByLayer
370
18
48
1
60
0
100
AcDbLine
10
5.370102
20
3.4049
30
0
11
5.5
21
3.406285
31
0
39
0
210
0
220
0
230
1
0
LINE
5
97
100
AcDbEntity
8
1
62
256
6
ByLayer
370
18
48
1
60
0
100
AcDbLine
10
5.5
20
3.406285
30
0
11
5.5
21
3.417003
31
0
39
0
210
0
220
0
230
1
0
LINE
5
98
100
AcDbEntity
8
1
62
256
6
ByLayer
370
18
48
1
60
0
100
AcDbLine
10
5.5
20
0.202349
30
0
11
5.5
21
-0.957258
31
0
39
0
210
0
220
0
230
1
0
LINE
5
99
100
AcDbEntity
8
1
62
256
6
ByLayer
370
18
48
1
60
1
100
AcDbLine
10
5.65
20
8.85
30
0
11
5.884497
21
8.85
31
0
39
0
210
0
220
0
230
1
0
LINE
5
9A
100
AcDbEntity
8
1
62
256
6
ByLayer
370
18
48
1
60
1
100
AcDbLine
10
5.748563
20
8.746486
30
0
11
5.748563
21
8.908322
31
0
39
0
210
0
220
0
230
1
0
LINE
5
9B
100
AcDbEntity
8
81
62
256
6
ByLayer
370
18
48
1
60
0
100
AcDbLine
10
5.748563
20
8.85
30
0
11
6.004842
21
8.85
31
0
39
0
210
0
220
0
230
1
0
LINE
5
9C
100
AcDbEntity
8
1
62
256
6
ByLayer
370
18
48
1
60
0
100
AcDbLine
10
0
20
0
30
0
11
0
21
4.894822
31
0
39
0
210
0
220
0
230
1
0
LINE
5
9D
100
AcDbEntity
8
1
62
256
6
ByLayer
370
18
48
1
60
0
100
AcDbLine
10
0
20
0
30
0
11
0
21
-4.798441
31
0
39
0
210
0
220
0
230
1
0
LINE
5
9E
100
AcDbEntity
8
80
62
256
6
ByLayer
370
18
48
1
60
0
100
AcDbLine
10
0
20
0
30
0
11
-1.112373
21
0
31
0
39
0
210
0
220
0
230
1
0
LINE
5
9F
100
AcDbEntity
8
4
62
256
6
ByLayer
370
18
48
0.05
60
0
100
AcDbLine
10
0
20
0
30
0
11
6.70828
21
0
31
0
39
0
210
0
220
0
230
1
0
LINE
5
A1
100
AcDbEntity
8
SK4
62
256
6
ByLayer
370
18
48
0.05
60
0
100
AcDbLine
10
-1.112373
20
0
30
0
11
7.616225
21
0
31
0
39
0
210
0
220
0
230
1
0
MTEXT
5
F8
100
AcDbEntity
8
SK6
62
256
6
ByLayer
370
18
48
1
60
0
100
AcDbMText
10
-19.290919
20
-20.004434
30
0
210
0
220
0
230
1
1
\W0.7114;327R09-18 16000-GM
40
3.5
41
0
44
1.084337
50
0
71
7
72
5
7
iso_b_vert
0
DIMENSION
5
103
100
AcDbEntity
8
2
62
256
6
ByLayer
370
13
48
1
60
0
100
AcDbDimension
2
DimnDraft3D1
10
21.964442
20
-8.85
30
0
11
21.964442
21
-9.49374
31
0
70
32
71
5
72
1
41
1
210
0
220
0
230
1
3
Standard
100
AcDbAlignedDimension
13
5.748563
23
-8.85
33
0
14
0
24
0
34
0
50
90
100
AcDbRotatedDimension
1001
ACAD
1000
DSTYLE
1002
{
1070
    74
1070
     0
1070
   279
1070
     0
1070
   172
1070
     1
1070
   173
1070
     1
1070
   340
1005
F9
1070
    76
1070
     1
1070
   271
1070
     2
1070
   272
1070
     2
1070
    77
1070
     1
1070
    73
1070
     0
1070
   171
1070
     3
1070
   274
1070
     4
1070
   282
1070
     1
1070
   177
1070
     7
1070
   176
1070
     7
1070
   178
1070
     7
1070
    78
1070
     8
1070
    48
1040
-0.005
1070
    41
1041
3.5
1070
   147
1041
1.75
1070
    42
1041
1.5875
1070
    44
1041
2.0
1070
   140
1041
3.5
1070
   343
1005
0
1070
   344
1005
0
1002
}
0
DIMENSION
5
10E
100
AcDbEntity
8
SK2
62
256
6
ByLayer
370
13
48
1
60
0
100
AcDbDimension
2
DimnDraft3D2
10
-14.604131
20
4.5
30
0
11
-14.604131
21
-4.784868
31
0
70
32
71
5
72
1
41
1
210
0
220
0
230
1
3
Standard
100
AcDbAlignedDimension
13
-1.5875
23
-4.5
33
0
14
-1.5875
24
4.5
34
0
50
90
100
AcDbRotatedDimension
1001
ACAD
1000
DSTYLE
1002
{
1070
    74
1070
     0
1070
   279
1070
     0
1070
   172
1070
     1
1070
   173
1070
     1
1070
   340
1005
F9
1070
   271
1070
     2
1070
   272
1070
     2
1070
    77
1070
     1
1070
    73
1070
     0
1070
   171
1070
     3
1070
   274
1070
     4
1070
   177
1070
     7
1070
   176
1070
     7
1070
   178
1070
     7
1070
    78
1070
     8
1070
    48
1040
-0.005
1070
    41
1041
3.5
1070
   147
1041
1.75
1070
    42
1041
1.5875
1070
    44
1041
2.0
1070
   140
1041
3.5
1070
   343
1005
0
1070
   344
1005
0
1002
}
0
DIMENSION
5
122
100
AcDbEntity
8
2
62
256
6
ByLayer
370
13
48
1
60
0
100
AcDbDimension
2
DimnDraft3D4
10
5.748563
20
16.71553
30
0
11
10.290107
21
16.71553
31
0
70
32
71
5
72
1
41
1
210
0
220
0
230
1
3
Standard
100
AcDbAlignedDimension
13
4.041445
23
10.333331
33
0
14
5.748563
24
10.333986
34
0
50
0
100
AcDbRotatedDimension
1001
ACAD
1000
DSTYLE
1002
{
1070
   279
1070
     0
1070
   172
1070
     1
1070
   173
1070
     1
1070
   340
1005
F9
1070
   271
1070
     2
1070
   272
1070
     2
1070
    77
1070
     1
1070
    73
1070
     0
1070
   171
1070
     3
1070
   274
1070
     4
1070
   177
1070
     7
1070
   176
1070
     7
1070
   178
1070
     7
1070
    78
1070
     8
1070
    48
1040
-0.005
1070
    41
1041
3.5
1070
   147
1041
1.75
1070
    42
1041
1.5875
1070
    44
1041
2.0
1070
   140
1041
3.5
1070
   343
1005
0
1070
   344
1005
0
1002
}
0
DIMENSION
5
12C
100
AcDbEntity
8
2
62
256
6
ByLayer
370
13
48
1
60
0
100
AcDbDimension
2
DimnDraft3D5
10
-7.304729
20
8.85
30
0
11
-7.304729
21
12.547592
31
0
70
32
71
5
72
1
41
1
210
0
220
0
230
1
3
Standard
100
AcDbAlignedDimension
13
2.5525
23
5.35
33
0
14
2.5525
24
8.85
34
0
50
90
100
AcDbRotatedDimension
1001
ACAD
1000
DSTYLE
1002
{
1070
    74
1070
     0
1070
   279
1070
     0
1070
   172
1070
     1
1070
   173
1070
     1
1070
   340
1005
F9
1070
   271
1070
     1
1070
   272
1070
     2
1070
    77
1070
     1
1070
    73
1070
     0
1070
   171
1070
     3
1070
   274
1070
     4
1070
   177
1070
     7
1070
   176
1070
     7
1070
   178
1070
     7
1070
    78
1070
     8
1070
    48
1040
-0.005
1070
    41
1041
3.5
1070
   147
1041
1.75
1070
    42
1041
1.5875
1070
    44
1041
2.0
1070
   140
1041
3.5
1070
   343
1005
0
1070
   344
1005
0
1002
}
0
ENDSEC
0
SECTION
2
OBJECTS
0
DICTIONARY
5
197
330
0
100
AcDbDictionary
280
0
281
1
3
ACAD_GROUP
350
198
3
ACAD_MLINESTYLE
350
199
0
DICTIONARY
5
198
330
0
100
AcDbDictionary
280
0
281
1
0
DICTIONARY
5
199
330
0
100
AcDbDictionary
280
0
281
1
3
Standard
350
18
0
MLINESTYLE
5
18
330
199
100
AcDbMlineStyle
2
Standard
70
0
3

62
256
51
90
52
90
71
2
49
-0.5
62
256
6
ByLayer
49
0.5
62
256
6
ByLayer
0
RASTERVARIABLES
5
185
330

100
AcDbRasterVariables
90
0
70
1
71
1
72
1
0
ENDSEC
0
EOF
