0
SECTION
2
HEADER
9
$ACADVER
1
AC1015
9
$DWGCODEPAGE
3
ANSI_1252
9
$HANDSEED
5
1ae
9
$ANGBASE
50
0
9
$ANGDIR
70
0
9
$ATTMODE
70
1
9
$AUNITS
70
0
9
$AUPREC
70
0
9
$CECOLOR
62
256
9
$CELTSCALE
40
1
9
$CELTYPE
6
ByLayer
9
$CELWEIGHT
370
18
9
$CLAYER
8
0
9
$CMLJUST
70
0
9
$CMLSCALE
40
1
9
$CMLSTYLE
2
Standard
9
$DIMSTYLE
2
Standard
9
$TEXTSIZE
40
0.2
9
$TEXTSTYLE
7
Standard
9
$LUNITS
70
2
9
$LUPREC
70
4
9
$EXTNAMES
290
1
9
$INSUNITS
70
4
9
$LTSCALE
40
1
9
$LWDISPLAY
290
1
9
$PDMODE
70
0
9
$PDSIZE
40
0
9
$PLINEGEN
70
0
0
ENDSEC
0
SECTION
2
CLASSES
0
CLASS
1
RASTERVARIABLES
2
AcDbRasterVariables
3
ISM
90
0
280
0
281
0
0
ENDSEC
0
SECTION
2
TABLES
0
TABLE
2
VPORT
5
1a4
100
AcDbSymbolTable
0
VPORT
5
1
100
AcDbSymbolTableRecord
100
AcDbViewportTableRecord
2
*Active
70
0
10
0
20
0
11
1
21
1
12
-1
22
1
13
0
23
0
14
0.5
24
0.5
15
10
25
10
16
0
26
0
36
1
17
0
27
0
37
0
0
ENDTAB
0
TABLE
2
LTYPE
5
1a5
100
AcDbSymbolTable
0
LTYPE
5
14
100
AcDbSymbolTableRecord
100
AcDbLinetypeTableRecord
70
0
2
ByBlock
3

72
65
73
0
40
0
0
LTYPE
5
15
100
AcDbSymbolTableRecord
100
AcDbLinetypeTableRecord
70
0
2
ByLayer
3

72
65
73
0
40
0
0
LTYPE
5
16
100
AcDbSymbolTableRecord
100
AcDbLinetypeTableRecord
70
0
2
CONTINUOUS
3
Solid line
72
65
73
0
40
0
0
LTYPE
5
6A
100
AcDbSymbolTableRecord
100
AcDbLinetypeTableRecord
70
0
2
CENTER
3
____ _ ____ _ ____ _ ____
72
65
73
4
40
47.5
49
22
74
0
49
-8.5
74
0
49
8.5
74
0
49
-8.5
74
0
0
LTYPE
5
6B
100
AcDbSymbolTableRecord
100
AcDbLinetypeTableRecord
70
0
2
DASHED
3
__ __ __ __ __ __ __ __ __
72
65
73
2
40
25.72
49
12.86
74
0
49
-12.86
74
0
0
ENDTAB
0
TABLE
2
LAYER
5
1a6
100
AcDbSymbolTable
0
LAYER
5
10
100
AcDbSymbolTableRecord
100
AcDbLayerTableRecord
2
0
70
0
62
7
6
CONTINUOUS
290
1
370
-3
390
0
0
LAYER
5
6D
100
AcDbSymbolTableRecord
100
AcDbLayerTableRecord
2
81
70
0
62
-3
6
CONTINUOUS
290
1
370
-3
390
0
0
LAYER
5
6F
100
AcDbSymbolTableRecord
100
AcDbLayerTableRecord
2
1
70
0
62
4
6
CONTINUOUS
290
1
370
-3
390
0
0
LAYER
5
73
100
AcDbSymbolTableRecord
100
AcDbLayerTableRecord
2
80
70
0
62
-6
6
CONTINUOUS
290
1
370
-3
390
0
0
LAYER
5
A3
100
AcDbSymbolTableRecord
100
AcDbLayerTableRecord
2
4
70
0
62
-2
6
CENTER
290
1
370
-3
390
0
0
LAYER
5
107
100
AcDbSymbolTableRecord
100
AcDbLayerTableRecord
2
2
70
0
62
7
6
CONTINUOUS
290
1
370
-3
390
0
0
LAYER
5
190
100
AcDbSymbolTableRecord
100
AcDbLayerTableRecord
2
SK1
70
0
62
4
6
CONTINUOUS
290
1
370
-3
390
0
0
LAYER
5
191
100
AcDbSymbolTableRecord
100
AcDbLayerTableRecord
2
SK4
70
0
62
2
6
CENTER
290
1
370
-3
390
0
0
LAYER
5
192
100
AcDbSymbolTableRecord
100
AcDbLayerTableRecord
2
SK6
70
0
62
5
6
CONTINUOUS
290
1
370
-3
390
0
0
LAYER
5
193
100
AcDbSymbolTableRecord
100
AcDbLayerTableRecord
2
SK2
70
0
62
7
6
CONTINUOUS
290
1
370
-3
390
0
0
ENDTAB
0
TABLE
2
STYLE
5
1a7
100
AcDbSymbolTable
0
STYLE
5
11
100
AcDbSymbolTableRecord
100
AcDbTextStyleTableRecord
2
Standard
3
txt
70
0
71
0
40
0
41
1
42
0
50
0
0
STYLE
5
102
100
AcDbSymbolTableRecord
100
AcDbTextStyleTableRecord
2
iso_b_vert
3
simplex.shx
70
0
71
0
40
0
41
1
42
0
50
0
0
STYLE
5
103
100
AcDbSymbolTableRecord
100
AcDbTextStyleTableRecord
2
DWGDirectTextStyle
3
simplex
70
0
71
0
40
0
41
1
42
0
50
0
0
ENDTAB
0
TABLE
2
DIMSTYLE
5
1a8
100
AcDbSymbolTable
100
AcDbDimStyleTable
0
DIMSTYLE
105
27
100
AcDbSymbolTableRecord
100
AcDbDimStyleTableRecord
2
Standard
70
0
3
<>
41
0.18
42
0.0625
44
0.18
140
0.18
147
0.09
73
0
74
0
77
1
271
2
275
0
278
52
280
0
340
11
0
ENDTAB
0
TABLE
2
VIEW
5
1a9
100
AcDbSymbolTable
0
ENDTAB
0
TABLE
2
UCS
5
1aa
100
AcDbSymbolTable
0
ENDTAB
0
TABLE
2
APPID
5
1ab
100
AcDbSymbolTable
0
APPID
5
12
100
AcDbSymbolTableRecord
100
AcDbRegAppTableRecord
2
ACAD
70
0
0
ENDTAB
0
TABLE
2
BLOCK_RECORD
5
1ac
100
AcDbSymbolTable
0
BLOCK_RECORD
5
1F
100
AcDbSymbolTableRecord
100
AcDbBlockTableRecord
2
*Model_Space
340
0
70
0
0
BLOCK_RECORD
5
1B
100
AcDbSymbolTableRecord
100
AcDbBlockTableRecord
2
*Paper_Space
340
0
70
0
0
BLOCK_RECORD
5
23
100
AcDbSymbolTableRecord
100
AcDbBlockTableRecord
2
*Paper_Space0
340
0
70
0
0
BLOCK_RECORD
5
105
100
AcDbSymbolTableRecord
100
AcDbBlockTableRecord
2
DimnDraft3D1
340
0
70
0
0
BLOCK_RECORD
5
10E
100
AcDbSymbolTableRecord
100
AcDbBlockTableRecord
2
DimnDraft3D2
340
0
70
0
0
BLOCK_RECORD
5
119
100
AcDbSymbolTableRecord
100
AcDbBlockTableRecord
2
DimnDraft3D33
340
0
70
0
0
BLOCK_RECORD
5
123
100
AcDbSymbolTableRecord
100
AcDbBlockTableRecord
2
DimnDraft3D4
340
0
70
0
0
BLOCK_RECORD
5
12D
100
AcDbSymbolTableRecord
100
AcDbBlockTableRecord
2
DimnDraft3D5
340
0
70
0
0
ENDTAB
0
ENDSEC
0
SECTION
2
BLOCKS
0
BLOCK
5
20
100
AcDbEntity
8
0
100
AcDbBlockBegin
2
*Model_Space
70
0
10
0
20
0
30
0
3
*Model_Space
0
ENDBLK
5
21
100
AcDbEntity
8
0
100
AcDbBlockEnd
0
BLOCK
5
1C
100
AcDbEntity
8
0
100
AcDbBlockBegin
2
*Paper_Space
70
0
10
0
20
0
30
0
3
*Paper_Space
0
ENDBLK
5
1D
100
AcDbEntity
8
0
100
AcDbBlockEnd
0
BLOCK
5
24
100
AcDbEntity
8
0
100
AcDbBlockBegin
2
*Paper_Space0
70
0
10
0
20
0
30
0
3
*Paper_Space0
0
ENDBLK
5
25
100
AcDbEntity
8
0
100
AcDbBlockEnd
0
BLOCK
5
10B
100
AcDbEntity
8
0
100
AcDbBlockBegin
2
DimnDraft3D1
70
0
10
0
20
0
30
0
3
DimnDraft3D1
0
MTEXT
5
106
100
AcDbEntity
8
2
62
256
6
ByLayer
370
18
48
1
60
0
100
AcDbMText
10
17.759895
20
-6.636184
30
0
210
0
220
0
230
1
1
\W1.0454;%%c17,7
40
3.5
41
0
44
1.084337
50
90
71
7
72
5
7
iso_b_vert
0
LINE
5
108
100
AcDbEntity
8
2
62
256
6
ByLayer
370
13
48
1
60
0
100
AcDbLine
10
7.923038
20
8.85
30
0
11
21.509895
21
8.85
31
0
39
0
210
0
220
0
230
1
0
LINE
5
109
100
AcDbEntity
8
2
62
256
6
ByLayer
370
13
48
1
60
0
100
AcDbLine
10
19.509895
20
8.85
30
0
11
19.509895
21
-9.011184
31
0
39
0
210
0
220
0
230
1
0
SOLID
5
10A
100
AcDbEntity
8
2
62
256
6
ByLayer
370
13
48
1
60
0
100
AcDbTrace
10
19.509895
20
8.85
30
0
11
19.970679
21
5.350002
31
0
12
19.049111
22
5.349998
32
0
13
19.509895
23
8.85
33
0
39
0
210
0
220
0
230
1
0
ENDBLK
5
10C
100
AcDbEntity
8
0
100
AcDbBlockEnd
0
BLOCK
5
116
100
AcDbEntity
8
0
100
AcDbBlockBegin
2
DimnDraft3D2
70
0
10
0
20
0
30
0
3
DimnDraft3D2
0
MTEXT
5
10F
100
AcDbEntity
8
SK2
62
256
6
ByLayer
370
18
48
1
60
0
100
AcDbMText
10
-11.281513
20
-3.909868
30
0
210
0
220
0
230
1
1
\W1.6313;%%c9
40
3.5
41
0
44
1.084337
50
90
71
7
72
5
7
iso_b_vert
0
LINE
5
111
100
AcDbEntity
8
SK2
62
256
6
ByLayer
370
13
48
1
60
0
100
AcDbLine
10
-1.5875
20
4.5
30
0
11
-11.531513
21
4.5
31
0
39
0
210
0
220
0
230
1
0
LINE
5
112
100
AcDbEntity
8
SK2
62
256
6
ByLayer
370
13
48
1
60
0
100
AcDbLine
10
-1.5875
20
-4.5
30
0
11
-11.531513
21
-4.5
31
0
39
0
210
0
220
0
230
1
0
LINE
5
113
100
AcDbEntity
8
SK2
62
256
6
ByLayer
370
13
48
1
60
0
100
AcDbLine
10
-9.531513
20
-4.784868
30
0
11
-9.531513
21
4.784868
31
0
39
0
210
0
220
0
230
1
0
SOLID
5
114
100
AcDbEntity
8
SK2
62
256
6
ByLayer
370
13
48
1
60
0
100
AcDbTrace
10
-9.531513
20
4.5
30
0
11
-9.07073
21
1.000002
31
0
12
-9.992297
22
0.999998
32
0
13
-9.531513
23
4.5
33
0
39
0
210
0
220
0
230
1
0
SOLID
5
115
100
AcDbEntity
8
SK2
62
256
6
ByLayer
370
13
48
1
60
0
100
AcDbTrace
10
-9.531513
20
-4.5
30
0
11
-9.992297
21
-1.000002
31
0
12
-9.07073
22
-0.999998
32
0
13
-9.531513
23
-4.5
33
0
39
0
210
0
220
0
230
1
0
ENDBLK
5
117
100
AcDbEntity
8
0
100
AcDbBlockEnd
0
BLOCK
5
11A
100
AcDbEntity
8
0
100
AcDbBlockBegin
2
DimnDraft3D33
70
0
10
0
20
0
30
0
3
DimnDraft3D33
0
LINE
5
11C
100
AcDbEntity
8
2
62
256
6
ByLayer
370
25
48
1
60
0
100
AcDbLine
10
5.75
20
10.4375
30
0
11
5.75
21
22.265496
31
0
39
0
210
0
220
0
230
1
0
LINE
5
11D
100
AcDbEntity
8
2
62
256
6
ByLayer
370
25
48
1
60
0
100
AcDbLine
10
0
20
6.48262
30
0
11
0
21
22.265496
31
0
39
0
210
0
220
0
230
1
0
LINE
5
11E
100
AcDbEntity
8
2
62
256
6
ByLayer
370
25
48
1
60
0
100
AcDbLine
10
-8.75
20
20.265496
30
0
11
16.808457
21
20.265496
31
0
39
0
210
0
220
0
230
1
0
SOLID
5
11F
100
AcDbEntity
8
2
62
256
6
ByLayer
370
25
48
1
60
0
100
AcDbTrace
10
5.75
20
20.265496
30
0
11
9.249998
21
20.72628
31
0
12
9.250002
22
19.804713
32
0
13
5.75
23
20.265496
33
0
39
0
210
0
220
0
230
1
0
SOLID
5
120
100
AcDbEntity
8
2
62
256
6
ByLayer
370
25
48
1
60
0
100
AcDbTrace
10
0
20
20.265496
30
0
11
-3.499998
21
19.804713
31
0
12
-3.500002
22
20.72628
32
0
13
0
23
20.265496
33
0
39
0
210
0
220
0
230
1
0
MTEXT
5
121
100
AcDbEntity
8
2
62
256
6
ByLayer
370
18
48
1
60
0
100
AcDbMText
10
9.836089
20
21.140496
30
0
210
0
220
0
230
1
1
\W0.7003;5,75
40
3.5
41
0
44
1.084337
50
0
71
7
72
5
7
iso_b_vert
0
ENDBLK
5
11B
100
AcDbEntity
8
0
100
AcDbBlockEnd
0
BLOCK
5
12A
100
AcDbEntity
8
0
100
AcDbBlockBegin
2
DimnDraft3D4
70
0
10
0
20
0
30
0
3
DimnDraft3D4
0
MTEXT
5
124
100
AcDbEntity
8
2
62
256
6
ByLayer
370
18
48
1
60
0
100
AcDbMText
10
10.832175
20
14.552582
30
0
210
0
220
0
230
1
1
\W0.5585;1,5
40
3.5
41
0
44
1.084337
50
0
71
7
72
5
7
iso_b_vert
0
LINE
5
125
100
AcDbEntity
8
2
62
256
6
ByLayer
370
13
48
1
60
0
100
AcDbLine
10
5.75
20
10.4375
30
0
11
5.75
21
15.677582
31
0
39
0
210
0
220
0
230
1
0
LINE
5
126
100
AcDbEntity
8
2
62
256
6
ByLayer
370
13
48
1
60
0
100
AcDbLine
10
4.253391
20
10.235697
30
0
11
4.253391
21
15.677582
31
0
39
0
210
0
220
0
230
1
0
LINE
5
127
100
AcDbEntity
8
2
62
256
6
ByLayer
370
13
48
1
60
0
100
AcDbLine
10
-4.496609
20
13.677582
30
0
11
14.359807
21
13.677582
31
0
39
0
210
0
220
0
230
1
0
SOLID
5
128
100
AcDbEntity
8
2
62
256
6
ByLayer
370
13
48
1
60
0
100
AcDbTrace
10
5.75
20
13.677582
30
0
11
9.249998
21
14.138366
31
0
12
9.250002
22
13.216798
32
0
13
5.75
23
13.677582
33
0
39
0
210
0
220
0
230
1
0
SOLID
5
129
100
AcDbEntity
8
2
62
256
6
ByLayer
370
13
48
1
60
0
100
AcDbTrace
10
4.253391
20
13.677582
30
0
11
0.753393
21
13.216798
31
0
12
0.75339
22
14.138366
32
0
13
4.253391
23
13.677582
33
0
39
0
210
0
220
0
230
1
0
ENDBLK
5
12B
100
AcDbEntity
8
0
100
AcDbBlockEnd
0
BLOCK
5
134
100
AcDbEntity
8
0
100
AcDbBlockBegin
2
DimnDraft3D5
70
0
10
0
20
0
30
0
3
DimnDraft3D5
0
MTEXT
5
12E
100
AcDbEntity
8
2
62
256
6
ByLayer
370
18
48
1
60
0
100
AcDbMText
10
-19.148856
20
14.756257
30
0
210
0
220
0
230
1
1
\W0.6702;3,5
40
3.5
41
0
44
1.084337
50
90
71
7
72
5
7
iso_b_vert
0
LINE
5
12F
100
AcDbEntity
8
2
62
256
6
ByLayer
370
13
48
1
60
0
100
AcDbLine
10
2.8625
20
8.85
30
0
11
-20.273856
21
8.85
31
0
39
0
210
0
220
0
230
1
0
LINE
5
130
100
AcDbEntity
8
2
62
256
6
ByLayer
370
13
48
1
60
0
100
AcDbLine
10
2.735997
20
5.345183
30
0
11
-20.273856
21
5.345183
31
0
39
0
210
0
220
0
230
1
0
LINE
5
131
100
AcDbEntity
8
2
62
256
6
ByLayer
370
13
48
1
60
0
100
AcDbLine
10
-18.273856
20
-3.404817
30
0
11
-18.273856
21
19.158889
31
0
39
0
210
0
220
0
230
1
0
SOLID
5
132
100
AcDbEntity
8
2
62
256
6
ByLayer
370
13
48
1
60
0
100
AcDbTrace
10
-18.273856
20
8.85
30
0
11
-18.73464
21
12.349998
31
0
12
-17.813073
22
12.350002
32
0
13
-18.273856
23
8.85
33
0
39
0
210
0
220
0
230
1
0
SOLID
5
133
100
AcDbEntity
8
2
62
256
6
ByLayer
370
13
48
1
60
0
100
AcDbTrace
10
-18.273856
20
5.345183
30
0
11
-17.813073
21
1.845184
31
0
12
-18.73464
22
1.845181
32
0
13
-18.273856
23
5.345183
33
0
39
0
210
0
220
0
230
1
0
ENDBLK
5
135
100
AcDbEntity
8
0
100
AcDbBlockEnd
0
ENDSEC
0
SECTION
2
ENTITIES
0
ELLIPSE
5
A6
100
AcDbEntity
8
1
62
256
6
ByLayer
370
13
48
1
60
0
100
AcDbEllipse
10
4.22932
20
-0.256121
30
0
11
0.523179239399051
21
8.63925199236829
31
0
210
0
220
0
230
1
40
0.034878
41
-2.05345864135292
42
-1.91308915976987
0
ELLIPSE
5
A7
100
AcDbEntity
8
1
62
256
6
ByLayer
370
18
48
1
60
0
100
AcDbEllipse
10
5.748906
20
-0.012045
30
0
11
0.522450990461113
21
8.62722642710452
31
0
210
0
220
0
230
1
40
0.034878
41
-2.2176960746574
42
-2.09748051561827
0
ELLIPSE
5
A8
100
AcDbEntity
8
1
62
256
6
ByLayer
370
13
48
1
60
0
100
AcDbEllipse
10
4.229441
20
0.256128
30
0
11
-0.522757586240824
21
8.63228923923701
31
0
210
0
220
0
230
1
40
0.034878
41
2.19503370766916
42
2.27841580015574
0
ELLIPSE
5
A9
100
AcDbEntity
8
1
62
256
6
ByLayer
370
13
48
1
60
0
100
AcDbEllipse
10
4.229441
20
-0.256128
30
0
11
0.522757586240818
21
8.632289239237
31
0
210
0
220
0
230
1
40
0.034878
41
-2.05325221701252
42
-1.90826352555783
0
ELLIPSE
5
AA
100
AcDbEntity
8
1
62
256
6
ByLayer
370
18
48
1
60
0
100
AcDbEllipse
10
4.354301
20
-0.26369
30
0
11
0.305817729306412
21
5.04996419629863
31
0
210
0
220
0
230
1
40
0.034878
41
-2.20425993756784
42
-0.903317768781482
0
ELLIPSE
5
AB
100
AcDbEntity
8
1
62
256
6
ByLayer
370
18
48
1
60
0
100
AcDbEllipse
10
5.599719
20
0.003011
30
0
11
-0.262947390417271
21
4.34204684643026
31
0
210
0
220
0
230
1
40
0.034878
41
0.729410345101499
42
1.75848790218146
0
ELLIPSE
5
AC
100
AcDbEntity
8
1
62
256
6
ByLayer
370
13
48
1
60
0
100
AcDbEllipse
10
5.748906
20
0.012045
30
0
11
-0.522450990461115
21
8.62722642710452
31
0
210
0
220
0
230
1
40
0.034878
41
1.96898325105617
42
2.08919881009529
0
ELLIPSE
5
AD
100
AcDbEntity
8
1
62
256
6
ByLayer
370
18
48
1
60
0
100
AcDbEllipse
10
4.22932
20
0.256121
30
0
11
-0.523179239399056
21
8.63925199236829
31
0
210
0
220
0
230
1
40
0.034878
41
2.19434282960896
42
2.27359016594369
0
POINT
5
6C
100
AcDbEntity
8
81
62
256
6
ByLayer
370
18
48
1
60
0
100
AcDbPoint
10
5.75
20
8.85
30
0
39
0
210
0
220
0
230
1
50
360
0
POINT
5
6E
100
AcDbEntity
8
1
62
256
6
ByLayer
370
18
48
1
60
1
100
AcDbPoint
10
5.75
20
-8.85
30
0
39
0
210
0
220
0
230
1
50
360
0
POINT
5
70
100
AcDbEntity
8
1
62
256
6
ByLayer
370
18
48
1
60
1
100
AcDbPoint
10
0
20
4.5
30
0
39
0
210
0
220
0
230
1
50
360
0
POINT
5
71
100
AcDbEntity
8
1
62
256
6
ByLayer
370
18
48
1
60
1
100
AcDbPoint
10
0
20
-4.5
30
0
39
0
210
0
220
0
230
1
50
360
0
POINT
5
72
100
AcDbEntity
8
80
62
256
6
ByLayer
370
18
48
1
60
0
100
AcDbPoint
10
0
20
0
30
0
39
0
210
0
220
0
230
1
50
360
0
POINT
5
74
100
AcDbEntity
8
1
62
256
6
ByLayer
370
18
48
1
60
1
100
AcDbPoint
10
4.323497
20
5.345183
30
0
39
0
210
0
220
0
230
1
50
360
0
SPLINE
5
AE
100
AcDbEntity
8
1
62
256
6
ByLayer
370
18
48
1
60
0
100
AcDbSpline
70
4
71
3
72
10
73
6
40
0
40
0
40
0
40
0
40
0.407648691096291
40
0.799166340953019
40
1
40
1
40
1
40
1
41
1
10
4.31336019373134
20
5.04226879540863
30
0
41
1
10
3.74074673177594
20
5.04172949087214
30
0
41
1
10
2.61825541512005
20
5.04124833785465
30
0
41
1
10
1.21378362968702
20
5.04177058303966
30
0
41
1
10
0.382005362284076
20
5.04298064426305
30
0
41
1
10
0.100008597919469
20
5.04347582624342
30
0
0
SPLINE
5
AF
100
AcDbEntity
8
1
62
256
6
ByLayer
370
18
48
1
60
0
100
AcDbSpline
70
4
71
3
72
8
73
4
40
0
40
0
40
0
40
0
40
1
40
1
40
1
40
1
41
1
10
5.746409021532
20
-4.36444306953476
30
0
41
1
10
5.74436225545875
20
-4.35139729910213
30
0
41
1
10
5.7423614446927
20
-4.3377596012599
30
0
41
1
10
5.74040617780722
20
-4.3235337614376
30
0
0
SPLINE
5
B0
100
AcDbEntity
8
1
62
256
6
ByLayer
370
18
48
1
60
0
100
AcDbSpline
70
4
71
3
72
8
73
4
40
0
40
0
40
0
40
0
40
1
40
1
40
1
40
1
41
1
10
5.68546325100698
20
-3.41901383738389
30
0
41
1
10
5.68437978030437
20
-3.37290629445965
30
0
41
1
10
5.68342464607807
20
-3.32568121048547
30
0
41
1
10
5.68259900224407
20
-3.2773420312449
30
0
0
SPLINE
5
B1
100
AcDbEntity
8
1
62
256
6
ByLayer
370
18
48
1
60
0
100
AcDbSpline
70
4
71
3
72
12
73
8
40
0
40
0
40
0
40
0
40
0.21164813934903
40
0.21164813934903
40
0.605824069674515
40
0.605824069674515
40
1
40
1
40
1
40
1
41
1
10
5.68172407810181
20
-3.2224390138966
30
0
41
1
10
5.68096199368716
20
-3.1709809171725
30
0
41
1
10
5.68034217676271
20
-3.11830429174154
30
0
41
1
10
5.67897901848127
20
-2.96404548410555
30
0
41
1
10
5.67859475911402
20
-2.85936375600616
30
0
41
1
10
5.67891068292653
20
-2.64150022300609
30
0
41
1
10
5.67960882254414
20
-2.52935303064993
30
0
41
1
10
5.6808754545541
20
-2.41398949621672
30
0
0
SPLINE
5
B2
100
AcDbEntity
8
1
62
256
6
ByLayer
370
18
48
1
60
0
100
AcDbSpline
70
4
71
3
72
10
73
6
40
0
40
0
40
0
40
0
40
0.513985700198205
40
0.513985700198205
40
1
40
1
40
1
40
1
41
1
10
5.68701065119015
20
-1.82493585219578
30
0
41
1
10
5.67586301970647
20
-1.87525221116815
30
0
41
1
10
5.66480112722385
20
-1.92561756437058
30
0
41
1
10
5.64347964725687
20
-2.02372159217765
30
0
41
1
10
5.63320916094162
20
-2.0714540887856
30
0
41
1
10
5.62304808936543
20
-2.11924889075203
30
0
0
SPLINE
5
B3
100
AcDbEntity
8
1
62
256
6
ByLayer
370
18
48
1
60
0
100
AcDbSpline
70
4
71
3
72
12
73
8
40
0
40
0
40
0
40
0
40
0.354393763369153
40
0.354393763369153
40
0.677193459964075
40
0.677193459964075
40
1
40
1
40
1
40
1
41
1
10
5.29685345859613
20
-4.42502124646421
30
0
41
1
10
5.30057134998512
20
-4.60460936413887
30
0
41
1
10
5.30588092030411
20
-4.7841912562678
30
0
41
1
10
5.31846169711108
20
-5.12732279165201
30
0
41
1
10
5.32550370273449
20
-5.29087667014622
30
0
41
1
10
5.34113273796788
20
-5.61797036214918
30
0
41
1
10
5.34971757163009
20
-5.78151110901754
30
0
41
1
10
5.35884965972534
20
-5.9450447315659
30
0
0
SPLINE
5
B4
100
AcDbEntity
8
1
62
256
6
ByLayer
370
18
48
1
60
0
100
AcDbSpline
70
4
71
3
72
18
73
14
40
0
40
0
40
0
40
0
40
0.25
40
0.25
40
0.5
40
0.5
40
0.5625
40
0.5625
40
0.625
40
0.625
40
0.75
40
0.75
40
1
40
1
40
1
40
1
41
1
10
5.35884965972534
20
-5.9450447315659
30
0
41
1
10
5.36592563308082
20
-6.07175830942509
30
0
41
1
10
5.37419635722105
20
-6.17754844042091
30
0
41
1
10
5.39313828158137
20
-6.34907077527274
30
0
41
1
10
5.4038088152285
20
-6.41480036605242
30
0
41
1
10
5.41876571833581
20
-6.47106521811835
30
0
41
1
10
5.42184172512384
20
-6.48101715258133
30
0
41
1
10
5.42810612875641
20
-6.49813688074127
30
0
41
1
10
5.43130054950115
20
-6.50533090389916
30
0
41
1
10
5.44107030099096
20
-6.52287010355292
30
0
41
1
10
5.44783184713395
20
-6.5291788380043
30
0
41
1
10
5.46887023001489
20
-6.53214869860386
30
0
41
1
10
5.48389580368809
20
-6.51295901931672
30
0
41
1
10
5.50000000000401
20
-6.47187735930717
30
0
0
SPLINE
5
B5
100
AcDbEntity
8
1
62
256
6
ByLayer
370
18
48
1
60
0
100
AcDbSpline
70
4
71
3
72
8
73
4
40
0
40
0
40
0
40
0
40
1
40
1
40
1
40
1
41
1
10
5.51100974939644
20
-6.4408635214881
30
0
41
1
10
5.52881976858606
20
-6.38607169825903
30
0
41
1
10
5.5474763136944
20
-6.30694649767199
30
0
41
1
10
5.5670251392969
20
-6.20351694145535
30
0
0
SPLINE
5
B6
100
AcDbEntity
8
1
62
256
6
ByLayer
370
18
48
1
60
0
100
AcDbSpline
70
4
71
3
72
8
73
4
40
0
40
0
40
0
40
0
40
1
40
1
40
1
40
1
41
1
10
5.67412325924761
20
-5.2263484738381
30
0
41
1
10
5.63689719345354
20
-5.55200067527198
30
0
41
1
10
5.60116012917894
20
-5.87772483650269
30
0
41
1
10
5.56702513929687
20
-6.20351694145535
30
0
0
SPLINE
5
B7
100
AcDbEntity
8
1
62
256
6
ByLayer
370
18
48
1
60
0
100
AcDbSpline
70
4
71
3
72
8
73
4
40
0
40
0
40
0
40
0
40
1
40
1
40
1
40
1
41
1
10
5.50000000000458
20
-6.26734518821189
30
0
41
1
10
5.50000000000404
20
-6.33551917802893
30
0
41
1
10
5.50000000000404
20
-6.4036966634765
30
0
41
1
10
5.50000000000404
20
-6.47187735930643
30
0
0
SPLINE
5
B8
100
AcDbEntity
8
1
62
256
6
ByLayer
370
18
48
1
60
0
100
AcDbSpline
70
4
71
3
72
18
73
14
40
0
40
0
40
0
40
0
40
0.0897576512198655
40
0.179745052813987
40
0.269962386709832
40
0.360409833447066
40
0.451087572190523
40
0.541995780743094
40
0.63313463555845
40
0.724504311753636
40
0.81610498312153
40
0.907936822143179
40
1
40
1
40
1
40
1
41
1
10
5.68701065119015
20
-1.82493585219578
30
0
41
1
10
5.68667926706624
20
-1.84328756206202
30
0
41
1
10
5.6860156505829
20
-1.88003795619892
30
0
41
1
10
5.68512833036397
20
-1.93475728990549
30
0
41
1
10
5.6843184238748
20
-1.98924937930525
30
0
41
1
10
5.68359384165532
20
-2.04346527696492
30
0
41
1
10
5.68295246549499
20
-2.09739819708423
30
0
41
1
10
5.68239482941959
20
-2.1510301667204
30
0
41
1
10
5.68192092360263
20
-2.20434503100932
30
0
41
1
10
5.68153024939724
20
-2.25733001654956
30
0
41
1
10
5.68122481887053
20
-2.3099563756638
30
0
41
1
10
5.68099705568338
20
-2.36225555466396
30
0
41
1
10
5.68091602224359
20
-2.3967303926529
30
0
41
1
10
5.68087545455393
20
-2.41398949621771
30
0
0
SPLINE
5
B9
100
AcDbEntity
8
1
62
256
6
ByLayer
370
18
48
1
60
0
100
AcDbSpline
70
4
71
3
72
8
73
4
40
0
40
0
40
0
40
0
40
1
40
1
40
1
40
1
41
1
10
5.68701065119015
20
-1.82493585219578
30
0
41
0.999960931834246
10
5.6469069272921
20
-1.80374562350078
30
0
41
0.999946993083804
10
5.60680584396798
20
-1.78247502033636
30
0
41
0.999958183748675
10
5.56671042460501
20
-1.76112564296194
30
0
0
SPLINE
5
BA
100
AcDbEntity
8
1
62
256
6
ByLayer
370
18
48
1
60
0
100
AcDbSpline
70
4
71
3
72
8
73
4
40
0
40
0
40
0
40
0
40
1
40
1
40
1
40
1
41
1
10
5.60810417867256
20
-2.30111392085217
30
0
41
1
10
5.61302700846579
20
-2.24047191490377
30
0
41
1
10
5.61800796204682
20
-2.17985011652698
30
0
41
1
10
5.62304808936543
20
-2.11924889075203
30
0
0
SPLINE
5
BB
100
AcDbEntity
8
1
62
256
6
ByLayer
370
18
48
1
60
0
100
AcDbSpline
70
4
71
3
72
9
73
5
40
0
40
0
40
0
40
0
40
0.5
40
1
40
1
40
1
40
1
41
1
10
4.25361761196285
20
-4.27728350481905
30
0
41
1
10
4.2535595298983
20
-4.27808668035334
30
0
41
1
10
4.2534638443685
20
-4.2796921945548
30
0
41
1
10
4.2534087863915
20
-4.28129605161621
30
0
41
1
10
4.25339134213579
20
-4.28209756922013
30
0
0
SPLINE
5
BC
100
AcDbEntity
8
1
62
256
6
ByLayer
370
18
48
1
60
0
100
AcDbSpline
70
4
71
3
72
20
73
16
40
0
40
0
40
0
40
0
40
0.207097876698942
40
0.207097876698942
40
0.273173053640697
40
0.273173053640697
40
0.339248230582452
40
0.339248230582452
40
0.471398584465962
40
0.471398584465962
40
0.735699292232981
40
0.735699292232981
40
0.86784964611649
40
0.86784964611649
40
1
40
1
40
1
40
1
41
1
10
4.32119656898567
20
-3.2534067010134
30
0
41
1
10
4.32220783191852
20
-3.2533771470188
30
0
41
1
10
4.32190628635715
20
-3.26874266631339
30
0
41
1
10
4.31991199413906
20
-3.3090504096366
30
0
41
1
10
4.31930471747046
20
-3.32036027318512
30
0
41
1
10
4.31784049788462
20
-3.34614269234328
30
0
41
1
10
4.31698494338525
20
-3.36058822648269
30
0
41
1
10
4.31407407057685
20
-3.40823876733239
30
0
41
1
10
4.31167018753519
20
-3.44584488506979
30
0
41
1
10
4.30312186647987
20
-3.57576731980868
30
0
41
1
10
4.29565628726692
20
-3.68502704049359
30
0
41
1
10
4.28172099767428
20
-3.88413153237175
30
0
41
1
10
4.27665501784941
20
-3.95584494536411
30
0
41
1
10
4.2657409698775
20
-4.10903076327321
30
0
41
1
10
4.25988432378813
20
-4.19062560694519
30
0
41
1
10
4.25361761196285
20
-4.27728350481905
30
0
0
SPLINE
5
BD
100
AcDbEntity
8
1
62
256
6
ByLayer
370
18
48
1
60
0
100
AcDbSpline
70
4
71
3
72
9
73
5
40
0
40
0
40
0
40
0
40
0.5
40
1
40
1
40
1
40
1
41
1
10
4.42975945078214
20
-1.85282985077106
30
0
41
1
10
4.44801464678807
20
-1.58011066160069
30
0
41
1
10
4.48269206829991
20
-1.04925126138923
30
0
41
1
10
4.51398663932977
20
-0.546428202549379
30
0
41
1
10
4.52879478576014
20
-0.302327143928636
30
0
0
SPLINE
5
BE
100
AcDbEntity
8
1
62
256
6
ByLayer
370
18
48
1
60
0
100
AcDbSpline
70
4
71
3
72
16
73
12
40
0
40
0
40
0
40
0
40
0.25
40
0.25
40
0.5
40
0.5
40
0.625
40
0.625
40
0.75
40
0.75
40
1
40
1
40
1
40
1
41
1
10
4.52879478576014
20
-0.302327143928636
30
0
41
1
10
4.54055754065547
20
-0.108427054153566
30
0
41
1
10
4.55153105415576
20
0.0765785585491017
30
0
41
1
10
4.57200839342715
20
0.429491962556909
30
0
41
1
10
4.58151179906059
20
0.597397684818048
30
0
41
1
10
4.59469047918577
20
0.836279692792317
30
0
41
1
10
4.5989034381287
20
0.913737575826588
30
0
41
1
10
4.60696744974339
20
1.06420368612436
30
0
41
1
10
4.610802817603
20
1.13692445750684
30
0
41
1
10
4.62165084376971
20
1.34602963590189
30
0
41
1
10
4.62804321331546
20
1.47405035527987
30
0
41
1
10
4.63361732300237
20
1.59055552292446
30
0
0
SPLINE
5
BF
100
AcDbEntity
8
1
62
256
6
ByLayer
370
18
48
1
60
0
100
AcDbSpline
70
4
71
3
72
10
73
6
40
0
40
0
40
0
40
0
40
0.393941133263886
40
0.393941133263886
40
1
40
1
40
1
40
1
41
1
10
4.63361732300237
20
1.59055552292446
30
0
41
1
10
4.64177165393772
20
1.76099021940763
30
0
41
1
10
4.64944591945945
20
1.93143169885127
30
0
41
1
10
4.66729535289241
20
2.36410615166852
30
0
41
1
10
4.6765894856425
20
2.62635206384221
30
0
41
1
10
4.68366511773692
20
2.88861362628515
30
0
0
SPLINE
5
C0
100
AcDbEntity
8
1
62
256
6
ByLayer
370
18
48
1
60
0
100
AcDbSpline
70
4
71
3
72
10
73
6
40
0
40
0
40
0
40
0
40
0.5
40
0.5
40
1
40
1
40
1
40
1
41
1
10
3.35125980537279
20
2.85789446075674
30
0
41
1
10
2.81113757035277
20
2.80861797927105
30
0
41
1
10
2.26988348837278
20
2.76308445490722
30
0
41
1
10
1.18586547744147
20
2.67701095484387
30
0
41
1
10
0.64317902839997
20
2.63650840334086
30
0
41
1
10
0.10000000000403
20
2.59784850548411
30
0
0
SPLINE
5
C1
100
AcDbEntity
8
1
62
256
6
ByLayer
370
18
48
1
60
0
100
AcDbSpline
70
4
71
3
72
9
73
5
40
0
40
0
40
0
40
0
40
0.5
40
1
40
1
40
1
40
1
41
1
10
0.10000000000403
20
2.59784850548417
30
0
41
1
10
0.10000000000403
20
2.36211827795259
30
0
41
1
10
0.10000000000403
20
1.87405766662098
30
0
41
1
10
0.10000000000403
20
1.35411296613057
30
0
41
1
10
0.10000000000403
20
1.08585950973773
30
0
0
SPLINE
5
C2
100
AcDbEntity
8
1
62
256
6
ByLayer
370
18
48
1
60
0
100
AcDbSpline
70
4
71
3
72
14
73
10
40
0
40
0
40
0
40
0
40
0.500000000000001
40
0.500000000000001
40
0.750000000000001
40
0.750000000000001
40
0.875000000000001
40
0.875000000000001
40
1
40
1
40
1
40
1
41
1
10
0.10000000000403
20
-1.42724201745233
30
0
41
1
10
0.10000000000403
20
-1.77235906821954
30
0
41
1
10
0.10000000000403
20
-2.10060600006301
30
0
41
1
10
0.10000000000403
20
-2.56867982306937
30
0
41
1
10
0.10000000000403
20
-2.72062056870726
30
0
41
1
10
0.10000000000403
20
-2.94221920562003
30
0
41
1
10
0.10000000000403
20
-3.01507866487856
30
0
41
1
10
0.10000000000403
20
-3.15757909523316
30
0
41
1
10
0.100000000004059
20
-3.22735509008856
30
0
41
1
10
0.100000000004059
20
-3.29565296414489
30
0
0
SPLINE
5
C3
100
AcDbEntity
8
1
62
256
6
ByLayer
370
18
48
1
60
0
100
AcDbSpline
70
4
71
3
72
8
73
4
40
0
40
0
40
0
40
0
40
1
40
1
40
1
40
1
41
1
10
5.50000000000404
20
-6.45104701404895
30
0
41
0.99998965831892
10
5.50365118884427
20
-6.44775420805952
30
0
41
0.99998965831892
10
5.5073211432619
20
-6.4443596754341
30
0
41
1
10
5.51100974939644
20
-6.4408635214881
30
0
0
SPLINE
5
C4
100
AcDbEntity
8
1
62
256
6
ByLayer
370
18
48
1
60
0
100
AcDbSpline
70
4
71
3
72
10
73
6
40
0
40
0
40
0
40
0
40
0.0550937622972914
40
0.0550937622972914
40
1
40
1
40
1
40
1
41
1
10
5.51100974939644
20
-6.4408635214881
30
0
41
1
10
5.51080662651646
20
-6.43767997924226
30
0
41
1
10
5.51060355316309
20
-6.43449627502281
30
0
41
1
10
5.50691849996048
20
-6.37670632182946
30
0
41
1
10
5.50345110910149
20
-6.32205235199609
30
0
41
1
10
5.50000000000458
20
-6.26734518821189
30
0
0
SPLINE
5
C5
100
AcDbEntity
8
1
62
256
6
ByLayer
370
18
48
1
60
0
100
AcDbSpline
70
4
71
3
72
8
73
4
40
0
40
0
40
0
40
0
40
1
40
1
40
1
40
1
41
1
10
5.50000000000404
20
-0.957257910358322
30
0
41
0.99998965831892
10
5.50365118884427
20
-0.974728770398405
30
0
41
0.99998965831892
10
5.50732114326187
20
-0.992234364593512
30
0
41
1
10
5.51100974939644
20
-1.00977414983174
30
0
0
SPLINE
5
C6
100
AcDbEntity
8
1
62
256
6
ByLayer
370
18
48
1
60
0
100
AcDbSpline
70
4
71
3
72
8
73
4
40
0
40
0
40
0
40
0
40
1
40
1
40
1
40
1
41
1
10
5.51100974939644
20
-1.00977414983174
30
0
41
1
10
5.50732289282055
20
-0.952457307520859
30
0
41
1
10
5.50365232973584
20
-0.8951933646062
30
0
41
1
10
5.50000000000492
20
-0.837988668234743
30
0
0
SPLINE
5
C7
100
AcDbEntity
8
1
62
256
6
ByLayer
370
18
48
1
60
0
100
AcDbSpline
70
4
71
3
72
20
73
16
40
0
40
0
40
0
40
0
40
0.125000000000002
40
0.125000000000002
40
0.250000000000003
40
0.250000000000003
40
0.375000000000005
40
0.375000000000005
40
0.500000000000007
40
0.500000000000007
40
0.750000000000005
40
0.750000000000005
40
0.875000000000002
40
0.875000000000002
40
1
40
1
40
1
40
1
41
1
10
5.55000000000405
20
-4.42500000000007
30
0
41
1
10
5.56362533874892
20
-4.42500000000007
30
0
41
1
10
5.57700739184244
20
-4.4239906477147
30
0
41
1
10
5.60330153889186
20
-4.42002839045307
30
0
41
1
10
5.6163544817081
20
-4.4170196132651
30
0
41
1
10
5.64096425379651
20
-4.40925871385051
30
0
41
1
10
5.65258926098738
20
-4.40452196437286
30
0
41
1
10
5.67448281248477
20
-4.39336648900064
30
0
41
1
10
5.68462351007901
20
-4.38698647924278
30
0
41
1
10
5.71171465253045
20
-4.3662150324059
30
0
41
1
10
5.7258081703161
20
-4.34978155565219
30
0
41
1
10
5.73925383715223
20
-4.32375562878281
30
0
41
1
10
5.74253371663775
20
-4.31470193589158
30
0
41
1
10
5.74641473812019
20
-4.29666088759927
30
0
41
1
10
5.74707009945001
20
-4.28760487847683
30
0
41
1
10
5.746409021532
20
-4.27851417781579
30
0
0
SPLINE
5
C8
100
AcDbEntity
8
1
62
256
6
ByLayer
370
18
48
1
60
0
100
AcDbSpline
70
4
71
3
72
18
73
14
40
0
40
0
40
0
40
0
40
0.264348581592198
40
0.264348581592198
40
0.396522872388297
40
0.396522872388297
40
0.528697163184395
40
0.528697163184395
40
0.793045744776592
40
0.793045744776592
40
0.925220035572691
40
0.925220035572691
40
1
40
1
40
1
40
1
41
1
10
5.746409021532
20
-4.27851417781579
30
0
41
1
10
5.73376836792889
20
-4.10468837765868
30
0
41
1
10
5.7228805383422
20
-3.95234917220896
30
0
41
1
10
5.70903265567858
20
-3.75479885025698
30
0
41
1
10
5.70483421619591
20
-3.69414559098095
30
0
41
1
10
5.69729190835801
20
-3.58346332962401
30
0
41
1
10
5.69394080054767
20
-3.53331283703537
30
0
41
1
10
5.68540588131469
20
-3.40210995316849
30
0
41
1
10
5.6816398116587
20
-3.33897079485169
30
0
41
1
10
5.6789790184813
20
-3.28031737198353
30
0
41
1
10
5.67859475911402
20
-3.26681173143427
30
0
41
1
10
5.67884209078846
20
-3.25550377322031
30
0
41
1
10
5.67910436780176
20
-3.25344860591036
30
0
41
1
10
5.67954467980576
20
-3.25342461409935
30
0
0
SPLINE
5
C9
100
AcDbEntity
8
1
62
256
6
ByLayer
370
18
48
1
60
0
100
AcDbSpline
70
4
71
3
72
10
73
6
40
0
40
0
40
0
40
0
40
0.508787421056573
40
0.508787421056573
40
1
40
1
40
1
40
1
41
1
10
5.68701065118878
20
-3.27360532080047
30
0
41
1
10
5.67597576300594
20
-3.13825466791968
30
0
41
1
10
5.66502489374244
20
-3.00288990622738
30
0
41
1
10
5.6436993552114
20
-2.73680355223883
30
0
41
1
10
5.63331784094879
20
-2.60608299628083
30
0
41
1
10
5.62304808936543
20
-2.47534421654672
30
0
0
SPLINE
5
CA
100
AcDbEntity
8
1
62
256
6
ByLayer
370
18
48
1
60
0
100
AcDbSpline
70
4
71
3
72
12
73
8
40
0
40
0
40
0
40
0
40
0.388197348150205
40
0.388197348150205
40
0.694095431513992
40
0.694095431513992
40
1
40
1
40
1
40
1
41
1
10
5.29523179325514
20
3.40110528586558
30
0
41
1
10
5.29894672687868
20
3.16678751001959
30
0
41
1
10
5.30485445067086
20
2.93247780703317
30
0
41
1
10
5.31846169711108
20
2.51356480207036
30
0
41
1
10
5.32550370273449
20
2.32895223376096
30
0
41
1
10
5.34113273796788
20
1.95974297309147
30
0
41
1
10
5.34971757163009
20
1.77514522719528
30
0
41
1
10
5.35884965972534
20
1.59055552292446
30
0
0
SPLINE
5
CB
100
AcDbEntity
8
1
62
256
6
ByLayer
370
18
48
1
60
0
100
AcDbSpline
70
4
71
3
72
16
73
12
40
0
40
0
40
0
40
0
40
0.25
40
0.25
40
0.5
40
0.5
40
0.625
40
0.625
40
0.75
40
0.75
40
1
40
1
40
1
40
1
41
1
10
5.35884965972534
20
1.59055552292446
30
0
41
1
10
5.36461359486731
20
1.47404732981536
30
0
41
1
10
5.37117191366298
20
1.34661424750607
30
0
41
1
10
5.38587450735199
20
1.07078798200578
30
0
41
1
10
5.39401869475225
20
0.922391932723627
30
0
41
1
10
5.40748025070624
20
0.683918930608712
30
0
41
1
10
5.41217558665593
20
0.601773244798295
30
0
41
1
10
5.42199997988274
20
0.432042127442372
30
0
41
1
10
5.42711186610208
20
0.344758657090011
30
0
41
1
10
5.44294476257789
20
0.0775517753486668
30
0
41
1
10
5.45420266931069
20
-0.108428288122326
30
0
41
1
10
5.46619617639254
20
-0.30232714392821
30
0
0
SPLINE
5
CC
100
AcDbEntity
8
1
62
256
6
ByLayer
370
18
48
1
60
0
100
AcDbSpline
70
4
71
3
72
8
73
4
40
0
40
0
40
0
40
0
40
1
40
1
40
1
40
1
41
1
10
5.46619617639254
20
-0.30232714392821
30
0
41
1
10
5.4769099028432
20
-0.47553580474937
30
0
41
1
10
5.48816684043453
20
-0.654355010781813
30
0
41
1
10
5.50000000000404
20
-0.838945162502284
30
0
0
SPLINE
5
CD
100
AcDbEntity
8
1
62
256
6
ByLayer
370
18
48
1
60
0
100
AcDbSpline
70
4
71
3
72
8
73
4
40
0
40
0
40
0
40
0
40
1
40
1
40
1
40
1
41
1
10
5.51100974939644
20
-1.00977414983174
30
0
41
1
10
5.52881976858606
20
-1.2846581586883
30
0
41
1
10
5.5474763136944
20
-1.56568006988655
30
0
41
1
10
5.56702513929687
20
-1.85282985077109
30
0
0
SPLINE
5
CE
100
AcDbEntity
8
1
62
256
6
ByLayer
370
18
48
1
60
0
100
AcDbSpline
70
4
71
3
72
24
73
20
40
0
40
0
40
0
40
0
40
0.0628476257386046
40
0.0628476257386046
40
0.125695251477209
40
0.125695251477209
40
0.251390502954418
40
0.377085754431628
40
0.377085754431628
40
0.439933380170232
40
0.439933380170232
40
0.502781005908837
40
0.502781005908837
40
0.628476257386046
40
0.628476257386046
40
0.754171508863255
40
0.754171508863255
40
0.879866760340464
40
1
40
1
40
1
40
1
41
1
10
5.50000000000404
20
3.23691922343971
30
0
41
1
10
5.50000000000404
20
3.17407665738202
30
0
41
1
10
5.50000000000404
20
3.10907275209129
30
0
41
1
10
5.50000000000404
20
2.97475461637305
30
0
41
1
10
5.50000000000404
20
2.9053573424977
30
0
41
1
10
5.50000000000404
20
2.69264703974085
30
0
41
1
10
5.50000000000404
20
2.39588112606793
30
0
41
1
10
5.50000000000404
20
2.07349866417343
30
0
41
1
10
5.50000000000404
20
1.82188571419897
30
0
41
1
10
5.50000000000404
20
1.73605109544087
30
0
41
1
10
5.50000000000404
20
1.56287735258448
30
0
41
1
10
5.50000000000404
20
1.47556950075
30
0
41
1
10
5.50000000000404
20
1.21153171736916
30
0
41
1
10
5.50000000000404
20
1.03269593326803
30
0
41
1
10
5.50000000000404
20
0.66945023510263
30
0
41
1
10
5.50000000000404
20
0.484815078731287
30
0
41
1
10
5.50000000000404
20
0.110666518007093
30
0
41
1
10
5.50000000000406
20
-0.253798819736147
30
0
41
1
10
5.50000000000409
20
-0.615583099663695
30
0
41
1
10
5.50000000000404
20
-0.791726776552764
30
0
0
SPLINE
5
CF
100
AcDbEntity
8
1
62
256
6
ByLayer
370
18
48
1
60
0
100
AcDbSpline
70
4
71
3
72
8
73
4
40
0
40
0
40
0
40
0
40
1
40
1
40
1
40
1
41
1
10
5.50000000000404
20
-0.81618822391647
30
0
41
1
10
5.50000000000404
20
-0.8180477321024
30
0
41
1
10
5.50000000000404
20
-0.819718972463676
30
0
41
1
10
5.50000000000404
20
-0.82125429301891
30
0
0
SPLINE
5
D0
100
AcDbEntity
8
SK1
62
256
6
ByLayer
370
18
48
1
60
0
100
AcDbSpline
70
4
71
3
72
8
73
4
40
0
40
0
40
0
40
0
40
1
40
1
40
1
40
1
41
0.99449007757414
10
-0.187342807820323
20
1.01976390208495
30
0
41
0.992183247235919
10
-0.411773416501488
20
1.15255541267827
30
0
41
0.994019888044539
10
-0.650340271983417
20
1.27590169419048
30
0
41
1
10
-0.89999999999597
20
1.38832154382561
30
0
0
SPLINE
5
D1
100
AcDbEntity
8
1
62
256
6
ByLayer
370
18
48
1
60
0
100
AcDbSpline
70
4
71
3
72
8
73
4
40
0
40
0
40
0
40
0
40
1
40
1
40
1
40
1
41
1
10
0.10000000000403
20
4.90788250109659
30
0
41
1
10
0.066676211839713
20
4.9037126481877
30
0
41
1
10
0.0333428610152725
20
4.89945840256609
30
0
41
1
10
-1.73044E-11
20
4.89512022713211
30
0
0
SPLINE
5
D2
100
AcDbEntity
8
SK1
62
256
6
ByLayer
370
18
48
1
60
0
100
AcDbSpline
70
4
71
3
72
8
73
4
40
0
40
0
40
0
40
0
40
1
40
1
40
1
40
1
41
1
10
-0.342163237217534
20
4.84772312046226
30
0
41
1
10
-0.528843190135945
20
4.64819690379682
30
0
41
1
10
-0.714866071092416
20
4.44799500593183
30
0
41
1
10
-0.89999999999597
20
4.24687897959157
30
0
0
SPLINE
5
D3
100
AcDbEntity
8
SK1
62
256
6
ByLayer
370
18
48
1
60
0
100
AcDbSpline
70
4
71
3
72
8
73
4
40
0
40
0
40
0
40
0
40
1
40
1
40
1
40
1
41
1
10
-0.89999999999597
20
2.02680286921441
30
0
41
0.992314566298347
10
-0.578594528215599
20
2.05631007076796
30
0
41
0.991472698450083
10
-0.276505625182729
20
2.05772833723418
30
0
41
0.997474396455206
10
-1.9163E-11
20
2.03095735574865
30
0
0
SPLINE
5
D4
100
AcDbEntity
8
SK1
62
256
6
ByLayer
370
18
48
1
60
0
100
AcDbSpline
70
4
71
3
72
8
73
4
40
0
40
0
40
0
40
0
40
1
40
1
40
1
40
1
41
1
10
-0.89999999999597
20
-1.27972379004922
30
0
41
0.998108898547884
10
-0.763234498437814
20
-1.21433524485851
30
0
41
0.997466042511304
10
-0.629622404051458
20
-1.14585196693198
30
0
41
0.998071431890262
10
-0.499671119009949
20
-1.0745249236877
30
0
0
SPLINE
5
D5
100
AcDbEntity
8
1
62
256
6
ByLayer
370
18
48
1
60
0
100
AcDbSpline
70
4
71
3
72
8
73
4
40
0
40
0
40
0
40
0
40
1
40
1
40
1
40
1
41
1
10
4.42975945078214
20
-6.20351694145535
30
0
41
1
10
4.40113189615161
20
-5.92527683528627
30
0
41
1
10
4.3713480643689
20
-5.64708496363306
30
0
41
1
10
4.34045384101512
20
-5.36894504816473
30
0
0
SPLINE
5
D6
100
AcDbEntity
8
1
62
256
6
ByLayer
370
18
48
1
60
0
100
AcDbSpline
70
4
71
3
72
8
73
4
40
0
40
0
40
0
40
0
40
1
40
1
40
1
40
1
41
1
10
4.34045384101512
20
-5.36894504816473
30
0
41
1
10
4.33944893313986
20
-5.35989788785017
30
0
41
1
10
4.33848220022421
20
-5.35084981509863
30
0
41
1
10
4.33755714864714
20
-5.34180074610265
30
0
0
SPLINE
5
D7
100
AcDbEntity
8
1
62
256
6
ByLayer
370
18
48
1
60
0
100
AcDbSpline
70
4
71
3
72
20
73
16
40
0
40
0
40
0
40
0
40
0.125
40
0.125
40
0.250000000000001
40
0.250000000000001
40
0.375000000000001
40
0.375000000000001
40
0.500000000000001
40
0.500000000000001
40
0.750000000000002
40
0.750000000000002
40
0.875000000000001
40
0.875000000000001
40
1
40
1
40
1
40
1
41
1
10
5.55000000000405
20
8.84999999999999
30
0
41
1
10
5.56362533874892
20
8.84999999999999
30
0
41
1
10
5.57700739184244
20
8.84862209180403
30
0
41
1
10
5.60330153889186
20
8.84320228016179
30
0
41
1
10
5.6163544817081
20
8.83908369656888
30
0
41
1
10
5.64096425379651
20
8.82842538389298
30
0
41
1
10
5.65258926098738
20
8.82190692082878
30
0
41
1
10
5.67448281248477
20
8.80648775736256
30
0
41
1
10
5.68462351007901
20
8.79763942171536
30
0
41
1
10
5.71171465253045
20
8.76867943120752
30
0
41
1
10
5.7258081703161
20
8.74557087268684
30
0
41
1
10
5.73925383715223
20
8.70846595486887
30
0
41
1
10
5.74253371663775
20
8.69547914974655
30
0
41
1
10
5.74641473812019
20
8.66942527413164
30
0
41
1
10
5.74707009945001
20
8.6562615564298
30
0
41
1
10
5.746409021532
20
8.64295724735047
30
0
0
SPLINE
5
D8
100
AcDbEntity
8
1
62
256
6
ByLayer
370
18
48
1
60
0
100
AcDbSpline
70
4
71
3
72
20
73
16
40
0
40
0
40
0
40
0
40
0.0312499999999994
40
0.0312499999999994
40
0.0624999999999989
40
0.0624999999999989
40
0.124999999999996
40
0.124999999999996
40
0.249999999999995
40
0.249999999999995
40
0.499999999999997
40
0.499999999999997
40
0.749999999999998
40
0.749999999999998
40
1
40
1
40
1
40
1
41
1
10
5.55000000000405
20
-4.4250000000001
30
0
41
1
10
5.55566918767553
20
-4.4250000000001
30
0
41
1
10
5.5610634595715
20
-4.42307273004829
30
0
41
1
10
5.57027982997471
20
-4.41718266834792
30
0
41
1
10
5.5741222251452
20
-4.41337636522977
30
0
41
1
10
5.58426923280729
20
-4.401094744289
30
0
41
1
10
5.58920871021971
20
-4.39187788370833
30
0
41
1
10
5.60201444597135
20
-4.36374687503013
30
0
41
1
10
5.60781548187126
20
-4.34388569197029
30
0
41
1
10
5.62229723258534
20
-4.28459987484666
30
0
41
1
10
5.62795381914862
20
-4.24449670314104
30
0
41
1
10
5.63664282715922
20
-4.16391012091725
30
0
41
1
10
5.63942157291507
20
-4.12338339248035
30
0
41
1
10
5.64321380159416
20
-4.04237850784708
30
0
41
1
10
5.64420174789052
20
-4.00184516336972
30
0
41
1
10
5.64458249815726
20
-3.96129115788213
30
0
0
SPLINE
5
D9
100
AcDbEntity
8
1
62
256
6
ByLayer
370
18
48
1
60
0
100
AcDbSpline
70
4
71
3
72
18
73
14
40
0
40
0
40
0
40
0
40
0.499999999999998
40
0.499999999999998
40
0.749999999999996
40
0.749999999999996
40
0.874999999999997
40
0.874999999999997
40
0.937499999999996
40
0.937499999999996
40
0.968749999999998
40
0.968749999999998
40
1
40
1
40
1
40
1
41
1
10
4.37981476417943
20
-3.96129115788213
30
0
41
1
10
4.37812681189104
20
-4.04134987036113
30
0
41
1
10
4.37854323900703
20
-4.12131274865584
30
0
41
1
10
4.38675546803412
20
-4.24091152465044
30
0
41
1
10
4.39063458060838
20
-4.28072578976551
30
0
41
1
10
4.40152908285387
20
-4.34021603218886
30
0
41
1
10
4.40593089360729
20
-4.36003432342804
30
0
41
1
10
4.4160268608685
20
-4.38877290010152
30
0
41
1
10
4.41991888794553
20
-4.39821550299339
30
0
41
1
10
4.42818793018193
20
-4.41131275570282
30
0
41
1
10
4.43135182354683
20
-4.41549800936062
30
0
41
1
10
4.43934064673894
20
-4.42236486769767
30
0
41
1
10
4.44445961557602
20
-4.42500000000018
30
0
41
1
10
4.450000000004
20
-4.42500000000018
30
0
0
SPLINE
5
DA
100
AcDbEntity
8
1
62
256
6
ByLayer
370
18
48
1
60
0
100
AcDbSpline
70
4
71
3
72
12
73
8
40
0
40
0
40
0
40
0
40
0.25
40
0.25
40
0.499999999999999
40
0.499999999999999
40
1
40
1
40
1
40
1
41
1
10
5.64458249815723
20
-3.96129115788213
30
0
41
1
10
5.65853260915361
20
-3.91144161270515
30
0
41
1
10
5.66676863130101
20
-3.86098050055992
30
0
41
1
10
5.67836599827515
20
-3.75953654976004
30
0
41
1
10
5.68147150767547
20
-3.70852632957519
30
0
41
1
10
5.68569346862938
20
-3.55495040815271
30
0
41
1
10
5.68175754360999
20
-3.45225847982988
30
0
41
1
10
5.67412325924761
20
-3.34993879998979
30
0
0
SPLINE
5
DB
100
AcDbEntity
8
1
62
256
6
ByLayer
370
18
48
1
60
0
100
AcDbSpline
70
4
71
3
72
8
73
4
40
0
40
0
40
0
40
0
40
1
40
1
40
1
40
1
41
1
10
5.67412325924761
20
-3.34993879998979
30
0
41
1
10
5.63689719345354
20
-2.85101068139394
30
0
41
1
10
5.60116012917894
20
-2.35197231399317
30
0
41
1
10
5.56702513929687
20
-1.85282985077109
30
0
0
SPLINE
5
DC
100
AcDbEntity
8
1
62
256
6
ByLayer
370
18
48
1
60
0
100
AcDbSpline
70
4
71
3
72
8
73
4
40
0
40
0
40
0
40
0
40
1
40
1
40
1
40
1
41
1
10
4.42975945078214
20
-1.85282985077106
30
0
41
1
10
4.40113189615161
20
-2.27911842513839
30
0
41
1
10
4.3713480643689
20
-2.70533309994005
30
0
41
1
10
4.34045384101512
20
-3.13146817324827
30
0
0
SPLINE
5
DD
100
AcDbEntity
8
1
62
256
6
ByLayer
370
18
48
1
60
0
100
AcDbSpline
70
4
71
3
72
8
73
4
40
0
40
0
40
0
40
0
40
1
40
1
40
1
40
1
41
1
10
4.34045384101512
20
-3.13146817324827
30
0
41
1
10
4.33944893313986
20
-3.14532922701827
30
0
41
1
10
4.33848220022421
20
-3.15919167872275
30
0
41
1
10
4.33755714864714
20
-3.17305565676233
30
0
0
SPLINE
5
DE
100
AcDbEntity
8
1
62
256
6
ByLayer
370
18
48
1
60
0
100
AcDbSpline
70
4
71
3
72
14
73
10
40
0
40
0
40
0
40
0
40
0.5
40
0.5
40
0.75
40
0.75
40
0.875
40
0.875
40
1
40
1
40
1
40
1
41
1
10
4.33755714864714
20
-3.17305565676233
30
0
41
1
10
4.32874182382238
20
-3.30517312222221
30
0
41
1
10
4.3233251631197
20
-3.43740909199721
30
0
41
1
10
4.32793539922818
20
-3.63604231847953
30
0
41
1
10
4.3315930921737
20
-3.70197473835583
30
0
41
1
10
4.34301678979369
20
-3.80009332885888
30
0
41
1
10
4.34782367007529
20
-3.83266827695715
30
0
41
1
10
4.36066119102341
20
-3.89739462711614
30
0
41
1
10
4.36855894096712
20
-3.92956348870621
30
0
41
1
10
4.37981476417946
20
-3.96129115788213
30
0
0
SPLINE
5
DF
100
AcDbEntity
8
1
62
256
6
ByLayer
370
18
48
1
60
0
100
AcDbSpline
70
4
71
3
72
9
73
5
40
0
40
0
40
0
40
0
40
0.5
40
1
40
1
40
1
40
1
41
1
10
4.25361761196285
20
8.64115559898949
30
0
41
1
10
4.2535595298983
20
8.64233176939922
30
0
41
1
10
4.2534638443685
20
8.64468147993114
30
0
41
1
10
4.2534087863915
20
8.64702597131736
30
0
41
1
10
4.25339134213579
20
8.64819692137232
30
0
0
SPLINE
5
E0
100
AcDbEntity
8
1
62
256
6
ByLayer
370
18
48
1
60
0
100
AcDbSpline
70
4
71
3
72
20
73
16
40
0
40
0
40
0
40
0
40
0.249999999999998
40
0.249999999999998
40
0.312499999999998
40
0.312499999999998
40
0.374999999999997
40
0.374999999999997
40
0.499999999999998
40
0.499999999999998
40
0.749999999999998
40
0.749999999999998
40
0.874999999999999
40
0.874999999999999
40
1
40
1
40
1
40
1
41
1
10
4.32005596899938
20
5.6709485553103
30
0
41
1
10
4.32228207036289
20
5.89020173619895
30
0
41
1
10
4.32232389402134
20
6.12020848488962
30
0
41
1
10
4.31991199413906
20
6.42093441747323
30
0
41
1
10
4.31930471747046
20
6.48174632821727
30
0
41
1
10
4.31784049788462
20
6.60472166375786
30
0
41
1
10
4.31698494338525
20
6.66672629506169
30
0
41
1
10
4.31407407057685
20
6.8530610714528
30
0
41
1
10
4.31167018753519
20
6.97818859274872
30
0
41
1
10
4.3031218664799
20
7.3562206427944
30
0
41
1
10
4.29565628726692
20
7.61174983622999
30
0
41
1
10
4.28172099767428
20
8.0004988936054
30
0
41
1
10
4.27665501784944
20
8.1298518891407
30
0
41
1
10
4.2657409698775
20
8.3866089576257
30
0
41
1
10
4.25988432378813
20
8.51425375636848
30
0
41
1
10
4.25361761196285
20
8.64115559898949
30
0
0
SPLINE
5
E1
100
AcDbEntity
8
1
62
256
6
ByLayer
370
18
48
1
60
0
100
AcDbSpline
70
4
71
3
72
20
73
16
40
0
40
0
40
0
40
0
40
0.124999999999998
40
0.124999999999998
40
0.249999999999997
40
0.249999999999997
40
0.374999999999995
40
0.374999999999995
40
0.499999999999993
40
0.499999999999993
40
0.624999999999991
40
0.624999999999991
40
0.74999999999999
40
0.74999999999999
40
1
40
1
40
1
40
1
41
1
10
4.25339134213579
20
8.64819692137232
30
0
41
1
10
4.25319647438215
20
8.6612774683625
30
0
41
1
10
4.25424883723937
20
8.67415586174505
30
0
41
1
10
4.25875926650139
20
8.69952410239884
30
0
41
1
10
4.26226423425737
20
8.71212781539856
30
0
41
1
10
4.27164152841979
20
8.73636049678518
30
0
41
1
10
4.2774438932243
20
8.74788220736278
30
0
41
1
10
4.2912748020623
20
8.76974443581202
30
0
41
1
10
4.29941486043396
20
8.78018223073911
30
0
41
1
10
4.31740999759433
20
8.79900942612559
30
0
41
1
10
4.32727699160526
20
8.80747346849611
30
0
41
1
10
4.3488003815097
20
8.82245729898509
30
0
41
1
10
4.36048977680204
20
8.82894772895347
30
0
41
1
10
4.39667363090129
20
8.8444770799145
30
0
41
1
10
4.42321831267725
20
8.84999999999741
30
0
41
1
10
4.44999999998785
20
8.85000000000025
30
0
0
SPLINE
5
E2
100
AcDbEntity
8
1
62
256
6
ByLayer
370
18
48
1
60
0
100
AcDbSpline
70
4
71
3
72
18
73
14
40
0
40
0
40
0
40
0
40
0.250000000000002
40
0.250000000000002
40
0.375000000000001
40
0.375000000000001
40
0.500000000000001
40
0.500000000000001
40
0.75
40
0.75
40
0.875
40
0.875
40
1
40
1
40
1
40
1
41
1
10
5.746409021532
20
8.64295724735047
30
0
41
1
10
5.73376836792889
20
8.3885618759173
30
0
41
1
10
5.72288053834222
20
8.13307584657883
30
0
41
1
10
5.70903265567861
20
7.74827696098694
30
0
41
1
10
5.70483421619593
20
7.61974712231347
30
0
41
1
10
5.69729190835801
20
7.36214862695394
30
0
41
1
10
5.69394080054767
20
7.23258722332068
30
0
41
1
10
5.68540588131469
20
6.8511419862447
30
0
41
1
10
5.6816398116587
20
6.60411908448165
30
0
41
1
10
5.6789790184813
20
6.24436285609065
30
0
41
1
10
5.67859475911405
20
6.12617548744205
30
0
41
1
10
5.6789106829265
20
5.89386797641745
30
0
41
1
10
5.67960882254411
20
5.78084320194574
30
0
41
1
10
5.68087545455404
20
5.67094855529595
30
0
0
SPLINE
5
E3
100
AcDbEntity
8
1
62
256
6
ByLayer
370
18
48
1
60
0
100
AcDbSpline
70
4
71
3
72
10
73
6
40
0
40
0
40
0
40
0
40
0.498375139907083
40
0.498375139907083
40
1
40
1
40
1
40
1
41
1
10
5.68701065118844
20
5.09854117299963
30
0
41
1
10
5.67620159091985
20
5.0147486295748
30
0
41
1
10
5.66547315612402
20
4.93098861985854
30
0
41
1
10
5.64413951071086
20
4.76300069601913
30
0
41
1
10
5.63353552997074
20
4.67877322150443
30
0
41
1
10
5.62304808936543
20
4.59459310729878
30
0
0
SPLINE
5
E4
100
AcDbEntity
8
1
62
256
6
ByLayer
370
18
48
1
60
0
100
AcDbSpline
70
4
71
3
72
8
73
4
40
0
40
0
40
0
40
0
40
1
40
1
40
1
40
1
41
1
10
0.10000000000403
20
-2.03939119085348
30
0
41
0.999054568967105
10
0.0671213450567147
20
-2.04183313264623
30
0
41
0.998212701118832
10
0.0337849368926413
20
-2.04385529864227
30
0
41
0.997474396455184
10
-2.02076E-11
20
-2.04545599611335
30
0
0
SPLINE
5
E5
100
AcDbEntity
8
1
62
256
6
ByLayer
370
18
48
1
60
0
100
AcDbSpline
70
4
71
3
72
8
73
4
40
0
40
0
40
0
40
0
40
1
40
1
40
1
40
1
41
1
10
0.10000000000403
20
-1.42724201745233
30
0
41
1
10
0.0666763968602749
20
-1.40820654279034
30
0
41
1
10
0.0333430458006424
20
-1.3891622114297
30
0
41
1
10
-1.9403E-11
20
-1.37010907166585
30
0
0
SPLINE
5
E6
100
AcDbEntity
8
SK1
62
256
6
ByLayer
370
18
48
1
60
0
100
AcDbSpline
70
4
71
3
72
8
73
4
40
0
40
0
40
0
40
0
40
1
40
1
40
1
40
1
41
1
10
-0.342163237217505
20
-1.17447373025732
30
0
41
1
10
-0.528843190135945
20
-1.06087317027172
30
0
41
1
10
-0.714866071092416
20
-0.947617993224554
30
0
41
1
10
-0.89999999999597
20
-0.834830084457053
30
0
0
SPLINE
5
E7
100
AcDbEntity
8
1
62
256
6
ByLayer
370
18
48
1
60
0
100
AcDbSpline
70
4
71
3
72
22
73
18
40
0
40
0
40
0
40
0
40
0.25
40
0.25
40
0.375
40
0.375
40
0.4375
40
0.4375
40
0.5
40
0.5
40
0.75
40
0.75
40
0.8125
40
0.8125
40
0.875
40
0.875
40
1
40
1
40
1
40
1
41
1
10
4.42975945078214
20
-6.20351694145535
30
0
41
1
10
4.45339329862267
20
-6.33069137264732
30
0
41
1
10
4.47548581386297
20
-6.42014545822352
30
0
41
1
10
4.50651820678294
20
-6.49988660676519
30
0
41
1
10
4.51650830380834
20
-6.5173159240222
30
0
41
1
10
4.53096312942589
20
-6.52929054364913
30
0
41
1
10
4.53569355500687
20
-6.53089673308253
30
0
41
1
10
4.54486612371934
20
-6.52932914450616
30
0
41
1
10
4.54932320712288
20
-6.5261728446213
30
0
41
1
10
4.57098153750871
20
-6.4987273758089
30
0
41
1
10
4.58632078086754
20
-6.43983873625027
30
0
41
1
10
4.60311016058083
20
-6.31924706383614
30
0
41
1
10
4.60635459923321
20
-6.29268569936932
30
0
41
1
10
4.61256097655124
20
-6.23507241160513
30
0
41
1
10
4.61552193324817
20
-6.20405004127781
30
0
41
1
10
4.62398717024791
20
-6.10438256763317
30
0
41
1
10
4.62907491997075
20
-6.02915614419146
30
0
41
1
10
4.63361732300237
20
-5.9450447315659
30
0
0
SPLINE
5
E8
100
AcDbEntity
8
1
62
256
6
ByLayer
370
18
48
1
60
0
100
AcDbSpline
70
4
71
3
72
10
73
6
40
0
40
0
40
0
40
0
40
0.393941133263879
40
0.393941133263879
40
1
40
1
40
1
40
1
41
1
10
4.63361732300237
20
-5.9450447315659
30
0
41
1
10
4.64177165393772
20
-5.79405146011601
30
0
41
1
10
4.64944591945945
20
-5.6430521794355
30
0
41
1
10
4.66729535289241
20
-5.25973274711487
30
0
41
1
10
4.6765894856425
20
-5.02740113259895
30
0
41
1
10
4.68366511773692
20
-4.79505565303441
30
0
0
SPLINE
5
E9
100
AcDbEntity
8
1
62
256
6
ByLayer
370
18
48
1
60
0
100
AcDbSpline
70
4
71
3
72
10
73
6
40
0
40
0
40
0
40
0
40
0.5
40
0.5
40
1
40
1
40
1
40
1
41
1
10
3.35125980537342
20
-4.82227069430857
30
0
41
1
10
2.81113757035331
20
-4.86592622512828
30
0
41
1
10
2.26988348837321
20
-4.90626575660988
30
0
41
1
10
1.1858654774417
20
-4.98252088322369
30
0
41
1
10
0.643179028400084
20
-5.01840332312415
30
0
41
1
10
0.10000000000403
20
-5.05265330022246
30
0
0
SPLINE
5
EA
100
AcDbEntity
8
1
62
256
6
ByLayer
370
18
48
1
60
0
100
AcDbSpline
70
4
71
3
72
12
73
8
40
0
40
0
40
0
40
0
40
0.200447588612647
40
0.200447588612647
40
0.600223794306324
40
0.600223794306324
40
1
40
1
40
1
40
1
41
1
10
0.100000000004002
20
5.04312586298832
30
0
41
1
10
0.100000000004002
20
5.04079316403494
30
0
41
1
10
0.100000000004002
20
5.03786452604351
30
0
41
1
10
0.10000000000403
20
5.02729714081627
30
0
41
1
10
0.10000000000403
20
5.0178472088987
30
0
41
1
10
0.10000000000403
20
4.99424057116636
30
0
41
1
10
0.100000000004059
20
4.98007564492423
30
0
41
1
10
0.100000000004059
20
4.96354286298899
30
0
0
SPLINE
5
EB
100
AcDbEntity
8
SK1
62
256
6
ByLayer
370
18
48
1
60
0
100
AcDbSpline
70
4
71
3
72
8
73
4
40
0
40
0
40
0
40
0
40
1
40
1
40
1
40
1
41
1
10
-0.89999999999597
20
0.524341440288936
30
0
41
1
10
-0.710934008164429
20
0.627339638248316
30
0
41
1
10
-0.520941235454984
20
0.730920186074314
30
0
41
1
10
-0.330267642837498
20
0.83492853228708
30
0
0
SPLINE
5
EC
100
AcDbEntity
8
SK1
62
256
6
ByLayer
370
18
48
1
60
0
100
AcDbSpline
70
4
71
3
72
8
73
4
40
0
40
0
40
0
40
0
40
1
40
1
40
1
40
1
41
1
10
-0.330267642837498
20
0.83492853228708
30
0
41
1
10
-0.220000913822657
20
0.89916495353761
30
0
41
1
10
-0.109900396605273
20
0.963358342863854
30
0
41
1
10
-1.32857E-11
20
1.02748996605303
30
0
0
SPLINE
5
ED
100
AcDbEntity
8
SK1
62
256
6
ByLayer
370
18
48
1
60
0
100
AcDbSpline
70
4
71
3
72
12
73
8
40
0
40
0
40
0
40
0
40
0.5
40
0.5
40
0.75
40
0.75
40
1
40
1
40
1
40
1
41
1
10
-0.342163237217534
20
-1.17447373025732
30
0
41
1
10
-0.340206634485128
20
-0.8448630103548
30
0
41
1
10
-0.338212467110282
20
-0.512127375571993
30
0
41
1
10
-0.335213084240337
20
-0.0084675802824847
30
0
41
1
10
-0.3342115085741
20
0.160265641345234
30
0
41
1
10
-0.332216988697553
20
0.498978079538148
30
0
41
1
10
-0.3312331556549
20
0.667413920771878
30
0
41
1
10
-0.330267642837498
20
0.83492853228708
30
0
0
SPLINE
5
EE
100
AcDbEntity
8
1
62
256
6
ByLayer
370
18
48
1
60
0
100
AcDbSpline
70
4
71
3
72
14
73
10
40
0
40
0
40
0
40
0
40
0.237306430562771
40
0.237306430562771
40
0.474612863645752
40
0.474612863645752
40
0.737306352706431
40
0.737306352706431
40
1
40
1
40
1
40
1
41
1
10
4.31323918472216
20
-3.28466086970499
30
0
41
1
10
3.9799550917169
20
-3.28541390206908
30
0
41
1
10
3.64667257853807
20
-3.28619131844505
30
0
41
1
10
2.98011111222596
20
-3.28779919835506
30
0
41
1
10
2.64683212838693
20
-3.28862965899466
30
0
41
1
10
1.94462414036997
20
-3.29044039194707
30
0
41
1
10
1.57569553603625
20
-3.29142717402573
30
0
41
1
10
0.837843613980567
20
-3.29347912288622
30
0
41
1
10
0.468920238824694
20
-3.2945442821557
30
0
41
1
10
0.10000000000403
20
-3.29565296414498
30
0
0
SPLINE
5
EF
100
AcDbEntity
8
1
62
256
6
ByLayer
370
18
48
1
60
0
100
AcDbSpline
70
4
71
3
72
8
73
4
40
0
40
0
40
0
40
0
40
1
40
1
40
1
40
1
41
1
10
5.68701065118878
20
-3.27360532080047
30
0
41
0.99999526245331
10
5.68214769593834
20
-3.27391009207471
30
0
41
0.999990894431213
10
5.67728475347216
20
-3.27421780246685
30
0
41
0.999986895933709
10
5.67242182918137
20
-3.27452845167438
30
0
0
SPLINE
5
F0
100
AcDbEntity
8
1
62
256
6
ByLayer
370
18
48
1
60
0
100
AcDbSpline
70
4
71
3
72
12
73
8
40
0
40
0
40
0
40
0
40
0.197651230587506
40
0.197651230587506
40
0.89216685922385
40
0.89216685922385
40
1
40
1
40
1
40
1
41
1
10
5.50000000000404
20
-0.82125429301891
30
0
41
1
10
5.507256630109
20
-0.930032002278637
30
0
41
1
10
5.51466463607909
20
-1.03884625970599
30
0
41
1
10
5.54883926686892
20
-1.53018778738323
30
0
41
1
10
5.57749453207745
20
-1.91317114059774
30
0
41
1
10
5.61326835796072
20
-2.3562174552292
30
0
41
1
10
5.61813099816598
20
-2.41577472949481
30
0
41
1
10
5.62304808936543
20
-2.47534421654672
30
0
0
SPLINE
5
F1
100
AcDbEntity
8
1
62
256
6
ByLayer
370
18
48
1
60
0
100
AcDbSpline
70
4
71
3
72
8
73
4
40
0
40
0
40
0
40
0
40
1
40
1
40
1
40
1
41
1
10
4.32005596899938
20
5.6709485553103
30
0
41
1
10
4.3199085117744
20
5.44263939040206
30
0
41
1
10
4.31771941033748
20
5.2272757321343
30
0
41
1
10
4.31323918472216
20
5.02485356053759
30
0
0
SPLINE
5
F2
100
AcDbEntity
8
1
62
256
6
ByLayer
370
18
48
1
60
0
100
AcDbSpline
70
4
71
3
72
14
73
10
40
0
40
0
40
0
40
0
40
0.237306430562772
40
0.237306430562772
40
0.474612863645752
40
0.474612863645752
40
0.737306352706431
40
0.737306352706431
40
1
40
1
40
1
40
1
41
1
10
4.31323918472216
20
5.02485356053759
30
0
41
1
10
3.9799550917169
20
5.02031073296789
30
0
41
1
10
3.64667257853807
20
5.0157018554664
30
0
41
1
10
2.98011111222596
20
5.00634298294983
30
0
41
1
10
2.64683212838693
20
5.00159299273634
30
0
41
1
10
1.94462414036997
20
4.99142561112325
30
0
41
1
10
1.57569553603625
20
4.98599120601145
30
0
41
1
10
0.837843613980567
20
4.97492182833392
30
0
41
1
10
0.468920238824694
20
4.96928686817364
30
0
41
1
10
0.10000000000403
20
4.96354286298899
30
0
0
SPLINE
5
F3
100
AcDbEntity
8
1
62
256
6
ByLayer
370
18
48
1
60
0
100
AcDbSpline
70
4
71
3
72
8
73
4
40
0
40
0
40
0
40
0
40
1
40
1
40
1
40
1
41
1
10
5.68701065119018
20
5.09854117301225
30
0
41
1
10
5.68321676629105
20
5.27952234757382
30
0
41
1
10
5.68122932846307
20
5.47032387789662
30
0
41
1
10
5.68087545455393
20
5.67094855529504
30
0
0
SPLINE
5
F4
100
AcDbEntity
8
1
62
256
6
ByLayer
370
18
48
1
60
0
100
AcDbSpline
70
4
71
3
72
8
73
4
40
0
40
0
40
0
40
0
40
1
40
1
40
1
40
1
41
1
10
5.68701065118844
20
5.09854117299963
30
0
41
0.999939261556372
10
5.62466089622185
20
5.06950404834285
30
0
41
0.999939261556372
10
5.5623202260184
20
5.04075677053557
30
0
41
1
10
5.50000000000404
20
5.01230457778499
30
0
0
SPLINE
5
F5
100
AcDbEntity
8
1
62
256
6
ByLayer
370
18
48
1
60
0
100
AcDbSpline
70
4
71
3
72
8
73
4
40
0
40
0
40
0
40
0
40
1
40
1
40
1
40
1
41
1
10
0.10000000000403
20
1.20007762890538
30
0
41
0.999599272280151
10
0.0671123741899034
20
1.18058691985916
30
0
41
0.999301726247892
10
0.0337757317679036
20
1.16084878728118
30
0
41
0.999107361903222
10
-1.67901E-11
20
1.14086912541467
30
0
0
SPLINE
5
F6
100
AcDbEntity
8
SK1
62
256
6
ByLayer
370
18
48
1
60
0
100
AcDbSpline
70
4
71
3
72
8
73
4
40
0
40
0
40
0
40
0
40
1
40
1
40
1
40
1
41
1
10
-0.302442471384723
20
0.962416703711085
30
0
41
0.997134966683889
10
-0.492838672165683
20
0.850343458931711
30
0
41
0.997134966683889
10
-0.692596828810069
20
0.733233181374737
30
0
41
1
10
-0.89999999999597
20
0.612092445580771
30
0
0
SPLINE
5
F7
100
AcDbEntity
8
SK1
62
256
6
ByLayer
370
18
48
1
60
0
100
AcDbSpline
70
4
71
3
72
8
73
4
40
0
40
0
40
0
40
0
40
1
40
1
40
1
40
1
41
1
10
-0.89999999999597
20
-4.13273909449165
30
0
41
1
10
-0.710934008164429
20
-4.33863232813982
30
0
41
1
10
-0.520941235454984
20
-4.54365247593813
30
0
41
1
10
-0.330267642837498
20
-4.74803124858295
30
0
0
SPLINE
5
F8
100
AcDbEntity
8
SK1
62
256
6
ByLayer
370
18
48
1
60
0
100
AcDbSpline
70
4
71
3
72
8
73
4
40
0
40
0
40
0
40
0
40
1
40
1
40
1
40
1
41
1
10
-0.330267642837498
20
-4.74803124858295
30
0
41
1
10
-0.219996340093993
20
-4.76688014674068
30
0
41
1
10
-0.109905943583714
20
-4.7843912099046
30
0
41
1
10
-2.19369E-11
20
-4.8005382094924
30
0
0
SPLINE
5
F9
100
AcDbEntity
8
1
62
256
6
ByLayer
370
18
48
1
60
0
100
AcDbSpline
70
4
71
3
72
20
73
16
40
0
40
0
40
0
40
0
40
0.125
40
0.125
40
0.249999999999999
40
0.249999999999999
40
0.374999999999999
40
0.374999999999999
40
0.499999999999999
40
0.499999999999999
40
0.624999999999998
40
0.624999999999998
40
0.749999999999998
40
0.749999999999998
40
1
40
1
40
1
40
1
41
1
10
4.25339134213579
20
-4.28209756922013
30
0
41
1
10
4.25319647438215
20
-4.29105122923067
30
0
41
1
10
4.25424883723937
20
-4.29992587358572
30
0
41
1
10
4.25875926650141
20
-4.31751806891339
30
0
41
1
10
4.26226423425737
20
-4.32631578976989
30
0
41
1
10
4.27164152841979
20
-4.3433323105526
30
0
41
1
10
4.2774438932243
20
-4.35147452106875
30
0
41
1
10
4.2912748020623
20
-4.36700422593336
30
0
41
1
10
4.29941486043396
20
-4.37446208468339
30
0
41
1
10
4.31740999759433
20
-4.38797301318482
30
0
41
1
10
4.32727699160529
20
-4.39407833045047
30
0
41
1
10
4.3488003815097
20
-4.40492159538402
30
0
41
1
10
4.36048977680204
20
-4.40963862001402
30
0
41
1
10
4.39667363090129
20
-4.42094776282801
30
0
41
1
10
4.42321831267725
20
-4.42500000000416
30
0
41
1
10
4.44999999998785
20
-4.42500000000624
30
0
0
SPLINE
5
FA
100
AcDbEntity
8
SK1
62
256
6
ByLayer
370
18
48
1
60
0
100
AcDbSpline
70
4
71
3
72
8
73
4
40
0
40
0
40
0
40
0
40
1
40
1
40
1
40
1
41
1
10
-1.73044E-11
20
4.89512022713211
30
0
41
1
10
-0.113944047643744
20
4.8802951865401
30
0
41
1
10
-0.227999157805366
20
4.86448999308431
30
0
41
1
10
-0.342163237217534
20
4.84772312046226
30
0
0
SPLINE
5
FB
100
AcDbEntity
8
1
62
256
6
ByLayer
370
18
48
1
60
0
100
AcDbSpline
70
4
71
3
72
8
73
4
40
0
40
0
40
0
40
0
40
1
40
1
40
1
40
1
41
0.997474396455206
10
-1.9163E-11
20
2.03095735574865
30
0
41
0.99821270111885
10
0.0337849368933288
20
2.02768633397454
30
0
41
0.999054568967114
10
0.0671213450570539
20
2.02399779978488
30
0
41
1
10
0.10000000000403
20
2.01989395363955
30
0
0
SPLINE
5
FC
100
AcDbEntity
8
SK1
62
256
6
ByLayer
370
18
48
1
60
0
100
AcDbSpline
70
4
71
3
72
8
73
4
40
0
40
0
40
0
40
0
40
1
40
1
40
1
40
1
41
0.999107361903222
10
-1.67901E-11
20
1.14086912541467
30
0
41
0.998546871559245
10
-0.0974730344178398
20
1.08321002624696
30
0
41
0.998844417591504
10
-0.198374789118572
20
1.02367424341195
30
0
41
1
10
-0.302442471384723
20
0.962416703711085
30
0
0
SPLINE
5
FD
100
AcDbEntity
8
1
62
256
6
ByLayer
370
18
48
1
60
0
100
AcDbSpline
70
4
71
3
72
8
73
4
40
0
40
0
40
0
40
0
40
1
40
1
40
1
40
1
41
1
10
-1.32857E-11
20
1.02748996605303
30
0
41
1
10
0.033352079822538
20
1.04695234365069
30
0
41
1
10
0.0666857290710152
20
1.06640903274833
30
0
41
1
10
0.10000000000403
20
1.08585950973773
30
0
0
SPLINE
5
FE
100
AcDbEntity
8
SK1
62
256
6
ByLayer
370
18
48
1
60
0
100
AcDbSpline
70
4
71
3
72
8
73
4
40
0
40
0
40
0
40
0
40
1
40
1
40
1
40
1
41
1
10
-1.9403E-11
20
-1.37010907166585
30
0
41
1
10
-0.113941907213592
20
-1.30499951045639
30
0
41
1
10
-0.227997026681162
20
-1.23978708756606
30
0
41
1
10
-0.342163237217505
20
-1.17447373025732
30
0
0
SPLINE
5
FF
100
AcDbEntity
8
SK1
62
256
6
ByLayer
370
18
48
1
60
0
100
AcDbSpline
70
4
71
3
72
8
73
4
40
0
40
0
40
0
40
0
40
1
40
1
40
1
40
1
41
0.997474396455184
10
-2.02076E-11
20
-2.04545599611335
30
0
41
0.991472698450085
10
-0.27650562518349
20
-2.05855656386278
30
0
41
0.992314566298357
10
-0.578594528215985
20
-2.04341516445906
30
0
41
1
10
-0.89999999999597
20
-2.00041398940635
30
0
0
SPLINE
5
100
100
AcDbEntity
8
1
62
256
6
ByLayer
370
18
48
1
60
0
100
AcDbSpline
70
4
71
3
72
8
73
4
40
0
40
0
40
0
40
0
40
1
40
1
40
1
40
1
41
1
10
-2.19369E-11
20
-4.8005382094924
30
0
41
1
10
0.0333503505117582
20
-4.80543792718618
30
0
41
1
10
0.066683716886346
20
-4.81021204389066
30
0
41
1
10
0.10000000000403
20
-4.81485982676026
30
0
0
INSERT
5
122
100
AcDbEntity
8
2
62
256
6
ByLayer
370
25
48
1
60
0
100
AcDbBlockReference
2
DimnDraft3D33
10
0
20
0
30
0
41
1
42
1
43
1
50
0
210
0
220
0
230
1
0
LINE
5
75
100
AcDbEntity
8
1
62
256
6
ByLayer
370
18
48
1
60
0
100
AcDbLine
10
4.537551
20
-6.530307
30
0
11
5.456822
21
-6.530307
31
0
39
0
210
0
220
0
230
1
0
LINE
5
76
100
AcDbEntity
8
1
62
256
6
ByLayer
370
18
48
1
60
0
100
AcDbLine
10
4.320056
20
5.670949
30
0
11
5.680875
21
5.670949
31
0
39
0
210
0
220
0
230
1
0
LINE
5
77
100
AcDbEntity
8
1
62
256
6
ByLayer
370
18
48
1
60
0
100
AcDbLine
10
5.55
20
8.85
30
0
11
4.45
21
8.85
31
0
39
0
210
0
220
0
230
1
0
LINE
5
78
100
AcDbEntity
8
1
62
256
6
ByLayer
370
18
48
1
60
0
100
AcDbLine
10
5.593938
20
-2.106249
30
0
11
5.623048
21
-2.119249
31
0
39
0
210
0
220
0
230
1
0
LINE
5
79
100
AcDbEntity
8
1
62
256
6
ByLayer
370
18
48
1
60
0
100
AcDbLine
10
3.35126
20
2.857894
30
0
11
4.681938
21
2.8539
31
0
39
0
210
0
220
0
230
1
0
LINE
5
7A
100
AcDbEntity
8
1
62
256
6
ByLayer
370
18
48
1
60
0
100
AcDbLine
10
4.681938
20
2.8539
30
0
11
4.683665
21
2.888614
31
0
39
0
210
0
220
0
230
1
0
LINE
5
7B
100
AcDbEntity
8
1
62
256
6
ByLayer
370
18
48
1
60
0
100
AcDbLine
10
5.5
20
4.004388
30
0
11
0.1
21
4.004388
31
0
39
0
210
0
220
0
230
1
0
LINE
5
7C
100
AcDbEntity
8
1
62
256
6
ByLayer
370
18
48
1
60
0
100
AcDbLine
10
0.1
20
4.004388
30
0
11
0.1
21
3.816216
31
0
39
0
210
0
220
0
230
1
0
LINE
5
7D
100
AcDbEntity
8
1
62
256
6
ByLayer
370
18
48
1
60
0
100
AcDbLine
10
5.295232
20
3.401105
30
0
11
5.5
21
3.394996
31
0
39
0
210
0
220
0
230
1
0
LINE
5
7E
100
AcDbEntity
8
1
62
256
6
ByLayer
370
13
48
1
60
0
100
AcDbLine
10
5.5
20
3.816216
30
0
11
0.1
21
3.816216
31
0
39
0
210
0
220
0
230
1
0
LINE
5
7F
100
AcDbEntity
8
1
62
256
6
ByLayer
370
18
48
1
60
0
100
AcDbLine
10
0.1
20
3.816216
30
0
11
0.1
21
2.597849
31
0
39
0
210
0
220
0
230
1
0
LINE
5
80
100
AcDbEntity
8
1
62
256
6
ByLayer
370
18
48
1
60
0
100
AcDbLine
10
3.35126
20
2.857894
30
0
11
4.683665
21
2.888614
31
0
39
0
210
0
220
0
230
1
0
LINE
5
81
100
AcDbEntity
8
1
62
256
6
ByLayer
370
13
48
1
60
0
100
AcDbLine
10
5.35885
20
1.590556
30
0
11
4.633617
21
1.590556
31
0
39
0
210
0
220
0
230
1
0
LINE
5
82
100
AcDbEntity
8
1
62
256
6
ByLayer
370
18
48
1
60
0
100
AcDbLine
10
5.295232
20
3.401105
30
0
11
5.302748
21
3.234188
31
0
39
0
210
0
220
0
230
1
0
LINE
5
83
100
AcDbEntity
8
1
62
256
6
ByLayer
370
18
48
1
60
0
100
AcDbLine
10
5.302748
20
3.234188
30
0
11
5.5
21
3.236919
31
0
39
0
210
0
220
0
230
1
0
LINE
5
84
100
AcDbEntity
8
1
62
256
6
ByLayer
370
18
48
1
60
0
100
AcDbLine
10
5.5
20
3.236919
30
0
11
5.5
21
3.394996
31
0
39
0
210
0
220
0
230
1
0
LINE
5
85
100
AcDbEntity
8
SK1
62
256
6
ByLayer
370
18
48
1
60
0
100
AcDbLine
10
-0.9
20
4.246879
30
0
11
-0.9
21
2.026803
31
0
39
0
210
0
220
0
230
1
0
LINE
5
87
100
AcDbEntity
8
1
62
256
6
ByLayer
370
18
48
1
60
0
100
AcDbLine
10
4.288881
20
-3.780159
30
0
11
0.1
21
-3.780159
31
0
39
0
210
0
220
0
230
1
0
LINE
5
88
100
AcDbEntity
8
1
62
256
6
ByLayer
370
18
48
1
60
0
100
AcDbLine
10
0.1
20
-3.780159
30
0
11
0.1
21
-3.973264
31
0
39
0
210
0
220
0
230
1
0
LINE
5
89
100
AcDbEntity
8
SK1
62
256
6
ByLayer
370
18
48
1
60
0
100
AcDbLine
10
-0.9
20
-4.132739
30
0
11
-0.9
21
-2.000414
31
0
39
0
210
0
220
0
230
1
0
LINE
5
8A
100
AcDbEntity
8
SK1
62
256
6
ByLayer
370
18
48
1
60
0
100
AcDbLine
10
-0.9
20
-2.000414
30
0
11
-0.9
21
-1.279724
31
0
39
0
210
0
220
0
230
1
0
LINE
5
8B
100
AcDbEntity
8
SK1
62
256
6
ByLayer
370
18
48
1
60
0
100
AcDbLine
10
-0.9
20
1.388322
30
0
11
-0.9
21
2.026803
31
0
39
0
210
0
220
0
230
1
0
LINE
5
8C
100
AcDbEntity
8
SK1
62
256
6
ByLayer
370
18
48
1
60
0
100
AcDbLine
10
-0.9
20
-0.83483
30
0
11
-0.9
21
0.524341
31
0
39
0
210
0
220
0
230
1
0
LINE
5
8D
100
AcDbEntity
8
SK1
62
256
6
ByLayer
370
18
48
1
60
0
100
AcDbLine
10
-0.9
20
0.524341
30
0
11
-0.9
21
0.612092
31
0
39
0
210
0
220
0
230
1
0
LINE
5
8E
100
AcDbEntity
8
1
62
256
6
ByLayer
370
18
48
1
60
0
100
AcDbLine
10
5.644582
20
-3.961291
30
0
11
4.379815
21
-3.961291
31
0
39
0
210
0
220
0
230
1
0
LINE
5
8F
100
AcDbEntity
8
1
62
256
6
ByLayer
370
18
48
1
60
0
100
AcDbLine
10
5.567025
20
-1.85283
30
0
11
4.429759
21
-1.85283
31
0
39
0
210
0
220
0
230
1
0
LINE
5
90
100
AcDbEntity
8
1
62
256
6
ByLayer
370
18
48
1
60
0
100
AcDbLine
10
5.5
20
5.012305
30
0
11
5.5
21
4.004388
31
0
39
0
210
0
220
0
230
1
0
LINE
5
91
100
AcDbEntity
8
1
62
256
6
ByLayer
370
18
48
1
60
0
100
AcDbLine
10
5.5
20
4.004388
30
0
11
5.5
21
3.816216
31
0
39
0
210
0
220
0
230
1
0
LINE
5
92
100
AcDbEntity
8
1
62
256
6
ByLayer
370
18
48
1
60
0
100
AcDbLine
10
5.5
20
3.816216
30
0
11
5.5
21
3.394996
31
0
39
0
210
0
220
0
230
1
0
LINE
5
93
100
AcDbEntity
8
1
62
256
6
ByLayer
370
13
48
1
60
0
100
AcDbLine
10
4.275297
20
-3.973264
30
0
11
0.1
21
-3.973264
31
0
39
0
210
0
220
0
230
1
0
LINE
5
94
100
AcDbEntity
8
1
62
256
6
ByLayer
370
18
48
1
60
0
100
AcDbLine
10
0.1
20
-3.973264
30
0
11
0.1
21
-5.052653
31
0
39
0
210
0
220
0
230
1
0
LINE
5
95
100
AcDbEntity
8
1
62
256
6
ByLayer
370
18
48
1
60
0
100
AcDbLine
10
3.35126
20
-4.822271
30
0
11
4.683665
21
-4.795056
31
0
39
0
210
0
220
0
230
1
0
LINE
5
96
100
AcDbEntity
8
1
62
256
6
ByLayer
370
13
48
1
60
0
100
AcDbLine
10
5.35885
20
-5.945045
30
0
11
4.633617
21
-5.945045
31
0
39
0
210
0
220
0
230
1
0
LINE
5
97
100
AcDbEntity
8
1
62
256
6
ByLayer
370
13
48
1
60
0
100
AcDbLine
10
5.466196
20
-0.302327
30
0
11
4.528795
21
-0.302327
31
0
39
0
210
0
220
0
230
1
0
LINE
5
98
100
AcDbEntity
8
1
62
256
6
ByLayer
370
18
48
1
60
0
100
AcDbLine
10
4.320056
20
-3.256959
30
0
11
4.319307
21
-3.249969
31
0
39
0
210
0
220
0
230
1
0
LINE
5
99
100
AcDbEntity
8
1
62
256
6
ByLayer
370
18
48
1
60
0
100
AcDbLine
10
0.1
20
-3.295653
30
0
11
0.1
21
-3.780159
31
0
39
0
210
0
220
0
230
1
0
LINE
5
9A
100
AcDbEntity
8
1
62
256
6
ByLayer
370
18
48
1
60
0
100
AcDbLine
10
5.681881
20
-3.249969
30
0
11
5.680875
21
-3.256959
31
0
39
0
210
0
220
0
230
1
0
LINE
5
9B
100
AcDbEntity
8
1
62
256
6
ByLayer
370
18
48
1
60
0
100
AcDbLine
10
0.1
20
4.963543
30
0
11
0.1
21
4.004388
31
0
39
0
210
0
220
0
230
1
0
LINE
5
9C
100
AcDbEntity
8
1
62
256
6
ByLayer
370
18
48
1
60
0
100
AcDbLine
10
5.5
20
4.522741
30
0
11
5.623048
21
4.594593
31
0
39
0
210
0
220
0
230
1
0
LINE
5
9D
100
AcDbEntity
8
1
62
256
6
ByLayer
370
18
48
1
60
0
100
AcDbLine
10
5.55
20
-4.425
30
0
11
4.45
21
-4.425
31
0
39
0
210
0
220
0
230
1
0
LINE
5
9E
100
AcDbEntity
8
1
62
256
6
ByLayer
370
18
48
1
60
0
100
AcDbLine
10
5.5
20
-0.838945
30
0
11
5.5
21
-0.957258
31
0
39
0
210
0
220
0
230
1
0
LINE
5
9F
100
AcDbEntity
8
1
62
256
6
ByLayer
370
18
48
1
60
0
100
AcDbLine
10
0
20
-4.800538
30
0
11
0
21
4.89512
31
0
39
0
210
0
220
0
230
1
0
LINE
5
A0
100
AcDbEntity
8
80
62
256
6
ByLayer
370
18
48
1
60
0
100
AcDbLine
10
0
20
0
30
0
11
-0.733759
21
0
31
0
39
0
210
0
220
0
230
1
0
LINE
5
A1
100
AcDbEntity
8
81
62
256
6
ByLayer
370
18
48
1
60
0
100
AcDbLine
10
5.75
20
8.85
30
0
11
6.335538
21
8.85
31
0
39
0
210
0
220
0
230
1
0
LINE
5
A2
100
AcDbEntity
8
4
62
256
6
ByLayer
370
18
48
0.05
60
0
100
AcDbLine
10
0
20
0
30
0
11
6.035906
21
0
31
0
39
0
210
0
220
0
230
1
0
LINE
5
A4
100
AcDbEntity
8
SK4
62
256
6
ByLayer
370
18
48
0.05
60
0
100
AcDbLine
10
-1.5
20
0
30
0
11
6.593111
21
0
31
0
39
0
210
0
220
0
230
1
0
MTEXT
5
101
100
AcDbEntity
8
SK6
62
256
6
ByLayer
370
18
48
1
60
0
100
AcDbMText
10
-19.761499
20
-18.229277
30
0
210
0
220
0
230
1
1
\W0.7114;327R09-18 15002-GM
40
3.5
41
0
44
1.084337
50
0
71
7
72
5
7
iso_b_vert
0
DIMENSION
5
10D
100
AcDbEntity
8
2
62
256
6
ByLayer
370
13
48
1
60
0
100
AcDbDimension
2
DimnDraft3D1
10
19.509895
20
-8.85
30
0
11
19.509895
21
-7.511184
31
0
70
32
71
5
72
1
41
1
210
0
220
0
230
1
3
Standard
100
AcDbAlignedDimension
13
5.75
23
-8.85
33
0
14
0
24
0
34
0
50
90
100
AcDbRotatedDimension
1001
ACAD
1000
DSTYLE
1002
{
1070
    74
1070
     0
1070
   279
1070
     0
1070
   172
1070
     1
1070
   173
1070
     1
1070
   340
1005
102
1070
    76
1070
     1
1070
   271
1070
     2
1070
   272
1070
     2
1070
    77
1070
     1
1070
    73
1070
     0
1070
   171
1070
     3
1070
   274
1070
     4
1070
   282
1070
     1
1070
   177
1070
     7
1070
   176
1070
     7
1070
   178
1070
     7
1070
    78
1070
     8
1070
    48
1040
-0.005
1070
    41
1041
3.5
1070
   147
1041
1.75
1070
    42
1041
1.5875
1070
    44
1041
2.0
1070
   140
1041
3.5
1070
   343
1005
0
1070
   344
1005
0
1002
}
0
DIMENSION
5
118
100
AcDbEntity
8
SK2
62
256
6
ByLayer
370
13
48
1
60
0
100
AcDbDimension
2
DimnDraft3D2
10
-9.531513
20
-4.5
30
0
11
-9.531513
21
-4.784868
31
0
70
32
71
5
72
1
41
1
210
0
220
0
230
1
3
Standard
100
AcDbAlignedDimension
13
-1.5875
23
4.5
33
0
14
-1.5875
24
-4.5
34
0
50
90
100
AcDbRotatedDimension
1001
ACAD
1000
DSTYLE
1002
{
1070
    74
1070
     0
1070
   279
1070
     0
1070
   172
1070
     1
1070
   173
1070
     1
1070
   340
1005
102
1070
   271
1070
     2
1070
   272
1070
     2
1070
    77
1070
     1
1070
    73
1070
     0
1070
   171
1070
     3
1070
   274
1070
     4
1070
   177
1070
     7
1070
   176
1070
     7
1070
   178
1070
     7
1070
    78
1070
     8
1070
    48
1040
-0.005
1070
    41
1041
3.5
1070
   147
1041
1.75
1070
    42
1041
1.5875
1070
    44
1041
2.0
1070
   140
1041
3.5
1070
   343
1005
0
1070
   344
1005
0
1002
}
0
DIMENSION
5
12C
100
AcDbEntity
8
2
62
256
6
ByLayer
370
13
48
1
60
0
100
AcDbDimension
2
DimnDraft3D4
10
4.253391
20
13.677582
30
0
11
9.957175
21
13.677582
31
0
70
32
71
5
72
1
41
1
210
0
220
0
230
1
3
Standard
100
AcDbAlignedDimension
13
5.75
23
10.4375
33
0
14
4.253391
24
10.235697
34
0
50
0
100
AcDbRotatedDimension
1001
ACAD
1000
DSTYLE
1002
{
1070
   279
1070
     0
1070
   172
1070
     1
1070
   173
1070
     1
1070
   340
1005
102
1070
   271
1070
     2
1070
   272
1070
     2
1070
    77
1070
     1
1070
    73
1070
     0
1070
   171
1070
     3
1070
   274
1070
     4
1070
   177
1070
     7
1070
   176
1070
     7
1070
   178
1070
     7
1070
    78
1070
     8
1070
    48
1040
-0.005
1070
    41
1041
3.5
1070
   147
1041
1.75
1070
    42
1041
1.5875
1070
    44
1041
2.0
1070
   140
1041
3.5
1070
   343
1005
0
1070
   344
1005
0
1002
}
0
DIMENSION
5
136
100
AcDbEntity
8
2
62
256
6
ByLayer
370
13
48
1
60
0
100
AcDbDimension
2
DimnDraft3D5
10
-18.273856
20
5.345183
30
0
11
-18.273856
21
13.881257
31
0
70
32
71
5
72
1
41
1
210
0
220
0
230
1
3
Standard
100
AcDbAlignedDimension
13
2.8625
23
8.85
33
0
14
2.735997
24
5.345183
34
0
50
90
100
AcDbRotatedDimension
1001
ACAD
1000
DSTYLE
1002
{
1070
    74
1070
     0
1070
   279
1070
     0
1070
   172
1070
     1
1070
   173
1070
     1
1070
   340
1005
102
1070
   271
1070
     2
1070
   272
1070
     2
1070
    77
1070
     1
1070
    73
1070
     0
1070
   171
1070
     3
1070
   274
1070
     4
1070
   177
1070
     7
1070
   176
1070
     7
1070
   178
1070
     7
1070
    78
1070
     8
1070
    48
1040
-0.005
1070
    41
1041
3.5
1070
   147
1041
1.75
1070
    42
1041
1.5875
1070
    44
1041
2.0
1070
   140
1041
3.5
1070
   343
1005
0
1070
   344
1005
0
1002
}
0
ENDSEC
0
SECTION
2
OBJECTS
0
DICTIONARY
5
1a1
330
0
100
AcDbDictionary
280
0
281
1
3
ACAD_GROUP
350
1a2
3
ACAD_MLINESTYLE
350
1a3
0
DICTIONARY
5
1a2
330
0
100
AcDbDictionary
280
0
281
1
0
DICTIONARY
5
1a3
330
0
100
AcDbDictionary
280
0
281
1
3
Standard
350
18
0
MLINESTYLE
5
18
330
1a3
100
AcDbMlineStyle
2
Standard
70
0
3

62
256
51
90
52
90
71
2
49
-0.5
62
256
6
ByLayer
49
0.5
62
256
6
ByLayer
0
RASTERVARIABLES
5
18f
330

100
AcDbRasterVariables
90
0
70
1
71
1
72
1
0
ENDSEC
0
EOF
