0
SECTION
2
HEADER
9
$ACADVER
1
AC1015
9
$DWGCODEPAGE
3
ANSI_1252
9
$HANDSEED
5
18d
9
$ANGBASE
50
0
9
$ANGDIR
70
0
9
$ATTMODE
70
1
9
$AUNITS
70
0
9
$AUPREC
70
0
9
$CECOLOR
62
256
9
$CELTSCALE
40
1
9
$CELTYPE
6
ByLayer
9
$CELWEIGHT
370
18
9
$CLAYER
8
0
9
$CMLJUST
70
0
9
$CMLSCALE
40
1
9
$CMLSTYLE
2
Standard
9
$DIMSTYLE
2
Standard
9
$TEXTSIZE
40
0.2
9
$TEXTSTYLE
7
Standard
9
$LUNITS
70
2
9
$LUPREC
70
4
9
$EXTNAMES
290
1
9
$INSUNITS
70
4
9
$LTSCALE
40
1
9
$LWDISPLAY
290
1
9
$PDMODE
70
0
9
$PDSIZE
40
0
9
$PLINEGEN
70
0
0
ENDSEC
0
SECTION
2
CLASSES
0
CLASS
1
RASTERVARIABLES
2
AcDbRasterVariables
3
ISM
90
0
280
0
281
0
0
ENDSEC
0
SECTION
2
TABLES
0
TABLE
2
VPORT
5
183
100
AcDbSymbolTable
0
VPORT
5
1
100
AcDbSymbolTableRecord
100
AcDbViewportTableRecord
2
*Active
70
0
10
0
20
0
11
1
21
1
12
-1
22
1
13
0
23
0
14
0.5
24
0.5
15
10
25
10
16
0
26
0
36
1
17
0
27
0
37
0
0
ENDTAB
0
TABLE
2
LTYPE
5
184
100
AcDbSymbolTable
0
LTYPE
5
14
100
AcDbSymbolTableRecord
100
AcDbLinetypeTableRecord
70
0
2
ByBlock
3

72
65
73
0
40
0
0
LTYPE
5
15
100
AcDbSymbolTableRecord
100
AcDbLinetypeTableRecord
70
0
2
ByLayer
3

72
65
73
0
40
0
0
LTYPE
5
16
100
AcDbSymbolTableRecord
100
AcDbLinetypeTableRecord
70
0
2
CONTINUOUS
3
Solid line
72
65
73
0
40
0
0
LTYPE
5
6A
100
AcDbSymbolTableRecord
100
AcDbLinetypeTableRecord
70
0
2
CENTER
3
____ _ ____ _ ____ _ ____
72
65
73
4
40
47.5
49
22
74
0
49
-8.5
74
0
49
8.5
74
0
49
-8.5
74
0
0
LTYPE
5
6B
100
AcDbSymbolTableRecord
100
AcDbLinetypeTableRecord
70
0
2
DASHED
3
__ __ __ __ __ __ __ __ __
72
65
73
2
40
25.72
49
12.86
74
0
49
-12.86
74
0
0
ENDTAB
0
TABLE
2
LAYER
5
185
100
AcDbSymbolTable
0
LAYER
5
10
100
AcDbSymbolTableRecord
100
AcDbLayerTableRecord
2
0
70
0
62
7
6
CONTINUOUS
290
1
370
-3
390
0
0
LAYER
5
6D
100
AcDbSymbolTableRecord
100
AcDbLayerTableRecord
2
81
70
0
62
-3
6
CONTINUOUS
290
1
370
-3
390
0
0
LAYER
5
6F
100
AcDbSymbolTableRecord
100
AcDbLayerTableRecord
2
1
70
0
62
4
6
CONTINUOUS
290
1
370
-3
390
0
0
LAYER
5
71
100
AcDbSymbolTableRecord
100
AcDbLayerTableRecord
2
80
70
0
62
-6
6
CONTINUOUS
290
1
370
-3
390
0
0
LAYER
5
96
100
AcDbSymbolTableRecord
100
AcDbLayerTableRecord
2
4
70
0
62
-2
6
CENTER
290
1
370
-3
390
0
0
LAYER
5
D2
100
AcDbSymbolTableRecord
100
AcDbLayerTableRecord
2
2
70
0
62
7
6
CONTINUOUS
290
1
370
-3
390
0
0
LAYER
5
16f
100
AcDbSymbolTableRecord
100
AcDbLayerTableRecord
2
SK1
70
0
62
4
6
CONTINUOUS
290
1
370
-3
390
0
0
LAYER
5
170
100
AcDbSymbolTableRecord
100
AcDbLayerTableRecord
2
SK4
70
0
62
2
6
CENTER
290
1
370
-3
390
0
0
LAYER
5
171
100
AcDbSymbolTableRecord
100
AcDbLayerTableRecord
2
SK6
70
0
62
5
6
CONTINUOUS
290
1
370
-3
390
0
0
LAYER
5
172
100
AcDbSymbolTableRecord
100
AcDbLayerTableRecord
2
SK2
70
0
62
7
6
CONTINUOUS
290
1
370
-3
390
0
0
ENDTAB
0
TABLE
2
STYLE
5
186
100
AcDbSymbolTable
0
STYLE
5
11
100
AcDbSymbolTableRecord
100
AcDbTextStyleTableRecord
2
Standard
3
txt
70
0
71
0
40
0
41
1
42
0
50
0
0
STYLE
5
CD
100
AcDbSymbolTableRecord
100
AcDbTextStyleTableRecord
2
iso_b_vert
3
simplex.shx
70
0
71
0
40
0
41
1
42
0
50
0
0
STYLE
5
CE
100
AcDbSymbolTableRecord
100
AcDbTextStyleTableRecord
2
DWGDirectTextStyle
3
simplex
70
0
71
0
40
0
41
1
42
0
50
0
0
ENDTAB
0
TABLE
2
DIMSTYLE
5
187
100
AcDbSymbolTable
100
AcDbDimStyleTable
0
DIMSTYLE
105
27
100
AcDbSymbolTableRecord
100
AcDbDimStyleTableRecord
2
Standard
70
0
3
<>
41
0.18
42
0.0625
44
0.18
140
0.18
147
0.09
73
0
74
0
77
1
271
2
275
0
278
52
280
0
340
11
0
ENDTAB
0
TABLE
2
VIEW
5
188
100
AcDbSymbolTable
0
ENDTAB
0
TABLE
2
UCS
5
189
100
AcDbSymbolTable
0
ENDTAB
0
TABLE
2
APPID
5
18a
100
AcDbSymbolTable
0
APPID
5
12
100
AcDbSymbolTableRecord
100
AcDbRegAppTableRecord
2
ACAD
70
0
0
ENDTAB
0
TABLE
2
BLOCK_RECORD
5
18b
100
AcDbSymbolTable
0
BLOCK_RECORD
5
1F
100
AcDbSymbolTableRecord
100
AcDbBlockTableRecord
2
*Model_Space
340
0
70
0
0
BLOCK_RECORD
5
1B
100
AcDbSymbolTableRecord
100
AcDbBlockTableRecord
2
*Paper_Space
340
0
70
0
0
BLOCK_RECORD
5
23
100
AcDbSymbolTableRecord
100
AcDbBlockTableRecord
2
*Paper_Space0
340
0
70
0
0
BLOCK_RECORD
5
D0
100
AcDbSymbolTableRecord
100
AcDbBlockTableRecord
2
DimnDraft3D1
340
0
70
0
0
BLOCK_RECORD
5
D9
100
AcDbSymbolTableRecord
100
AcDbBlockTableRecord
2
DimnDraft3D22
340
0
70
0
0
BLOCK_RECORD
5
E3
100
AcDbSymbolTableRecord
100
AcDbBlockTableRecord
2
DimnDraft3D33
340
0
70
0
0
BLOCK_RECORD
5
EE
100
AcDbSymbolTableRecord
100
AcDbBlockTableRecord
2
DimnDraft3D4
340
0
70
0
0
BLOCK_RECORD
5
F8
100
AcDbSymbolTableRecord
100
AcDbBlockTableRecord
2
DimnDraft3D5
340
0
70
0
0
BLOCK_RECORD
5
102
100
AcDbSymbolTableRecord
100
AcDbBlockTableRecord
2
DimnDraft3D6
340
0
70
0
0
BLOCK_RECORD
5
10C
100
AcDbSymbolTableRecord
100
AcDbBlockTableRecord
2
DimnDraft3D7
340
0
70
0
0
ENDTAB
0
ENDSEC
0
SECTION
2
BLOCKS
0
BLOCK
5
20
100
AcDbEntity
8
0
100
AcDbBlockBegin
2
*Model_Space
70
0
10
0
20
0
30
0
3
*Model_Space
0
ENDBLK
5
21
100
AcDbEntity
8
0
100
AcDbBlockEnd
0
BLOCK
5
1C
100
AcDbEntity
8
0
100
AcDbBlockBegin
2
*Paper_Space
70
0
10
0
20
0
30
0
3
*Paper_Space
0
ENDBLK
5
1D
100
AcDbEntity
8
0
100
AcDbBlockEnd
0
BLOCK
5
24
100
AcDbEntity
8
0
100
AcDbBlockBegin
2
*Paper_Space0
70
0
10
0
20
0
30
0
3
*Paper_Space0
0
ENDBLK
5
25
100
AcDbEntity
8
0
100
AcDbBlockEnd
0
BLOCK
5
D6
100
AcDbEntity
8
0
100
AcDbBlockBegin
2
DimnDraft3D1
70
0
10
0
20
0
30
0
3
DimnDraft3D1
0
MTEXT
5
D1
100
AcDbEntity
8
2
62
256
6
ByLayer
370
18
48
1
60
0
100
AcDbMText
10
18.71681
20
-6.636184
30
0
210
0
220
0
230
1
1
\W1.0454;%%c17,7
40
3.5
41
0
44
1.084337
50
90
71
7
72
5
7
iso_b_vert
0
LINE
5
D3
100
AcDbEntity
8
2
62
256
6
ByLayer
370
13
48
1
60
0
100
AcDbLine
10
6.650625
20
8.85
30
0
11
22.46681
21
8.85
31
0
39
0
210
0
220
0
230
1
0
LINE
5
D4
100
AcDbEntity
8
2
62
256
6
ByLayer
370
13
48
1
60
0
100
AcDbLine
10
20.46681
20
8.85
30
0
11
20.46681
21
-9.011184
31
0
39
0
210
0
220
0
230
1
0
SOLID
5
D5
100
AcDbEntity
8
2
62
256
6
ByLayer
370
13
48
1
60
0
100
AcDbTrace
10
20.46681
20
8.85
30
0
11
20.927594
21
5.350002
31
0
12
20.006027
22
5.349998
32
0
13
20.46681
23
8.85
33
0
39
0
210
0
220
0
230
1
0
ENDBLK
5
D7
100
AcDbEntity
8
0
100
AcDbBlockEnd
0
BLOCK
5
DA
100
AcDbEntity
8
0
100
AcDbBlockBegin
2
DimnDraft3D22
70
0
10
0
20
0
30
0
3
DimnDraft3D22
0
LINE
5
DC
100
AcDbEntity
8
2
62
256
6
ByLayer
370
25
48
1
60
0
100
AcDbLine
10
5.85
20
9.060425
30
0
11
5.85
21
28.424058
31
0
39
0
210
0
220
0
230
1
0
LINE
5
DD
100
AcDbEntity
8
2
62
256
6
ByLayer
370
25
48
1
60
0
100
AcDbLine
10
0
20
7.92451
30
0
11
0
21
28.424058
31
0
39
0
210
0
220
0
230
1
0
LINE
5
DE
100
AcDbEntity
8
2
62
256
6
ByLayer
370
25
48
1
60
0
100
AcDbLine
10
-8.75
20
26.424058
30
0
11
19.143585
21
26.424058
31
0
39
0
210
0
220
0
230
1
0
SOLID
5
DF
100
AcDbEntity
8
2
62
256
6
ByLayer
370
25
48
1
60
0
100
AcDbTrace
10
5.85
20
26.424058
30
0
11
9.349998
21
26.884842
31
0
12
9.350002
22
25.963274
32
0
13
5.85
23
26.424058
33
0
39
0
210
0
220
0
230
1
0
SOLID
5
E0
100
AcDbEntity
8
2
62
256
6
ByLayer
370
25
48
1
60
0
100
AcDbTrace
10
0
20
26.424058
30
0
11
-3.499998
21
25.963274
31
0
12
-3.500002
22
26.884842
32
0
13
0
23
26.424058
33
0
39
0
210
0
220
0
230
1
0
MTEXT
5
E1
100
AcDbEntity
8
2
62
256
6
ByLayer
370
18
48
1
60
0
100
AcDbMText
10
12.171217
20
27.299058
30
0
210
0
220
0
230
1
1
\W0.7003;5,85
40
3.5
41
0
44
1.084337
50
0
71
7
72
5
7
iso_b_vert
0
ENDBLK
5
DB
100
AcDbEntity
8
0
100
AcDbBlockEnd
0
BLOCK
5
E4
100
AcDbEntity
8
0
100
AcDbBlockBegin
2
DimnDraft3D33
70
0
10
0
20
0
30
0
3
DimnDraft3D33
0
LINE
5
E6
100
AcDbEntity
8
SK2
62
256
6
ByLayer
370
25
48
1
60
0
100
AcDbLine
10
4.95
20
11.23282
30
0
11
4.95
21
21.797073
31
0
39
0
210
0
220
0
230
1
0
LINE
5
E8
100
AcDbEntity
8
SK2
62
256
6
ByLayer
370
25
48
1
60
0
100
AcDbLine
10
0
20
7.92451
30
0
11
0
21
21.797073
31
0
39
0
210
0
220
0
230
1
0
LINE
5
E9
100
AcDbEntity
8
SK2
62
256
6
ByLayer
370
25
48
1
60
0
100
AcDbLine
10
-8.75
20
19.797073
30
0
11
19.598071
21
19.797073
31
0
39
0
210
0
220
0
230
1
0
SOLID
5
EA
100
AcDbEntity
8
SK2
62
256
6
ByLayer
370
25
48
1
60
0
100
AcDbTrace
10
4.95
20
19.797073
30
0
11
8.449998
21
20.257857
31
0
12
8.450002
22
19.33629
32
0
13
4.95
23
19.797073
33
0
39
0
210
0
220
0
230
1
0
SOLID
5
EB
100
AcDbEntity
8
SK2
62
256
6
ByLayer
370
25
48
1
60
0
100
AcDbTrace
10
0
20
19.797073
30
0
11
-3.499998
21
19.33629
31
0
12
-3.500002
22
20.257857
32
0
13
0
23
19.797073
33
0
39
0
210
0
220
0
230
1
0
MTEXT
5
EC
100
AcDbEntity
8
SK2
62
256
6
ByLayer
370
18
48
1
60
0
100
AcDbMText
10
12.257281
20
20.672073
30
0
210
0
220
0
230
1
1
\W0.7346;4,95
40
3.5
41
0
44
1.084337
50
0
71
7
72
5
7
iso_b_vert
0
ENDBLK
5
E5
100
AcDbEntity
8
0
100
AcDbBlockEnd
0
BLOCK
5
F5
100
AcDbEntity
8
0
100
AcDbBlockBegin
2
DimnDraft3D4
70
0
10
0
20
0
30
0
3
DimnDraft3D4
0
MTEXT
5
EF
100
AcDbEntity
8
2
62
256
6
ByLayer
370
18
48
1
60
0
100
AcDbMText
10
11.328504
20
13.005311
30
0
210
0
220
0
230
1
1
\W0.7166;0,226
40
3.5
41
0
44
1.084337
50
0
71
7
72
5
7
iso_b_vert
0
LINE
5
F0
100
AcDbEntity
8
2
62
256
6
ByLayer
370
13
48
1
60
0
100
AcDbLine
10
5.063125
20
10.4375
30
0
11
5.063125
21
14.130311
31
0
39
0
210
0
220
0
230
1
0
LINE
5
F1
100
AcDbEntity
8
2
62
256
6
ByLayer
370
13
48
1
60
0
100
AcDbLine
10
4.836875
20
10.4375
30
0
11
4.836875
21
14.130311
31
0
39
0
210
0
220
0
230
1
0
LINE
5
F2
100
AcDbEntity
8
2
62
256
6
ByLayer
370
13
48
1
60
0
100
AcDbLine
10
-3.913125
20
12.130311
30
0
11
20.870609
21
12.130311
31
0
39
0
210
0
220
0
230
1
0
SOLID
5
F3
100
AcDbEntity
8
2
62
256
6
ByLayer
370
13
48
1
60
0
100
AcDbTrace
10
5.063125
20
12.130311
30
0
11
8.563123
21
12.591094
31
0
12
8.563127
22
11.669527
32
0
13
5.063125
23
12.130311
33
0
39
0
210
0
220
0
230
1
0
SOLID
5
F4
100
AcDbEntity
8
2
62
256
6
ByLayer
370
13
48
1
60
0
100
AcDbTrace
10
4.836875
20
12.130311
30
0
11
1.336877
21
11.669527
31
0
12
1.336873
22
12.591094
32
0
13
4.836875
23
12.130311
33
0
39
0
210
0
220
0
230
1
0
ENDBLK
5
F6
100
AcDbEntity
8
0
100
AcDbBlockEnd
0
BLOCK
5
FF
100
AcDbEntity
8
0
100
AcDbBlockBegin
2
DimnDraft3D5
70
0
10
0
20
0
30
0
3
DimnDraft3D5
0
MTEXT
5
F9
100
AcDbEntity
8
2
62
256
6
ByLayer
370
18
48
1
60
0
100
AcDbMText
10
-15.231103
20
12.178979
30
0
210
0
220
0
230
1
1
\W0.7003;0,98
40
3.5
41
0
44
1.084337
50
90
71
7
72
5
7
iso_b_vert
0
LINE
5
FA
100
AcDbEntity
8
2
62
256
6
ByLayer
370
13
48
1
60
0
100
AcDbLine
10
3.249375
20
8.85
30
0
11
-16.356103
21
8.85
31
0
39
0
210
0
220
0
230
1
0
LINE
5
FB
100
AcDbEntity
8
2
62
256
6
ByLayer
370
13
48
1
60
0
100
AcDbLine
10
2.061704
20
7.863235
30
0
11
-16.356103
21
7.863235
31
0
39
0
210
0
220
0
230
1
0
LINE
5
FC
100
AcDbEntity
8
2
62
256
6
ByLayer
370
13
48
1
60
0
100
AcDbLine
10
-14.356103
20
-0.886765
30
0
11
-14.356103
21
19.151348
31
0
39
0
210
0
220
0
230
1
0
SOLID
5
FD
100
AcDbEntity
8
2
62
256
6
ByLayer
370
13
48
1
60
0
100
AcDbTrace
10
-14.356103
20
8.85
30
0
11
-14.816887
21
12.349998
31
0
12
-13.895319
22
12.350002
32
0
13
-14.356103
23
8.85
33
0
39
0
210
0
220
0
230
1
0
SOLID
5
FE
100
AcDbEntity
8
2
62
256
6
ByLayer
370
13
48
1
60
0
100
AcDbTrace
10
-14.356103
20
7.863235
30
0
11
-13.895319
21
4.363237
31
0
12
-14.816887
22
4.363234
32
0
13
-14.356103
23
7.863235
33
0
39
0
210
0
220
0
230
1
0
ENDBLK
5
100
100
AcDbEntity
8
0
100
AcDbBlockEnd
0
BLOCK
5
109
100
AcDbEntity
8
0
100
AcDbBlockBegin
2
DimnDraft3D6
70
0
10
0
20
0
30
0
3
DimnDraft3D6
0
MTEXT
5
103
100
AcDbEntity
8
SK2
62
256
6
ByLayer
370
18
48
1
60
0
100
AcDbMText
10
2.706513
20
-13.707792
30
0
210
0
220
0
230
1
1
\W0.8385;60%%d
40
3.5
41
0
44
1.084337
50
0.097873896846301
71
7
72
5
7
iso_b_vert
0
LINE
5
104
100
AcDbEntity
8
SK2
62
256
6
ByLayer
370
13
48
1
60
0
100
AcDbLine
10
3.522903
20
6.532129
30
0
11
-7.688945
21
-13.245786
31
0
39
0
210
0
220
0
230
1
0
LINE
5
105
100
AcDbEntity
8
SK2
62
256
6
ByLayer
370
13
48
1
60
0
100
AcDbLine
10
6.637602
20
6.094578
30
0
11
17.66414
21
-13.202478
31
0
39
0
210
0
220
0
230
1
0
ARC
5
106
100
AcDbEntity
8
SK2
62
256
6
ByLayer
370
13
48
1
60
0
100
AcDbCircle
39
0
10
4.94955
20
9.048762
30
0
40
23.6276888429102
210
0
220
0
230
1
100
AcDbArc
50
240.451652
51
299.744096
0
SOLID
5
107
100
AcDbEntity
8
SK2
62
256
6
ByLayer
370
13
48
1
60
0
100
AcDbTrace
10
-6.702629
20
-11.505907
30
0
11
-3.383862
21
-12.709275
31
0
12
-3.808398
22
-13.527233
32
0
13
-6.702629
23
-11.505907
33
0
39
0
210
0
220
0
230
1
0
SOLID
5
108
100
AcDbEntity
8
SK2
62
256
6
ByLayer
370
13
48
1
60
0
100
AcDbTrace
10
16.671886
20
-11.465978
30
0
11
13.78458
21
-13.497179
31
0
12
13.357246
22
-12.680679
32
0
13
16.671886
23
-11.465978
33
0
39
0
210
0
220
0
230
1
0
ENDBLK
5
10A
100
AcDbEntity
8
0
100
AcDbBlockEnd
0
BLOCK
5
113
100
AcDbEntity
8
0
100
AcDbBlockBegin
2
DimnDraft3D7
70
0
10
0
20
0
30
0
3
DimnDraft3D7
0
MTEXT
5
10D
100
AcDbEntity
8
SK2
62
256
6
ByLayer
370
18
48
1
60
0
100
AcDbMText
10
-25.005228
20
10.725282
30
0
210
0
220
0
230
1
1
\W1.6313;%%c9
40
3.5
41
0
44
1.084337
50
90
71
7
72
5
7
iso_b_vert
0
LINE
5
10E
100
AcDbEntity
8
SK2
62
256
6
ByLayer
370
13
48
1
60
0
100
AcDbLine
10
-1.5875
20
4.5
30
0
11
-25.255228
21
4.5
31
0
39
0
210
0
220
0
230
1
0
LINE
5
10F
100
AcDbEntity
8
SK2
62
256
6
ByLayer
370
13
48
1
60
0
100
AcDbLine
10
-1.5875
20
-4.5
30
0
11
-25.255228
21
-4.5
31
0
39
0
210
0
220
0
230
1
0
LINE
5
110
100
AcDbEntity
8
SK2
62
256
6
ByLayer
370
13
48
1
60
0
100
AcDbLine
10
-23.255228
20
-4.5
30
0
11
-23.255228
21
19.420019
31
0
39
0
210
0
220
0
230
1
0
SOLID
5
111
100
AcDbEntity
8
SK2
62
256
6
ByLayer
370
13
48
1
60
0
100
AcDbTrace
10
-23.255228
20
4.5
30
0
11
-22.794445
21
1.000002
31
0
12
-23.716012
22
0.999998
32
0
13
-23.255228
23
4.5
33
0
39
0
210
0
220
0
230
1
0
SOLID
5
112
100
AcDbEntity
8
SK2
62
256
6
ByLayer
370
13
48
1
60
0
100
AcDbTrace
10
-23.255228
20
-4.5
30
0
11
-23.716012
21
-1.000002
31
0
12
-22.794445
22
-0.999998
32
0
13
-23.255228
23
-4.5
33
0
39
0
210
0
220
0
230
1
0
ENDBLK
5
114
100
AcDbEntity
8
0
100
AcDbBlockEnd
0
ENDSEC
0
SECTION
2
ENTITIES
0
ELLIPSE
5
9D
100
AcDbEntity
8
1
62
256
6
ByLayer
370
18
48
1
60
0
100
AcDbEllipse
10
3.436292
20
-0.184099
30
0
11
0.498013030284793
21
7.85816721368256
31
0
210
0
220
0
230
1
40
0.02948
41
-1.96464427656671
42
-1.56937264358352
0
ELLIPSE
5
9E
100
AcDbEntity
8
1
62
256
6
ByLayer
370
13
48
1
60
0
100
AcDbEllipse
10
4.192977
20
-0.232054
30
0
11
0.498126945457226
21
7.85996468567368
31
0
210
0
220
0
230
1
40
0.02948
41
-1.95790565936294
42
-1.55807422907624
0
ELLIPSE
5
9F
100
AcDbEntity
8
1
62
256
6
ByLayer
370
18
48
1
60
0
100
AcDbEllipse
10
3.263929
20
-0.173175
30
0
11
0.479024070977332
21
7.5585396770968
31
0
210
0
220
0
230
1
40
0.02948
41
-1.96110253528034
42
-1.50077721270047
0
ELLIPSE
5
A0
100
AcDbEntity
8
1
62
256
6
ByLayer
370
13
48
1
60
0
100
AcDbEllipse
10
4.279158
20
-0.237516
30
0
11
0.501301487488778
21
7.91005590938431
31
0
210
0
220
0
230
1
40
0.02948
41
-1.95800438494645
42
-1.56938427953815
0
POINT
5
6C
100
AcDbEntity
8
81
62
256
6
ByLayer
370
18
48
1
60
0
100
AcDbPoint
10
4.95
20
8.85
30
0
39
0
210
0
220
0
230
1
50
360
0
POINT
5
6E
100
AcDbEntity
8
1
62
256
6
ByLayer
370
18
48
1
60
1
100
AcDbPoint
10
4.95
20
-8.85
30
0
39
0
210
0
220
0
230
1
50
360
0
POINT
5
70
100
AcDbEntity
8
80
62
256
6
ByLayer
370
18
48
1
60
0
100
AcDbPoint
10
0
20
0
30
0
39
0
210
0
220
0
230
1
50
360
0
POINT
5
72
100
AcDbEntity
8
1
62
256
6
ByLayer
370
18
48
1
60
1
100
AcDbPoint
10
0
20
-4.5
30
0
39
0
210
0
220
0
230
1
50
360
0
POINT
5
73
100
AcDbEntity
8
1
62
256
6
ByLayer
370
18
48
1
60
1
100
AcDbPoint
10
0
20
4.5
30
0
39
0
210
0
220
0
230
1
50
360
0
SPLINE
5
A1
100
AcDbEntity
8
1
62
256
6
ByLayer
370
18
48
1
60
0
100
AcDbSpline
70
4
71
3
72
8
73
4
40
0
40
0
40
0
40
0
40
1
40
1
40
1
40
1
41
1
10
5.063125
20
-3.70649469451709
30
0
41
1
10
5.06713398724379
20
-3.54683550839226
30
0
41
1
10
5.06847841541137
20
-3.38709442588359
30
0
41
1
10
5.0670744734892
20
-3.22739530215009
30
0
0
SPLINE
5
A2
100
AcDbEntity
8
1
62
256
6
ByLayer
370
18
48
1
60
0
100
AcDbSpline
70
4
71
3
72
8
73
4
40
0
40
0
40
0
40
0
40
1
40
1
40
1
40
1
41
1
10
4.85568115565159
20
-3.22739530215009
30
0
41
1
10
4.84665245136578
20
-3.38697548999832
30
0
41
1
10
4.84039370345597
20
-3.54671869300708
30
0
41
1
10
4.836875
20
-3.70649469451709
30
0
0
SPLINE
5
A3
100
AcDbEntity
8
1
62
256
6
ByLayer
370
18
48
1
60
0
100
AcDbSpline
70
4
71
3
72
8
73
4
40
0
40
0
40
0
40
0
40
1
40
1
40
1
40
1
41
1
10
5.0670744734892
20
-3.22739530215009
30
0
41
1
10
5.12542099121991
20
-2.75608900119971
30
0
41
1
10
5.16460297820846
20
-2.2832535521423
30
0
41
1
10
5.1811464719121
20
-1.80861176565776
30
0
0
SPLINE
5
A4
100
AcDbEntity
8
1
62
256
6
ByLayer
370
18
48
1
60
0
100
AcDbSpline
70
4
71
3
72
8
73
4
40
0
40
0
40
0
40
0
40
1
40
1
40
1
40
1
41
1
10
4.80607164670216
20
-1.80861176565776
30
0
41
1
10
4.80053707950951
20
-2.28230549098419
30
0
41
1
10
4.81789862003317
20
-2.75520470716708
30
0
41
1
10
4.85568115565159
20
-3.22739530215009
30
0
0
SPLINE
5
A5
100
AcDbEntity
8
1
62
256
6
ByLayer
370
18
48
1
60
0
100
AcDbSpline
70
4
71
3
72
16
73
12
40
0
40
0
40
0
40
0
40
0.156128241677944
40
0.156128241677944
40
0.366059566317415
40
0.366059566317415
40
0.575990845807217
40
0.575990845807217
40
0.787970303326734
40
0.787970303326734
40
1
40
1
40
1
40
1
41
1
10
3.61065900949286
20
-6.59000910470152
30
0
41
1
10
3.60611376445801
20
-6.59000911293356
30
0
41
1
10
3.60153899845547
20
-6.58990145620953
30
0
41
1
10
3.59074436087745
20
-6.58939718916596
30
0
41
1
10
3.58450048374071
20
-6.58891377085871
30
0
41
1
10
3.57190749226957
20
-6.58755983386285
30
0
41
1
10
3.56555800907655
20
-6.58668927566683
30
0
41
1
10
3.55269192764974
20
-6.58455210935426
30
0
41
1
10
3.54617392078476
20
-6.58328165658446
30
0
41
1
10
3.53303025171114
20
-6.58034874145085
30
0
41
1
10
3.52640417512874
20
-6.57868609947525
30
0
41
1
10
3.5197253372185
20
-6.57682837530555
30
0
0
SPLINE
5
A6
100
AcDbEntity
8
1
62
256
6
ByLayer
370
18
48
1
60
0
100
AcDbSpline
70
4
71
3
72
14
73
10
40
0
40
0
40
0
40
0
40
0.368487863244822
40
0.368487863244822
40
0.552731719649336
40
0.552731719649336
40
0.77636577169016
40
0.77636577169016
40
1
40
1
40
1
40
1
41
1
10
3.5197253372185
20
-6.57682837530555
30
0
41
1
10
3.09972247493358
20
-6.57873648523821
30
0
41
1
10
2.67970496034981
20
-6.58042099972369
30
0
41
1
10
2.04965704336193
20
-6.582627922509
30
0
41
1
10
1.83963744335268
20
-6.58331025903539
30
0
41
1
10
1.37468933391822
20
-6.58470571472262
30
0
41
1
10
1.11975906199255
20
-6.58539422691655
30
0
41
1
10
0.609887662856704
20
-6.58662278856855
30
0
41
1
10
0.354946485456208
20
-6.58716283846661
30
0
41
1
10
0.100000000000006
20
-6.58763103551996
30
0
0
SPLINE
5
A7
100
AcDbEntity
8
1
62
256
6
ByLayer
370
18
48
1
60
0
100
AcDbSpline
70
4
71
3
72
10
73
6
40
0
40
0
40
0
40
0
40
0.750814004651719
40
0.750814004651719
40
1
40
1
40
1
40
1
41
1
10
5.84999999999998
20
-6.53628118348172
30
0
41
1
10
5.79112421350966
20
-6.56307818548035
30
0
41
1
10
5.73506768442767
20
-6.5799321242809
30
0
41
1
10
5.66386115413915
20
-6.58890396046982
30
0
41
1
10
5.64638734071609
20
-6.59001387376489
30
0
41
1
10
5.62920950179243
20
-6.58999465906413
30
0
0
SPLINE
5
A8
100
AcDbEntity
8
1
62
256
6
ByLayer
370
18
48
1
60
0
100
AcDbSpline
70
4
71
3
72
14
73
10
40
0
40
0
40
0
40
0
40
0.269067570587558
40
0.269067570587558
40
0.538135141424851
40
0.538135141424851
40
0.807202736037471
40
0.807202736037471
40
1
40
1
40
1
40
1
41
1
10
5.063125
20
-3.70649469451709
30
0
41
1
10
5.13366765018814
20
-3.64473131401792
30
0
41
1
10
5.20421744891955
20
-3.5829699745079
30
0
41
1
10
5.34533330555406
20
-3.45945193962655
30
0
41
1
10
5.41589936102151
20
-3.39769524319243
30
0
41
1
10
5.55705007027747
20
-3.27418715723451
30
0
41
1
10
5.62763472087893
20
-3.21243576631849
30
0
41
1
10
5.74881434590868
20
-3.10644238105985
30
0
41
1
10
5.79940412026413
20
-3.06219890006901
30
0
41
1
10
5.85000000000001
20
-3.0179571647607
30
0
0
SPLINE
5
A9
100
AcDbEntity
8
1
62
256
6
ByLayer
370
18
48
1
60
0
100
AcDbSpline
70
4
71
3
72
18
73
14
40
0
40
0
40
0
40
0
40
0.25
40
0.25
40
0.375
40
0.375
40
0.5
40
0.5
40
0.625
40
0.625
40
0.75
40
0.75
40
1
40
1
40
1
40
1
41
1
10
5.85000000000001
20
-3.0179571647607
30
0
41
1
10
5.85000000000001
20
-2.7265626716227
30
0
41
1
10
5.85000000000001
20
-2.42986607187461
30
0
41
1
10
5.85000000000001
20
-1.97688596740105
30
0
41
1
10
5.85000000000001
20
-1.82461397033939
30
0
41
1
10
5.85000000000001
20
-1.51913326789236
30
0
41
1
10
5.85000000000001
20
-1.36571298642289
30
0
41
1
10
5.85000000000001
20
-1.05751032579624
30
0
41
1
10
5.85000000000001
20
-0.902466094351951
30
0
41
1
10
5.85000000000001
20
-0.592875479823476
30
0
41
1
10
5.85000000000003
20
-0.438218847560961
30
0
41
1
10
5.85000000000003
20
0.0253381463346898
30
0
41
1
10
5.85000000000001
20
0.333827184810644
30
0
41
1
10
5.85000000000001
20
0.641756794819116
30
0
0
SPLINE
5
AA
100
AcDbEntity
8
1
62
256
6
ByLayer
370
18
48
1
60
0
100
AcDbSpline
70
4
71
3
72
8
73
4
40
0
40
0
40
0
40
0
40
1
40
1
40
1
40
1
41
1
10
5.85000000000001
20
0.641756794819145
30
0
41
1
10
5.77175864985706
20
0.449832610766009
30
0
41
1
10
5.69842784496855
20
0.246777141318773
30
0
41
1
10
5.62953350576533
20
0.0323629498068954
30
0
0
SPLINE
5
AB
100
AcDbEntity
8
1
62
256
6
ByLayer
370
18
48
1
60
0
100
AcDbSpline
70
4
71
3
72
10
73
6
40
0
40
0
40
0
40
0
40
0.5
40
0.5
40
1
40
1
40
1
40
1
41
1
10
5.62953350576533
20
0.0323629498068954
30
0
41
1
10
5.56022494910219
20
-0.183340376673271
30
0
41
1
10
5.4965390092734
20
-0.407001996513003
30
0
41
1
10
5.37915643523281
20
-0.869937021504853
30
0
41
1
10
5.32546349742684
20
-1.10920688121698
30
0
41
1
10
5.27649263891901
20
-1.35663422575686
30
0
0
SPLINE
5
AC
100
AcDbEntity
8
1
62
256
6
ByLayer
370
18
48
1
60
0
100
AcDbSpline
70
4
71
3
72
8
73
4
40
0
40
0
40
0
40
0
40
1
40
1
40
1
40
1
41
1
10
5.27649263891901
20
-1.35663422575686
30
0
41
1
10
5.24660151397286
20
-1.50766040532758
30
0
41
1
10
5.21475510274094
20
-1.65832939285571
30
0
41
1
10
5.1811464719121
20
-1.80861176565776
30
0
0
SPLINE
5
AD
100
AcDbEntity
8
SK1
62
256
6
ByLayer
370
18
48
1
60
0
100
AcDbSpline
70
4
71
3
72
8
73
4
40
0
40
0
40
0
40
0
40
1
40
1
40
1
40
1
41
0.994538957084219
10
-0.26181442913661
20
1.06537612480946
30
0
41
0.993641195027474
10
-0.449501045465437
20
1.17414132909385
30
0
41
0.995461542666068
10
-0.646113565062535
20
1.27672889067487
30
0
41
1
10
-0.849999999999983
20
1.37233601318721
30
0
0
SPLINE
5
AE
100
AcDbEntity
8
SK1
62
256
6
ByLayer
370
18
48
1
60
0
100
AcDbSpline
70
4
71
3
72
8
73
4
40
0
40
0
40
0
40
0
40
1
40
1
40
1
40
1
41
1
10
-0.849999999999983
20
2.07603692163741
30
0
41
0.993289268541031
10
-0.547866641305347
20
2.10879629251037
30
0
41
0.99252132437437
10
-0.262822284687834
20
2.11695781379333
30
0
41
0.997696167500019
10
-1.97725E-11
20
2.10031884275117
30
0
0
SPLINE
5
AF
100
AcDbEntity
8
SK1
62
256
6
ByLayer
370
18
48
1
60
0
100
AcDbSpline
70
4
71
3
72
8
73
4
40
0
40
0
40
0
40
0
40
1
40
1
40
1
40
1
41
1
10
-0.849999999999983
20
-1.30498216941845
30
0
41
0.997373137931725
10
-0.649576000231805
20
-1.21099866381625
30
0
41
0.997373137931725
10
-0.456349425321057
20
-1.11034790438531
30
0
41
1
10
-0.27184301394833
20
-1.00382307811194
30
0
0
SPLINE
5
B0
100
AcDbEntity
8
1
62
256
6
ByLayer
370
18
48
1
60
0
100
AcDbSpline
70
4
71
3
72
12
73
8
40
0
40
0
40
0
40
0
40
0.25
40
0.25
40
0.5
40
0.5
40
1
40
1
40
1
40
1
41
1
10
4.2194958534401
20
-3.21289261782846
30
0
41
1
10
4.22830272197969
20
-3.21288922273177
30
0
41
1
10
4.23691425798374
20
-3.21346255683037
30
0
41
1
10
4.25375652166393
20
-3.21573358088494
30
0
41
1
10
4.26192865296549
20
-3.21744458972177
30
0
41
1
10
4.28442791921772
20
-3.22401261946101
30
0
41
1
10
4.29710906501735
20
-3.23041220940809
30
0
41
1
10
4.30579145780477
20
-3.23807391602259
30
0
0
SPLINE
5
B1
100
AcDbEntity
8
1
62
256
6
ByLayer
370
18
48
1
60
0
100
AcDbSpline
70
4
71
3
72
14
73
10
40
0
40
0
40
0
40
0
40
0.25
40
0.25
40
0.5
40
0.5
40
0.75
40
0.75
40
1
40
1
40
1
40
1
41
1
10
4.51305672662654
20
-0.241124784912074
30
0
41
1
10
4.5104910277392
20
-0.230564499642753
30
0
41
1
10
4.50730393787084
20
-0.220187635513327
30
0
41
1
10
4.49917611598987
20
-0.199931853913313
30
0
41
1
10
4.49426932171435
20
-0.190100528690721
30
0
41
1
10
4.48187684106086
20
-0.171817716953058
30
0
41
1
10
4.47432726009457
20
-0.163216478402859
30
0
41
1
10
4.45513503624856
20
-0.150159663784706
30
0
41
1
10
4.44321643957938
20
-0.146088311142307
30
0
41
1
10
4.43100955253801
20
-0.146745104331273
30
0
0
SPLINE
5
B2
100
AcDbEntity
8
1
62
256
6
ByLayer
370
18
48
1
60
0
100
AcDbSpline
70
4
71
3
72
20
73
16
40
0
40
0
40
0
40
0
40
0.124999999999981
40
0.124999999999981
40
0.249999999999961
40
0.249999999999961
40
0.374999999999942
40
0.374999999999942
40
0.499999999999923
40
0.499999999999923
40
0.624999999999903
40
0.624999999999903
40
0.749999999999883
40
0.749999999999883
40
1
40
1
40
1
40
1
41
1
10
3.4591073095897
20
-3.21318556686043
30
0
41
1
10
3.49079016559533
20
-3.2131733683527
30
0
41
1
10
3.52247302159948
20
-3.21316116888286
30
0
41
1
10
3.5858387336048
20
-3.2131367680185
30
0
41
1
10
3.61752158960597
20
-3.21312456662397
30
0
41
1
10
3.68088730160538
20
-3.21310016190981
30
0
41
1
10
3.71257015760359
20
-3.21308795859014
30
0
41
1
10
3.77593586959706
20
-3.21306355002514
30
0
41
1
10
3.80761872559232
20
-3.21305134477981
30
0
41
1
10
3.87098443757985
20
-3.21302693236308
30
0
41
1
10
3.90266729357212
20
-3.21301472519161
30
0
41
1
10
3.96603300555371
20
-3.21299030892214
30
0
41
1
10
3.99771586154303
20
-3.21297809982409
30
0
41
1
10
4.09276442950654
20
-3.2129414696393
30
0
41
1
10
4.15613014147628
20
-3.21291704566192
30
0
41
1
10
4.2194958534401
20
-3.21289261782843
30
0
0
SPLINE
5
B3
100
AcDbEntity
8
1
62
256
6
ByLayer
370
18
48
1
60
0
100
AcDbSpline
70
4
71
3
72
20
73
16
40
0
40
0
40
0
40
0
40
0.249999964506276
40
0.249999964506276
40
0.374999945399043
40
0.374999945399043
40
0.499999926291397
40
0.499999926291397
40
0.624999907183333
40
0.624999907183333
40
0.749999888074848
40
0.749999888074848
40
0.874999943136862
40
0.874999943136862
40
1
40
1
40
1
40
1
41
1
10
4.43100955253801
20
-0.146745104331273
30
0
41
1
10
4.3674821216223
20
-0.150163206243377
30
0
41
1
10
4.30395431039669
20
-0.153577827551857
30
0
41
1
10
4.20866202556347
20
-0.158694481488709
30
0
41
1
10
4.17689783586765
20
-0.16039915314451
30
0
41
1
10
4.11336926713194
20
-0.163806727755457
30
0
41
1
10
4.08160488797715
20
-0.165509630716741
30
0
41
1
10
4.01807594048726
20
-0.168913658629719
30
0
41
1
10
3.98631137203737
20
-0.170614783587553
30
0
41
1
10
3.9227820461255
20
-0.174015246263565
30
0
41
1
10
3.89101728854884
20
-0.175714583987855
30
0
41
1
10
3.82748756570787
20
-0.179111464053307
30
0
41
1
10
3.79572260032888
20
-0.1808090063995
30
0
41
1
10
3.73219248045048
20
-0.184202285650741
30
0
41
1
10
3.70042732583663
20
-0.185898022561872
30
0
41
1
10
3.66866207698216
20
-0.187592852243284
30
0
0
SPLINE
5
B4
100
AcDbEntity
8
1
62
256
6
ByLayer
370
18
48
1
60
0
100
AcDbSpline
70
4
71
3
72
20
73
16
40
0
40
0
40
0
40
0
40
0.249999999246945
40
0.249999999246945
40
0.374999998839344
40
0.374999998839344
40
0.499999998431506
40
0.499999998431506
40
0.624999998023436
40
0.624999998023436
40
0.749999997615143
40
0.749999997615143
40
0.874999998790376
40
0.874999998790376
40
1
40
1
40
1
40
1
41
1
10
3.28774449041374
20
-3.06204482044467
30
0
41
1
10
3.30202294617503
20
-3.07464038686982
30
0
41
1
10
3.31630186442198
20
-3.08723582222805
30
0
41
1
10
3.33772091515938
20
-3.10612878441023
30
0
41
1
10
3.34486071097519
20
-3.11242640665975
30
0
41
1
10
3.35914052378719
20
-3.12502158846721
30
0
41
1
10
3.36628054078399
20
-3.1313191480256
30
0
41
1
10
3.38056079272898
20
-3.14391420536353
30
0
41
1
10
3.3877010276778
20
-3.1502117031435
30
0
41
1
10
3.40198171236044
20
-3.16280663781967
30
0
41
1
10
3.40912216209484
20
-3.1691040747163
30
0
41
1
10
3.4234032733337
20
-3.1816988885835
30
0
41
1
10
3.43054393483869
20
-3.18799626555449
30
0
41
1
10
3.44482546648437
20
-3.20059096035351
30
0
41
1
10
3.45196633662554
20
-3.20688827818196
30
0
41
1
10
3.4591073095897
20
-3.21318556686043
30
0
0
SPLINE
5
B5
100
AcDbEntity
8
1
62
256
6
ByLayer
370
18
48
1
60
0
100
AcDbSpline
70
4
71
3
72
12
73
8
40
0
40
0
40
0
40
0
40
0.614232597148468
40
0.614232597148468
40
0.92129387172356
40
0.92129387172356
40
1
40
1
40
1
40
1
41
1
10
3.66866207698216
20
-0.187592852243284
30
0
41
1
10
3.65713768244681
20
-0.141890335327872
30
0
41
1
10
3.64539533304987
20
-0.0965834298464756
30
0
41
1
10
3.62746265052614
20
-0.0292650066495526
30
0
41
1
10
3.62143164955996
20
-0.0069314837218997
30
0
41
1
10
3.61378794734251
20
0.0209905054494754
30
0
41
1
10
3.61222491347625
20
0.0266802923538876
30
0
41
1
10
3.61065838173842
20
0.0323629498066111
30
0
0
SPLINE
5
B6
100
AcDbEntity
8
1
62
256
6
ByLayer
370
18
48
1
60
0
100
AcDbSpline
70
4
71
3
72
16
73
12
40
0
40
0
40
0
40
0
40
0.156122657763429
40
0.156122657763429
40
0.366055371522223
40
0.366055371522223
40
0.575988040131047
40
0.575988040131047
40
0.78796890032242
40
0.78796890032242
40
1
40
1
40
1
40
1
41
1
10
3.61065838173842
20
0.0323629498066111
30
0
41
1
10
3.60611336918622
20
0.0488501672874406
30
0
41
1
10
3.60153881231865
20
0.0652777307388135
30
0
41
1
10
3.59074436087745
20
0.103651385511625
30
0
41
1
10
3.58450048374071
20
0.125549162539215
30
0
41
1
10
3.57190749226957
20
0.169118433869329
30
0
41
1
10
3.56555800907655
20
0.190791204455536
30
0
41
1
10
3.55269192764974
20
0.234116167469409
30
0
41
1
10
3.54617392078476
20
0.255767384409978
30
0
41
1
10
3.53303025171114
20
0.29883484639015
30
0
41
1
10
3.52640417512874
20
0.320252309872757
30
0
41
1
10
3.5197253372185
20
0.341547403729237
30
0
0
SPLINE
5
B7
100
AcDbEntity
8
1
62
256
6
ByLayer
370
18
48
1
60
0
100
AcDbSpline
70
4
71
3
72
16
73
12
40
0
40
0
40
0
40
0
40
0.25
40
0.25
40
0.5
40
0.5
40
0.625
40
0.625
40
0.75
40
0.75
40
1
40
1
40
1
40
1
41
1
10
0.100000000000006
20
0.165373925013796
30
0
41
1
10
0.100000000000006
20
-0.111981778784354
30
0
41
1
10
0.100000000000006
20
-0.388321997528777
30
0
41
1
10
0.100000000000006
20
-0.938991549348799
30
0
41
1
10
0.100000000000006
20
-1.21392234084973
30
0
41
1
10
0.100000000000006
20
-1.62066066615873
30
0
41
1
10
0.100000000000006
20
-1.75542695937989
30
0
41
1
10
0.100000000000006
20
-2.02333018840341
30
0
41
1
10
0.100000000000006
20
-2.15658734254518
30
0
41
1
10
0.100000000000006
20
-2.55206192624405
30
0
41
1
10
0.100000000000006
20
-2.81050142525791
30
0
41
1
10
0.100000000000006
20
-3.06370785970751
30
0
0
SPLINE
5
B8
100
AcDbEntity
8
1
62
256
6
ByLayer
370
18
48
1
60
0
100
AcDbSpline
70
4
71
3
72
18
73
14
40
0
40
0
40
0
40
0
40
0.0975511251009193
40
0.0975511251009193
40
0.226472392942756
40
0.226472392942756
40
0.355393660784593
40
0.355393660784593
40
0.613236196468376
40
0.613236196468376
40
0.742157464310213
40
0.742157464310213
40
1
40
1
40
1
40
1
41
1
10
0.100000000000006
20
-3.06370785970756
30
0
41
1
10
0.203656020840481
20
-3.06365393405102
30
0
41
1
10
0.307312041650317
20
-3.06359999366398
30
0
41
1
10
0.547957416519023
20
-3.06347473270449
30
0
41
1
10
0.684946770554984
20
-3.06340340112502
30
0
41
1
10
0.958925478519473
20
-3.06326068640476
30
0
41
1
10
1.095914832448
20
-3.06318930326398
30
0
41
1
10
1.50688289407215
20
-3.0629750764092
30
0
41
1
10
1.78086160160641
20
-3.06283215526278
30
0
41
1
10
2.19182966258354
20
-3.06261761831539
30
0
41
1
10
2.32881901618854
20
-3.0625460801283
30
0
41
1
10
2.7397870768476
20
-3.06233138786209
30
0
41
1
10
3.01376578373937
20
-3.06218815607818
30
0
41
1
10
3.28774449041374
20
-3.06204482044467
30
0
0
SPLINE
5
B9
100
AcDbEntity
8
1
62
256
6
ByLayer
370
18
48
1
60
0
100
AcDbSpline
70
4
71
3
72
14
73
10
40
0
40
0
40
0
40
0
40
0.368487863244774
40
0.368487863244774
40
0.552731719649263
40
0.552731719649263
40
0.776365771690058
40
0.776365771690058
40
1
40
1
40
1
40
1
41
1
10
3.5197253372185
20
0.341547403729237
30
0
41
1
10
3.09972247493358
20
0.319674737825892
30
0
41
1
10
2.67970496034981
20
0.297876879504486
30
0
41
1
10
2.04965704336193
20
0.265311251742645
30
0
41
1
10
1.83963744335268
20
0.254477887436536
30
0
41
1
10
1.37468933391822
20
0.230546718115335
30
0
41
1
10
1.11975906199255
20
0.217459959810867
30
0
41
1
10
0.609887662856704
20
0.191360319595077
30
0
41
1
10
0.354946485456208
20
0.178347435240312
30
0
41
1
10
0.100000000000006
20
0.165373925013796
30
0
0
SPLINE
5
BA
100
AcDbEntity
8
1
62
256
6
ByLayer
370
18
48
1
60
0
100
AcDbSpline
70
4
71
3
72
16
73
12
40
0
40
0
40
0
40
0
40
0.217484737240935
40
0.217484737240935
40
0.434969474419592
40
0.434969474419592
40
0.652454211545896
40
0.652454211545896
40
0.761196579957806
40
0.761196579957806
40
1
40
1
40
1
40
1
41
1
10
4.30579145780477
20
-3.23807391602259
30
0
41
1
10
4.34427803821269
20
-3.27203608462059
30
0
41
1
10
4.38276808784802
20
-3.30599727041999
30
0
41
1
10
4.45975461657103
20
-3.37391781998156
30
0
41
1
10
4.49825109594756
20
-3.40787718376356
30
0
41
1
10
4.57525002425519
20
-3.47579421926918
30
0
41
1
10
4.61375247343532
20
-3.50975189100981
30
0
41
1
10
4.67151031153618
20
-3.56068721800975
30
0
41
1
10
4.69076361861549
20
-3.57766546348986
30
0
41
1
10
4.75230024665266
20
-3.6319281374245
30
0
41
1
10
4.79458612761304
20
-3.66921184013003
30
0
41
1
10
4.836875
20
-3.70649469451709
30
0
0
SPLINE
5
BB
100
AcDbEntity
8
1
62
256
6
ByLayer
370
18
48
1
60
0
100
AcDbSpline
70
4
71
3
72
8
73
4
40
0
40
0
40
0
40
0
40
1
40
1
40
1
40
1
41
1
10
4.80607164670216
20
-1.80861176565776
30
0
41
1
10
4.77896775646623
20
-1.65827878714245
30
0
41
1
10
4.75378596016192
20
-1.50760268141991
30
0
41
1
10
4.73070035195586
20
-1.35663422575686
30
0
0
SPLINE
5
BC
100
AcDbEntity
8
1
62
256
6
ByLayer
370
18
48
1
60
0
100
AcDbSpline
70
4
71
3
72
10
73
6
40
0
40
0
40
0
40
0
40
0.5
40
0.5
40
1
40
1
40
1
40
1
41
1
10
4.73070035195586
20
-1.35663422575686
30
0
41
1
10
4.70099649034249
20
-1.16238566730564
30
0
41
1
10
4.66805994690371
20
-0.971959678615491
30
0
41
1
10
4.59537781285202
20
-0.598819945205008
30
0
41
1
10
4.55588800690962
20
-0.417416141812396
30
0
41
1
10
4.51305672662654
20
-0.241124784912074
30
0
0
SPLINE
5
BD
100
AcDbEntity
8
1
62
256
6
ByLayer
370
18
48
1
60
0
100
AcDbSpline
70
4
71
3
72
20
73
16
40
0
40
0
40
0
40
0
40
0.124999999999981
40
0.124999999999981
40
0.249999999999962
40
0.249999999999962
40
0.374999999999942
40
0.374999999999942
40
0.499999999999922
40
0.499999999999922
40
0.624999999999902
40
0.624999999999902
40
0.749999999999882
40
0.749999999999882
40
1
40
1
40
1
40
1
41
1
10
3.4591073095897
20
7.86338174468665
30
0
41
1
10
3.49079016559533
20
7.86335734767118
30
0
41
1
10
3.52247302159948
20
7.86333294873148
30
0
41
1
10
3.5858387336048
20
7.86328414700279
30
0
41
1
10
3.61752158960597
20
7.86325974421376
30
0
41
1
10
3.68088730160538
20
7.8632109347854
30
0
41
1
10
3.71257015760359
20
7.86318652814603
30
0
41
1
10
3.77593586959706
20
7.86313771101607
30
0
41
1
10
3.80761872559232
20
7.86311330052544
30
0
41
1
10
3.87098443757985
20
7.86306447569191
30
0
41
1
10
3.90266729357212
20
7.86304006134904
30
0
41
1
10
3.96603300555371
20
7.86299122881005
30
0
41
1
10
3.99771586154303
20
7.86296681061395
30
0
41
1
10
4.09276442950654
20
7.86289355024439
30
0
41
1
10
4.15613014147628
20
7.86284470228966
30
0
41
1
10
4.2194958534401
20
7.86279584662267
30
0
0
SPLINE
5
BE
100
AcDbEntity
8
1
62
256
6
ByLayer
370
18
48
1
60
0
100
AcDbSpline
70
4
71
3
72
12
73
8
40
0
40
0
40
0
40
0
40
0.249999999999994
40
0.249999999999994
40
0.499999999999987
40
0.499999999999987
40
1
40
1
40
1
40
1
41
1
10
4.2194958534401
20
7.86279584662267
30
0
41
1
10
4.2283027210086
20
7.86278905643007
30
0
41
1
10
4.23691426739746
20
7.86393572637385
30
0
41
1
10
4.25375652896421
20
7.86847777549579
30
0
41
1
10
4.26192865899845
20
7.87189979334744
30
0
41
1
10
4.28442792203704
20
7.88503585270229
30
0
41
1
10
4.29710906597473
20
7.89783503147163
30
0
41
1
10
4.30579145780477
20
7.91315844301096
30
0
0
SPLINE
5
BF
100
AcDbEntity
8
1
62
256
6
ByLayer
370
18
48
1
60
0
100
AcDbSpline
70
4
71
3
72
18
73
14
40
0
40
0
40
0
40
0
40
0.0975511251009193
40
0.0975511251009193
40
0.226472392942756
40
0.226472392942756
40
0.355393660784592
40
0.355393660784592
40
0.613236196468376
40
0.613236196468376
40
0.742157464310212
40
0.742157464310212
40
1
40
1
40
1
40
1
41
1
10
0.100000000000006
20
7.56442633038088
30
0
41
1
10
0.203656020840481
20
7.56431847906785
30
0
41
1
10
0.307312041650317
20
7.56421059829378
30
0
41
1
10
0.547957416519023
20
7.56396007637477
30
0
41
1
10
0.684946770554984
20
7.56381741321582
30
0
41
1
10
0.958925478519473
20
7.56353198377531
30
0
41
1
10
1.095914832448
20
7.56338921749375
30
0
41
1
10
1.50688289407215
20
7.56296076378419
30
0
41
1
10
1.78086160160641
20
7.56267492149135
30
0
41
1
10
2.19182966258354
20
7.56224584759656
30
0
41
1
10
2.32881901618854
20
7.56210277122236
30
0
41
1
10
2.7397870768476
20
7.56167338668999
30
0
41
1
10
3.01376578373937
20
7.56138692312214
30
0
41
1
10
3.28774449041374
20
7.56110025185509
30
0
0
SPLINE
5
C0
100
AcDbEntity
8
1
62
256
6
ByLayer
370
18
48
1
60
0
100
AcDbSpline
70
4
71
3
72
20
73
16
40
0
40
0
40
0
40
0
40
0.24999999924695
40
0.24999999924695
40
0.374999998839345
40
0.374999998839345
40
0.499999998431501
40
0.499999998431501
40
0.624999998023431
40
0.624999998023431
40
0.749999997615138
40
0.749999997615138
40
0.874999998790377
40
0.874999998790377
40
1
40
1
40
1
40
1
41
1
10
3.28774449041374
20
7.56110025185509
30
0
41
1
10
3.30202294617503
20
7.58629138470542
30
0
41
1
10
3.31630186442198
20
7.61148225542189
30
0
41
1
10
3.33772091515938
20
7.64926817978625
30
0
41
1
10
3.34486071097519
20
7.66186342428529
30
0
41
1
10
3.35914052378719
20
7.6870537879002
30
0
41
1
10
3.36628054078399
20
7.69964890701698
30
0
41
1
10
3.38056079272898
20
7.72483902169282
30
0
41
1
10
3.3877010276778
20
7.73743401725278
30
0
41
1
10
3.40198171236044
20
7.7626238866051
30
0
41
1
10
3.40912216209484
20
7.77521876039839
30
0
41
1
10
3.4234032733337
20
7.80040838813278
30
0
41
1
10
3.43054393483869
20
7.81300314207476
30
0
41
1
10
3.44482546648437
20
7.8381925316728
30
0
41
1
10
3.45196633662557
20
7.85078716732971
30
0
41
1
10
3.4591073095897
20
7.86338174468665
30
0
0
SPLINE
5
C1
100
AcDbEntity
8
1
62
256
6
ByLayer
370
18
48
1
60
0
100
AcDbSpline
70
4
71
3
72
8
73
4
40
0
40
0
40
0
40
0
40
1
40
1
40
1
40
1
41
1
10
0.100000000000006
20
6.37693773810284
30
0
41
0.999948560006698
10
0.0666352494714696
20
6.36368063517309
30
0
41
0.99990248615016
10
0.0333017357953392
20
6.35037115367687
30
0
41
0.999861778430386
10
-1.94196E-11
20
6.33700950066445
30
0
0
SPLINE
5
C2
100
AcDbEntity
8
SK1
62
256
6
ByLayer
370
18
48
1
60
0
100
AcDbSpline
70
4
71
3
72
8
73
4
40
0
40
0
40
0
40
0
40
1
40
1
40
1
40
1
41
1
10
-0.849999999999983
20
0.737377830363329
30
0
41
0.999558334240113
10
-0.569486957953504
20
0.899332110701294
30
0
41
0.999512260383574
10
-0.286041615565187
20
1.06297935543081
30
0
41
0.999861778430383
10
-2.16137E-11
20
1.22812555916534
30
0
0
SPLINE
5
C3
100
AcDbEntity
8
1
62
256
6
ByLayer
370
18
48
1
60
0
100
AcDbSpline
70
4
71
3
72
8
73
4
40
0
40
0
40
0
40
0
40
1
40
1
40
1
40
1
41
1
10
0.100000000000006
20
-1.21850674240073
30
0
41
0.999948560006696
10
0.0666352494707513
20
-1.19924359470123
30
0
41
0.999902486150156
10
0.0333017357938995
20
-1.17999848160686
30
0
41
0.999861778430381
10
-2.15841E-11
20
-1.16077171546931
30
0
0
SPLINE
5
C4
100
AcDbEntity
8
1
62
256
6
ByLayer
370
18
48
1
60
0
100
AcDbSpline
70
4
71
3
72
8
73
4
40
0
40
0
40
0
40
0
40
1
40
1
40
1
40
1
41
1
10
0.100000000000006
20
-2.02533005191745
30
0
41
0.999132819866338
10
0.0671001815587616
20
-2.028281899713
30
0
41
0.9983648756996
10
0.0337638683963038
20
-2.0308274479892
30
0
41
0.997696167499786
10
-1.92443E-11
20
-2.03296499895877
30
0
0
SPLINE
5
C5
100
AcDbEntity
8
SK1
62
256
6
ByLayer
370
18
48
1
60
0
100
AcDbSpline
70
4
71
3
72
8
73
4
40
0
40
0
40
0
40
0
40
1
40
1
40
1
40
1
41
1
10
-0.849999999999983
20
-5.91425285394357
30
0
41
0.99955833424011
10
-0.569486957953058
20
-6.03637254353138
30
0
41
0.99951226038357
10
-0.286041615564569
20
-6.15488720057126
30
0
41
0.999861778430383
10
-2.10412E-11
20
-6.26965565694121
30
0
0
SPLINE
5
C6
100
AcDbEntity
8
SK1
62
256
6
ByLayer
370
18
48
1
60
0
100
AcDbSpline
70
4
71
3
72
8
73
4
40
0
40
0
40
0
40
0
40
1
40
1
40
1
40
1
41
0.999861778430386
10
-1.94195E-11
20
6.33700950066445
30
0
41
0.999512260383574
10
-0.286041615563735
20
6.22224104429099
30
0
41
0.999558334240112
10
-0.569486957952764
20
6.10372638724766
30
0
41
1
10
-0.849999999999983
20
5.98160669765645
30
0
0
SPLINE
5
C7
100
AcDbEntity
8
1
62
256
6
ByLayer
370
18
48
1
60
0
100
AcDbSpline
70
4
71
3
72
8
73
4
40
0
40
0
40
0
40
0
40
1
40
1
40
1
40
1
41
0.997696167500019
10
-1.97725E-11
20
2.10031884275117
30
0
41
0.998364875699767
10
0.0337638683958514
20
2.0981812917838
30
0
41
0.999132819866427
10
0.0671001815584851
20
2.09563574350984
30
0
41
1
10
0.100000000000006
20
2.09268389571659
30
0
0
SPLINE
5
C8
100
AcDbEntity
8
1
62
256
6
ByLayer
370
18
48
1
60
0
100
AcDbSpline
70
4
71
3
72
8
73
4
40
0
40
0
40
0
40
0
40
1
40
1
40
1
40
1
41
0.999861778430383
10
-2.16137E-11
20
1.22812555916534
30
0
41
0.999902486150158
10
0.0333017357938754
20
1.24735232530301
30
0
41
0.999948560006696
10
0.0666352494707371
20
1.2665974383975
30
0
41
1
10
0.100000000000006
20
1.28586058609713
30
0
0
SPLINE
5
C9
100
AcDbEntity
8
SK1
62
256
6
ByLayer
370
18
48
1
60
0
100
AcDbSpline
70
4
71
3
72
8
73
4
40
0
40
0
40
0
40
0
40
1
40
1
40
1
40
1
41
0.999861778430381
10
-2.15841E-11
20
-1.16077171546931
30
0
41
0.999512260383569
10
-0.286041615564822
20
-0.995625511735991
30
0
41
0.999558334240108
10
-0.56948695795313
20
-0.831978267007547
30
0
41
1
10
-0.849999999999983
20
-0.670023986670572
30
0
0
SPLINE
5
CA
100
AcDbEntity
8
SK1
62
256
6
ByLayer
370
18
48
1
60
0
100
AcDbSpline
70
4
71
3
72
8
73
4
40
0
40
0
40
0
40
0
40
1
40
1
40
1
40
1
41
0.997696167499786
10
-1.92443E-11
20
-2.03296499895877
30
0
41
0.99252132437371
10
-0.262822284682662
20
-2.04960397001783
30
0
41
0.993289268540448
10
-0.547866641300502
20
-2.04144244874967
30
0
41
1
10
-0.849999999999983
20
-2.0086830778892
30
0
0
SPLINE
5
CB
100
AcDbEntity
8
1
62
256
6
ByLayer
370
18
48
1
60
0
100
AcDbSpline
70
4
71
3
72
8
73
4
40
0
40
0
40
0
40
0
40
1
40
1
40
1
40
1
41
0.999861778430383
10
-2.10414E-11
20
-6.26965565694121
30
0
41
0.999902486150157
10
0.0333017357942602
20
-6.28301730995348
30
0
41
0.999948560006696
10
0.0666352494709311
20
-6.29632679144954
30
0
41
1
10
0.100000000000006
20
-6.30958389437913
30
0
0
INSERT
5
E2
100
AcDbEntity
8
2
62
256
6
ByLayer
370
25
48
1
60
0
100
AcDbBlockReference
2
DimnDraft3D22
10
0
20
0
30
0
41
1
42
1
43
1
50
0
210
0
220
0
230
1
0
INSERT
5
ED
100
AcDbEntity
8
SK2
62
256
6
ByLayer
370
25
48
1
60
0
100
AcDbBlockReference
2
DimnDraft3D33
10
0
20
0
30
0
41
1
42
1
43
1
50
0
210
0
220
0
230
1
0
LINE
5
74
100
AcDbEntity
8
1
62
256
6
ByLayer
370
18
48
1
60
0
100
AcDbLine
10
3.610658
20
-6.590009
30
0
11
5.631671
21
-6.590009
31
0
39
0
210
0
220
0
230
1
0
LINE
5
75
100
AcDbEntity
8
1
62
256
6
ByLayer
370
18
48
1
60
0
100
AcDbLine
10
5.067074
20
-3.227395
30
0
11
4.855681
21
-3.227395
31
0
39
0
210
0
220
0
230
1
0
LINE
5
76
100
AcDbEntity
8
1
62
256
6
ByLayer
370
18
48
1
60
0
100
AcDbLine
10
5.181146
20
-1.808612
30
0
11
4.806072
21
-1.808612
31
0
39
0
210
0
220
0
230
1
0
LINE
5
77
100
AcDbEntity
8
1
62
256
6
ByLayer
370
18
48
1
60
0
100
AcDbLine
10
0.1
20
4.868472
30
0
11
0.1
21
1.880791
31
0
39
0
210
0
220
0
230
1
0
LINE
5
78
100
AcDbEntity
8
1
62
256
6
ByLayer
370
18
48
1
60
0
100
AcDbLine
10
5.85
20
1.880791
30
0
11
5.85
21
4.868472
31
0
39
0
210
0
220
0
230
1
0
LINE
5
79
100
AcDbEntity
8
1
62
256
6
ByLayer
370
18
48
1
60
0
100
AcDbLine
10
0.1
20
-3.088025
30
0
11
0.1
21
-5.913437
31
0
39
0
210
0
220
0
230
1
0
LINE
5
7A
100
AcDbEntity
8
1
62
256
6
ByLayer
370
18
48
1
60
0
100
AcDbLine
10
5.85
20
-5.913437
30
0
11
5.85
21
-3.018001
31
0
39
0
210
0
220
0
230
1
0
LINE
5
7B
100
AcDbEntity
8
1
62
256
6
ByLayer
370
18
48
1
60
0
100
AcDbLine
10
5.85
20
0.641757
30
0
11
5.85
21
1.880791
31
0
39
0
210
0
220
0
230
1
0
LINE
5
7C
100
AcDbEntity
8
1
62
256
6
ByLayer
370
13
48
1
60
0
100
AcDbLine
10
5.85
20
1.880791
30
0
11
0.1
21
1.880791
31
0
39
0
210
0
220
0
230
1
0
LINE
5
7D
100
AcDbEntity
8
1
62
256
6
ByLayer
370
18
48
1
60
0
100
AcDbLine
10
0.1
20
1.880791
30
0
11
0.1
21
0.165374
31
0
39
0
210
0
220
0
230
1
0
LINE
5
7E
100
AcDbEntity
8
1
62
256
6
ByLayer
370
18
48
1
60
0
100
AcDbLine
10
5.85
20
-6.536281
30
0
11
5.85
21
-5.913437
31
0
39
0
210
0
220
0
230
1
0
LINE
5
7F
100
AcDbEntity
8
1
62
256
6
ByLayer
370
13
48
1
60
0
100
AcDbLine
10
5.85
20
-5.913437
30
0
11
0.1
21
-5.913437
31
0
39
0
210
0
220
0
230
1
0
LINE
5
80
100
AcDbEntity
8
1
62
256
6
ByLayer
370
18
48
1
60
0
100
AcDbLine
10
0.1
20
-5.913437
30
0
11
0.1
21
-6.587631
31
0
39
0
210
0
220
0
230
1
0
LINE
5
81
100
AcDbEntity
8
1
62
256
6
ByLayer
370
13
48
1
60
0
100
AcDbLine
10
5.276493
20
-1.356634
30
0
11
4.7307
21
-1.356634
31
0
39
0
210
0
220
0
230
1
0
LINE
5
82
100
AcDbEntity
8
SK1
62
256
6
ByLayer
370
18
48
1
60
0
100
AcDbLine
10
-0.85
20
-5.914253
30
0
11
-0.85
21
-2.008683
31
0
39
0
210
0
220
0
230
1
0
LINE
5
84
100
AcDbEntity
8
SK1
62
256
6
ByLayer
370
18
48
1
60
0
100
AcDbLine
10
-0.85
20
2.076037
30
0
11
-0.85
21
5.981607
31
0
39
0
210
0
220
0
230
1
0
LINE
5
85
100
AcDbEntity
8
SK1
62
256
6
ByLayer
370
18
48
1
60
0
100
AcDbLine
10
-0.85
20
2.076037
30
0
11
-0.85
21
1.372336
31
0
39
0
210
0
220
0
230
1
0
LINE
5
86
100
AcDbEntity
8
SK1
62
256
6
ByLayer
370
18
48
1
60
0
100
AcDbLine
10
-0.85
20
-1.304982
30
0
11
-0.85
21
-2.008683
31
0
39
0
210
0
220
0
230
1
0
LINE
5
87
100
AcDbEntity
8
1
62
256
6
ByLayer
370
13
48
1
60
0
100
AcDbLine
10
5.629534
20
0.032363
30
0
11
3.610658
21
0.032363
31
0
39
0
210
0
220
0
230
1
0
LINE
5
88
100
AcDbEntity
8
SK1
62
256
6
ByLayer
370
18
48
1
60
0
100
AcDbLine
10
-0.85
20
0.737378
30
0
11
-0.85
21
-0.670024
31
0
39
0
210
0
220
0
230
1
0
LINE
5
89
100
AcDbEntity
8
1
62
256
6
ByLayer
370
18
48
1
60
0
100
AcDbLine
10
5.063125
20
-3.706495
30
0
11
4.836875
21
-3.706495
31
0
39
0
210
0
220
0
230
1
0
LINE
5
8A
100
AcDbEntity
8
1
62
256
6
ByLayer
370
18
48
1
60
0
100
AcDbLine
10
5.85
20
4.868472
30
0
11
5.85
21
5.385387
31
0
39
0
210
0
220
0
230
1
0
LINE
5
8B
100
AcDbEntity
8
1
62
256
6
ByLayer
370
13
48
1
60
0
100
AcDbLine
10
5.85
20
5.385387
30
0
11
0.1
21
5.385387
31
0
39
0
210
0
220
0
230
1
0
LINE
5
8C
100
AcDbEntity
8
1
62
256
6
ByLayer
370
18
48
1
60
0
100
AcDbLine
10
0.1
20
5.385387
30
0
11
0.1
21
4.868472
31
0
39
0
210
0
220
0
230
1
0
LINE
5
8D
100
AcDbEntity
8
1
62
256
6
ByLayer
370
18
48
1
60
0
100
AcDbLine
10
0.1
20
4.868472
30
0
11
5.85
21
4.868472
31
0
39
0
210
0
220
0
230
1
0
LINE
5
8E
100
AcDbEntity
8
1
62
256
6
ByLayer
370
18
48
1
60
0
100
AcDbLine
10
5.85
20
5.385387
30
0
11
5.85
21
5.83854
31
0
39
0
210
0
220
0
230
1
0
LINE
5
8F
100
AcDbEntity
8
1
62
256
6
ByLayer
370
13
48
1
60
0
100
AcDbLine
10
5.85
20
5.83854
30
0
11
0.1
21
5.83854
31
0
39
0
210
0
220
0
230
1
0
LINE
5
90
100
AcDbEntity
8
1
62
256
6
ByLayer
370
18
48
1
60
0
100
AcDbLine
10
0.1
20
5.83854
30
0
11
0.1
21
5.385387
31
0
39
0
210
0
220
0
230
1
0
LINE
5
91
100
AcDbEntity
8
1
62
256
6
ByLayer
370
18
48
1
60
0
100
AcDbLine
10
0.1
20
7.564426
30
0
11
0.1
21
5.83854
31
0
39
0
210
0
220
0
230
1
0
LINE
5
92
100
AcDbEntity
8
1
62
256
6
ByLayer
370
18
48
1
60
0
100
AcDbLine
10
5.85
20
5.83854
30
0
11
5.85
21
7.472925
31
0
39
0
210
0
220
0
230
1
0
LINE
5
93
100
AcDbEntity
8
1
62
256
6
ByLayer
370
18
48
1
60
0
100
AcDbLine
10
5.063125
20
8.85
30
0
11
4.836875
21
8.85
31
0
39
0
210
0
220
0
230
1
0
LINE
5
94
100
AcDbEntity
8
1
62
256
6
ByLayer
370
18
48
1
60
0
100
AcDbLine
10
0
20
-6.269656
30
0
11
0
21
6.33701
31
0
39
0
210
0
220
0
230
1
0
LINE
5
95
100
AcDbEntity
8
4
62
256
6
ByLayer
370
18
48
0.05
60
0
100
AcDbLine
10
0
20
0
30
0
11
6.216479
21
0
31
0
39
0
210
0
220
0
230
1
0
LINE
5
97
100
AcDbEntity
8
SK4
62
256
6
ByLayer
370
18
48
0.05
60
0
100
AcDbLine
10
-1.5
20
0
30
0
11
7.048286
21
0
31
0
39
0
210
0
220
0
230
1
0
LINE
5
99
100
AcDbEntity
8
80
62
256
6
ByLayer
370
18
48
1
60
0
100
AcDbLine
10
0
20
0
30
0
11
-0.692082
21
0
31
0
39
0
210
0
220
0
230
1
0
LINE
5
9A
100
AcDbEntity
8
81
62
256
6
ByLayer
370
18
48
1
60
0
100
AcDbLine
10
4.95
20
8.85
30
0
11
4.95
21
9.64532
31
0
39
0
210
0
220
0
230
1
0
LINE
5
9B
100
AcDbEntity
8
1
62
256
6
ByLayer
370
18
48
1
60
0
100
AcDbLine
10
4.305791
20
7.913158
30
0
11
4.836875
21
8.85
31
0
39
0
210
0
220
0
230
1
0
LINE
5
9C
100
AcDbEntity
8
1
62
256
6
ByLayer
370
18
48
1
60
0
100
AcDbLine
10
5.063125
20
8.85
30
0
11
5.85
21
7.472925
31
0
39
0
210
0
220
0
230
1
0
MTEXT
5
CC
100
AcDbEntity
8
SK6
62
256
6
ByLayer
370
18
48
1
60
0
100
AcDbMText
10
-18.518677
20
-22.708115
30
0
210
0
220
0
230
1
1
\W0.7252;327R09-18 14UN-TH
40
3.5
41
0
44
1.084337
50
0
71
7
72
5
7
iso_b_vert
0
DIMENSION
5
D8
100
AcDbEntity
8
2
62
256
6
ByLayer
370
13
48
1
60
0
100
AcDbDimension
2
DimnDraft3D1
10
20.46681
20
-8.85
30
0
11
20.46681
21
-7.511184
31
0
70
32
71
5
72
1
41
1
210
0
220
0
230
1
3
Standard
100
AcDbAlignedDimension
13
4.95
23
-8.85
33
0
14
0
24
0
34
0
50
90
100
AcDbRotatedDimension
1001
ACAD
1000
DSTYLE
1002
{
1070
    74
1070
     0
1070
   279
1070
     0
1070
   172
1070
     1
1070
   173
1070
     1
1070
   340
1005
CD
1070
    76
1070
     1
1070
   271
1070
     2
1070
   272
1070
     2
1070
    77
1070
     1
1070
    73
1070
     0
1070
   171
1070
     3
1070
   274
1070
     4
1070
   282
1070
     1
1070
   177
1070
     7
1070
   176
1070
     7
1070
   178
1070
     7
1070
    78
1070
     8
1070
    48
1040
-0.005
1070
    41
1041
3.5
1070
   147
1041
1.75
1070
    42
1041
1.5875
1070
    44
1041
2.0
1070
   140
1041
3.5
1070
   343
1005
0
1070
   344
1005
0
1002
}
0
DIMENSION
5
F7
100
AcDbEntity
8
2
62
256
6
ByLayer
370
13
48
1
60
0
100
AcDbDimension
2
DimnDraft3D4
10
4.836875
20
12.130311
30
0
11
10.453504
21
12.130311
31
0
70
32
71
5
72
1
41
1
210
0
220
0
230
1
3
Standard
100
AcDbAlignedDimension
13
5.063125
23
10.4375
33
0
14
4.836875
24
10.4375
34
0
50
0
100
AcDbRotatedDimension
1001
ACAD
1000
DSTYLE
1002
{
1070
   279
1070
     0
1070
   172
1070
     1
1070
   173
1070
     1
1070
   340
1005
CD
1070
   271
1070
     3
1070
   272
1070
     2
1070
    77
1070
     1
1070
    73
1070
     0
1070
   171
1070
     3
1070
   274
1070
     4
1070
   177
1070
     7
1070
   176
1070
     7
1070
   178
1070
     7
1070
    78
1070
     8
1070
    48
1040
-0.005
1070
    41
1041
3.5
1070
   147
1041
1.75
1070
    42
1041
1.5875
1070
    44
1041
2.0
1070
   140
1041
3.5
1070
   343
1005
0
1070
   344
1005
0
1002
}
0
DIMENSION
5
101
100
AcDbEntity
8
2
62
256
6
ByLayer
370
13
48
1
60
0
100
AcDbDimension
2
DimnDraft3D5
10
-14.356103
20
7.863235
30
0
11
-14.356103
21
11.303979
31
0
70
32
71
5
72
1
41
1
210
0
220
0
230
1
3
Standard
100
AcDbAlignedDimension
13
3.249375
23
8.85
33
0
14
2.061704
24
7.863235
34
0
50
90
100
AcDbRotatedDimension
1001
ACAD
1000
DSTYLE
1002
{
1070
    74
1070
     0
1070
   279
1070
     0
1070
   172
1070
     1
1070
   173
1070
     1
1070
   340
1005
CD
1070
   271
1070
     2
1070
   272
1070
     2
1070
    77
1070
     1
1070
    73
1070
     0
1070
   171
1070
     3
1070
   274
1070
     4
1070
   177
1070
     7
1070
   176
1070
     7
1070
   178
1070
     7
1070
    78
1070
     8
1070
    48
1040
-0.005
1070
    41
1041
3.5
1070
   147
1041
1.75
1070
    42
1041
1.5875
1070
    44
1041
2.0
1070
   140
1041
3.5
1070
   343
1005
0
1070
   344
1005
0
1002
}
0
DIMENSION
5
10B
100
AcDbEntity
8
SK2
62
256
6
ByLayer
370
13
48
1
60
0
100
AcDbDimension
2
DimnDraft3D6
10
5.85
20
7.472925
30
0
11
4.983933
21
-11.078898
31
0
70
34
71
5
72
1
41
1
210
0
220
0
230
1
3
Standard
100
AcDb2LineAngularDimension
13
4.305791
23
7.913158
33
0
14
4.836875
24
8.85
34
0
15
5.063125
25
8.85
35
0
16
4.989912
26
-14.578893
36
0
40
0
0
DIMENSION
5
115
100
AcDbEntity
8
SK2
62
256
6
ByLayer
370
13
48
1
60
0
100
AcDbDimension
2
DimnDraft3D7
10
-23.255228
20
-4.5
30
0
11
-23.255228
21
9.850282
31
0
70
32
71
5
72
1
41
1
210
0
220
0
230
1
3
Standard
100
AcDbAlignedDimension
13
-1.5875
23
4.5
33
0
14
-1.5875
24
-4.5
34
0
50
90
100
AcDbRotatedDimension
1001
ACAD
1000
DSTYLE
1002
{
1070
    74
1070
     0
1070
   279
1070
     0
1070
   172
1070
     1
1070
   173
1070
     1
1070
   340
1005
CD
1070
   271
1070
     2
1070
   272
1070
     2
1070
    77
1070
     1
1070
    73
1070
     0
1070
   171
1070
     3
1070
   274
1070
     4
1070
   177
1070
     7
1070
   176
1070
     7
1070
   178
1070
     7
1070
    78
1070
     8
1070
    48
1040
-0.005
1070
    41
1041
3.5
1070
   147
1041
1.75
1070
    42
1041
1.5875
1070
    44
1041
2.0
1070
   140
1041
3.5
1070
   343
1005
0
1070
   344
1005
0
1002
}
0
ENDSEC
0
SECTION
2
OBJECTS
0
DICTIONARY
5
180
330
0
100
AcDbDictionary
280
0
281
1
3
ACAD_GROUP
350
181
3
ACAD_MLINESTYLE
350
182
0
DICTIONARY
5
181
330
0
100
AcDbDictionary
280
0
281
1
0
DICTIONARY
5
182
330
0
100
AcDbDictionary
280
0
281
1
3
Standard
350
18
0
MLINESTYLE
5
18
330
182
100
AcDbMlineStyle
2
Standard
70
0
3

62
256
51
90
52
90
71
2
49
-0.5
62
256
6
ByLayer
49
0.5
62
256
6
ByLayer
0
RASTERVARIABLES
5
16e
330

100
AcDbRasterVariables
90
0
70
1
71
1
72
1
0
ENDSEC
0
EOF
