0
SECTION
2
HEADER
9
$ACADVER
1
AC1015
9
$DWGCODEPAGE
3
ANSI_1252
9
$HANDSEED
5
1a1
9
$ANGBASE
50
0
9
$ANGDIR
70
0
9
$ATTMODE
70
1
9
$AUNITS
70
0
9
$AUPREC
70
0
9
$CECOLOR
62
256
9
$CELTSCALE
40
1
9
$CELTYPE
6
ByLayer
9
$CELWEIGHT
370
18
9
$CLAYER
8
0
9
$CMLJUST
70
0
9
$CMLSCALE
40
1
9
$CMLSTYLE
2
Standard
9
$DIMSTYLE
2
Standard
9
$TEXTSIZE
40
0.2
9
$TEXTSTYLE
7
Standard
9
$LUNITS
70
2
9
$LUPREC
70
4
9
$EXTNAMES
290
1
9
$INSUNITS
70
4
9
$LTSCALE
40
1
9
$LWDISPLAY
290
1
9
$PDMODE
70
0
9
$PDSIZE
40
0
9
$PLINEGEN
70
0
0
ENDSEC
0
SECTION
2
CLASSES
0
CLASS
1
RASTERVARIABLES
2
AcDbRasterVariables
3
ISM
90
0
280
0
281
0
0
ENDSEC
0
SECTION
2
TABLES
0
TABLE
2
VPORT
5
197
100
AcDbSymbolTable
0
VPORT
5
1
100
AcDbSymbolTableRecord
100
AcDbViewportTableRecord
2
*Active
70
0
10
0
20
0
11
1
21
1
12
-1
22
1
13
0
23
0
14
0.5
24
0.5
15
10
25
10
16
0
26
0
36
1
17
0
27
0
37
0
0
ENDTAB
0
TABLE
2
LTYPE
5
198
100
AcDbSymbolTable
0
LTYPE
5
14
100
AcDbSymbolTableRecord
100
AcDbLinetypeTableRecord
70
0
2
ByBlock
3

72
65
73
0
40
0
0
LTYPE
5
15
100
AcDbSymbolTableRecord
100
AcDbLinetypeTableRecord
70
0
2
ByLayer
3

72
65
73
0
40
0
0
LTYPE
5
16
100
AcDbSymbolTableRecord
100
AcDbLinetypeTableRecord
70
0
2
CONTINUOUS
3
Solid line
72
65
73
0
40
0
0
LTYPE
5
6A
100
AcDbSymbolTableRecord
100
AcDbLinetypeTableRecord
70
0
2
CENTER
3
____ _ ____ _ ____ _ ____
72
65
73
4
40
47.5
49
22
74
0
49
-8.5
74
0
49
8.5
74
0
49
-8.5
74
0
0
LTYPE
5
6B
100
AcDbSymbolTableRecord
100
AcDbLinetypeTableRecord
70
0
2
DASHED
3
__ __ __ __ __ __ __ __ __
72
65
73
2
40
25.72
49
12.86
74
0
49
-12.86
74
0
0
ENDTAB
0
TABLE
2
LAYER
5
199
100
AcDbSymbolTable
0
LAYER
5
10
100
AcDbSymbolTableRecord
100
AcDbLayerTableRecord
2
0
70
0
62
7
6
CONTINUOUS
290
1
370
-3
390
0
0
LAYER
5
6D
100
AcDbSymbolTableRecord
100
AcDbLayerTableRecord
2
81
70
0
62
-3
6
CONTINUOUS
290
1
370
-3
390
0
0
LAYER
5
6F
100
AcDbSymbolTableRecord
100
AcDbLayerTableRecord
2
1
70
0
62
4
6
CONTINUOUS
290
1
370
-3
390
0
0
LAYER
5
71
100
AcDbSymbolTableRecord
100
AcDbLayerTableRecord
2
80
70
0
62
-6
6
CONTINUOUS
290
1
370
-3
390
0
0
LAYER
5
9E
100
AcDbSymbolTableRecord
100
AcDbLayerTableRecord
2
4
70
0
62
-2
6
CENTER
290
1
370
-3
390
0
0
LAYER
5
105
100
AcDbSymbolTableRecord
100
AcDbLayerTableRecord
2
2
70
0
62
7
6
CONTINUOUS
290
1
370
-3
390
0
0
LAYER
5
183
100
AcDbSymbolTableRecord
100
AcDbLayerTableRecord
2
SK1
70
0
62
4
6
CONTINUOUS
290
1
370
-3
390
0
0
LAYER
5
184
100
AcDbSymbolTableRecord
100
AcDbLayerTableRecord
2
SK4
70
0
62
2
6
CENTER
290
1
370
-3
390
0
0
LAYER
5
185
100
AcDbSymbolTableRecord
100
AcDbLayerTableRecord
2
SK6
70
0
62
5
6
CONTINUOUS
290
1
370
-3
390
0
0
LAYER
5
186
100
AcDbSymbolTableRecord
100
AcDbLayerTableRecord
2
SK2
70
0
62
7
6
CONTINUOUS
290
1
370
-3
390
0
0
ENDTAB
0
TABLE
2
STYLE
5
19a
100
AcDbSymbolTable
0
STYLE
5
11
100
AcDbSymbolTableRecord
100
AcDbTextStyleTableRecord
2
Standard
3
txt
70
0
71
0
40
0
41
1
42
0
50
0
0
STYLE
5
F5
100
AcDbSymbolTableRecord
100
AcDbTextStyleTableRecord
2
iso_b_vert
3
simplex.shx
70
0
71
0
40
0
41
1
42
0
50
0
0
STYLE
5
F6
100
AcDbSymbolTableRecord
100
AcDbTextStyleTableRecord
2
DWGDirectTextStyle
3
simplex
70
0
71
0
40
0
41
1
42
0
50
0
0
ENDTAB
0
TABLE
2
DIMSTYLE
5
19b
100
AcDbSymbolTable
100
AcDbDimStyleTable
0
DIMSTYLE
105
27
100
AcDbSymbolTableRecord
100
AcDbDimStyleTableRecord
2
Standard
70
0
3
<>
41
0.18
42
0.0625
44
0.18
140
0.18
147
0.09
73
0
74
0
77
1
271
2
275
0
278
52
280
0
340
11
0
ENDTAB
0
TABLE
2
VIEW
5
19c
100
AcDbSymbolTable
0
ENDTAB
0
TABLE
2
UCS
5
19d
100
AcDbSymbolTable
0
ENDTAB
0
TABLE
2
APPID
5
19e
100
AcDbSymbolTable
0
APPID
5
12
100
AcDbSymbolTableRecord
100
AcDbRegAppTableRecord
2
ACAD
70
0
0
ENDTAB
0
TABLE
2
BLOCK_RECORD
5
19f
100
AcDbSymbolTable
0
BLOCK_RECORD
5
1F
100
AcDbSymbolTableRecord
100
AcDbBlockTableRecord
2
*Model_Space
340
0
70
0
0
BLOCK_RECORD
5
1B
100
AcDbSymbolTableRecord
100
AcDbBlockTableRecord
2
*Paper_Space
340
0
70
0
0
BLOCK_RECORD
5
23
100
AcDbSymbolTableRecord
100
AcDbBlockTableRecord
2
*Paper_Space0
340
0
70
0
0
BLOCK_RECORD
5
F8
100
AcDbSymbolTableRecord
100
AcDbBlockTableRecord
2
DimnDraft3D1
340
0
70
0
0
BLOCK_RECORD
5
103
100
AcDbSymbolTableRecord
100
AcDbBlockTableRecord
2
DimnDraft3D2
340
0
70
0
0
BLOCK_RECORD
5
10C
100
AcDbSymbolTableRecord
100
AcDbBlockTableRecord
2
DimnDraft3D3
340
0
70
0
0
BLOCK_RECORD
5
116
100
AcDbSymbolTableRecord
100
AcDbBlockTableRecord
2
DimnDraft3D4
340
0
70
0
0
BLOCK_RECORD
5
120
100
AcDbSymbolTableRecord
100
AcDbBlockTableRecord
2
DimnDraft3D55
340
0
70
0
0
ENDTAB
0
ENDSEC
0
SECTION
2
BLOCKS
0
BLOCK
5
20
100
AcDbEntity
8
0
100
AcDbBlockBegin
2
*Model_Space
70
0
10
0
20
0
30
0
3
*Model_Space
0
ENDBLK
5
21
100
AcDbEntity
8
0
100
AcDbBlockEnd
0
BLOCK
5
1C
100
AcDbEntity
8
0
100
AcDbBlockBegin
2
*Paper_Space
70
0
10
0
20
0
30
0
3
*Paper_Space
0
ENDBLK
5
1D
100
AcDbEntity
8
0
100
AcDbBlockEnd
0
BLOCK
5
24
100
AcDbEntity
8
0
100
AcDbBlockBegin
2
*Paper_Space0
70
0
10
0
20
0
30
0
3
*Paper_Space0
0
ENDBLK
5
25
100
AcDbEntity
8
0
100
AcDbBlockEnd
0
BLOCK
5
100
100
AcDbEntity
8
0
100
AcDbBlockBegin
2
DimnDraft3D1
70
0
10
0
20
0
30
0
3
DimnDraft3D1
0
MTEXT
5
F9
100
AcDbEntity
8
SK2
62
256
6
ByLayer
370
18
48
1
60
0
100
AcDbMText
10
-14.196507
20
-3.909868
30
0
210
0
220
0
230
1
1
\W1.6313;%%c9
40
3.5
41
0
44
1.084337
50
90
71
7
72
5
7
iso_b_vert
0
LINE
5
FB
100
AcDbEntity
8
SK2
62
256
6
ByLayer
370
13
48
1
60
0
100
AcDbLine
10
-1.5875
20
-4.5
30
0
11
-14.446507
21
-4.5
31
0
39
0
210
0
220
0
230
1
0
LINE
5
FC
100
AcDbEntity
8
SK2
62
256
6
ByLayer
370
13
48
1
60
0
100
AcDbLine
10
-1.5875
20
4.5
30
0
11
-14.446507
21
4.5
31
0
39
0
210
0
220
0
230
1
0
LINE
5
FD
100
AcDbEntity
8
SK2
62
256
6
ByLayer
370
13
48
1
60
0
100
AcDbLine
10
-12.446507
20
4.784868
30
0
11
-12.446507
21
-4.784868
31
0
39
0
210
0
220
0
230
1
0
SOLID
5
FE
100
AcDbEntity
8
SK2
62
256
6
ByLayer
370
13
48
1
60
0
100
AcDbTrace
10
-12.446507
20
-4.5
30
0
11
-12.907291
21
-1.000002
31
0
12
-11.985724
22
-0.999998
32
0
13
-12.446507
23
-4.5
33
0
39
0
210
0
220
0
230
1
0
SOLID
5
FF
100
AcDbEntity
8
SK2
62
256
6
ByLayer
370
13
48
1
60
0
100
AcDbTrace
10
-12.446507
20
4.5
30
0
11
-11.985724
21
1.000002
31
0
12
-12.907291
22
0.999998
32
0
13
-12.446507
23
4.5
33
0
39
0
210
0
220
0
230
1
0
ENDBLK
5
101
100
AcDbEntity
8
0
100
AcDbBlockEnd
0
BLOCK
5
109
100
AcDbEntity
8
0
100
AcDbBlockBegin
2
DimnDraft3D2
70
0
10
0
20
0
30
0
3
DimnDraft3D2
0
MTEXT
5
104
100
AcDbEntity
8
2
62
256
6
ByLayer
370
18
48
1
60
0
100
AcDbMText
10
20.790046
20
-8.119469
30
0
210
0
220
0
230
1
1
\W1.0454;%%c17,7
40
3.5
41
0
44
1.084337
50
90
71
7
72
5
7
iso_b_vert
0
LINE
5
106
100
AcDbEntity
8
2
62
256
6
ByLayer
370
13
48
1
60
0
100
AcDbLine
10
7.336063
20
8.85
30
0
11
24.540046
21
8.85
31
0
39
0
210
0
220
0
230
1
0
LINE
5
107
100
AcDbEntity
8
2
62
256
6
ByLayer
370
13
48
1
60
0
100
AcDbLine
10
22.540046
20
8.85
30
0
11
22.540046
21
-8.994469
31
0
39
0
210
0
220
0
230
1
0
SOLID
5
108
100
AcDbEntity
8
2
62
256
6
ByLayer
370
13
48
1
60
0
100
AcDbTrace
10
22.540046
20
8.85
30
0
11
23.00083
21
5.350002
31
0
12
22.079263
22
5.349998
32
0
13
22.540046
23
8.85
33
0
39
0
210
0
220
0
230
1
0
ENDBLK
5
10A
100
AcDbEntity
8
0
100
AcDbBlockEnd
0
BLOCK
5
113
100
AcDbEntity
8
0
100
AcDbBlockBegin
2
DimnDraft3D3
70
0
10
0
20
0
30
0
3
DimnDraft3D3
0
MTEXT
5
10D
100
AcDbEntity
8
2
62
256
6
ByLayer
370
18
48
1
60
0
100
AcDbMText
10
13.341604
20
15.604872
30
0
210
0
220
0
230
1
1
\W0.6347;1,41
40
3.5
41
0
44
1.084337
50
0
71
7
72
5
7
iso_b_vert
0
LINE
5
10E
100
AcDbEntity
8
2
62
256
6
ByLayer
370
13
48
1
60
0
100
AcDbLine
10
4.341446
20
10.333283
30
0
11
4.341446
21
16.729872
31
0
39
0
210
0
220
0
230
1
0
LINE
5
10F
100
AcDbEntity
8
2
62
256
6
ByLayer
370
13
48
1
60
0
100
AcDbLine
10
5.748563
20
10.333986
30
0
11
5.748563
21
16.729872
31
0
39
0
210
0
220
0
230
1
0
LINE
5
110
100
AcDbEntity
8
2
62
256
6
ByLayer
370
13
48
1
60
0
100
AcDbLine
10
18.932394
20
14.729872
30
0
11
-4.408554
21
14.729872
31
0
39
0
210
0
220
0
230
1
0
SOLID
5
111
100
AcDbEntity
8
2
62
256
6
ByLayer
370
13
48
1
60
0
100
AcDbTrace
10
4.341446
20
14.729872
30
0
11
0.841448
21
14.269088
31
0
12
0.841444
22
15.190655
32
0
13
4.341446
23
14.729872
33
0
39
0
210
0
220
0
230
1
0
SOLID
5
112
100
AcDbEntity
8
2
62
256
6
ByLayer
370
13
48
1
60
0
100
AcDbTrace
10
5.748563
20
14.729872
30
0
11
9.248561
21
15.190655
31
0
12
9.248565
22
14.269088
32
0
13
5.748563
23
14.729872
33
0
39
0
210
0
220
0
230
1
0
ENDBLK
5
114
100
AcDbEntity
8
0
100
AcDbBlockEnd
0
BLOCK
5
11D
100
AcDbEntity
8
0
100
AcDbBlockBegin
2
DimnDraft3D4
70
0
10
0
20
0
30
0
3
DimnDraft3D4
0
MTEXT
5
117
100
AcDbEntity
8
2
62
256
6
ByLayer
370
18
48
1
60
0
100
AcDbMText
10
-10.346871
20
17.109726
30
0
210
0
220
0
230
1
1
\W0.6702;3,5
40
3.5
41
0
44
1.084337
50
90
71
7
72
5
7
iso_b_vert
0
LINE
5
118
100
AcDbEntity
8
2
62
256
6
ByLayer
370
13
48
1
60
0
100
AcDbLine
10
2.8525
20
5.35
30
0
11
-11.471871
21
5.35
31
0
39
0
210
0
220
0
230
1
0
LINE
5
119
100
AcDbEntity
8
2
62
256
6
ByLayer
370
13
48
1
60
0
100
AcDbLine
10
2.8525
20
8.85
30
0
11
-11.471871
21
8.85
31
0
39
0
210
0
220
0
230
1
0
LINE
5
11A
100
AcDbEntity
8
2
62
256
6
ByLayer
370
13
48
1
60
0
100
AcDbLine
10
-9.471871
20
21.512357
30
0
11
-9.471871
21
-3.4
31
0
39
0
210
0
220
0
230
1
0
SOLID
5
11B
100
AcDbEntity
8
2
62
256
6
ByLayer
370
13
48
1
60
0
100
AcDbTrace
10
-9.471871
20
5.35
30
0
11
-9.011088
21
1.850002
31
0
12
-9.932655
22
1.849998
32
0
13
-9.471871
23
5.35
33
0
39
0
210
0
220
0
230
1
0
SOLID
5
11C
100
AcDbEntity
8
2
62
256
6
ByLayer
370
13
48
1
60
0
100
AcDbTrace
10
-9.471871
20
8.85
30
0
11
-9.932655
21
12.349998
31
0
12
-9.011088
22
12.350002
32
0
13
-9.471871
23
8.85
33
0
39
0
210
0
220
0
230
1
0
ENDBLK
5
11E
100
AcDbEntity
8
0
100
AcDbBlockEnd
0
BLOCK
5
121
100
AcDbEntity
8
0
100
AcDbBlockBegin
2
DimnDraft3D55
70
0
10
0
20
0
30
0
3
DimnDraft3D55
0
LINE
5
123
100
AcDbEntity
8
2
62
256
6
ByLayer
370
25
48
1
60
0
100
AcDbLine
10
5.748563
20
10.4375
30
0
11
5.748563
21
28.640697
31
0
39
0
210
0
220
0
230
1
0
LINE
5
124
100
AcDbEntity
8
2
62
256
6
ByLayer
370
25
48
1
60
0
100
AcDbLine
10
0
20
6.482322
30
0
11
0
21
28.640697
31
0
39
0
210
0
220
0
230
1
0
LINE
5
125
100
AcDbEntity
8
2
62
256
6
ByLayer
370
25
48
1
60
0
100
AcDbLine
10
-8.75
20
26.640697
30
0
11
18.655028
21
26.640697
31
0
39
0
210
0
220
0
230
1
0
SOLID
5
126
100
AcDbEntity
8
2
62
256
6
ByLayer
370
25
48
1
60
0
100
AcDbTrace
10
5.748563
20
26.640697
30
0
11
9.248561
21
27.10148
31
0
12
9.248565
22
26.179913
32
0
13
5.748563
23
26.640697
33
0
39
0
210
0
220
0
230
1
0
SOLID
5
127
100
AcDbEntity
8
2
62
256
6
ByLayer
370
25
48
1
60
0
100
AcDbTrace
10
0
20
26.640697
30
0
11
-3.499998
21
26.179913
31
0
12
-3.500002
22
27.10148
32
0
13
0
23
26.640697
33
0
39
0
210
0
220
0
230
1
0
MTEXT
5
128
100
AcDbEntity
8
2
62
256
6
ByLayer
370
18
48
1
60
0
100
AcDbMText
10
11.68266
20
27.515697
30
0
210
0
220
0
230
1
1
\W0.7003;5,75
40
3.5
41
0
44
1.084337
50
0
71
7
72
5
7
iso_b_vert
0
ENDBLK
5
122
100
AcDbEntity
8
0
100
AcDbBlockEnd
0
ENDSEC
0
SECTION
2
ENTITIES
0
ELLIPSE
5
A1
100
AcDbEntity
8
1
62
256
6
ByLayer
370
18
48
1
60
0
100
AcDbEllipse
10
4.328113
20
-0.196438
30
0
11
0.396856839380031
21
8.74394626829546
31
0
210
0
220
0
230
1
40
0.026168
41
-2.06492040711542
42
-1.98204546002176
0
ELLIPSE
5
A2
100
AcDbEntity
8
1
62
256
6
ByLayer
370
18
48
1
60
0
100
AcDbEllipse
10
5.749665
20
-0.004523
30
0
11
0.396565033097699
21
8.73751690082519
31
0
210
0
220
0
230
1
40
0.026168
41
-2.17222565962432
42
-2.096209996138
0
ELLIPSE
5
A3
100
AcDbEntity
8
1
62
256
6
ByLayer
370
18
48
1
60
0
100
AcDbEllipse
10
4.328173
20
-0.19644
30
0
11
0.396698662841424
21
8.74046116480917
31
0
210
0
220
0
230
1
40
0.026168
41
-2.06481201635649
42
-1.98038749345922
0
ELLIPSE
5
A4
100
AcDbEntity
8
1
62
256
6
ByLayer
370
18
48
1
60
0
100
AcDbEllipse
10
5.749665
20
0.004523
30
0
11
-0.396565033097682
21
8.73751690082519
31
0
210
0
220
0
230
1
40
0.026168
41
2.0153772808078
42
2.09139294429413
0
ELLIPSE
5
A5
100
AcDbEntity
8
1
62
256
6
ByLayer
370
18
48
1
60
0
100
AcDbEllipse
10
4.456905
20
0.202283
30
0
11
-0.22921141538077
21
5.05021484145383
31
0
210
0
220
0
230
1
40
0.026168
41
-3.08576055719132
42
-3.00869486923586
0
ELLIPSE
5
A6
100
AcDbEntity
8
1
62
256
6
ByLayer
370
18
48
1
60
0
100
AcDbEllipse
10
5.603521
20
0.00211
30
0
11
0.206296091453986
21
4.54532153673092
31
0
210
0
220
0
230
1
40
0.026168
41
2.914215959492
42
3.14071888325531
0
ELLIPSE
5
A7
100
AcDbEntity
8
1
62
256
6
ByLayer
370
13
48
1
60
0
100
AcDbEllipse
10
4.328173
20
0.19644
30
0
11
-0.396698662841408
21
8.74046116480917
31
0
210
0
220
0
230
1
40
0.026168
41
2.18487330765487
42
2.20721544697291
0
ELLIPSE
5
A8
100
AcDbEntity
8
1
62
256
6
ByLayer
370
18
48
1
60
0
100
AcDbEllipse
10
5.603521
20
-0.00211
30
0
11
-0.206296091453977
21
4.54532153673092
31
0
210
0
220
0
230
1
40
0.026168
41
0.692953046472904
42
0.945874414263626
0
ELLIPSE
5
A9
100
AcDbEntity
8
1
62
256
6
ByLayer
370
18
48
1
60
0
100
AcDbEllipse
10
4.328113
20
0.196438
30
0
11
-0.396856839380014
21
8.74394626829546
31
0
210
0
220
0
230
1
40
0.026168
41
2.18456165156199
42
2.20555748041037
0
POINT
5
6C
100
AcDbEntity
8
81
62
256
6
ByLayer
370
18
48
1
60
0
100
AcDbPoint
10
5.748563
20
8.85
30
0
39
0
210
0
220
0
230
1
50
360
0
POINT
5
6E
100
AcDbEntity
8
1
62
256
6
ByLayer
370
18
48
1
60
1
100
AcDbPoint
10
5.748563
20
-8.85
30
0
39
0
210
0
220
0
230
1
50
360
0
POINT
5
70
100
AcDbEntity
8
80
62
256
6
ByLayer
370
18
48
1
60
0
100
AcDbPoint
10
0
20
0
30
0
39
0
210
0
220
0
230
1
50
360
0
POINT
5
72
100
AcDbEntity
8
1
62
256
6
ByLayer
370
18
48
1
60
1
100
AcDbPoint
10
0
20
4.5
30
0
39
0
210
0
220
0
230
1
50
360
0
POINT
5
73
100
AcDbEntity
8
1
62
256
6
ByLayer
370
18
48
1
60
1
100
AcDbPoint
10
0
20
-4.5
30
0
39
0
210
0
220
0
230
1
50
360
0
POINT
5
74
100
AcDbEntity
8
1
62
256
6
ByLayer
370
18
48
1
60
1
100
AcDbPoint
10
4.44
20
5.35
30
0
39
0
210
0
220
0
230
1
50
360
0
SPLINE
5
AA
100
AcDbEntity
8
1
62
256
6
ByLayer
370
18
48
1
60
0
100
AcDbSpline
70
4
71
1
72
4
73
2
40
0
40
0
40
1
40
1
41
1
10
5.68783159400022
20
8.84265507671668
30
0
41
1
10
5.67699286721651
20
8.84391518884354
30
0
0
SPLINE
5
AB
100
AcDbEntity
8
1
62
256
6
ByLayer
370
18
48
1
60
0
100
AcDbSpline
70
4
71
1
72
4
73
2
40
0
40
0
40
1
40
1
41
1
10
5.39712674353396
20
-4.54320599850197
30
0
41
1
10
5.52850422331733
20
-4.54916296527432
30
0
0
SPLINE
5
AC
100
AcDbEntity
8
1
62
256
6
ByLayer
370
18
48
1
60
0
100
AcDbSpline
70
4
71
3
72
14
73
10
40
0
40
0
40
0
40
0
40
0.0375345674053008
40
0.0375345674053008
40
0.278150925553975
40
0.278150925553975
40
0.51876728370265
40
0.51876728370265
40
1
40
1
40
1
40
1
41
1
10
5.67472647520586
20
-3.10962591152361
30
0
41
1
10
5.67457893334412
20
-3.10161867057514
30
0
41
1
10
5.674433933427
20
-3.09358314457569
30
0
41
1
10
5.67337828506433
20
-3.03382607772872
30
0
41
1
10
5.67257121954543
20
-2.98095972901694
30
0
41
1
10
5.67117845570925
20
-2.87283782287076
30
0
41
1
10
5.67059242985277
20
-2.81749810931768
30
0
41
1
10
5.66919296513385
20
-2.64908180705598
30
0
41
1
10
5.66873114985498
20
-2.53329655014318
30
0
41
1
10
5.66877327811136
20
-2.41398949656556
30
0
0
SPLINE
5
AD
100
AcDbEntity
8
1
62
256
6
ByLayer
370
18
48
1
60
0
100
AcDbSpline
70
4
71
3
72
10
73
6
40
0
40
0
40
0
40
0
40
0.55106305895321
40
0.55106305895321
40
1
40
1
40
1
40
1
41
1
10
5.66883086988832
20
-1.81532431691898
30
0
41
1
10
5.6597260766078
20
-1.86576741140672
30
0
41
1
10
5.65070609047581
20
-1.9162583396668
30
0
41
1
10
5.63452176129167
20
-2.00798650460402
30
0
41
1
10
5.6273233069318
20
-2.04920456943972
30
0
41
1
10
5.62020280986712
20
-2.09046646101291
30
0
0
SPLINE
5
AE
100
AcDbEntity
8
1
62
256
6
ByLayer
370
18
48
1
60
0
100
AcDbSpline
70
4
71
3
72
12
73
8
40
0
40
0
40
0
40
0
40
0.300043036330502
40
0.300043036330502
40
0.650016892871652
40
0.650016892871652
40
1
40
1
40
1
40
1
41
1
10
5.37155845957656
20
-4.42502327013821
30
0
41
1
10
5.37450954778456
20
-4.57706846646192
30
0
41
1
10
5.37859554129983
20
-4.72910945739662
30
0
41
1
10
5.38951925199464
20
-5.05847526840631
30
0
41
1
10
5.3966850074693
20
-5.23579981080874
30
0
41
1
10
5.41288369242386
20
-5.5904330408909
30
0
41
1
10
5.42191277908091
20
-5.76774300649046
30
0
41
1
10
5.43158400226224
20
-5.94504473188024
30
0
0
SPLINE
5
AF
100
AcDbEntity
8
1
62
256
6
ByLayer
370
18
48
1
60
0
100
AcDbSpline
70
4
71
3
72
14
73
10
40
0
40
0
40
0
40
0
40
0.5
40
0.5
40
0.75
40
0.75
40
0.875
40
0.875
40
1
40
1
40
1
40
1
41
1
10
5.43158400226224
20
-5.94504473188024
30
0
41
1
10
5.44030481876968
20
-6.10492273123802
30
0
41
1
10
5.45032240419818
20
-6.2316287613275
30
0
41
1
10
5.46738250123369
20
-6.3739726224189
30
0
41
1
10
5.47341034735538
20
-6.41340548082559
30
0
41
1
10
5.48299707439739
20
-6.46022549433943
30
0
41
1
10
5.48628962478062
20
-6.4737908103009
30
0
41
1
10
5.49302898023655
20
-6.49659255593554
30
0
41
1
10
5.49647532213712
20
-6.50583844397468
30
0
41
1
10
5.50000000048487
20
-6.51292701916856
30
0
0
SPLINE
5
B0
100
AcDbEntity
8
1
62
256
6
ByLayer
370
18
48
1
60
0
100
AcDbSpline
70
4
71
3
72
8
73
4
40
0
40
0
40
0
40
0
40
1
40
1
40
1
40
1
41
1
10
5.7138029067942
20
-4.95695541272488
30
0
41
1
10
5.67594387214817
20
-5.37238707285337
30
0
41
1
10
5.64043369165273
20
-5.787910579119
30
0
41
1
10
5.60754113928783
20
-6.20351694176969
30
0
0
SPLINE
5
B1
100
AcDbEntity
8
1
62
256
6
ByLayer
370
18
48
1
60
0
100
AcDbSpline
70
4
71
3
72
14
73
10
40
0
40
0
40
0
40
0
40
0.25
40
0.25
40
0.5
40
0.5
40
0.75
40
0.75
40
1
40
1
40
1
40
1
41
1
10
4.34134091255007
20
-4.3524904489133
30
0
41
1
10
4.34117681523691
20
-4.36171738700801
30
0
41
1
10
4.34348884975006
20
-4.37083114058112
30
0
41
1
10
4.35292428736909
20
-4.38816692191003
30
0
41
1
10
4.35999644237171
20
-4.39619680704399
30
0
41
1
10
4.37805999395115
20
-4.40982839309535
30
0
41
1
10
4.38910070539401
20
-4.41541672077005
30
0
41
1
10
4.4132845792698
20
-4.42297416057866
30
0
41
1
10
4.42658174814827
20
-4.42500000031629
30
0
41
1
10
4.44000000047728
20
-4.42500000031725
30
0
0
SPLINE
5
B2
100
AcDbEntity
8
1
62
256
6
ByLayer
370
18
48
1
60
0
100
AcDbSpline
70
4
71
3
72
8
73
4
40
0
40
0
40
0
40
0
40
1
40
1
40
1
40
1
41
1
10
4.34144600311447
20
-4.35000316000236
30
0
41
1
10
4.341390713149
20
-4.3508313387716
30
0
41
1
10
4.34135566983838
20
-4.35166066941852
30
0
41
1
10
4.34134091255007
20
-4.3524904489133
30
0
0
SPLINE
5
B3
100
AcDbEntity
8
1
62
256
6
ByLayer
370
18
48
1
60
0
100
AcDbSpline
70
4
71
3
72
8
73
4
40
0
40
0
40
0
40
0
40
1
40
1
40
1
40
1
41
1
10
4.48005123558605
20
-6.20351694176969
30
0
41
1
10
4.44903205964192
20
-5.80444480994643
30
0
41
1
10
4.41561590851998
20
-5.40544714044299
30
0
41
1
10
4.37999554231479
20
-5.0065337690211
30
0
0
SPLINE
5
B4
100
AcDbEntity
8
1
62
256
6
ByLayer
370
18
48
1
60
0
100
AcDbSpline
70
4
71
3
72
8
73
4
40
0
40
0
40
0
40
0
40
1
40
1
40
1
40
1
41
1
10
4.37999554231479
20
-5.0065337690211
30
0
41
1
10
4.3797104342265
20
-5.00334083641442
30
0
41
1
10
4.37944537638006
20
-5.00014796557318
30
0
41
1
10
4.37920075925214
20
-4.99695515770026
30
0
0
SPLINE
5
B5
100
AcDbEntity
8
1
62
256
6
ByLayer
370
18
48
1
60
0
100
AcDbSpline
70
4
71
3
72
8
73
4
40
0
40
0
40
0
40
0
40
1
40
1
40
1
40
1
41
1
10
5.66883086988832
20
-1.81532431691898
30
0
41
1
10
5.66729423695861
20
-2.02453999125507
30
0
41
1
10
5.66734478508806
20
-2.22451437892835
30
0
41
1
10
5.66877327811147
20
-2.41398949656474
30
0
0
SPLINE
5
B6
100
AcDbEntity
8
1
62
256
6
ByLayer
370
18
48
1
60
0
100
AcDbSpline
70
4
71
3
72
8
73
4
40
0
40
0
40
0
40
0
40
1
40
1
40
1
40
1
41
1
10
5.66883086988832
20
-1.81532431691898
30
0
41
0.999980885462352
10
5.64709792994534
20
-1.80382755283124
30
0
41
0.999969151255418
10
5.62536578506116
20
-1.79230719414184
30
0
41
0.999964797379197
10
5.60363491645205
20
-1.78076349510073
30
0
0
SPLINE
5
B7
100
AcDbEntity
8
1
62
256
6
ByLayer
370
18
48
1
60
0
100
AcDbSpline
70
4
71
3
72
12
73
8
40
0
40
0
40
0
40
0
40
0.372212406437787
40
0.372212406437787
40
0.722904343360748
40
0.722904343360748
40
1
40
1
40
1
40
1
41
1
10
5.50000000048578
20
-5.10091645850957
30
0
41
1
10
5.50000000048487
20
-5.27591952934824
30
0
41
1
10
5.50000000048487
20
-5.45100655379565
30
0
41
1
10
5.50000000048487
20
-5.79118616263858
30
0
41
1
10
5.50000000048487
20
-5.95627163298178
30
0
41
1
10
5.50000000048487
20
-6.25188372771436
30
0
41
1
10
5.50000000048487
20
-6.3823924488284
30
0
41
1
10
5.50000000048487
20
-6.51292701916833
30
0
0
SPLINE
5
B8
100
AcDbEntity
8
1
62
256
6
ByLayer
370
18
48
1
60
0
100
AcDbSpline
70
4
71
3
72
16
73
12
40
0
40
0
40
0
40
0
40
0.162667749061435
40
0.162667749061435
40
0.404684537647535
40
0.404684537647535
40
0.646701418922183
40
0.646701418922183
40
0.888718453366352
40
0.888718453366352
40
1
40
1
40
1
40
1
41
1
10
5.57936265695829
20
-6.36701439004941
30
0
41
1
10
5.57491241885054
20
-6.29884375979682
30
0
41
1
10
5.57047967918115
20
-6.23061579097308
30
0
41
1
10
5.55950172353803
20
-6.06071537280923
30
0
41
1
10
5.5529806562775
20
-5.95896379627803
30
0
41
1
10
5.54004756442495
20
-5.75510424087358
30
0
41
1
10
5.53363546151397
20
-5.6529963711335
30
0
41
1
10
5.52094740610113
20
-5.44833639588657
30
0
41
1
10
5.51467133971974
20
-5.34578443091507
30
0
41
1
10
5.50563527212208
20
-5.19566872258284
30
0
41
1
10
5.50280739199391
20
-5.14832590384185
30
0
41
1
10
5.50000000048578
20
-5.10091645850957
30
0
0
SPLINE
5
B9
100
AcDbEntity
8
1
62
256
6
ByLayer
370
18
48
1
60
0
100
AcDbSpline
70
4
71
3
72
8
73
4
40
0
40
0
40
0
40
0
40
1
40
1
40
1
40
1
41
1
10
5.50000000048487
20
-0.95725791067261
30
0
41
0.999493316699254
10
5.52556476428846
20
-1.07958475541129
30
0
41
0.999493316699254
10
5.55203239381881
20
-1.20353389509794
30
0
41
1
10
5.57936265695829
20
-1.32891692085496
30
0
0
SPLINE
5
BA
100
AcDbEntity
8
1
62
256
6
ByLayer
370
18
48
1
60
0
100
AcDbSpline
70
4
71
3
72
16
73
12
40
0
40
0
40
0
40
0
40
0.172814730538587
40
0.172814730538587
40
0.414096995567726
40
0.414096995567726
40
0.655379353930882
40
0.655379353930882
40
0.919075651460154
40
0.919075651460154
40
1
40
1
40
1
40
1
41
1
10
5.57936265695829
20
-1.32891692085496
30
0
41
1
10
5.57463481959806
20
-1.25650507585044
30
0
41
1
10
5.5699267263721
20
-1.18415726107094
30
0
41
1
10
5.55869983460519
20
-1.01097533172805
30
0
41
1
10
5.55220253028617
20
-0.910210920682829
30
0
41
1
10
5.53931721946662
20
-0.709037159819303
30
0
41
1
10
5.53292913466876
20
-0.608627459582578
30
0
41
1
10
5.51970233124237
20
-0.398944947598494
30
0
41
1
10
5.51287663075968
20
-0.289714278695641
30
0
41
1
10
5.50409393516884
20
-0.147410989018795
30
0
41
1
10
5.50204154723397
20
-0.114027595608462
30
0
41
1
10
5.50000000048567
20
-0.0806795345933722
30
0
0
SPLINE
5
BB
100
AcDbEntity
8
1
62
256
6
ByLayer
370
18
48
1
60
0
100
AcDbSpline
70
4
71
3
72
12
73
8
40
0
40
0
40
0
40
0
40
0.48105810486114
40
0.48105810486114
40
0.770677597750168
40
0.770677597750168
40
1
40
1
40
1
40
1
41
1
10
5.50000000048487
20
-4.45337639528421
30
0
41
1
10
5.50000000048487
20
-4.48346039862346
30
0
41
1
10
5.50000000048487
20
-4.50638802607108
30
0
41
1
10
5.50000000048487
20
-4.53165024177292
30
0
41
1
10
5.50000000048487
20
-4.53854557075664
30
0
41
1
10
5.50000000048487
20
-4.54615221501285
30
0
41
1
10
5.5000000004849
20
-4.54783671750604
30
0
41
1
10
5.50000000048493
20
-4.5478763952845
30
0
0
SPLINE
5
BC
100
AcDbEntity
8
1
62
256
6
ByLayer
370
18
48
1
60
0
100
AcDbSpline
70
4
71
3
72
18
73
14
40
0
40
0
40
0
40
0
40
0.0312500000000019
40
0.0312500000000019
40
0.0625000000000038
40
0.0625000000000038
40
0.125000000000002
40
0.125000000000002
40
0.250000000000002
40
0.250000000000002
40
0.500000000000001
40
0.500000000000001
40
1
40
1
40
1
40
1
41
1
10
5.65000000048488
20
-4.42500000031435
30
0
41
1
10
5.65555745255199
20
-4.42500000031435
30
0
41
1
10
5.6602193060981
20
-4.42139976046042
30
0
41
1
10
5.66704335886123
20
-4.41355585063744
30
0
41
1
10
5.6696206511551
20
-4.40907808136777
30
0
41
1
10
5.67632255428776
20
-4.39548232026164
30
0
41
1
10
5.67949720196569
20
-4.38584197143467
30
0
41
1
10
5.68763704485207
20
-4.35696255506372
30
0
41
1
10
5.69115358284918
20
-4.33742323410348
30
0
41
1
10
5.69989287999894
20
-4.27853384391491
30
0
41
1
10
5.70300646382441
20
-4.23883901357055
30
0
41
1
10
5.70952634040555
20
-4.11998267620174
30
0
41
1
10
5.70981888117467
20
-4.04065156960178
30
0
41
1
10
5.70884145861493
20
-3.96129115819193
30
0
0
SPLINE
5
BD
100
AcDbEntity
8
1
62
256
6
ByLayer
370
18
48
1
60
0
100
AcDbSpline
70
4
71
3
72
20
73
16
40
0
40
0
40
0
40
0
40
0.499999999999997
40
0.499999999999997
40
0.749999999999993
40
0.749999999999993
40
0.874999999999993
40
0.874999999999993
40
0.937499999999997
40
0.937499999999997
40
0.968749999999998
40
0.968749999999998
40
0.984374999999999
40
0.984374999999999
40
1
40
1
40
1
40
1
41
1
10
4.39093823071437
20
-3.96129115819642
30
0
41
1
10
4.38943159501289
20
-4.04028702669055
30
0
41
1
10
4.38916084276929
20
-4.11932005806503
30
0
41
1
10
4.39411331968759
20
-4.2377387238495
30
0
41
1
10
4.39658565081149
20
-4.27721670212963
30
0
41
1
10
4.40387103989195
20
-4.33609183394475
30
0
41
1
10
4.40683984053371
20
-4.35568903640058
30
0
41
1
10
4.41376293528447
20
-4.38462941722105
30
0
41
1
10
4.41644070048383
20
-4.39422313713231
30
0
41
1
10
4.42221634471036
20
-4.40806531465662
30
0
41
1
10
4.4244174348982
20
-4.4126068539338
30
0
41
1
10
4.42887943347162
20
-4.41876185126185
30
0
41
1
10
4.43057960884923
20
-4.42072161445483
30
0
41
1
10
4.43472108773298
20
-4.42385325303565
30
0
41
1
10
4.43728245673589
20
-4.42500000031435
30
0
41
1
10
4.44000000048487
20
-4.42500000031438
30
0
0
SPLINE
5
BE
100
AcDbEntity
8
1
62
256
6
ByLayer
370
18
48
1
60
0
100
AcDbSpline
70
4
71
3
72
10
73
6
40
0
40
0
40
0
40
0
40
0.5
40
0.5
40
1
40
1
40
1
40
1
41
1
10
5.70884145862158
20
-3.96129115814611
30
0
41
1
10
5.71318293037518
20
-3.92827326363906
30
0
41
1
10
5.71524218820252
20
-3.89520007883417
30
0
41
1
10
5.71656324766619
20
-3.82898593649298
30
0
41
1
10
5.71577597864823
20
-3.79584379010663
30
0
41
1
10
5.71380290679477
20
-3.76267291575712
30
0
0
SPLINE
5
BF
100
AcDbEntity
8
1
62
256
6
ByLayer
370
18
48
1
60
0
100
AcDbSpline
70
4
71
3
72
8
73
4
40
0
40
0
40
0
40
0
40
1
40
1
40
1
40
1
41
1
10
5.7138029067942
20
-3.76267291574663
30
0
41
1
10
5.67594387214817
20
-3.12619468627247
30
0
41
1
10
5.64043369165273
20
-2.48957574035231
30
0
41
1
10
5.60754113928783
20
-1.8528298510854
30
0
0
SPLINE
5
C0
100
AcDbEntity
8
1
62
256
6
ByLayer
370
18
48
1
60
0
100
AcDbSpline
70
4
71
3
72
8
73
4
40
0
40
0
40
0
40
0
40
1
40
1
40
1
40
1
41
1
10
4.48005123558605
20
-1.8528298510854
30
0
41
1
10
4.44903205964192
20
-2.46424382905911
30
0
41
1
10
4.41561590851998
20
-3.07554372414012
30
0
41
1
10
4.37999554231479
20
-3.68671446706728
30
0
0
SPLINE
5
C1
100
AcDbEntity
8
1
62
256
6
ByLayer
370
18
48
1
60
0
100
AcDbSpline
70
4
71
3
72
8
73
4
40
0
40
0
40
0
40
0
40
1
40
1
40
1
40
1
41
1
10
4.37999554231479
20
-3.68671446706728
30
0
41
1
10
4.3797104342265
20
-3.69160632362846
30
0
41
1
10
4.37944537638006
20
-3.69649808555954
30
0
41
1
10
4.37920075925214
20
-3.70138975101753
30
0
0
SPLINE
5
C2
100
AcDbEntity
8
1
62
256
6
ByLayer
370
18
48
1
60
0
100
AcDbSpline
70
4
71
3
72
10
73
6
40
0
40
0
40
0
40
0
40
0.5
40
0.5
40
1
40
1
40
1
40
1
41
1
10
4.37920075925214
20
-3.70138975101753
30
0
41
1
10
4.3770290271851
20
-3.74481838100351
30
0
41
1
10
4.3764121904855
20
-3.78822321948863
30
0
41
1
10
4.37950768151984
20
-3.87496665578331
30
0
41
1
10
4.38304062632577
20
-3.91844946521636
30
0
41
1
10
4.39093823071434
20
-3.96129115819636
30
0
0
SPLINE
5
C3
100
AcDbEntity
8
SK1
62
256
6
ByLayer
370
18
48
1
60
0
100
AcDbSpline
70
4
71
3
72
8
73
4
40
0
40
0
40
0
40
0
40
1
40
1
40
1
40
1
41
0.994487578827258
10
-0.187585509497094
20
1.01990749725342
30
0
41
0.99218457493138
10
-0.411946124875508
20
1.15264470587466
30
0
41
0.994022048655628
10
-0.65043101588753
20
1.27594255537271
30
0
41
1
10
-0.899999999515131
20
1.38832154351127
30
0
0
SPLINE
5
C4
100
AcDbEntity
8
SK1
62
256
6
ByLayer
370
18
48
1
60
0
100
AcDbSpline
70
4
71
3
72
8
73
4
40
0
40
0
40
0
40
0
40
1
40
1
40
1
40
1
41
1
10
-0.899999999515131
20
0.524341439974563
30
0
41
1
10
-0.712823158009115
20
0.62631047834094
30
0
41
1
10
-0.524737806448059
20
0.728850385962403
30
0
41
1
10
-0.3359830763128
20
0.831810902719297
30
0
0
SPLINE
5
C5
100
AcDbEntity
8
SK1
62
256
6
ByLayer
370
18
48
1
60
0
100
AcDbSpline
70
4
71
3
72
8
73
4
40
0
40
0
40
0
40
0
40
1
40
1
40
1
40
1
41
1
10
-0.3359830763128
20
0.831810902719297
30
0
41
1
10
-0.223825630451379
20
0.897107314002616
30
0
41
1
10
-0.111830157020163
20
0.962362721248083
30
0
41
1
10
-1.64153E-11
20
1.02757627791633
30
0
0
SPLINE
5
C6
100
AcDbEntity
8
SK1
62
256
6
ByLayer
370
18
48
1
60
0
100
AcDbSpline
70
4
71
3
72
8
73
4
40
0
40
0
40
0
40
0
40
1
40
1
40
1
40
1
41
1
10
-0.899999999515131
20
-1.27972379036353
30
0
41
0.996666062293643
10
-0.761183188664115
20
-1.2133544998177
30
0
41
0.994619960855347
10
-0.625521155581084
20
-1.14375220609598
30
0
41
0.993861695685112
10
-0.493560753462539
20
-1.07116751138809
30
0
0
SPLINE
5
C7
100
AcDbEntity
8
1
62
256
6
ByLayer
370
18
48
1
60
0
100
AcDbSpline
70
4
71
3
72
12
73
8
40
0
40
0
40
0
40
0
40
0.334779059499912
40
0.334779059499912
40
0.669558118999824
40
0.669558118999824
40
1
40
1
40
1
40
1
41
1
10
5.65000000048488
20
8.84999999968568
30
0
41
1
10
5.65555745255199
20
8.84999999968568
30
0
41
1
10
5.6602193060981
20
8.84952334943657
30
0
41
1
10
5.66704335886123
20
8.84848486263633
30
0
41
1
10
5.6696206511551
20
8.84789203273638
30
0
41
1
10
5.67405964475253
20
8.84669980756797
30
0
41
1
10
5.67594967193145
20
8.84608899123469
30
0
41
1
10
5.67762470098231
20
8.84546898014631
30
0
0
SPLINE
5
C8
100
AcDbEntity
8
1
62
256
6
ByLayer
370
18
48
1
60
0
100
AcDbSpline
70
4
71
3
72
8
73
4
40
0
40
0
40
0
40
0
40
1
40
1
40
1
40
1
41
1
10
0.100000000484869
20
4.90798555081363
30
0
41
1
10
0.0666776482578709
20
4.90368805427839
30
0
41
1
10
0.0333441714842693
20
4.89929988690081
30
0
41
1
10
-1.70357E-11
20
4.89482160511246
30
0
0
SPLINE
5
C9
100
AcDbEntity
8
SK1
62
256
6
ByLayer
370
18
48
1
60
0
100
AcDbSpline
70
4
71
3
72
8
73
4
40
0
40
0
40
0
40
0
40
1
40
1
40
1
40
1
41
1
10
-0.34428197824721
20
4.84545851891326
30
0
41
1
10
-0.530250662595051
20
4.64668200571325
30
0
41
1
10
-0.715566478302378
20
4.44723413367782
30
0
41
1
10
-0.899999999515131
20
4.24687897927726
30
0
0
SPLINE
5
CA
100
AcDbEntity
8
SK1
62
256
6
ByLayer
370
18
48
1
60
0
100
AcDbSpline
70
4
71
3
72
8
73
4
40
0
40
0
40
0
40
0
40
1
40
1
40
1
40
1
41
1
10
-0.899999999515131
20
2.02680286890009
30
0
41
0.997134966683889
10
-0.692596828329224
20
2.0458438862827
30
0
41
0.997134966683889
10
-0.492838671684838
20
2.05318101612908
30
0
41
1
10
-0.302442470903856
20
2.04875119507483
30
0
0
SPLINE
5
CB
100
AcDbEntity
8
SK1
62
256
6
ByLayer
370
18
48
1
60
0
100
AcDbSpline
70
4
71
3
72
8
73
4
40
0
40
0
40
0
40
0
40
1
40
1
40
1
40
1
41
1
10
-0.302442470903856
20
2.04875119507483
30
0
41
0.998844417593395
10
-0.198374788808161
20
2.04632992192275
30
0
41
0.998546871560219
10
-0.097473034267243
20
2.04039459130638
30
0
41
0.999107361900472
10
-1.40798E-11
20
2.0309573554804
30
0
0
SPLINE
5
CC
100
AcDbEntity
8
SK1
62
256
6
ByLayer
370
18
48
1
60
0
100
AcDbSpline
70
4
71
3
72
8
73
4
40
0
40
0
40
0
40
0
40
1
40
1
40
1
40
1
41
1
10
-0.899999999515131
20
-4.132739094806
30
0
41
1
10
-0.712823158009115
20
-4.33657504006717
30
0
41
1
10
-0.524737806448059
20
-4.5395551117422
30
0
41
1
10
-0.3359830763128
20
-4.74190458671956
30
0
0
SPLINE
5
CD
100
AcDbEntity
8
SK1
62
256
6
ByLayer
370
18
48
1
60
0
100
AcDbSpline
70
4
71
3
72
8
73
4
40
0
40
0
40
0
40
0
40
1
40
1
40
1
40
1
41
1
10
-0.3359830763128
20
-4.74190458671956
30
0
41
1
10
-0.223823764347955
20
-4.76208359941269
30
0
41
1
10
-0.111818549929026
20
-4.78093942872174
30
0
41
1
10
-1.65306E-11
20
-4.7984407104587
30
0
0
SPLINE
5
CE
100
AcDbEntity
8
1
62
256
6
ByLayer
370
18
48
1
60
0
100
AcDbSpline
70
4
71
3
72
8
73
4
40
0
40
0
40
0
40
0
40
1
40
1
40
1
40
1
41
1
10
4.34144600311447
20
8.74578269424507
30
0
41
1
10
4.341390713149
20
8.74695364010995
30
0
41
1
10
4.34135566983838
20
8.7481255297651
30
0
41
1
10
4.34134091255007
20
8.74929736778128
30
0
0
SPLINE
5
CF
100
AcDbEntity
8
1
62
256
6
ByLayer
370
18
48
1
60
0
100
AcDbSpline
70
4
71
3
72
19
73
15
40
0
40
0
40
0
40
0
40
0.249999999999999
40
0.249999999999999
40
0.374999999999999
40
0.374999999999999
40
0.499999999999999
40
0.624999999999999
40
0.624999999999999
40
0.687499999999999
40
0.687499999999999
40
0.749999999999999
40
0.749999999999999
40
1
40
1
40
1
40
1
41
1
10
4.42192285519917
20
5.67094855499582
30
0
41
1
10
4.42177430638219
20
5.89784287623141
30
0
41
1
10
4.41969899311636
20
6.13621718979812
30
0
41
1
10
4.41403838017396
20
6.51072505699301
30
0
41
1
10
4.411707566948
20
6.63894448972863
30
0
41
1
10
4.40629292840683
20
6.89645723915507
30
0
41
1
10
4.40011853599813
20
7.15588095048378
30
0
41
1
10
4.39248595281546
20
7.41904603097839
30
0
41
1
10
4.38621409009963
20
7.61783453051368
30
0
41
1
10
4.38403199784835
20
7.68433357394517
30
0
41
1
10
4.37948196245657
20
7.81781138714487
30
0
41
1
10
4.37710910072519
20
7.88492309672364
30
0
41
1
10
4.36482812964914
20
8.22008274283374
30
0
41
1
10
4.35377410323105
20
8.48469485076183
30
0
41
1
10
4.34144600311447
20
8.74578269424507
30
0
0
SPLINE
5
D0
100
AcDbEntity
8
1
62
256
6
ByLayer
370
18
48
1
60
0
100
AcDbSpline
70
4
71
3
72
14
73
10
40
0
40
0
40
0
40
0
40
0.25
40
0.25
40
0.5
40
0.5
40
0.75
40
0.75
40
1
40
1
40
1
40
1
41
1
10
4.34134091255007
20
8.74929736778128
30
0
41
1
10
4.34117681523691
20
8.76232791011302
30
0
41
1
10
4.34348884975006
20
8.77511206150572
30
0
41
1
10
4.35292428736912
20
8.79928825938001
30
0
41
1
10
4.35999644237171
20
8.81041205913215
30
0
41
1
10
4.37805999395118
20
8.82921886819173
30
0
41
1
10
4.38910070539401
20
8.83688518565916
30
0
41
1
10
4.4132845792698
20
8.84723578677563
30
0
41
1
10
4.42658174814827
20
8.84999999968446
30
0
41
1
10
4.44000000047726
20
8.84999999968576
30
0
0
SPLINE
5
D1
100
AcDbEntity
8
1
62
256
6
ByLayer
370
18
48
1
60
0
100
AcDbSpline
70
4
71
3
72
22
73
18
40
0
40
0
40
0
40
0
40
0.249999999999999
40
0.249999999999999
40
0.374999999999999
40
0.374999999999999
40
0.437499999999999
40
0.437499999999999
40
0.499999999999999
40
0.499999999999999
40
0.749999999999999
40
0.749999999999999
40
0.8125
40
0.8125
40
0.875
40
0.875
40
1
40
1
40
1
40
1
41
1
10
5.74856282615806
20
8.74648624467341
30
0
41
1
10
5.73615176988744
20
8.4849450117342
30
0
41
1
10
5.72511778813737
20
8.22153986342084
30
0
41
1
10
5.71049837878474
20
7.82374842179763
30
0
41
1
10
5.70595025082588
20
7.69070053920106
30
0
41
1
10
5.69962767520784
20
7.49043555111444
30
0
41
1
10
5.69759849415698
20
7.42338397706993
30
0
41
1
10
5.6937388757336
20
7.28999031700099
30
0
41
1
10
5.69191076269442
20
7.22374849784396
30
0
41
1
10
5.68327199595251
20
6.89477020179902
30
0
41
1
10
5.67794426419977
20
6.63866037880013
30
0
41
1
10
5.67337828506433
20
6.32733668577126
30
0
41
1
10
5.6725712195454
20
6.26551672746686
30
0
41
1
10
5.67117845570925
20
6.14278256016539
30
0
41
1
10
5.67059242985277
20
6.08178358934379
30
0
41
1
10
5.66919296513385
20
5.90151975325065
30
0
41
1
10
5.66873114985498
20
5.78459977556548
30
0
41
1
10
5.66877327811136
20
5.67094855501034
30
0
0
SPLINE
5
D2
100
AcDbEntity
8
1
62
256
6
ByLayer
370
18
48
1
60
0
100
AcDbSpline
70
4
71
3
72
10
73
6
40
0
40
0
40
0
40
0
40
0.513104281711143
40
0.513104281711143
40
1
40
1
40
1
40
1
41
1
10
5.66883086988997
20
5.09008269699621
30
0
41
1
10
5.65956791818368
20
5.00453293040781
30
0
41
1
10
5.65039273627562
20
4.91901951761292
30
0
41
1
10
5.63271619029518
20
4.75244590998724
30
0
41
1
10
5.62420434998509
20
4.67138130123965
30
0
41
1
10
5.61580508271982
20
4.59036365074925
30
0
0
SPLINE
5
D3
100
AcDbEntity
8
1
62
256
6
ByLayer
370
18
48
1
60
0
100
AcDbSpline
70
4
71
3
72
8
73
4
40
0
40
0
40
0
40
0
40
1
40
1
40
1
40
1
41
1
10
0.100000000484869
20
-2.0393911911678
30
0
41
0.99959927227825
10
0.0671123745146442
20
-2.04183379925045
30
0
41
0.999301726245069
10
0.0337757319323174
20
-2.04385573510561
30
0
41
0.999107361900456
10
-1.67901E-11
20
-2.04545599645028
30
0
0
SPLINE
5
D4
100
AcDbEntity
8
SK1
62
256
6
ByLayer
370
18
48
1
60
0
100
AcDbSpline
70
4
71
3
72
8
73
4
40
0
40
0
40
0
40
0
40
1
40
1
40
1
40
1
41
1
10
-0.302442470903884
20
-2.04875119570346
30
0
41
0.997134966683889
10
-0.492838671684867
20
-2.04432137464928
30
0
41
0.997134966683889
10
-0.692596828329253
20
-2.02816267744916
30
0
41
1
10
-0.899999999515131
20
-2.00041398972067
30
0
0
SPLINE
5
D5
100
AcDbEntity
8
1
62
256
6
ByLayer
370
18
48
1
60
0
100
AcDbSpline
70
4
71
3
72
20
73
16
40
0
40
0
40
0
40
0
40
0.0786060289640968
40
0.156931219068572
40
0.234975662350422
40
0.312739451844318
40
0.390222681596718
40
0.467425446680239
40
0.544347843208281
40
0.620989968349867
40
0.697351920344791
40
0.773433798518998
40
0.849235703300261
40
0.924757736234094
40
1
40
1
40
1
40
1
41
1
10
4.42192285519917
20
5.67094855499582
30
0
41
1
10
4.42206068536723
20
5.65268398072055
30
0
41
1
10
4.42233585327207
20
5.61622008673487
30
0
41
1
10
4.42266417882968
20
5.56216754284404
30
0
41
1
10
4.42292964335553
20
5.50872101294661
30
0
41
1
10
4.42312630270774
20
5.45592623752603
30
0
41
1
10
4.42325574044577
20
5.40378029617526
30
0
41
1
10
4.423317536817
20
5.35229277148846
30
0
41
1
10
4.42331179529668
20
5.30146955615513
30
0
41
1
10
4.42323851948521
20
5.25131678960096
30
0
41
1
10
4.42309759275147
20
5.20184123610744
30
0
41
1
10
4.42288947554096
20
5.15304490864227
30
0
41
1
10
4.4226124516087
20
5.10494610374539
30
0
41
1
10
4.42227289266793
20
5.0575010662223
30
0
41
1
10
4.42198853701353
20
5.02637248269556
30
0
41
1
10
4.42184662302185
20
5.0108370731613
30
0
0
SPLINE
5
D6
100
AcDbEntity
8
1
62
256
6
ByLayer
370
18
48
1
60
0
100
AcDbSpline
70
4
71
3
72
14
73
10
40
0
40
0
40
0
40
0
40
0.231359508639089
40
0.231359508639089
40
0.462719017951739
40
0.462719017951739
40
0.694078528042428
40
0.694078528042428
40
1
40
1
40
1
40
1
41
1
10
4.42184662302185
20
5.0108370731613
30
0
41
1
10
4.08854287775264
20
5.00732776773089
30
0
41
1
10
3.75523987334981
20
5.00377875200272
30
0
41
1
10
3.08863549025673
20
4.99659711326021
30
0
41
1
10
2.75533410079228
20
4.99296449157265
30
0
41
1
10
2.08873308763327
20
4.98561108855841
30
0
41
1
10
1.75543345187734
20
4.9818903087812
30
0
41
1
10
0.981421452490281
20
4.97314149281482
30
0
41
1
10
0.540709779532165
20
4.96807863893847
30
0
41
1
10
0.100000000484869
20
4.96292802028816
30
0
0
SPLINE
5
D7
100
AcDbEntity
8
1
62
256
6
ByLayer
370
18
48
1
60
0
100
AcDbSpline
70
4
71
3
72
8
73
4
40
0
40
0
40
0
40
0
40
1
40
1
40
1
40
1
41
1
10
5.66883086988997
20
5.09008269699621
30
0
41
1
10
5.66729423695861
20
5.27391621462399
30
0
41
1
10
5.66734478508806
20
5.46806390467108
30
0
41
1
10
5.66877327811147
20
5.67094855501128
30
0
0
SPLINE
5
D8
100
AcDbEntity
8
1
62
256
6
ByLayer
370
18
48
1
60
0
100
AcDbSpline
70
4
71
3
72
8
73
4
40
0
40
0
40
0
40
0
40
1
40
1
40
1
40
1
41
1
10
5.66883086988997
20
5.09008269699621
30
0
41
0.999950494691406
10
5.61254237276427
20
5.06391850833564
30
0
41
0.999950494691406
10
5.5562626301499
20
5.03799118495366
30
0
41
1
10
5.50000000048487
20
5.01230457747064
30
0
0
SPLINE
5
D9
100
AcDbEntity
8
1
62
256
6
ByLayer
370
18
48
1
60
0
100
AcDbSpline
70
4
71
3
72
14
73
10
40
0
40
0
40
0
40
0
40
0.25
40
0.25
40
0.5
40
0.5
40
0.75
40
0.75
40
1
40
1
40
1
40
1
41
1
10
5.65000000048488
20
-4.42500000031435
30
0
41
1
10
5.66366674870295
20
-4.42500000031435
30
0
41
1
10
5.6771051938797
20
-4.42294040612074
30
0
41
1
10
5.70178468883717
20
-4.4151328373394
30
0
41
1
10
5.71297795366507
20
-4.40935957099026
30
0
41
1
10
5.73109244432641
20
-4.39535566462814
30
0
41
1
10
5.73816196486769
20
-4.38701889920273
30
0
41
1
10
5.74717100678689
20
-4.36931421719891
30
0
41
1
10
5.7491923228622
20
-4.35988537900005
30
0
41
1
10
5.74856282615806
20
-4.35050082070498
30
0
0
SPLINE
5
DA
100
AcDbEntity
8
1
62
256
6
ByLayer
370
18
48
1
60
0
100
AcDbSpline
70
4
71
3
72
9
73
5
40
0
40
0
40
0
40
0
40
0.5
40
1
40
1
40
1
40
1
41
1
10
4.48005123558605
20
-6.20351694176969
30
0
41
1
10
4.49463168519802
20
-6.30176626042047
30
0
41
1
10
4.52255856453772
20
-6.45309081977788
30
0
41
1
10
4.54825525189935
20
-6.51761424051355
30
0
41
1
10
4.56056637117038
20
-6.52726090268106
30
0
0
SPLINE
5
DB
100
AcDbEntity
8
1
62
256
6
ByLayer
370
18
48
1
60
0
100
AcDbSpline
70
4
71
3
72
16
73
12
40
0
40
0
40
0
40
0
40
0.196465513428041
40
0.196465513428041
40
0.464310342285361
40
0.464310342285361
40
0.598232756714021
40
0.598232756714021
40
0.73215517114268
40
0.73215517114268
40
1
40
1
40
1
40
1
41
1
10
4.56827064139105
20
-6.5303141212402
30
0
41
1
10
4.57523215330698
20
-6.53030344141919
30
0
41
1
10
4.58190151323467
20
-6.5225804367941
30
0
41
1
10
4.59701554756731
20
-6.48663364253807
30
0
41
1
10
4.60522450134428
20
-6.45197751368329
30
0
41
1
10
4.61680421806275
20
-6.37888034644675
30
0
41
1
10
4.62054148408606
20
-6.35098490774411
30
0
41
1
10
4.62777171656029
20
-6.28795631576747
30
0
41
1
10
4.63125103036535
20
-6.25291939136161
30
0
41
1
10
4.64121952309142
20
-6.13805224700442
30
0
41
1
10
4.64727274796161
20
-6.04824029242067
30
0
41
1
10
4.65275808696202
20
-5.94504473188024
30
0
0
SPLINE
5
DC
100
AcDbEntity
8
1
62
256
6
ByLayer
370
18
48
1
60
0
100
AcDbSpline
70
4
71
3
72
10
73
6
40
0
40
0
40
0
40
0
40
0.390473549282477
40
0.390473549282477
40
1
40
1
40
1
40
1
41
1
10
4.65275808696202
20
-5.94504473188024
30
0
41
1
10
4.66066125675567
20
-5.79636257443414
30
0
41
1
10
4.66810166712816
20
-5.64767471630097
30
0
41
1
10
4.68556774032803
20
-5.2668715758663
30
0
41
1
10
4.6947006014455
20
-5.03474484054544
30
0
41
1
10
4.70160622474745
20
-4.80260450927992
30
0
0
SPLINE
5
DD
100
AcDbEntity
8
1
62
256
6
ByLayer
370
18
48
1
60
0
100
AcDbSpline
70
4
71
3
72
14
73
10
40
0
40
0
40
0
40
0
40
0.272575777083025
40
0.272575777083025
40
0.545148771615702
40
0.545148771615702
40
0.772570787308966
40
0.772570787308966
40
1
40
1
40
1
40
1
41
1
10
4.70160622474745
20
-4.80260450927992
30
0
41
1
10
4.28439602494552
20
-4.82849878580748
30
0
41
1
10
3.86683758695656
20
-4.85317331758546
30
0
41
1
10
3.03125338617875
20
-4.9006357973779
30
0
41
1
10
2.61321574177237
20
-4.92342104017541
30
0
41
1
10
1.84606187482211
20
-4.9638241499982
30
0
41
1
10
1.49699420450645
20
-4.98167109434607
30
0
41
1
10
0.798647158589574
20
-5.01646281015599
30
0
41
1
10
0.449364882357571
20
-5.03340726537758
30
0
41
1
10
0.100000000484869
20
-5.04996128500471
30
0
0
SPLINE
5
DE
100
AcDbEntity
8
1
62
256
6
ByLayer
370
18
48
1
60
0
100
AcDbSpline
70
4
71
3
72
14
73
10
40
0
40
0
40
0
40
0
40
0.25
40
0.25
40
0.5
40
0.5
40
0.75
40
0.75
40
1
40
1
40
1
40
1
41
1
10
5.65000000048488
20
8.84999999968568
30
0
41
1
10
5.66366674870292
20
8.84999999968568
30
0
41
1
10
5.6771051938797
20
8.84718993125662
30
0
41
1
10
5.70178468883717
20
8.83649599166014
30
0
41
1
10
5.71297795366507
20
8.82857480006388
30
0
41
1
10
5.73109244432641
20
8.80924856649327
30
0
41
1
10
5.73816196486769
20
8.79769426925623
30
0
41
1
10
5.74717100678686
20
8.77298841833533
30
0
41
1
10
5.7491923228622
20
8.75975178312103
30
0
41
1
10
5.74856282615806
20
8.74648624467341
30
0
0
SPLINE
5
DF
100
AcDbEntity
8
SK1
62
256
6
ByLayer
370
18
48
1
60
0
100
AcDbSpline
70
4
71
3
72
12
73
8
40
0
40
0
40
0
40
0
40
0.5
40
0.5
40
0.75
40
0.75
40
1
40
1
40
1
40
1
41
1
10
-0.34428197824721
20
-1.17318440808663
30
0
41
1
10
-0.342888652036237
20
-0.84417139850342
30
0
41
1
10
-0.341486618841088
20
-0.512108623815266
30
0
41
1
10
-0.339396556337505
20
-0.0095702001608799
30
0
41
1
10
-0.338701834609509
20
0.158752074964269
30
0
41
1
10
-0.337323269993107
20
0.496678988764501
30
0
41
1
10
-0.336645854366168
20
0.664710967581556
30
0
41
1
10
-0.3359830763128
20
0.831810902719297
30
0
0
SPLINE
5
E0
100
AcDbEntity
8
1
62
256
6
ByLayer
370
18
48
1
60
0
100
AcDbSpline
70
4
71
3
72
14
73
10
40
0
40
0
40
0
40
0
40
0.227921428195998
40
0.227921428195998
40
0.46031579400298
40
0.46031579400298
40
0.692710160591479
40
0.692710160591479
40
1
40
1
40
1
40
1
41
1
10
4.40260114904572
20
-3.28706195509977
30
0
41
1
10
4.07571259003981
20
-3.28765410308577
30
0
41
1
10
3.74882474499725
20
-3.28826062972701
30
0
41
1
10
3.08863549025673
20
-3.289516538729
30
0
41
1
10
2.75533410079228
20
-3.29016652773109
30
0
41
1
10
2.0887330876333
20
-3.29150057715955
30
0
41
1
10
1.75543345187737
20
-3.29218463664503
30
0
41
1
10
0.981421452490281
20
-3.29381559459114
30
0
41
1
10
0.540709779532165
20
-3.29477613455376
30
0
41
1
10
0.100000000484869
20
-3.29577172455487
30
0
0
SPLINE
5
E1
100
AcDbEntity
8
1
62
256
6
ByLayer
370
18
48
1
60
0
100
AcDbSpline
70
4
71
3
72
8
73
4
40
0
40
0
40
0
40
0
40
1
40
1
40
1
40
1
41
1
10
0.100000000484869
20
1.20007762859106
30
0
41
0.99905456896259
10
0.0671213453804063
20
1.18059223599708
30
0
41
0.998212701110792
10
0.0337849370548431
20
1.16085423196827
30
0
41
0.997474396444607
10
-2.37048E-11
20
1.14086912481182
30
0
0
SPLINE
5
E2
100
AcDbEntity
8
1
62
256
6
ByLayer
370
18
48
1
60
0
100
AcDbSpline
70
4
71
3
72
8
73
4
40
0
40
0
40
0
40
0
40
1
40
1
40
1
40
1
41
1
10
0.100000000484869
20
-1.42724609093509
30
0
41
1
10
0.0666764445892544
20
-1.40820559072021
30
0
41
1
10
0.0333430926312935
20
-1.38915596631565
30
0
41
1
10
-1.68172E-11
20
-1.37009726929586
30
0
0
SPLINE
5
E3
100
AcDbEntity
8
SK1
62
256
6
ByLayer
370
18
48
1
60
0
100
AcDbSpline
70
4
71
3
72
8
73
4
40
0
40
0
40
0
40
0
40
1
40
1
40
1
40
1
41
1
10
-0.34428197824721
20
-1.17318440808663
30
0
41
1
10
-0.530250662595051
20
-1.06001626169839
30
0
41
1
10
-0.715566478302378
20
-0.947191288832755
30
0
41
1
10
-0.899999999515131
20
-0.834830084771397
30
0
0
SPLINE
5
E4
100
AcDbEntity
8
1
62
256
6
ByLayer
370
18
48
1
60
0
100
AcDbSpline
70
4
71
3
72
14
73
10
40
0
40
0
40
0
40
0
40
0.272575777083026
40
0.272575777083026
40
0.545148771615702
40
0.545148771615702
40
0.772570787308966
40
0.772570787308966
40
1
40
1
40
1
40
1
41
1
10
4.70160622474745
20
2.88009280277734
30
0
41
1
10
4.28439602494552
20
2.85086445956543
30
0
41
1
10
3.86683758695656
20
2.82301291165166
30
0
41
1
10
3.03125338617872
20
2.76943931025812
30
0
41
1
10
2.61321574177234
20
2.74372031031066
30
0
41
1
10
1.84606187482211
20
2.69811502145572
30
0
41
1
10
1.49699420450645
20
2.67797015994057
30
0
41
1
10
0.798647158589574
20
2.63869877077695
30
0
41
1
10
0.449364882357571
20
2.61957260008714
30
0
41
1
10
0.100000000484869
20
2.60088713626732
30
0
0
SPLINE
5
E5
100
AcDbEntity
8
1
62
256
6
ByLayer
370
18
48
1
60
0
100
AcDbSpline
70
4
71
3
72
9
73
5
40
0
40
0
40
0
40
0
40
0.5
40
1
40
1
40
1
40
1
41
1
10
0.100000000484869
20
2.60088713626732
30
0
41
1
10
0.100000000484869
20
2.36479687379074
30
0
41
1
10
0.100000000484869
20
1.8758782116515
30
0
41
1
10
0.100000000484869
20
1.35480206258694
30
0
41
1
10
0.100000000484869
20
1.08590568264265
30
0
0
SPLINE
5
E6
100
AcDbEntity
8
1
62
256
6
ByLayer
370
18
48
1
60
0
100
AcDbSpline
70
4
71
3
72
14
73
10
40
0
40
0
40
0
40
0
40
0.5
40
0.5
40
0.75
40
0.75
40
0.875
40
0.875
40
1
40
1
40
1
40
1
41
1
10
0.100000000484869
20
-1.42724609093509
30
0
41
1
10
0.100000000484869
20
-1.77247209013237
30
0
41
1
10
0.100000000484869
20
-2.10079157349449
30
0
41
1
10
0.100000000484869
20
-2.56891593668354
30
0
41
1
10
0.100000000484869
20
-2.72086366380674
30
0
41
1
10
0.100000000484869
20
-2.94245588740893
30
0
41
1
10
0.100000000484869
20
-3.01530038298807
30
0
41
1
10
0.100000000484869
20
-3.15775605416062
30
0
41
1
10
0.100000000484897
20
-3.22750520511517
30
0
41
1
10
0.100000000484897
20
-3.29577172455478
30
0
0
SPLINE
5
E7
100
AcDbEntity
8
1
62
256
6
ByLayer
370
18
48
1
60
0
100
AcDbSpline
70
4
71
3
72
22
73
18
40
0
40
0
40
0
40
0
40
0.25
40
0.25
40
0.374999999999999
40
0.374999999999999
40
0.437499999999999
40
0.437499999999999
40
0.499999999999999
40
0.499999999999999
40
0.749999999999999
40
0.749999999999999
40
0.8125
40
0.8125
40
0.875
40
0.875
40
1
40
1
40
1
40
1
41
1
10
4.48005123558605
20
-1.85282985108543
30
0
41
1
10
4.49893238498316
20
-1.49960529544043
30
0
41
1
10
4.51677321206788
20
-1.15876808213636
30
0
41
1
10
4.542154107014
20
-0.66538339163742
30
0
41
1
10
4.55038240254427
20
-0.503925922039173
30
0
41
1
10
4.56238381646
20
-0.266390552640473
30
0
41
1
10
4.5663279182327
20
-0.187974981156515
30
0
41
1
10
4.57401024284042
20
-0.0345898754472671
30
0
41
1
10
4.57776083290622
20
0.0406237177826938
30
0
41
1
10
4.59607674183439
20
0.409421264924134
30
0
41
1
10
4.60934380972756
20
0.681438547043768
30
0
41
1
10
4.62431041010757
20
0.992184979286435
30
0
41
1
10
4.62722846935262
20
1.05298877868915
30
0
41
1
10
4.63286484148824
20
1.1708026543167
30
0
41
1
10
4.63558231998681
20
1.22779399571681
30
0
41
1
10
4.64344086882136
20
1.39306194885603
30
0
41
1
10
4.64828879854343
20
1.49564893890334
30
0
41
1
10
4.65275808696202
20
1.59055552261012
30
0
0
SPLINE
5
E8
100
AcDbEntity
8
1
62
256
6
ByLayer
370
18
48
1
60
0
100
AcDbSpline
70
4
71
3
72
10
73
6
40
0
40
0
40
0
40
0
40
0.390473549282484
40
0.390473549282484
40
1
40
1
40
1
40
1
41
1
10
4.65275808696202
20
1.59055552261012
30
0
41
1
10
4.66066125675567
20
1.75838153322277
30
0
41
1
10
4.66810166712816
20
1.92621397852525
30
0
41
1
10
4.68556774032803
20
2.35604814952245
30
0
41
1
10
4.6947006014455
20
2.61806280289173
30
0
41
1
10
4.70160622474745
20
2.88009280277734
30
0
0
SPLINE
5
E9
100
AcDbEntity
8
1
62
256
6
ByLayer
370
18
48
1
60
0
100
AcDbSpline
70
4
71
3
72
12
73
8
40
0
40
0
40
0
40
0
40
0.368212321779321
40
0.368212321779321
40
0.684101986056556
40
0.684101986056556
40
1
40
1
40
1
40
1
41
1
10
5.36882332621983
20
3.49144386783598
30
0
41
1
10
5.37169447496987
20
3.25810060982752
30
0
41
1
10
5.37678226854368
20
3.02476317036377
30
0
41
1
10
5.38951925199464
20
2.59127691878544
30
0
41
1
10
5.3966850074693
20
2.39112061861942
30
0
41
1
10
5.41288369242386
20
1.99082591441498
30
0
41
1
10
5.42191277908091
20
1.79068606791572
30
0
41
1
10
5.43158400226224
20
1.59055552261012
30
0
0
SPLINE
5
EA
100
AcDbEntity
8
1
62
256
6
ByLayer
370
18
48
1
60
0
100
AcDbSpline
70
4
71
3
72
14
73
10
40
0
40
0
40
0
40
0
40
0.5
40
0.5
40
0.750000000000001
40
0.750000000000001
40
0.875
40
0.875
40
1
40
1
40
1
40
1
41
1
10
5.43158400226224
20
1.59055552261012
30
0
41
1
10
5.44030481876968
20
1.41009212822686
30
0
41
1
10
5.45032240419818
20
1.20356028917348
30
0
41
1
10
5.46738250123369
20
0.856270201348991
30
0
41
1
10
5.47341034735538
20
0.734208942826143
30
0
41
1
10
5.48299707439739
20
0.541429875053012
30
0
41
1
10
5.48628962478062
20
0.475433398207684
30
0
41
1
10
5.49302898023655
20
0.340834124769856
30
0
41
1
10
5.49647532213712
20
0.272239600300253
30
0
41
1
10
5.50000000048487
20
0.202348844949853
30
0
0
SPLINE
5
EB
100
AcDbEntity
8
1
62
256
6
ByLayer
370
18
48
1
60
0
100
AcDbSpline
70
4
71
3
72
8
73
4
40
0
40
0
40
0
40
0
40
1
40
1
40
1
40
1
41
1
10
5.57936265695829
20
-1.32891692085496
30
0
41
1
10
5.58849796651251
20
-1.50041450934521
30
0
41
1
10
5.59788392318376
20
-1.67501158550999
30
0
41
1
10
5.60754113928783
20
-1.8528298510854
30
0
0
SPLINE
5
EC
100
AcDbEntity
8
1
62
256
6
ByLayer
370
18
48
1
60
0
100
AcDbSpline
70
4
71
3
72
8
73
4
40
0
40
0
40
0
40
0
40
1
40
1
40
1
40
1
41
1
10
5.50000000048487
20
3.46585313826486
30
0
41
1
10
5.45608431775284
20
3.47410455666224
30
0
41
1
10
5.41233859808273
20
3.48261682175325
30
0
41
1
10
5.36882332621983
20
3.49144386783598
30
0
0
SPLINE
5
ED
100
AcDbEntity
8
SK1
62
256
6
ByLayer
370
18
48
1
60
0
100
AcDbSpline
70
4
71
3
72
8
73
4
40
0
40
0
40
0
40
0
40
1
40
1
40
1
40
1
41
1
10
-1.70356E-11
20
4.89482160511246
30
0
41
1
10
-0.114640065786591
20
4.87942489571358
30
0
41
1
10
-0.229406547753541
20
4.86296299592768
30
0
41
1
10
-0.34428197824721
20
4.84545851891326
30
0
0
SPLINE
5
EE
100
AcDbEntity
8
1
62
256
6
ByLayer
370
18
48
1
60
0
100
AcDbSpline
70
4
71
3
72
8
73
4
40
0
40
0
40
0
40
0
40
1
40
1
40
1
40
1
41
0.999107361900472
10
-1.40798E-11
20
2.0309573554804
30
0
41
0.999301726245085
10
0.0337757319340998
20
2.0276872249255
30
0
41
0.999599272278261
10
0.0671123745155225
20
2.02399891921514
30
0
41
1
10
0.100000000484869
20
2.01989395332524
30
0
0
SPLINE
5
EF
100
AcDbEntity
8
SK1
62
256
6
ByLayer
370
18
48
1
60
0
100
AcDbSpline
70
4
71
3
72
8
73
4
40
0
40
0
40
0
40
0
40
1
40
1
40
1
40
1
41
0.997474396444607
10
-2.37048E-11
20
1.14086912481182
30
0
41
0.991472698451074
10
-0.276505625057855
20
0.977305269925165
30
0
41
0.992314566302871
10
-0.578594527925407
20
0.799820024810986
30
0
41
1
10
-0.899999999515131
20
0.612092445266455
30
0
0
SPLINE
5
F0
100
AcDbEntity
8
1
62
256
6
ByLayer
370
18
48
1
60
0
100
AcDbSpline
70
4
71
3
72
8
73
4
40
0
40
0
40
0
40
0
40
1
40
1
40
1
40
1
41
1
10
-1.64153E-11
20
1.02757627791633
30
0
41
1
10
0.0333480637888688
20
1.04702314186618
30
0
41
1
10
0.0666814268476154
20
1.0664662842577
30
0
41
1
10
0.100000000484869
20
1.08590568264265
30
0
0
SPLINE
5
F1
100
AcDbEntity
8
SK1
62
256
6
ByLayer
370
18
48
1
60
0
100
AcDbSpline
70
4
71
3
72
8
73
4
40
0
40
0
40
0
40
0
40
1
40
1
40
1
40
1
41
1
10
-1.68172E-11
20
-1.37009726929586
30
0
41
1
10
-0.114646250775956
20
-1.30456621071251
30
0
41
1
10
-0.229407660481747
20
-1.23892789147335
30
0
41
1
10
-0.34428197824721
20
-1.17318440808663
30
0
0
SPLINE
5
F2
100
AcDbEntity
8
SK1
62
256
6
ByLayer
370
18
48
1
60
0
100
AcDbSpline
70
4
71
3
72
8
73
4
40
0
40
0
40
0
40
0
40
1
40
1
40
1
40
1
41
0.999107361900456
10
-1.67901E-11
20
-2.04545599645028
30
0
41
0.998546871560224
10
-0.0974730342691246
20
-2.05007417405474
30
0
41
0.998844417593405
10
-0.198374788809154
20
-2.05117246885553
30
0
41
1
10
-0.302442470903884
20
-2.04875119570346
30
0
0
SPLINE
5
F3
100
AcDbEntity
8
1
62
256
6
ByLayer
370
18
48
1
60
0
100
AcDbSpline
70
4
71
3
72
8
73
4
40
0
40
0
40
0
40
0
40
1
40
1
40
1
40
1
41
1
10
-1.65306E-11
20
-4.7984407104587
30
0
41
1
10
0.0333502262178295
20
-4.80366052153455
30
0
41
1
10
0.0666838477304121
20
-4.80875983897185
30
0
41
1
10
0.100000000484869
20
-4.8137378306451
30
0
0
INSERT
5
129
100
AcDbEntity
8
2
62
256
6
ByLayer
370
25
48
1
60
0
100
AcDbBlockReference
2
DimnDraft3D55
10
0
20
0
30
0
41
1
42
1
43
1
50
0
210
0
220
0
230
1
0
LINE
5
75
100
AcDbEntity
8
1
62
256
6
ByLayer
370
18
48
1
60
1
100
AcDbLine
10
0
20
0
30
0
11
0
21
297
31
0
39
0
210
0
220
0
230
1
0
LINE
5
76
100
AcDbEntity
8
1
62
256
6
ByLayer
370
18
48
1
60
1
100
AcDbLine
10
420
20
297
30
0
11
0
21
297
31
0
39
0
210
0
220
0
230
1
0
LINE
5
77
100
AcDbEntity
8
1
62
256
6
ByLayer
370
18
48
1
60
1
100
AcDbLine
10
420
20
297
30
0
11
420
21
0
31
0
39
0
210
0
220
0
230
1
0
LINE
5
78
100
AcDbEntity
8
1
62
256
6
ByLayer
370
18
48
1
60
1
100
AcDbLine
10
0
20
0
30
0
11
420
21
0
31
0
39
0
210
0
220
0
230
1
0
LINE
5
79
100
AcDbEntity
8
1
62
256
6
ByLayer
370
18
48
1
60
0
100
AcDbLine
10
4.567858
20
-6.530307
30
0
11
5.5
21
-6.530307
31
0
39
0
210
0
220
0
230
1
0
LINE
5
7A
100
AcDbEntity
8
1
62
256
6
ByLayer
370
18
48
1
60
0
100
AcDbLine
10
5.5
20
4.004388
30
0
11
0.1
21
4.004388
31
0
39
0
210
0
220
0
230
1
0
LINE
5
7B
100
AcDbEntity
8
1
62
256
6
ByLayer
370
18
48
1
60
0
100
AcDbLine
10
0.1
20
4.004388
30
0
11
0.1
21
3.816216
31
0
39
0
210
0
220
0
230
1
0
LINE
5
7C
100
AcDbEntity
8
1
62
256
6
ByLayer
370
13
48
1
60
0
100
AcDbLine
10
5.5
20
3.816216
30
0
11
0.1
21
3.816216
31
0
39
0
210
0
220
0
230
1
0
LINE
5
7D
100
AcDbEntity
8
1
62
256
6
ByLayer
370
18
48
1
60
0
100
AcDbLine
10
0.1
20
3.816216
30
0
11
0.1
21
2.600887
31
0
39
0
210
0
220
0
230
1
0
LINE
5
7E
100
AcDbEntity
8
1
62
256
6
ByLayer
370
13
48
1
60
0
100
AcDbLine
10
5.431584
20
1.590556
30
0
11
4.652758
21
1.590556
31
0
39
0
210
0
220
0
230
1
0
LINE
5
7F
100
AcDbEntity
8
1
62
256
6
ByLayer
370
18
48
1
60
0
100
AcDbLine
10
4.374606
20
-3.780159
30
0
11
0.1
21
-3.780159
31
0
39
0
210
0
220
0
230
1
0
LINE
5
80
100
AcDbEntity
8
1
62
256
6
ByLayer
370
18
48
1
60
0
100
AcDbLine
10
0.1
20
-3.780159
30
0
11
0.1
21
-3.973264
31
0
39
0
210
0
220
0
230
1
0
LINE
5
81
100
AcDbEntity
8
1
62
256
6
ByLayer
370
13
48
1
60
0
100
AcDbLine
10
4.363553
20
-3.973264
30
0
11
0.1
21
-3.973264
31
0
39
0
210
0
220
0
230
1
0
LINE
5
82
100
AcDbEntity
8
1
62
256
6
ByLayer
370
18
48
1
60
0
100
AcDbLine
10
0.1
20
-3.973264
30
0
11
0.1
21
-5.049961
31
0
39
0
210
0
220
0
230
1
0
LINE
5
83
100
AcDbEntity
8
1
62
256
6
ByLayer
370
13
48
1
60
0
100
AcDbLine
10
5.431584
20
-5.945045
30
0
11
4.652758
21
-5.945045
31
0
39
0
210
0
220
0
230
1
0
LINE
5
84
100
AcDbEntity
8
SK1
62
256
6
ByLayer
370
18
48
1
60
0
100
AcDbLine
10
-0.9
20
-0.83483
30
0
11
-0.9
21
0.524341
31
0
39
0
210
0
220
0
230
1
0
LINE
5
86
100
AcDbEntity
8
SK1
62
256
6
ByLayer
370
18
48
1
60
0
100
AcDbLine
10
-0.9
20
0.524341
30
0
11
-0.9
21
0.612092
31
0
39
0
210
0
220
0
230
1
0
LINE
5
87
100
AcDbEntity
8
1
62
256
6
ByLayer
370
18
48
1
60
0
100
AcDbLine
10
5.708841
20
-3.961291
30
0
11
4.390938
21
-3.961291
31
0
39
0
210
0
220
0
230
1
0
LINE
5
88
100
AcDbEntity
8
1
62
256
6
ByLayer
370
18
48
1
60
0
100
AcDbLine
10
5.607541
20
-1.85283
30
0
11
4.480051
21
-1.85283
31
0
39
0
210
0
220
0
230
1
0
LINE
5
89
100
AcDbEntity
8
SK1
62
256
6
ByLayer
370
18
48
1
60
0
100
AcDbLine
10
-0.9
20
-4.132739
30
0
11
-0.9
21
-2.000414
31
0
39
0
210
0
220
0
230
1
0
LINE
5
8A
100
AcDbEntity
8
SK1
62
256
6
ByLayer
370
18
48
1
60
0
100
AcDbLine
10
-0.9
20
-2.000414
30
0
11
-0.9
21
-1.279724
31
0
39
0
210
0
220
0
230
1
0
LINE
5
8B
100
AcDbEntity
8
SK1
62
256
6
ByLayer
370
18
48
1
60
0
100
AcDbLine
10
-0.9
20
1.388322
30
0
11
-0.9
21
2.026803
31
0
39
0
210
0
220
0
230
1
0
LINE
5
8C
100
AcDbEntity
8
SK1
62
256
6
ByLayer
370
18
48
1
60
0
100
AcDbLine
10
-0.9
20
4.246879
30
0
11
-0.9
21
2.026803
31
0
39
0
210
0
220
0
230
1
0
LINE
5
8D
100
AcDbEntity
8
1
62
256
6
ByLayer
370
18
48
1
60
0
100
AcDbLine
10
0.1
20
4.962928
30
0
11
0.1
21
4.004388
31
0
39
0
210
0
220
0
230
1
0
LINE
5
8E
100
AcDbEntity
8
1
62
256
6
ByLayer
370
18
48
1
60
0
100
AcDbLine
10
5.5
20
4.522741
30
0
11
5.615805
21
4.590364
31
0
39
0
210
0
220
0
230
1
0
LINE
5
8F
100
AcDbEntity
8
1
62
256
6
ByLayer
370
18
48
1
60
0
100
AcDbLine
10
5.5
20
5.012305
30
0
11
5.5
21
4.004388
31
0
39
0
210
0
220
0
230
1
0
LINE
5
90
100
AcDbEntity
8
1
62
256
6
ByLayer
370
18
48
1
60
0
100
AcDbLine
10
5.5
20
4.004388
30
0
11
5.5
21
3.816216
31
0
39
0
210
0
220
0
230
1
0
LINE
5
91
100
AcDbEntity
8
1
62
256
6
ByLayer
370
18
48
1
60
0
100
AcDbLine
10
5.5
20
3.816216
30
0
11
5.5
21
3.465853
31
0
39
0
210
0
220
0
230
1
0
LINE
5
92
100
AcDbEntity
8
1
62
256
6
ByLayer
370
18
48
1
60
0
100
AcDbLine
10
4.421923
20
5.670949
30
0
11
5.668773
21
5.670949
31
0
39
0
210
0
220
0
230
1
0
LINE
5
93
100
AcDbEntity
8
1
62
256
6
ByLayer
370
18
48
1
60
0
100
AcDbLine
10
5.65
20
8.85
30
0
11
4.44
21
8.85
31
0
39
0
210
0
220
0
230
1
0
LINE
5
94
100
AcDbEntity
8
1
62
256
6
ByLayer
370
18
48
1
60
0
100
AcDbLine
10
0.1
20
-3.295772
30
0
11
0.1
21
-3.780159
31
0
39
0
210
0
220
0
230
1
0
LINE
5
95
100
AcDbEntity
8
1
62
256
6
ByLayer
370
18
48
1
60
0
100
AcDbLine
10
5.65
20
-4.425
30
0
11
4.44
21
-4.425
31
0
39
0
210
0
220
0
230
1
0
LINE
5
96
100
AcDbEntity
8
1
62
256
6
ByLayer
370
18
48
1
60
0
100
AcDbLine
10
5.5
20
0.202349
30
0
11
5.5
21
-0.957258
31
0
39
0
210
0
220
0
230
1
0
LINE
5
97
100
AcDbEntity
8
1
62
256
6
ByLayer
370
18
48
1
60
1
100
AcDbLine
10
5.65
20
8.85
30
0
11
5.849305
21
8.85
31
0
39
0
210
0
220
0
230
1
0
LINE
5
98
100
AcDbEntity
8
1
62
256
6
ByLayer
370
18
48
1
60
1
100
AcDbLine
10
5.748563
20
8.746486
30
0
11
5.748563
21
8.896924
31
0
39
0
210
0
220
0
230
1
0
LINE
5
99
100
AcDbEntity
8
1
62
256
6
ByLayer
370
18
48
1
60
0
100
AcDbLine
10
0
20
0
30
0
11
0
21
4.894822
31
0
39
0
210
0
220
0
230
1
0
LINE
5
9A
100
AcDbEntity
8
1
62
256
6
ByLayer
370
18
48
1
60
0
100
AcDbLine
10
0
20
0
30
0
11
0
21
-4.798441
31
0
39
0
210
0
220
0
230
1
0
LINE
5
9B
100
AcDbEntity
8
81
62
256
6
ByLayer
370
18
48
1
60
0
100
AcDbLine
10
5.748563
20
8.85
30
0
11
6.003076
21
8.85
31
0
39
0
210
0
220
0
230
1
0
LINE
5
9C
100
AcDbEntity
8
80
62
256
6
ByLayer
370
18
48
1
60
0
100
AcDbLine
10
0
20
0
30
0
11
-1.392909
21
0
31
0
39
0
210
0
220
0
230
1
0
LINE
5
9D
100
AcDbEntity
8
4
62
256
6
ByLayer
370
18
48
0.05
60
0
100
AcDbLine
10
0
20
0
30
0
11
6.444938
21
0
31
0
39
0
210
0
220
0
230
1
0
LINE
5
9F
100
AcDbEntity
8
SK4
62
256
6
ByLayer
370
18
48
0.05
60
0
100
AcDbLine
10
-1.392909
20
0
30
0
11
8.073168
21
0
31
0
39
0
210
0
220
0
230
1
0
MTEXT
5
F4
100
AcDbEntity
8
SK6
62
256
6
ByLayer
370
18
48
1
60
0
100
AcDbMText
10
-17.109934
20
-17.99667
30
0
210
0
220
0
230
1
1
\W0.7114;327R09-18 13000-GM
40
3.5
41
0
44
1.084337
50
0
71
7
72
5
7
iso_b_vert
0
DIMENSION
5
102
100
AcDbEntity
8
SK2
62
256
6
ByLayer
370
13
48
1
60
0
100
AcDbDimension
2
DimnDraft3D1
10
-12.446507
20
4.5
30
0
11
-12.446507
21
-4.784868
31
0
70
32
71
5
72
1
41
1
210
0
220
0
230
1
3
Standard
100
AcDbAlignedDimension
13
-1.5875
23
-4.5
33
0
14
-1.5875
24
4.5
34
0
50
90
100
AcDbRotatedDimension
1001
ACAD
1000
DSTYLE
1002
{
1070
    74
1070
     0
1070
   279
1070
     0
1070
   172
1070
     1
1070
   173
1070
     1
1070
   340
1005
F5
1070
   271
1070
     2
1070
   272
1070
     2
1070
    77
1070
     1
1070
    73
1070
     0
1070
   171
1070
     3
1070
   274
1070
     4
1070
   177
1070
     7
1070
   176
1070
     7
1070
   178
1070
     7
1070
    78
1070
     8
1070
    48
1040
-0.005
1070
    41
1041
3.5
1070
   147
1041
1.75
1070
    42
1041
1.5875
1070
    44
1041
2.0
1070
   140
1041
3.5
1070
   343
1005
0
1070
   344
1005
0
1002
}
0
DIMENSION
5
10B
100
AcDbEntity
8
2
62
256
6
ByLayer
370
13
48
1
60
0
100
AcDbDimension
2
DimnDraft3D2
10
22.540046
20
-8.85
30
0
11
22.540046
21
-8.994469
31
0
70
32
71
5
72
1
41
1
210
0
220
0
230
1
3
Standard
100
AcDbAlignedDimension
13
5.748563
23
-8.85
33
0
14
0
24
0
34
0
50
90
100
AcDbRotatedDimension
1001
ACAD
1000
DSTYLE
1002
{
1070
    74
1070
     0
1070
   279
1070
     0
1070
   172
1070
     1
1070
   173
1070
     1
1070
   340
1005
F5
1070
    76
1070
     1
1070
   271
1070
     2
1070
   272
1070
     2
1070
    77
1070
     1
1070
    73
1070
     0
1070
   171
1070
     3
1070
   274
1070
     4
1070
   282
1070
     1
1070
   177
1070
     7
1070
   176
1070
     7
1070
   178
1070
     7
1070
    78
1070
     8
1070
    48
1040
-0.005
1070
    41
1041
3.5
1070
   147
1041
1.75
1070
    42
1041
1.5875
1070
    44
1041
2.0
1070
   140
1041
3.5
1070
   343
1005
0
1070
   344
1005
0
1002
}
0
DIMENSION
5
115
100
AcDbEntity
8
2
62
256
6
ByLayer
370
13
48
1
60
0
100
AcDbDimension
2
DimnDraft3D3
10
5.748563
20
14.729872
30
0
11
12.466604
21
14.729872
31
0
70
32
71
5
72
1
41
1
210
0
220
0
230
1
3
Standard
100
AcDbAlignedDimension
13
4.341446
23
10.333283
33
0
14
5.748563
24
10.333986
34
0
50
0
100
AcDbRotatedDimension
1001
ACAD
1000
DSTYLE
1002
{
1070
   279
1070
     0
1070
   172
1070
     1
1070
   173
1070
     1
1070
   340
1005
F5
1070
   271
1070
     2
1070
   272
1070
     2
1070
    77
1070
     1
1070
    73
1070
     0
1070
   171
1070
     3
1070
   274
1070
     4
1070
   177
1070
     7
1070
   176
1070
     7
1070
   178
1070
     7
1070
    78
1070
     8
1070
    48
1040
-0.005
1070
    41
1041
3.5
1070
   147
1041
1.75
1070
    42
1041
1.5875
1070
    44
1041
2.0
1070
   140
1041
3.5
1070
   343
1005
0
1070
   344
1005
0
1002
}
0
DIMENSION
5
11F
100
AcDbEntity
8
2
62
256
6
ByLayer
370
13
48
1
60
0
100
AcDbDimension
2
DimnDraft3D4
10
-9.471871
20
8.85
30
0
11
-9.471871
21
16.234726
31
0
70
32
71
5
72
1
41
1
210
0
220
0
230
1
3
Standard
100
AcDbAlignedDimension
13
2.8525
23
5.35
33
0
14
2.8525
24
8.85
34
0
50
90
100
AcDbRotatedDimension
1001
ACAD
1000
DSTYLE
1002
{
1070
    74
1070
     0
1070
   279
1070
     0
1070
   172
1070
     1
1070
   173
1070
     1
1070
   340
1005
F5
1070
   271
1070
     1
1070
   272
1070
     2
1070
    77
1070
     1
1070
    73
1070
     0
1070
   171
1070
     3
1070
   274
1070
     4
1070
   177
1070
     7
1070
   176
1070
     7
1070
   178
1070
     7
1070
    78
1070
     8
1070
    48
1040
-0.005
1070
    41
1041
3.5
1070
   147
1041
1.75
1070
    42
1041
1.5875
1070
    44
1041
2.0
1070
   140
1041
3.5
1070
   343
1005
0
1070
   344
1005
0
1002
}
0
ENDSEC
0
SECTION
2
OBJECTS
0
DICTIONARY
5
194
330
0
100
AcDbDictionary
280
0
281
1
3
ACAD_GROUP
350
195
3
ACAD_MLINESTYLE
350
196
0
DICTIONARY
5
195
330
0
100
AcDbDictionary
280
0
281
1
0
DICTIONARY
5
196
330
0
100
AcDbDictionary
280
0
281
1
3
Standard
350
18
0
MLINESTYLE
5
18
330
196
100
AcDbMlineStyle
2
Standard
70
0
3

62
256
51
90
52
90
71
2
49
-0.5
62
256
6
ByLayer
49
0.5
62
256
6
ByLayer
0
RASTERVARIABLES
5
182
330

100
AcDbRasterVariables
90
0
70
1
71
1
72
1
0
ENDSEC
0
EOF
