0
SECTION
2
HEADER
9
$ACADVER
1
AC1015
9
$DWGCODEPAGE
3
ANSI_1252
9
$HANDSEED
5
183
9
$ANGBASE
50
0
9
$ANGDIR
70
0
9
$ATTMODE
70
1
9
$AUNITS
70
0
9
$AUPREC
70
0
9
$CECOLOR
62
256
9
$CELTSCALE
40
1
9
$CELTYPE
6
ByLayer
9
$CELWEIGHT
370
18
9
$CLAYER
8
0
9
$CMLJUST
70
0
9
$CMLSCALE
40
1
9
$CMLSTYLE
2
Standard
9
$DIMSTYLE
2
Standard
9
$TEXTSIZE
40
0.2
9
$TEXTSTYLE
7
Standard
9
$LUNITS
70
2
9
$LUPREC
70
4
9
$EXTNAMES
290
1
9
$INSUNITS
70
4
9
$LTSCALE
40
1
9
$LWDISPLAY
290
1
9
$PDMODE
70
0
9
$PDSIZE
40
0
9
$PLINEGEN
70
0
0
ENDSEC
0
SECTION
2
CLASSES
0
CLASS
1
RASTERVARIABLES
2
AcDbRasterVariables
3
ISM
90
0
280
0
281
0
0
ENDSEC
0
SECTION
2
TABLES
0
TABLE
2
VPORT
5
179
100
AcDbSymbolTable
0
VPORT
5
1
100
AcDbSymbolTableRecord
100
AcDbViewportTableRecord
2
*Active
70
0
10
0
20
0
11
1
21
1
12
-1
22
1
13
0
23
0
14
0.5
24
0.5
15
10
25
10
16
0
26
0
36
1
17
0
27
0
37
0
0
ENDTAB
0
TABLE
2
LTYPE
5
17a
100
AcDbSymbolTable
0
LTYPE
5
14
100
AcDbSymbolTableRecord
100
AcDbLinetypeTableRecord
70
0
2
ByBlock
3

72
65
73
0
40
0
0
LTYPE
5
15
100
AcDbSymbolTableRecord
100
AcDbLinetypeTableRecord
70
0
2
ByLayer
3

72
65
73
0
40
0
0
LTYPE
5
16
100
AcDbSymbolTableRecord
100
AcDbLinetypeTableRecord
70
0
2
CONTINUOUS
3
Solid line
72
65
73
0
40
0
0
LTYPE
5
6A
100
AcDbSymbolTableRecord
100
AcDbLinetypeTableRecord
70
0
2
CENTER
3
____ _ ____ _ ____ _ ____
72
65
73
4
40
47.5
49
22
74
0
49
-8.5
74
0
49
8.5
74
0
49
-8.5
74
0
0
LTYPE
5
6B
100
AcDbSymbolTableRecord
100
AcDbLinetypeTableRecord
70
0
2
DASHED
3
__ __ __ __ __ __ __ __ __
72
65
73
2
40
25.72
49
12.86
74
0
49
-12.86
74
0
0
ENDTAB
0
TABLE
2
LAYER
5
17b
100
AcDbSymbolTable
0
LAYER
5
10
100
AcDbSymbolTableRecord
100
AcDbLayerTableRecord
2
0
70
0
62
7
6
CONTINUOUS
290
1
370
-3
390
0
0
LAYER
5
6D
100
AcDbSymbolTableRecord
100
AcDbLayerTableRecord
2
81
70
0
62
-3
6
CONTINUOUS
290
1
370
-3
390
0
0
LAYER
5
6F
100
AcDbSymbolTableRecord
100
AcDbLayerTableRecord
2
1
70
0
62
4
6
CONTINUOUS
290
1
370
-3
390
0
0
LAYER
5
71
100
AcDbSymbolTableRecord
100
AcDbLayerTableRecord
2
80
70
0
62
-6
6
CONTINUOUS
290
1
370
-3
390
0
0
LAYER
5
98
100
AcDbSymbolTableRecord
100
AcDbLayerTableRecord
2
4
70
0
62
-2
6
CENTER
290
1
370
-3
390
0
0
LAYER
5
C8
100
AcDbSymbolTableRecord
100
AcDbLayerTableRecord
2
2
70
0
62
7
6
CONTINUOUS
290
1
370
-3
390
0
0
LAYER
5
165
100
AcDbSymbolTableRecord
100
AcDbLayerTableRecord
2
SK1
70
0
62
4
6
CONTINUOUS
290
1
370
-3
390
0
0
LAYER
5
166
100
AcDbSymbolTableRecord
100
AcDbLayerTableRecord
2
SK4
70
0
62
2
6
CENTER
290
1
370
-3
390
0
0
LAYER
5
167
100
AcDbSymbolTableRecord
100
AcDbLayerTableRecord
2
SK6
70
0
62
5
6
CONTINUOUS
290
1
370
-3
390
0
0
LAYER
5
168
100
AcDbSymbolTableRecord
100
AcDbLayerTableRecord
2
SK2
70
0
62
7
6
CONTINUOUS
290
1
370
-3
390
0
0
ENDTAB
0
TABLE
2
STYLE
5
17c
100
AcDbSymbolTable
0
STYLE
5
11
100
AcDbSymbolTableRecord
100
AcDbTextStyleTableRecord
2
Standard
3
txt
70
0
71
0
40
0
41
1
42
0
50
0
0
STYLE
5
C3
100
AcDbSymbolTableRecord
100
AcDbTextStyleTableRecord
2
iso_b_vert
3
simplex.shx
70
0
71
0
40
0
41
1
42
0
50
0
0
STYLE
5
C4
100
AcDbSymbolTableRecord
100
AcDbTextStyleTableRecord
2
DWGDirectTextStyle
3
simplex
70
0
71
0
40
0
41
1
42
0
50
0
0
ENDTAB
0
TABLE
2
DIMSTYLE
5
17d
100
AcDbSymbolTable
100
AcDbDimStyleTable
0
DIMSTYLE
105
27
100
AcDbSymbolTableRecord
100
AcDbDimStyleTableRecord
2
Standard
70
0
3
<>
41
0.18
42
0.0625
44
0.18
140
0.18
147
0.09
73
0
74
0
77
1
271
2
275
0
278
52
280
0
340
11
0
ENDTAB
0
TABLE
2
VIEW
5
17e
100
AcDbSymbolTable
0
ENDTAB
0
TABLE
2
UCS
5
17f
100
AcDbSymbolTable
0
ENDTAB
0
TABLE
2
APPID
5
180
100
AcDbSymbolTable
0
APPID
5
12
100
AcDbSymbolTableRecord
100
AcDbRegAppTableRecord
2
ACAD
70
0
0
ENDTAB
0
TABLE
2
BLOCK_RECORD
5
181
100
AcDbSymbolTable
0
BLOCK_RECORD
5
1F
100
AcDbSymbolTableRecord
100
AcDbBlockTableRecord
2
*Model_Space
340
0
70
0
0
BLOCK_RECORD
5
1B
100
AcDbSymbolTableRecord
100
AcDbBlockTableRecord
2
*Paper_Space
340
0
70
0
0
BLOCK_RECORD
5
23
100
AcDbSymbolTableRecord
100
AcDbBlockTableRecord
2
*Paper_Space0
340
0
70
0
0
BLOCK_RECORD
5
C6
100
AcDbSymbolTableRecord
100
AcDbBlockTableRecord
2
DimnDraft3D1
340
0
70
0
0
BLOCK_RECORD
5
CF
100
AcDbSymbolTableRecord
100
AcDbBlockTableRecord
2
DimnDraft3D22
340
0
70
0
0
BLOCK_RECORD
5
D9
100
AcDbSymbolTableRecord
100
AcDbBlockTableRecord
2
DimnDraft3D33
340
0
70
0
0
BLOCK_RECORD
5
E4
100
AcDbSymbolTableRecord
100
AcDbBlockTableRecord
2
DimnDraft3D4
340
0
70
0
0
BLOCK_RECORD
5
EE
100
AcDbSymbolTableRecord
100
AcDbBlockTableRecord
2
DimnDraft3D5
340
0
70
0
0
BLOCK_RECORD
5
F8
100
AcDbSymbolTableRecord
100
AcDbBlockTableRecord
2
DimnDraft3D6
340
0
70
0
0
BLOCK_RECORD
5
102
100
AcDbSymbolTableRecord
100
AcDbBlockTableRecord
2
DimnDraft3D7
340
0
70
0
0
ENDTAB
0
ENDSEC
0
SECTION
2
BLOCKS
0
BLOCK
5
20
100
AcDbEntity
8
0
100
AcDbBlockBegin
2
*Model_Space
70
0
10
0
20
0
30
0
3
*Model_Space
0
ENDBLK
5
21
100
AcDbEntity
8
0
100
AcDbBlockEnd
0
BLOCK
5
1C
100
AcDbEntity
8
0
100
AcDbBlockBegin
2
*Paper_Space
70
0
10
0
20
0
30
0
3
*Paper_Space
0
ENDBLK
5
1D
100
AcDbEntity
8
0
100
AcDbBlockEnd
0
BLOCK
5
24
100
AcDbEntity
8
0
100
AcDbBlockBegin
2
*Paper_Space0
70
0
10
0
20
0
30
0
3
*Paper_Space0
0
ENDBLK
5
25
100
AcDbEntity
8
0
100
AcDbBlockEnd
0
BLOCK
5
CC
100
AcDbEntity
8
0
100
AcDbBlockBegin
2
DimnDraft3D1
70
0
10
0
20
0
30
0
3
DimnDraft3D1
0
MTEXT
5
C7
100
AcDbEntity
8
2
62
256
6
ByLayer
370
18
48
1
60
0
100
AcDbMText
10
21.89545
20
-6.636184
30
0
210
0
220
0
230
1
1
\W1.0454;%%c17,7
40
3.5
41
0
44
1.084337
50
90
71
7
72
5
7
iso_b_vert
0
LINE
5
C9
100
AcDbEntity
8
2
62
256
6
ByLayer
370
13
48
1
60
0
100
AcDbLine
10
6.2875
20
8.85
30
0
11
25.64545
21
8.85
31
0
39
0
210
0
220
0
230
1
0
LINE
5
CA
100
AcDbEntity
8
2
62
256
6
ByLayer
370
13
48
1
60
0
100
AcDbLine
10
23.64545
20
8.85
30
0
11
23.64545
21
-9.011184
31
0
39
0
210
0
220
0
230
1
0
SOLID
5
CB
100
AcDbEntity
8
2
62
256
6
ByLayer
370
13
48
1
60
0
100
AcDbTrace
10
23.64545
20
8.85
30
0
11
24.106234
21
5.350002
31
0
12
23.184667
22
5.349998
32
0
13
23.64545
23
8.85
33
0
39
0
210
0
220
0
230
1
0
ENDBLK
5
CD
100
AcDbEntity
8
0
100
AcDbBlockEnd
0
BLOCK
5
D0
100
AcDbEntity
8
0
100
AcDbBlockBegin
2
DimnDraft3D22
70
0
10
0
20
0
30
0
3
DimnDraft3D22
0
LINE
5
D2
100
AcDbEntity
8
2
62
256
6
ByLayer
370
25
48
1
60
0
100
AcDbLine
10
0.1
20
7.42604
30
0
11
0.1
21
29.617677
31
0
39
0
210
0
220
0
230
1
0
LINE
5
D3
100
AcDbEntity
8
2
62
256
6
ByLayer
370
25
48
1
60
0
100
AcDbLine
10
5.85
20
8.529982
30
0
11
5.85
21
29.617677
31
0
39
0
210
0
220
0
230
1
0
LINE
5
D4
100
AcDbEntity
8
2
62
256
6
ByLayer
370
25
48
1
60
0
100
AcDbLine
10
18.855223
20
27.617677
30
0
11
-8.65
21
27.617677
31
0
39
0
210
0
220
0
230
1
0
SOLID
5
D5
100
AcDbEntity
8
2
62
256
6
ByLayer
370
25
48
1
60
0
100
AcDbTrace
10
0.1
20
27.617677
30
0
11
-3.399998
21
27.156893
31
0
12
-3.400002
22
28.078461
32
0
13
0.1
23
27.617677
33
0
39
0
210
0
220
0
230
1
0
SOLID
5
D6
100
AcDbEntity
8
2
62
256
6
ByLayer
370
25
48
1
60
0
100
AcDbTrace
10
5.85
20
27.617677
30
0
11
9.349998
21
28.078461
31
0
12
9.350002
22
27.156893
32
0
13
5.85
23
27.617677
33
0
39
0
210
0
220
0
230
1
0
MTEXT
5
D7
100
AcDbEntity
8
2
62
256
6
ByLayer
370
18
48
1
60
0
100
AcDbMText
10
11.882854
20
28.492677
30
0
210
0
220
0
230
1
1
\W0.7003;5,75
40
3.5
41
0
44
1.084337
50
0
71
7
72
5
7
iso_b_vert
0
ENDBLK
5
D1
100
AcDbEntity
8
0
100
AcDbBlockEnd
0
BLOCK
5
DA
100
AcDbEntity
8
0
100
AcDbBlockBegin
2
DimnDraft3D33
70
0
10
0
20
0
30
0
3
DimnDraft3D33
0
LINE
5
DC
100
AcDbEntity
8
SK2
62
256
6
ByLayer
370
25
48
1
60
0
100
AcDbLine
10
4.7
20
11.240757
30
0
11
4.7
21
22.813065
31
0
39
0
210
0
220
0
230
1
0
LINE
5
DE
100
AcDbEntity
8
SK2
62
256
6
ByLayer
370
25
48
1
60
0
100
AcDbLine
10
0
20
7.92451
30
0
11
0
21
22.813065
31
0
39
0
210
0
220
0
230
1
0
LINE
5
DF
100
AcDbEntity
8
SK2
62
256
6
ByLayer
370
25
48
1
60
0
100
AcDbLine
10
-8.75
20
20.813065
30
0
11
16.802685
21
20.813065
31
0
39
0
210
0
220
0
230
1
0
SOLID
5
E0
100
AcDbEntity
8
SK2
62
256
6
ByLayer
370
25
48
1
60
0
100
AcDbTrace
10
4.7
20
20.813065
30
0
11
8.199998
21
21.273849
31
0
12
8.200002
22
20.352281
32
0
13
4.7
23
20.813065
33
0
39
0
210
0
220
0
230
1
0
SOLID
5
E1
100
AcDbEntity
8
SK2
62
256
6
ByLayer
370
25
48
1
60
0
100
AcDbTrace
10
0
20
20.813065
30
0
11
-3.499998
21
20.352281
31
0
12
-3.500002
22
21.273849
32
0
13
0
23
20.813065
33
0
39
0
210
0
220
0
230
1
0
MTEXT
5
E2
100
AcDbEntity
8
SK2
62
256
6
ByLayer
370
18
48
1
60
0
100
AcDbMText
10
12.031633
20
21.688065
30
0
210
0
220
0
230
1
1
\W0.7191;4,7
40
3.5
41
0
44
1.084337
50
0
71
7
72
5
7
iso_b_vert
0
ENDBLK
5
DB
100
AcDbEntity
8
0
100
AcDbBlockEnd
0
BLOCK
5
EB
100
AcDbEntity
8
0
100
AcDbBlockBegin
2
DimnDraft3D4
70
0
10
0
20
0
30
0
3
DimnDraft3D4
0
MTEXT
5
E5
100
AcDbEntity
8
2
62
256
6
ByLayer
370
18
48
1
60
0
100
AcDbMText
10
12.268204
20
15.148132
30
0
210
0
220
0
230
1
1
\W0.6220;0,12
40
3.5
41
0
44
1.084337
50
0
71
7
72
5
7
iso_b_vert
0
LINE
5
E6
100
AcDbEntity
8
2
62
256
6
ByLayer
370
13
48
1
60
0
100
AcDbLine
10
4.76
20
10.4375
30
0
11
4.76
21
16.273132
31
0
39
0
210
0
220
0
230
1
0
LINE
5
E7
100
AcDbEntity
8
2
62
256
6
ByLayer
370
13
48
1
60
0
100
AcDbLine
10
4.64
20
10.4375
30
0
11
4.64
21
16.273132
31
0
39
0
210
0
220
0
230
1
0
LINE
5
E8
100
AcDbEntity
8
2
62
256
6
ByLayer
370
13
48
1
60
0
100
AcDbLine
10
-4.11
20
14.273132
30
0
11
18.365572
21
14.273132
31
0
39
0
210
0
220
0
230
1
0
SOLID
5
E9
100
AcDbEntity
8
2
62
256
6
ByLayer
370
13
48
1
60
0
100
AcDbTrace
10
4.76
20
14.273132
30
0
11
8.259998
21
14.733916
31
0
12
8.260002
22
13.812348
32
0
13
4.76
23
14.273132
33
0
39
0
210
0
220
0
230
1
0
SOLID
5
EA
100
AcDbEntity
8
2
62
256
6
ByLayer
370
13
48
1
60
0
100
AcDbTrace
10
4.64
20
14.273132
30
0
11
1.140002
21
13.812348
31
0
12
1.139998
22
14.733916
32
0
13
4.64
23
14.273132
33
0
39
0
210
0
220
0
230
1
0
ENDBLK
5
EC
100
AcDbEntity
8
0
100
AcDbBlockEnd
0
BLOCK
5
F5
100
AcDbEntity
8
0
100
AcDbBlockBegin
2
DimnDraft3D5
70
0
10
0
20
0
30
0
3
DimnDraft3D5
0
MTEXT
5
EF
100
AcDbEntity
8
2
62
256
6
ByLayer
370
18
48
1
60
0
100
AcDbMText
10
-15.914826
20
14.103328
30
0
210
0
220
0
230
1
1
\W0.5585;1,5
40
3.5
41
0
44
1.084337
50
90
71
7
72
5
7
iso_b_vert
0
LINE
5
F0
100
AcDbEntity
8
2
62
256
6
ByLayer
370
13
48
1
60
0
100
AcDbLine
10
3.0525
20
8.85
30
0
11
-17.039826
21
8.85
31
0
39
0
210
0
220
0
230
1
0
LINE
5
F1
100
AcDbEntity
8
2
62
256
6
ByLayer
370
13
48
1
60
0
100
AcDbLine
10
1.254175
20
7.349602
30
0
11
-17.039826
21
7.349602
31
0
39
0
210
0
220
0
230
1
0
LINE
5
F2
100
AcDbEntity
8
2
62
256
6
ByLayer
370
13
48
1
60
0
100
AcDbLine
10
-15.039826
20
-1.400398
30
0
11
-15.039826
21
17.630959
31
0
39
0
210
0
220
0
230
1
0
SOLID
5
F3
100
AcDbEntity
8
2
62
256
6
ByLayer
370
13
48
1
60
0
100
AcDbTrace
10
-15.039826
20
8.85
30
0
11
-15.50061
21
12.349998
31
0
12
-14.579043
22
12.350002
32
0
13
-15.039826
23
8.85
33
0
39
0
210
0
220
0
230
1
0
SOLID
5
F4
100
AcDbEntity
8
2
62
256
6
ByLayer
370
13
48
1
60
0
100
AcDbTrace
10
-15.039826
20
7.349602
30
0
11
-14.579043
21
3.849604
31
0
12
-15.50061
22
3.849601
32
0
13
-15.039826
23
7.349602
33
0
39
0
210
0
220
0
230
1
0
ENDBLK
5
F6
100
AcDbEntity
8
0
100
AcDbBlockEnd
0
BLOCK
5
FF
100
AcDbEntity
8
0
100
AcDbBlockBegin
2
DimnDraft3D6
70
0
10
0
20
0
30
0
3
DimnDraft3D6
0
MTEXT
5
F9
100
AcDbEntity
8
SK2
62
256
6
ByLayer
370
18
48
1
60
0
100
AcDbMText
10
2.457861
20
-13.96971
30
0
210
0
220
0
230
1
1
\W0.8385;60%%d
40
3.5
41
0
44
1.084337
50
0.100011310956228
71
7
72
5
7
iso_b_vert
0
LINE
5
FA
100
AcDbEntity
8
SK2
62
256
6
ByLayer
370
13
48
1
60
0
100
AcDbLine
10
3.006101
20
5.967334
30
0
11
-8.020375
21
-13.486534
31
0
39
0
210
0
220
0
230
1
0
LINE
5
FB
100
AcDbEntity
8
SK2
62
256
6
ByLayer
370
13
48
1
60
0
100
AcDbLine
10
6.637615
20
5.564142
30
0
11
17.498157
21
-13.44199
31
0
39
0
210
0
220
0
230
1
0
ARC
5
FC
100
AcDbEntity
8
SK2
62
256
6
ByLayer
370
13
48
1
60
0
100
AcDbCircle
39
0
10
4.699756
20
8.955427
30
0
40
23.7961889814149
210
0
220
0
230
1
100
AcDbArc
50
240.455381
51
299.744642
0
SOLID
5
FD
100
AcDbEntity
8
SK2
62
256
6
ByLayer
370
13
48
1
60
0
100
AcDbTrace
10
-7.034173
20
-11.74659
30
0
11
-3.715642
21
-12.950607
31
0
12
-4.140338
22
-13.768482
32
0
13
-7.034173
23
-11.74659
33
0
39
0
210
0
220
0
230
1
0
SOLID
5
FE
100
AcDbEntity
8
SK2
62
256
6
ByLayer
370
13
48
1
60
0
100
AcDbTrace
10
16.505886
20
-11.7055
30
0
11
13.61913
21
-13.737481
31
0
12
13.191575
22
-12.921097
32
0
13
16.505886
23
-11.7055
33
0
39
0
210
0
220
0
230
1
0
ENDBLK
5
100
100
AcDbEntity
8
0
100
AcDbBlockEnd
0
BLOCK
5
109
100
AcDbEntity
8
0
100
AcDbBlockBegin
2
DimnDraft3D7
70
0
10
0
20
0
30
0
3
DimnDraft3D7
0
MTEXT
5
103
100
AcDbEntity
8
SK2
62
256
6
ByLayer
370
18
48
1
60
0
100
AcDbMText
10
-25.907303
20
9.047181
30
0
210
0
220
0
230
1
1
\W1.6312;%%c9
40
3.5
41
0
44
1.084337
50
90
71
7
72
5
7
iso_b_vert
0
LINE
5
104
100
AcDbEntity
8
SK2
62
256
6
ByLayer
370
13
48
1
60
0
100
AcDbLine
10
-1.5875
20
4.5
30
0
11
-26.157303
21
4.5
31
0
39
0
210
0
220
0
230
1
0
LINE
5
105
100
AcDbEntity
8
SK2
62
256
6
ByLayer
370
13
48
1
60
0
100
AcDbLine
10
-1.5875
20
-4.5
30
0
11
-26.157303
21
-4.5
31
0
39
0
210
0
220
0
230
1
0
LINE
5
106
100
AcDbEntity
8
SK2
62
256
6
ByLayer
370
13
48
1
60
0
100
AcDbLine
10
-24.157303
20
-4.5
30
0
11
-24.157303
21
17.741918
31
0
39
0
210
0
220
0
230
1
0
SOLID
5
107
100
AcDbEntity
8
SK2
62
256
6
ByLayer
370
13
48
1
60
0
100
AcDbTrace
10
-24.157303
20
4.5
30
0
11
-23.696519
21
1.000002
31
0
12
-24.618086
22
0.999998
32
0
13
-24.157303
23
4.5
33
0
39
0
210
0
220
0
230
1
0
SOLID
5
108
100
AcDbEntity
8
SK2
62
256
6
ByLayer
370
13
48
1
60
0
100
AcDbTrace
10
-24.157303
20
-4.5
30
0
11
-24.618086
21
-1.000002
31
0
12
-23.696519
22
-0.999998
32
0
13
-24.157303
23
-4.5
33
0
39
0
210
0
220
0
230
1
0
ENDBLK
5
10A
100
AcDbEntity
8
0
100
AcDbBlockEnd
0
ENDSEC
0
SECTION
2
ENTITIES
0
ELLIPSE
5
9F
100
AcDbEntity
8
1
62
256
6
ByLayer
370
18
48
1
60
0
100
AcDbEllipse
10
3.761356
20
-0.2047
30
0
11
0.465806281302634
21
7.34997565338106
31
0
210
0
220
0
230
1
40
0.02948
41
-1.95255534321427
42
-1.44636805063263
0
POINT
5
6C
100
AcDbEntity
8
81
62
256
6
ByLayer
370
18
48
1
60
0
100
AcDbPoint
10
4.7
20
8.85
30
0
39
0
210
0
220
0
230
1
50
360
0
POINT
5
6E
100
AcDbEntity
8
1
62
256
6
ByLayer
370
18
48
1
60
1
100
AcDbPoint
10
4.7
20
-8.85
30
0
39
0
210
0
220
0
230
1
50
360
0
POINT
5
70
100
AcDbEntity
8
80
62
256
6
ByLayer
370
18
48
1
60
0
100
AcDbPoint
10
0
20
0
30
0
39
0
210
0
220
0
230
1
50
360
0
POINT
5
72
100
AcDbEntity
8
1
62
256
6
ByLayer
370
18
48
1
60
1
100
AcDbPoint
10
0
20
-4.5
30
0
39
0
210
0
220
0
230
1
50
360
0
POINT
5
73
100
AcDbEntity
8
1
62
256
6
ByLayer
370
18
48
1
60
1
100
AcDbPoint
10
0
20
4.5
30
0
39
0
210
0
220
0
230
1
50
360
0
SPLINE
5
A0
100
AcDbEntity
8
1
62
256
6
ByLayer
370
18
48
1
60
0
100
AcDbSpline
70
4
71
3
72
14
73
10
40
0
40
0
40
0
40
0
40
0.320261184593244
40
0.320261184593244
40
0.660130232702336
40
0.660130232702336
40
0.830065068548706
40
0.830065068548706
40
1
40
1
40
1
40
1
41
1
10
4.03417073103848
20
0.693860946529867
30
0
41
1
10
3.61422472391614
20
0.672669845537683
30
0
41
1
10
3.19426558002261
20
0.651494299979419
30
0
41
1
10
2.32860837241968
20
0.607907673416065
30
0
41
1
10
1.88290840346197
20
0.585500322634744
30
0
41
1
10
1.21433551478553
20
0.551963074549263
30
0
41
1
10
0.991473788663808
20
0.540796260724591
30
0
41
1
10
0.545742658205381
20
0.518491003311993
30
0
41
1
10
0.322873222535134
20
0.507352558274363
30
0
41
1
10
0.0999999999999774
20
0.496230145455428
30
0
0
SPLINE
5
A1
100
AcDbEntity
8
1
62
256
6
ByLayer
370
18
48
1
60
0
100
AcDbSpline
70
4
71
3
72
8
73
4
40
0
40
0
40
0
40
0
40
1
40
1
40
1
40
1
41
1
10
4.75999999999997
20
-3.70649469451709
30
0
41
1
10
4.76377866080263
20
-3.54683201004116
30
0
41
1
10
4.76488980127583
20
-3.3870908219387
30
0
41
1
10
4.76325120718759
20
-3.22739530215009
30
0
0
SPLINE
5
A2
100
AcDbEntity
8
1
62
256
6
ByLayer
370
18
48
1
60
0
100
AcDbSpline
70
4
71
3
72
8
73
4
40
0
40
0
40
0
40
0
40
1
40
1
40
1
40
1
41
1
10
4.65835462206512
20
-3.22739530215009
30
0
41
1
10
4.64947676850185
20
-3.38697786162371
30
0
41
1
10
4.64336889704013
20
-3.54672104964078
30
0
41
1
10
4.63999999999997
20
-3.70649469451709
30
0
0
SPLINE
5
A3
100
AcDbEntity
8
1
62
256
6
ByLayer
370
18
48
1
60
0
100
AcDbSpline
70
4
71
3
72
8
73
4
40
0
40
0
40
0
40
0
40
1
40
1
40
1
40
1
41
1
10
4.76325120718759
20
-3.22739530215009
30
0
41
1
10
4.82096628154316
20
-2.7560632804373
30
0
41
1
10
4.85947348094963
20
-2.2832254645254
30
0
41
1
10
4.87532755965945
20
-1.80861176565776
30
0
0
SPLINE
5
A4
100
AcDbEntity
8
1
62
256
6
ByLayer
370
18
48
1
60
0
100
AcDbSpline
70
4
71
3
72
8
73
4
40
0
40
0
40
0
40
0
40
1
40
1
40
1
40
1
41
1
10
4.60747730744889
20
-1.80861176565776
30
0
41
1
10
4.60237317563896
20
-2.28232478480456
30
0
41
1
10
4.62016426803431
20
-2.75522302201335
30
0
41
1
10
4.65835462206512
20
-3.22739530215009
30
0
0
SPLINE
5
A5
100
AcDbEntity
8
1
62
256
6
ByLayer
370
18
48
1
60
0
100
AcDbSpline
70
4
71
3
72
10
73
6
40
0
40
0
40
0
40
0
40
0.290261071764517
40
0.290261071764517
40
1
40
1
40
1
40
1
41
1
10
4.24344925019765
20
-6.59000679818581
30
0
41
1
10
4.22495351014494
20
-6.59006575709793
30
0
41
1
10
4.2058869203454
20
-6.58829854719687
30
0
41
1
10
4.13849847884329
20
-6.57591816032655
30
0
41
1
10
4.08784700857028
20
-6.55631165549883
30
0
41
1
10
4.03417073103848
20
-6.52612531188183
30
0
0
SPLINE
5
A6
100
AcDbEntity
8
1
62
256
6
ByLayer
370
18
48
1
60
0
100
AcDbSpline
70
4
71
3
72
14
73
10
40
0
40
0
40
0
40
0
40
0.320261184593189
40
0.320261184593189
40
0.660130232702222
40
0.660130232702222
40
0.830065068548563
40
0.830065068548563
40
1
40
1
40
1
40
1
41
1
10
4.03417073103848
20
-6.52612531188183
30
0
41
1
10
3.61422472391614
20
-6.53045638466565
30
0
41
1
10
3.19426558002261
20
-6.53453684556627
30
0
41
1
10
2.32860837241968
20
-6.54244794503933
30
0
41
1
10
1.88290840346197
20
-6.5462479967992
30
0
41
1
10
1.21433551478553
20
-6.55155413451334
30
0
41
1
10
0.991473788663808
20
-6.55325720052684
30
0
41
1
10
0.545742658205381
20
-6.55653471434815
30
0
41
1
10
0.322873222535134
20
-6.55810916254012
30
0
41
1
10
0.0999999999999774
20
-6.55962066604252
30
0
0
SPLINE
5
A7
100
AcDbEntity
8
1
62
256
6
ByLayer
370
18
48
1
60
0
100
AcDbSpline
70
4
71
3
72
16
73
12
40
0
40
0
40
0
40
0
40
0.203665614530867
40
0.203665614530867
40
0.40733122925459
40
0.40733122925459
40
0.610996844246273
40
0.610996844246273
40
0.814662459616394
40
0.814662459616394
40
1
40
1
40
1
40
1
41
1
10
4.75999999999997
20
-3.70649469451709
30
0
41
1
10
4.83395244154282
20
-3.64173221510723
30
0
41
1
10
4.90791222455588
20
-3.57697183132851
30
0
41
1
10
5.05584859571117
20
-3.44745586280669
30
0
41
1
10
5.12982518087624
20
-3.38270027683819
30
0
41
1
10
5.2777977016113
20
-3.253194632613
30
0
41
1
10
5.35179363322881
20
-3.18844457272778
30
0
41
1
10
5.49980793351325
20
-3.05895086485512
30
0
41
1
10
5.57382629685806
20
-2.99420721467226
30
0
41
1
10
5.71522707328368
20
-2.87055341934709
30
0
41
1
10
5.78260723340294
20
-2.81164262936363
30
0
41
1
10
5.84999999999998
20
-2.75273544532445
30
0
0
SPLINE
5
A8
100
AcDbEntity
8
1
62
256
6
ByLayer
370
18
48
1
60
0
100
AcDbSpline
70
4
71
3
72
18
73
14
40
0
40
0
40
0
40
0
40
0.25
40
0.25
40
0.375
40
0.375
40
0.5
40
0.5
40
0.625
40
0.625
40
0.75
40
0.75
40
1
40
1
40
1
40
1
41
1
10
5.84999999999998
20
-2.75273544532445
30
0
41
1
10
5.84999999999998
20
-2.42968447579412
30
0
41
1
10
5.84999999999998
20
-2.10005053001754
30
0
41
1
10
5.84999999999998
20
-1.59575782769289
30
0
41
1
10
5.84999999999998
20
-1.42608803162864
30
0
41
1
10
5.84999999999998
20
-1.08616078999248
30
0
41
1
10
5.84999999999998
20
-0.915569114930207
30
0
41
1
10
5.84999999999998
20
-0.573126774732344
30
0
41
1
10
5.84999999999998
20
-0.400867170708665
30
0
41
1
10
5.84999999999998
20
-0.0580414086771839
30
0
41
1
10
5.85000000000006
20
0.11271093888962
30
0
41
1
10
5.85000000000006
20
0.623007624685329
30
0
41
1
10
5.84999999999998
20
0.960602285251582
30
0
41
1
10
5.84999999999998
20
1.29552377972152
30
0
0
SPLINE
5
A9
100
AcDbEntity
8
1
62
256
6
ByLayer
370
18
48
1
60
0
100
AcDbSpline
70
4
71
3
72
10
73
6
40
0
40
0
40
0
40
0
40
0.5
40
0.5
40
1
40
1
40
1
40
1
41
1
10
5.84999999999966
20
1.29552377972172
30
0
41
1
10
5.75009415679948
20
1.11576822767972
30
0
41
1
10
5.65661821894245
20
0.920611152126128
30
0
41
1
10
5.48074251410587
20
0.499817633602561
30
0
41
1
10
5.39834933824635
20
0.274193967919871
30
0
41
1
10
5.32102935402737
20
0.0323629498066396
30
0
0
SPLINE
5
AA
100
AcDbEntity
8
1
62
256
6
ByLayer
370
18
48
1
60
0
100
AcDbSpline
70
4
71
3
72
10
73
6
40
0
40
0
40
0
40
0
40
0.5
40
0.5
40
1
40
1
40
1
40
1
41
1
10
5.32102935402737
20
0.0323629498066111
30
0
41
1
10
5.2520593815736
20
-0.183352027714562
30
0
41
1
10
5.18871311428221
20
-0.407019429872605
30
0
41
1
10
5.07201597142425
20
-0.869954426723893
30
0
41
1
10
5.01866877087955
20
-1.10921848737991
30
0
41
1
10
4.97004920238775
20
-1.35663422575686
30
0
0
SPLINE
5
AB
100
AcDbEntity
8
1
62
256
6
ByLayer
370
18
48
1
60
0
100
AcDbSpline
70
4
71
3
72
8
73
4
40
0
40
0
40
0
40
0
40
1
40
1
40
1
40
1
41
1
10
4.97004920238775
20
-1.35663422575686
30
0
41
1
10
4.94037140516327
20
-1.5076588921919
30
0
41
1
10
4.90873331626268
20
-1.65832810920833
30
0
41
1
10
4.87532755965945
20
-1.80861176565776
30
0
0
SPLINE
5
AC
100
AcDbEntity
8
SK1
62
256
6
ByLayer
370
18
48
1
60
0
100
AcDbSpline
70
4
71
3
72
8
73
4
40
0
40
0
40
0
40
0
40
1
40
1
40
1
40
1
41
0.994538957084219
10
-0.261814429136653
20
1.06537612480943
30
0
41
0.993641195027474
10
-0.449501045465453
20
1.17414132909382
30
0
41
0.995461542666068
10
-0.646113565062575
20
1.27672889067487
30
0
41
1
10
-0.850000000000011
20
1.37233601318721
30
0
0
SPLINE
5
AD
100
AcDbEntity
8
SK1
62
256
6
ByLayer
370
18
48
1
60
0
100
AcDbSpline
70
4
71
3
72
8
73
4
40
0
40
0
40
0
40
0
40
1
40
1
40
1
40
1
41
1
10
-0.850000000000011
20
2.07603692163741
30
0
41
0.993289268540994
10
-0.547866641303696
20
2.10879629251052
30
0
41
0.992521324374362
10
-0.262822284684756
20
2.11695781379341
30
0
41
0.997696167500103
10
-1.55394E-11
20
2.1003188427509
30
0
0
SPLINE
5
AE
100
AcDbEntity
8
1
62
256
6
ByLayer
370
18
48
1
60
0
100
AcDbSpline
70
4
71
3
72
12
73
8
40
0
40
0
40
0
40
0
40
0.473296075227098
40
0.473296075227098
40
0.946592150454196
40
0.946592150454196
40
1
40
1
40
1
40
1
41
1
10
5.84999999999998
20
-6.32619137690895
30
0
41
1
10
5.75547109575369
20
-6.40823377903351
30
0
41
1
10
5.66677203861972
20
-6.47127124110469
30
0
41
1
10
5.4994553236978
20
-6.55933205763819
30
0
41
1
10
5.42084346881667
20
-6.58436897983782
30
0
41
1
10
5.33848520631146
20
-6.58970625694784
30
0
41
1
10
5.33018812654724
20
-6.58998574927944
30
0
41
1
10
5.32195188567785
20
-6.59000291729839
30
0
0
SPLINE
5
AF
100
AcDbEntity
8
SK1
62
256
6
ByLayer
370
18
48
1
60
0
100
AcDbSpline
70
4
71
3
72
8
73
4
40
0
40
0
40
0
40
0
40
1
40
1
40
1
40
1
41
1
10
-0.850000000000011
20
-1.30498216941845
30
0
41
0.997373137931725
10
-0.649576000231803
20
-1.21099866381627
30
0
41
0.997373137931725
10
-0.456349425321084
20
-1.11034790438533
30
0
41
1
10
-0.271843013948359
20
-1.00382307811194
30
0
0
SPLINE
5
B0
100
AcDbEntity
8
1
62
256
6
ByLayer
370
18
48
1
60
0
100
AcDbSpline
70
4
71
3
72
18
73
14
40
0
40
0
40
0
40
0
40
0.25
40
0.25
40
0.375
40
0.375
40
0.5
40
0.5
40
0.625
40
0.625
40
0.75
40
0.75
40
1
40
1
40
1
40
1
41
1
10
0.0999999999999774
20
0.496230145455428
30
0
41
1
10
0.0999999999999774
20
0.200716354196004
30
0
41
1
10
0.0999999999999774
20
-0.0947425184685073
30
0
41
1
10
0.0999999999999774
20
-0.53784864511826
30
0
41
1
10
0.0999999999999774
20
-0.685279245971174
30
0
41
1
10
0.0999999999999774
20
-0.978694661843974
30
0
41
1
10
0.0999999999999774
20
-1.12481745817516
30
0
41
1
10
0.0999999999999774
20
-1.415890155113
30
0
41
1
10
0.0999999999999774
20
-1.56080355960208
30
0
41
1
10
0.0999999999999774
20
-1.84744218227806
30
0
41
1
10
0.0999999999999774
20
-1.98942383648964
30
0
41
1
10
0.0999999999999774
20
-2.41138453760428
30
0
41
1
10
0.0999999999999774
20
-2.68739383987744
30
0
41
1
10
0.0999999999999774
20
-2.95800906964794
30
0
0
SPLINE
5
B1
100
AcDbEntity
8
1
62
256
6
ByLayer
370
18
48
1
60
0
100
AcDbSpline
70
4
71
3
72
18
73
14
40
0
40
0
40
0
40
0
40
0.10128018913197
40
0.10128018913197
40
0.229668733539842
40
0.229668733539842
40
0.358057277947715
40
0.358057277947715
40
0.614834366763689
40
0.614834366763689
40
0.743222911171561
40
0.743222911171561
40
1
40
1
40
1
40
1
41
1
10
0.0999999999999774
20
-2.95800906964794
30
0
41
1
10
0.22453748187807
20
-2.95793144788155
30
0
41
1
10
0.349074963689799
20
-2.95785379949624
30
0
41
1
10
0.631483260473272
20
-2.95767765915849
30
0
41
1
10
0.789354075404714
20
-2.95757915103141
30
0
41
1
10
1.10509570505338
20
-2.957382049008
30
0
41
1
10
1.26296651977067
20
-2.95728345511168
30
0
41
1
10
1.73657896360056
20
-2.95698754458519
30
0
41
1
10
2.05232059239141
20
-2.95679009911754
30
0
41
1
10
2.52593303493039
20
-2.95649367250388
30
0
41
1
10
2.68380384900221
20
-2.95639482056393
30
0
41
1
10
3.15741629090884
20
-2.95609813535299
30
0
41
1
10
3.47315791841963
20
-2.95590017269106
30
0
41
1
10
3.78889954549596
20
-2.95570203701328
30
0
0
SPLINE
5
B2
100
AcDbEntity
8
1
62
256
6
ByLayer
370
18
48
1
60
0
100
AcDbSpline
70
4
71
3
72
20
73
16
40
0
40
0
40
0
40
0
40
0.133006361463563
40
0.133006361463563
40
0.266012722871874
40
0.266012722871874
40
0.399019084234159
40
0.399019084234159
40
0.532025445557927
40
0.532025445557927
40
0.665031806849321
40
0.665031806849321
40
0.79803816811339
40
0.79803816811339
40
1
40
1
40
1
40
1
41
1
10
3.78889954549596
20
-2.95570203701328
30
0
41
1
10
3.82660844280657
20
-2.98899586076857
30
0
41
1
10
3.86432134495588
20
-3.02228855061193
30
0
41
1
10
3.93975454062054
20
-3.08887183668171
30
0
41
1
10
3.97747483452453
20
-3.1221624329352
30
0
41
1
10
4.05292225810792
20
-3.18874168872736
30
0
41
1
10
4.09064938811981
20
-3.22203034828917
30
0
41
1
10
4.16610998259044
20
-3.28860587233109
30
0
41
1
10
4.20384344733479
20
-3.32189273683099
30
0
41
1
10
4.27931625774424
20
-3.38846479892351
30
0
41
1
10
4.31705560365559
20
-3.42174999653312
30
0
41
1
10
4.39253976511624
20
-3.48831884111959
30
0
41
1
10
4.43028458087853
20
-3.52160248811111
30
0
41
1
10
4.5253489528071
20
-3.60542344963434
30
0
41
1
10
4.58267183227507
20
-3.65595982202513
30
0
41
1
10
4.63999999999997
20
-3.70649469451709
30
0
0
SPLINE
5
B3
100
AcDbEntity
8
1
62
256
6
ByLayer
370
18
48
1
60
0
100
AcDbSpline
70
4
71
3
72
8
73
4
40
0
40
0
40
0
40
0
40
1
40
1
40
1
40
1
41
1
10
4.60747730744889
20
-1.80861176565776
30
0
41
1
10
4.58024642388422
20
-1.65827994940238
30
0
41
1
10
4.55493481128356
20
-1.50760397585086
30
0
41
1
10
4.53171702254839
20
-1.35663422575686
30
0
0
SPLINE
5
B4
100
AcDbEntity
8
1
62
256
6
ByLayer
370
18
48
1
60
0
100
AcDbSpline
70
4
71
3
72
10
73
6
40
0
40
0
40
0
40
0
40
0.5
40
0.5
40
1
40
1
40
1
40
1
41
1
10
4.53171702254839
20
-1.35663422575686
30
0
41
1
10
4.49371914822642
20
-1.1095594652823
30
0
41
1
10
4.45078528236992
20
-0.870463715563773
30
0
41
1
10
4.35464361782375
20
-0.407527680674519
30
0
41
1
10
4.30143895248828
20
-0.183690556444589
30
0
41
1
10
4.24252505715968
20
0.0323629498066111
30
0
0
SPLINE
5
B5
100
AcDbEntity
8
1
62
256
6
ByLayer
370
18
48
1
60
0
100
AcDbSpline
70
4
71
3
72
8
73
4
40
0
40
0
40
0
40
0
40
1
40
1
40
1
40
1
41
1
10
4.24252505715968
20
0.0323629498066111
30
0
41
1
10
4.17886888321292
20
0.265807699962977
30
0
41
1
10
4.10934944790732
20
0.486998779560196
30
0
41
1
10
4.03417073103848
20
0.693860946529867
30
0
0
SPLINE
5
B6
100
AcDbEntity
8
1
62
256
6
ByLayer
370
18
48
1
60
0
100
AcDbSpline
70
4
71
3
72
18
73
14
40
0
40
0
40
0
40
0
40
0.101280189138895
40
0.101280189138895
40
0.229668733545778
40
0.229668733545778
40
0.358057277952661
40
0.358057277952661
40
0.614834366766656
40
0.614834366766656
40
0.74322291117354
40
0.74322291117354
40
1
40
1
40
1
40
1
41
1
10
0.0999999999715557
20
7.35302875026167
30
0
41
1
10
0.224537481859113
20
7.35287350672886
30
0
41
1
10
0.349074963680335
20
7.35271820995825
30
0
41
1
10
0.631483260473272
20
7.35236592928274
30
0
41
1
10
0.789354075404714
20
7.35216891302858
30
0
41
1
10
1.10509570505338
20
7.35177470898176
30
0
41
1
10
1.26296651977067
20
7.35157752118914
30
0
41
1
10
1.73657896360056
20
7.35098570013616
30
0
41
1
10
2.05232059239141
20
7.35059080920087
30
0
41
1
10
2.52593303493039
20
7.34999795597355
30
0
41
1
10
2.68380384900221
20
7.34980025209364
30
0
41
1
10
3.15741629090884
20
7.34920688167179
30
0
41
1
10
3.47315791841963
20
7.3488109563479
30
0
41
1
10
3.78889954549596
20
7.34841468499238
30
0
0
SPLINE
5
B7
100
AcDbEntity
8
1
62
256
6
ByLayer
370
18
48
1
60
0
100
AcDbSpline
70
4
71
3
72
8
73
4
40
0
40
0
40
0
40
0
40
1
40
1
40
1
40
1
41
1
10
0.0999999999999774
20
6.37693773810287
30
0
41
0.999948560006695
10
0.0666352494695861
20
6.36368063517238
30
0
41
0.999902486150154
10
0.033301735791604
20
6.35037115367542
30
0
41
0.999861778430379
10
-2.50032E-11
20
6.33700950066224
30
0
0
SPLINE
5
B8
100
AcDbEntity
8
SK1
62
256
6
ByLayer
370
18
48
1
60
0
100
AcDbSpline
70
4
71
3
72
8
73
4
40
0
40
0
40
0
40
0
40
1
40
1
40
1
40
1
41
1
10
-0.850000000000011
20
0.737377830363329
30
0
41
0.999558334240114
10
-0.569486957954052
20
0.899332110701011
30
0
41
0.999512260383575
10
-0.286041615566239
20
1.06297935543026
30
0
41
0.999861778430381
10
-2.31504E-11
20
1.22812555916448
30
0
0
SPLINE
5
B9
100
AcDbEntity
8
1
62
256
6
ByLayer
370
18
48
1
60
0
100
AcDbSpline
70
4
71
3
72
8
73
4
40
0
40
0
40
0
40
0
40
1
40
1
40
1
40
1
41
1
10
0.0999999999999774
20
-1.21850674240073
30
0
41
0.999948560006697
10
0.0666352494714583
20
-1.19924359470165
30
0
41
0.999902486150158
10
0.0333017357953408
20
-1.1799984816077
30
0
41
0.999861778430384
10
-1.94096E-11
20
-1.16077171547057
30
0
0
SPLINE
5
BA
100
AcDbEntity
8
1
62
256
6
ByLayer
370
18
48
1
60
0
100
AcDbSpline
70
4
71
3
72
8
73
4
40
0
40
0
40
0
40
0
40
1
40
1
40
1
40
1
41
1
10
0.0999999999999774
20
-2.02533005191745
30
0
41
0.999132819866328
10
0.0671001815583416
20
-2.02828189971303
30
0
41
0.998364875699582
10
0.0337638683954819
20
-2.03082744798926
30
0
41
0.997696167499762
10
-2.04781E-11
20
-2.03296499895885
30
0
0
SPLINE
5
BB
100
AcDbEntity
8
SK1
62
256
6
ByLayer
370
18
48
1
60
0
100
AcDbSpline
70
4
71
3
72
8
73
4
40
0
40
0
40
0
40
0
40
1
40
1
40
1
40
1
41
1
10
-0.850000000000011
20
-5.91425285394357
30
0
41
0.999558334240109
10
-0.569486957952853
20
-6.03637254353151
30
0
41
0.99951226038357
10
-0.286041615564123
20
-6.15488720057146
30
0
41
0.999861778430384
10
-2.03476E-11
20
-6.2696556569415
30
0
0
SPLINE
5
BC
100
AcDbEntity
8
SK1
62
256
6
ByLayer
370
18
48
1
60
0
100
AcDbSpline
70
4
71
3
72
8
73
4
40
0
40
0
40
0
40
0
40
1
40
1
40
1
40
1
41
0.999861778430379
10
-2.50032E-11
20
6.33700950066224
30
0
41
0.999512260383574
10
-0.286041615567416
20
6.22224104428948
30
0
41
0.999558334240114
10
-0.569486957954591
20
6.10372638724687
30
0
41
1
10
-0.850000000000011
20
5.98160669765645
30
0
0
SPLINE
5
BD
100
AcDbEntity
8
1
62
256
6
ByLayer
370
18
48
1
60
0
100
AcDbSpline
70
4
71
3
72
8
73
4
40
0
40
0
40
0
40
0
40
1
40
1
40
1
40
1
41
0.997696167500103
10
-1.55394E-11
20
2.1003188427509
30
0
41
0.998364875699831
10
0.0337638683986281
20
2.09818129178359
30
0
41
0.999132819866464
10
0.0671001815598408
20
2.09563574350972
30
0
41
1
10
0.0999999999999774
20
2.09268389571659
30
0
0
SPLINE
5
BE
100
AcDbEntity
8
1
62
256
6
ByLayer
370
18
48
1
60
0
100
AcDbSpline
70
4
71
3
72
8
73
4
40
0
40
0
40
0
40
0
40
1
40
1
40
1
40
1
41
0.999861778430381
10
-2.31506E-11
20
1.22812555916448
30
0
41
0.999902486150156
10
0.03330173579284
20
1.24735232530244
30
0
41
0.999948560006696
10
0.0666352494702046
20
1.26659743839721
30
0
41
1
10
0.0999999999999774
20
1.28586058609713
30
0
0
SPLINE
5
BF
100
AcDbEntity
8
SK1
62
256
6
ByLayer
370
18
48
1
60
0
100
AcDbSpline
70
4
71
3
72
8
73
4
40
0
40
0
40
0
40
0
40
1
40
1
40
1
40
1
41
0.999861778430384
10
-1.94096E-11
20
-1.16077171547057
30
0
41
0.999512260383568
10
-0.286041615563392
20
-0.995625511736809
30
0
41
0.999558334240107
10
-0.569486957952415
20
-0.831978267007963
30
0
41
1
10
-0.850000000000011
20
-0.670023986670572
30
0
0
SPLINE
5
C0
100
AcDbEntity
8
SK1
62
256
6
ByLayer
370
18
48
1
60
0
100
AcDbSpline
70
4
71
3
72
8
73
4
40
0
40
0
40
0
40
0
40
1
40
1
40
1
40
1
41
0.997696167499762
10
-2.04781E-11
20
-2.03296499895885
30
0
41
0.992521324373713
10
-0.262822284683568
20
-2.0496039700178
30
0
41
0.993289268540459
10
-0.547866641300998
20
-2.04144244874962
30
0
41
1
10
-0.850000000000011
20
-2.0086830778892
30
0
0
SPLINE
5
C1
100
AcDbEntity
8
1
62
256
6
ByLayer
370
18
48
1
60
0
100
AcDbSpline
70
4
71
3
72
8
73
4
40
0
40
0
40
0
40
0
40
1
40
1
40
1
40
1
41
0.999861778430384
10
-2.03476E-11
20
-6.2696556569415
30
0
41
0.999902486150158
10
0.0333017357947137
20
-6.28301730995367
30
0
41
0.999948560006697
10
0.0666352494711439
20
-6.29632679144964
30
0
41
1
10
0.0999999999999774
20
-6.30958389437913
30
0
0
INSERT
5
D8
100
AcDbEntity
8
2
62
256
6
ByLayer
370
25
48
1
60
0
100
AcDbBlockReference
2
DimnDraft3D22
10
0
20
0
30
0
41
1
42
1
43
1
50
0
210
0
220
0
230
1
0
INSERT
5
E3
100
AcDbEntity
8
SK2
62
256
6
ByLayer
370
25
48
1
60
0
100
AcDbBlockReference
2
DimnDraft3D33
10
0
20
0
30
0
41
1
42
1
43
1
50
0
210
0
220
0
230
1
0
LINE
5
74
100
AcDbEntity
8
1
62
256
6
ByLayer
370
18
48
1
60
0
100
AcDbLine
10
4.241345
20
-6.590009
30
0
11
5.322014
21
-6.590009
31
0
39
0
210
0
220
0
230
1
0
LINE
5
75
100
AcDbEntity
8
1
62
256
6
ByLayer
370
18
48
1
60
0
100
AcDbLine
10
5.85
20
-2.925756
30
0
11
5.85
21
-2.777005
31
0
39
0
210
0
220
0
230
1
0
LINE
5
76
100
AcDbEntity
8
1
62
256
6
ByLayer
370
18
48
1
60
0
100
AcDbLine
10
4.763251
20
-3.227395
30
0
11
4.658355
21
-3.227395
31
0
39
0
210
0
220
0
230
1
0
LINE
5
77
100
AcDbEntity
8
1
62
256
6
ByLayer
370
18
48
1
60
0
100
AcDbLine
10
4.875328
20
-1.808612
30
0
11
4.607477
21
-1.808612
31
0
39
0
210
0
220
0
230
1
0
LINE
5
78
100
AcDbEntity
8
1
62
256
6
ByLayer
370
18
48
1
60
0
100
AcDbLine
10
0.1
20
4.868472
30
0
11
0.1
21
1.880791
31
0
39
0
210
0
220
0
230
1
0
LINE
5
79
100
AcDbEntity
8
1
62
256
6
ByLayer
370
18
48
1
60
0
100
AcDbLine
10
5.85
20
1.880791
30
0
11
5.85
21
4.868472
31
0
39
0
210
0
220
0
230
1
0
LINE
5
7A
100
AcDbEntity
8
1
62
256
6
ByLayer
370
18
48
1
60
0
100
AcDbLine
10
0.1
20
-2.958014
30
0
11
0.1
21
-5.913437
31
0
39
0
210
0
220
0
230
1
0
LINE
5
7B
100
AcDbEntity
8
1
62
256
6
ByLayer
370
18
48
1
60
0
100
AcDbLine
10
5.85
20
-5.913437
30
0
11
5.85
21
-2.925756
31
0
39
0
210
0
220
0
230
1
0
LINE
5
7C
100
AcDbEntity
8
1
62
256
6
ByLayer
370
18
48
1
60
0
100
AcDbLine
10
5.85
20
1.295524
30
0
11
5.85
21
1.880791
31
0
39
0
210
0
220
0
230
1
0
LINE
5
7D
100
AcDbEntity
8
1
62
256
6
ByLayer
370
13
48
1
60
0
100
AcDbLine
10
5.85
20
1.880791
30
0
11
0.1
21
1.880791
31
0
39
0
210
0
220
0
230
1
0
LINE
5
7E
100
AcDbEntity
8
1
62
256
6
ByLayer
370
18
48
1
60
0
100
AcDbLine
10
0.1
20
1.880791
30
0
11
0.1
21
0.49623
31
0
39
0
210
0
220
0
230
1
0
LINE
5
7F
100
AcDbEntity
8
1
62
256
6
ByLayer
370
18
48
1
60
0
100
AcDbLine
10
5.85
20
-6.326191
30
0
11
5.85
21
-5.913437
31
0
39
0
210
0
220
0
230
1
0
LINE
5
80
100
AcDbEntity
8
1
62
256
6
ByLayer
370
13
48
1
60
0
100
AcDbLine
10
5.85
20
-5.913437
30
0
11
0.1
21
-5.913437
31
0
39
0
210
0
220
0
230
1
0
LINE
5
81
100
AcDbEntity
8
1
62
256
6
ByLayer
370
18
48
1
60
0
100
AcDbLine
10
0.1
20
-5.913437
30
0
11
0.1
21
-6.559621
31
0
39
0
210
0
220
0
230
1
0
LINE
5
82
100
AcDbEntity
8
1
62
256
6
ByLayer
370
13
48
1
60
0
100
AcDbLine
10
4.970049
20
-1.356634
30
0
11
4.531717
21
-1.356634
31
0
39
0
210
0
220
0
230
1
0
LINE
5
83
100
AcDbEntity
8
SK1
62
256
6
ByLayer
370
18
48
1
60
0
100
AcDbLine
10
-0.85
20
-5.914253
30
0
11
-0.85
21
-2.008683
31
0
39
0
210
0
220
0
230
1
0
LINE
5
85
100
AcDbEntity
8
SK1
62
256
6
ByLayer
370
18
48
1
60
0
100
AcDbLine
10
-0.85
20
2.076037
30
0
11
-0.85
21
5.981607
31
0
39
0
210
0
220
0
230
1
0
LINE
5
86
100
AcDbEntity
8
SK1
62
256
6
ByLayer
370
18
48
1
60
0
100
AcDbLine
10
-0.85
20
2.076037
30
0
11
-0.85
21
1.372336
31
0
39
0
210
0
220
0
230
1
0
LINE
5
87
100
AcDbEntity
8
SK1
62
256
6
ByLayer
370
18
48
1
60
0
100
AcDbLine
10
-0.85
20
-1.304982
30
0
11
-0.85
21
-2.008683
31
0
39
0
210
0
220
0
230
1
0
LINE
5
88
100
AcDbEntity
8
1
62
256
6
ByLayer
370
13
48
1
60
0
100
AcDbLine
10
5.321029
20
0.032363
30
0
11
4.242525
21
0.032363
31
0
39
0
210
0
220
0
230
1
0
LINE
5
89
100
AcDbEntity
8
1
62
256
6
ByLayer
370
18
48
1
60
0
100
AcDbLine
10
5.652074
20
-2.925756
30
0
11
5.85
21
-2.925756
31
0
39
0
210
0
220
0
230
1
0
LINE
5
8A
100
AcDbEntity
8
SK1
62
256
6
ByLayer
370
18
48
1
60
0
100
AcDbLine
10
-0.85
20
0.737378
30
0
11
-0.85
21
-0.670024
31
0
39
0
210
0
220
0
230
1
0
LINE
5
8B
100
AcDbEntity
8
1
62
256
6
ByLayer
370
18
48
1
60
0
100
AcDbLine
10
4.76
20
-3.706495
30
0
11
4.64
21
-3.706495
31
0
39
0
210
0
220
0
230
1
0
LINE
5
8C
100
AcDbEntity
8
1
62
256
6
ByLayer
370
18
48
1
60
0
100
AcDbLine
10
5.85
20
4.868472
30
0
11
5.85
21
5.385387
31
0
39
0
210
0
220
0
230
1
0
LINE
5
8D
100
AcDbEntity
8
1
62
256
6
ByLayer
370
13
48
1
60
0
100
AcDbLine
10
5.85
20
5.385387
30
0
11
0.1
21
5.385387
31
0
39
0
210
0
220
0
230
1
0
LINE
5
8E
100
AcDbEntity
8
1
62
256
6
ByLayer
370
18
48
1
60
0
100
AcDbLine
10
0.1
20
5.385387
30
0
11
0.1
21
4.868472
31
0
39
0
210
0
220
0
230
1
0
LINE
5
8F
100
AcDbEntity
8
1
62
256
6
ByLayer
370
18
48
1
60
0
100
AcDbLine
10
0.1
20
4.868472
30
0
11
5.85
21
4.868472
31
0
39
0
210
0
220
0
230
1
0
LINE
5
90
100
AcDbEntity
8
1
62
256
6
ByLayer
370
18
48
1
60
0
100
AcDbLine
10
5.85
20
5.385387
30
0
11
5.85
21
5.83854
31
0
39
0
210
0
220
0
230
1
0
LINE
5
91
100
AcDbEntity
8
1
62
256
6
ByLayer
370
13
48
1
60
0
100
AcDbLine
10
5.85
20
5.83854
30
0
11
0.1
21
5.83854
31
0
39
0
210
0
220
0
230
1
0
LINE
5
92
100
AcDbEntity
8
1
62
256
6
ByLayer
370
18
48
1
60
0
100
AcDbLine
10
0.1
20
5.83854
30
0
11
0.1
21
5.385387
31
0
39
0
210
0
220
0
230
1
0
LINE
5
93
100
AcDbEntity
8
1
62
256
6
ByLayer
370
18
48
1
60
0
100
AcDbLine
10
0.1
20
7.353029
30
0
11
0.1
21
5.83854
31
0
39
0
210
0
220
0
230
1
0
LINE
5
94
100
AcDbEntity
8
1
62
256
6
ByLayer
370
18
48
1
60
0
100
AcDbLine
10
5.85
20
5.83854
30
0
11
5.85
21
6.942482
31
0
39
0
210
0
220
0
230
1
0
LINE
5
95
100
AcDbEntity
8
1
62
256
6
ByLayer
370
18
48
1
60
0
100
AcDbLine
10
4.76
20
8.85
30
0
11
4.64
21
8.85
31
0
39
0
210
0
220
0
230
1
0
LINE
5
96
100
AcDbEntity
8
1
62
256
6
ByLayer
370
18
48
1
60
0
100
AcDbLine
10
0
20
-6.269656
30
0
11
0
21
6.33701
31
0
39
0
210
0
220
0
230
1
0
LINE
5
97
100
AcDbEntity
8
4
62
256
6
ByLayer
370
18
48
0.05
60
0
100
AcDbLine
10
0
20
0
30
0
11
6.171389
21
0
31
0
39
0
210
0
220
0
230
1
0
LINE
5
99
100
AcDbEntity
8
SK4
62
256
6
ByLayer
370
18
48
0.05
60
0
100
AcDbLine
10
-1.5
20
0
30
0
11
6.852417
21
0
31
0
39
0
210
0
220
0
230
1
0
LINE
5
9B
100
AcDbEntity
8
80
62
256
6
ByLayer
370
18
48
1
60
0
100
AcDbLine
10
0
20
0
30
0
11
-0.567306
21
0
31
0
39
0
210
0
220
0
230
1
0
LINE
5
9C
100
AcDbEntity
8
81
62
256
6
ByLayer
370
18
48
1
60
0
100
AcDbLine
10
4.7
20
8.85
30
0
11
4.7
21
9.653257
31
0
39
0
210
0
220
0
230
1
0
LINE
5
9D
100
AcDbEntity
8
1
62
256
6
ByLayer
370
18
48
1
60
0
100
AcDbLine
10
3.7889
20
7.348415
30
0
11
4.64
21
8.85
31
0
39
0
210
0
220
0
230
1
0
LINE
5
9E
100
AcDbEntity
8
1
62
256
6
ByLayer
370
18
48
1
60
0
100
AcDbLine
10
4.76
20
8.85
30
0
11
5.85
21
6.942482
31
0
39
0
210
0
220
0
230
1
0
MTEXT
5
C2
100
AcDbEntity
8
SK6
62
256
6
ByLayer
370
18
48
1
60
0
100
AcDbMText
10
-18.799535
20
-22.438838
30
0
210
0
220
0
230
1
1
\W0.7396;327R09-18 100VM-TH
40
3.5
41
0
44
1.084337
50
0
71
7
72
5
7
iso_b_vert
0
DIMENSION
5
CE
100
AcDbEntity
8
2
62
256
6
ByLayer
370
13
48
1
60
0
100
AcDbDimension
2
DimnDraft3D1
10
23.64545
20
-8.85
30
0
11
23.64545
21
-7.511184
31
0
70
32
71
5
72
1
41
1
210
0
220
0
230
1
3
Standard
100
AcDbAlignedDimension
13
4.7
23
-8.85
33
0
14
0
24
0
34
0
50
90
100
AcDbRotatedDimension
1001
ACAD
1000
DSTYLE
1002
{
1070
    74
1070
     0
1070
   279
1070
     0
1070
   172
1070
     1
1070
   173
1070
     1
1070
   340
1005
C3
1070
    76
1070
     1
1070
   271
1070
     2
1070
   272
1070
     2
1070
    77
1070
     1
1070
    73
1070
     0
1070
   171
1070
     3
1070
   274
1070
     4
1070
   282
1070
     1
1070
   177
1070
     7
1070
   176
1070
     7
1070
   178
1070
     7
1070
    78
1070
     8
1070
    48
1040
-0.005
1070
    41
1041
3.5
1070
   147
1041
1.75
1070
    42
1041
1.5875
1070
    44
1041
2.0
1070
   140
1041
3.5
1070
   343
1005
0
1070
   344
1005
0
1002
}
0
DIMENSION
5
ED
100
AcDbEntity
8
2
62
256
6
ByLayer
370
13
48
1
60
0
100
AcDbDimension
2
DimnDraft3D4
10
4.64
20
14.273132
30
0
11
11.393204
21
14.273132
31
0
70
32
71
5
72
1
41
1
210
0
220
0
230
1
3
Standard
100
AcDbAlignedDimension
13
4.76
23
10.4375
33
0
14
4.64
24
10.4375
34
0
50
0
100
AcDbRotatedDimension
1001
ACAD
1000
DSTYLE
1002
{
1070
   279
1070
     0
1070
   172
1070
     1
1070
   173
1070
     1
1070
   340
1005
C3
1070
   271
1070
     2
1070
   272
1070
     2
1070
    77
1070
     1
1070
    73
1070
     0
1070
   171
1070
     3
1070
   274
1070
     4
1070
   177
1070
     7
1070
   176
1070
     7
1070
   178
1070
     7
1070
    78
1070
     8
1070
    48
1040
-0.005
1070
    41
1041
3.5
1070
   147
1041
1.75
1070
    42
1041
1.5875
1070
    44
1041
2.0
1070
   140
1041
3.5
1070
   343
1005
0
1070
   344
1005
0
1002
}
0
DIMENSION
5
F7
100
AcDbEntity
8
2
62
256
6
ByLayer
370
13
48
1
60
0
100
AcDbDimension
2
DimnDraft3D5
10
-15.039826
20
7.349602
30
0
11
-15.039826
21
13.228328
31
0
70
32
71
5
72
1
41
1
210
0
220
0
230
1
3
Standard
100
AcDbAlignedDimension
13
3.0525
23
8.85
33
0
14
1.254175
24
7.349602
34
0
50
90
100
AcDbRotatedDimension
1001
ACAD
1000
DSTYLE
1002
{
1070
    74
1070
     0
1070
   279
1070
     0
1070
   172
1070
     1
1070
   173
1070
     1
1070
   340
1005
C3
1070
   271
1070
     2
1070
   272
1070
     2
1070
    77
1070
     1
1070
    73
1070
     0
1070
   171
1070
     3
1070
   274
1070
     4
1070
   177
1070
     7
1070
   176
1070
     7
1070
   178
1070
     7
1070
    78
1070
     8
1070
    48
1040
-0.005
1070
    41
1041
3.5
1070
   147
1041
1.75
1070
    42
1041
1.5875
1070
    44
1041
2.0
1070
   140
1041
3.5
1070
   343
1005
0
1070
   344
1005
0
1002
}
0
DIMENSION
5
101
100
AcDbEntity
8
SK2
62
256
6
ByLayer
370
13
48
1
60
0
100
AcDbDimension
2
DimnDraft3D6
10
5.85
20
6.942482
30
0
11
4.735184
21
-11.340731
31
0
70
34
71
5
72
1
41
1
210
0
220
0
230
1
3
Standard
100
AcDb2LineAngularDimension
13
3.7889
23
7.348415
33
0
14
4.64
24
8.85
34
0
15
4.76
25
8.85
35
0
16
4.741293
26
-14.840725
36
0
40
0
0
DIMENSION
5
10B
100
AcDbEntity
8
SK2
62
256
6
ByLayer
370
13
48
1
60
0
100
AcDbDimension
2
DimnDraft3D7
10
-24.157303
20
-4.5
30
0
11
-24.157303
21
8.172181
31
0
70
32
71
5
72
1
41
1
210
0
220
0
230
1
3
Standard
100
AcDbAlignedDimension
13
-1.5875
23
4.5
33
0
14
-1.5875
24
-4.5
34
0
50
90
100
AcDbRotatedDimension
1001
ACAD
1000
DSTYLE
1002
{
1070
    74
1070
     0
1070
   279
1070
     0
1070
   172
1070
     1
1070
   173
1070
     1
1070
   340
1005
C3
1070
   271
1070
     2
1070
   272
1070
     2
1070
    77
1070
     1
1070
    73
1070
     0
1070
   171
1070
     3
1070
   274
1070
     4
1070
   177
1070
     7
1070
   176
1070
     7
1070
   178
1070
     7
1070
    78
1070
     8
1070
    48
1040
-0.005
1070
    41
1041
3.5
1070
   147
1041
1.75
1070
    42
1041
1.5875
1070
    44
1041
2.0
1070
   140
1041
3.5
1070
   343
1005
0
1070
   344
1005
0
1002
}
0
ENDSEC
0
SECTION
2
OBJECTS
0
DICTIONARY
5
176
330
0
100
AcDbDictionary
280
0
281
1
3
ACAD_GROUP
350
177
3
ACAD_MLINESTYLE
350
178
0
DICTIONARY
5
177
330
0
100
AcDbDictionary
280
0
281
1
0
DICTIONARY
5
178
330
0
100
AcDbDictionary
280
0
281
1
3
Standard
350
18
0
MLINESTYLE
5
18
330
178
100
AcDbMlineStyle
2
Standard
70
0
3

62
256
51
90
52
90
71
2
49
-0.5
62
256
6
ByLayer
49
0.5
62
256
6
ByLayer
0
RASTERVARIABLES
5
164
330

100
AcDbRasterVariables
90
0
70
1
71
1
72
1
0
ENDSEC
0
EOF
