0
SECTION
2
HEADER
9
$ACADVER
1
AC1015
9
$DWGCODEPAGE
3
ANSI_1252
9
$HANDSEED
5
19b
9
$ANGBASE
50
0
9
$ANGDIR
70
0
9
$ATTMODE
70
1
9
$AUNITS
70
0
9
$AUPREC
70
0
9
$CECOLOR
62
256
9
$CELTSCALE
40
1
9
$CELTYPE
6
ByLayer
9
$CELWEIGHT
370
18
9
$CLAYER
8
0
9
$CMLJUST
70
0
9
$CMLSCALE
40
1
9
$CMLSTYLE
2
Standard
9
$DIMSTYLE
2
Standard
9
$TEXTSIZE
40
0.2
9
$TEXTSTYLE
7
Standard
9
$LUNITS
70
2
9
$LUPREC
70
4
9
$EXTNAMES
290
1
9
$INSUNITS
70
4
9
$LTSCALE
40
1
9
$LWDISPLAY
290
1
9
$PDMODE
70
0
9
$PDSIZE
40
0
9
$PLINEGEN
70
0
0
ENDSEC
0
SECTION
2
CLASSES
0
CLASS
1
RASTERVARIABLES
2
AcDbRasterVariables
3
ISM
90
0
280
0
281
0
0
ENDSEC
0
SECTION
2
TABLES
0
TABLE
2
VPORT
5
191
100
AcDbSymbolTable
0
VPORT
5
1
100
AcDbSymbolTableRecord
100
AcDbViewportTableRecord
2
*Active
70
0
10
0
20
0
11
1
21
1
12
-1
22
1
13
0
23
0
14
0.5
24
0.5
15
10
25
10
16
0
26
0
36
1
17
0
27
0
37
0
0
ENDTAB
0
TABLE
2
LTYPE
5
192
100
AcDbSymbolTable
0
LTYPE
5
14
100
AcDbSymbolTableRecord
100
AcDbLinetypeTableRecord
70
0
2
ByBlock
3

72
65
73
0
40
0
0
LTYPE
5
15
100
AcDbSymbolTableRecord
100
AcDbLinetypeTableRecord
70
0
2
ByLayer
3

72
65
73
0
40
0
0
LTYPE
5
16
100
AcDbSymbolTableRecord
100
AcDbLinetypeTableRecord
70
0
2
CONTINUOUS
3
Solid line
72
65
73
0
40
0
0
LTYPE
5
6A
100
AcDbSymbolTableRecord
100
AcDbLinetypeTableRecord
70
0
2
CENTER
3
____ _ ____ _ ____ _ ____
72
65
73
4
40
47.5
49
22
74
0
49
-8.5
74
0
49
8.5
74
0
49
-8.5
74
0
0
LTYPE
5
6B
100
AcDbSymbolTableRecord
100
AcDbLinetypeTableRecord
70
0
2
DASHED
3
__ __ __ __ __ __ __ __ __
72
65
73
2
40
25.72
49
12.86
74
0
49
-12.86
74
0
0
ENDTAB
0
TABLE
2
LAYER
5
193
100
AcDbSymbolTable
0
LAYER
5
10
100
AcDbSymbolTableRecord
100
AcDbLayerTableRecord
2
0
70
0
62
7
6
CONTINUOUS
290
1
370
-3
390
0
0
LAYER
5
6D
100
AcDbSymbolTableRecord
100
AcDbLayerTableRecord
2
81
70
0
62
-3
6
CONTINUOUS
290
1
370
-3
390
0
0
LAYER
5
6F
100
AcDbSymbolTableRecord
100
AcDbLayerTableRecord
2
1
70
0
62
4
6
CONTINUOUS
290
1
370
-3
390
0
0
LAYER
5
73
100
AcDbSymbolTableRecord
100
AcDbLayerTableRecord
2
80
70
0
62
-6
6
CONTINUOUS
290
1
370
-3
390
0
0
LAYER
5
BE
100
AcDbSymbolTableRecord
100
AcDbLayerTableRecord
2
4
70
0
62
-2
6
CENTER
290
1
370
-3
390
0
0
LAYER
5
EA
100
AcDbSymbolTableRecord
100
AcDbLayerTableRecord
2
2
70
0
62
7
6
CONTINUOUS
290
1
370
-3
390
0
0
LAYER
5
17d
100
AcDbSymbolTableRecord
100
AcDbLayerTableRecord
2
SK1
70
0
62
4
6
CONTINUOUS
290
1
370
-3
390
0
0
LAYER
5
17e
100
AcDbSymbolTableRecord
100
AcDbLayerTableRecord
2
SK4
70
0
62
2
6
CENTER
290
1
370
-3
390
0
0
LAYER
5
17f
100
AcDbSymbolTableRecord
100
AcDbLayerTableRecord
2
SK6
70
0
62
5
6
CONTINUOUS
290
1
370
-3
390
0
0
LAYER
5
180
100
AcDbSymbolTableRecord
100
AcDbLayerTableRecord
2
SK2
70
0
62
7
6
CONTINUOUS
290
1
370
-3
390
0
0
ENDTAB
0
TABLE
2
STYLE
5
194
100
AcDbSymbolTable
0
STYLE
5
11
100
AcDbSymbolTableRecord
100
AcDbTextStyleTableRecord
2
Standard
3
txt
70
0
71
0
40
0
41
1
42
0
50
0
0
STYLE
5
E5
100
AcDbSymbolTableRecord
100
AcDbTextStyleTableRecord
2
iso_b_vert
3
simplex.shx
70
0
71
0
40
0
41
1
42
0
50
0
0
STYLE
5
E6
100
AcDbSymbolTableRecord
100
AcDbTextStyleTableRecord
2
DWGDirectTextStyle
3
simplex
70
0
71
0
40
0
41
1
42
0
50
0
0
ENDTAB
0
TABLE
2
DIMSTYLE
5
195
100
AcDbSymbolTable
100
AcDbDimStyleTable
0
DIMSTYLE
105
27
100
AcDbSymbolTableRecord
100
AcDbDimStyleTableRecord
2
Standard
70
0
3
<>
41
0.18
42
0.0625
44
0.18
140
0.18
147
0.09
73
0
74
0
77
1
271
2
275
0
278
52
280
0
340
11
0
ENDTAB
0
TABLE
2
VIEW
5
196
100
AcDbSymbolTable
0
ENDTAB
0
TABLE
2
UCS
5
197
100
AcDbSymbolTable
0
ENDTAB
0
TABLE
2
APPID
5
198
100
AcDbSymbolTable
0
APPID
5
12
100
AcDbSymbolTableRecord
100
AcDbRegAppTableRecord
2
ACAD
70
0
0
ENDTAB
0
TABLE
2
BLOCK_RECORD
5
199
100
AcDbSymbolTable
0
BLOCK_RECORD
5
1F
100
AcDbSymbolTableRecord
100
AcDbBlockTableRecord
2
*Model_Space
340
0
70
0
0
BLOCK_RECORD
5
1B
100
AcDbSymbolTableRecord
100
AcDbBlockTableRecord
2
*Paper_Space
340
0
70
0
0
BLOCK_RECORD
5
23
100
AcDbSymbolTableRecord
100
AcDbBlockTableRecord
2
*Paper_Space0
340
0
70
0
0
BLOCK_RECORD
5
E8
100
AcDbSymbolTableRecord
100
AcDbBlockTableRecord
2
DimnDraft3D1
340
0
70
0
0
BLOCK_RECORD
5
F1
100
AcDbSymbolTableRecord
100
AcDbBlockTableRecord
2
DimnDraft3D2
340
0
70
0
0
BLOCK_RECORD
5
FC
100
AcDbSymbolTableRecord
100
AcDbBlockTableRecord
2
DimnDraft3D3
340
0
70
0
0
BLOCK_RECORD
5
106
100
AcDbSymbolTableRecord
100
AcDbBlockTableRecord
2
DimnDraft3D4
340
0
70
0
0
BLOCK_RECORD
5
110
100
AcDbSymbolTableRecord
100
AcDbBlockTableRecord
2
DimnDraft3D55
340
0
70
0
0
BLOCK_RECORD
5
11A
100
AcDbSymbolTableRecord
100
AcDbBlockTableRecord
2
DimnDraft3D6
340
0
70
0
0
ENDTAB
0
ENDSEC
0
SECTION
2
BLOCKS
0
BLOCK
5
20
100
AcDbEntity
8
0
100
AcDbBlockBegin
2
*Model_Space
70
0
10
0
20
0
30
0
3
*Model_Space
0
ENDBLK
5
21
100
AcDbEntity
8
0
100
AcDbBlockEnd
0
BLOCK
5
1C
100
AcDbEntity
8
0
100
AcDbBlockBegin
2
*Paper_Space
70
0
10
0
20
0
30
0
3
*Paper_Space
0
ENDBLK
5
1D
100
AcDbEntity
8
0
100
AcDbBlockEnd
0
BLOCK
5
24
100
AcDbEntity
8
0
100
AcDbBlockBegin
2
*Paper_Space0
70
0
10
0
20
0
30
0
3
*Paper_Space0
0
ENDBLK
5
25
100
AcDbEntity
8
0
100
AcDbBlockEnd
0
BLOCK
5
EE
100
AcDbEntity
8
0
100
AcDbBlockBegin
2
DimnDraft3D1
70
0
10
0
20
0
30
0
3
DimnDraft3D1
0
MTEXT
5
E9
100
AcDbEntity
8
2
62
256
6
ByLayer
370
18
48
1
60
0
100
AcDbMText
10
13.872782
20
-9.58018
30
0
210
0
220
0
230
1
1
\W0.9844;%%c11,7
40
3.5
41
0
44
1.084337
50
90
71
7
72
5
7
iso_b_vert
0
LINE
5
EB
100
AcDbEntity
8
2
62
256
6
ByLayer
370
13
48
1
60
0
100
AcDbLine
10
5.726878
20
5.85
30
0
11
17.622782
21
5.85
31
0
39
0
210
0
220
0
230
1
0
LINE
5
EC
100
AcDbEntity
8
2
62
256
6
ByLayer
370
13
48
1
60
0
100
AcDbLine
10
15.622782
20
5.85
30
0
11
15.622782
21
-10.45518
31
0
39
0
210
0
220
0
230
1
0
SOLID
5
ED
100
AcDbEntity
8
2
62
256
6
ByLayer
370
13
48
1
60
0
100
AcDbTrace
10
15.622782
20
5.85
30
0
11
16.083566
21
2.350002
31
0
12
15.161999
22
2.349998
32
0
13
15.622782
23
5.85
33
0
39
0
210
0
220
0
230
1
0
ENDBLK
5
EF
100
AcDbEntity
8
0
100
AcDbBlockEnd
0
BLOCK
5
F9
100
AcDbEntity
8
0
100
AcDbBlockBegin
2
DimnDraft3D2
70
0
10
0
20
0
30
0
3
DimnDraft3D2
0
MTEXT
5
F2
100
AcDbEntity
8
SK2
62
256
6
ByLayer
370
18
48
1
60
0
100
AcDbMText
10
-20.355407
20
-5.440986
30
0
210
0
220
0
230
1
1
\W1.5859;%%c6
40
3.5
41
0
44
1.084337
50
90
71
7
72
5
7
iso_b_vert
0
LINE
5
F4
100
AcDbEntity
8
SK2
62
256
6
ByLayer
370
13
48
1
60
0
100
AcDbLine
10
-1.5875
20
3
30
0
11
-20.605407
21
3
31
0
39
0
210
0
220
0
230
1
0
LINE
5
F5
100
AcDbEntity
8
SK2
62
256
6
ByLayer
370
13
48
1
60
0
100
AcDbLine
10
-1.5875
20
-3
30
0
11
-20.605407
21
-3
31
0
39
0
210
0
220
0
230
1
0
LINE
5
F6
100
AcDbEntity
8
SK2
62
256
6
ByLayer
370
13
48
1
60
0
100
AcDbLine
10
-18.605407
20
11.75
30
0
11
-18.605407
21
-11.75
31
0
39
0
210
0
220
0
230
1
0
SOLID
5
F7
100
AcDbEntity
8
SK2
62
256
6
ByLayer
370
13
48
1
60
0
100
AcDbTrace
10
-18.605407
20
3
30
0
11
-19.06619
21
6.499998
31
0
12
-18.144623
22
6.500002
32
0
13
-18.605407
23
3
33
0
39
0
210
0
220
0
230
1
0
SOLID
5
F8
100
AcDbEntity
8
SK2
62
256
6
ByLayer
370
13
48
1
60
0
100
AcDbTrace
10
-18.605407
20
-3
30
0
11
-18.144623
21
-6.499998
31
0
12
-19.06619
22
-6.500002
32
0
13
-18.605407
23
-3
33
0
39
0
210
0
220
0
230
1
0
ENDBLK
5
FA
100
AcDbEntity
8
0
100
AcDbBlockEnd
0
BLOCK
5
103
100
AcDbEntity
8
0
100
AcDbBlockBegin
2
DimnDraft3D3
70
0
10
0
20
0
30
0
3
DimnDraft3D3
0
MTEXT
5
FD
100
AcDbEntity
8
2
62
256
6
ByLayer
370
18
48
1
60
0
100
AcDbMText
10
9.021072
20
23.803942
30
0
210
0
220
0
230
1
1
\W0.6702;3,6
40
3.5
41
0
44
1.084337
50
0
71
7
72
5
7
iso_b_vert
0
LINE
5
FE
100
AcDbEntity
8
2
62
256
6
ByLayer
370
13
48
1
60
0
100
AcDbLine
10
0
20
4.717565
30
0
11
0
21
24.928942
31
0
39
0
210
0
220
0
230
1
0
LINE
5
FF
100
AcDbEntity
8
2
62
256
6
ByLayer
370
13
48
1
60
0
100
AcDbLine
10
3.6
20
5.740783
30
0
11
3.6
21
24.928942
31
0
39
0
210
0
220
0
230
1
0
LINE
5
100
100
AcDbEntity
8
2
62
256
6
ByLayer
370
13
48
1
60
0
100
AcDbLine
10
13.423703
20
22.928942
30
0
11
-8.75
21
22.928942
31
0
39
0
210
0
220
0
230
1
0
SOLID
5
101
100
AcDbEntity
8
2
62
256
6
ByLayer
370
13
48
1
60
0
100
AcDbTrace
10
0
20
22.928942
30
0
11
-3.499998
21
22.468158
31
0
12
-3.500002
22
23.389726
32
0
13
0
23
22.928942
33
0
39
0
210
0
220
0
230
1
0
SOLID
5
102
100
AcDbEntity
8
2
62
256
6
ByLayer
370
13
48
1
60
0
100
AcDbTrace
10
3.6
20
22.928942
30
0
11
7.099998
21
23.389726
31
0
12
7.100002
22
22.468158
32
0
13
3.6
23
22.928942
33
0
39
0
210
0
220
0
230
1
0
ENDBLK
5
104
100
AcDbEntity
8
0
100
AcDbBlockEnd
0
BLOCK
5
10D
100
AcDbEntity
8
0
100
AcDbBlockBegin
2
DimnDraft3D4
70
0
10
0
20
0
30
0
3
DimnDraft3D4
0
MTEXT
5
107
100
AcDbEntity
8
2
62
256
6
ByLayer
370
18
48
1
60
0
100
AcDbMText
10
9.410842
20
10.948012
30
0
210
0
220
0
230
1
1
\W0.5585;1,2
40
3.5
41
0
44
1.084337
50
0
71
7
72
5
7
iso_b_vert
0
LINE
5
108
100
AcDbEntity
8
2
62
256
6
ByLayer
370
13
48
1
60
0
100
AcDbLine
10
2.4
20
7.4375
30
0
11
2.4
21
12.073012
31
0
39
0
210
0
220
0
230
1
0
LINE
5
109
100
AcDbEntity
8
2
62
256
6
ByLayer
370
13
48
1
60
0
100
AcDbLine
10
1.2
20
7.4375
30
0
11
1.2
21
12.073012
31
0
39
0
210
0
220
0
230
1
0
LINE
5
10A
100
AcDbEntity
8
2
62
256
6
ByLayer
370
13
48
1
60
0
100
AcDbLine
10
-7.55
20
10.073012
30
0
11
12.938474
21
10.073012
31
0
39
0
210
0
220
0
230
1
0
SOLID
5
10B
100
AcDbEntity
8
2
62
256
6
ByLayer
370
13
48
1
60
0
100
AcDbTrace
10
2.4
20
10.073012
30
0
11
5.899998
21
10.533796
31
0
12
5.900002
22
9.612228
32
0
13
2.4
23
10.073012
33
0
39
0
210
0
220
0
230
1
0
SOLID
5
10C
100
AcDbEntity
8
2
62
256
6
ByLayer
370
13
48
1
60
0
100
AcDbTrace
10
1.2
20
10.073012
30
0
11
-2.299998
21
9.612228
31
0
12
-2.300002
22
10.533796
32
0
13
1.2
23
10.073012
33
0
39
0
210
0
220
0
230
1
0
ENDBLK
5
10E
100
AcDbEntity
8
0
100
AcDbBlockEnd
0
BLOCK
5
111
100
AcDbEntity
8
0
100
AcDbBlockBegin
2
DimnDraft3D55
70
0
10
0
20
0
30
0
3
DimnDraft3D55
0
LINE
5
113
100
AcDbEntity
8
2
62
256
6
ByLayer
370
25
48
1
60
0
100
AcDbLine
10
0.2125
20
5.05
30
0
11
-11.205995
21
5.05
31
0
39
0
210
0
220
0
230
1
0
LINE
5
114
100
AcDbEntity
8
2
62
256
6
ByLayer
370
25
48
1
60
0
100
AcDbLine
10
-0.3875
20
5.85
30
0
11
-11.205995
21
5.85
31
0
39
0
210
0
220
0
230
1
0
LINE
5
115
100
AcDbEntity
8
2
62
256
6
ByLayer
370
25
48
1
60
0
100
AcDbLine
10
-9.205995
20
12.946135
30
0
11
-9.205995
21
-3.7
31
0
39
0
210
0
220
0
230
1
0
SOLID
5
116
100
AcDbEntity
8
2
62
256
6
ByLayer
370
25
48
1
60
0
100
AcDbTrace
10
-9.205995
20
5.05
30
0
11
-8.745212
21
1.550002
31
0
12
-9.666779
22
1.549998
32
0
13
-9.205995
23
5.05
33
0
39
0
210
0
220
0
230
1
0
SOLID
5
117
100
AcDbEntity
8
2
62
256
6
ByLayer
370
25
48
1
60
0
100
AcDbTrace
10
-9.205995
20
5.85
30
0
11
-9.666779
21
9.349998
31
0
12
-8.745212
22
9.350002
32
0
13
-9.205995
23
5.85
33
0
39
0
210
0
220
0
230
1
0
MTEXT
5
118
100
AcDbEntity
8
2
62
256
6
ByLayer
370
18
48
1
60
0
100
AcDbMText
10
-10.080995
20
8.543503
30
0
210
0
220
0
230
1
1
\W0.6702;0,8
40
3.5
41
0
44
1.084337
50
90
71
7
72
5
7
iso_b_vert
0
ENDBLK
5
112
100
AcDbEntity
8
0
100
AcDbBlockEnd
0
BLOCK
5
121
100
AcDbEntity
8
0
100
AcDbBlockBegin
2
DimnDraft3D6
70
0
10
0
20
0
30
0
3
DimnDraft3D6
0
MTEXT
5
11B
100
AcDbEntity
8
SK2
62
256
6
ByLayer
370
18
48
1
60
0
100
AcDbMText
10
9.021072
20
17.690504
30
0
210
0
220
0
230
1
1
\W0.5795;1,8
40
3.5
41
0
44
1.084337
50
0
71
7
72
5
7
iso_b_vert
0
LINE
5
11C
100
AcDbEntity
8
SK2
62
256
6
ByLayer
370
13
48
1
60
0
100
AcDbLine
10
0
20
1.5875
30
0
11
0
21
18.815504
31
0
39
0
210
0
220
0
230
1
0
LINE
5
11D
100
AcDbEntity
8
SK2
62
256
6
ByLayer
370
13
48
1
60
0
100
AcDbLine
10
1.8
20
7.4375
30
0
11
1.8
21
18.815504
31
0
39
0
210
0
220
0
230
1
0
LINE
5
11E
100
AcDbEntity
8
SK2
62
256
6
ByLayer
370
13
48
1
60
0
100
AcDbLine
10
12.686861
20
16.815504
30
0
11
-8.75
21
16.815504
31
0
39
0
210
0
220
0
230
1
0
SOLID
5
11F
100
AcDbEntity
8
SK2
62
256
6
ByLayer
370
13
48
1
60
0
100
AcDbTrace
10
0
20
16.815504
30
0
11
-3.499998
21
16.35472
31
0
12
-3.500002
22
17.276288
32
0
13
0
23
16.815504
33
0
39
0
210
0
220
0
230
1
0
SOLID
5
120
100
AcDbEntity
8
SK2
62
256
6
ByLayer
370
13
48
1
60
0
100
AcDbTrace
10
1.8
20
16.815504
30
0
11
5.299998
21
17.276288
31
0
12
5.300002
22
16.35472
32
0
13
1.8
23
16.815504
33
0
39
0
210
0
220
0
230
1
0
ENDBLK
5
122
100
AcDbEntity
8
0
100
AcDbBlockEnd
0
ENDSEC
0
SECTION
2
ENTITIES
0
POINT
5
6C
100
AcDbEntity
8
81
62
256
6
ByLayer
370
18
48
1
60
0
100
AcDbPoint
10
3.6
20
5.85
30
0
39
0
210
0
220
0
230
1
50
360
0
POINT
5
6E
100
AcDbEntity
8
1
62
256
6
ByLayer
370
18
48
1
60
1
100
AcDbPoint
10
3.5
20
-5.85
30
0
39
0
210
0
220
0
230
1
50
360
0
POINT
5
70
100
AcDbEntity
8
1
62
256
6
ByLayer
370
18
48
1
60
1
100
AcDbPoint
10
0
20
3
30
0
39
0
210
0
220
0
230
1
50
360
0
POINT
5
71
100
AcDbEntity
8
1
62
256
6
ByLayer
370
18
48
1
60
1
100
AcDbPoint
10
0
20
-3
30
0
39
0
210
0
220
0
230
1
50
360
0
POINT
5
72
100
AcDbEntity
8
80
62
256
6
ByLayer
370
18
48
1
60
0
100
AcDbPoint
10
0
20
0
30
0
39
0
210
0
220
0
230
1
50
360
0
POINT
5
74
100
AcDbEntity
8
1
62
256
6
ByLayer
370
18
48
1
60
1
100
AcDbPoint
10
1.8
20
5.05
30
0
39
0
210
0
220
0
230
1
50
360
0
SPLINE
5
C1
100
AcDbEntity
8
1
62
256
6
ByLayer
370
18
48
1
60
0
100
AcDbSpline
70
4
71
3
72
8
73
4
40
0
40
0
40
0
40
0
40
1
40
1
40
1
40
1
41
1
10
1.22337671068267
20
-2.46129115788204
30
0
41
1
10
1.21133530401646
20
-2.61567926454742
30
0
41
1
10
1.20355670922901
20
-2.77024946132244
30
0
41
1
10
1.19999999999998
20
-2.92499999999998
30
0
0
SPLINE
5
C2
100
AcDbEntity
8
1
62
256
6
ByLayer
370
18
48
1
60
0
100
AcDbSpline
70
4
71
3
72
8
73
4
40
0
40
0
40
0
40
0
40
1
40
1
40
1
40
1
41
1
10
2.39999999999999
20
-2.92499999999998
30
0
41
1
10
2.39644141204257
20
-2.77024936894534
30
0
41
1
10
2.38866019724036
20
-2.61567917205963
30
0
41
1
10
2.37661543524674
20
-2.46129115788204
30
0
0
SPLINE
5
C3
100
AcDbEntity
8
1
62
256
6
ByLayer
370
18
48
1
60
0
100
AcDbSpline
70
4
71
3
72
8
73
4
40
0
40
0
40
0
40
0
40
1
40
1
40
1
40
1
41
1
10
1.08118307282523
20
-1.51736161613562
30
0
41
1
10
1.11429461755664
20
-1.83411520729089
30
0
41
1
10
1.16227871526501
20
-2.14867179032399
30
0
41
1
10
1.22337671068267
20
-2.46129115788204
30
0
0
SPLINE
5
C4
100
AcDbEntity
8
1
62
256
6
ByLayer
370
18
48
1
60
0
100
AcDbSpline
70
4
71
3
72
8
73
4
40
0
40
0
40
0
40
0
40
1
40
1
40
1
40
1
41
1
10
2.37661543524674
20
-2.46129115788204
30
0
41
1
10
2.43770743896706
20
-2.1486718186332
30
0
41
1
10
2.48568299050503
20
-1.83411524212173
30
0
41
1
10
2.51878297933765
20
-1.51736161613562
30
0
0
SPLINE
5
C5
100
AcDbEntity
8
1
62
256
6
ByLayer
370
18
48
1
60
0
100
AcDbSpline
70
4
71
3
72
8
73
4
40
0
40
0
40
0
40
0
40
1
40
1
40
1
40
1
41
1
10
3.29597613616549
20
-4.13641280044047
30
0
41
1
10
3.26943992087108
20
-4.13769339255944
30
0
41
1
10
3.24320421683014
20
-4.13834960450879
30
0
41
1
10
3.21727176641496
20
-4.13836355364572
30
0
0
SPLINE
5
C6
100
AcDbEntity
8
1
62
256
6
ByLayer
370
18
48
1
60
0
100
AcDbSpline
70
4
71
3
72
10
73
6
40
0
40
0
40
0
40
0
40
0.0094096280623143
40
0.0094096280623143
40
1
40
1
40
1
40
1
41
1
10
0.381814868261802
20
-4.13835225568599
30
0
41
1
10
0.380961711760921
20
-4.13835154010312
30
0
41
1
10
0.380108282602311
20
-4.1383501274637
30
0
41
1
10
0.289382035941048
20
-4.13812598460515
30
0
41
1
10
0.196291411827804
20
-4.13022842211456
30
0
41
1
10
0.099999999999983
20
-4.11530630211948
30
0
0
SPLINE
5
C7
100
AcDbEntity
8
1
62
256
6
ByLayer
370
18
48
1
60
0
100
AcDbSpline
70
4
71
3
72
8
73
4
40
0
40
0
40
0
40
0
40
1
40
1
40
1
40
1
41
1
10
3.24999999999999
20
-4.11308629203739
30
0
41
0.999420088848764
10
3.26432789719951
20
-4.12525554733889
30
0
41
0.999420088848764
10
3.27966216843437
20
-4.13303556185704
30
0
41
1
10
3.29597613615637
20
-4.13641280045633
30
0
0
SPLINE
5
C8
100
AcDbEntity
8
1
62
256
6
ByLayer
370
18
48
1
60
0
100
AcDbSpline
70
4
71
3
72
8
73
4
40
0
40
0
40
0
40
0
40
1
40
1
40
1
40
1
41
1
10
3.29597613615637
20
-4.13641280045633
30
0
41
1
10
3.3976033202866
20
-3.83752841806967
30
0
41
1
10
3.49894485791096
20
-3.52482171187978
30
0
41
1
10
3.59999999999998
20
-3.19825643688779
30
0
0
SPLINE
5
C9
100
AcDbEntity
8
1
62
256
6
ByLayer
370
18
48
1
60
0
100
AcDbSpline
70
4
71
3
72
8
73
4
40
0
40
0
40
0
40
0
40
1
40
1
40
1
40
1
41
1
10
3.59999999999998
20
-1.21113263699962
30
0
41
1
10
3.59999999999998
20
-1.55554374653113
30
0
41
1
10
3.59999999999998
20
-1.89349418293898
30
0
41
1
10
3.59999999999998
20
-2.224989907642
30
0
0
SPLINE
5
CA
100
AcDbEntity
8
1
62
256
6
ByLayer
370
18
48
1
60
0
100
AcDbSpline
70
4
71
3
72
8
73
4
40
0
40
0
40
0
40
0
40
1
40
1
40
1
40
1
41
1
10
0.099999999999983
20
1.74285982185262
30
0
41
0.997892552389678
10
0.0662118873602202
20
1.75573397328451
30
0
41
0.996964048218132
10
0.0328387126863384
20
1.76948850622222
30
0
41
0.997214487485362
10
-1.52263E-11
20
1.78407709649381
30
0
0
SPLINE
5
CB
100
AcDbEntity
8
SK1
62
256
6
ByLayer
370
18
48
1
60
0
100
AcDbSpline
70
4
71
3
72
8
73
4
40
0
40
0
40
0
40
0
40
1
40
1
40
1
40
1
41
1
10
-0.0762471933128779
20
1.81993953948336
30
0
41
0.999132922360637
10
-0.239383337557951
20
1.90107426255558
30
0
41
0.999132922360637
10
-0.405778550688899
20
1.97894671798172
30
0
41
1
10
-0.575
20
2.05335434136731
30
0
0
SPLINE
5
CC
100
AcDbEntity
8
SK1
62
256
6
ByLayer
370
18
48
1
60
0
100
AcDbSpline
70
4
71
3
72
8
73
4
40
0
40
0
40
0
40
0
40
1
40
1
40
1
40
1
41
1
10
-0.575
20
0.572491464556123
30
0
41
0.988791471480619
10
-0.350949955755747
20
0.424175519083797
30
0
41
0.98676600360083
10
-0.157433125929049
20
0.267203290069666
30
0
41
0.993923596360633
10
-1.89776E-11
20
0.105872751156922
30
0
0
SPLINE
5
CD
100
AcDbEntity
8
1
62
256
6
ByLayer
370
18
48
1
60
0
100
AcDbSpline
70
4
71
3
72
8
73
4
40
0
40
0
40
0
40
0
40
1
40
1
40
1
40
1
41
1
10
0.099999999999983
20
-3.0000434860583
30
0
41
0.997892552389558
10
0.0662118873583101
20
-2.99341006156182
30
0
41
0.996964048218026
10
0.0328387126825522
20
-2.9878965831176
30
0
41
0.997214487485403
10
-2.08094E-11
20
-2.98352573377097
30
0
0
SPLINE
5
CE
100
AcDbEntity
8
SK1
62
256
6
ByLayer
370
18
48
1
60
0
100
AcDbSpline
70
4
71
3
72
8
73
4
40
0
40
0
40
0
40
0
40
1
40
1
40
1
40
1
41
1
10
-0.0762471933129063
20
-2.97536683918591
30
0
41
0.999132922360638
10
-0.23938333755795
20
-2.96231486546368
30
0
41
0.999132922360638
10
-0.405778550688927
20
-2.94411899979677
30
0
41
1
10
-0.575
20
-2.92082657386996
30
0
0
SPLINE
5
CF
100
AcDbEntity
8
SK1
62
256
6
ByLayer
370
18
48
1
60
0
100
AcDbSpline
70
4
71
3
72
8
73
4
40
0
40
0
40
0
40
0
40
1
40
1
40
1
40
1
41
1
10
-0.262162628439324
20
3.05537459707134
30
0
41
0.997357597174729
10
-0.174940846329238
20
3.0769120364461
30
0
41
0.996625492177377
10
-0.08738592381934
20
3.10185409309313
30
0
41
0.997803685007945
10
-1.89124E-11
20
3.13006500618094
30
0
0
SPLINE
5
D0
100
AcDbEntity
8
SK1
62
256
6
ByLayer
370
18
48
1
60
0
100
AcDbSpline
70
4
71
3
72
8
73
4
40
0
40
0
40
0
40
0
40
1
40
1
40
1
40
1
41
1
10
-0.262162628439296
20
-2.00728562388551
30
0
41
0.997357597174675
10
-0.174940846327433
20
-1.97846554387924
30
0
41
0.996625492177348
10
-0.0873859238157665
20
-1.95285774244585
30
0
41
0.997803685008017
10
-1.35882E-11
20
-1.93061636890378
30
0
0
SPLINE
5
D1
100
AcDbEntity
8
1
62
256
6
ByLayer
370
18
48
1
60
0
100
AcDbSpline
70
4
71
3
72
8
73
4
40
0
40
0
40
0
40
0
40
1
40
1
40
1
40
1
41
1
10
0.0974940191501503
20
0
30
0
41
0.997527783449761
10
0.0669282678863073
20
-0.0352942894403276
30
0
41
0.995502315570018
10
0.0344196088649651
20
-0.0706010507550373
30
0
41
0.993923596360771
10
-1.59648E-11
20
-0.105872751153821
30
0
0
SPLINE
5
D2
100
AcDbEntity
8
1
62
256
6
ByLayer
370
18
48
1
60
0
100
AcDbSpline
70
4
71
3
72
8
73
4
40
0
40
0
40
0
40
0
40
1
40
1
40
1
40
1
41
1
10
3.24999999999999
20
0.0745868136832826
30
0
41
0.999420088848721
10
3.26432789720002
20
-0.0102621791280141
30
0
41
0.999420088848721
10
3.27966216843546
20
-0.0976661746396679
30
0
41
1
10
3.29597613616169
20
-0.187473113196603
30
0
0
SPLINE
5
D3
100
AcDbEntity
8
1
62
256
6
ByLayer
370
18
48
1
60
0
100
AcDbSpline
70
4
71
3
72
8
73
4
40
0
40
0
40
0
40
0
40
1
40
1
40
1
40
1
41
1
10
3.29597613616169
20
-0.187473113196603
30
0
41
1
10
3.39760332029157
20
-0.539210411829828
30
0
41
1
10
3.49894485791502
20
-0.880439438060762
30
0
41
1
10
3.60000000000368
20
-1.21113263699681
30
0
0
SPLINE
5
D4
100
AcDbEntity
8
1
62
256
6
ByLayer
370
18
48
1
60
0
100
AcDbSpline
70
4
71
3
72
8
73
4
40
0
40
0
40
0
40
0
40
1
40
1
40
1
40
1
41
1
10
3.59999999999998
20
3.37730737426855
30
0
41
0.996575330754241
10
3.48426896155387
20
3.3222726986343
30
0
41
0.996575330754241
10
3.36720137713117
20
3.27151522412847
30
0
41
1
10
3.24999999999999
20
3.22555643343685
30
0
0
SPLINE
5
D5
100
AcDbEntity
8
1
62
256
6
ByLayer
370
18
48
1
60
0
100
AcDbSpline
70
4
71
3
72
8
73
4
40
0
40
0
40
0
40
0
40
1
40
1
40
1
40
1
41
1
10
3.29597613616169
20
-0.187473113196603
30
0
41
1
10
3.26930846688136
20
-0.221695086877645
30
0
41
1
10
3.24288485373985
20
-0.256448798046421
30
0
41
1
10
3.21677952833325
20
-0.291647182061467
30
0
0
SPLINE
5
D6
100
AcDbEntity
8
1
62
256
6
ByLayer
370
18
48
1
60
0
100
AcDbSpline
70
4
71
3
72
10
73
6
40
0
40
0
40
0
40
0
40
0.5
40
0.5
40
1
40
1
40
1
40
1
41
1
10
3.21677952833325
20
-0.291647182061467
30
0
41
1
10
3.08246020110686
20
-0.472752883167317
30
0
41
1
10
2.95647502861694
20
-0.665585892034414
30
0
41
1
10
2.72191182598569
20
-1.07653703898112
30
0
41
1
10
2.6150025341377
20
-1.29168382998216
30
0
41
1
10
2.51878297933765
20
-1.51736161613562
30
0
0
SPLINE
5
D7
100
AcDbEntity
8
1
62
256
6
ByLayer
370
18
48
1
60
0
100
AcDbSpline
70
4
71
3
72
10
73
6
40
0
40
0
40
0
40
0
40
0.5
40
0.5
40
1
40
1
40
1
40
1
41
1
10
1.08118307282523
20
-1.51736161613562
30
0
41
1
10
0.984958553012308
20
-1.29168909887235
30
0
41
1
10
0.877961492482046
20
-1.07638776485928
30
0
41
1
10
0.643370813056055
20
-0.6654442563825
30
0
41
1
10
0.517461466164394
20
-0.472747690818466
30
0
41
1
10
0.383137055542551
20
-0.291647182066214
30
0
0
SPLINE
5
D8
100
AcDbEntity
8
1
62
256
6
ByLayer
370
18
48
1
60
0
100
AcDbSpline
70
4
71
3
72
8
73
4
40
0
40
0
40
0
40
0
40
1
40
1
40
1
40
1
41
1
10
0.383137055542551
20
-0.291647182066214
30
0
41
1
10
0.292070545080338
20
-0.168868371434229
30
0
41
1
10
0.197685600628733
20
-0.0522018792183871
30
0
41
1
10
0.099999999999983
20
0.0587228921353926
30
0
0
SPLINE
5
D9
100
AcDbEntity
8
1
62
256
6
ByLayer
370
18
48
1
60
0
100
AcDbSpline
70
4
71
3
72
14
73
10
40
0
40
0
40
0
40
0
40
0.25
40
0.25
40
0.5
40
0.5
40
0.75
40
0.75
40
1
40
1
40
1
40
1
41
1
10
0.099999999999983
20
0.0587228921353926
30
0
41
1
10
0.099999999999983
20
-0.141741900885364
30
0
41
1
10
0.099999999999983
20
-0.341161918527746
30
0
41
1
10
0.099999999999983
20
-0.737921655083909
30
0
41
1
10
0.099999999999983
20
-0.935428698914961
30
0
41
1
10
0.099999999999983
20
-1.32688804697187
30
0
41
1
10
0.099999999999983
20
-1.52113343775693
30
0
41
1
10
0.099999999999983
20
-1.90550127932463
30
0
41
1
10
0.099999999999983
20
-2.09551224427213
30
0
41
1
10
0.099999999999983
20
-2.28334780665847
30
0
0
SPLINE
5
DA
100
AcDbEntity
8
1
62
256
6
ByLayer
370
18
48
1
60
0
100
AcDbSpline
70
4
71
3
72
18
73
14
40
0
40
0
40
0
40
0
40
0.0991438128762251
40
0.0991438128762251
40
0.272506104308317
40
0.272506104308317
40
0.445868395710198
40
0.445868395710198
40
0.619230687086375
40
0.619230687086375
40
0.8096153430924
40
0.8096153430924
40
1
40
1
40
1
40
1
41
1
10
3.59999999999998
20
-2.224989907642
30
0
41
1
10
3.56035123270759
20
-2.24812873595064
30
0
41
1
10
3.52070147615079
20
-2.27126700659684
30
0
41
1
10
3.4117177779264
20
-2.33486325091303
30
0
41
1
10
3.34238188394481
20
-2.37532012397176
30
0
41
1
10
3.20370468944869
20
-2.45623082134566
30
0
41
1
10
3.13436338869467
20
-2.49668464564377
30
0
41
1
10
2.99567574151785
20
-2.57758944857531
30
0
41
1
10
2.92632939488645
20
-2.61804042719388
30
0
41
1
10
2.78082266758755
20
-2.70291145681884
30
0
41
1
10
2.70466180114822
20
-2.74733123393455
30
0
41
1
10
2.55233477806611
20
-2.83616780418296
30
0
41
1
10
2.47616862118984
20
-2.880584597287
30
0
41
1
10
2.39999999999999
20
-2.92499999999998
30
0
0
SPLINE
5
DB
100
AcDbEntity
8
1
62
256
6
ByLayer
370
18
48
1
60
0
100
AcDbSpline
70
4
71
3
72
16
73
12
40
0
40
0
40
0
40
0
40
0.210484158310274
40
0.210484158310274
40
0.420968316650623
40
0.420968316650623
40
0.631452475026648
40
0.631452475026648
40
0.841936633445184
40
0.841936633445184
40
1
40
1
40
1
40
1
41
1
10
1.19999999999998
20
-2.92499999999998
30
0
41
1
10
1.12280893057509
20
-2.87998843271254
30
0
41
1
10
1.04562039066498
20
-2.8349754382447
30
0
41
1
10
0.891248746277671
20
-2.74494638318552
30
0
41
1
10
0.814065641553287
20
-2.69993032262639
30
0
41
1
10
0.65970528171984
20
-2.60989490222542
30
0
41
1
10
0.5825280263244
20
-2.56487554242085
30
0
41
1
10
0.428179822511839
20
-2.47483326612698
30
0
41
1
10
0.351008873761731
20
-2.42981034968088
30
0
41
1
10
0.215892260404604
20
-2.35097404937156
30
0
41
1
10
0.157945110654697
20
-2.31716150279809
30
0
41
1
10
0.10000000000868
20
-2.28334780666159
30
0
0
SPLINE
5
DC
100
AcDbEntity
8
1
62
256
6
ByLayer
370
18
48
1
60
0
100
AcDbSpline
70
4
71
3
72
18
73
14
40
0
40
0
40
0
40
0
40
0.0991438128751756
40
0.0991438128751756
40
0.272506104307248
40
0.272506104307248
40
0.44586839570911
40
0.44586839570911
40
0.619230687085267
40
0.619230687085267
40
0.809615343091846
40
0.809615343091846
40
1
40
1
40
1
40
1
41
1
10
3.59999999999998
20
4.63421375351996
30
0
41
1
10
3.56035123270802
20
4.67440155870668
30
0
41
1
10
3.52070147615162
20
4.71458839533329
30
0
41
1
10
3.41171777792768
20
4.82504314450173
30
0
41
1
10
3.34238188394609
20
4.89530914548828
30
0
41
1
10
3.20370468945
20
5.03583585236544
30
0
41
1
10
3.13436338869598
20
5.10609655822654
30
0
41
1
10
2.99567574151915
20
5.24661302756283
30
0
41
1
10
2.92632939488779
20
5.31686879101227
30
0
41
1
10
2.78082266758865
20
5.4642738522661
30
0
41
1
10
2.70466180114913
20
5.54142267437379
30
0
41
1
10
2.55233477806654
20
5.6957151359704
30
0
41
1
10
2.47616862119004
20
5.77285877540942
30
0
41
1
10
2.39999999999999
20
5.84999999999999
30
0
0
SPLINE
5
DD
100
AcDbEntity
8
1
62
256
6
ByLayer
370
18
48
1
60
0
100
AcDbSpline
70
4
71
3
72
16
73
12
40
0
40
0
40
0
40
0
40
0.210484158310275
40
0.210484158310275
40
0.420968316650624
40
0.420968316650624
40
0.631452475026651
40
0.631452475026651
40
0.841936633445188
40
0.841936633445188
40
1
40
1
40
1
40
1
41
1
10
1.19999999999998
20
5.84999999999999
30
0
41
1
10
1.12280893057509
20
5.77182334935199
30
0
41
1
10
1.04562039066498
20
5.69364421995928
30
0
41
1
10
0.891248746277671
20
5.53728063589239
30
0
41
1
10
0.814065641553287
20
5.45909618127411
30
0
41
1
10
0.65970528171984
20
5.30272154180236
30
0
41
1
10
0.5825280263244
20
5.22453135701352
30
0
41
1
10
0.428179822511811
20
5.06814481014158
30
0
41
1
10
0.351008873761731
20
4.98994844813348
30
0
41
1
10
0.215892260404604
20
4.85302457991298
30
0
41
1
10
0.157945110654697
20
4.79429852791583
30
0
41
1
10
0.10000000000868
20
4.73557047934335
30
0
0
SPLINE
5
DE
100
AcDbEntity
8
1
62
256
6
ByLayer
370
18
48
1
60
0
100
AcDbSpline
70
4
71
3
72
8
73
4
40
0
40
0
40
0
40
0
40
1
40
1
40
1
40
1
41
0.997803685007945
10
-1.89124E-11
20
3.13006500618094
30
0
41
0.998255217144189
10
0.0334352191369796
20
3.14085894209941
30
0
41
0.998987322141541
10
0.0667778397191865
20
3.15211031078329
30
0
41
1
10
0.099999999999983
20
3.16380863708002
30
0
0
SPLINE
5
DF
100
AcDbEntity
8
SK1
62
256
6
ByLayer
370
18
48
1
60
0
100
AcDbSpline
70
4
71
3
72
8
73
4
40
0
40
0
40
0
40
0
40
1
40
1
40
1
40
1
41
0.997214487485362
10
-1.52263E-11
20
1.78407709649381
30
0
41
0.997411726722372
10
-0.0258512793853494
20
1.79556152117739
30
0
41
0.998340230893918
10
-0.0512852219359205
20
1.80752486188766
30
0
41
1
10
-0.0762471933128779
20
1.81993953948336
30
0
0
SPLINE
5
E0
100
AcDbEntity
8
1
62
256
6
ByLayer
370
18
48
1
60
0
100
AcDbSpline
70
4
71
3
72
8
73
4
40
0
40
0
40
0
40
0
40
1
40
1
40
1
40
1
41
0.993923596360633
10
-1.89776E-11
20
0.105872751156922
30
0
41
0.9955023155699
10
0.0344196088630673
20
0.070601050757108
30
0
41
0.997527783449689
10
0.0669282678854147
20
0.0352942894413634
30
0
41
1
10
0.0974940191501503
20
0
30
0
0
SPLINE
5
E1
100
AcDbEntity
8
SK1
62
256
6
ByLayer
370
18
48
1
60
0
100
AcDbSpline
70
4
71
3
72
8
73
4
40
0
40
0
40
0
40
0
40
1
40
1
40
1
40
1
41
0.993923596360771
10
-1.59648E-11
20
-0.105872751153821
30
0
41
0.986766003600804
10
-0.157433125926557
20
-0.267203290067617
30
0
41
0.988791471480547
10
-0.350949955754291
20
-0.42417551908281
30
0
41
1
10
-0.575
20
-0.572491464556123
30
0
0
SPLINE
5
E2
100
AcDbEntity
8
1
62
256
6
ByLayer
370
18
48
1
60
0
100
AcDbSpline
70
4
71
3
72
8
73
4
40
0
40
0
40
0
40
0
40
1
40
1
40
1
40
1
41
0.997803685008017
10
-1.35882E-11
20
-1.93061636890378
30
0
41
0.998255217144267
10
0.0334352191405189
20
-1.92210647204269
30
0
41
0.998987322141595
10
0.0667778397209491
20
-1.91410746975839
30
0
41
1
10
0.099999999999983
20
-1.90662497287434
30
0
0
SPLINE
5
E3
100
AcDbEntity
8
SK1
62
256
6
ByLayer
370
18
48
1
60
0
100
AcDbSpline
70
4
71
3
72
8
73
4
40
0
40
0
40
0
40
0
40
1
40
1
40
1
40
1
41
0.997214487485403
10
-2.08094E-11
20
-2.98352573377097
30
0
41
0.997411726722504
10
-0.0258512793890327
20
-2.98008491535167
30
0
41
0.998340230894036
10
-0.0512852219377524
20
-2.97736396248406
30
0
41
1
10
-0.0762471933129063
20
-2.97536683918591
30
0
0
INSERT
5
119
100
AcDbEntity
8
2
62
256
6
ByLayer
370
25
48
1
60
0
100
AcDbBlockReference
2
DimnDraft3D55
10
0
20
0
30
0
41
1
42
1
43
1
50
0
210
0
220
0
230
1
0
LINE
5
75
100
AcDbEntity
8
1
62
256
6
ByLayer
370
18
48
1
60
0
100
AcDbLine
10
0.378627
20
-4.138353
30
0
11
3.218937
21
-4.138353
31
0
39
0
210
0
220
0
230
1
0
LINE
5
76
100
AcDbEntity
8
1
62
256
6
ByLayer
370
13
48
1
60
0
100
AcDbLine
10
3.25
20
1.099249
30
0
11
0.1
21
1.099249
31
0
39
0
210
0
220
0
230
1
0
LINE
5
77
100
AcDbEntity
8
1
62
256
6
ByLayer
370
18
48
1
60
0
100
AcDbLine
10
2.376615
20
-2.461291
30
0
11
1.223377
21
-2.461291
31
0
39
0
210
0
220
0
230
1
0
LINE
5
78
100
AcDbEntity
8
1
62
256
6
ByLayer
370
18
48
1
60
0
100
AcDbLine
10
2.518783
20
-1.517362
30
0
11
1.081183
21
-1.517362
31
0
39
0
210
0
220
0
230
1
0
LINE
5
79
100
AcDbEntity
8
1
62
256
6
ByLayer
370
18
48
1
60
0
100
AcDbLine
10
3.25
20
2.713876
30
0
11
3.25
21
3.055375
31
0
39
0
210
0
220
0
230
1
0
LINE
5
7A
100
AcDbEntity
8
1
62
256
6
ByLayer
370
13
48
1
60
0
100
AcDbLine
10
3.25
20
3.055375
30
0
11
0
21
3.055375
31
0
39
0
210
0
220
0
230
1
0
LINE
5
7B
100
AcDbEntity
8
1
62
256
6
ByLayer
370
18
48
1
60
0
100
AcDbLine
10
3.25
20
1.81994
30
0
11
3.25
21
2.713876
31
0
39
0
210
0
220
0
230
1
0
LINE
5
7C
100
AcDbEntity
8
1
62
256
6
ByLayer
370
13
48
1
60
0
100
AcDbLine
10
3.25
20
2.713876
30
0
11
0
21
2.713876
31
0
39
0
210
0
220
0
230
1
0
LINE
5
7D
100
AcDbEntity
8
1
62
256
6
ByLayer
370
18
48
1
60
0
100
AcDbLine
10
3.25
20
1.69025
30
0
11
3.25
21
1.81994
31
0
39
0
210
0
220
0
230
1
0
LINE
5
7E
100
AcDbEntity
8
1
62
256
6
ByLayer
370
13
48
1
60
0
100
AcDbLine
10
3.25
20
1.81994
30
0
11
0
21
1.81994
31
0
39
0
210
0
220
0
230
1
0
LINE
5
7F
100
AcDbEntity
8
1
62
256
6
ByLayer
370
18
48
1
60
0
100
AcDbLine
10
0.1
20
1.74286
30
0
11
0.1
21
1.69025
31
0
39
0
210
0
220
0
230
1
0
LINE
5
80
100
AcDbEntity
8
1
62
256
6
ByLayer
370
18
48
1
60
0
100
AcDbLine
10
3.25
20
1.099249
30
0
11
3.25
21
1.69025
31
0
39
0
210
0
220
0
230
1
0
LINE
5
81
100
AcDbEntity
8
1
62
256
6
ByLayer
370
13
48
1
60
0
100
AcDbLine
10
3.25
20
1.69025
30
0
11
0.1
21
1.69025
31
0
39
0
210
0
220
0
230
1
0
LINE
5
82
100
AcDbEntity
8
1
62
256
6
ByLayer
370
18
48
1
60
0
100
AcDbLine
10
0.1
20
1.69025
30
0
11
0.1
21
1.099249
31
0
39
0
210
0
220
0
230
1
0
LINE
5
83
100
AcDbEntity
8
1
62
256
6
ByLayer
370
18
48
1
60
0
100
AcDbLine
10
3.25
20
-2.464258
30
0
11
3.25
21
-2.429214
31
0
39
0
210
0
220
0
230
1
0
LINE
5
84
100
AcDbEntity
8
1
62
256
6
ByLayer
370
13
48
1
60
0
100
AcDbLine
10
0.100029
20
-2.007286
30
0
11
0
21
-2.007286
31
0
39
0
210
0
220
0
230
1
0
LINE
5
85
100
AcDbEntity
8
1
62
256
6
ByLayer
370
18
48
1
60
0
100
AcDbLine
10
3.25
20
-2.975367
30
0
11
3.25
21
-2.464258
31
0
39
0
210
0
220
0
230
1
0
LINE
5
86
100
AcDbEntity
8
1
62
256
6
ByLayer
370
13
48
1
60
0
100
AcDbLine
10
3.25
20
-2.464258
30
0
11
3.189936
21
-2.464258
31
0
39
0
210
0
220
0
230
1
0
LINE
5
87
100
AcDbEntity
8
1
62
256
6
ByLayer
370
13
48
1
60
0
100
AcDbLine
10
0.410117
20
-2.464258
30
0
11
0
21
-2.464258
31
0
39
0
210
0
220
0
230
1
0
LINE
5
88
100
AcDbEntity
8
1
62
256
6
ByLayer
370
18
48
1
60
0
100
AcDbLine
10
3.25
20
-3.038249
30
0
11
3.25
21
-2.975367
31
0
39
0
210
0
220
0
230
1
0
LINE
5
89
100
AcDbEntity
8
1
62
256
6
ByLayer
370
13
48
1
60
0
100
AcDbLine
10
3.25
20
-2.975367
30
0
11
0
21
-2.975367
31
0
39
0
210
0
220
0
230
1
0
LINE
5
8A
100
AcDbEntity
8
1
62
256
6
ByLayer
370
18
48
1
60
0
100
AcDbLine
10
0.1
20
-3.000043
30
0
11
0.1
21
-3.038249
31
0
39
0
210
0
220
0
230
1
0
LINE
5
8B
100
AcDbEntity
8
1
62
256
6
ByLayer
370
18
48
1
60
0
100
AcDbLine
10
3.25
20
-3.629249
30
0
11
3.25
21
-3.038249
31
0
39
0
210
0
220
0
230
1
0
LINE
5
8C
100
AcDbEntity
8
1
62
256
6
ByLayer
370
13
48
1
60
0
100
AcDbLine
10
3.25
20
-3.038249
30
0
11
0.1
21
-3.038249
31
0
39
0
210
0
220
0
230
1
0
LINE
5
8D
100
AcDbEntity
8
1
62
256
6
ByLayer
370
18
48
1
60
0
100
AcDbLine
10
0.1
20
-3.038249
30
0
11
0.1
21
-3.629249
31
0
39
0
210
0
220
0
230
1
0
LINE
5
8E
100
AcDbEntity
8
1
62
256
6
ByLayer
370
18
48
1
60
0
100
AcDbLine
10
3.304873
20
-2.397197
30
0
11
3.6
21
-2.471025
31
0
39
0
210
0
220
0
230
1
0
LINE
5
8F
100
AcDbEntity
8
1
62
256
6
ByLayer
370
18
48
1
60
0
100
AcDbLine
10
3.6
20
-2.471025
30
0
11
3.6
21
-2.249255
31
0
39
0
210
0
220
0
230
1
0
LINE
5
90
100
AcDbEntity
8
1
62
256
6
ByLayer
370
18
48
1
60
0
100
AcDbLine
10
3.6
20
-3.198256
30
0
11
3.6
21
-2.471025
31
0
39
0
210
0
220
0
230
1
0
LINE
5
91
100
AcDbEntity
8
1
62
256
6
ByLayer
370
18
48
1
60
0
100
AcDbLine
10
3.6
20
-2.471025
30
0
11
3.25
21
-3.610418
31
0
39
0
210
0
220
0
230
1
0
LINE
5
92
100
AcDbEntity
8
1
62
256
6
ByLayer
370
18
48
1
60
0
100
AcDbLine
10
3.25
20
0.074587
30
0
11
3.25
21
1.099249
31
0
39
0
210
0
220
0
230
1
0
LINE
5
93
100
AcDbEntity
8
1
62
256
6
ByLayer
370
18
48
1
60
0
100
AcDbLine
10
0.1
20
1.099249
30
0
11
0.1
21
0.058723
31
0
39
0
210
0
220
0
230
1
0
LINE
5
94
100
AcDbEntity
8
1
62
256
6
ByLayer
370
18
48
1
60
0
100
AcDbLine
10
3.25
20
-4.113086
30
0
11
3.25
21
-3.629249
31
0
39
0
210
0
220
0
230
1
0
LINE
5
95
100
AcDbEntity
8
1
62
256
6
ByLayer
370
13
48
1
60
0
100
AcDbLine
10
3.25
20
-3.629249
30
0
11
0.1
21
-3.629249
31
0
39
0
210
0
220
0
230
1
0
LINE
5
96
100
AcDbEntity
8
1
62
256
6
ByLayer
370
18
48
1
60
0
100
AcDbLine
10
0.1
20
-3.629249
30
0
11
0.1
21
-4.115306
31
0
39
0
210
0
220
0
230
1
0
LINE
5
97
100
AcDbEntity
8
1
62
256
6
ByLayer
370
18
48
1
60
0
100
AcDbLine
10
3.6
20
3.377307
30
0
11
3.6
21
4.153283
31
0
39
0
210
0
220
0
230
1
0
LINE
5
98
100
AcDbEntity
8
1
62
256
6
ByLayer
370
18
48
1
60
0
100
AcDbLine
10
3.6
20
4.153283
30
0
11
0.1
21
4.153283
31
0
39
0
210
0
220
0
230
1
0
LINE
5
99
100
AcDbEntity
8
1
62
256
6
ByLayer
370
18
48
1
60
0
100
AcDbLine
10
0.1
20
4.153283
30
0
11
0.1
21
3.163809
31
0
39
0
210
0
220
0
230
1
0
LINE
5
9A
100
AcDbEntity
8
1
62
256
6
ByLayer
370
18
48
1
60
0
100
AcDbLine
10
3.25
20
3.055375
30
0
11
3.25
21
3.225556
31
0
39
0
210
0
220
0
230
1
0
LINE
5
9B
100
AcDbEntity
8
1
62
256
6
ByLayer
370
18
48
1
60
0
100
AcDbLine
10
0.1
20
4.153283
30
0
11
0.1
21
4.224995
31
0
39
0
210
0
220
0
230
1
0
LINE
5
9C
100
AcDbEntity
8
1
62
256
6
ByLayer
370
18
48
1
60
0
100
AcDbLine
10
0.1
20
4.224995
30
0
11
0.1
21
4.518573
31
0
39
0
210
0
220
0
230
1
0
LINE
5
9D
100
AcDbEntity
8
1
62
256
6
ByLayer
370
18
48
1
60
0
100
AcDbLine
10
0.1
20
4.518573
30
0
11
0.1
21
4.73557
31
0
39
0
210
0
220
0
230
1
0
LINE
5
9E
100
AcDbEntity
8
SK1
62
256
6
ByLayer
370
18
48
1
60
0
100
AcDbLine
10
-0.575
20
2.053354
30
0
11
-0.575
21
0.572491
31
0
39
0
210
0
220
0
230
1
0
LINE
5
A0
100
AcDbEntity
8
SK1
62
256
6
ByLayer
370
18
48
1
60
0
100
AcDbLine
10
-0.575
20
-0.579823
30
0
11
-0.575
21
0.5818
31
0
39
0
210
0
220
0
230
1
0
LINE
5
A1
100
AcDbEntity
8
SK1
62
256
6
ByLayer
370
18
48
1
60
0
100
AcDbLine
10
-0.575
20
2.053354
30
0
11
-0.575
21
2.713876
31
0
39
0
210
0
220
0
230
1
0
LINE
5
A2
100
AcDbEntity
8
SK1
62
256
6
ByLayer
370
18
48
1
60
0
100
AcDbLine
10
-0.575
20
2.713876
30
0
11
-0.575
21
2.978127
31
0
39
0
210
0
220
0
230
1
0
LINE
5
A3
100
AcDbEntity
8
SK1
62
256
6
ByLayer
370
18
48
1
60
0
100
AcDbLine
10
-0.575
20
2.978127
30
0
11
-0.262163
21
3.055375
31
0
39
0
210
0
220
0
230
1
0
LINE
5
A4
100
AcDbEntity
8
SK1
62
256
6
ByLayer
370
18
48
1
60
0
100
AcDbLine
10
-0.575
20
-2.110654
30
0
11
-0.262163
21
-2.007286
31
0
39
0
210
0
220
0
230
1
0
LINE
5
A5
100
AcDbEntity
8
1
62
256
6
ByLayer
370
13
48
1
60
0
100
AcDbLine
10
3.216783
20
-0.291647
30
0
11
0.383137
21
-0.291647
31
0
39
0
210
0
220
0
230
1
0
LINE
5
A6
100
AcDbEntity
8
SK1
62
256
6
ByLayer
370
18
48
1
60
0
100
AcDbLine
10
-0.575
20
-2.920827
30
0
11
-0.575
21
-2.464258
31
0
39
0
210
0
220
0
230
1
0
LINE
5
A7
100
AcDbEntity
8
SK1
62
256
6
ByLayer
370
18
48
1
60
0
100
AcDbLine
10
-0.575
20
-2.464258
30
0
11
-0.575
21
-2.110654
31
0
39
0
210
0
220
0
230
1
0
LINE
5
A8
100
AcDbEntity
8
SK1
62
256
6
ByLayer
370
18
48
1
60
0
100
AcDbLine
10
-0.575
20
-2.110654
30
0
11
-0.575
21
-0.572491
31
0
39
0
210
0
220
0
230
1
0
LINE
5
A9
100
AcDbEntity
8
1
62
256
6
ByLayer
370
18
48
1
60
0
100
AcDbLine
10
3.6
20
-1.211133
30
0
11
3.6
21
-0.738975
31
0
39
0
210
0
220
0
230
1
0
LINE
5
AA
100
AcDbEntity
8
1
62
256
6
ByLayer
370
18
48
1
60
0
100
AcDbLine
10
3.6
20
-0.738975
30
0
11
3.25
21
0.400946
31
0
39
0
210
0
220
0
230
1
0
LINE
5
AB
100
AcDbEntity
8
1
62
256
6
ByLayer
370
18
48
1
60
0
100
AcDbLine
10
3.25
20
3.007927
30
0
11
3.6
21
3.21
31
0
39
0
210
0
220
0
230
1
0
LINE
5
AC
100
AcDbEntity
8
1
62
256
6
ByLayer
370
18
48
1
60
0
100
AcDbLine
10
3.6
20
3.21
30
0
11
3.6
21
3.377307
31
0
39
0
210
0
220
0
230
1
0
LINE
5
AD
100
AcDbEntity
8
1
62
256
6
ByLayer
370
18
48
1
60
0
100
AcDbLine
10
2.4
20
-2.925
30
0
11
1.2
21
-2.925
31
0
39
0
210
0
220
0
230
1
0
LINE
5
AE
100
AcDbEntity
8
1
62
256
6
ByLayer
370
18
48
1
60
0
100
AcDbLine
10
3.6
20
4.153283
30
0
11
3.6
21
4.224995
31
0
39
0
210
0
220
0
230
1
0
LINE
5
AF
100
AcDbEntity
8
1
62
256
6
ByLayer
370
13
48
1
60
0
100
AcDbLine
10
0.1
20
4.518573
30
0
11
3.6
21
4.518573
31
0
39
0
210
0
220
0
230
1
0
LINE
5
B0
100
AcDbEntity
8
1
62
256
6
ByLayer
370
18
48
1
60
0
100
AcDbLine
10
3.6
20
4.518573
30
0
11
3.6
21
4.634214
31
0
39
0
210
0
220
0
230
1
0
LINE
5
B1
100
AcDbEntity
8
1
62
256
6
ByLayer
370
18
48
1
60
0
100
AcDbLine
10
2.4
20
5.85
30
0
11
1.2
21
5.85
31
0
39
0
210
0
220
0
230
1
0
LINE
5
B2
100
AcDbEntity
8
1
62
256
6
ByLayer
370
13
48
1
60
0
100
AcDbLine
10
0.1
20
4.224995
30
0
11
3.6
21
4.224995
31
0
39
0
210
0
220
0
230
1
0
LINE
5
B3
100
AcDbEntity
8
1
62
256
6
ByLayer
370
18
48
1
60
0
100
AcDbLine
10
3.6
20
4.224995
30
0
11
3.6
21
4.518573
31
0
39
0
210
0
220
0
230
1
0
LINE
5
B4
100
AcDbEntity
8
SK1
62
256
6
ByLayer
370
13
48
1
60
0
100
AcDbLine
10
0
20
3.055375
30
0
11
-0.262163
21
3.055375
31
0
39
0
210
0
220
0
230
1
0
LINE
5
B5
100
AcDbEntity
8
SK1
62
256
6
ByLayer
370
13
48
1
60
0
100
AcDbLine
10
0
20
2.713876
30
0
11
-0.575
21
2.713876
31
0
39
0
210
0
220
0
230
1
0
LINE
5
B6
100
AcDbEntity
8
SK1
62
256
6
ByLayer
370
13
48
1
60
0
100
AcDbLine
10
0
20
1.81994
30
0
11
-0.076247
21
1.81994
31
0
39
0
210
0
220
0
230
1
0
LINE
5
B7
100
AcDbEntity
8
SK1
62
256
6
ByLayer
370
13
48
1
60
0
100
AcDbLine
10
0
20
-2.007286
30
0
11
-0.262163
21
-2.007286
31
0
39
0
210
0
220
0
230
1
0
LINE
5
B8
100
AcDbEntity
8
SK1
62
256
6
ByLayer
370
13
48
1
60
0
100
AcDbLine
10
0
20
-2.464258
30
0
11
-0.575
21
-2.464258
31
0
39
0
210
0
220
0
230
1
0
LINE
5
B9
100
AcDbEntity
8
SK1
62
256
6
ByLayer
370
13
48
1
60
0
100
AcDbLine
10
0
20
-2.975367
30
0
11
-0.076247
21
-2.975367
31
0
39
0
210
0
220
0
230
1
0
LINE
5
BA
100
AcDbEntity
8
1
62
256
6
ByLayer
370
18
48
1
60
0
100
AcDbLine
10
0
20
-2.983526
30
0
11
0
21
3.130065
31
0
39
0
210
0
220
0
230
1
0
LINE
5
BB
100
AcDbEntity
8
80
62
256
6
ByLayer
370
18
48
1
60
0
100
AcDbLine
10
0
20
0
30
0
11
-0.481728
21
0
31
0
39
0
210
0
220
0
230
1
0
LINE
5
BC
100
AcDbEntity
8
81
62
256
6
ByLayer
370
18
48
1
60
0
100
AcDbLine
10
3.6
20
5.85
30
0
11
4.139378
21
5.85
31
0
39
0
210
0
220
0
230
1
0
LINE
5
BD
100
AcDbEntity
8
4
62
256
6
ByLayer
370
18
48
0.05
60
0
100
AcDbLine
10
0
20
0
30
0
11
3.821513
21
0
31
0
39
0
210
0
220
0
230
1
0
LINE
5
BF
100
AcDbEntity
8
SK4
62
256
6
ByLayer
370
18
48
0.05
60
0
100
AcDbLine
10
-1
20
0
30
0
11
4.191607
21
0
31
0
39
0
210
0
220
0
230
1
0
MTEXT
5
E4
100
AcDbEntity
8
SK6
62
256
6
ByLayer
370
18
48
1
60
0
100
AcDbMText
10
-24.281024
20
-20.048102
30
0
210
0
220
0
230
1
1
\W0.7082;327R06-12 12045-CH
40
3.5
41
0
44
1.084337
50
0
71
7
72
5
7
iso_b_vert
0
DIMENSION
5
F0
100
AcDbEntity
8
2
62
256
6
ByLayer
370
13
48
1
60
0
100
AcDbDimension
2
DimnDraft3D1
10
15.622782
20
-5.85
30
0
11
15.622782
21
-10.45518
31
0
70
32
71
5
72
1
41
1
210
0
220
0
230
1
3
Standard
100
AcDbAlignedDimension
13
3.5
23
-5.85
33
0
14
0
24
0
34
0
50
90
100
AcDbRotatedDimension
1001
ACAD
1000
DSTYLE
1002
{
1070
    74
1070
     0
1070
   279
1070
     0
1070
   172
1070
     1
1070
   173
1070
     1
1070
   340
1005
E5
1070
    76
1070
     1
1070
   271
1070
     2
1070
   272
1070
     2
1070
    77
1070
     1
1070
    73
1070
     0
1070
   171
1070
     3
1070
   274
1070
     4
1070
   282
1070
     1
1070
   177
1070
     7
1070
   176
1070
     7
1070
   178
1070
     7
1070
    78
1070
     8
1070
    48
1040
-0.005
1070
    41
1041
3.5
1070
   147
1041
1.75
1070
    42
1041
1.5875
1070
    44
1041
2.0
1070
   140
1041
3.5
1070
   343
1005
0
1070
   344
1005
0
1002
}
0
DIMENSION
5
FB
100
AcDbEntity
8
SK2
62
256
6
ByLayer
370
13
48
1
60
0
100
AcDbDimension
2
DimnDraft3D2
10
-18.605407
20
-3
30
0
11
-18.605407
21
-6.315986
31
0
70
32
71
5
72
1
41
1
210
0
220
0
230
1
3
Standard
100
AcDbAlignedDimension
13
-1.5875
23
3
33
0
14
-1.5875
24
-3
34
0
50
90
100
AcDbRotatedDimension
1001
ACAD
1000
DSTYLE
1002
{
1070
    74
1070
     0
1070
   279
1070
     0
1070
   172
1070
     1
1070
   173
1070
     1
1070
   340
1005
E5
1070
   271
1070
     2
1070
   272
1070
     2
1070
    77
1070
     1
1070
    73
1070
     0
1070
   171
1070
     3
1070
   274
1070
     4
1070
   177
1070
     7
1070
   176
1070
     7
1070
   178
1070
     7
1070
    78
1070
     8
1070
    48
1040
-0.005
1070
    41
1041
3.5
1070
   147
1041
1.75
1070
    42
1041
1.5875
1070
    44
1041
2.0
1070
   140
1041
3.5
1070
   343
1005
0
1070
   344
1005
0
1002
}
0
DIMENSION
5
105
100
AcDbEntity
8
2
62
256
6
ByLayer
370
13
48
1
60
0
100
AcDbDimension
2
DimnDraft3D3
10
3.6
20
22.928942
30
0
11
8.146072
21
22.928942
31
0
70
32
71
5
72
1
41
1
210
0
220
0
230
1
3
Standard
100
AcDbAlignedDimension
13
0
23
4.717565
33
0
14
3.6
24
5.740783
34
0
50
0
100
AcDbRotatedDimension
1001
ACAD
1000
DSTYLE
1002
{
1070
   279
1070
     0
1070
   172
1070
     1
1070
   173
1070
     1
1070
   340
1005
E5
1070
   271
1070
     2
1070
   272
1070
     2
1070
    77
1070
     1
1070
    73
1070
     0
1070
   171
1070
     3
1070
   274
1070
     4
1070
   177
1070
     7
1070
   176
1070
     7
1070
   178
1070
     7
1070
    78
1070
     8
1070
    48
1040
-0.005
1070
    41
1041
3.5
1070
   147
1041
1.75
1070
    42
1041
1.5875
1070
    44
1041
2.0
1070
   140
1041
3.5
1070
   343
1005
0
1070
   344
1005
0
1002
}
0
DIMENSION
5
10F
100
AcDbEntity
8
2
62
256
6
ByLayer
370
13
48
1
60
0
100
AcDbDimension
2
DimnDraft3D4
10
1.2
20
10.073012
30
0
11
8.535842
21
10.073012
31
0
70
32
71
5
72
1
41
1
210
0
220
0
230
1
3
Standard
100
AcDbAlignedDimension
13
2.4
23
7.4375
33
0
14
1.2
24
7.4375
34
0
50
0
100
AcDbRotatedDimension
1001
ACAD
1000
DSTYLE
1002
{
1070
   279
1070
     0
1070
   172
1070
     1
1070
   173
1070
     1
1070
   340
1005
E5
1070
   271
1070
     2
1070
   272
1070
     2
1070
    77
1070
     1
1070
    73
1070
     0
1070
   171
1070
     3
1070
   274
1070
     4
1070
   177
1070
     7
1070
   176
1070
     7
1070
   178
1070
     7
1070
    78
1070
     8
1070
    48
1040
-0.005
1070
    41
1041
3.5
1070
   147
1041
1.75
1070
    42
1041
1.5875
1070
    44
1041
2.0
1070
   140
1041
3.5
1070
   343
1005
0
1070
   344
1005
0
1002
}
0
DIMENSION
5
123
100
AcDbEntity
8
SK2
62
256
6
ByLayer
370
13
48
1
60
0
100
AcDbDimension
2
DimnDraft3D6
10
1.8
20
16.815504
30
0
11
8.146072
21
16.815504
31
0
70
32
71
5
72
1
41
1
210
0
220
0
230
1
3
Standard
100
AcDbAlignedDimension
13
0
23
1.5875
33
0
14
1.8
24
7.4375
34
0
50
0
100
AcDbRotatedDimension
1001
ACAD
1000
DSTYLE
1002
{
1070
   279
1070
     0
1070
   172
1070
     1
1070
   173
1070
     1
1070
   340
1005
E5
1070
   271
1070
     2
1070
   272
1070
     2
1070
    77
1070
     1
1070
    73
1070
     0
1070
   171
1070
     3
1070
   274
1070
     4
1070
   177
1070
     7
1070
   176
1070
     7
1070
   178
1070
     7
1070
    78
1070
     8
1070
    48
1040
-0.005
1070
    41
1041
3.5
1070
   147
1041
1.75
1070
    42
1041
1.5875
1070
    44
1041
2.0
1070
   140
1041
3.5
1070
   343
1005
0
1070
   344
1005
0
1002
}
0
ENDSEC
0
SECTION
2
OBJECTS
0
DICTIONARY
5
18e
330
0
100
AcDbDictionary
280
0
281
1
3
ACAD_GROUP
350
18f
3
ACAD_MLINESTYLE
350
190
0
DICTIONARY
5
18f
330
0
100
AcDbDictionary
280
0
281
1
0
DICTIONARY
5
190
330
0
100
AcDbDictionary
280
0
281
1
3
Standard
350
18
0
MLINESTYLE
5
18
330
190
100
AcDbMlineStyle
2
Standard
70
0
3

62
256
51
90
52
90
71
2
49
-0.5
62
256
6
ByLayer
49
0.5
62
256
6
ByLayer
0
RASTERVARIABLES
5
17c
330

100
AcDbRasterVariables
90
0
70
1
71
1
72
1
0
ENDSEC
0
EOF
