  0
SECTION
  2
HEADER
  9
$ACADVER
  1
AC1015
  9
$ACADMAINTVER
 70
     6
  9
$DWGCODEPAGE
  3
ANSI_1252
  9
$INSBASE
 10
0.0
 20
0.0
 30
0.0
  9
$EXTMIN
 10
1.000000000000000E+20
 20
1.000000000000000E+20
 30
1.000000000000000E+20
  9
$EXTMAX
 10
-1.000000000000000E+20
 20
-1.000000000000000E+20
 30
-1.000000000000000E+20
  9
$LIMMIN
 10
-170.0
 20
-170.0
  9
$LIMMAX
 10
519.0
 20
260.0
  9
$ORTHOMODE
 70
     0
  9
$REGENMODE
 70
     1
  9
$FILLMODE
 70
     1
  9
$QTEXTMODE
 70
     0
  9
$MIRRTEXT
 70
     0
  9
$LTSCALE
 40
1.0
  9
$ATTMODE
 70
     1
  9
$TEXTSIZE
 40
3.5
  9
$TRACEWID
 40
1.0
  9
$TEXTSTYLE
  7
SIMPLEX
  9
$CLAYER
  8
1
  9
$CELTYPE
  6
BYLAYER
  9
$CECOLOR
 62
   256
  9
$CELTSCALE
 40
1.0
  9
$DISPSILH
 70
     0
  9
$DIMSCALE
 40
1.0
  9
$DIMASZ
 40
2.5
  9
$DIMEXO
 40
0.0
  9
$DIMDLI
 40
3.75
  9
$DIMRND
 40
0.0
  9
$DIMDLE
 40
0.0
  9
$DIMEXE
 40
1.25
  9
$DIMTP
 40
0.0
  9
$DIMTM
 40
0.0
  9
$DIMTXT
 40
3.5
  9
$DIMCEN
 40
0.0
  9
$DIMTSZ
 40
0.0
  9
$DIMTOL
 70
     0
  9
$DIMLIM
 70
     0
  9
$DIMTIH
 70
     0
  9
$DIMTOH
 70
     0
  9
$DIMSE1
 70
     0
  9
$DIMSE2
 70
     0
  9
$DIMTAD
 70
     1
  9
$DIMZIN
 70
     8
  9
$DIMBLK
  1

  9
$DIMASO
 70
     1
  9
$DIMSHO
 70
     1
  9
$DIMPOST
  1

  9
$DIMAPOST
  1

  9
$DIMALT
 70
     0
  9
$DIMALTD
 70
     3
  9
$DIMALTF
 40
0.039370078
  9
$DIMLFAC
 40
1.0
  9
$DIMTOFL
 70
     0
  9
$DIMTVP
 40
0.0
  9
$DIMTIX
 70
     0
  9
$DIMSOXD
 70
     0
  9
$DIMSAH
 70
     0
  9
$DIMBLK1
  1

  9
$DIMBLK2
  1

  9
$DIMSTYLE
  2
STANDARD
  9
$DIMCLRD
 70
     0
  9
$DIMCLRE
 70
     0
  9
$DIMCLRT
 70
     0
  9
$DIMTFAC
 40
1.0
  9
$DIMGAP
 40
0.625
  9
$DIMJUST
 70
     0
  9
$DIMSD1
 70
     0
  9
$DIMSD2
 70
     0
  9
$DIMTOLJ
 70
     0
  9
$DIMTZIN
 70
     8
  9
$DIMALTZ
 70
     0
  9
$DIMALTTZ
 70
     0
  9
$DIMUPT
 70
     0
  9
$DIMDEC
 70
     2
  9
$DIMTDEC
 70
     2
  9
$DIMALTU
 70
     2
  9
$DIMALTTD
 70
     3
  9
$DIMTXSTY
  7
SIMPLEX
  9
$DIMAUNIT
 70
     0
  9
$DIMADEC
 70
     2
  9
$DIMALTRND
 40
0.0
  9
$DIMAZIN
 70
     2
  9
$DIMDSEP
 70
    46
  9
$DIMATFIT
 70
     3
  9
$DIMFRAC
 70
     0
  9
$DIMLDRBLK
  1

  9
$DIMLUNIT
 70
     2
  9
$DIMLWD
 70
    -2
  9
$DIMLWE
 70
    -2
  9
$DIMTMOVE
 70
     0
  9
$LUNITS
 70
     2
  9
$LUPREC
 70
     4
  9
$SKETCHINC
 40
1.0
  9
$FILLETRAD
 40
0.0
  9
$AUNITS
 70
     0
  9
$AUPREC
 70
     0
  9
$MENU
  1
c:\tdm21\cad\caduti13\tdm13
  9
$ELEVATION
 40
0.0
  9
$PELEVATION
 40
0.0
  9
$THICKNESS
 40
0.0
  9
$LIMCHECK
 70
     0
  9
$CHAMFERA
 40
0.0
  9
$CHAMFERB
 40
0.0
  9
$CHAMFERC
 40
0.0
  9
$CHAMFERD
 40
0.0
  9
$SKPOLY
 70
     0
  9
$TDCREATE
 40
2454957.551975972
  9
$TDUCREATE
 40
2454957.510309306
  9
$TDUPDATE
 40
2457375.493925741
  9
$TDUUPDATE
 40
2457375.452259074
  9
$TDINDWG
 40
0.0009643519
  9
$TDUSRTIMER
 40
0.0009475231
  9
$USRTIMER
 70
     1
  9
$ANGBASE
 50
0.0
  9
$ANGDIR
 70
     0
  9
$PDMODE
 70
     1
  9
$PDSIZE
 40
0.0
  9
$PLINEWID
 40
0.0
  9
$SPLFRAME
 70
     0
  9
$SPLINETYPE
 70
     6
  9
$SPLINESEGS
 70
     8
  9
$HANDSEED
  5
57A
  9
$SURFTAB1
 70
     6
  9
$SURFTAB2
 70
     6
  9
$SURFTYPE
 70
     6
  9
$SURFU
 70
     6
  9
$SURFV
 70
     6
  9
$UCSBASE
  2

  9
$UCSNAME
  2

  9
$UCSORG
 10
0.0
 20
0.0
 30
0.0
  9
$UCSXDIR
 10
1.0
 20
0.0
 30
0.0
  9
$UCSYDIR
 10
0.0
 20
1.0
 30
0.0
  9
$UCSORTHOREF
  2

  9
$UCSORTHOVIEW
 70
     0
  9
$UCSORGTOP
 10
0.0
 20
0.0
 30
0.0
  9
$UCSORGBOTTOM
 10
0.0
 20
0.0
 30
0.0
  9
$UCSORGLEFT
 10
0.0
 20
0.0
 30
0.0
  9
$UCSORGRIGHT
 10
0.0
 20
0.0
 30
0.0
  9
$UCSORGFRONT
 10
0.0
 20
0.0
 30
0.0
  9
$UCSORGBACK
 10
0.0
 20
0.0
 30
0.0
  9
$PUCSBASE
  2

  9
$PUCSNAME
  2

  9
$PUCSORG
 10
0.0
 20
0.0
 30
0.0
  9
$PUCSXDIR
 10
1.0
 20
0.0
 30
0.0
  9
$PUCSYDIR
 10
0.0
 20
1.0
 30
0.0
  9
$PUCSORTHOREF
  2

  9
$PUCSORTHOVIEW
 70
     0
  9
$PUCSORGTOP
 10
0.0
 20
0.0
 30
0.0
  9
$PUCSORGBOTTOM
 10
0.0
 20
0.0
 30
0.0
  9
$PUCSORGLEFT
 10
0.0
 20
0.0
 30
0.0
  9
$PUCSORGRIGHT
 10
0.0
 20
0.0
 30
0.0
  9
$PUCSORGFRONT
 10
0.0
 20
0.0
 30
0.0
  9
$PUCSORGBACK
 10
0.0
 20
0.0
 30
0.0
  9
$USERI1
 70
     0
  9
$USERI2
 70
     0
  9
$USERI3
 70
     0
  9
$USERI4
 70
     0
  9
$USERI5
 70
     0
  9
$USERR1
 40
0.0
  9
$USERR2
 40
0.0
  9
$USERR3
 40
0.0
  9
$USERR4
 40
0.0
  9
$USERR5
 40
0.0
  9
$WORLDVIEW
 70
     1
  9
$SHADEDGE
 70
     3
  9
$SHADEDIF
 70
    70
  9
$TILEMODE
 70
     1
  9
$MAXACTVP
 70
    64
  9
$PINSBASE
 10
0.0
 20
0.0
 30
0.0
  9
$PLIMCHECK
 70
     0
  9
$PEXTMIN
 10
0.0
 20
0.0
 30
0.0
  9
$PEXTMAX
 10
0.0
 20
0.0
 30
0.0
  9
$PLIMMIN
 10
0.0
 20
0.0
  9
$PLIMMAX
 10
12.0
 20
9.0
  9
$UNITMODE
 70
     0
  9
$VISRETAIN
 70
     0
  9
$PLINEGEN
 70
     0
  9
$PSLTSCALE
 70
     1
  9
$TREEDEPTH
 70
  3020
  9
$CMLSTYLE
  2
STANDARD
  9
$CMLJUST
 70
     0
  9
$CMLSCALE
 40
20.0
  9
$PROXYGRAPHICS
 70
     1
  9
$MEASUREMENT
 70
     1
  9
$CELWEIGHT
370
    -1
  9
$ENDCAPS
280
     0
  9
$JOINSTYLE
280
     0
  9
$LWDISPLAY
290
     0
  9
$INSUNITS
 70
     4
  9
$HYPERLINKBASE
  1

  9
$STYLESHEET
  1
MONOCHROME.CTB
  9
$XEDIT
290
     1
  9
$CEPSNTYPE
380
     0
  9
$PSTYLEMODE
290
     1
  9
$FINGERPRINTGUID
  2
{46B44192-1510-48B1-B61B-CBE2ADA013A7}
  9
$VERSIONGUID
  2
{6160D478-9A74-4C97-9D8A-D4A65CE74B12}
  9
$EXTNAMES
290
     1
  9
$PSVPSCALE
 40
0.0
  9
$OLESTARTUP
290
     0
  0
ENDSEC
  0
SECTION
  2
CLASSES
  0
CLASS
  1
ACDBDICTIONARYWDFLT
  2
AcDbDictionaryWithDefault
  3
ObjectDBX Classes
 90
        0
280
     0
281
     0
  0
CLASS
  1
ACDBPLACEHOLDER
  2
AcDbPlaceHolder
  3
ObjectDBX Classes
 90
        0
280
     0
281
     0
  0
CLASS
  1
LAYOUT
  2
AcDbLayout
  3
ObjectDBX Classes
 90
        0
280
     0
281
     0
  0
CLASS
  1
DICTIONARYVAR
  2
AcDbDictionaryVar
  3
ObjectDBX Classes
 90
        0
280
     0
281
     0
  0
CLASS
  1
TABLESTYLE
  2
AcDbTableStyle
  3
ObjectDBX Classes
 90
     4095
280
     0
281
     0
  0
CLASS
  1
SCALE
  2
AcDbScale
  3
ObjectDBX Classes
 90
     1153
280
     0
281
     0
  0
CLASS
  1
VISUALSTYLE
  2
AcDbVisualStyle
  3
ObjectDBX Classes
 90
     4095
280
     0
281
     0
  0
CLASS
  1
MATERIAL
  2
AcDbMaterial
  3
ObjectDBX Classes
 90
     1153
280
     0
281
     0
  0
CLASS
  1
MLEADERSTYLE
  2
AcDbMLeaderStyle
  3
ACDB_MLEADERSTYLE_CLASS
 90
     4095
280
     0
281
     0
  0
ENDSEC
  0
SECTION
  2
TABLES
  0
TABLE
  2
VPORT
  5
8
102
{ACAD_XDICTIONARY
360
53E
102
}
330
0
100
AcDbSymbolTable
 70
     1
  0
VPORT
  5
39A
330
8
100
AcDbSymbolTableRecord
100
AcDbViewportTableRecord
  2
*Active
 70
     0
 10
0.0
 20
0.0
 11
1.0
 21
1.0
 12
218.9201881351169
 22
109.7549380673833
 13
0.0
 23
0.0
 14
5.0
 24
5.0
 15
5.0
 25
5.0
 16
0.0
 26
0.0
 36
1.0
 17
0.0
 27
0.0
 37
0.0
 40
564.6711112651689
 41
1.066073697585768
 42
50.0
 43
0.0
 44
0.0
 50
0.0
 51
0.0
 71
     0
 72
  2000
 73
     1
 74
     1
 75
     0
 76
     0
 77
     0
 78
     0
281
     0
 65
     1
110
0.0
120
0.0
130
0.0
111
1.0
121
0.0
131
0.0
112
0.0
122
1.0
132
0.0
 79
     0
146
0.0
  0
ENDTAB
  0
TABLE
  2
LTYPE
  5
5
330
0
100
AcDbSymbolTable
 70
     3
  0
LTYPE
  5
12
330
5
100
AcDbSymbolTableRecord
100
AcDbLinetypeTableRecord
  2
BYBLOCK
 70
     0
  3

 72
    65
 73
     0
 40
0.0
  0
LTYPE
  5
13
330
5
100
AcDbSymbolTableRecord
100
AcDbLinetypeTableRecord
  2
BYLAYER
 70
     0
  3

 72
    65
 73
     0
 40
0.0
  0
LTYPE
  5
14
330
5
100
AcDbSymbolTableRecord
100
AcDbLinetypeTableRecord
  2
CONTINUOUS
 70
     0
  3
Solid line
 72
    65
 73
     0
 40
0.0
  0
LTYPE
  5
20
330
5
100
AcDbSymbolTableRecord
100
AcDbLinetypeTableRecord
  2
HIDDEN
 70
     0
  3
Hidden __ __ __ __ __ __ __ __ __ __ __ __ __ _
 72
    65
 73
     2
 40
9.524999999999997
 49
6.349999999999998
 74
     0
 49
-3.174999999999998
 74
     0
  0
LTYPE
  5
351
330
5
100
AcDbSymbolTableRecord
100
AcDbLinetypeTableRecord
  2
CENTER
 70
     0
  3
Dash dot __ . __ . __ . __ . __ . __ . __ . __
 72
    65
 73
     4
 40
25.4
 49
12.7
 74
     0
 49
-6.349999999999998
 74
     0
 49
0.0
 74
     0
 49
-6.349999999999998
 74
     0
  0
ENDTAB
  0
TABLE
  2
LAYER
  5
2
330
0
100
AcDbSymbolTable
 70
    16
  0
LAYER
  5
F
330
2
100
AcDbSymbolTableRecord
100
AcDbLayerTableRecord
  2
0
 70
     0
 62
     7
  6
CONTINUOUS
370
    -3
390
300
  0
LAYER
  5
23
330
2
100
AcDbSymbolTableRecord
100
AcDbLayerTableRecord
  2
1
 70
     0
 62
     4
  6
CONTINUOUS
370
    -3
390
300
  0
LAYER
  5
24
330
2
100
AcDbSymbolTableRecord
100
AcDbLayerTableRecord
  2
SK1
 70
     0
 62
     4
  6
CONTINUOUS
370
    -3
390
300
  0
LAYER
  5
25
330
2
100
AcDbSymbolTableRecord
100
AcDbLayerTableRecord
  2
2
 70
     0
 62
     7
  6
CONTINUOUS
370
    -3
390
300
  0
LAYER
  5
26
330
2
100
AcDbSymbolTableRecord
100
AcDbLayerTableRecord
  2
2L
 70
     0
 62
     7
  6
CONTINUOUS
370
    -3
390
300
  0
LAYER
  5
27
330
2
100
AcDbSymbolTableRecord
100
AcDbLayerTableRecord
  2
SK2
 70
     0
 62
     7
  6
CONTINUOUS
370
    -3
390
300
  0
LAYER
  5
28
330
2
100
AcDbSymbolTableRecord
100
AcDbLayerTableRecord
  2
3
 70
     0
 62
     1
  6
HIDDEN
370
    -3
390
300
  0
LAYER
  5
29
330
2
100
AcDbSymbolTableRecord
100
AcDbLayerTableRecord
  2
SK3
 70
     0
 62
     1
  6
HIDDEN
370
    -3
390
300
  0
LAYER
  5
2A
330
2
100
AcDbSymbolTableRecord
100
AcDbLayerTableRecord
  2
4
 70
     0
 62
     2
  6
CENTER
370
    -3
390
300
  0
LAYER
  5
2B
330
2
100
AcDbSymbolTableRecord
100
AcDbLayerTableRecord
  2
SK4
 70
     0
 62
     2
  6
CENTER
370
    -3
390
300
  0
LAYER
  5
2C
330
2
100
AcDbSymbolTableRecord
100
AcDbLayerTableRecord
  2
5
 70
     0
 62
    -7
  6
CONTINUOUS
370
    -3
390
300
  0
LAYER
  5
2D
330
2
100
AcDbSymbolTableRecord
100
AcDbLayerTableRecord
  2
6
 70
     0
 62
     5
  6
CONTINUOUS
370
    -3
390
300
  0
LAYER
  5
2E
330
2
100
AcDbSymbolTableRecord
100
AcDbLayerTableRecord
  2
SK6
 70
     0
 62
     5
  6
CONTINUOUS
370
    -3
390
300
  0
LAYER
  5
2F
330
2
100
AcDbSymbolTableRecord
100
AcDbLayerTableRecord
  2
DEFPOINTS
 70
     0
 62
     7
  6
CONTINUOUS
290
     0
370
    -3
390
300
  0
LAYER
  5
375
330
2
100
AcDbSymbolTableRecord
100
AcDbLayerTableRecord
  2
CUT
 70
     0
 62
     1
  6
CONTINUOUS
370
    -3
390
300
  0
LAYER
  5
376
330
2
100
AcDbSymbolTableRecord
100
AcDbLayerTableRecord
  2
NOCUT
 70
     0
 62
     7
  6
CONTINUOUS
370
    -3
390
300
  0
ENDTAB
  0
TABLE
  2
STYLE
  5
3
330
0
100
AcDbSymbolTable
 70
     4
  0
STYLE
  5
10
330
3
100
AcDbSymbolTableRecord
100
AcDbTextStyleTableRecord
  2
STANDARD
 70
     0
 40
0.0
 41
1.0
 50
0.0
 71
     0
 42
5.0
  3
txt
  4

  0
STYLE
  5
1D
330
3
100
AcDbSymbolTableRecord
100
AcDbTextStyleTableRecord
  2
TXT
 70
     0
 40
8.0
 41
1.0
 50
0.0
 71
     0
 42
8.0
  3
txt
  4

  0
STYLE
  5
1E
330
3
100
AcDbSymbolTableRecord
100
AcDbTextStyleTableRecord
  2
SIMPLEX
 70
     0
 40
0.0
 41
1.0
 50
0.0
 71
     0
 42
3.5
  3
simplex
  4

  0
STYLE
  5
34C
330
3
100
AcDbSymbolTableRecord
100
AcDbTextStyleTableRecord
  2

 70
     1
 40
0.0
 41
1.0
 50
0.0
 71
     0
 42
2.5
  3
ltypeshp.shx
  4

  0
ENDTAB
  0
TABLE
  2
VIEW
  5
6
330
0
100
AcDbSymbolTable
 70
     0
  0
ENDTAB
  0
TABLE
  2
UCS
  5
7
330
0
100
AcDbSymbolTable
 70
     0
  0
ENDTAB
  0
TABLE
  2
APPID
  5
9
330
0
100
AcDbSymbolTable
 70
     2
  0
APPID
  5
11
330
9
100
AcDbSymbolTableRecord
100
AcDbRegAppTableRecord
  2
ACAD
 70
     0
  0
APPID
  5
577
330
9
100
AcDbSymbolTableRecord
100
AcDbRegAppTableRecord
  2
ACAD_MLEADERVER
 70
     0
  0
ENDTAB
  0
TABLE
  2
DIMSTYLE
  5
A
330
0
100
AcDbSymbolTable
 70
     1
100
AcDbDimStyleTable
  0
DIMSTYLE
105
3F
102
{ACAD_REACTORS
330
4EB
330
4F8
330
505
330
513
330
520
330
52E
102
}
330
A
100
AcDbSymbolTableRecord
100
AcDbDimStyleTableRecord
  2
STANDARD
 70
     0
 41
2.5
 42
0.0
 43
3.75
 44
1.25
 73
     0
 74
     0
 77
     1
 78
     8
 79
     2
140
3.5
141
0.0
143
0.039370078
147
0.625
171
     3
178
     0
179
     2
271
     2
272
     2
274
     3
283
     0
284
     8
340
1E
  0
ENDTAB
  0
TABLE
  2
BLOCK_RECORD
  5
1
330
0
100
AcDbSymbolTable
 70
     6
  0
BLOCK_RECORD
  5
18
330
1
100
AcDbSymbolTableRecord
100
AcDbBlockTableRecord
  2
*MODEL_SPACE
340
303
  0
BLOCK_RECORD
  5
338
330
1
100
AcDbSymbolTableRecord
100
AcDbBlockTableRecord
  2
*Paper_Space
340
33B
  0
BLOCK_RECORD
  5
4EC
330
1
100
AcDbSymbolTableRecord
100
AcDbBlockTableRecord
  2
*D0
340
0
  0
BLOCK_RECORD
  5
4F9
330
1
100
AcDbSymbolTableRecord
100
AcDbBlockTableRecord
  2
*D1
340
0
  0
BLOCK_RECORD
  5
506
330
1
100
AcDbSymbolTableRecord
100
AcDbBlockTableRecord
  2
*D2
340
0
  0
BLOCK_RECORD
  5
514
330
1
100
AcDbSymbolTableRecord
100
AcDbBlockTableRecord
  2
*D3
340
0
  0
BLOCK_RECORD
  5
521
330
1
100
AcDbSymbolTableRecord
100
AcDbBlockTableRecord
  2
*D4
340
0
  0
BLOCK_RECORD
  5
52F
330
1
100
AcDbSymbolTableRecord
100
AcDbBlockTableRecord
  2
*D5
340
0
  0
ENDTAB
  0
ENDSEC
  0
SECTION
  2
BLOCKS
  0
BLOCK
  5
32
330
18
100
AcDbEntity
  8
0
100
AcDbBlockBegin
  2
*MODEL_SPACE
 70
     0
 10
0.0
 20
0.0
 30
0.0
  3
*MODEL_SPACE
  1

  0
ENDBLK
  5
33
330
18
100
AcDbEntity
  8
0
100
AcDbBlockEnd
  0
BLOCK
  5
339
330
338
100
AcDbEntity
 67
     1
  8
0
100
AcDbBlockBegin
  2
*Paper_Space
 70
     0
 10
0.0
 20
0.0
 30
0.0
  3
*Paper_Space
  1

  0
ENDBLK
  5
33A
330
338
100
AcDbEntity
 67
     1
  8
0
100
AcDbBlockEnd
  0
BLOCK
  5
4ED
330
4EC
100
AcDbEntity
  8
0
100
AcDbBlockBegin
  2
*D0
 70
     1
 10
0.0
 20
0.0
 30
0.0
  3
*D0
  1

  0
LINE
  5
4EF
330
4EC
100
AcDbEntity
  8
2
 62
     0
370
    -2
100
AcDbLine
 10
14.5
 20
6.0
 30
0.0
 11
30.74999999999998
 21
6.000000000000057
 31
0.0
  0
LINE
  5
4F0
330
4EC
100
AcDbEntity
  8
2
 62
     0
370
    -2
100
AcDbLine
 10
14.5
 20
-6.0
 30
0.0
 11
30.75000000000002
 21
-5.999999999999943
 31
0.0
  0
LINE
  5
4F1
330
4EC
100
AcDbEntity
  8
2
 62
     0
370
    -2
100
AcDbLine
 10
29.49999999999999
 20
3.500000000000052
 30
0.0
 11
29.50000000000001
 21
-3.499999999999948
 31
0.0
  0
SOLID
  5
4F2
330
4EC
100
AcDbEntity
  8
2
 62
     0
100
AcDbTrace
 10
29.91666666666665
 20
3.500000000000054
 30
0.0
 11
29.08333333333332
 21
3.500000000000051
 31
0.0
 12
29.49999999999998
 22
6.000000000000052
 32
0.0
 13
29.49999999999998
 23
6.000000000000052
 33
0.0
  0
SOLID
  5
4F3
330
4EC
100
AcDbEntity
  8
2
 62
     0
100
AcDbTrace
 10
29.08333333333335
 20
-3.499999999999949
 30
0.0
 11
29.91666666666668
 21
-3.499999999999946
 31
0.0
 12
29.50000000000002
 22
-5.999999999999948
 32
0.0
 13
29.50000000000002
 23
-5.999999999999948
 33
0.0
  0
MTEXT
  5
4F4
330
4EC
100
AcDbEntity
  8
2
 62
     0
100
AcDbMText
 10
27.10925
 20
0.0000000000000439
 30
0.0
 40
3.5
 41
0.0
 71
     5
 72
     1
  1
%%c12
  7
SIMPLEX
 11
-3.552713678800501E-15
 21
1.0
 31
0.0
 73
     1
 44
1.0
  0
POINT
  5
4F5
330
4EC
100
AcDbEntity
  8
DEFPOINTS
 62
     0
100
AcDbPoint
 10
14.5
 20
6.0
 30
0.0
  0
POINT
  5
4F6
330
4EC
100
AcDbEntity
  8
DEFPOINTS
 62
     0
100
AcDbPoint
 10
14.5
 20
-6.0
 30
0.0
  0
POINT
  5
4F7
330
4EC
100
AcDbEntity
  8
DEFPOINTS
 62
     0
100
AcDbPoint
 10
29.50000000000002
 20
-5.999999999999948
 30
0.0
  0
ENDBLK
  5
4EE
330
4EC
100
AcDbEntity
  8
0
100
AcDbBlockEnd
  0
BLOCK
  5
4FA
330
4F9
100
AcDbEntity
  8
0
100
AcDbBlockBegin
  2
*D1
 70
     1
 10
0.0
 20
0.0
 30
0.0
  3
*D1
  1

  0
LINE
  5
4FC
330
4F9
100
AcDbEntity
  8
2
 62
     0
370
    -2
100
AcDbLine
 10
0.0
 20
0.0
 30
0.0
 11
0.0
 21
76.25
 31
0.0
  0
LINE
  5
4FD
330
4F9
100
AcDbEntity
  8
2
 62
     0
370
    -2
100
AcDbLine
 10
14.5
 20
0.0
 30
0.0
 11
14.5
 21
76.25
 31
0.0
  0
LINE
  5
4FE
330
4F9
100
AcDbEntity
  8
2
 62
     0
370
    -2
100
AcDbLine
 10
2.5
 20
75.0
 30
0.0
 11
12.0
 21
75.0
 31
0.0
  0
SOLID
  5
4FF
330
4F9
100
AcDbEntity
  8
2
 62
     0
100
AcDbTrace
 10
2.5
 20
75.41666666666667
 30
0.0
 11
2.5
 21
74.58333333333333
 31
0.0
 12
0.0
 22
75.0
 32
0.0
 13
0.0
 23
75.0
 33
0.0
  0
SOLID
  5
500
330
4F9
100
AcDbEntity
  8
2
 62
     0
100
AcDbTrace
 10
12.0
 20
74.58333333333333
 30
0.0
 11
12.0
 21
75.41666666666667
 31
0.0
 12
14.5
 22
75.0
 32
0.0
 13
14.5
 23
75.0
 33
0.0
  0
MTEXT
  5
501
330
4F9
100
AcDbEntity
  8
2
 62
     0
100
AcDbMText
 10
7.25
 20
77.438
 30
0.0
 40
3.5
 41
0.0
 71
     5
 72
     1
  1
14.5
  7
SIMPLEX
 73
     1
 44
1.0
  0
POINT
  5
502
330
4F9
100
AcDbEntity
  8
DEFPOINTS
 62
     0
100
AcDbPoint
 10
0.0
 20
0.0
 30
0.0
  0
POINT
  5
503
330
4F9
100
AcDbEntity
  8
DEFPOINTS
 62
     0
100
AcDbPoint
 10
14.5
 20
0.0
 30
0.0
  0
POINT
  5
504
330
4F9
100
AcDbEntity
  8
DEFPOINTS
 62
     0
100
AcDbPoint
 10
14.5
 20
75.0
 30
0.0
  0
ENDBLK
  5
4FB
330
4F9
100
AcDbEntity
  8
0
100
AcDbBlockEnd
  0
BLOCK
  5
507
330
506
100
AcDbEntity
  8
0
100
AcDbBlockBegin
  2
*D2
 70
     1
 10
0.0
 20
0.0
 30
0.0
  3
*D2
  1

  0
LINE
  5
509
330
506
100
AcDbEntity
  8
2
 62
     0
370
    -2
100
AcDbLine
 10
8.0
 20
5.85
 30
0.0
 11
8.0
 21
61.25
 31
0.0
  0
LINE
  5
50A
330
506
100
AcDbEntity
  8
2
 62
     0
370
    -2
100
AcDbLine
 10
14.5
 20
6.0
 30
0.0
 11
14.5
 21
61.25
 31
0.0
  0
LINE
  5
50B
330
506
100
AcDbEntity
  8
2
 62
     0
370
    -2
100
AcDbLine
 10
14.5
 20
60.0
 30
0.0
 11
25.376
 21
60.0
 31
0.0
  0
LINE
  5
50C
330
506
100
AcDbEntity
  8
2
 62
     0
370
    -2
100
AcDbLine
 10
10.5
 20
60.0
 30
0.0
 11
12.0
 21
60.0
 31
0.0
  0
SOLID
  5
50D
330
506
100
AcDbEntity
  8
2
 62
     0
100
AcDbTrace
 10
10.5
 20
60.41666666666666
 30
0.0
 11
10.5
 21
59.58333333333334
 31
0.0
 12
8.0
 22
60.0
 32
0.0
 13
8.0
 23
60.0
 33
0.0
  0
SOLID
  5
50E
330
506
100
AcDbEntity
  8
2
 62
     0
100
AcDbTrace
 10
12.0
 20
59.58333333333334
 30
0.0
 11
12.0
 21
60.41666666666666
 31
0.0
 12
14.5
 22
60.0
 32
0.0
 13
14.5
 23
60.0
 33
0.0
  0
MTEXT
  5
50F
330
506
100
AcDbEntity
  8
2
 62
     0
100
AcDbMText
 10
21.188
 20
62.39775
 30
0.0
 40
3.5
 41
0.0
 71
     5
 72
     1
  1
6.5
  7
SIMPLEX
 73
     1
 44
1.0
  0
POINT
  5
510
330
506
100
AcDbEntity
  8
DEFPOINTS
 62
     0
100
AcDbPoint
 10
8.0
 20
5.85
 30
0.0
  0
POINT
  5
511
330
506
100
AcDbEntity
  8
DEFPOINTS
 62
     0
100
AcDbPoint
 10
14.5
 20
6.0
 30
0.0
  0
POINT
  5
512
330
506
100
AcDbEntity
  8
DEFPOINTS
 62
     0
100
AcDbPoint
 10
14.5
 20
60.0
 30
0.0
  0
ENDBLK
  5
508
330
506
100
AcDbEntity
  8
0
100
AcDbBlockEnd
  0
BLOCK
  5
515
330
514
100
AcDbEntity
  8
0
100
AcDbBlockBegin
  2
*D3
 70
     1
 10
0.0
 20
0.0
 30
0.0
  3
*D3
  1

  0
LINE
  5
517
330
514
100
AcDbEntity
  8
SK2
 62
     0
370
    -2
100
AcDbLine
 10
-13.8
 20
0.0
 30
0.0
 11
-13.8
 21
91.25
 31
0.0
  0
LINE
  5
518
330
514
100
AcDbEntity
  8
SK2
 62
     0
370
    -2
100
AcDbLine
 10
14.5
 20
0.0
 30
0.0
 11
14.5
 21
91.25
 31
0.0
  0
LINE
  5
519
330
514
100
AcDbEntity
  8
SK2
 62
     0
370
    -2
100
AcDbLine
 10
-11.3
 20
90.0
 30
0.0
 11
12.0
 21
90.0
 31
0.0
  0
SOLID
  5
51A
330
514
100
AcDbEntity
  8
SK2
 62
     0
100
AcDbTrace
 10
-11.3
 20
90.41666666666667
 30
0.0
 11
-11.3
 21
89.58333333333333
 31
0.0
 12
-13.8
 22
90.0
 32
0.0
 13
-13.8
 23
90.0
 33
0.0
  0
SOLID
  5
51B
330
514
100
AcDbEntity
  8
SK2
 62
     0
100
AcDbTrace
 10
12.0
 20
89.58333333333333
 30
0.0
 11
12.0
 21
90.41666666666667
 31
0.0
 12
14.5
 22
90.0
 32
0.0
 13
14.5
 23
90.0
 33
0.0
  0
MTEXT
  5
51C
330
514
100
AcDbEntity
  8
SK2
 62
     0
100
AcDbMText
 10
0.3499999999999996
 20
92.39775
 30
0.0
 40
3.5
 41
0.0
 71
     5
 72
     1
  1
28.3
  7
SIMPLEX
 73
     1
 44
1.0
  0
POINT
  5
51D
330
514
100
AcDbEntity
  8
DEFPOINTS
 62
     0
100
AcDbPoint
 10
-13.8
 20
0.0
 30
0.0
  0
POINT
  5
51E
330
514
100
AcDbEntity
  8
DEFPOINTS
 62
     0
100
AcDbPoint
 10
14.5
 20
0.0
 30
0.0
  0
POINT
  5
51F
330
514
100
AcDbEntity
  8
DEFPOINTS
 62
     0
100
AcDbPoint
 10
14.5
 20
90.0
 30
0.0
  0
ENDBLK
  5
516
330
514
100
AcDbEntity
  8
0
100
AcDbBlockEnd
  0
BLOCK
  5
522
330
521
100
AcDbEntity
  8
0
100
AcDbBlockBegin
  2
*D4
 70
     1
 10
0.0
 20
0.0
 30
0.0
  3
*D4
  1

  0
LINE
  5
524
330
521
100
AcDbEntity
  8
2
 62
     0
370
    -2
100
AcDbLine
 10
4.0
 20
5.85
 30
0.0
 11
5.350000000000001
 21
5.85
 31
0.0
  0
LINE
  5
525
330
521
100
AcDbEntity
  8
2
 62
     0
370
    -2
100
AcDbLine
 10
4.0
 20
-5.85
 30
0.0
 11
5.350000000000001
 21
-5.85
 31
0.0
  0
LINE
  5
526
330
521
100
AcDbEntity
  8
2
 62
     0
370
    -2
100
AcDbLine
 10
4.100000000000001
 20
-5.85
 30
0.0
 11
4.1
 21
-22.4905
 31
0.0
  0
LINE
  5
527
330
521
100
AcDbEntity
  8
2
 62
     0
370
    -2
100
AcDbLine
 10
4.100000000000001
 20
3.35
 30
0.0
 11
4.100000000000001
 21
-3.35
 31
0.0
  0
SOLID
  5
528
330
521
100
AcDbEntity
  8
2
 62
     0
100
AcDbTrace
 10
4.516666666666668
 20
3.35
 30
0.0
 11
3.683333333333335
 21
3.35
 31
0.0
 12
4.100000000000001
 22
5.85
 32
0.0
 13
4.100000000000001
 23
5.85
 33
0.0
  0
SOLID
  5
529
330
521
100
AcDbEntity
  8
2
 62
     0
100
AcDbTrace
 10
3.683333333333334
 20
-3.35
 30
0.0
 11
4.516666666666667
 21
-3.35
 31
0.0
 12
4.100000000000001
 22
-5.85
 32
0.0
 13
4.100000000000001
 23
-5.85
 33
0.0
  0
MTEXT
  5
52A
330
521
100
AcDbEntity
  8
2
 62
     0
100
AcDbMText
 10
1.702249999999999
 20
-15.42025
 30
0.0
 40
3.5
 41
0.0
 71
     5
 72
     1
  1
%%c11.7
  7
SIMPLEX
 11
7.591268544445515E-17
 21
1.0
 31
0.0
 73
     1
 44
1.0
  0
POINT
  5
52B
330
521
100
AcDbEntity
  8
DEFPOINTS
 62
     0
100
AcDbPoint
 10
4.0
 20
5.85
 30
0.0
  0
POINT
  5
52C
330
521
100
AcDbEntity
  8
DEFPOINTS
 62
     0
100
AcDbPoint
 10
4.0
 20
-5.85
 30
0.0
  0
POINT
  5
52D
330
521
100
AcDbEntity
  8
DEFPOINTS
 62
     0
100
AcDbPoint
 10
4.100000000000001
 20
-5.85
 30
0.0
  0
ENDBLK
  5
523
330
521
100
AcDbEntity
  8
0
100
AcDbBlockEnd
  0
BLOCK
  5
530
330
52F
100
AcDbEntity
  8
0
100
AcDbBlockBegin
  2
*D5
 70
     1
 10
0.0
 20
0.0
 30
0.0
  3
*D5
  1

  0
LINE
  5
532
330
52F
100
AcDbEntity
  8
2
 62
     0
370
    -2
100
AcDbLine
 10
12.86824088833465
 20
-8.42403876506104
 30
0.0
 11
16.6774325889278
 21
-30.02703840407366
 31
0.0
  0
MTEXT
  5
533
330
52F
100
AcDbEntity
  8
2
 62
     0
100
AcDbMText
 10
18.01249464870126
 20
-23.79045966577063
 30
0.0
 40
3.5
 41
0.0
 71
     5
 72
     1
  1
R2.5
  7
SIMPLEX
 11
0.1736481776669301
 21
-0.9848077530122081
 31
0.0
 73
     1
 44
1.0
  0
SOLID
  5
534
330
52F
100
AcDbEntity
  8
2
 62
     0
100
AcDbTrace
 10
13.27857745208974
 20
-8.351685357699818
 30
0.0
 11
12.45790432457956
 21
-8.496392172422262
 31
0.0
 12
12.43412044416733
 22
-5.96201938253052
 32
0.0
 13
12.43412044416733
 23
-5.96201938253052
 33
0.0
  0
POINT
  5
535
330
52F
100
AcDbEntity
  8
DEFPOINTS
 62
     0
100
AcDbPoint
 10
12.43412044416733
 20
-5.96201938253052
 30
0.0
  0
POINT
  5
536
330
52F
100
AcDbEntity
  8
DEFPOINTS
 62
     0
100
AcDbPoint
 10
12.0
 20
-3.5
 30
0.0
  0
ENDBLK
  5
531
330
52F
100
AcDbEntity
  8
0
100
AcDbBlockEnd
  0
ENDSEC
  0
SECTION
  2
ENTITIES
  0
LINE
  5
3E0
330
18
100
AcDbEntity
  8
SK4
100
AcDbLine
 10
-15.8
 20
0.0
 30
0.0
 11
0.0
 21
0.0
 31
0.0
  0
LINE
  5
3E1
330
18
100
AcDbEntity
  8
4
100
AcDbLine
 10
-2.0
 20
0.0
 30
0.0
 11
16.5
 21
0.0
 31
0.0
  0
LINE
  5
3E2
330
18
100
AcDbEntity
  8
SK4
100
AcDbLine
 10
-2.0
 20
0.0
 30
0.0
 11
16.5
 21
0.0
 31
0.0
  0
LINE
  5
3E3
330
18
100
AcDbEntity
  8
1
100
AcDbLine
 10
0.0
 20
5.85
 30
0.0
 11
0.0
 21
5.844183969228168
 31
0.0
  0
LINE
  5
3E4
330
18
100
AcDbEntity
  8
1
100
AcDbLine
 10
0.0
 20
5.844183969228168
 30
0.0
 11
0.0
 21
5.325099318377007
 31
0.0
  0
LINE
  5
3E5
330
18
100
AcDbEntity
  8
1
100
AcDbLine
 10
0.0
 20
5.325099318377007
 30
0.0
 11
0.0
 21
-5.85
 31
0.0
  0
LINE
  5
3E6
330
18
100
AcDbEntity
  8
1
100
AcDbLine
 10
5.500000000000003
 20
-5.48682222164203
 30
0.0
 11
5.500000000000002
 21
-5.85
 31
0.0
  0
LINE
  5
3E7
330
18
100
AcDbEntity
  8
1
100
AcDbLine
 10
8.0
 20
-4.929857847943488
 30
0.0
 11
8.0
 21
1.713392100344139
 31
0.0
  0
LINE
  5
3E8
330
18
100
AcDbEntity
  8
1
100
AcDbLine
 10
8.0
 20
1.713392100344139
 30
0.0
 11
6.75
 21
2.298287617413711
 31
0.0
  0
LINE
  5
3E9
330
18
100
AcDbEntity
  8
1
100
AcDbLine
 10
6.75
 20
2.298287617413711
 30
0.0
 11
5.5
 21
2.797339972357786
 31
0.0
  0
LINE
  5
3EA
330
18
100
AcDbEntity
  8
1
100
AcDbLine
 10
5.500000000000002
 20
4.50067074760535
 30
0.0
 11
5.500000000000002
 21
-3.37600784105269
 31
0.0
  0
LINE
  5
3EB
330
18
100
AcDbEntity
  8
1
100
AcDbLine
 10
5.5
 20
-5.48682222164203
 30
0.0
 11
5.785936624551915
 21
-5.571259397152193
 31
0.0
  0
LINE
  5
3EC
330
18
100
AcDbEntity
  8
1
100
AcDbLine
 10
5.785936624551915
 20
-5.571259397152193
 30
0.0
 11
6.071864858250692
 21
-5.644774661049934
 31
0.0
  0
LINE
  5
3ED
330
18
100
AcDbEntity
  8
1
100
AcDbLine
 10
6.071864858250692
 20
-5.644774661049934
 30
0.0
 11
6.357809580085943
 21
-5.707228254268911
 31
0.0
  0
LINE
  5
3EE
330
18
100
AcDbEntity
  8
1
100
AcDbLine
 10
6.357809580085943
 20
-5.707228254268911
 30
0.0
 11
6.6437353912296
 21
-5.758490821836776
 31
0.0
  0
LINE
  5
3EF
330
18
100
AcDbEntity
  8
1
100
AcDbLine
 10
6.6437353912296
 20
-5.758490821836776
 30
0.0
 11
6.929678123466934
 21
-5.798469158024194
 31
0.0
  0
LINE
  5
3F0
330
18
100
AcDbEntity
  8
1
100
AcDbLine
 10
6.929678123466934
 20
-5.798469158024194
 30
0.0
 11
7.215608964907836
 21
-5.827078343302096
 31
0.0
  0
LINE
  5
3F1
330
18
100
AcDbEntity
  8
1
100
AcDbLine
 10
7.215608964907836
 20
-5.827078343302096
 30
0.0
 11
7.50154057235687
 21
-5.844267470945453
 31
0.0
  0
LINE
  5
3F2
330
18
100
AcDbEntity
  8
1
100
AcDbLine
 10
7.50154057235687
 20
-5.844267470945453
 30
0.0
 11
7.787449104554275
 21
-5.849999999990942
 31
0.0
  0
LINE
  5
3F3
330
18
100
AcDbEntity
  8
1
100
AcDbLine
 10
5.5
 20
-3.376007841052737
 30
0.0
 11
6.12499600453971
 21
-3.821869812684124
 31
0.0
  0
LINE
  5
3F4
330
18
100
AcDbEntity
  8
1
100
AcDbLine
 10
6.12499600453971
 20
-3.821869812684124
 30
0.0
 11
6.750002794885094
 21
-4.231967811771016
 31
0.0
  0
LINE
  5
3F5
330
18
100
AcDbEntity
  8
1
100
AcDbLine
 10
6.750002794885094
 20
-4.231967811771016
 30
0.0
 11
7.375008023707503
 21
-4.60245505515663
 31
0.0
  0
LINE
  5
3F6
330
18
100
AcDbEntity
  8
1
100
AcDbLine
 10
7.375008023707503
 20
-4.60245505515663
 30
0.0
 11
8.0
 21
-4.929857847943795
 31
0.0
  0
LINE
  5
3F7
330
18
100
AcDbEntity
  8
1
100
AcDbLine
 10
5.5
 20
4.50067074760535
 30
0.0
 11
6.124996153910852
 21
4.118480955052264
 31
0.0
  0
LINE
  5
3F8
330
18
100
AcDbEntity
  8
1
100
AcDbLine
 10
6.124996153910852
 20
4.118480955052264
 30
0.0
 11
6.750003053460219
 21
3.697737018268161
 31
0.0
  0
LINE
  5
3F9
330
18
100
AcDbEntity
  8
1
100
AcDbLine
 10
6.750003053460219
 20
3.697737018268161
 30
0.0
 11
8.0
 21
2.75669532313144
 31
0.0
  0
LINE
  5
3FA
330
18
100
AcDbEntity
  8
1
100
AcDbLine
 10
5.5
 20
5.825491478557555
 30
0.0
 11
5.812507238758514
 21
5.792795251406456
 31
0.0
  0
LINE
  5
3FB
330
18
100
AcDbEntity
  8
1
100
AcDbLine
 10
5.812507238758514
 20
5.792795251406456
 30
0.0
 11
6.124995798835044
 21
5.746538288461531
 31
0.0
  0
LINE
  5
3FC
330
18
100
AcDbEntity
  8
1
100
AcDbLine
 10
6.124995798835044
 20
5.746538288461531
 30
0.0
 11
6.437503908554833
 21
5.686824500682557
 31
0.0
  0
LINE
  5
3FD
330
18
100
AcDbEntity
  8
1
100
AcDbLine
 10
6.437503908554833
 20
5.686824500682557
 30
0.0
 11
6.750002347682983
 21
5.613798013396298
 31
0.0
  0
LINE
  5
3FE
330
18
100
AcDbEntity
  8
1
100
AcDbLine
 10
6.750002347682983
 20
5.613798013396298
 30
0.0
 11
7.06249716369252
 21
5.527630329257155
 31
0.0
  0
LINE
  5
3FF
330
18
100
AcDbEntity
  8
1
100
AcDbLine
 10
7.06249716369252
 20
5.527630329257155
 30
0.0
 11
7.375007624500745
 21
5.428515140923739
 31
0.0
  0
LINE
  5
400
330
18
100
AcDbEntity
  8
1
100
AcDbLine
 10
7.375007624500745
 20
5.428515140923739
 30
0.0
 11
7.687498804110338
 21
5.316696286660544
 31
0.0
  0
LINE
  5
401
330
18
100
AcDbEntity
  8
1
100
AcDbLine
 10
7.687498804110338
 20
5.316696286660544
 30
0.0
 11
8.0
 21
5.192427998087277
 31
0.0
  0
LINE
  5
402
330
18
100
AcDbEntity
  8
1
100
AcDbLine
 10
5.5
 20
5.85
 30
0.0
 11
5.5
 21
5.849994221820655
 31
0.0
  0
LINE
  5
403
330
18
100
AcDbEntity
  8
1
100
AcDbLine
 10
5.5
 20
5.849994221820655
 30
0.0
 11
5.5
 21
5.84831468393411
 31
0.0
  0
LINE
  5
404
330
18
100
AcDbEntity
  8
1
100
AcDbLine
 10
5.5
 20
5.84831468393411
 30
0.0
 11
5.5
 21
5.825491478557556
 31
0.0
  0
LINE
  5
405
330
18
100
AcDbEntity
  8
1
100
AcDbLine
 10
0.0
 20
5.85
 30
0.0
 11
5.5
 21
5.85
 31
0.0
  0
LINE
  5
406
330
18
100
AcDbEntity
  8
1
100
AcDbLine
 10
8.0
 20
1.713392100344139
 30
0.0
 11
8.0
 21
2.756695323131443
 31
0.0
  0
LINE
  5
407
330
18
100
AcDbEntity
  8
1
100
AcDbLine
 10
0.0
 20
-5.85
 30
0.0
 11
5.500000000000002
 21
-5.85
 31
0.0
  0
LINE
  5
408
330
18
100
AcDbEntity
  8
1
100
AcDbLine
 10
7.787449104554274
 20
-5.85
 30
0.0
 11
8.0
 21
-5.85
 31
0.0
  0
ARC
  5
409
330
18
100
AcDbEntity
  8
1
 62
     1
100
AcDbCircle
 10
11.56630943923955
 20
0.9698089547863109
 30
0.0
 40
6.969810404668102
100
AcDbArc
 50
270.002795738927
 51
273.5674859511415
  0
LINE
  5
40A
330
18
100
AcDbEntity
  8
1
 62
     1
100
AcDbLine
 10
8.0
 20
-5.107906688069148
 30
0.0
 11
8.0
 21
-6.0
 31
0.0
  0
LINE
  5
40B
330
18
100
AcDbEntity
  8
1
 62
     1
100
AcDbLine
 10
14.49629785858146
 20
-1.791753286401396
 30
0.0
 11
14.49155361391802
 21
-1.823539898941993
 31
0.0
  0
LINE
  5
40C
330
18
100
AcDbEntity
  8
1
 62
     1
100
AcDbLine
 10
14.49155361391802
 20
-1.823539898941993
 30
0.0
 11
14.48489079304938
 21
-1.854163465136196
 31
0.0
  0
LINE
  5
40D
330
18
100
AcDbEntity
  8
1
 62
     1
100
AcDbLine
 10
14.48489079304938
 20
-1.854163465136196
 30
0.0
 11
14.48084491021973
 21
-1.869007351144929
 31
0.0
  0
LINE
  5
40E
330
18
100
AcDbEntity
  8
1
 62
     1
100
AcDbLine
 10
14.48084491021973
 20
-1.869007351144929
 30
0.0
 11
14.47632522948717
 21
-1.883522832985855
 31
0.0
  0
LINE
  5
40F
330
18
100
AcDbEntity
  8
1
 62
     1
100
AcDbLine
 10
14.47632522948717
 20
-1.883522832985855
 30
0.0
 11
14.47133173904624
 21
-1.89770556690935
 31
0.0
  0
LINE
  5
410
330
18
100
AcDbEntity
  8
1
 62
     1
100
AcDbLine
 10
14.47133173904624
 20
-1.89770556690935
 30
0.0
 11
14.46586726243754
 21
-1.911546874124305
 31
0.0
  0
LINE
  5
411
330
18
100
AcDbEntity
  8
1
 62
     1
100
AcDbLine
 10
14.46586726243754
 20
-1.911546874124305
 30
0.0
 11
14.45993570652417
 21
-1.925035264489384
 31
0.0
  0
LINE
  5
412
330
18
100
AcDbEntity
  8
1
 62
     1
100
AcDbLine
 10
14.45993570652417
 20
-1.925035264489384
 30
0.0
 11
14.45354097816917
 21
-1.938159247863249
 31
0.0
  0
LINE
  5
413
330
18
100
AcDbEntity
  8
1
 62
     1
100
AcDbLine
 10
14.45354097816917
 20
-1.938159247863249
 30
0.0
 11
14.44668698423565
 21
-1.950907334104566
 31
0.0
  0
LINE
  5
414
330
18
100
AcDbEntity
  8
1
 62
     1
100
AcDbLine
 10
14.44668698423565
 20
-1.950907334104566
 30
0.0
 11
14.43937668173147
 21
-1.963269773695191
 31
0.0
  0
LINE
  5
415
330
18
100
AcDbEntity
  8
1
 62
     1
100
AcDbLine
 10
14.43937668173147
 20
-1.963269773695191
 30
0.0
 11
14.43161048627416
 21
-1.975243737775504
 31
0.0
  0
LINE
  5
416
330
18
100
AcDbEntity
  8
1
 62
     1
100
AcDbLine
 10
14.43161048627416
 20
-1.975243737775504
 30
0.0
 11
14.4233936547599
 21
-1.986820576697734
 31
0.0
  0
LINE
  5
417
330
18
100
AcDbEntity
  8
1
 62
     1
100
AcDbLine
 10
14.4233936547599
 20
-1.986820576697734
 30
0.0
 11
14.41473202443872
 21
-1.997990742847345
 31
0.0
  0
LINE
  5
418
330
18
100
AcDbEntity
  8
1
 62
     1
100
AcDbLine
 10
14.41473202443872
 20
-1.997990742847345
 30
0.0
 11
14.40563143256067
 21
-2.008744688609799
 31
0.0
  0
LINE
  5
419
330
18
100
AcDbEntity
  8
1
 62
     1
100
AcDbLine
 10
14.40563143256067
 20
-2.008744688609799
 30
0.0
 11
14.39609771637578
 21
-2.01907286637056
 31
0.0
  0
LINE
  5
41A
330
18
100
AcDbEntity
  8
1
 62
     1
100
AcDbLine
 10
14.39609771637578
 20
-2.01907286637056
 30
0.0
 11
14.38613373160625
 21
-2.028969224906358
 31
0.0
  0
LINE
  5
41B
330
18
100
AcDbEntity
  8
1
 62
     1
100
AcDbLine
 10
14.38613373160625
 20
-2.028969224906358
 30
0.0
 11
14.37574144221247
 21
-2.038431408708036
 31
0.0
  0
LINE
  5
41C
330
18
100
AcDbEntity
  8
1
 62
     1
100
AcDbLine
 10
14.37574144221247
 20
-2.038431408708036
 30
0.0
 11
14.36492833681026
 21
-2.047452480326512
 31
0.0
  0
LINE
  5
41D
330
18
100
AcDbEntity
  8
1
 62
     1
100
AcDbLine
 10
14.36492833681026
 20
-2.047452480326512
 30
0.0
 11
14.35370197890918
 21
-2.05602542787388
 31
0.0
  0
LINE
  5
41E
330
18
100
AcDbEntity
  8
1
 62
     1
100
AcDbLine
 10
14.35370197890918
 20
-2.05602542787388
 30
0.0
 11
14.34206993201882
 21
-2.064143239462232
 31
0.0
  0
LINE
  5
41F
330
18
100
AcDbEntity
  8
1
 62
     1
100
AcDbLine
 10
14.34206993201882
 20
-2.064143239462232
 30
0.0
 11
14.33003962038881
 21
-2.071798992472598
 31
0.0
  0
LINE
  5
420
330
18
100
AcDbEntity
  8
1
 62
     1
100
AcDbLine
 10
14.33003962038881
 20
-2.071798992472598
 30
0.0
 11
14.31761227403026
 21
-2.078990571501341
 31
0.0
  0
LINE
  5
421
330
18
100
AcDbEntity
  8
1
 62
     1
100
AcDbLine
 10
14.31761227403026
 20
-2.078990571501341
 30
0.0
 11
14.30479297628996
 21
-2.085715829640365
 31
0.0
  0
LINE
  5
422
330
18
100
AcDbEntity
  8
1
 62
     1
100
AcDbLine
 10
14.30479297628996
 20
-2.085715829640365
 30
0.0
 11
14.29159060620261
 21
-2.09197061916922
 31
0.0
  0
LINE
  5
423
330
18
100
AcDbEntity
  8
1
 62
     1
100
AcDbLine
 10
14.29159060620261
 20
-2.09197061916922
 30
0.0
 11
14.27801404280289
 21
-2.097750792367455
 31
0.0
  0
LINE
  5
424
330
18
100
AcDbEntity
  8
1
 62
     1
100
AcDbLine
 10
14.27801404280289
 20
-2.097750792367455
 30
0.0
 11
14.26407216512549
 21
-2.10305220151462
 31
0.0
  0
LINE
  5
425
330
18
100
AcDbEntity
  8
1
 62
     1
100
AcDbLine
 10
14.26407216512549
 20
-2.10305220151462
 30
0.0
 11
14.24977256624236
 21
-2.107871197893257
 31
0.0
  0
LINE
  5
426
330
18
100
AcDbEntity
  8
1
 62
     1
100
AcDbLine
 10
14.24977256624236
 20
-2.107871197893257
 30
0.0
 11
14.23511541024551
 21
-2.112208146891406
 31
0.0
  0
LINE
  5
427
330
18
100
AcDbEntity
  8
1
 62
     1
100
AcDbLine
 10
14.23511541024551
 20
-2.112208146891406
 30
0.0
 11
14.22010858267245
 21
-2.116062306386913
 31
0.0
  0
LINE
  5
428
330
18
100
AcDbEntity
  8
1
 62
     1
100
AcDbLine
 10
14.22010858267245
 20
-2.116062306386913
 30
0.0
 11
14.18908453940128
 21
-2.122317149908673
 31
0.0
  0
LINE
  5
429
330
18
100
AcDbEntity
  8
1
 62
     1
100
AcDbLine
 10
14.18908453940128
 20
-2.122317149908673
 30
0.0
 11
14.15677382913277
 21
-2.126626254799623
 31
0.0
  0
LINE
  5
42A
330
18
100
AcDbEntity
  8
1
 62
     1
100
AcDbLine
 10
14.15677382913277
 20
-2.126626254799623
 30
0.0
 11
14.12321537268629
 21
-2.128993460524115
 31
0.0
  0
LINE
  5
42B
330
18
100
AcDbEntity
  8
1
 62
     1
100
AcDbLine
 10
14.12321537268629
 20
-2.128993460524115
 30
0.0
 11
14.08847799794638
 21
-2.12942987935818
 31
0.0
  0
LINE
  5
42C
330
18
100
AcDbEntity
  8
1
 62
     1
100
AcDbLine
 10
14.08847799794638
 20
-2.12942987935818
 30
0.0
 11
14.05263275582699
 21
-2.127946255281808
 31
0.0
  0
LINE
  5
42D
330
18
100
AcDbEntity
  8
1
 62
     1
100
AcDbLine
 10
14.05263275582699
 20
-2.127946255281808
 30
0.0
 11
14.01571606135603
 21
-2.124561025902897
 31
0.0
  0
LINE
  5
42E
330
18
100
AcDbEntity
  8
1
 62
     1
100
AcDbLine
 10
14.01571606135603
 20
-2.124561025902897
 30
0.0
 11
13.97779889280061
 21
-2.119301191914632
 31
0.0
  0
LINE
  5
42F
330
18
100
AcDbEntity
  8
1
 62
     1
100
AcDbLine
 10
13.97779889280061
 20
-2.119301191914632
 30
0.0
 11
13.93894471980764
 21
-2.112192759567896
 31
0.0
  0
LINE
  5
430
330
18
100
AcDbEntity
  8
1
 62
     1
100
AcDbLine
 10
13.93894471980764
 20
-2.112192759567896
 30
0.0
 11
13.89918745399397
 21
-2.103264833320417
 31
0.0
  0
LINE
  5
431
330
18
100
AcDbEntity
  8
1
 62
     1
100
AcDbLine
 10
13.89918745399397
 20
-2.103264833320417
 30
0.0
 11
13.85859649925264
 21
-2.092556904113464
 31
0.0
  0
LINE
  5
432
330
18
100
AcDbEntity
  8
1
 62
     1
100
AcDbLine
 10
13.85859649925264
 20
-2.092556904113464
 30
0.0
 11
13.77510216626504
 21
-2.065944276402396
 31
0.0
  0
LINE
  5
433
330
18
100
AcDbEntity
  8
1
 62
     1
100
AcDbLine
 10
13.77510216626504
 20
-2.065944276402396
 30
0.0
 11
13.68884456754306
 21
-2.0326845540767
 31
0.0
  0
LINE
  5
434
330
18
100
AcDbEntity
  8
1
 62
     1
100
AcDbLine
 10
13.68884456754306
 20
-2.0326845540767
 30
0.0
 11
13.60016085560284
 21
-1.993124926984056
 31
0.0
  0
LINE
  5
435
330
18
100
AcDbEntity
  8
1
 62
     1
100
AcDbLine
 10
13.60016085560284
 20
-1.993124926984056
 30
0.0
 11
13.50936766206389
 21
-1.947632100684098
 31
0.0
  0
LINE
  5
436
330
18
100
AcDbEntity
  8
1
 62
     1
100
AcDbLine
 10
13.50936766206389
 20
-1.947632100684098
 30
0.0
 11
13.41675563512433
 21
-1.896586959770597
 31
0.0
  0
LINE
  5
437
330
18
100
AcDbEntity
  8
1
 62
     1
100
AcDbLine
 10
13.41675563512433
 20
-1.896586959770597
 30
0.0
 11
13.22700159023555
 21
-1.779314748231169
 31
0.0
  0
LINE
  5
438
330
18
100
AcDbEntity
  8
1
 62
     1
100
AcDbLine
 10
13.22700159023555
 20
-1.779314748231169
 30
0.0
 11
13.0325544595511
 21
-1.644241139508488
 31
0.0
  0
LINE
  5
439
330
18
100
AcDbEntity
  8
1
 62
     1
100
AcDbLine
 10
13.0325544595511
 20
-1.644241139508488
 30
0.0
 11
12.83463162482166
 21
-1.494114855016212
 31
0.0
  0
LINE
  5
43A
330
18
100
AcDbEntity
  8
1
 62
     1
100
AcDbLine
 10
12.83463162482166
 20
-1.494114855016212
 30
0.0
 11
12.43221395602709
 21
-1.159132467779845
 31
0.0
  0
LINE
  5
43B
330
18
100
AcDbEntity
  8
1
 62
     1
100
AcDbLine
 10
12.43221395602709
 20
-1.159132467779845
 30
0.0
 11
12.0
 21
-0.7702190256427311
 31
0.0
  0
ARC
  5
43C
330
18
100
AcDbEntity
  8
1
 62
     1
100
AcDbCircle
 10
-7.780862303574526
 20
-21.05051513517772
 30
0.0
 40
30.86666194830559
100
AcDbArc
 50
50.14487512160213
 51
51.75740387107582
  0
LINE
  5
43D
330
18
100
AcDbEntity
  8
1
 62
     1
100
AcDbLine
 10
12.0
 20
-0.7702190256427304
 30
0.0
 11
11.16872461450037
 21
-0.0000000000006357
 31
0.0
  0
LINE
  5
43E
330
18
100
AcDbEntity
  8
1
 62
     1
100
AcDbLine
 10
14.5
 20
2.136361345551432
 30
0.0
 11
14.5
 21
3.49168042044287
 31
0.0
  0
LINE
  5
43F
330
18
100
AcDbEntity
  8
1
 62
     1
100
AcDbLine
 10
14.5
 20
2.136361345551433
 30
0.0
 11
14.5
 21
-1.954708305252541
 31
0.0
  0
LINE
  5
440
330
18
100
AcDbEntity
  8
1
 62
     1
100
AcDbLine
 10
14.49999999999999
 20
-1.95470830525254
 30
0.0
 11
14.5
 21
-3.469111773603889
 31
0.0
  0
LINE
  5
441
330
18
100
AcDbEntity
  8
1
 62
     1
100
AcDbLine
 10
14.5
 20
-3.469111773604082
 30
0.0
 11
14.5
 21
-3.5
 31
0.0
  0
LINE
  5
442
330
18
100
AcDbEntity
  8
1
 62
     1
100
AcDbLine
 10
14.5
 20
3.5
 30
0.0
 11
14.5
 21
3.49999802245647
 31
0.0
  0
LINE
  5
443
330
18
100
AcDbEntity
  8
1
 62
     1
100
AcDbLine
 10
14.5
 20
3.49999802245647
 30
0.0
 11
14.5
 21
3.499424489345439
 31
0.0
  0
LINE
  5
444
330
18
100
AcDbEntity
  8
1
 62
     1
100
AcDbLine
 10
14.5
 20
3.499424489345439
 30
0.0
 11
14.5
 21
3.49168042044287
 31
0.0
  0
LINE
  5
445
330
18
100
AcDbEntity
  8
1
 62
     1
100
AcDbLine
 10
12.0
 20
5.538270871580031
 30
0.0
 11
11.41926863807152
 21
5.308604762417039
 31
0.0
  0
LINE
  5
446
330
18
100
AcDbEntity
  8
1
 62
     1
100
AcDbLine
 10
11.41926863807152
 20
5.308604762417039
 30
0.0
 11
10.83853008823929
 21
5.036033254194643
 31
0.0
  0
LINE
  5
447
330
18
100
AcDbEntity
  8
1
 62
     1
100
AcDbLine
 10
10.83853008823929
 20
5.036033254194643
 30
0.0
 11
10.25778877395407
 21
4.72276066340437
 31
0.0
  0
LINE
  5
448
330
18
100
AcDbEntity
  8
1
 62
     1
100
AcDbLine
 10
10.25778877395407
 20
4.72276066340437
 30
0.0
 11
9.677049192962809
 21
4.37132107674625
 31
0.0
  0
LINE
  5
449
330
18
100
AcDbEntity
  8
1
 62
     1
100
AcDbLine
 10
14.49629785858146
 20
3.635877956449952
 30
0.0
 11
14.48489081101065
 21
3.774239875392704
 31
0.0
  0
LINE
  5
44A
330
18
100
AcDbEntity
  8
1
 62
     1
100
AcDbLine
 10
14.48489081101065
 20
3.774239875392704
 30
0.0
 11
14.46586731616127
 21
3.911361597738827
 31
0.0
  0
LINE
  5
44B
330
18
100
AcDbEntity
  8
1
 62
     1
100
AcDbLine
 10
14.46586731616127
 20
3.911361597738827
 30
0.0
 11
14.43937678826772
 21
4.046617207712076
 31
0.0
  0
LINE
  5
44C
330
18
100
AcDbEntity
  8
1
 62
     1
100
AcDbLine
 10
14.43937678826772
 20
4.046617207712076
 30
0.0
 11
14.40563160750145
 21
4.179347588594038
 31
0.0
  0
LINE
  5
44D
330
18
100
AcDbEntity
  8
1
 62
     1
100
AcDbLine
 10
14.40563160750145
 20
4.179347588594038
 30
0.0
 11
14.36492859506636
 21
4.308850301180301
 31
0.0
  0
LINE
  5
44E
330
18
100
AcDbEntity
  8
1
 62
     1
100
AcDbLine
 10
14.36492859506636
 20
4.308850301180301
 30
0.0
 11
14.31761262763324
 21
4.434500514167037
 31
0.0
  0
LINE
  5
44F
330
18
100
AcDbEntity
  8
1
 62
     1
100
AcDbLine
 10
14.31761262763324
 20
4.434500514167037
 30
0.0
 11
14.26407261953739
 21
4.555707369222439
 31
0.0
  0
LINE
  5
450
330
18
100
AcDbEntity
  8
1
 62
     1
100
AcDbLine
 10
14.26407261953739
 20
4.555707369222439
 30
0.0
 11
14.20476231125732
 21
4.671881622060057
 31
0.0
  0
LINE
  5
451
330
18
100
AcDbEntity
  8
1
 62
     1
100
AcDbLine
 10
14.20476231125732
 20
4.671881622060057
 30
0.0
 11
14.14014759522212
 21
4.782545325925011
 31
0.0
  0
LINE
  5
452
330
18
100
AcDbEntity
  8
1
 62
     1
100
AcDbLine
 10
14.14014759522212
 20
4.782545325925011
 30
0.0
 11
14.07069266305639
 21
4.887304080731819
 31
0.0
  0
LINE
  5
453
330
18
100
AcDbEntity
  8
1
 62
     1
100
AcDbLine
 10
14.07069266305639
 20
4.887304080731819
 30
0.0
 11
13.99687865216753
 21
4.985807009443851
 31
0.0
  0
LINE
  5
454
330
18
100
AcDbEntity
  8
1
 62
     1
100
AcDbLine
 10
13.99687865216753
 20
4.985807009443851
 30
0.0
 11
13.91917586301435
 21
5.077787641640144
 31
0.0
  0
LINE
  5
455
330
18
100
AcDbEntity
  8
1
 62
     1
100
AcDbLine
 10
13.91917586301435
 20
5.077787641640144
 30
0.0
 11
13.83800880297743
 21
5.163075384982228
 31
0.0
  0
LINE
  5
456
330
18
100
AcDbEntity
  8
1
 62
     1
100
AcDbLine
 10
13.83800880297743
 20
5.163075384982228
 30
0.0
 11
13.75378192361564
 21
5.241547000813332
 31
0.0
  0
LINE
  5
457
330
18
100
AcDbEntity
  8
1
 62
     1
100
AcDbLine
 10
13.75378192361564
 20
5.241547000813332
 30
0.0
 11
13.66688668928026
 21
5.313121501710652
 31
0.0
  0
LINE
  5
458
330
18
100
AcDbEntity
  8
1
 62
     1
100
AcDbLine
 10
13.66688668928026
 20
5.313121501710652
 30
0.0
 11
13.57765301369166
 21
5.377790004216831
 31
0.0
  0
LINE
  5
459
330
18
100
AcDbEntity
  8
1
 62
     1
100
AcDbLine
 10
13.57765301369166
 20
5.377790004216831
 30
0.0
 11
13.48637735324481
 21
5.435575112106608
 31
0.0
  0
LINE
  5
45A
330
18
100
AcDbEntity
  8
1
 62
     1
100
AcDbLine
 10
13.48637735324481
 20
5.435575112106608
 30
0.0
 11
13.39334507735231
 21
5.486516244850787
 31
0.0
  0
LINE
  5
45B
330
18
100
AcDbEntity
  8
1
 62
     1
100
AcDbLine
 10
13.39334507735231
 20
5.486516244850787
 30
0.0
 11
13.29879447733252
 21
5.530688992863657
 31
0.0
  0
LINE
  5
45C
330
18
100
AcDbEntity
  8
1
 62
     1
100
AcDbLine
 10
13.29879447733252
 20
5.530688992863657
 30
0.0
 11
13.20292821655586
 21
5.568186704532241
 31
0.0
  0
LINE
  5
45D
330
18
100
AcDbEntity
  8
1
 62
     1
100
AcDbLine
 10
13.20292821655586
 20
5.568186704532241
 30
0.0
 11
13.10593565429389
 21
5.599108552702155
 31
0.0
  0
LINE
  5
45E
330
18
100
AcDbEntity
  8
1
 62
     1
100
AcDbLine
 10
13.10593565429389
 20
5.599108552702155
 30
0.0
 11
13.00798094611901
 21
5.623564254061286
 31
0.0
  0
LINE
  5
45F
330
18
100
AcDbEntity
  8
1
 62
     1
100
AcDbLine
 10
13.00798094611901
 20
5.623564254061286
 30
0.0
 11
12.9091742938595
 21
5.641676053838565
 31
0.0
  0
LINE
  5
460
330
18
100
AcDbEntity
  8
1
 62
     1
100
AcDbLine
 10
12.9091742938595
 20
5.641676053838565
 30
0.0
 11
12.80970561983323
 21
5.653549309161359
 31
0.0
  0
LINE
  5
461
330
18
100
AcDbEntity
  8
1
 62
     1
100
AcDbLine
 10
12.80970561983323
 20
5.653549309161359
 30
0.0
 11
12.70962638647065
 21
5.659311011713907
 31
0.0
  0
LINE
  5
462
330
18
100
AcDbEntity
  8
1
 62
     1
100
AcDbLine
 10
12.70962638647065
 20
5.659311011713907
 30
0.0
 11
12.60909003341642
 21
5.65907807135013
 31
0.0
  0
LINE
  5
463
330
18
100
AcDbEntity
  8
1
 62
     1
100
AcDbLine
 10
12.60909003341642
 20
5.65907807135013
 30
0.0
 11
12.50813298187197
 21
5.652967269384591
 31
0.0
  0
LINE
  5
464
330
18
100
AcDbEntity
  8
1
 62
     1
100
AcDbLine
 10
12.50813298187197
 20
5.652967269384591
 30
0.0
 11
12.40687935754249
 21
5.641099509892808
 31
0.0
  0
LINE
  5
465
330
18
100
AcDbEntity
  8
1
 62
     1
100
AcDbLine
 10
12.40687935754249
 20
5.641099509892808
 30
0.0
 11
12.30536139907326
 21
5.623582124104506
 31
0.0
  0
LINE
  5
466
330
18
100
AcDbEntity
  8
1
 62
     1
100
AcDbLine
 10
12.30536139907326
 20
5.623582124104506
 30
0.0
 11
12.20367771683504
 21
5.600535135584177
 31
0.0
  0
LINE
  5
467
330
18
100
AcDbEntity
  8
1
 62
     1
100
AcDbLine
 10
12.20367771683504
 20
5.600535135584177
 30
0.0
 11
12.10186532967579
 21
5.572059683745582
 31
0.0
  0
LINE
  5
468
330
18
100
AcDbEntity
  8
1
 62
     1
100
AcDbLine
 10
12.10186532967579
 20
5.572059683745582
 30
0.0
 11
12.0
 21
5.538270871580032
 31
0.0
  0
ARC
  5
469
330
18
100
AcDbEntity
  8
1
 62
     1
100
AcDbCircle
 10
11.99999999998955
 20
3.499999999999626
 30
0.0
 40
2.50000000001045
100
AcDbArc
 50
0.0000000000085598
 51
2.750258342435797
  0
LINE
  5
46A
330
18
100
AcDbEntity
  8
1
 62
     1
100
AcDbLine
 10
8.0
 20
5.280116756136559
 30
0.0
 11
8.0
 21
2.827379818596353
 31
0.0
  0
LINE
  5
46B
330
18
100
AcDbEntity
  8
1
 62
     1
100
AcDbLine
 10
14.49629785858146
 20
3.635877956449952
 30
0.0
 11
13.70355802297664
 21
3.604808007792556
 31
0.0
  0
LINE
  5
46C
330
18
100
AcDbEntity
  8
1
 62
     1
100
AcDbLine
 10
13.70355802297664
 20
3.604808007792556
 30
0.0
 11
12.91081818737182
 21
3.519493091461256
 31
0.0
  0
LINE
  5
46D
330
18
100
AcDbEntity
  8
1
 62
     1
100
AcDbLine
 10
12.91081818737182
 20
3.519493091461256
 30
0.0
 11
12.118078351767
 21
3.381205236846666
 31
0.0
  0
LINE
  5
46E
330
18
100
AcDbEntity
  8
1
 62
     1
100
AcDbLine
 10
12.118078351767
 20
3.381205236846666
 30
0.0
 11
11.32533851616218
 21
3.192027775543818
 31
0.0
  0
LINE
  5
46F
330
18
100
AcDbEntity
  8
1
 62
     1
100
AcDbLine
 10
14.5
 20
2.136361345551429
 30
0.0
 11
14.49618006897313
 21
1.991835698182996
 31
0.0
  0
LINE
  5
470
330
18
100
AcDbEntity
  8
1
 62
     1
100
AcDbLine
 10
14.49618006897313
 20
1.991835698182996
 30
0.0
 11
14.49066357518386
 21
1.920667850408067
 31
0.0
  0
LINE
  5
471
330
18
100
AcDbEntity
  8
1
 62
     1
100
AcDbLine
 10
14.49066357518386
 20
1.920667850408067
 30
0.0
 11
14.48202840643046
 21
1.850693841568748
 31
0.0
  0
LINE
  5
472
330
18
100
AcDbEntity
  8
1
 62
     1
100
AcDbLine
 10
14.48202840643046
 20
1.850693841568748
 30
0.0
 11
14.46969185634607
 21
1.782334164376143
 31
0.0
  0
LINE
  5
473
330
18
100
AcDbEntity
  8
1
 62
     1
100
AcDbLine
 10
14.46969185634607
 20
1.782334164376143
 30
0.0
 11
14.46193661569585
 21
1.748933810082145
 31
0.0
  0
LINE
  5
474
330
18
100
AcDbEntity
  8
1
 62
     1
100
AcDbLine
 10
14.46193661569585
 20
1.748933810082145
 30
0.0
 11
14.45301518822121
 21
1.716153673701159
 31
0.0
  0
LINE
  5
475
330
18
100
AcDbEntity
  8
1
 62
     1
100
AcDbLine
 10
14.45301518822121
 20
1.716153673701159
 30
0.0
 11
14.44283796193444
 21
1.684073045838719
 31
0.0
  0
LINE
  5
476
330
18
100
AcDbEntity
  8
1
 62
     1
100
AcDbLine
 10
14.44283796193444
 20
1.684073045838719
 30
0.0
 11
14.43131411248073
 21
1.652793069406606
 31
0.0
  0
LINE
  5
477
330
18
100
AcDbEntity
  8
1
 62
     1
100
AcDbLine
 10
14.43131411248073
 20
1.652793069406606
 30
0.0
 11
14.41834996259751
 21
1.622413428242354
 31
0.0
  0
LINE
  5
478
330
18
100
AcDbEntity
  8
1
 62
     1
100
AcDbLine
 10
14.41834996259751
 20
1.622413428242354
 30
0.0
 11
14.4038459341805
 21
1.593045821492614
 31
0.0
  0
LINE
  5
479
330
18
100
AcDbEntity
  8
1
 62
     1
100
AcDbLine
 10
14.4038459341805
 20
1.593045821492614
 30
0.0
 11
14.3877061004035
 21
1.56482109491671
 31
0.0
  0
LINE
  5
47A
330
18
100
AcDbEntity
  8
1
 62
     1
100
AcDbLine
 10
14.3877061004035
 20
1.56482109491671
 30
0.0
 11
14.36982306229888
 21
1.537862455116668
 31
0.0
  0
LINE
  5
47B
330
18
100
AcDbEntity
  8
1
 62
     1
100
AcDbLine
 10
14.36982306229888
 20
1.537862455116668
 30
0.0
 11
14.36019661623635
 21
1.524905239282628
 31
0.0
  0
LINE
  5
47C
330
18
100
AcDbEntity
  8
1
 62
     1
100
AcDbLine
 10
14.36019661623635
 20
1.524905239282628
 30
0.0
 11
14.3500978908096
 21
1.512323192540801
 31
0.0
  0
LINE
  5
47D
330
18
100
AcDbEntity
  8
1
 62
     1
100
AcDbLine
 10
14.3500978908096
 20
1.512323192540801
 30
0.0
 11
14.339514513065
 21
1.50013605259756
 31
0.0
  0
LINE
  5
47E
330
18
100
AcDbEntity
  8
1
 62
     1
100
AcDbLine
 10
14.339514513065
 20
1.50013605259756
 30
0.0
 11
14.32842921621073
 21
1.488359541789657
 31
0.0
  0
LINE
  5
47F
330
18
100
AcDbEntity
  8
1
 62
     1
100
AcDbLine
 10
14.32842921621073
 20
1.488359541789657
 30
0.0
 11
14.31683042464583
 21
1.47701579889113
 31
0.0
  0
LINE
  5
480
330
18
100
AcDbEntity
  8
1
 62
     1
100
AcDbLine
 10
14.31683042464583
 20
1.47701579889113
 30
0.0
 11
14.30470822175208
 21
1.466128625916167
 31
0.0
  0
LINE
  5
481
330
18
100
AcDbEntity
  8
1
 62
     1
100
AcDbLine
 10
14.30470822175208
 20
1.466128625916167
 30
0.0
 11
14.29205269091127
 21
1.455721824878954
 31
0.0
  0
LINE
  5
482
330
18
100
AcDbEntity
  8
1
 62
     1
100
AcDbLine
 10
14.29205269091127
 20
1.455721824878954
 30
0.0
 11
14.27885348035912
 21
1.445818941737929
 31
0.0
  0
LINE
  5
483
330
18
100
AcDbEntity
  8
1
 62
     1
100
AcDbLine
 10
14.27885348035912
 20
1.445818941737929
 30
0.0
 11
14.26509192750086
 21
1.436438349592506
 31
0.0
  0
LINE
  5
484
330
18
100
AcDbEntity
  8
1
 62
     1
100
AcDbLine
 10
14.26509192750086
 20
1.436438349592506
 30
0.0
 11
14.25075820894271
 21
1.427602915359174
 31
0.0
  0
LINE
  5
485
330
18
100
AcDbEntity
  8
1
 62
     1
100
AcDbLine
 10
14.25075820894271
 20
1.427602915359174
 30
0.0
 11
14.23584709414061
 21
1.419338104529774
 31
0.0
  0
LINE
  5
486
330
18
100
AcDbEntity
  8
1
 62
     1
100
AcDbLine
 10
14.23584709414061
 20
1.419338104529774
 30
0.0
 11
14.22035335255051
 21
1.411669382596143
 31
0.0
  0
LINE
  5
487
330
18
100
AcDbEntity
  8
1
 62
     1
100
AcDbLine
 10
14.22035335255051
 20
1.411669382596143
 30
0.0
 11
14.20427167215661
 21
1.404622177808506
 31
0.0
  0
LINE
  5
488
330
18
100
AcDbEntity
  8
1
 62
     1
100
AcDbLine
 10
14.20427167215661
 20
1.404622177808506
 30
0.0
 11
14.18758855135104
 21
1.398217248635828
 31
0.0
  0
LINE
  5
489
330
18
100
AcDbEntity
  8
1
 62
     1
100
AcDbLine
 10
14.18758855135104
 20
1.398217248635828
 30
0.0
 11
14.17029796522503
 21
1.392475724192658
 31
0.0
  0
LINE
  5
48A
330
18
100
AcDbEntity
  8
1
 62
     1
100
AcDbLine
 10
14.17029796522503
 20
1.392475724192658
 30
0.0
 11
14.15240140659852
 21
1.387421549807612
 31
0.0
  0
LINE
  5
48B
330
18
100
AcDbEntity
  8
1
 62
     1
100
AcDbLine
 10
14.15240140659852
 20
1.387421549807612
 30
0.0
 11
14.13389606579198
 21
1.383077514016509
 31
0.0
  0
LINE
  5
48C
330
18
100
AcDbEntity
  8
1
 62
     1
100
AcDbLine
 10
14.13389606579198
 20
1.383077514016509
 30
0.0
 11
14.11477334896861
 21
1.379462028683437
 31
0.0
  0
LINE
  5
48D
330
18
100
AcDbEntity
  8
1
 62
     1
100
AcDbLine
 10
14.11477334896861
 20
1.379462028683437
 30
0.0
 11
14.09504085961596
 21
1.376594770529608
 31
0.0
  0
LINE
  5
48E
330
18
100
AcDbEntity
  8
1
 62
     1
100
AcDbLine
 10
14.09504085961596
 20
1.376594770529608
 30
0.0
 11
14.07470648443313
 21
1.37449553396481
 31
0.0
  0
LINE
  5
48F
330
18
100
AcDbEntity
  8
1
 62
     1
100
AcDbLine
 10
14.07470648443313
 20
1.37449553396481
 30
0.0
 11
14.053763791601
 21
1.373180833220639
 31
0.0
  0
LINE
  5
490
330
18
100
AcDbEntity
  8
1
 62
     1
100
AcDbLine
 10
14.053763791601
 20
1.373180833220639
 30
0.0
 11
14.03222192664633
 21
1.372663709198638
 31
0.0
  0
LINE
  5
491
330
18
100
AcDbEntity
  8
1
 62
     1
100
AcDbLine
 10
14.03222192664633
 20
1.372663709198638
 30
0.0
 11
14.01009772179927
 21
1.372957197651463
 31
0.0
  0
LINE
  5
492
330
18
100
AcDbEntity
  8
1
 62
     1
100
AcDbLine
 10
14.01009772179927
 20
1.372957197651463
 30
0.0
 11
13.98739805217737
 21
1.374074023540037
 31
0.0
  0
LINE
  5
493
330
18
100
AcDbEntity
  8
1
 62
     1
100
AcDbLine
 10
13.98739805217737
 20
1.374074023540037
 30
0.0
 11
13.94030548012108
 21
1.378803825088844
 31
0.0
  0
LINE
  5
494
330
18
100
AcDbEntity
  8
1
 62
     1
100
AcDbLine
 10
13.94030548012108
 20
1.378803825088844
 30
0.0
 11
13.89108685314628
 21
1.386889060819578
 31
0.0
  0
LINE
  5
495
330
18
100
AcDbEntity
  8
1
 62
     1
100
AcDbLine
 10
13.89108685314628
 20
1.386889060819578
 30
0.0
 11
13.83987347871108
 21
1.398324462408513
 31
0.0
  0
LINE
  5
496
330
18
100
AcDbEntity
  8
1
 62
     1
100
AcDbLine
 10
13.83987347871108
 20
1.398324462408513
 30
0.0
 11
13.78683692186901
 21
1.413068685532227
 31
0.0
  0
LINE
  5
497
330
18
100
AcDbEntity
  8
1
 62
     1
100
AcDbLine
 10
13.78683692186901
 20
1.413068685532227
 30
0.0
 11
13.73216700000436
 21
1.431031010157335
 31
0.0
  0
LINE
  5
498
330
18
100
AcDbEntity
  8
1
 62
     1
100
AcDbLine
 10
13.73216700000436
 20
1.431031010157335
 30
0.0
 11
13.67603381524759
 21
1.452102878656006
 31
0.0
  0
LINE
  5
499
330
18
100
AcDbEntity
  8
1
 62
     1
100
AcDbLine
 10
13.67603381524759
 20
1.452102878656006
 30
0.0
 11
13.61865473556441
 21
1.476126514683778
 31
0.0
  0
LINE
  5
49A
330
18
100
AcDbEntity
  8
1
 62
     1
100
AcDbLine
 10
13.61865473556441
 20
1.476126514683778
 30
0.0
 11
13.50084311646199
 21
1.532361234407742
 31
0.0
  0
LINE
  5
49B
330
18
100
AcDbEntity
  8
1
 62
     1
100
AcDbLine
 10
13.50084311646199
 20
1.532361234407742
 30
0.0
 11
13.38011010483163
 21
1.598236502761606
 31
0.0
  0
LINE
  5
49C
330
18
100
AcDbEntity
  8
1
 62
     1
100
AcDbLine
 10
13.38011010483163
 20
1.598236502761606
 30
0.0
 11
13.25761588825558
 21
1.67218916302868
 31
0.0
  0
LINE
  5
49D
330
18
100
AcDbEntity
  8
1
 62
     1
100
AcDbLine
 10
13.25761588825558
 20
1.67218916302868
 30
0.0
 11
13.0107385011378
 21
1.838515917584329
 31
0.0
  0
LINE
  5
49E
330
18
100
AcDbEntity
  8
1
 62
     1
100
AcDbLine
 10
13.0107385011378
 20
1.838515917584329
 30
0.0
 11
12.76518603067647
 21
2.021078989571089
 31
0.0
  0
LINE
  5
49F
330
18
100
AcDbEntity
  8
1
 62
     1
100
AcDbLine
 10
12.76518603067647
 20
2.021078989571089
 30
0.0
 11
12.0
 21
2.64481935936049
 31
0.0
  0
ARC
  5
4A0
330
18
100
AcDbEntity
  8
1
 62
     1
100
AcDbCircle
 10
11.77069959989802
 20
3.495052209961049
 30
0.0
 40
2.729298990315767
100
AcDbArc
 50
359.9292165822035
 51
2.623033409334078
  0
LINE
  5
4A1
330
18
100
AcDbEntity
  8
1
 62
     1
100
AcDbLine
 10
14.49629785858146
 20
3.635877956449952
 30
0.0
 11
14.4971204253624
 21
3.619956580636125
 31
0.0
  0
LINE
  5
4A2
330
18
100
AcDbEntity
  8
1
 62
     1
100
AcDbLine
 10
8.0
 20
1.713392100344139
 30
0.0
 11
8.0
 21
2.756695323131442
 31
0.0
  0
LINE
  5
4A3
330
18
100
AcDbEntity
  8
1
 62
     1
100
AcDbLine
 10
8.0
 20
2.756695323131442
 30
0.0
 11
8.0
 21
2.827379818596351
 31
0.0
  0
LINE
  5
4A4
330
18
100
AcDbEntity
  8
1
 62
     1
100
AcDbLine
 10
8.0
 20
-5.107906688069147
 30
0.0
 11
8.0
 21
-4.929857847943488
 31
0.0
  0
LINE
  5
4A5
330
18
100
AcDbEntity
  8
1
 62
     1
100
AcDbLine
 10
8.0
 20
-4.929857847943488
 30
0.0
 11
8.0
 21
1.713392100344138
 31
0.0
  0
ARC
  5
4A6
330
18
100
AcDbEntity
  8
1
 62
     1
100
AcDbCircle
 10
11.6210707891723
 20
-3.482319610664199
 30
0.0
 40
2.878931008835431
100
AcDbArc
 50
354.4218154672626
 51
0.2628574568598728
  0
ARC
  5
4A7
330
18
100
AcDbEntity
  8
1
 62
     1
100
AcDbCircle
 10
11.1840714325852
 20
-1.948004667269143
 30
0.0
 40
3.315913875210889
100
AcDbArc
 50
359.8841683007464
 51
2.700875899722826
  0
LINE
  5
4A8
330
18
100
AcDbEntity
  8
1
 62
     1
100
AcDbLine
 10
11.56664953001743
 20
-5.999999999988409
 30
0.0
 11
11.12081346641002
 21
-5.985706465603824
 31
0.0
  0
LINE
  5
4A9
330
18
100
AcDbEntity
  8
1
 62
     1
100
AcDbLine
 10
11.12081346641002
 20
-5.985706465603824
 30
0.0
 11
10.67497931883703
 21
-5.9428944540002
 31
0.0
  0
LINE
  5
4AA
330
18
100
AcDbEntity
  8
1
 62
     1
100
AcDbLine
 10
10.67497931883703
 20
-5.9428944540002
 30
0.0
 11
10.22914687161003
 21
-5.871768246955801
 31
0.0
  0
LINE
  5
4AB
330
18
100
AcDbEntity
  8
1
 62
     1
100
AcDbLine
 10
10.22914687161003
 20
-5.871768246955801
 30
0.0
 11
9.783315503472243
 21
-5.772666954548
 31
0.0
  0
LINE
  5
4AC
330
18
100
AcDbEntity
  8
1
 62
     1
100
AcDbLine
 10
9.783315503472243
 20
-5.772666954548
 30
0.0
 11
9.337484584613629
 21
-5.646062895933424
 31
0.0
  0
LINE
  5
4AD
330
18
100
AcDbEntity
  8
1
 62
     1
100
AcDbLine
 10
9.337484584613629
 20
-5.646062895933424
 30
0.0
 11
8.891653828666055
 21
-5.492559189499129
 31
0.0
  0
LINE
  5
4AE
330
18
100
AcDbEntity
  8
1
 62
     1
100
AcDbLine
 10
8.891653828666055
 20
-5.492559189499129
 30
0.0
 11
8.445822952877524
 21
-5.312886929617005
 31
0.0
  0
LINE
  5
4AF
330
18
100
AcDbEntity
  8
1
 62
     1
100
AcDbLine
 10
8.445822952877524
 20
-5.312886929617005
 30
0.0
 11
8.0
 21
-5.107906688069233
 31
0.0
  0
LINE
  5
4B0
330
18
100
AcDbEntity
  8
1
 62
     1
100
AcDbLine
 10
8.0
 20
-6.0
 30
0.0
 11
11.56664953001743
 21
-6.0
 31
0.0
  0
LINE
  5
4B1
330
18
100
AcDbEntity
  8
1
 62
     1
100
AcDbLine
 10
14.5
 20
-3.5
 30
0.0
 11
14.5
 21
-3.499992820577251
 31
0.0
  0
LINE
  5
4B2
330
18
100
AcDbEntity
  8
1
 62
     1
100
AcDbLine
 10
14.5
 20
-3.499992820577251
 30
0.0
 11
14.5
 21
-3.497897641256885
 31
0.0
  0
LINE
  5
4B3
330
18
100
AcDbEntity
  8
1
 62
     1
100
AcDbLine
 10
14.5
 20
-3.497897641256885
 30
0.0
 11
14.5
 21
-3.469111773604143
 31
0.0
  0
LINE
  5
4B4
330
18
100
AcDbEntity
  8
1
 62
     1
100
AcDbLine
 10
14.48621765718877
 20
-3.762148360772546
 30
0.0
 11
14.47694828275487
 21
-3.837023243110757
 31
0.0
  0
LINE
  5
4B5
330
18
100
AcDbEntity
  8
1
 62
     1
100
AcDbLine
 10
14.47694828275487
 20
-3.837023243110757
 30
0.0
 11
14.46453019864215
 21
-3.913028177876722
 31
0.0
  0
LINE
  5
4B6
330
18
100
AcDbEntity
  8
1
 62
     1
100
AcDbLine
 10
14.46453019864215
 20
-3.913028177876722
 30
0.0
 11
14.44850906769979
 21
-3.990382445878429
 31
0.0
  0
LINE
  5
4B7
330
18
100
AcDbEntity
  8
1
 62
     1
100
AcDbLine
 10
14.44850906769979
 20
-3.990382445878429
 30
0.0
 11
14.42838964242494
 21
-4.069342318482055
 31
0.0
  0
LINE
  5
4B8
330
18
100
AcDbEntity
  8
1
 62
     1
100
AcDbLine
 10
14.42838964242494
 20
-4.069342318482055
 30
0.0
 11
14.40364379980859
 21
-4.150166620199706
 31
0.0
  0
LINE
  5
4B9
330
18
100
AcDbEntity
  8
1
 62
     1
100
AcDbLine
 10
14.40364379980859
 20
-4.150166620199706
 30
0.0
 11
14.37371850536215
 21
-4.233090132650673
 31
0.0
  0
LINE
  5
4BA
330
18
100
AcDbEntity
  8
1
 62
     1
100
AcDbLine
 10
14.37371850536215
 20
-4.233090132650673
 30
0.0
 11
14.33804126021804
 21
-4.31832753334671
 31
0.0
  0
LINE
  5
4BB
330
18
100
AcDbEntity
  8
1
 62
     1
100
AcDbLine
 10
14.33804126021804
 20
-4.31832753334671
 30
0.0
 11
14.29603284468946
 21
-4.406054562033413
 31
0.0
  0
LINE
  5
4BC
330
18
100
AcDbEntity
  8
1
 62
     1
100
AcDbLine
 10
14.29603284468946
 20
-4.406054562033413
 30
0.0
 11
14.24716092553136
 21
-4.496321788056182
 31
0.0
  0
LINE
  5
4BD
330
18
100
AcDbEntity
  8
1
 62
     1
100
AcDbLine
 10
14.24716092553136
 20
-4.496321788056182
 30
0.0
 11
14.1909869379006
 21
-4.589036835770942
 31
0.0
  0
LINE
  5
4BE
330
18
100
AcDbEntity
  8
1
 62
     1
100
AcDbLine
 10
14.1909869379006
 20
-4.589036835770942
 30
0.0
 11
14.12720032784897
 21
-4.683945456668413
 31
0.0
  0
LINE
  5
4BF
330
18
100
AcDbEntity
  8
1
 62
     1
100
AcDbLine
 10
14.12720032784897
 20
-4.683945456668413
 30
0.0
 11
14.05570704706868
 21
-4.780569427899545
 31
0.0
  0
LINE
  5
4C0
330
18
100
AcDbEntity
  8
1
 62
     1
100
AcDbLine
 10
14.05570704706868
 20
-4.780569427899545
 30
0.0
 11
13.97669272410839
 21
-4.878183448814335
 31
0.0
  0
LINE
  5
4C1
330
18
100
AcDbEntity
  8
1
 62
     1
100
AcDbLine
 10
13.97669272410839
 20
-4.878183448814335
 30
0.0
 11
13.8906449339111
 21
-4.975852813411517
 31
0.0
  0
LINE
  5
4C2
330
18
100
AcDbEntity
  8
1
 62
     1
100
AcDbLine
 10
13.8906449339111
 20
-4.975852813411517
 30
0.0
 11
13.79832870106514
 21
-5.072507299674496
 31
0.0
  0
LINE
  5
4C3
330
18
100
AcDbEntity
  8
1
 62
     1
100
AcDbLine
 10
13.79832870106514
 20
-5.072507299674496
 30
0.0
 11
13.70071018304482
 21
-5.167045087034085
 31
0.0
  0
LINE
  5
4C4
330
18
100
AcDbEntity
  8
1
 62
     1
100
AcDbLine
 10
13.70071018304482
 20
-5.167045087034085
 30
0.0
 11
13.59884909216529
 21
-5.258437582310243
 31
0.0
  0
LINE
  5
4C5
330
18
100
AcDbEntity
  8
1
 62
     1
100
AcDbLine
 10
13.59884909216529
 20
-5.258437582310243
 30
0.0
 11
13.49379153307259
 21
-5.345807102235627
 31
0.0
  0
LINE
  5
4C6
330
18
100
AcDbEntity
  8
1
 62
     1
100
AcDbLine
 10
13.49379153307259
 20
-5.345807102235627
 30
0.0
 11
13.38648916009165
 21
-5.428464087895373
 31
0.0
  0
LINE
  5
4C7
330
18
100
AcDbEntity
  8
1
 62
     1
100
AcDbLine
 10
13.38648916009165
 20
-5.428464087895373
 30
0.0
 11
13.2777547629948
 21
-5.505907470678236
 31
0.0
  0
LINE
  5
4C8
330
18
100
AcDbEntity
  8
1
 62
     1
100
AcDbLine
 10
13.2777547629948
 20
-5.505907470678236
 30
0.0
 11
13.168227732665
 21
-5.577814662253919
 31
0.0
  0
LINE
  5
4C9
330
18
100
AcDbEntity
  8
1
 62
     1
100
AcDbLine
 10
13.168227732665
 20
-5.577814662253919
 30
0.0
 11
13.05845329117545
 21
-5.64396595418529
 31
0.0
  0
LINE
  5
4CA
330
18
100
AcDbEntity
  8
1
 62
     1
100
AcDbLine
 10
13.05845329117545
 20
-5.64396595418529
 30
0.0
 11
12.94881558730886
 21
-5.704261651235668
 31
0.0
  0
LINE
  5
4CB
330
18
100
AcDbEntity
  8
1
 62
     1
100
AcDbLine
 10
12.94881558730886
 20
-5.704261651235668
 30
0.0
 11
12.83964088464803
 21
-5.758649807390603
 31
0.0
  0
LINE
  5
4CC
330
18
100
AcDbEntity
  8
1
 62
     1
100
AcDbLine
 10
12.83964088464803
 20
-5.758649807390603
 30
0.0
 11
12.73114675918008
 21
-5.807145529347216
 31
0.0
  0
LINE
  5
4CD
330
18
100
AcDbEntity
  8
1
 62
     1
100
AcDbLine
 10
12.73114675918008
 20
-5.807145529347216
 30
0.0
 11
12.62348259897857
 21
-5.849794603592962
 31
0.0
  0
LINE
  5
4CE
330
18
100
AcDbEntity
  8
1
 62
     1
100
AcDbLine
 10
12.62348259897857
 20
-5.849794603592962
 30
0.0
 11
12.51677659429122
 21
-5.886650373838178
 31
0.0
  0
LINE
  5
4CF
330
18
100
AcDbEntity
  8
1
 62
     1
100
AcDbLine
 10
12.51677659429122
 20
-5.886650373838178
 30
0.0
 11
12.41111934492013
 21
-5.917779788010094
 31
0.0
  0
LINE
  5
4D0
330
18
100
AcDbEntity
  8
1
 62
     1
100
AcDbLine
 10
12.41111934492013
 20
-5.917779788010094
 30
0.0
 11
12.30653573963962
 21
-5.943265113482032
 31
0.0
  0
LINE
  5
4D1
330
18
100
AcDbEntity
  8
1
 62
     1
100
AcDbLine
 10
12.30653573963962
 20
-5.943265113482032
 30
0.0
 11
12.20315271407281
 21
-5.963159827241455
 31
0.0
  0
LINE
  5
4D2
330
18
100
AcDbEntity
  8
1
 62
     1
100
AcDbLine
 10
12.20315271407281
 20
-5.963159827241455
 30
0.0
 11
12.10094361348291
 21
-5.977548819031159
 31
0.0
  0
LINE
  5
4D3
330
18
100
AcDbEntity
  8
1
 62
     1
100
AcDbLine
 10
12.10094361348291
 20
-5.977548819031159
 30
0.0
 11
12.0
 21
-5.986495647719855
 31
0.0
  0
ARC
  5
4D4
330
18
100
AcDbEntity
  8
1
 62
     1
100
AcDbCircle
 10
12.00001066208202
 20
-3.500000610322874
 30
0.0
 40
2.499989319812773
100
AcDbArc
 50
353.9809254409612
 51
0.0000139876296823
  0
LINE
  5
4D5
330
18
100
AcDbEntity
  8
1
 62
     1
100
AcDbLine
 10
11.32533841183986
 20
3.192027642939133
 30
0.0
 11
10.49400220652261
 21
3.817838138149917
 31
0.0
  0
LINE
  5
4D6
330
18
100
AcDbEntity
  8
1
 62
     1
100
AcDbLine
 10
10.49400220652261
 20
3.817838138149917
 30
0.0
 11
9.662657005321702
 21
4.380469940219084
 31
0.0
  0
LINE
  5
4D7
330
18
100
AcDbEntity
  8
1
 62
     1
100
AcDbLine
 10
9.662657005321702
 20
4.380469940219084
 30
0.0
 11
8.831325557660936
 21
4.870596843985103
 31
0.0
  0
LINE
  5
4D8
330
18
100
AcDbEntity
  8
1
 62
     1
100
AcDbLine
 10
8.831325557660936
 20
4.870596843985103
 30
0.0
 11
8.415661078460463
 21
5.085889302634308
 31
0.0
  0
LINE
  5
4D9
330
18
100
AcDbEntity
  8
1
 62
     1
100
AcDbLine
 10
8.415661078460463
 20
5.085889302634308
 30
0.0
 11
8.000000000000002
 21
5.280116756136558
 31
0.0
  0
LINE
  5
4DA
330
18
100
AcDbEntity
  8
1
 62
     1
100
AcDbLine
 10
11.16872461450037
 20
-0.0000000000006357
 30
0.0
 11
7.999999999999999
 21
2.827379818596352
 31
0.0
  0
LINE
  5
4DB
330
18
100
AcDbEntity
  8
1
 62
     1
100
AcDbLine
 10
11.16872461450096
 20
0.000000000000001
 30
0.0
 11
8.0
 21
1.713392100344139
 31
0.0
  0
LINE
  5
4DC
330
18
100
AcDbEntity
  8
SK1
100
AcDbLine
 10
0.0
 20
4.615
 30
0.0
 11
-2.5
 21
4.52
 31
0.0
  0
LINE
  5
4DD
330
18
100
AcDbEntity
  8
SK1
100
AcDbLine
 10
-2.5
 20
4.52
 30
0.0
 11
-9.8
 21
3.75
 31
0.0
  0
LINE
  5
4DE
330
18
100
AcDbEntity
  8
SK1
100
AcDbLine
 10
-2.5
 20
4.52
 30
0.0
 11
-2.5
 21
4.515506246309627
 31
0.0
  0
LINE
  5
4DF
330
18
100
AcDbEntity
  8
SK1
100
AcDbLine
 10
-2.5
 20
4.515506246309627
 30
0.0
 11
-2.5
 21
4.114435712660525
 31
0.0
  0
LINE
  5
4E0
330
18
100
AcDbEntity
  8
SK1
100
AcDbLine
 10
-2.5
 20
4.114435712660525
 30
0.0
 11
-2.5
 21
-4.52
 31
0.0
  0
LINE
  5
4E1
330
18
100
AcDbEntity
  8
SK1
100
AcDbLine
 10
-9.8
 20
3.75
 30
0.0
 11
-9.800000000000002
 21
3.746271775146262
 31
0.0
  0
LINE
  5
4E2
330
18
100
AcDbEntity
  8
SK1
100
AcDbLine
 10
-9.800000000000002
 20
3.746271775146262
 30
0.0
 11
-9.8
 21
3.413525204087825
 31
0.0
  0
LINE
  5
4E3
330
18
100
AcDbEntity
  8
SK1
100
AcDbLine
 10
-9.8
 20
3.413525204087825
 30
0.0
 11
-9.8
 21
-3.75
 31
0.0
  0
LINE
  5
4E4
330
18
100
AcDbEntity
  8
SK1
100
AcDbLine
 10
-9.8
 20
2.75
 30
0.0
 11
-13.8
 21
2.75
 31
0.0
  0
LINE
  5
4E5
330
18
100
AcDbEntity
  8
SK1
100
AcDbLine
 10
-13.8
 20
2.75
 30
0.0
 11
-13.8
 21
2.747265968440592
 31
0.0
  0
LINE
  5
4E6
330
18
100
AcDbEntity
  8
SK1
100
AcDbLine
 10
-13.8
 20
2.747265968440592
 30
0.0
 11
-13.8
 21
2.503251816331072
 31
0.0
  0
LINE
  5
4E7
330
18
100
AcDbEntity
  8
SK1
100
AcDbLine
 10
-13.8
 20
2.503251816331072
 30
0.0
 11
-13.8
 21
-2.75
 31
0.0
  0
LINE
  5
4E8
330
18
100
AcDbEntity
  8
SK1
100
AcDbLine
 10
-2.5
 20
-4.52
 30
0.0
 11
0.0
 21
-4.615
 31
0.0
  0
LINE
  5
4E9
330
18
100
AcDbEntity
  8
SK1
100
AcDbLine
 10
-9.8
 20
-3.75
 30
0.0
 11
-2.5
 21
-4.52
 31
0.0
  0
LINE
  5
4EA
330
18
100
AcDbEntity
  8
SK1
100
AcDbLine
 10
-13.8
 20
-2.75
 30
0.0
 11
-9.8
 21
-2.75
 31
0.0
  0
DIMENSION
  5
4EB
330
18
100
AcDbEntity
  8
2
100
AcDbDimension
  2
*D0
 10
29.50000000000002
 20
-5.999999999999948
 30
0.0
 11
27.10925
 21
0.0000000000000439
 31
0.0
 70
    32
  1
%%c<>
 71
     5
 42
12.0
  3
STANDARD
100
AcDbAlignedDimension
 13
14.5
 23
6.0
 33
0.0
 14
14.5
 24
-6.0
 34
0.0
 50
90.0000000000002
100
AcDbRotatedDimension
  0
DIMENSION
  5
4F8
330
18
100
AcDbEntity
  8
2
100
AcDbDimension
  2
*D1
 10
14.5
 20
75.0
 30
0.0
 11
7.25
 21
77.438
 31
0.0
 70
    32
  1
<>
 71
     5
 42
14.5
  3
STANDARD
100
AcDbAlignedDimension
 13
0.0
 23
0.0
 33
0.0
 14
14.5
 24
0.0
 34
0.0
100
AcDbRotatedDimension
  0
DIMENSION
  5
505
330
18
100
AcDbEntity
  8
2
100
AcDbDimension
  2
*D2
 10
14.5
 20
60.0
 30
0.0
 11
21.188
 21
62.39775
 31
0.0
 70
    32
  1
<>
 71
     5
 42
6.5
  3
STANDARD
100
AcDbAlignedDimension
 13
8.0
 23
5.85
 33
0.0
 14
14.5
 24
6.0
 34
0.0
100
AcDbRotatedDimension
  0
DIMENSION
  5
513
330
18
100
AcDbEntity
  8
SK2
100
AcDbDimension
  2
*D3
 10
14.5
 20
90.0
 30
0.0
 11
0.3499999999999996
 21
92.39775
 31
0.0
 70
    32
  1
<>
 71
     5
 42
28.3
  3
STANDARD
100
AcDbAlignedDimension
 13
-13.8
 23
0.0
 33
0.0
 14
14.5
 24
0.0
 34
0.0
100
AcDbRotatedDimension
  0
DIMENSION
  5
520
330
18
100
AcDbEntity
  8
2
100
AcDbDimension
  2
*D4
 10
4.100000000000001
 20
-5.85
 30
0.0
 11
1.702249999999999
 21
-15.42025
 31
0.0
 70
    32
  1
%%c<>
 71
     5
 42
11.7
  3
STANDARD
100
AcDbAlignedDimension
 13
4.0
 23
5.85
 33
0.0
 14
4.0
 24
-5.85
 34
0.0
 50
90.0
100
AcDbRotatedDimension
  0
DIMENSION
  5
52E
330
18
100
AcDbEntity
  8
2
100
AcDbDimension
  2
*D5
 10
12.0
 20
-3.5
 30
0.0
 11
15.65117185891624
 21
-24.20682458377151
 31
0.0
 70
   164
  1
<>
 71
     5
 42
2.5
  3
STANDARD
100
AcDbRadialDimension
 15
12.43412044416733
 25
-5.96201938253052
 35
0.0
 40
0.0
  0
ENDSEC
  0
SECTION
  2
OBJECTS
  0
DICTIONARY
  5
C
330
0
100
AcDbDictionary
281
     1
  3
ACAD_COLOR
350
387
  3
ACAD_GROUP
350
D
  3
ACAD_LAYOUT
350
301
  3
ACAD_MATERIAL
350
386
  3
ACAD_MLEADERSTYLE
350
3DE
  3
ACAD_MLINESTYLE
350
E
  3
ACAD_PLOTSETTINGS
350
302
  3
ACAD_PLOTSTYLENAME
350
2FF
  3
ACAD_SCALELIST
350
3A0
  3
ACAD_TABLESTYLE
350
388
  3
ACAD_VISUALSTYLE
350
3C2
  3
ACDBHEADERROUNDTRIPXREC
350
53B
  3
AcDbVariableDictionary
350
357
  0
DICTIONARY
  5
53E
330
8
100
AcDbDictionary
280
     1
281
     1
  3
ACAD_XREC_ROUNDTRIP
360
53F
  0
DICTIONARY
  5
387
102
{ACAD_REACTORS
330
C
102
}
330
C
100
AcDbDictionary
281
     1
  0
DICTIONARY
  5
D
102
{ACAD_REACTORS
330
C
102
}
330
C
100
AcDbDictionary
281
     1
  0
DICTIONARY
  5
301
102
{ACAD_REACTORS
330
C
102
}
330
C
100
AcDbDictionary
281
     1
  3
Layout1
350
33B
  3
Model
350
303
  0
DICTIONARY
  5
386
102
{ACAD_REACTORS
330
C
102
}
330
C
100
AcDbDictionary
281
     1
  3
ByBlock
350
3DC
  3
ByLayer
350
3DB
  3
Global
350
3DD
  0
DICTIONARY
  5
3DE
102
{ACAD_REACTORS
330
C
102
}
330
C
100
AcDbDictionary
281
     1
  3
Standard
350
3DF
  0
DICTIONARY
  5
E
102
{ACAD_REACTORS
330
C
102
}
330
C
100
AcDbDictionary
281
     1
  3
STANDARD
350
1B
  0
DICTIONARY
  5
302
102
{ACAD_REACTORS
330
C
102
}
330
C
100
AcDbDictionary
281
     1
  0
ACDBDICTIONARYWDFLT
  5
2FF
102
{ACAD_REACTORS
330
C
102
}
330
C
100
AcDbDictionary
281
     1
  3
Normal
350
300
100
AcDbDictionaryWithDefault
340
300
  0
DICTIONARY
  5
3A0
102
{ACAD_REACTORS
330
C
102
}
330
C
100
AcDbDictionary
281
     1
  3
A0
350
3A1
  3
A1
350
3A2
  3
A2
350
3A3
  3
A3
350
3A4
  3
A4
350
3A5
  3
A5
350
3A6
  3
A6
350
3A7
  3
A7
350
3A8
  3
A8
350
3A9
  3
A9
350
3AA
  3
B0
350
3AB
  3
B1
350
3AC
  3
B2
350
3AD
  3
B3
350
3AE
  3
B4
350
3AF
  3
B5
350
3B0
  3
B6
350
3B1
  3
B7
350
3B2
  3
B8
350
3B3
  3
B9
350
3B4
  3
C0
350
3B5
  3
C1
350
3B6
  3
C2
350
3B7
  3
C3
350
3B8
  3
C4
350
3B9
  3
C5
350
3BA
  3
C6
350
3BB
  3
C7
350
3BC
  3
C8
350
3BD
  3
C9
350
3BE
  3
D0
350
3BF
  3
D1
350
3C0
  3
D2
350
3C1
  0
DICTIONARY
  5
388
102
{ACAD_REACTORS
330
C
102
}
330
C
100
AcDbDictionary
281
     1
  3
Standard
350
389
  0
DICTIONARY
  5
3C2
102
{ACAD_REACTORS
330
C
102
}
330
C
100
AcDbDictionary
281
     1
  3
2dWireframe
350
3C7
  3
Basic
350
3CA
  3
Brighten
350
3CE
  3
ColorChange
350
3D2
  3
Conceptual
350
3CC
  3
Dim
350
3CD
  3
EdgeColorOff
350
3D5
  3
Facepattern
350
3D1
  3
Flat
350
3C3
  3
FlatWithEdges
350
3C4
  3
Gouraud
350
3C5
  3
GouraudWithEdges
350
3C6
  3
Hidden
350
3C9
  3
JitterOff
350
3D3
  3
Linepattern
350
3D0
  3
OverhangOff
350
3D4
  3
Realistic
350
3CB
  3
Shaded
350
3DA
  3
Shaded with edges
350
3D9
  3
Shades of Gray
350
3D6
  3
Sketchy
350
3D7
  3
Thicken
350
3CF
  3
Wireframe
350
3C8
  3
X-Ray
350
3D8
  0
DICTIONARY
  5
53B
102
{ACAD_REACTORS
330
C
102
}
330
C
100
AcDbDictionary
281
     1
  3
COLORDICT
350
53C
  3
MATERIALDICT
350
53D
  0
DICTIONARY
  5
357
102
{ACAD_REACTORS
330
C
102
}
330
C
100
AcDbDictionary
281
     1
  3
CANNOSCALE
350
540
  3
CMLEADERSTYLE
350
537
  3
CTABLESTYLE
350
38D
  3
DIMASSOC
350
359
  3
HIDETEXT
350
358
  3
MSLTSCALE
350
538
  3
PROJECTNAME
350
38E
  0
XRECORD
  5
53F
102
{ACAD_REACTORS
330
53E
102
}
330
53E
100
AcDbXrecord
280
     1
102
VTR_0.000_0.000_1.000_1.000_VISUALSTYLE
340
3C7
102
VTR_0.000_0.000_1.000_1.000_GRIDDISPLAY
 70
     3
102
VTR_0.000_0.000_1.000_1.000_GRIDMAJOR
 70
     5
102
VTR_0.000_0.000_1.000_1.000_DEFAULTLIGHTING
280
     1
102
VTR_0.000_0.000_1.000_1.000_DEFAULTLIGHTINGTYPE
 70
     1
102
VTR_0.000_0.000_1.000_1.000_BRIGHTNESS
141
0.0
102
VTR_0.000_0.000_1.000_1.000_CONTRAST
142
0.0
  0
LAYOUT
  5
33B
102
{ACAD_REACTORS
330
301
102
}
330
301
100
AcDbPlotSettings
  1

  2
Lexmark Optra PS2
  4

  6

 40
0.0
 41
0.0
 42
0.0
 43
0.0
 44
0.0
 45
0.0
 46
0.0
 47
0.0
 48
0.0
 49
0.0
140
0.0
141
0.0
142
1.0
143
1.0
 70
   688
 72
     0
 73
     0
 74
     5
  7
monochrome.ctb
 75
    16
147
1.0
148
0.0
149
0.0
100
AcDbLayout
  1
Layout1
 70
     1
 71
     1
 10
0.0
 20
0.0
 11
12.0
 21
9.0
 12
0.0
 22
0.0
 32
0.0
 14
0.0
 24
0.0
 34
0.0
 15
0.0
 25
0.0
 35
0.0
146
0.0
 13
0.0
 23
0.0
 33
0.0
 16
1.0
 26
0.0
 36
0.0
 17
0.0
 27
1.0
 37
0.0
 76
     0
330
338
  0
LAYOUT
  5
303
102
{ACAD_REACTORS
330
301
102
}
330
301
100
AcDbPlotSettings
  1

  2
Lexmark Optra Rx
  4
A4
  6

 40
6.805083274841307
 41
5.535083293914794
 42
6.974411010742187
 43
7.14373779296875
 44
209.9733276367186
 45
296.9259948730469
 46
0.0
 47
0.0
 48
0.0
 49
0.0
140
0.0
141
0.0
142
1.0
143
2.976565420630886
 70
 11952
 72
     1
 73
     1
 74
     0
  7
monochrome.ctb
 75
     0
147
0.335957675604539
148
204.1199660668592
149
172.3933209647495
100
AcDbLayout
  1
Model
 70
     1
 71
     0
 10
0.0
 20
0.0
 11
12.0
 21
9.0
 12
0.0
 22
0.0
 32
0.0
 14
0.0
 24
0.0
 34
0.0
 15
0.0
 25
0.0
 35
0.0
146
0.0
 13
0.0
 23
0.0
 33
0.0
 16
1.0
 26
0.0
 36
0.0
 17
0.0
 27
1.0
 37
0.0
 76
     0
330
18
331
39A
  0
MATERIAL
  5
3DC
102
{ACAD_REACTORS
330
386
102
}
102
{ACAD_XDICTIONARY
360
543
102
}
330
386
100
AcDbMaterial
  1
ByBlock
  0
MATERIAL
  5
3DB
102
{ACAD_REACTORS
330
386
102
}
102
{ACAD_XDICTIONARY
360
541
102
}
330
386
100
AcDbMaterial
  1
ByLayer
  0
MATERIAL
  5
3DD
102
{ACAD_REACTORS
330
386
102
}
102
{ACAD_XDICTIONARY
360
545
102
}
330
386
100
AcDbMaterial
  1
Global
  0
MLEADERSTYLE
  5
3DF
102
{ACAD_REACTORS
330
3DE
102
}
102
{ACAD_XDICTIONARY
360
578
102
}
330
3DE
100
AcDbMLeaderStyle
170
     2
171
     1
172
     0
 90
        2
 40
0.0
 41
0.0
173
     1
 91
-1056964608
340
12
 92
       -2
290
     1
 42
2.0
291
     1
 43
8.0
  3
Standard
341
0
 44
4.0
300

342
10
174
     1
178
     6
175
     1
176
     0
 93
-1056964608
 45
4.0
292
     0
297
     0
 46
4.0
343
0
 94
-1056964608
 47
1.0
 49
1.0
140
1.0
293
     1
141
0.0
294
     1
177
     0
142
1.0
295
     0
296
     0
143
3.75
1001
ACAD_MLEADERVER
1070
     2
  0
MLINESTYLE
  5
1B
102
{ACAD_REACTORS
330
E
102
}
330
E
100
AcDbMlineStyle
  2
STANDARD
 70
     0
  3

 62
     0
 51
90.0
 52
90.0
 71
     2
 49
0.5
 62
   256
  6
BYLAYER
 49
-0.5
 62
   256
  6
BYLAYER
  0
ACDBPLACEHOLDER
  5
300
102
{ACAD_REACTORS
330
2FF
102
}
330
2FF
  0
SCALE
  5
3A1
102
{ACAD_REACTORS
330
3A0
102
}
330
3A0
100
AcDbScale
 70
     0
300
1:1
140
1.0
141
1.0
290
     1
  0
SCALE
  5
3A2
102
{ACAD_REACTORS
330
3A0
102
}
330
3A0
100
AcDbScale
 70
     0
300
1:2
140
1.0
141
2.0
290
     0
  0
SCALE
  5
3A3
102
{ACAD_REACTORS
330
3A0
102
}
330
3A0
100
AcDbScale
 70
     0
300
1:4
140
1.0
141
4.0
290
     0
  0
SCALE
  5
3A4
102
{ACAD_REACTORS
330
3A0
102
}
330
3A0
100
AcDbScale
 70
     0
300
1:5
140
1.0
141
5.0
290
     0
  0
SCALE
  5
3A5
102
{ACAD_REACTORS
330
3A0
102
}
330
3A0
100
AcDbScale
 70
     0
300
1:8
140
1.0
141
8.0
290
     0
  0
SCALE
  5
3A6
102
{ACAD_REACTORS
330
3A0
102
}
330
3A0
100
AcDbScale
 70
     0
300
1:10
140
1.0
141
10.0
290
     0
  0
SCALE
  5
3A7
102
{ACAD_REACTORS
330
3A0
102
}
330
3A0
100
AcDbScale
 70
     0
300
1:16
140
1.0
141
16.0
290
     0
  0
SCALE
  5
3A8
102
{ACAD_REACTORS
330
3A0
102
}
330
3A0
100
AcDbScale
 70
     0
300
1:20
140
1.0
141
20.0
290
     0
  0
SCALE
  5
3A9
102
{ACAD_REACTORS
330
3A0
102
}
330
3A0
100
AcDbScale
 70
     0
300
1:30
140
1.0
141
30.0
290
     0
  0
SCALE
  5
3AA
102
{ACAD_REACTORS
330
3A0
102
}
330
3A0
100
AcDbScale
 70
     0
300
1:40
140
1.0
141
40.0
290
     0
  0
SCALE
  5
3AB
102
{ACAD_REACTORS
330
3A0
102
}
330
3A0
100
AcDbScale
 70
     0
300
1:50
140
1.0
141
50.0
290
     0
  0
SCALE
  5
3AC
102
{ACAD_REACTORS
330
3A0
102
}
330
3A0
100
AcDbScale
 70
     0
300
1:100
140
1.0
141
100.0
290
     0
  0
SCALE
  5
3AD
102
{ACAD_REACTORS
330
3A0
102
}
330
3A0
100
AcDbScale
 70
     0
300
2:1
140
2.0
141
1.0
290
     0
  0
SCALE
  5
3AE
102
{ACAD_REACTORS
330
3A0
102
}
330
3A0
100
AcDbScale
 70
     0
300
4:1
140
4.0
141
1.0
290
     0
  0
SCALE
  5
3AF
102
{ACAD_REACTORS
330
3A0
102
}
330
3A0
100
AcDbScale
 70
     0
300
8:1
140
8.0
141
1.0
290
     0
  0
SCALE
  5
3B0
102
{ACAD_REACTORS
330
3A0
102
}
330
3A0
100
AcDbScale
 70
     0
300
10:1
140
10.0
141
1.0
290
     0
  0
SCALE
  5
3B1
102
{ACAD_REACTORS
330
3A0
102
}
330
3A0
100
AcDbScale
 70
     0
300
100:1
140
100.0
141
1.0
290
     0
  0
SCALE
  5
3B2
102
{ACAD_REACTORS
330
3A0
102
}
330
3A0
100
AcDbScale
 70
     0
300
1/128" = 1'-0"
140
0.0078125
141
12.0
290
     0
  0
SCALE
  5
3B3
102
{ACAD_REACTORS
330
3A0
102
}
330
3A0
100
AcDbScale
 70
     0
300
1/64" = 1'-0"
140
0.015625
141
12.0
290
     0
  0
SCALE
  5
3B4
102
{ACAD_REACTORS
330
3A0
102
}
330
3A0
100
AcDbScale
 70
     0
300
1/32" = 1'-0"
140
0.03125
141
12.0
290
     0
  0
SCALE
  5
3B5
102
{ACAD_REACTORS
330
3A0
102
}
330
3A0
100
AcDbScale
 70
     0
300
1/16" = 1'-0"
140
0.0625
141
12.0
290
     0
  0
SCALE
  5
3B6
102
{ACAD_REACTORS
330
3A0
102
}
330
3A0
100
AcDbScale
 70
     0
300
3/32" = 1'-0"
140
0.09375
141
12.0
290
     0
  0
SCALE
  5
3B7
102
{ACAD_REACTORS
330
3A0
102
}
330
3A0
100
AcDbScale
 70
     0
300
1/8" = 1'-0"
140
0.125
141
12.0
290
     0
  0
SCALE
  5
3B8
102
{ACAD_REACTORS
330
3A0
102
}
330
3A0
100
AcDbScale
 70
     0
300
3/16" = 1'-0"
140
0.1875
141
12.0
290
     0
  0
SCALE
  5
3B9
102
{ACAD_REACTORS
330
3A0
102
}
330
3A0
100
AcDbScale
 70
     0
300
1/4" = 1'-0"
140
0.25
141
12.0
290
     0
  0
SCALE
  5
3BA
102
{ACAD_REACTORS
330
3A0
102
}
330
3A0
100
AcDbScale
 70
     0
300
3/8" = 1'-0"
140
0.375
141
12.0
290
     0
  0
SCALE
  5
3BB
102
{ACAD_REACTORS
330
3A0
102
}
330
3A0
100
AcDbScale
 70
     0
300
1/2" = 1'-0"
140
0.5
141
12.0
290
     0
  0
SCALE
  5
3BC
102
{ACAD_REACTORS
330
3A0
102
}
330
3A0
100
AcDbScale
 70
     0
300
3/4" = 1'-0"
140
0.75
141
12.0
290
     0
  0
SCALE
  5
3BD
102
{ACAD_REACTORS
330
3A0
102
}
330
3A0
100
AcDbScale
 70
     0
300
1" = 1'-0"
140
1.0
141
12.0
290
     0
  0
SCALE
  5
3BE
102
{ACAD_REACTORS
330
3A0
102
}
330
3A0
100
AcDbScale
 70
     0
300
1-1/2" = 1'-0"
140
1.5
141
12.0
290
     0
  0
SCALE
  5
3BF
102
{ACAD_REACTORS
330
3A0
102
}
330
3A0
100
AcDbScale
 70
     0
300
3" = 1'-0"
140
3.0
141
12.0
290
     0
  0
SCALE
  5
3C0
102
{ACAD_REACTORS
330
3A0
102
}
330
3A0
100
AcDbScale
 70
     0
300
6" = 1'-0"
140
6.0
141
12.0
290
     0
  0
SCALE
  5
3C1
102
{ACAD_REACTORS
330
3A0
102
}
330
3A0
100
AcDbScale
 70
     0
300
1'-0" = 1'-0"
140
12.0
141
12.0
290
     0
  0
TABLESTYLE
  5
389
102
{ACAD_REACTORS
330
388
102
}
330
388
100
AcDbTableStyle
  3
Standard
 70
     0
 71
     0
 40
1.5
 41
1.5
280
     0
281
     0
  7
STANDARD
140
4.5
170
     2
 62
     0
 63
   257
283
     0
274
    -2
284
     1
 64
     0
275
    -2
285
     1
 65
     0
276
    -2
286
     1
 66
     0
277
    -2
287
     1
 67
     0
278
    -2
288
     1
 68
     0
279
    -2
289
     1
 69
     0
  7
STANDARD
140
6.0
170
     5
 62
     0
 63
   257
283
     0
274
    -2
284
     1
 64
     0
275
    -2
285
     1
 65
     0
276
    -2
286
     1
 66
     0
277
    -2
287
     1
 67
     0
278
    -2
288
     1
 68
     0
279
    -2
289
     1
 69
     0
  7
STANDARD
140
4.5
170
     5
 62
     0
 63
   257
283
     0
274
    -2
284
     1
 64
     0
275
    -2
285
     1
 65
     0
276
    -2
286
     1
 66
     0
277
    -2
287
     1
 67
     0
278
    -2
288
     1
 68
     0
279
    -2
289
     1
 69
     0
  0
VISUALSTYLE
  5
3C7
102
{ACAD_REACTORS
330
3C2
102
}
102
{ACAD_XDICTIONARY
360
54F
102
}
330
3C2
100
AcDbVisualStyle
  2
2dWireframe
 70
     4
 71
     0
 72
     2
 73
     0
 90
        0
 40
0.6
 41
30.0
 62
     5
 63
     7
 74
     1
 91
        4
 64
     7
 65
   257
 75
     1
175
     1
 42
1.0
 92
        0
 66
   257
 43
1.0
 76
     1
 77
     6
 78
     2
 67
     7
 79
     5
170
     0
171
     0
290
     0
174
     0
 93
        1
 44
0.0
173
     0
291
     0
 45
0.0
1001
ACAD
1000
AcDbSavedByObjectVersion
1070
     0
  0
VISUALSTYLE
  5
3CA
102
{ACAD_REACTORS
330
3C2
102
}
102
{ACAD_XDICTIONARY
360
555
102
}
330
3C2
100
AcDbVisualStyle
  2
Basic
 70
     7
 71
     1
 72
     0
 73
     1
 90
        0
 40
0.6
 41
30.0
 62
     5
 63
     7
 74
     0
 91
        4
 64
     7
 65
   257
 75
     1
175
     1
 42
1.0
 92
        8
 66
     7
 43
1.0
 76
     1
 77
     6
 78
     2
 67
     7
 79
     5
170
     0
171
     0
290
     0
174
     0
 93
        1
 44
0.0
173
     0
291
     1
 45
0.0
1001
ACAD
1000
AcDbSavedByObjectVersion
1070
     0
  0
VISUALSTYLE
  5
3CE
102
{ACAD_REACTORS
330
3C2
102
}
102
{ACAD_XDICTIONARY
360
55D
102
}
330
3C2
100
AcDbVisualStyle
  2
Brighten
 70
    12
 71
     2
 72
     2
 73
     0
 90
        0
 40
0.6
 41
30.0
 62
     5
 63
     7
 74
     1
 91
        4
 64
     7
 65
   257
 75
     1
175
     1
 42
1.0
 92
        8
 66
     7
 43
1.0
 76
     1
 77
     6
 78
     2
 67
     7
 79
     5
170
     0
171
     0
290
     0
174
     0
 93
        1
 44
50.0
173
     0
291
     1
 45
0.0
1001
ACAD
1000
AcDbSavedByObjectVersion
1070
     0
  0
VISUALSTYLE
  5
3D2
102
{ACAD_REACTORS
330
3C2
102
}
102
{ACAD_XDICTIONARY
360
565
102
}
330
3C2
100
AcDbVisualStyle
  2
ColorChange
 70
    16
 71
     2
 72
     2
 73
     3
 90
        0
 40
0.6
 41
30.0
 62
     5
 63
     8
 74
     1
 91
        4
 64
     7
 65
   257
 75
     1
175
     1
 42
1.0
 92
        8
 66
     8
 43
1.0
 76
     1
 77
     6
 78
     2
 67
     7
 79
     5
170
     0
171
     0
290
     0
174
     0
 93
        1
 44
0.0
173
     0
291
     1
 45
0.0
1001
ACAD
1000
AcDbSavedByObjectVersion
1070
     0
  0
VISUALSTYLE
  5
3CC
102
{ACAD_REACTORS
330
3C2
102
}
102
{ACAD_XDICTIONARY
360
559
102
}
330
3C2
100
AcDbVisualStyle
  2
Conceptual
 70
     9
 71
     3
 72
     2
 73
     0
 90
        0
 40
0.6
 41
30.0
 62
     5
 63
     7
 74
     2
 91
        2
 64
     7
 65
   257
 75
     1
175
     1
 42
179.0
 92
        8
 66
     7
 43
1.0
 76
     1
 77
     6
 78
     2
 67
     7
 79
     3
170
     0
171
     0
290
     0
174
     0
 93
        1
 44
0.0
173
     0
291
     0
 45
0.0
1001
ACAD
1000
AcDbSavedByObjectVersion
1070
     0
  0
VISUALSTYLE
  5
3CD
102
{ACAD_REACTORS
330
3C2
102
}
102
{ACAD_XDICTIONARY
360
55B
102
}
330
3C2
100
AcDbVisualStyle
  2
Dim
 70
    11
 71
     2
 72
     2
 73
     0
 90
        0
 40
0.6
 41
30.0
 62
     5
 63
     7
 74
     1
 91
        4
 64
     7
 65
   257
 75
     1
175
     1
 42
1.0
 92
        8
 66
     7
 43
1.0
 76
     1
 77
     6
 78
     2
 67
     7
 79
     5
170
     0
171
     0
290
     0
174
     0
 93
        1
 44
-50.0
173
     0
291
     1
 45
0.0
1001
ACAD
1000
AcDbSavedByObjectVersion
1070
     0
  0
VISUALSTYLE
  5
3D5
102
{ACAD_REACTORS
330
3C2
102
}
102
{ACAD_XDICTIONARY
360
56B
102
}
330
3C2
100
AcDbVisualStyle
  2
EdgeColorOff
 70
    22
 71
     2
 72
     2
 73
     0
 90
        0
 40
0.6
 41
30.0
 62
     5
 63
     7
 74
     1
 91
        4
 64
     7
 65
   257
 75
     1
175
     1
 42
1.0
 92
        8
 66
     7
 43
1.0
 76
     1
 77
     6
 78
     2
 67
     7
 79
     5
170
     0
171
     0
290
     0
174
     0
 93
        1
 44
0.0
173
     0
291
     1
 45
0.0
1001
ACAD
1000
AcDbSavedByObjectVersion
1070
     0
  0
VISUALSTYLE
  5
3D1
102
{ACAD_REACTORS
330
3C2
102
}
102
{ACAD_XDICTIONARY
360
563
102
}
330
3C2
100
AcDbVisualStyle
  2
Facepattern
 70
    15
 71
     2
 72
     2
 73
     0
 90
        0
 40
0.6
 41
30.0
 62
     5
 63
     7
 74
     1
 91
        4
 64
     7
 65
   257
 75
     1
175
     1
 42
1.0
 92
        8
 66
     7
 43
1.0
 76
     1
 77
     6
 78
     2
 67
     7
 79
     5
170
     0
171
     0
290
     0
174
     0
 93
        1
 44
0.0
173
     0
291
     1
 45
0.0
1001
ACAD
1000
AcDbSavedByObjectVersion
1070
     0
  0
VISUALSTYLE
  5
3C3
102
{ACAD_REACTORS
330
3C2
102
}
102
{ACAD_XDICTIONARY
360
547
102
}
330
3C2
100
AcDbVisualStyle
  2
Flat
 70
     0
 71
     2
 72
     1
 73
     1
 90
        2
 40
0.6
 41
30.0
 62
     5
 63
     7
 74
     0
 91
        0
 64
     7
 65
   257
 75
     1
175
     1
 42
1.0
 92
        8
 66
     7
 43
1.0
 76
     1
 77
     6
 78
     2
 67
     7
 79
     5
170
     0
171
     0
290
     0
174
     0
 93
       13
 44
0.0
173
     0
291
     1
 45
0.0
1001
ACAD
1000
AcDbSavedByObjectVersion
1070
     0
  0
VISUALSTYLE
  5
3C4
102
{ACAD_REACTORS
330
3C2
102
}
102
{ACAD_XDICTIONARY
360
549
102
}
330
3C2
100
AcDbVisualStyle
  2
FlatWithEdges
 70
     1
 71
     2
 72
     1
 73
     1
 90
        2
 40
0.6
 41
30.0
 62
     5
 63
     7
 74
     1
 91
        0
 64
     7
 65
   257
 75
     1
175
     1
 42
1.0
 92
        0
 66
   257
 43
1.0
 76
     1
 77
     6
 78
     2
 67
     7
 79
     5
170
     0
171
     0
290
     0
174
     0
 93
       13
 44
0.0
173
     0
291
     1
 45
0.0
1001
ACAD
1000
AcDbSavedByObjectVersion
1070
     0
  0
VISUALSTYLE
  5
3C5
102
{ACAD_REACTORS
330
3C2
102
}
102
{ACAD_XDICTIONARY
360
54B
102
}
330
3C2
100
AcDbVisualStyle
  2
Gouraud
 70
     2
 71
     2
 72
     2
 73
     1
 90
        2
 40
0.6
 41
30.0
 62
     5
 63
     7
 74
     0
 91
        0
 64
     7
 65
   257
 75
     1
175
     1
 42
1.0
 92
        0
 66
     7
 43
1.0
 76
     1
 77
     6
 78
     2
 67
     7
 79
     5
170
     0
171
     0
290
     0
174
     0
 93
       13
 44
0.0
173
     0
291
     1
 45
0.0
1001
ACAD
1000
AcDbSavedByObjectVersion
1070
     0
  0
VISUALSTYLE
  5
3C6
102
{ACAD_REACTORS
330
3C2
102
}
102
{ACAD_XDICTIONARY
360
54D
102
}
330
3C2
100
AcDbVisualStyle
  2
GouraudWithEdges
 70
     3
 71
     2
 72
     2
 73
     1
 90
        2
 40
0.6
 41
30.0
 62
     5
 63
     7
 74
     1
 91
        0
 64
     7
 65
   257
 75
     1
175
     1
 42
1.0
 92
        0
 66
   257
 43
1.0
 76
     1
 77
     6
 78
     2
 67
     7
 79
     5
170
     0
171
     0
290
     0
174
     0
 93
       13
 44
0.0
173
     0
291
     1
 45
0.0
1001
ACAD
1000
AcDbSavedByObjectVersion
1070
     0
  0
VISUALSTYLE
  5
3C9
102
{ACAD_REACTORS
330
3C2
102
}
102
{ACAD_XDICTIONARY
360
553
102
}
330
3C2
100
AcDbVisualStyle
  2
Hidden
 70
     6
 71
     1
 72
     2
 73
     2
 90
        0
 40
0.6
 41
30.0
 62
     5
 63
     7
 74
     2
 91
        2
 64
     7
 65
   257
 75
     2
175
     1
 42
40.0
 92
        0
 66
   257
 43
1.0
 76
     1
 77
     6
 78
     2
 67
     7
 79
     3
170
     0
171
     0
290
     0
174
     0
 93
        1
 44
0.0
173
     0
291
     0
 45
0.0
1001
ACAD
1000
AcDbSavedByObjectVersion
1070
     0
  0
VISUALSTYLE
  5
3D3
102
{ACAD_REACTORS
330
3C2
102
}
102
{ACAD_XDICTIONARY
360
567
102
}
330
3C2
100
AcDbVisualStyle
  2
JitterOff
 70
    20
 71
     2
 72
     2
 73
     0
 90
        0
 40
0.6
 41
30.0
 62
     5
 63
     7
 74
     1
 91
        4
 64
     7
 65
   257
 75
     1
175
     1
 42
1.0
 92
       10
 66
     7
 43
1.0
 76
     1
 77
     6
 78
     2
 67
     7
 79
     5
170
     0
171
     0
290
     0
174
     0
 93
        1
 44
0.0
173
     0
291
     1
 45
0.0
1001
ACAD
1000
AcDbSavedByObjectVersion
1070
     0
  0
VISUALSTYLE
  5
3D0
102
{ACAD_REACTORS
330
3C2
102
}
102
{ACAD_XDICTIONARY
360
561
102
}
330
3C2
100
AcDbVisualStyle
  2
Linepattern
 70
    14
 71
     2
 72
     2
 73
     0
 90
        0
 40
0.6
 41
30.0
 62
     5
 63
     7
 74
     1
 91
        4
 64
     7
 65
   257
 75
     7
175
     7
 42
1.0
 92
        8
 66
     7
 43
1.0
 76
     1
 77
     6
 78
     2
 67
     7
 79
     5
170
     0
171
     0
290
     0
174
     0
 93
        1
 44
0.0
173
     0
291
     1
 45
0.0
1001
ACAD
1000
AcDbSavedByObjectVersion
1070
     0
  0
VISUALSTYLE
  5
3D4
102
{ACAD_REACTORS
330
3C2
102
}
102
{ACAD_XDICTIONARY
360
569
102
}
330
3C2
100
AcDbVisualStyle
  2
OverhangOff
 70
    21
 71
     2
 72
     2
 73
     0
 90
        0
 40
0.6
 41
30.0
 62
     5
 63
     7
 74
     1
 91
        4
 64
     7
 65
   257
 75
     1
175
     1
 42
1.0
 92
        9
 66
     7
 43
1.0
 76
     1
 77
     6
 78
     2
 67
     7
 79
     5
170
     0
171
     0
290
     0
174
     0
 93
        1
 44
0.0
173
     0
291
     1
 45
0.0
1001
ACAD
1000
AcDbSavedByObjectVersion
1070
     0
  0
VISUALSTYLE
  5
3CB
102
{ACAD_REACTORS
330
3C2
102
}
102
{ACAD_XDICTIONARY
360
557
102
}
330
3C2
100
AcDbVisualStyle
  2
Realistic
 70
     8
 71
     2
 72
     3
 73
     0
 90
        2
 40
0.6
 41
30.0
 62
     5
 63
     7
 74
     0
 91
        0
 64
     7
 65
   257
 75
     1
175
     1
 42
1.0
 92
        8
 66
   257
 43
1.0
 76
     1
 77
     6
 78
     2
 67
     7
 79
     3
170
     0
171
     0
290
     0
174
     0
 93
       13
 44
0.0
173
     0
291
     0
 45
0.0
1001
ACAD
1000
AcDbSavedByObjectVersion
1070
     0
  0
VISUALSTYLE
  5
3DA
102
{ACAD_REACTORS
330
3C2
102
}
102
{ACAD_XDICTIONARY
360
575
102
}
330
3C2
100
AcDbVisualStyle
  2
Shaded
 70
    27
 71
     2
 72
     2
 73
     1
 90
        2
 40
0.6
 41
30.0
 62
     5
 63
     7
 74
     0
 91
        4
 64
     7
 65
   257
 75
     1
175
     1
 42
1.0
 92
        8
 66
   257
 43
1.0
 76
     1
 77
     6
 78
     2
 67
     8
 79
     3
170
     0
171
     0
290
     0
174
     0
 93
        5
 44
0.0
173
     0
291
     0
 45
0.0
1001
ACAD
1000
AcDbSavedByObjectVersion
1070
     0
  0
VISUALSTYLE
  5
3D9
102
{ACAD_REACTORS
330
3C2
102
}
102
{ACAD_XDICTIONARY
360
573
102
}
330
3C2
100
AcDbVisualStyle
  2
Shaded with edges
 70
    26
 71
     2
 72
     2
 73
     1
 90
        2
 40
0.6
 41
30.0
 62
     5
 63
     7
 74
     1
 91
       10
 64
     7
 65
   257
 75
     2
175
     1
 42
1.0
 92
        8
 66
   257
 43
1.0
 76
     1
 77
     6
 78
     2
 67
     7
 79
     3
170
     0
171
     0
290
     0
174
     0
 93
        5
 44
0.0
173
     0
291
     0
 45
0.0
1001
ACAD
1000
AcDbSavedByObjectVersion
1070
     0
  0
VISUALSTYLE
  5
3D6
102
{ACAD_REACTORS
330
3C2
102
}
102
{ACAD_XDICTIONARY
360
56D
102
}
330
3C2
100
AcDbVisualStyle
  2
Shades of Gray
 70
    23
 71
     2
 72
     2
 73
     3
 90
        0
 40
0.6
 41
30.0
 62
     5
 63
     7
 74
     2
 91
        2
 64
     7
 65
     7
 75
     1
175
     1
 42
40.0
 92
        8
 66
     7
 43
1.0
 76
     1
 77
     6
 78
     2
 67
     7
 79
     3
170
     0
171
     0
290
     0
174
     0
 93
        1
 44
0.0
173
     0
291
     0
 45
0.0
1001
ACAD
1000
AcDbSavedByObjectVersion
1070
     0
  0
VISUALSTYLE
  5
3D7
102
{ACAD_REACTORS
330
3C2
102
}
102
{ACAD_XDICTIONARY
360
56F
102
}
330
3C2
100
AcDbVisualStyle
  2
Sketchy
 70
    24
 71
     1
 72
     2
 73
     2
 90
        0
 40
0.6
 41
30.0
 62
     5
 63
     7
 74
     2
 91
        2
 64
     7
 65
     7
 75
     1
175
     1
 42
40.0
 92
       11
 66
     7
 43
1.0
 76
     1
 77
     6
 78
     2
 67
     7
 79
     6
170
     0
171
     0
290
     0
174
     0
 93
        1
 44
0.0
173
     0
291
     0
 45
0.0
1001
ACAD
1000
AcDbSavedByObjectVersion
1070
     0
  0
VISUALSTYLE
  5
3CF
102
{ACAD_REACTORS
330
3C2
102
}
102
{ACAD_XDICTIONARY
360
55F
102
}
330
3C2
100
AcDbVisualStyle
  2
Thicken
 70
    13
 71
     2
 72
     2
 73
     0
 90
        0
 40
0.6
 41
30.0
 62
     5
 63
     7
 74
     1
 91
        4
 64
     7
 65
   257
 75
     1
175
     1
 42
1.0
 92
       12
 66
     7
 43
1.0
 76
     1
 77
     6
 78
     2
 67
     7
 79
     5
170
     0
171
     0
290
     0
174
     0
 93
        1
 44
0.0
173
     0
291
     1
 45
0.0
1001
ACAD
1000
AcDbSavedByObjectVersion
1070
     0
  0
VISUALSTYLE
  5
3C8
102
{ACAD_REACTORS
330
3C2
102
}
102
{ACAD_XDICTIONARY
360
551
102
}
330
3C2
100
AcDbVisualStyle
  2
Wireframe
 70
     5
 71
     0
 72
     2
 73
     0
 90
        0
 40
0.6
 41
30.0
 62
     5
 63
     7
 74
     1
 91
        4
 64
     7
 65
   257
 75
     1
175
     1
 42
1.0
 92
        0
 66
   257
 43
1.0
 76
     1
 77
     6
 78
     2
 67
     7
 79
     3
170
     0
171
     0
290
     0
174
     0
 93
        1
 44
0.0
173
     0
291
     0
 45
0.0
1001
ACAD
1000
AcDbSavedByObjectVersion
1070
     0
  0
VISUALSTYLE
  5
3D8
102
{ACAD_REACTORS
330
3C2
102
}
102
{ACAD_XDICTIONARY
360
571
102
}
330
3C2
100
AcDbVisualStyle
  2
X-Ray
 70
    25
 71
     2
 72
     2
 73
     1
 90
        1
 40
0.5
 41
30.0
 62
     5
 63
     7
 74
     1
 91
        0
 64
     7
 65
   257
 75
     1
175
     1
 42
1.0
 92
        8
 66
     7
 43
1.0
 76
     1
 77
     6
 78
     2
 67
     7
 79
     3
170
     0
171
     0
290
     0
174
     0
 93
       13
 44
0.0
173
     0
291
     0
 45
0.0
1001
ACAD
1000
AcDbSavedByObjectVersion
1070
     0
  0
XRECORD
  5
53C
102
{ACAD_REACTORS
330
53B
102
}
330
53B
100
AcDbXrecord
280
     1
340
387
  0
XRECORD
  5
53D
102
{ACAD_REACTORS
330
53B
102
}
330
53B
100
AcDbXrecord
280
     1
340
386
  0
DICTIONARYVAR
  5
540
102
{ACAD_REACTORS
330
357
102
}
330
357
100
DictionaryVariables
280
     0
  1
1:1
  0
DICTIONARYVAR
  5
537
102
{ACAD_REACTORS
330
357
102
}
330
357
100
DictionaryVariables
280
     0
  1
Standard
  0
DICTIONARYVAR
  5
38D
102
{ACAD_REACTORS
330
357
102
}
330
357
100
DictionaryVariables
280
     0
  1
Standard
  0
DICTIONARYVAR
  5
359
102
{ACAD_REACTORS
330
357
102
}
330
357
100
DictionaryVariables
280
     0
  1
2
  0
DICTIONARYVAR
  5
358
102
{ACAD_REACTORS
330
357
102
}
330
357
100
DictionaryVariables
280
     0
  1
1
  0
DICTIONARYVAR
  5
538
102
{ACAD_REACTORS
330
357
102
}
330
357
100
DictionaryVariables
280
     0
  1
0
  0
DICTIONARYVAR
  5
38E
102
{ACAD_REACTORS
330
357
102
}
330
357
100
DictionaryVariables
280
     0
  1

  0
DICTIONARY
  5
543
330
3DC
100
AcDbDictionary
280
     1
281
     1
  3
ACAD_XREC_ROUNDTRIP
360
544
  0
DICTIONARY
  5
541
330
3DB
100
AcDbDictionary
280
     1
281
     1
  3
ACAD_XREC_ROUNDTRIP
360
542
  0
DICTIONARY
  5
545
330
3DD
100
AcDbDictionary
280
     1
281
     1
  3
ACAD_XREC_ROUNDTRIP
360
546
  0
DICTIONARY
  5
578
330
3DF
100
AcDbDictionary
280
     1
281
     1
  3
ACAD_XREC_ROUNDTRIP
360
579
  0
DICTIONARY
  5
54F
330
3C7
100
AcDbDictionary
280
     1
281
     1
  3
ACAD_XREC_ROUNDTRIP
360
550
  0
DICTIONARY
  5
555
330
3CA
100
AcDbDictionary
280
     1
281
     1
  3
ACAD_XREC_ROUNDTRIP
360
556
  0
DICTIONARY
  5
55D
330
3CE
100
AcDbDictionary
280
     1
281
     1
  3
ACAD_XREC_ROUNDTRIP
360
55E
  0
DICTIONARY
  5
565
330
3D2
100
AcDbDictionary
280
     1
281
     1
  3
ACAD_XREC_ROUNDTRIP
360
566
  0
DICTIONARY
  5
559
330
3CC
100
AcDbDictionary
280
     1
281
     1
  3
ACAD_XREC_ROUNDTRIP
360
55A
  0
DICTIONARY
  5
55B
330
3CD
100
AcDbDictionary
280
     1
281
     1
  3
ACAD_XREC_ROUNDTRIP
360
55C
  0
DICTIONARY
  5
56B
330
3D5
100
AcDbDictionary
280
     1
281
     1
  3
ACAD_XREC_ROUNDTRIP
360
56C
  0
DICTIONARY
  5
563
330
3D1
100
AcDbDictionary
280
     1
281
     1
  3
ACAD_XREC_ROUNDTRIP
360
564
  0
DICTIONARY
  5
547
330
3C3
100
AcDbDictionary
280
     1
281
     1
  3
ACAD_XREC_ROUNDTRIP
360
548
  0
DICTIONARY
  5
549
330
3C4
100
AcDbDictionary
280
     1
281
     1
  3
ACAD_XREC_ROUNDTRIP
360
54A
  0
DICTIONARY
  5
54B
330
3C5
100
AcDbDictionary
280
     1
281
     1
  3
ACAD_XREC_ROUNDTRIP
360
54C
  0
DICTIONARY
  5
54D
330
3C6
100
AcDbDictionary
280
     1
281
     1
  3
ACAD_XREC_ROUNDTRIP
360
54E
  0
DICTIONARY
  5
553
330
3C9
100
AcDbDictionary
280
     1
281
     1
  3
ACAD_XREC_ROUNDTRIP
360
554
  0
DICTIONARY
  5
567
330
3D3
100
AcDbDictionary
280
     1
281
     1
  3
ACAD_XREC_ROUNDTRIP
360
568
  0
DICTIONARY
  5
561
330
3D0
100
AcDbDictionary
280
     1
281
     1
  3
ACAD_XREC_ROUNDTRIP
360
562
  0
DICTIONARY
  5
569
330
3D4
100
AcDbDictionary
280
     1
281
     1
  3
ACAD_XREC_ROUNDTRIP
360
56A
  0
DICTIONARY
  5
557
330
3CB
100
AcDbDictionary
280
     1
281
     1
  3
ACAD_XREC_ROUNDTRIP
360
558
  0
DICTIONARY
  5
575
330
3DA
100
AcDbDictionary
280
     1
281
     1
  3
ACAD_XREC_ROUNDTRIP
360
576
  0
DICTIONARY
  5
573
330
3D9
100
AcDbDictionary
280
     1
281
     1
  3
ACAD_XREC_ROUNDTRIP
360
574
  0
DICTIONARY
  5
56D
330
3D6
100
AcDbDictionary
280
     1
281
     1
  3
ACAD_XREC_ROUNDTRIP
360
56E
  0
DICTIONARY
  5
56F
330
3D7
100
AcDbDictionary
280
     1
281
     1
  3
ACAD_XREC_ROUNDTRIP
360
570
  0
DICTIONARY
  5
55F
330
3CF
100
AcDbDictionary
280
     1
281
     1
  3
ACAD_XREC_ROUNDTRIP
360
560
  0
DICTIONARY
  5
551
330
3C8
100
AcDbDictionary
280
     1
281
     1
  3
ACAD_XREC_ROUNDTRIP
360
552
  0
DICTIONARY
  5
571
330
3D8
100
AcDbDictionary
280
     1
281
     1
  3
ACAD_XREC_ROUNDTRIP
360
572
  0
XRECORD
  5
544
102
{ACAD_REACTORS
330
543
102
}
330
543
100
AcDbXrecord
280
     1
102
MATERIAL
148
0.0
149
0.0
149
0.0
 93
        0
 94
      127
282
     0
 72
     1
 77
     1
171
     1
175
     1
179
     1
273
     0
  0
XRECORD
  5
542
102
{ACAD_REACTORS
330
541
102
}
330
541
100
AcDbXrecord
280
     1
102
MATERIAL
148
0.0
149
0.0
149
0.0
 93
        0
 94
      127
282
     0
 72
     1
 77
     1
171
     1
175
     1
179
     1
273
     0
  0
XRECORD
  5
546
102
{ACAD_REACTORS
330
545
102
}
330
545
100
AcDbXrecord
280
     1
102
MATERIAL
148
0.0
149
0.0
149
0.0
 93
        0
 94
      127
282
     0
 72
     1
 77
     1
171
     1
175
     1
179
     1
273
     0
  0
XRECORD
  5
579
102
{ACAD_REACTORS
330
578
102
}
330
578
100
AcDbXrecord
280
     1
102
ACAD_ROUNDTRIP_2010_MLEADER_STYLE
  0
XRECORD
  5
550
102
{ACAD_REACTORS
330
54F
102
}
330
54F
100
AcDbXrecord
280
     1
102
RTVSPropertyOp0
 70
     1
102
RTVSPropertyOp1
 70
     1
102
RTVSPropertyOp2
 70
     1
102
RTVSPropertyOp3
 70
     1
102
RTVSPropertyOp4
 70
     1
102
RTVSPropertyOp5
 70
     1
102
RTVSPropertyOp6
 70
     1
102
RTVSPropertyOp7
 70
     1
102
RTVSPropertyOp8
 70
     1
102
RTVSPropertyOp9
 70
     1
102
RTVSPropertyOp10
 70
     1
102
RTVSPropertyOp11
 70
     1
102
RTVSPropertyOp12
 70
     1
102
RTVSPropertyOp13
 70
     1
102
RTVSPropertyOp14
 70
     1
102
RTVSPropertyOp15
 70
     1
102
RTVSPropertyOp16
 70
     1
102
RTVSPropertyOp17
 70
     1
102
RTVSPropertyOp18
 70
     1
102
RTVSPropertyOp19
 70
     1
102
RTVSPropertyOp20
 70
     1
102
RTVSPropertyOp21
 70
     1
102
RTVSPropertyOp22
 70
     1
102
RTVSPropertyOp23
 70
     1
102
RTVSPropertyOp24
 70
     1
102
RTVSPropertyOp25
 70
     1
102
RTVSPropertyOp26
 70
     1
102
RTVSPropertyOp27
 70
     1
102
RTVSPropertyOp28
 70
     1
102
RTVSPropertyOp29
 70
     1
102
RTVSPropertyOp30
 70
     1
102
RTVSPropertyOp31
 70
     1
102
RTVSPropertyOp32
 70
     1
102
RTVSPropertyOp33
 70
     1
102
RTVSPropertyOp34
 70
     1
102
RTVSPropertyOp35
 70
     1
102
RTVSPropertyOp36
 70
     1
102
RTVSPropertyOp37
 70
     1
102
RTVSPropertyOp38
 70
     1
102
RTVSPropertyOp39
 70
     1
102
RTVSPropertyOp40
 70
     1
102
RTVSPropertyOp41
 70
     1
102
RTVSPropertyOp42
 70
     1
102
RTVSPropertyOp43
 70
     1
102
RTVSPropertyOp44
 70
     1
102
RTVSPropertyOp45
 70
     1
102
RTVSPropertyOp46
 70
     1
102
RTVSPropertyOp47
 70
     1
102
RTVSPropertyOp48
 70
     1
102
RTVSPropertyOp49
 70
     1
102
RTVSPropertyOp50
 70
     1
102
RTVSPropertyOp51
 70
     0
102
RTVSPropertyOp52
 70
     0
102
RTVSPropertyOp53
 70
     1
102
RTVSPropertyOp54
 70
     1
102
RTVSPropertyOp55
 70
     1
102
RTVSPropertyOp56
 70
     1
102
RTVSPropertyOp57
 70
     1
102
RTVSPost2010Prop28
280
     1
102
RTVSPost2010PropOp28
 70
     1
102
RTVSPost2010Prop29
280
     1
102
RTVSPost2010PropOp29
 70
     1
102
RTVSPost2010Prop30
280
     0
102
RTVSPost2010PropOp30
 70
     1
102
RTVSPost2010Prop31
280
     0
102
RTVSPost2010PropOp31
 70
     1
102
RTVSPost2010Prop32
280
     0
102
RTVSPost2010PropOp32
 70
     1
102
RTVSPost2010Prop33
280
     0
102
RTVSPost2010PropOp33
 70
     1
102
RTVSPost2010Prop34
280
     0
102
RTVSPost2010PropOp34
 70
     1
102
RTVSPost2010Prop35
280
     0
102
RTVSPost2010PropOp35
 70
     1
102
RTVSPost2010Prop36
280
     0
102
RTVSPost2010PropOp36
 70
     1
102
RTVSPost2010Prop37
 90
       50
102
RTVSPost2010PropOp37
 70
     1
102
RTVSPost2010Prop38
140
0.0
102
RTVSPost2010PropOp38
 70
     1
102
RTVSPost2010Prop39
140
1.0
102
RTVSPost2010PropOp39
 70
     1
102
RTVSPost2010Prop40
 90
        0
102
RTVSPost2010PropOp40
 70
     1
102
RTVSPost2010Prop41ColorIndex
 90
       18
102
RTVSPost2010Prop41ColorRGB
 90
        0
102
RTVSPost2010PropOp41
 70
     1
102
RTVSPost2010Prop42
 90
       50
102
RTVSPost2010PropOp42
 70
     1
102
RTVSPost2010Prop43
 90
        3
102
RTVSPost2010PropOp43
 70
     1
102
RTVSPost2010Prop44ColorIndex
 90
        5
102
RTVSPost2010Prop44ColorRGB
 90
      255
102
RTVSPost2010PropOp44
 70
     1
102
RTVSPost2010Prop45
280
     0
102
RTVSPost2010PropOp45
 70
     1
102
RTVSPost2010Prop46
 90
       50
102
RTVSPost2010PropOp46
 70
     1
102
RTVSPost2010Prop47
 90
       50
102
RTVSPost2010PropOp47
 70
     1
102
RTVSPost2010Prop48
 90
       50
102
RTVSPost2010PropOp48
 70
     1
102
RTVSPost2010Prop49
280
     0
102
RTVSPost2010PropOp49
 70
     1
102
RTVSPost2010Prop50
 90
       50
102
RTVSPost2010PropOp50
 70
     1
102
RTVSPost2010Prop51ColorIndex
 90
      256
102
RTVSPost2010Prop51ColorRGB
 90
-16777216
102
RTVSPost2010PropOp51
 70
     0
102
RTVSPost2010Prop52
140
1.0
102
RTVSPost2010PropOp52
 70
     0
102
RTVSPost2010Prop53
 90
        2
102
RTVSPost2010PropOp53
 70
     1
102
RTVSPost2010Prop54
  1
strokes_ogs.tif
102
RTVSPost2010PropOp54
 70
     1
102
RTVSPost2010Prop55
280
     0
102
RTVSPost2010PropOp55
 70
     1
102
RTVSPost2010Prop56
140
1.0
102
RTVSPost2010PropOp56
 70
     1
102
RTVSPost2010Prop57
140
1.0
102
RTVSPost2010PropOp57
 70
     1
  0
XRECORD
  5
556
102
{ACAD_REACTORS
330
555
102
}
330
555
100
AcDbXrecord
280
     1
102
RTVSPropertyOp0
 70
     1
102
RTVSPropertyOp1
 70
     1
102
RTVSPropertyOp2
 70
     1
102
RTVSPropertyOp3
 70
     1
102
RTVSPropertyOp4
 70
     1
102
RTVSPropertyOp5
 70
     1
102
RTVSPropertyOp6
 70
     1
102
RTVSPropertyOp7
 70
     1
102
RTVSPropertyOp8
 70
     1
102
RTVSPropertyOp9
 70
     1
102
RTVSPropertyOp10
 70
     1
102
RTVSPropertyOp11
 70
     1
102
RTVSPropertyOp12
 70
     1
102
RTVSPropertyOp13
 70
     1
102
RTVSPropertyOp14
 70
     1
102
RTVSPropertyOp15
 70
     1
102
RTVSPropertyOp16
 70
     1
102
RTVSPropertyOp17
 70
     1
102
RTVSPropertyOp18
 70
     1
102
RTVSPropertyOp19
 70
     1
102
RTVSPropertyOp20
 70
     1
102
RTVSPropertyOp21
 70
     1
102
RTVSPropertyOp22
 70
     1
102
RTVSPropertyOp23
 70
     1
102
RTVSPropertyOp24
 70
     1
102
RTVSPropertyOp25
 70
     1
102
RTVSPropertyOp26
 70
     1
102
RTVSPropertyOp27
 70
     1
102
RTVSPropertyOp28
 70
     1
102
RTVSPropertyOp29
 70
     1
102
RTVSPropertyOp30
 70
     1
102
RTVSPropertyOp31
 70
     1
102
RTVSPropertyOp32
 70
     1
102
RTVSPropertyOp33
 70
     1
102
RTVSPropertyOp34
 70
     1
102
RTVSPropertyOp35
 70
     1
102
RTVSPropertyOp36
 70
     1
102
RTVSPropertyOp37
 70
     1
102
RTVSPropertyOp38
 70
     1
102
RTVSPropertyOp39
 70
     1
102
RTVSPropertyOp40
 70
     1
102
RTVSPropertyOp41
 70
     1
102
RTVSPropertyOp42
 70
     1
102
RTVSPropertyOp43
 70
     1
102
RTVSPropertyOp44
 70
     1
102
RTVSPropertyOp45
 70
     1
102
RTVSPropertyOp46
 70
     1
102
RTVSPropertyOp47
 70
     1
102
RTVSPropertyOp48
 70
     1
102
RTVSPropertyOp49
 70
     1
102
RTVSPropertyOp50
 70
     1
102
RTVSPropertyOp51
 70
     0
102
RTVSPropertyOp52
 70
     0
102
RTVSPropertyOp53
 70
     1
102
RTVSPropertyOp54
 70
     1
102
RTVSPropertyOp55
 70
     1
102
RTVSPropertyOp56
 70
     1
102
RTVSPropertyOp57
 70
     1
102
RTVSPost2010Prop28
280
     0
102
RTVSPost2010PropOp28
 70
     1
102
RTVSPost2010Prop29
280
     1
102
RTVSPost2010PropOp29
 70
     1
102
RTVSPost2010Prop30
280
     1
102
RTVSPost2010PropOp30
 70
     1
102
RTVSPost2010Prop31
280
     0
102
RTVSPost2010PropOp31
 70
     1
102
RTVSPost2010Prop32
280
     0
102
RTVSPost2010PropOp32
 70
     1
102
RTVSPost2010Prop33
280
     0
102
RTVSPost2010PropOp33
 70
     1
102
RTVSPost2010Prop34
280
     0
102
RTVSPost2010PropOp34
 70
     1
102
RTVSPost2010Prop35
280
     0
102
RTVSPost2010PropOp35
 70
     1
102
RTVSPost2010Prop36
280
     0
102
RTVSPost2010PropOp36
 70
     1
102
RTVSPost2010Prop37
 90
       50
102
RTVSPost2010PropOp37
 70
     1
102
RTVSPost2010Prop38
140
0.0
102
RTVSPost2010PropOp38
 70
     1
102
RTVSPost2010Prop39
140
1.0
102
RTVSPost2010PropOp39
 70
     1
102
RTVSPost2010Prop40
 90
        0
102
RTVSPost2010PropOp40
 70
     1
102
RTVSPost2010Prop41ColorIndex
 90
       18
102
RTVSPost2010Prop41ColorRGB
 90
        0
102
RTVSPost2010PropOp41
 70
     1
102
RTVSPost2010Prop42
 90
       50
102
RTVSPost2010PropOp42
 70
     1
102
RTVSPost2010Prop43
 90
        3
102
RTVSPost2010PropOp43
 70
     1
102
RTVSPost2010Prop44ColorIndex
 90
        5
102
RTVSPost2010Prop44ColorRGB
 90
      255
102
RTVSPost2010PropOp44
 70
     1
102
RTVSPost2010Prop45
280
     0
102
RTVSPost2010PropOp45
 70
     1
102
RTVSPost2010Prop46
 90
       50
102
RTVSPost2010PropOp46
 70
     1
102
RTVSPost2010Prop47
 90
       50
102
RTVSPost2010PropOp47
 70
     1
102
RTVSPost2010Prop48
 90
       50
102
RTVSPost2010PropOp48
 70
     1
102
RTVSPost2010Prop49
280
     0
102
RTVSPost2010PropOp49
 70
     1
102
RTVSPost2010Prop50
 90
       50
102
RTVSPost2010PropOp50
 70
     1
102
RTVSPost2010Prop51ColorIndex
 90
      256
102
RTVSPost2010Prop51ColorRGB
 90
-16777216
102
RTVSPost2010PropOp51
 70
     0
102
RTVSPost2010Prop52
140
1.0
102
RTVSPost2010PropOp52
 70
     0
102
RTVSPost2010Prop53
 90
        2
102
RTVSPost2010PropOp53
 70
     1
102
RTVSPost2010Prop54
  1
strokes_ogs.tif
102
RTVSPost2010PropOp54
 70
     1
102
RTVSPost2010Prop55
280
     0
102
RTVSPost2010PropOp55
 70
     1
102
RTVSPost2010Prop56
140
1.0
102
RTVSPost2010PropOp56
 70
     1
102
RTVSPost2010Prop57
140
1.0
102
RTVSPost2010PropOp57
 70
     1
  0
XRECORD
  5
55E
102
{ACAD_REACTORS
330
55D
102
}
330
55D
100
AcDbXrecord
280
     1
102
RTVSPropertyOp0
 70
     1
102
RTVSPropertyOp1
 70
     1
102
RTVSPropertyOp2
 70
     1
102
RTVSPropertyOp3
 70
     1
102
RTVSPropertyOp4
 70
     1
102
RTVSPropertyOp5
 70
     1
102
RTVSPropertyOp6
 70
     1
102
RTVSPropertyOp7
 70
     1
102
RTVSPropertyOp8
 70
     1
102
RTVSPropertyOp9
 70
     1
102
RTVSPropertyOp10
 70
     1
102
RTVSPropertyOp11
 70
     1
102
RTVSPropertyOp12
 70
     1
102
RTVSPropertyOp13
 70
     1
102
RTVSPropertyOp14
 70
     1
102
RTVSPropertyOp15
 70
     1
102
RTVSPropertyOp16
 70
     1
102
RTVSPropertyOp17
 70
     1
102
RTVSPropertyOp18
 70
     1
102
RTVSPropertyOp19
 70
     1
102
RTVSPropertyOp20
 70
     1
102
RTVSPropertyOp21
 70
     1
102
RTVSPropertyOp22
 70
     1
102
RTVSPropertyOp23
 70
     1
102
RTVSPropertyOp24
 70
     1
102
RTVSPropertyOp25
 70
     1
102
RTVSPropertyOp26
 70
     1
102
RTVSPropertyOp27
 70
     1
102
RTVSPropertyOp28
 70
     1
102
RTVSPropertyOp29
 70
     1
102
RTVSPropertyOp30
 70
     1
102
RTVSPropertyOp31
 70
     1
102
RTVSPropertyOp32
 70
     1
102
RTVSPropertyOp33
 70
     1
102
RTVSPropertyOp34
 70
     1
102
RTVSPropertyOp35
 70
     1
102
RTVSPropertyOp36
 70
     1
102
RTVSPropertyOp37
 70
     1
102
RTVSPropertyOp38
 70
     1
102
RTVSPropertyOp39
 70
     1
102
RTVSPropertyOp40
 70
     1
102
RTVSPropertyOp41
 70
     1
102
RTVSPropertyOp42
 70
     1
102
RTVSPropertyOp43
 70
     1
102
RTVSPropertyOp44
 70
     1
102
RTVSPropertyOp45
 70
     1
102
RTVSPropertyOp46
 70
     1
102
RTVSPropertyOp47
 70
     1
102
RTVSPropertyOp48
 70
     1
102
RTVSPropertyOp49
 70
     1
102
RTVSPropertyOp50
 70
     1
102
RTVSPropertyOp51
 70
     0
102
RTVSPropertyOp52
 70
     0
102
RTVSPropertyOp53
 70
     1
102
RTVSPropertyOp54
 70
     1
102
RTVSPropertyOp55
 70
     1
102
RTVSPropertyOp56
 70
     1
102
RTVSPropertyOp57
 70
     1
102
RTVSPost2010Prop28
280
     0
102
RTVSPost2010PropOp28
 70
     1
102
RTVSPost2010Prop29
280
     1
102
RTVSPost2010PropOp29
 70
     1
102
RTVSPost2010Prop30
280
     1
102
RTVSPost2010PropOp30
 70
     1
102
RTVSPost2010Prop31
280
     0
102
RTVSPost2010PropOp31
 70
     1
102
RTVSPost2010Prop32
280
     0
102
RTVSPost2010PropOp32
 70
     1
102
RTVSPost2010Prop33
280
     0
102
RTVSPost2010PropOp33
 70
     1
102
RTVSPost2010Prop34
280
     0
102
RTVSPost2010PropOp34
 70
     1
102
RTVSPost2010Prop35
280
     0
102
RTVSPost2010PropOp35
 70
     1
102
RTVSPost2010Prop36
280
     0
102
RTVSPost2010PropOp36
 70
     1
102
RTVSPost2010Prop37
 90
       50
102
RTVSPost2010PropOp37
 70
     1
102
RTVSPost2010Prop38
140
0.0
102
RTVSPost2010PropOp38
 70
     1
102
RTVSPost2010Prop39
140
1.0
102
RTVSPost2010PropOp39
 70
     1
102
RTVSPost2010Prop40
 90
        0
102
RTVSPost2010PropOp40
 70
     1
102
RTVSPost2010Prop41ColorIndex
 90
       18
102
RTVSPost2010Prop41ColorRGB
 90
        0
102
RTVSPost2010PropOp41
 70
     1
102
RTVSPost2010Prop42
 90
       50
102
RTVSPost2010PropOp42
 70
     1
102
RTVSPost2010Prop43
 90
        3
102
RTVSPost2010PropOp43
 70
     1
102
RTVSPost2010Prop44ColorIndex
 90
        5
102
RTVSPost2010Prop44ColorRGB
 90
      255
102
RTVSPost2010PropOp44
 70
     1
102
RTVSPost2010Prop45
280
     0
102
RTVSPost2010PropOp45
 70
     1
102
RTVSPost2010Prop46
 90
       50
102
RTVSPost2010PropOp46
 70
     1
102
RTVSPost2010Prop47
 90
       50
102
RTVSPost2010PropOp47
 70
     1
102
RTVSPost2010Prop48
 90
       50
102
RTVSPost2010PropOp48
 70
     1
102
RTVSPost2010Prop49
280
     0
102
RTVSPost2010PropOp49
 70
     1
102
RTVSPost2010Prop50
 90
       50
102
RTVSPost2010PropOp50
 70
     1
102
RTVSPost2010Prop51ColorIndex
 90
      256
102
RTVSPost2010Prop51ColorRGB
 90
-16777216
102
RTVSPost2010PropOp51
 70
     0
102
RTVSPost2010Prop52
140
1.0
102
RTVSPost2010PropOp52
 70
     0
102
RTVSPost2010Prop53
 90
        2
102
RTVSPost2010PropOp53
 70
     1
102
RTVSPost2010Prop54
  1
strokes_ogs.tif
102
RTVSPost2010PropOp54
 70
     1
102
RTVSPost2010Prop55
280
     0
102
RTVSPost2010PropOp55
 70
     1
102
RTVSPost2010Prop56
140
1.0
102
RTVSPost2010PropOp56
 70
     1
102
RTVSPost2010Prop57
140
1.0
102
RTVSPost2010PropOp57
 70
     1
  0
XRECORD
  5
566
102
{ACAD_REACTORS
330
565
102
}
330
565
100
AcDbXrecord
280
     1
102
RTVSPropertyOp0
 70
     1
102
RTVSPropertyOp1
 70
     1
102
RTVSPropertyOp2
 70
     1
102
RTVSPropertyOp3
 70
     1
102
RTVSPropertyOp4
 70
     1
102
RTVSPropertyOp5
 70
     1
102
RTVSPropertyOp6
 70
     1
102
RTVSPropertyOp7
 70
     1
102
RTVSPropertyOp8
 70
     1
102
RTVSPropertyOp9
 70
     1
102
RTVSPropertyOp10
 70
     1
102
RTVSPropertyOp11
 70
     1
102
RTVSPropertyOp12
 70
     1
102
RTVSPropertyOp13
 70
     1
102
RTVSPropertyOp14
 70
     1
102
RTVSPropertyOp15
 70
     1
102
RTVSPropertyOp16
 70
     1
102
RTVSPropertyOp17
 70
     1
102
RTVSPropertyOp18
 70
     1
102
RTVSPropertyOp19
 70
     1
102
RTVSPropertyOp20
 70
     1
102
RTVSPropertyOp21
 70
     1
102
RTVSPropertyOp22
 70
     1
102
RTVSPropertyOp23
 70
     1
102
RTVSPropertyOp24
 70
     1
102
RTVSPropertyOp25
 70
     1
102
RTVSPropertyOp26
 70
     1
102
RTVSPropertyOp27
 70
     1
102
RTVSPropertyOp28
 70
     1
102
RTVSPropertyOp29
 70
     1
102
RTVSPropertyOp30
 70
     1
102
RTVSPropertyOp31
 70
     1
102
RTVSPropertyOp32
 70
     1
102
RTVSPropertyOp33
 70
     1
102
RTVSPropertyOp34
 70
     1
102
RTVSPropertyOp35
 70
     1
102
RTVSPropertyOp36
 70
     1
102
RTVSPropertyOp37
 70
     1
102
RTVSPropertyOp38
 70
     1
102
RTVSPropertyOp39
 70
     1
102
RTVSPropertyOp40
 70
     1
102
RTVSPropertyOp41
 70
     1
102
RTVSPropertyOp42
 70
     1
102
RTVSPropertyOp43
 70
     1
102
RTVSPropertyOp44
 70
     1
102
RTVSPropertyOp45
 70
     1
102
RTVSPropertyOp46
 70
     1
102
RTVSPropertyOp47
 70
     1
102
RTVSPropertyOp48
 70
     1
102
RTVSPropertyOp49
 70
     1
102
RTVSPropertyOp50
 70
     1
102
RTVSPropertyOp51
 70
     0
102
RTVSPropertyOp52
 70
     0
102
RTVSPropertyOp53
 70
     1
102
RTVSPropertyOp54
 70
     1
102
RTVSPropertyOp55
 70
     1
102
RTVSPropertyOp56
 70
     1
102
RTVSPropertyOp57
 70
     1
102
RTVSPost2010Prop28
280
     0
102
RTVSPost2010PropOp28
 70
     1
102
RTVSPost2010Prop29
280
     1
102
RTVSPost2010PropOp29
 70
     1
102
RTVSPost2010Prop30
280
     1
102
RTVSPost2010PropOp30
 70
     1
102
RTVSPost2010Prop31
280
     0
102
RTVSPost2010PropOp31
 70
     1
102
RTVSPost2010Prop32
280
     0
102
RTVSPost2010PropOp32
 70
     1
102
RTVSPost2010Prop33
280
     0
102
RTVSPost2010PropOp33
 70
     1
102
RTVSPost2010Prop34
280
     0
102
RTVSPost2010PropOp34
 70
     1
102
RTVSPost2010Prop35
280
     0
102
RTVSPost2010PropOp35
 70
     1
102
RTVSPost2010Prop36
280
     0
102
RTVSPost2010PropOp36
 70
     1
102
RTVSPost2010Prop37
 90
       50
102
RTVSPost2010PropOp37
 70
     1
102
RTVSPost2010Prop38
140
0.0
102
RTVSPost2010PropOp38
 70
     1
102
RTVSPost2010Prop39
140
1.0
102
RTVSPost2010PropOp39
 70
     1
102
RTVSPost2010Prop40
 90
        0
102
RTVSPost2010PropOp40
 70
     1
102
RTVSPost2010Prop41ColorIndex
 90
       18
102
RTVSPost2010Prop41ColorRGB
 90
        0
102
RTVSPost2010PropOp41
 70
     1
102
RTVSPost2010Prop42
 90
       50
102
RTVSPost2010PropOp42
 70
     1
102
RTVSPost2010Prop43
 90
        3
102
RTVSPost2010PropOp43
 70
     1
102
RTVSPost2010Prop44ColorIndex
 90
        5
102
RTVSPost2010Prop44ColorRGB
 90
      255
102
RTVSPost2010PropOp44
 70
     1
102
RTVSPost2010Prop45
280
     0
102
RTVSPost2010PropOp45
 70
     1
102
RTVSPost2010Prop46
 90
       50
102
RTVSPost2010PropOp46
 70
     1
102
RTVSPost2010Prop47
 90
       50
102
RTVSPost2010PropOp47
 70
     1
102
RTVSPost2010Prop48
 90
       50
102
RTVSPost2010PropOp48
 70
     1
102
RTVSPost2010Prop49
280
     0
102
RTVSPost2010PropOp49
 70
     1
102
RTVSPost2010Prop50
 90
       50
102
RTVSPost2010PropOp50
 70
     1
102
RTVSPost2010Prop51ColorIndex
 90
      256
102
RTVSPost2010Prop51ColorRGB
 90
-16777216
102
RTVSPost2010PropOp51
 70
     0
102
RTVSPost2010Prop52
140
1.0
102
RTVSPost2010PropOp52
 70
     0
102
RTVSPost2010Prop53
 90
        2
102
RTVSPost2010PropOp53
 70
     1
102
RTVSPost2010Prop54
  1
strokes_ogs.tif
102
RTVSPost2010PropOp54
 70
     1
102
RTVSPost2010Prop55
280
     0
102
RTVSPost2010PropOp55
 70
     1
102
RTVSPost2010Prop56
140
1.0
102
RTVSPost2010PropOp56
 70
     1
102
RTVSPost2010Prop57
140
1.0
102
RTVSPost2010PropOp57
 70
     1
  0
XRECORD
  5
55A
102
{ACAD_REACTORS
330
559
102
}
330
559
100
AcDbXrecord
280
     1
102
RTVSPropertyOp0
 70
     1
102
RTVSPropertyOp1
 70
     1
102
RTVSPropertyOp2
 70
     1
102
RTVSPropertyOp3
 70
     1
102
RTVSPropertyOp4
 70
     1
102
RTVSPropertyOp5
 70
     1
102
RTVSPropertyOp6
 70
     1
102
RTVSPropertyOp7
 70
     1
102
RTVSPropertyOp8
 70
     1
102
RTVSPropertyOp9
 70
     1
102
RTVSPropertyOp10
 70
     1
102
RTVSPropertyOp11
 70
     1
102
RTVSPropertyOp12
 70
     1
102
RTVSPropertyOp13
 70
     1
102
RTVSPropertyOp14
 70
     1
102
RTVSPropertyOp15
 70
     1
102
RTVSPropertyOp16
 70
     1
102
RTVSPropertyOp17
 70
     1
102
RTVSPropertyOp18
 70
     1
102
RTVSPropertyOp19
 70
     1
102
RTVSPropertyOp20
 70
     1
102
RTVSPropertyOp21
 70
     1
102
RTVSPropertyOp22
 70
     1
102
RTVSPropertyOp23
 70
     1
102
RTVSPropertyOp24
 70
     1
102
RTVSPropertyOp25
 70
     1
102
RTVSPropertyOp26
 70
     1
102
RTVSPropertyOp27
 70
     1
102
RTVSPropertyOp28
 70
     1
102
RTVSPropertyOp29
 70
     1
102
RTVSPropertyOp30
 70
     1
102
RTVSPropertyOp31
 70
     1
102
RTVSPropertyOp32
 70
     1
102
RTVSPropertyOp33
 70
     1
102
RTVSPropertyOp34
 70
     1
102
RTVSPropertyOp35
 70
     1
102
RTVSPropertyOp36
 70
     1
102
RTVSPropertyOp37
 70
     1
102
RTVSPropertyOp38
 70
     1
102
RTVSPropertyOp39
 70
     1
102
RTVSPropertyOp40
 70
     1
102
RTVSPropertyOp41
 70
     1
102
RTVSPropertyOp42
 70
     1
102
RTVSPropertyOp43
 70
     1
102
RTVSPropertyOp44
 70
     1
102
RTVSPropertyOp45
 70
     1
102
RTVSPropertyOp46
 70
     1
102
RTVSPropertyOp47
 70
     1
102
RTVSPropertyOp48
 70
     1
102
RTVSPropertyOp49
 70
     1
102
RTVSPropertyOp50
 70
     1
102
RTVSPropertyOp51
 70
     0
102
RTVSPropertyOp52
 70
     0
102
RTVSPropertyOp53
 70
     1
102
RTVSPropertyOp54
 70
     1
102
RTVSPropertyOp55
 70
     1
102
RTVSPropertyOp56
 70
     1
102
RTVSPropertyOp57
 70
     1
102
RTVSPost2010Prop28
280
     0
102
RTVSPost2010PropOp28
 70
     1
102
RTVSPost2010Prop29
280
     1
102
RTVSPost2010PropOp29
 70
     1
102
RTVSPost2010Prop30
280
     1
102
RTVSPost2010PropOp30
 70
     1
102
RTVSPost2010Prop31
280
     0
102
RTVSPost2010PropOp31
 70
     1
102
RTVSPost2010Prop32
280
     0
102
RTVSPost2010PropOp32
 70
     1
102
RTVSPost2010Prop33
280
     0
102
RTVSPost2010PropOp33
 70
     1
102
RTVSPost2010Prop34
280
     0
102
RTVSPost2010PropOp34
 70
     1
102
RTVSPost2010Prop35
280
     0
102
RTVSPost2010PropOp35
 70
     1
102
RTVSPost2010Prop36
280
     0
102
RTVSPost2010PropOp36
 70
     1
102
RTVSPost2010Prop37
 90
       50
102
RTVSPost2010PropOp37
 70
     1
102
RTVSPost2010Prop38
140
0.0
102
RTVSPost2010PropOp38
 70
     1
102
RTVSPost2010Prop39
140
1.0
102
RTVSPost2010PropOp39
 70
     1
102
RTVSPost2010Prop40
 90
        0
102
RTVSPost2010PropOp40
 70
     1
102
RTVSPost2010Prop41ColorIndex
 90
       18
102
RTVSPost2010Prop41ColorRGB
 90
        0
102
RTVSPost2010PropOp41
 70
     1
102
RTVSPost2010Prop42
 90
       50
102
RTVSPost2010PropOp42
 70
     1
102
RTVSPost2010Prop43
 90
        3
102
RTVSPost2010PropOp43
 70
     1
102
RTVSPost2010Prop44ColorIndex
 90
        5
102
RTVSPost2010Prop44ColorRGB
 90
      255
102
RTVSPost2010PropOp44
 70
     1
102
RTVSPost2010Prop45
280
     0
102
RTVSPost2010PropOp45
 70
     1
102
RTVSPost2010Prop46
 90
       50
102
RTVSPost2010PropOp46
 70
     1
102
RTVSPost2010Prop47
 90
       50
102
RTVSPost2010PropOp47
 70
     1
102
RTVSPost2010Prop48
 90
       50
102
RTVSPost2010PropOp48
 70
     1
102
RTVSPost2010Prop49
280
     0
102
RTVSPost2010PropOp49
 70
     1
102
RTVSPost2010Prop50
 90
       50
102
RTVSPost2010PropOp50
 70
     1
102
RTVSPost2010Prop51ColorIndex
 90
      256
102
RTVSPost2010Prop51ColorRGB
 90
-16777216
102
RTVSPost2010PropOp51
 70
     0
102
RTVSPost2010Prop52
140
1.0
102
RTVSPost2010PropOp52
 70
     0
102
RTVSPost2010Prop53
 90
        2
102
RTVSPost2010PropOp53
 70
     1
102
RTVSPost2010Prop54
  1
strokes_ogs.tif
102
RTVSPost2010PropOp54
 70
     1
102
RTVSPost2010Prop55
280
     0
102
RTVSPost2010PropOp55
 70
     1
102
RTVSPost2010Prop56
140
1.0
102
RTVSPost2010PropOp56
 70
     1
102
RTVSPost2010Prop57
140
1.0
102
RTVSPost2010PropOp57
 70
     1
  0
XRECORD
  5
55C
102
{ACAD_REACTORS
330
55B
102
}
330
55B
100
AcDbXrecord
280
     1
102
RTVSPropertyOp0
 70
     1
102
RTVSPropertyOp1
 70
     1
102
RTVSPropertyOp2
 70
     1
102
RTVSPropertyOp3
 70
     1
102
RTVSPropertyOp4
 70
     1
102
RTVSPropertyOp5
 70
     1
102
RTVSPropertyOp6
 70
     1
102
RTVSPropertyOp7
 70
     1
102
RTVSPropertyOp8
 70
     1
102
RTVSPropertyOp9
 70
     1
102
RTVSPropertyOp10
 70
     1
102
RTVSPropertyOp11
 70
     1
102
RTVSPropertyOp12
 70
     1
102
RTVSPropertyOp13
 70
     1
102
RTVSPropertyOp14
 70
     1
102
RTVSPropertyOp15
 70
     1
102
RTVSPropertyOp16
 70
     1
102
RTVSPropertyOp17
 70
     1
102
RTVSPropertyOp18
 70
     1
102
RTVSPropertyOp19
 70
     1
102
RTVSPropertyOp20
 70
     1
102
RTVSPropertyOp21
 70
     1
102
RTVSPropertyOp22
 70
     1
102
RTVSPropertyOp23
 70
     1
102
RTVSPropertyOp24
 70
     1
102
RTVSPropertyOp25
 70
     1
102
RTVSPropertyOp26
 70
     1
102
RTVSPropertyOp27
 70
     1
102
RTVSPropertyOp28
 70
     1
102
RTVSPropertyOp29
 70
     1
102
RTVSPropertyOp30
 70
     1
102
RTVSPropertyOp31
 70
     1
102
RTVSPropertyOp32
 70
     1
102
RTVSPropertyOp33
 70
     1
102
RTVSPropertyOp34
 70
     1
102
RTVSPropertyOp35
 70
     1
102
RTVSPropertyOp36
 70
     1
102
RTVSPropertyOp37
 70
     1
102
RTVSPropertyOp38
 70
     1
102
RTVSPropertyOp39
 70
     1
102
RTVSPropertyOp40
 70
     1
102
RTVSPropertyOp41
 70
     1
102
RTVSPropertyOp42
 70
     1
102
RTVSPropertyOp43
 70
     1
102
RTVSPropertyOp44
 70
     1
102
RTVSPropertyOp45
 70
     1
102
RTVSPropertyOp46
 70
     1
102
RTVSPropertyOp47
 70
     1
102
RTVSPropertyOp48
 70
     1
102
RTVSPropertyOp49
 70
     1
102
RTVSPropertyOp50
 70
     1
102
RTVSPropertyOp51
 70
     0
102
RTVSPropertyOp52
 70
     0
102
RTVSPropertyOp53
 70
     1
102
RTVSPropertyOp54
 70
     1
102
RTVSPropertyOp55
 70
     1
102
RTVSPropertyOp56
 70
     1
102
RTVSPropertyOp57
 70
     1
102
RTVSPost2010Prop28
280
     0
102
RTVSPost2010PropOp28
 70
     1
102
RTVSPost2010Prop29
280
     1
102
RTVSPost2010PropOp29
 70
     1
102
RTVSPost2010Prop30
280
     1
102
RTVSPost2010PropOp30
 70
     1
102
RTVSPost2010Prop31
280
     0
102
RTVSPost2010PropOp31
 70
     1
102
RTVSPost2010Prop32
280
     0
102
RTVSPost2010PropOp32
 70
     1
102
RTVSPost2010Prop33
280
     0
102
RTVSPost2010PropOp33
 70
     1
102
RTVSPost2010Prop34
280
     0
102
RTVSPost2010PropOp34
 70
     1
102
RTVSPost2010Prop35
280
     0
102
RTVSPost2010PropOp35
 70
     1
102
RTVSPost2010Prop36
280
     0
102
RTVSPost2010PropOp36
 70
     1
102
RTVSPost2010Prop37
 90
       50
102
RTVSPost2010PropOp37
 70
     1
102
RTVSPost2010Prop38
140
0.0
102
RTVSPost2010PropOp38
 70
     1
102
RTVSPost2010Prop39
140
1.0
102
RTVSPost2010PropOp39
 70
     1
102
RTVSPost2010Prop40
 90
        0
102
RTVSPost2010PropOp40
 70
     1
102
RTVSPost2010Prop41ColorIndex
 90
       18
102
RTVSPost2010Prop41ColorRGB
 90
        0
102
RTVSPost2010PropOp41
 70
     1
102
RTVSPost2010Prop42
 90
       50
102
RTVSPost2010PropOp42
 70
     1
102
RTVSPost2010Prop43
 90
        3
102
RTVSPost2010PropOp43
 70
     1
102
RTVSPost2010Prop44ColorIndex
 90
        5
102
RTVSPost2010Prop44ColorRGB
 90
      255
102
RTVSPost2010PropOp44
 70
     1
102
RTVSPost2010Prop45
280
     0
102
RTVSPost2010PropOp45
 70
     1
102
RTVSPost2010Prop46
 90
       50
102
RTVSPost2010PropOp46
 70
     1
102
RTVSPost2010Prop47
 90
       50
102
RTVSPost2010PropOp47
 70
     1
102
RTVSPost2010Prop48
 90
       50
102
RTVSPost2010PropOp48
 70
     1
102
RTVSPost2010Prop49
280
     0
102
RTVSPost2010PropOp49
 70
     1
102
RTVSPost2010Prop50
 90
       50
102
RTVSPost2010PropOp50
 70
     1
102
RTVSPost2010Prop51ColorIndex
 90
      256
102
RTVSPost2010Prop51ColorRGB
 90
-16777216
102
RTVSPost2010PropOp51
 70
     0
102
RTVSPost2010Prop52
140
1.0
102
RTVSPost2010PropOp52
 70
     0
102
RTVSPost2010Prop53
 90
        2
102
RTVSPost2010PropOp53
 70
     1
102
RTVSPost2010Prop54
  1
strokes_ogs.tif
102
RTVSPost2010PropOp54
 70
     1
102
RTVSPost2010Prop55
280
     0
102
RTVSPost2010PropOp55
 70
     1
102
RTVSPost2010Prop56
140
1.0
102
RTVSPost2010PropOp56
 70
     1
102
RTVSPost2010Prop57
140
1.0
102
RTVSPost2010PropOp57
 70
     1
  0
XRECORD
  5
56C
102
{ACAD_REACTORS
330
56B
102
}
330
56B
100
AcDbXrecord
280
     1
102
RTVSPropertyOp0
 70
     0
102
RTVSPropertyOp1
 70
     0
102
RTVSPropertyOp2
 70
     0
102
RTVSPropertyOp3
 70
     0
102
RTVSPropertyOp4
 70
     0
102
RTVSPropertyOp5
 70
     0
102
RTVSPropertyOp6
 70
     0
102
RTVSPropertyOp7
 70
     0
102
RTVSPropertyOp8
 70
     0
102
RTVSPropertyOp9
 70
     0
102
RTVSPropertyOp10
 70
     0
102
RTVSPropertyOp11
 70
     0
102
RTVSPropertyOp12
 70
     0
102
RTVSPropertyOp13
 70
     0
102
RTVSPropertyOp14
 70
     2
102
RTVSPropertyOp15
 70
     0
102
RTVSPropertyOp16
 70
     0
102
RTVSPropertyOp17
 70
     0
102
RTVSPropertyOp18
 70
     0
102
RTVSPropertyOp19
 70
     0
102
RTVSPropertyOp20
 70
     0
102
RTVSPropertyOp21
 70
     0
102
RTVSPropertyOp22
 70
     0
102
RTVSPropertyOp23
 70
     0
102
RTVSPropertyOp24
 70
     0
102
RTVSPropertyOp25
 70
     0
102
RTVSPropertyOp26
 70
     0
102
RTVSPropertyOp27
 70
     0
102
RTVSPropertyOp28
 70
     0
102
RTVSPropertyOp29
 70
     0
102
RTVSPropertyOp30
 70
     0
102
RTVSPropertyOp31
 70
     0
102
RTVSPropertyOp32
 70
     0
102
RTVSPropertyOp33
 70
     0
102
RTVSPropertyOp34
 70
     0
102
RTVSPropertyOp35
 70
     0
102
RTVSPropertyOp36
 70
     0
102
RTVSPropertyOp37
 70
     0
102
RTVSPropertyOp38
 70
     0
102
RTVSPropertyOp39
 70
     0
102
RTVSPropertyOp40
 70
     0
102
RTVSPropertyOp41
 70
     0
102
RTVSPropertyOp42
 70
     0
102
RTVSPropertyOp43
 70
     0
102
RTVSPropertyOp44
 70
     0
102
RTVSPropertyOp45
 70
     0
102
RTVSPropertyOp46
 70
     0
102
RTVSPropertyOp47
 70
     0
102
RTVSPropertyOp48
 70
     0
102
RTVSPropertyOp49
 70
     0
102
RTVSPropertyOp50
 70
     0
102
RTVSPropertyOp51
 70
     0
102
RTVSPropertyOp52
 70
     0
102
RTVSPropertyOp53
 70
     0
102
RTVSPropertyOp54
 70
     0
102
RTVSPropertyOp55
 70
     0
102
RTVSPropertyOp56
 70
     0
102
RTVSPropertyOp57
 70
     0
102
RTVSPost2010Prop28
280
     0
102
RTVSPost2010PropOp28
 70
     0
102
RTVSPost2010Prop29
280
     1
102
RTVSPost2010PropOp29
 70
     0
102
RTVSPost2010Prop30
280
     1
102
RTVSPost2010PropOp30
 70
     0
102
RTVSPost2010Prop31
280
     0
102
RTVSPost2010PropOp31
 70
     0
102
RTVSPost2010Prop32
280
     0
102
RTVSPost2010PropOp32
 70
     0
102
RTVSPost2010Prop33
280
     0
102
RTVSPost2010PropOp33
 70
     0
102
RTVSPost2010Prop34
280
     0
102
RTVSPost2010PropOp34
 70
     0
102
RTVSPost2010Prop35
280
     0
102
RTVSPost2010PropOp35
 70
     0
102
RTVSPost2010Prop36
280
     0
102
RTVSPost2010PropOp36
 70
     0
102
RTVSPost2010Prop37
 90
       50
102
RTVSPost2010PropOp37
 70
     0
102
RTVSPost2010Prop38
140
0.0
102
RTVSPost2010PropOp38
 70
     0
102
RTVSPost2010Prop39
140
1.0
102
RTVSPost2010PropOp39
 70
     0
102
RTVSPost2010Prop40
 90
        0
102
RTVSPost2010PropOp40
 70
     0
102
RTVSPost2010Prop41ColorIndex
 90
       18
102
RTVSPost2010Prop41ColorRGB
 90
        0
102
RTVSPost2010PropOp41
 70
     0
102
RTVSPost2010Prop42
 90
       50
102
RTVSPost2010PropOp42
 70
     0
102
RTVSPost2010Prop43
 90
        3
102
RTVSPost2010PropOp43
 70
     0
102
RTVSPost2010Prop44ColorIndex
 90
        5
102
RTVSPost2010Prop44ColorRGB
 90
      255
102
RTVSPost2010PropOp44
 70
     0
102
RTVSPost2010Prop45
280
     0
102
RTVSPost2010PropOp45
 70
     0
102
RTVSPost2010Prop46
 90
       50
102
RTVSPost2010PropOp46
 70
     0
102
RTVSPost2010Prop47
 90
       50
102
RTVSPost2010PropOp47
 70
     0
102
RTVSPost2010Prop48
 90
       50
102
RTVSPost2010PropOp48
 70
     0
102
RTVSPost2010Prop49
280
     0
102
RTVSPost2010PropOp49
 70
     0
102
RTVSPost2010Prop50
 90
       50
102
RTVSPost2010PropOp50
 70
     0
102
RTVSPost2010Prop51ColorIndex
 90
      256
102
RTVSPost2010Prop51ColorRGB
 90
-16777216
102
RTVSPost2010PropOp51
 70
     0
102
RTVSPost2010Prop52
140
1.0
102
RTVSPost2010PropOp52
 70
     0
102
RTVSPost2010Prop53
 90
        2
102
RTVSPost2010PropOp53
 70
     0
102
RTVSPost2010Prop54
  1
strokes_ogs.tif
102
RTVSPost2010PropOp54
 70
     0
102
RTVSPost2010Prop55
280
     0
102
RTVSPost2010PropOp55
 70
     0
102
RTVSPost2010Prop56
140
1.0
102
RTVSPost2010PropOp56
 70
     0
102
RTVSPost2010Prop57
140
1.0
102
RTVSPost2010PropOp57
 70
     0
  0
XRECORD
  5
564
102
{ACAD_REACTORS
330
563
102
}
330
563
100
AcDbXrecord
280
     1
102
RTVSPropertyOp0
 70
     1
102
RTVSPropertyOp1
 70
     1
102
RTVSPropertyOp2
 70
     1
102
RTVSPropertyOp3
 70
     1
102
RTVSPropertyOp4
 70
     1
102
RTVSPropertyOp5
 70
     1
102
RTVSPropertyOp6
 70
     1
102
RTVSPropertyOp7
 70
     1
102
RTVSPropertyOp8
 70
     1
102
RTVSPropertyOp9
 70
     1
102
RTVSPropertyOp10
 70
     1
102
RTVSPropertyOp11
 70
     1
102
RTVSPropertyOp12
 70
     1
102
RTVSPropertyOp13
 70
     1
102
RTVSPropertyOp14
 70
     1
102
RTVSPropertyOp15
 70
     1
102
RTVSPropertyOp16
 70
     1
102
RTVSPropertyOp17
 70
     1
102
RTVSPropertyOp18
 70
     1
102
RTVSPropertyOp19
 70
     1
102
RTVSPropertyOp20
 70
     1
102
RTVSPropertyOp21
 70
     1
102
RTVSPropertyOp22
 70
     1
102
RTVSPropertyOp23
 70
     1
102
RTVSPropertyOp24
 70
     1
102
RTVSPropertyOp25
 70
     1
102
RTVSPropertyOp26
 70
     1
102
RTVSPropertyOp27
 70
     1
102
RTVSPropertyOp28
 70
     1
102
RTVSPropertyOp29
 70
     1
102
RTVSPropertyOp30
 70
     1
102
RTVSPropertyOp31
 70
     1
102
RTVSPropertyOp32
 70
     1
102
RTVSPropertyOp33
 70
     1
102
RTVSPropertyOp34
 70
     1
102
RTVSPropertyOp35
 70
     1
102
RTVSPropertyOp36
 70
     1
102
RTVSPropertyOp37
 70
     1
102
RTVSPropertyOp38
 70
     1
102
RTVSPropertyOp39
 70
     1
102
RTVSPropertyOp40
 70
     1
102
RTVSPropertyOp41
 70
     1
102
RTVSPropertyOp42
 70
     1
102
RTVSPropertyOp43
 70
     1
102
RTVSPropertyOp44
 70
     1
102
RTVSPropertyOp45
 70
     1
102
RTVSPropertyOp46
 70
     1
102
RTVSPropertyOp47
 70
     1
102
RTVSPropertyOp48
 70
     1
102
RTVSPropertyOp49
 70
     1
102
RTVSPropertyOp50
 70
     1
102
RTVSPropertyOp51
 70
     0
102
RTVSPropertyOp52
 70
     0
102
RTVSPropertyOp53
 70
     1
102
RTVSPropertyOp54
 70
     1
102
RTVSPropertyOp55
 70
     1
102
RTVSPropertyOp56
 70
     1
102
RTVSPropertyOp57
 70
     1
102
RTVSPost2010Prop28
280
     0
102
RTVSPost2010PropOp28
 70
     1
102
RTVSPost2010Prop29
280
     1
102
RTVSPost2010PropOp29
 70
     1
102
RTVSPost2010Prop30
280
     1
102
RTVSPost2010PropOp30
 70
     1
102
RTVSPost2010Prop31
280
     0
102
RTVSPost2010PropOp31
 70
     1
102
RTVSPost2010Prop32
280
     0
102
RTVSPost2010PropOp32
 70
     1
102
RTVSPost2010Prop33
280
     0
102
RTVSPost2010PropOp33
 70
     1
102
RTVSPost2010Prop34
280
     0
102
RTVSPost2010PropOp34
 70
     1
102
RTVSPost2010Prop35
280
     0
102
RTVSPost2010PropOp35
 70
     1
102
RTVSPost2010Prop36
280
     0
102
RTVSPost2010PropOp36
 70
     1
102
RTVSPost2010Prop37
 90
       50
102
RTVSPost2010PropOp37
 70
     1
102
RTVSPost2010Prop38
140
0.0
102
RTVSPost2010PropOp38
 70
     1
102
RTVSPost2010Prop39
140
1.0
102
RTVSPost2010PropOp39
 70
     1
102
RTVSPost2010Prop40
 90
        0
102
RTVSPost2010PropOp40
 70
     1
102
RTVSPost2010Prop41ColorIndex
 90
       18
102
RTVSPost2010Prop41ColorRGB
 90
        0
102
RTVSPost2010PropOp41
 70
     1
102
RTVSPost2010Prop42
 90
       50
102
RTVSPost2010PropOp42
 70
     1
102
RTVSPost2010Prop43
 90
        3
102
RTVSPost2010PropOp43
 70
     1
102
RTVSPost2010Prop44ColorIndex
 90
        5
102
RTVSPost2010Prop44ColorRGB
 90
      255
102
RTVSPost2010PropOp44
 70
     1
102
RTVSPost2010Prop45
280
     0
102
RTVSPost2010PropOp45
 70
     1
102
RTVSPost2010Prop46
 90
       50
102
RTVSPost2010PropOp46
 70
     1
102
RTVSPost2010Prop47
 90
       50
102
RTVSPost2010PropOp47
 70
     1
102
RTVSPost2010Prop48
 90
       50
102
RTVSPost2010PropOp48
 70
     1
102
RTVSPost2010Prop49
280
     0
102
RTVSPost2010PropOp49
 70
     1
102
RTVSPost2010Prop50
 90
       50
102
RTVSPost2010PropOp50
 70
     1
102
RTVSPost2010Prop51ColorIndex
 90
      256
102
RTVSPost2010Prop51ColorRGB
 90
-16777216
102
RTVSPost2010PropOp51
 70
     0
102
RTVSPost2010Prop52
140
1.0
102
RTVSPost2010PropOp52
 70
     0
102
RTVSPost2010Prop53
 90
        2
102
RTVSPost2010PropOp53
 70
     1
102
RTVSPost2010Prop54
  1
strokes_ogs.tif
102
RTVSPost2010PropOp54
 70
     1
102
RTVSPost2010Prop55
280
     0
102
RTVSPost2010PropOp55
 70
     1
102
RTVSPost2010Prop56
140
1.0
102
RTVSPost2010PropOp56
 70
     1
102
RTVSPost2010Prop57
140
1.0
102
RTVSPost2010PropOp57
 70
     1
  0
XRECORD
  5
548
102
{ACAD_REACTORS
330
547
102
}
330
547
100
AcDbXrecord
280
     1
102
RTVSPropertyOp0
 70
     1
102
RTVSPropertyOp1
 70
     1
102
RTVSPropertyOp2
 70
     1
102
RTVSPropertyOp3
 70
     1
102
RTVSPropertyOp4
 70
     1
102
RTVSPropertyOp5
 70
     1
102
RTVSPropertyOp6
 70
     1
102
RTVSPropertyOp7
 70
     1
102
RTVSPropertyOp8
 70
     1
102
RTVSPropertyOp9
 70
     1
102
RTVSPropertyOp10
 70
     1
102
RTVSPropertyOp11
 70
     1
102
RTVSPropertyOp12
 70
     1
102
RTVSPropertyOp13
 70
     1
102
RTVSPropertyOp14
 70
     1
102
RTVSPropertyOp15
 70
     1
102
RTVSPropertyOp16
 70
     1
102
RTVSPropertyOp17
 70
     1
102
RTVSPropertyOp18
 70
     1
102
RTVSPropertyOp19
 70
     1
102
RTVSPropertyOp20
 70
     1
102
RTVSPropertyOp21
 70
     1
102
RTVSPropertyOp22
 70
     1
102
RTVSPropertyOp23
 70
     1
102
RTVSPropertyOp24
 70
     1
102
RTVSPropertyOp25
 70
     1
102
RTVSPropertyOp26
 70
     1
102
RTVSPropertyOp27
 70
     1
102
RTVSPropertyOp28
 70
     1
102
RTVSPropertyOp29
 70
     1
102
RTVSPropertyOp30
 70
     1
102
RTVSPropertyOp31
 70
     1
102
RTVSPropertyOp32
 70
     1
102
RTVSPropertyOp33
 70
     1
102
RTVSPropertyOp34
 70
     1
102
RTVSPropertyOp35
 70
     1
102
RTVSPropertyOp36
 70
     1
102
RTVSPropertyOp37
 70
     1
102
RTVSPropertyOp38
 70
     1
102
RTVSPropertyOp39
 70
     1
102
RTVSPropertyOp40
 70
     1
102
RTVSPropertyOp41
 70
     1
102
RTVSPropertyOp42
 70
     1
102
RTVSPropertyOp43
 70
     1
102
RTVSPropertyOp44
 70
     1
102
RTVSPropertyOp45
 70
     1
102
RTVSPropertyOp46
 70
     1
102
RTVSPropertyOp47
 70
     1
102
RTVSPropertyOp48
 70
     1
102
RTVSPropertyOp49
 70
     1
102
RTVSPropertyOp50
 70
     1
102
RTVSPropertyOp51
 70
     0
102
RTVSPropertyOp52
 70
     0
102
RTVSPropertyOp53
 70
     1
102
RTVSPropertyOp54
 70
     1
102
RTVSPropertyOp55
 70
     1
102
RTVSPropertyOp56
 70
     1
102
RTVSPropertyOp57
 70
     1
102
RTVSPost2010Prop28
280
     0
102
RTVSPost2010PropOp28
 70
     1
102
RTVSPost2010Prop29
280
     1
102
RTVSPost2010PropOp29
 70
     1
102
RTVSPost2010Prop30
280
     1
102
RTVSPost2010PropOp30
 70
     1
102
RTVSPost2010Prop31
280
     0
102
RTVSPost2010PropOp31
 70
     1
102
RTVSPost2010Prop32
280
     0
102
RTVSPost2010PropOp32
 70
     1
102
RTVSPost2010Prop33
280
     0
102
RTVSPost2010PropOp33
 70
     1
102
RTVSPost2010Prop34
280
     0
102
RTVSPost2010PropOp34
 70
     1
102
RTVSPost2010Prop35
280
     0
102
RTVSPost2010PropOp35
 70
     1
102
RTVSPost2010Prop36
280
     0
102
RTVSPost2010PropOp36
 70
     1
102
RTVSPost2010Prop37
 90
       50
102
RTVSPost2010PropOp37
 70
     1
102
RTVSPost2010Prop38
140
0.0
102
RTVSPost2010PropOp38
 70
     1
102
RTVSPost2010Prop39
140
1.0
102
RTVSPost2010PropOp39
 70
     1
102
RTVSPost2010Prop40
 90
        0
102
RTVSPost2010PropOp40
 70
     1
102
RTVSPost2010Prop41ColorIndex
 90
       18
102
RTVSPost2010Prop41ColorRGB
 90
        0
102
RTVSPost2010PropOp41
 70
     1
102
RTVSPost2010Prop42
 90
       50
102
RTVSPost2010PropOp42
 70
     1
102
RTVSPost2010Prop43
 90
        3
102
RTVSPost2010PropOp43
 70
     1
102
RTVSPost2010Prop44ColorIndex
 90
        5
102
RTVSPost2010Prop44ColorRGB
 90
      255
102
RTVSPost2010PropOp44
 70
     1
102
RTVSPost2010Prop45
280
     0
102
RTVSPost2010PropOp45
 70
     1
102
RTVSPost2010Prop46
 90
       50
102
RTVSPost2010PropOp46
 70
     1
102
RTVSPost2010Prop47
 90
       50
102
RTVSPost2010PropOp47
 70
     1
102
RTVSPost2010Prop48
 90
       50
102
RTVSPost2010PropOp48
 70
     1
102
RTVSPost2010Prop49
280
     0
102
RTVSPost2010PropOp49
 70
     1
102
RTVSPost2010Prop50
 90
       50
102
RTVSPost2010PropOp50
 70
     1
102
RTVSPost2010Prop51ColorIndex
 90
      256
102
RTVSPost2010Prop51ColorRGB
 90
-16777216
102
RTVSPost2010PropOp51
 70
     0
102
RTVSPost2010Prop52
140
1.0
102
RTVSPost2010PropOp52
 70
     0
102
RTVSPost2010Prop53
 90
        2
102
RTVSPost2010PropOp53
 70
     1
102
RTVSPost2010Prop54
  1
strokes_ogs.tif
102
RTVSPost2010PropOp54
 70
     1
102
RTVSPost2010Prop55
280
     0
102
RTVSPost2010PropOp55
 70
     1
102
RTVSPost2010Prop56
140
1.0
102
RTVSPost2010PropOp56
 70
     1
102
RTVSPost2010Prop57
140
1.0
102
RTVSPost2010PropOp57
 70
     1
  0
XRECORD
  5
54A
102
{ACAD_REACTORS
330
549
102
}
330
549
100
AcDbXrecord
280
     1
102
RTVSPropertyOp0
 70
     1
102
RTVSPropertyOp1
 70
     1
102
RTVSPropertyOp2
 70
     1
102
RTVSPropertyOp3
 70
     1
102
RTVSPropertyOp4
 70
     1
102
RTVSPropertyOp5
 70
     1
102
RTVSPropertyOp6
 70
     1
102
RTVSPropertyOp7
 70
     1
102
RTVSPropertyOp8
 70
     1
102
RTVSPropertyOp9
 70
     1
102
RTVSPropertyOp10
 70
     1
102
RTVSPropertyOp11
 70
     1
102
RTVSPropertyOp12
 70
     1
102
RTVSPropertyOp13
 70
     1
102
RTVSPropertyOp14
 70
     1
102
RTVSPropertyOp15
 70
     1
102
RTVSPropertyOp16
 70
     1
102
RTVSPropertyOp17
 70
     1
102
RTVSPropertyOp18
 70
     1
102
RTVSPropertyOp19
 70
     1
102
RTVSPropertyOp20
 70
     1
102
RTVSPropertyOp21
 70
     1
102
RTVSPropertyOp22
 70
     1
102
RTVSPropertyOp23
 70
     1
102
RTVSPropertyOp24
 70
     1
102
RTVSPropertyOp25
 70
     1
102
RTVSPropertyOp26
 70
     1
102
RTVSPropertyOp27
 70
     1
102
RTVSPropertyOp28
 70
     1
102
RTVSPropertyOp29
 70
     1
102
RTVSPropertyOp30
 70
     1
102
RTVSPropertyOp31
 70
     1
102
RTVSPropertyOp32
 70
     1
102
RTVSPropertyOp33
 70
     1
102
RTVSPropertyOp34
 70
     1
102
RTVSPropertyOp35
 70
     1
102
RTVSPropertyOp36
 70
     1
102
RTVSPropertyOp37
 70
     1
102
RTVSPropertyOp38
 70
     1
102
RTVSPropertyOp39
 70
     1
102
RTVSPropertyOp40
 70
     1
102
RTVSPropertyOp41
 70
     1
102
RTVSPropertyOp42
 70
     1
102
RTVSPropertyOp43
 70
     1
102
RTVSPropertyOp44
 70
     1
102
RTVSPropertyOp45
 70
     1
102
RTVSPropertyOp46
 70
     1
102
RTVSPropertyOp47
 70
     1
102
RTVSPropertyOp48
 70
     1
102
RTVSPropertyOp49
 70
     1
102
RTVSPropertyOp50
 70
     1
102
RTVSPropertyOp51
 70
     0
102
RTVSPropertyOp52
 70
     0
102
RTVSPropertyOp53
 70
     1
102
RTVSPropertyOp54
 70
     1
102
RTVSPropertyOp55
 70
     1
102
RTVSPropertyOp56
 70
     1
102
RTVSPropertyOp57
 70
     1
102
RTVSPost2010Prop28
280
     0
102
RTVSPost2010PropOp28
 70
     1
102
RTVSPost2010Prop29
280
     1
102
RTVSPost2010PropOp29
 70
     1
102
RTVSPost2010Prop30
280
     1
102
RTVSPost2010PropOp30
 70
     1
102
RTVSPost2010Prop31
280
     0
102
RTVSPost2010PropOp31
 70
     1
102
RTVSPost2010Prop32
280
     0
102
RTVSPost2010PropOp32
 70
     1
102
RTVSPost2010Prop33
280
     0
102
RTVSPost2010PropOp33
 70
     1
102
RTVSPost2010Prop34
280
     0
102
RTVSPost2010PropOp34
 70
     1
102
RTVSPost2010Prop35
280
     0
102
RTVSPost2010PropOp35
 70
     1
102
RTVSPost2010Prop36
280
     0
102
RTVSPost2010PropOp36
 70
     1
102
RTVSPost2010Prop37
 90
       50
102
RTVSPost2010PropOp37
 70
     1
102
RTVSPost2010Prop38
140
0.0
102
RTVSPost2010PropOp38
 70
     1
102
RTVSPost2010Prop39
140
1.0
102
RTVSPost2010PropOp39
 70
     1
102
RTVSPost2010Prop40
 90
        0
102
RTVSPost2010PropOp40
 70
     1
102
RTVSPost2010Prop41ColorIndex
 90
       18
102
RTVSPost2010Prop41ColorRGB
 90
        0
102
RTVSPost2010PropOp41
 70
     1
102
RTVSPost2010Prop42
 90
       50
102
RTVSPost2010PropOp42
 70
     1
102
RTVSPost2010Prop43
 90
        3
102
RTVSPost2010PropOp43
 70
     1
102
RTVSPost2010Prop44ColorIndex
 90
        5
102
RTVSPost2010Prop44ColorRGB
 90
      255
102
RTVSPost2010PropOp44
 70
     1
102
RTVSPost2010Prop45
280
     0
102
RTVSPost2010PropOp45
 70
     1
102
RTVSPost2010Prop46
 90
       50
102
RTVSPost2010PropOp46
 70
     1
102
RTVSPost2010Prop47
 90
       50
102
RTVSPost2010PropOp47
 70
     1
102
RTVSPost2010Prop48
 90
       50
102
RTVSPost2010PropOp48
 70
     1
102
RTVSPost2010Prop49
280
     0
102
RTVSPost2010PropOp49
 70
     1
102
RTVSPost2010Prop50
 90
       50
102
RTVSPost2010PropOp50
 70
     1
102
RTVSPost2010Prop51ColorIndex
 90
      256
102
RTVSPost2010Prop51ColorRGB
 90
-16777216
102
RTVSPost2010PropOp51
 70
     0
102
RTVSPost2010Prop52
140
1.0
102
RTVSPost2010PropOp52
 70
     0
102
RTVSPost2010Prop53
 90
        2
102
RTVSPost2010PropOp53
 70
     1
102
RTVSPost2010Prop54
  1
strokes_ogs.tif
102
RTVSPost2010PropOp54
 70
     1
102
RTVSPost2010Prop55
280
     0
102
RTVSPost2010PropOp55
 70
     1
102
RTVSPost2010Prop56
140
1.0
102
RTVSPost2010PropOp56
 70
     1
102
RTVSPost2010Prop57
140
1.0
102
RTVSPost2010PropOp57
 70
     1
  0
XRECORD
  5
54C
102
{ACAD_REACTORS
330
54B
102
}
330
54B
100
AcDbXrecord
280
     1
102
RTVSPropertyOp0
 70
     1
102
RTVSPropertyOp1
 70
     1
102
RTVSPropertyOp2
 70
     1
102
RTVSPropertyOp3
 70
     1
102
RTVSPropertyOp4
 70
     1
102
RTVSPropertyOp5
 70
     1
102
RTVSPropertyOp6
 70
     1
102
RTVSPropertyOp7
 70
     1
102
RTVSPropertyOp8
 70
     1
102
RTVSPropertyOp9
 70
     1
102
RTVSPropertyOp10
 70
     1
102
RTVSPropertyOp11
 70
     1
102
RTVSPropertyOp12
 70
     1
102
RTVSPropertyOp13
 70
     1
102
RTVSPropertyOp14
 70
     1
102
RTVSPropertyOp15
 70
     1
102
RTVSPropertyOp16
 70
     1
102
RTVSPropertyOp17
 70
     1
102
RTVSPropertyOp18
 70
     1
102
RTVSPropertyOp19
 70
     1
102
RTVSPropertyOp20
 70
     1
102
RTVSPropertyOp21
 70
     1
102
RTVSPropertyOp22
 70
     1
102
RTVSPropertyOp23
 70
     1
102
RTVSPropertyOp24
 70
     1
102
RTVSPropertyOp25
 70
     1
102
RTVSPropertyOp26
 70
     1
102
RTVSPropertyOp27
 70
     1
102
RTVSPropertyOp28
 70
     1
102
RTVSPropertyOp29
 70
     1
102
RTVSPropertyOp30
 70
     1
102
RTVSPropertyOp31
 70
     1
102
RTVSPropertyOp32
 70
     1
102
RTVSPropertyOp33
 70
     1
102
RTVSPropertyOp34
 70
     1
102
RTVSPropertyOp35
 70
     1
102
RTVSPropertyOp36
 70
     1
102
RTVSPropertyOp37
 70
     1
102
RTVSPropertyOp38
 70
     1
102
RTVSPropertyOp39
 70
     1
102
RTVSPropertyOp40
 70
     1
102
RTVSPropertyOp41
 70
     1
102
RTVSPropertyOp42
 70
     1
102
RTVSPropertyOp43
 70
     1
102
RTVSPropertyOp44
 70
     1
102
RTVSPropertyOp45
 70
     1
102
RTVSPropertyOp46
 70
     1
102
RTVSPropertyOp47
 70
     1
102
RTVSPropertyOp48
 70
     1
102
RTVSPropertyOp49
 70
     1
102
RTVSPropertyOp50
 70
     1
102
RTVSPropertyOp51
 70
     0
102
RTVSPropertyOp52
 70
     0
102
RTVSPropertyOp53
 70
     1
102
RTVSPropertyOp54
 70
     1
102
RTVSPropertyOp55
 70
     1
102
RTVSPropertyOp56
 70
     1
102
RTVSPropertyOp57
 70
     1
102
RTVSPost2010Prop28
280
     0
102
RTVSPost2010PropOp28
 70
     1
102
RTVSPost2010Prop29
280
     1
102
RTVSPost2010PropOp29
 70
     1
102
RTVSPost2010Prop30
280
     1
102
RTVSPost2010PropOp30
 70
     1
102
RTVSPost2010Prop31
280
     0
102
RTVSPost2010PropOp31
 70
     1
102
RTVSPost2010Prop32
280
     0
102
RTVSPost2010PropOp32
 70
     1
102
RTVSPost2010Prop33
280
     0
102
RTVSPost2010PropOp33
 70
     1
102
RTVSPost2010Prop34
280
     0
102
RTVSPost2010PropOp34
 70
     1
102
RTVSPost2010Prop35
280
     0
102
RTVSPost2010PropOp35
 70
     1
102
RTVSPost2010Prop36
280
     0
102
RTVSPost2010PropOp36
 70
     1
102
RTVSPost2010Prop37
 90
       50
102
RTVSPost2010PropOp37
 70
     1
102
RTVSPost2010Prop38
140
0.0
102
RTVSPost2010PropOp38
 70
     1
102
RTVSPost2010Prop39
140
1.0
102
RTVSPost2010PropOp39
 70
     1
102
RTVSPost2010Prop40
 90
        0
102
RTVSPost2010PropOp40
 70
     1
102
RTVSPost2010Prop41ColorIndex
 90
       18
102
RTVSPost2010Prop41ColorRGB
 90
        0
102
RTVSPost2010PropOp41
 70
     1
102
RTVSPost2010Prop42
 90
       50
102
RTVSPost2010PropOp42
 70
     1
102
RTVSPost2010Prop43
 90
        3
102
RTVSPost2010PropOp43
 70
     1
102
RTVSPost2010Prop44ColorIndex
 90
        5
102
RTVSPost2010Prop44ColorRGB
 90
      255
102
RTVSPost2010PropOp44
 70
     1
102
RTVSPost2010Prop45
280
     0
102
RTVSPost2010PropOp45
 70
     1
102
RTVSPost2010Prop46
 90
       50
102
RTVSPost2010PropOp46
 70
     1
102
RTVSPost2010Prop47
 90
       50
102
RTVSPost2010PropOp47
 70
     1
102
RTVSPost2010Prop48
 90
       50
102
RTVSPost2010PropOp48
 70
     1
102
RTVSPost2010Prop49
280
     0
102
RTVSPost2010PropOp49
 70
     1
102
RTVSPost2010Prop50
 90
       50
102
RTVSPost2010PropOp50
 70
     1
102
RTVSPost2010Prop51ColorIndex
 90
      256
102
RTVSPost2010Prop51ColorRGB
 90
-16777216
102
RTVSPost2010PropOp51
 70
     0
102
RTVSPost2010Prop52
140
1.0
102
RTVSPost2010PropOp52
 70
     0
102
RTVSPost2010Prop53
 90
        2
102
RTVSPost2010PropOp53
 70
     1
102
RTVSPost2010Prop54
  1
strokes_ogs.tif
102
RTVSPost2010PropOp54
 70
     1
102
RTVSPost2010Prop55
280
     0
102
RTVSPost2010PropOp55
 70
     1
102
RTVSPost2010Prop56
140
1.0
102
RTVSPost2010PropOp56
 70
     1
102
RTVSPost2010Prop57
140
1.0
102
RTVSPost2010PropOp57
 70
     1
  0
XRECORD
  5
54E
102
{ACAD_REACTORS
330
54D
102
}
330
54D
100
AcDbXrecord
280
     1
102
RTVSPropertyOp0
 70
     1
102
RTVSPropertyOp1
 70
     1
102
RTVSPropertyOp2
 70
     1
102
RTVSPropertyOp3
 70
     1
102
RTVSPropertyOp4
 70
     1
102
RTVSPropertyOp5
 70
     1
102
RTVSPropertyOp6
 70
     1
102
RTVSPropertyOp7
 70
     1
102
RTVSPropertyOp8
 70
     1
102
RTVSPropertyOp9
 70
     1
102
RTVSPropertyOp10
 70
     1
102
RTVSPropertyOp11
 70
     1
102
RTVSPropertyOp12
 70
     1
102
RTVSPropertyOp13
 70
     1
102
RTVSPropertyOp14
 70
     1
102
RTVSPropertyOp15
 70
     1
102
RTVSPropertyOp16
 70
     1
102
RTVSPropertyOp17
 70
     1
102
RTVSPropertyOp18
 70
     1
102
RTVSPropertyOp19
 70
     1
102
RTVSPropertyOp20
 70
     1
102
RTVSPropertyOp21
 70
     1
102
RTVSPropertyOp22
 70
     1
102
RTVSPropertyOp23
 70
     1
102
RTVSPropertyOp24
 70
     1
102
RTVSPropertyOp25
 70
     1
102
RTVSPropertyOp26
 70
     1
102
RTVSPropertyOp27
 70
     1
102
RTVSPropertyOp28
 70
     1
102
RTVSPropertyOp29
 70
     1
102
RTVSPropertyOp30
 70
     1
102
RTVSPropertyOp31
 70
     1
102
RTVSPropertyOp32
 70
     1
102
RTVSPropertyOp33
 70
     1
102
RTVSPropertyOp34
 70
     1
102
RTVSPropertyOp35
 70
     1
102
RTVSPropertyOp36
 70
     1
102
RTVSPropertyOp37
 70
     1
102
RTVSPropertyOp38
 70
     1
102
RTVSPropertyOp39
 70
     1
102
RTVSPropertyOp40
 70
     1
102
RTVSPropertyOp41
 70
     1
102
RTVSPropertyOp42
 70
     1
102
RTVSPropertyOp43
 70
     1
102
RTVSPropertyOp44
 70
     1
102
RTVSPropertyOp45
 70
     1
102
RTVSPropertyOp46
 70
     1
102
RTVSPropertyOp47
 70
     1
102
RTVSPropertyOp48
 70
     1
102
RTVSPropertyOp49
 70
     1
102
RTVSPropertyOp50
 70
     1
102
RTVSPropertyOp51
 70
     0
102
RTVSPropertyOp52
 70
     0
102
RTVSPropertyOp53
 70
     1
102
RTVSPropertyOp54
 70
     1
102
RTVSPropertyOp55
 70
     1
102
RTVSPropertyOp56
 70
     1
102
RTVSPropertyOp57
 70
     1
102
RTVSPost2010Prop28
280
     0
102
RTVSPost2010PropOp28
 70
     1
102
RTVSPost2010Prop29
280
     1
102
RTVSPost2010PropOp29
 70
     1
102
RTVSPost2010Prop30
280
     1
102
RTVSPost2010PropOp30
 70
     1
102
RTVSPost2010Prop31
280
     0
102
RTVSPost2010PropOp31
 70
     1
102
RTVSPost2010Prop32
280
     0
102
RTVSPost2010PropOp32
 70
     1
102
RTVSPost2010Prop33
280
     0
102
RTVSPost2010PropOp33
 70
     1
102
RTVSPost2010Prop34
280
     0
102
RTVSPost2010PropOp34
 70
     1
102
RTVSPost2010Prop35
280
     0
102
RTVSPost2010PropOp35
 70
     1
102
RTVSPost2010Prop36
280
     0
102
RTVSPost2010PropOp36
 70
     1
102
RTVSPost2010Prop37
 90
       50
102
RTVSPost2010PropOp37
 70
     1
102
RTVSPost2010Prop38
140
0.0
102
RTVSPost2010PropOp38
 70
     1
102
RTVSPost2010Prop39
140
1.0
102
RTVSPost2010PropOp39
 70
     1
102
RTVSPost2010Prop40
 90
        0
102
RTVSPost2010PropOp40
 70
     1
102
RTVSPost2010Prop41ColorIndex
 90
       18
102
RTVSPost2010Prop41ColorRGB
 90
        0
102
RTVSPost2010PropOp41
 70
     1
102
RTVSPost2010Prop42
 90
       50
102
RTVSPost2010PropOp42
 70
     1
102
RTVSPost2010Prop43
 90
        3
102
RTVSPost2010PropOp43
 70
     1
102
RTVSPost2010Prop44ColorIndex
 90
        5
102
RTVSPost2010Prop44ColorRGB
 90
      255
102
RTVSPost2010PropOp44
 70
     1
102
RTVSPost2010Prop45
280
     0
102
RTVSPost2010PropOp45
 70
     1
102
RTVSPost2010Prop46
 90
       50
102
RTVSPost2010PropOp46
 70
     1
102
RTVSPost2010Prop47
 90
       50
102
RTVSPost2010PropOp47
 70
     1
102
RTVSPost2010Prop48
 90
       50
102
RTVSPost2010PropOp48
 70
     1
102
RTVSPost2010Prop49
280
     0
102
RTVSPost2010PropOp49
 70
     1
102
RTVSPost2010Prop50
 90
       50
102
RTVSPost2010PropOp50
 70
     1
102
RTVSPost2010Prop51ColorIndex
 90
      256
102
RTVSPost2010Prop51ColorRGB
 90
-16777216
102
RTVSPost2010PropOp51
 70
     0
102
RTVSPost2010Prop52
140
1.0
102
RTVSPost2010PropOp52
 70
     0
102
RTVSPost2010Prop53
 90
        2
102
RTVSPost2010PropOp53
 70
     1
102
RTVSPost2010Prop54
  1
strokes_ogs.tif
102
RTVSPost2010PropOp54
 70
     1
102
RTVSPost2010Prop55
280
     0
102
RTVSPost2010PropOp55
 70
     1
102
RTVSPost2010Prop56
140
1.0
102
RTVSPost2010PropOp56
 70
     1
102
RTVSPost2010Prop57
140
1.0
102
RTVSPost2010PropOp57
 70
     1
  0
XRECORD
  5
554
102
{ACAD_REACTORS
330
553
102
}
330
553
100
AcDbXrecord
280
     1
102
RTVSPropertyOp0
 70
     1
102
RTVSPropertyOp1
 70
     1
102
RTVSPropertyOp2
 70
     1
102
RTVSPropertyOp3
 70
     1
102
RTVSPropertyOp4
 70
     1
102
RTVSPropertyOp5
 70
     1
102
RTVSPropertyOp6
 70
     1
102
RTVSPropertyOp7
 70
     1
102
RTVSPropertyOp8
 70
     1
102
RTVSPropertyOp9
 70
     1
102
RTVSPropertyOp10
 70
     1
102
RTVSPropertyOp11
 70
     1
102
RTVSPropertyOp12
 70
     1
102
RTVSPropertyOp13
 70
     1
102
RTVSPropertyOp14
 70
     1
102
RTVSPropertyOp15
 70
     1
102
RTVSPropertyOp16
 70
     1
102
RTVSPropertyOp17
 70
     1
102
RTVSPropertyOp18
 70
     1
102
RTVSPropertyOp19
 70
     1
102
RTVSPropertyOp20
 70
     1
102
RTVSPropertyOp21
 70
     1
102
RTVSPropertyOp22
 70
     1
102
RTVSPropertyOp23
 70
     1
102
RTVSPropertyOp24
 70
     1
102
RTVSPropertyOp25
 70
     1
102
RTVSPropertyOp26
 70
     1
102
RTVSPropertyOp27
 70
     1
102
RTVSPropertyOp28
 70
     1
102
RTVSPropertyOp29
 70
     1
102
RTVSPropertyOp30
 70
     1
102
RTVSPropertyOp31
 70
     1
102
RTVSPropertyOp32
 70
     1
102
RTVSPropertyOp33
 70
     1
102
RTVSPropertyOp34
 70
     1
102
RTVSPropertyOp35
 70
     1
102
RTVSPropertyOp36
 70
     1
102
RTVSPropertyOp37
 70
     1
102
RTVSPropertyOp38
 70
     1
102
RTVSPropertyOp39
 70
     1
102
RTVSPropertyOp40
 70
     1
102
RTVSPropertyOp41
 70
     1
102
RTVSPropertyOp42
 70
     1
102
RTVSPropertyOp43
 70
     1
102
RTVSPropertyOp44
 70
     1
102
RTVSPropertyOp45
 70
     1
102
RTVSPropertyOp46
 70
     1
102
RTVSPropertyOp47
 70
     1
102
RTVSPropertyOp48
 70
     1
102
RTVSPropertyOp49
 70
     1
102
RTVSPropertyOp50
 70
     1
102
RTVSPropertyOp51
 70
     0
102
RTVSPropertyOp52
 70
     0
102
RTVSPropertyOp53
 70
     1
102
RTVSPropertyOp54
 70
     1
102
RTVSPropertyOp55
 70
     1
102
RTVSPropertyOp56
 70
     1
102
RTVSPropertyOp57
 70
     1
102
RTVSPost2010Prop28
280
     0
102
RTVSPost2010PropOp28
 70
     1
102
RTVSPost2010Prop29
280
     1
102
RTVSPost2010PropOp29
 70
     1
102
RTVSPost2010Prop30
280
     1
102
RTVSPost2010PropOp30
 70
     1
102
RTVSPost2010Prop31
280
     0
102
RTVSPost2010PropOp31
 70
     1
102
RTVSPost2010Prop32
280
     0
102
RTVSPost2010PropOp32
 70
     1
102
RTVSPost2010Prop33
280
     0
102
RTVSPost2010PropOp33
 70
     1
102
RTVSPost2010Prop34
280
     0
102
RTVSPost2010PropOp34
 70
     1
102
RTVSPost2010Prop35
280
     0
102
RTVSPost2010PropOp35
 70
     1
102
RTVSPost2010Prop36
280
     0
102
RTVSPost2010PropOp36
 70
     1
102
RTVSPost2010Prop37
 90
       50
102
RTVSPost2010PropOp37
 70
     1
102
RTVSPost2010Prop38
140
0.0
102
RTVSPost2010PropOp38
 70
     1
102
RTVSPost2010Prop39
140
1.0
102
RTVSPost2010PropOp39
 70
     1
102
RTVSPost2010Prop40
 90
        0
102
RTVSPost2010PropOp40
 70
     1
102
RTVSPost2010Prop41ColorIndex
 90
       18
102
RTVSPost2010Prop41ColorRGB
 90
        0
102
RTVSPost2010PropOp41
 70
     1
102
RTVSPost2010Prop42
 90
       50
102
RTVSPost2010PropOp42
 70
     1
102
RTVSPost2010Prop43
 90
        3
102
RTVSPost2010PropOp43
 70
     1
102
RTVSPost2010Prop44ColorIndex
 90
        5
102
RTVSPost2010Prop44ColorRGB
 90
      255
102
RTVSPost2010PropOp44
 70
     1
102
RTVSPost2010Prop45
280
     0
102
RTVSPost2010PropOp45
 70
     1
102
RTVSPost2010Prop46
 90
       50
102
RTVSPost2010PropOp46
 70
     1
102
RTVSPost2010Prop47
 90
       50
102
RTVSPost2010PropOp47
 70
     1
102
RTVSPost2010Prop48
 90
       50
102
RTVSPost2010PropOp48
 70
     1
102
RTVSPost2010Prop49
280
     0
102
RTVSPost2010PropOp49
 70
     1
102
RTVSPost2010Prop50
 90
       50
102
RTVSPost2010PropOp50
 70
     1
102
RTVSPost2010Prop51ColorIndex
 90
      256
102
RTVSPost2010Prop51ColorRGB
 90
-16777216
102
RTVSPost2010PropOp51
 70
     0
102
RTVSPost2010Prop52
140
1.0
102
RTVSPost2010PropOp52
 70
     0
102
RTVSPost2010Prop53
 90
        2
102
RTVSPost2010PropOp53
 70
     1
102
RTVSPost2010Prop54
  1
strokes_ogs.tif
102
RTVSPost2010PropOp54
 70
     1
102
RTVSPost2010Prop55
280
     0
102
RTVSPost2010PropOp55
 70
     1
102
RTVSPost2010Prop56
140
1.0
102
RTVSPost2010PropOp56
 70
     1
102
RTVSPost2010Prop57
140
1.0
102
RTVSPost2010PropOp57
 70
     1
  0
XRECORD
  5
568
102
{ACAD_REACTORS
330
567
102
}
330
567
100
AcDbXrecord
280
     1
102
RTVSPropertyOp0
 70
     0
102
RTVSPropertyOp1
 70
     0
102
RTVSPropertyOp2
 70
     0
102
RTVSPropertyOp3
 70
     0
102
RTVSPropertyOp4
 70
     0
102
RTVSPropertyOp5
 70
     0
102
RTVSPropertyOp6
 70
     0
102
RTVSPropertyOp7
 70
     0
102
RTVSPropertyOp8
 70
     0
102
RTVSPropertyOp9
 70
     0
102
RTVSPropertyOp10
 70
     0
102
RTVSPropertyOp11
 70
     0
102
RTVSPropertyOp12
 70
     0
102
RTVSPropertyOp13
 70
     0
102
RTVSPropertyOp14
 70
     2
102
RTVSPropertyOp15
 70
     0
102
RTVSPropertyOp16
 70
     0
102
RTVSPropertyOp17
 70
     0
102
RTVSPropertyOp18
 70
     0
102
RTVSPropertyOp19
 70
     0
102
RTVSPropertyOp20
 70
     0
102
RTVSPropertyOp21
 70
     0
102
RTVSPropertyOp22
 70
     0
102
RTVSPropertyOp23
 70
     0
102
RTVSPropertyOp24
 70
     0
102
RTVSPropertyOp25
 70
     0
102
RTVSPropertyOp26
 70
     0
102
RTVSPropertyOp27
 70
     0
102
RTVSPropertyOp28
 70
     0
102
RTVSPropertyOp29
 70
     0
102
RTVSPropertyOp30
 70
     0
102
RTVSPropertyOp31
 70
     0
102
RTVSPropertyOp32
 70
     0
102
RTVSPropertyOp33
 70
     0
102
RTVSPropertyOp34
 70
     0
102
RTVSPropertyOp35
 70
     0
102
RTVSPropertyOp36
 70
     0
102
RTVSPropertyOp37
 70
     0
102
RTVSPropertyOp38
 70
     0
102
RTVSPropertyOp39
 70
     0
102
RTVSPropertyOp40
 70
     0
102
RTVSPropertyOp41
 70
     0
102
RTVSPropertyOp42
 70
     0
102
RTVSPropertyOp43
 70
     0
102
RTVSPropertyOp44
 70
     0
102
RTVSPropertyOp45
 70
     0
102
RTVSPropertyOp46
 70
     0
102
RTVSPropertyOp47
 70
     0
102
RTVSPropertyOp48
 70
     0
102
RTVSPropertyOp49
 70
     0
102
RTVSPropertyOp50
 70
     0
102
RTVSPropertyOp51
 70
     0
102
RTVSPropertyOp52
 70
     0
102
RTVSPropertyOp53
 70
     0
102
RTVSPropertyOp54
 70
     0
102
RTVSPropertyOp55
 70
     0
102
RTVSPropertyOp56
 70
     0
102
RTVSPropertyOp57
 70
     0
102
RTVSPost2010Prop28
280
     0
102
RTVSPost2010PropOp28
 70
     0
102
RTVSPost2010Prop29
280
     1
102
RTVSPost2010PropOp29
 70
     0
102
RTVSPost2010Prop30
280
     1
102
RTVSPost2010PropOp30
 70
     0
102
RTVSPost2010Prop31
280
     0
102
RTVSPost2010PropOp31
 70
     0
102
RTVSPost2010Prop32
280
     0
102
RTVSPost2010PropOp32
 70
     0
102
RTVSPost2010Prop33
280
     0
102
RTVSPost2010PropOp33
 70
     0
102
RTVSPost2010Prop34
280
     0
102
RTVSPost2010PropOp34
 70
     0
102
RTVSPost2010Prop35
280
     0
102
RTVSPost2010PropOp35
 70
     0
102
RTVSPost2010Prop36
280
     0
102
RTVSPost2010PropOp36
 70
     0
102
RTVSPost2010Prop37
 90
       50
102
RTVSPost2010PropOp37
 70
     0
102
RTVSPost2010Prop38
140
0.0
102
RTVSPost2010PropOp38
 70
     0
102
RTVSPost2010Prop39
140
1.0
102
RTVSPost2010PropOp39
 70
     0
102
RTVSPost2010Prop40
 90
        0
102
RTVSPost2010PropOp40
 70
     0
102
RTVSPost2010Prop41ColorIndex
 90
       18
102
RTVSPost2010Prop41ColorRGB
 90
        0
102
RTVSPost2010PropOp41
 70
     0
102
RTVSPost2010Prop42
 90
       50
102
RTVSPost2010PropOp42
 70
     0
102
RTVSPost2010Prop43
 90
        3
102
RTVSPost2010PropOp43
 70
     0
102
RTVSPost2010Prop44ColorIndex
 90
        5
102
RTVSPost2010Prop44ColorRGB
 90
      255
102
RTVSPost2010PropOp44
 70
     0
102
RTVSPost2010Prop45
280
     0
102
RTVSPost2010PropOp45
 70
     0
102
RTVSPost2010Prop46
 90
       50
102
RTVSPost2010PropOp46
 70
     0
102
RTVSPost2010Prop47
 90
       50
102
RTVSPost2010PropOp47
 70
     0
102
RTVSPost2010Prop48
 90
       50
102
RTVSPost2010PropOp48
 70
     0
102
RTVSPost2010Prop49
280
     0
102
RTVSPost2010PropOp49
 70
     0
102
RTVSPost2010Prop50
 90
       50
102
RTVSPost2010PropOp50
 70
     0
102
RTVSPost2010Prop51ColorIndex
 90
      256
102
RTVSPost2010Prop51ColorRGB
 90
-16777216
102
RTVSPost2010PropOp51
 70
     0
102
RTVSPost2010Prop52
140
1.0
102
RTVSPost2010PropOp52
 70
     0
102
RTVSPost2010Prop53
 90
        2
102
RTVSPost2010PropOp53
 70
     0
102
RTVSPost2010Prop54
  1
strokes_ogs.tif
102
RTVSPost2010PropOp54
 70
     0
102
RTVSPost2010Prop55
280
     0
102
RTVSPost2010PropOp55
 70
     0
102
RTVSPost2010Prop56
140
1.0
102
RTVSPost2010PropOp56
 70
     0
102
RTVSPost2010Prop57
140
1.0
102
RTVSPost2010PropOp57
 70
     0
  0
XRECORD
  5
562
102
{ACAD_REACTORS
330
561
102
}
330
561
100
AcDbXrecord
280
     1
102
RTVSPropertyOp0
 70
     1
102
RTVSPropertyOp1
 70
     1
102
RTVSPropertyOp2
 70
     1
102
RTVSPropertyOp3
 70
     1
102
RTVSPropertyOp4
 70
     1
102
RTVSPropertyOp5
 70
     1
102
RTVSPropertyOp6
 70
     1
102
RTVSPropertyOp7
 70
     1
102
RTVSPropertyOp8
 70
     1
102
RTVSPropertyOp9
 70
     1
102
RTVSPropertyOp10
 70
     1
102
RTVSPropertyOp11
 70
     1
102
RTVSPropertyOp12
 70
     1
102
RTVSPropertyOp13
 70
     1
102
RTVSPropertyOp14
 70
     1
102
RTVSPropertyOp15
 70
     1
102
RTVSPropertyOp16
 70
     1
102
RTVSPropertyOp17
 70
     1
102
RTVSPropertyOp18
 70
     1
102
RTVSPropertyOp19
 70
     1
102
RTVSPropertyOp20
 70
     1
102
RTVSPropertyOp21
 70
     1
102
RTVSPropertyOp22
 70
     1
102
RTVSPropertyOp23
 70
     1
102
RTVSPropertyOp24
 70
     1
102
RTVSPropertyOp25
 70
     1
102
RTVSPropertyOp26
 70
     1
102
RTVSPropertyOp27
 70
     1
102
RTVSPropertyOp28
 70
     1
102
RTVSPropertyOp29
 70
     1
102
RTVSPropertyOp30
 70
     1
102
RTVSPropertyOp31
 70
     1
102
RTVSPropertyOp32
 70
     1
102
RTVSPropertyOp33
 70
     1
102
RTVSPropertyOp34
 70
     1
102
RTVSPropertyOp35
 70
     1
102
RTVSPropertyOp36
 70
     1
102
RTVSPropertyOp37
 70
     1
102
RTVSPropertyOp38
 70
     1
102
RTVSPropertyOp39
 70
     1
102
RTVSPropertyOp40
 70
     1
102
RTVSPropertyOp41
 70
     1
102
RTVSPropertyOp42
 70
     1
102
RTVSPropertyOp43
 70
     1
102
RTVSPropertyOp44
 70
     1
102
RTVSPropertyOp45
 70
     1
102
RTVSPropertyOp46
 70
     1
102
RTVSPropertyOp47
 70
     1
102
RTVSPropertyOp48
 70
     1
102
RTVSPropertyOp49
 70
     1
102
RTVSPropertyOp50
 70
     1
102
RTVSPropertyOp51
 70
     0
102
RTVSPropertyOp52
 70
     0
102
RTVSPropertyOp53
 70
     1
102
RTVSPropertyOp54
 70
     1
102
RTVSPropertyOp55
 70
     1
102
RTVSPropertyOp56
 70
     1
102
RTVSPropertyOp57
 70
     1
102
RTVSPost2010Prop28
280
     0
102
RTVSPost2010PropOp28
 70
     1
102
RTVSPost2010Prop29
280
     1
102
RTVSPost2010PropOp29
 70
     1
102
RTVSPost2010Prop30
280
     1
102
RTVSPost2010PropOp30
 70
     1
102
RTVSPost2010Prop31
280
     0
102
RTVSPost2010PropOp31
 70
     1
102
RTVSPost2010Prop32
280
     0
102
RTVSPost2010PropOp32
 70
     1
102
RTVSPost2010Prop33
280
     0
102
RTVSPost2010PropOp33
 70
     1
102
RTVSPost2010Prop34
280
     0
102
RTVSPost2010PropOp34
 70
     1
102
RTVSPost2010Prop35
280
     0
102
RTVSPost2010PropOp35
 70
     1
102
RTVSPost2010Prop36
280
     0
102
RTVSPost2010PropOp36
 70
     1
102
RTVSPost2010Prop37
 90
       50
102
RTVSPost2010PropOp37
 70
     1
102
RTVSPost2010Prop38
140
0.0
102
RTVSPost2010PropOp38
 70
     1
102
RTVSPost2010Prop39
140
1.0
102
RTVSPost2010PropOp39
 70
     1
102
RTVSPost2010Prop40
 90
        0
102
RTVSPost2010PropOp40
 70
     1
102
RTVSPost2010Prop41ColorIndex
 90
       18
102
RTVSPost2010Prop41ColorRGB
 90
        0
102
RTVSPost2010PropOp41
 70
     1
102
RTVSPost2010Prop42
 90
       50
102
RTVSPost2010PropOp42
 70
     1
102
RTVSPost2010Prop43
 90
        3
102
RTVSPost2010PropOp43
 70
     1
102
RTVSPost2010Prop44ColorIndex
 90
        5
102
RTVSPost2010Prop44ColorRGB
 90
      255
102
RTVSPost2010PropOp44
 70
     1
102
RTVSPost2010Prop45
280
     0
102
RTVSPost2010PropOp45
 70
     1
102
RTVSPost2010Prop46
 90
       50
102
RTVSPost2010PropOp46
 70
     1
102
RTVSPost2010Prop47
 90
       50
102
RTVSPost2010PropOp47
 70
     1
102
RTVSPost2010Prop48
 90
       50
102
RTVSPost2010PropOp48
 70
     1
102
RTVSPost2010Prop49
280
     0
102
RTVSPost2010PropOp49
 70
     1
102
RTVSPost2010Prop50
 90
       50
102
RTVSPost2010PropOp50
 70
     1
102
RTVSPost2010Prop51ColorIndex
 90
      256
102
RTVSPost2010Prop51ColorRGB
 90
-16777216
102
RTVSPost2010PropOp51
 70
     0
102
RTVSPost2010Prop52
140
1.0
102
RTVSPost2010PropOp52
 70
     0
102
RTVSPost2010Prop53
 90
        2
102
RTVSPost2010PropOp53
 70
     1
102
RTVSPost2010Prop54
  1
strokes_ogs.tif
102
RTVSPost2010PropOp54
 70
     1
102
RTVSPost2010Prop55
280
     0
102
RTVSPost2010PropOp55
 70
     1
102
RTVSPost2010Prop56
140
1.0
102
RTVSPost2010PropOp56
 70
     1
102
RTVSPost2010Prop57
140
1.0
102
RTVSPost2010PropOp57
 70
     1
  0
XRECORD
  5
56A
102
{ACAD_REACTORS
330
569
102
}
330
569
100
AcDbXrecord
280
     1
102
RTVSPropertyOp0
 70
     0
102
RTVSPropertyOp1
 70
     0
102
RTVSPropertyOp2
 70
     0
102
RTVSPropertyOp3
 70
     0
102
RTVSPropertyOp4
 70
     0
102
RTVSPropertyOp5
 70
     0
102
RTVSPropertyOp6
 70
     0
102
RTVSPropertyOp7
 70
     0
102
RTVSPropertyOp8
 70
     0
102
RTVSPropertyOp9
 70
     0
102
RTVSPropertyOp10
 70
     0
102
RTVSPropertyOp11
 70
     0
102
RTVSPropertyOp12
 70
     0
102
RTVSPropertyOp13
 70
     0
102
RTVSPropertyOp14
 70
     2
102
RTVSPropertyOp15
 70
     0
102
RTVSPropertyOp16
 70
     0
102
RTVSPropertyOp17
 70
     0
102
RTVSPropertyOp18
 70
     0
102
RTVSPropertyOp19
 70
     0
102
RTVSPropertyOp20
 70
     0
102
RTVSPropertyOp21
 70
     0
102
RTVSPropertyOp22
 70
     0
102
RTVSPropertyOp23
 70
     0
102
RTVSPropertyOp24
 70
     0
102
RTVSPropertyOp25
 70
     0
102
RTVSPropertyOp26
 70
     0
102
RTVSPropertyOp27
 70
     0
102
RTVSPropertyOp28
 70
     0
102
RTVSPropertyOp29
 70
     0
102
RTVSPropertyOp30
 70
     0
102
RTVSPropertyOp31
 70
     0
102
RTVSPropertyOp32
 70
     0
102
RTVSPropertyOp33
 70
     0
102
RTVSPropertyOp34
 70
     0
102
RTVSPropertyOp35
 70
     0
102
RTVSPropertyOp36
 70
     0
102
RTVSPropertyOp37
 70
     0
102
RTVSPropertyOp38
 70
     0
102
RTVSPropertyOp39
 70
     0
102
RTVSPropertyOp40
 70
     0
102
RTVSPropertyOp41
 70
     0
102
RTVSPropertyOp42
 70
     0
102
RTVSPropertyOp43
 70
     0
102
RTVSPropertyOp44
 70
     0
102
RTVSPropertyOp45
 70
     0
102
RTVSPropertyOp46
 70
     0
102
RTVSPropertyOp47
 70
     0
102
RTVSPropertyOp48
 70
     0
102
RTVSPropertyOp49
 70
     0
102
RTVSPropertyOp50
 70
     0
102
RTVSPropertyOp51
 70
     0
102
RTVSPropertyOp52
 70
     0
102
RTVSPropertyOp53
 70
     0
102
RTVSPropertyOp54
 70
     0
102
RTVSPropertyOp55
 70
     0
102
RTVSPropertyOp56
 70
     0
102
RTVSPropertyOp57
 70
     0
102
RTVSPost2010Prop28
280
     0
102
RTVSPost2010PropOp28
 70
     0
102
RTVSPost2010Prop29
280
     1
102
RTVSPost2010PropOp29
 70
     0
102
RTVSPost2010Prop30
280
     1
102
RTVSPost2010PropOp30
 70
     0
102
RTVSPost2010Prop31
280
     0
102
RTVSPost2010PropOp31
 70
     0
102
RTVSPost2010Prop32
280
     0
102
RTVSPost2010PropOp32
 70
     0
102
RTVSPost2010Prop33
280
     0
102
RTVSPost2010PropOp33
 70
     0
102
RTVSPost2010Prop34
280
     0
102
RTVSPost2010PropOp34
 70
     0
102
RTVSPost2010Prop35
280
     0
102
RTVSPost2010PropOp35
 70
     0
102
RTVSPost2010Prop36
280
     0
102
RTVSPost2010PropOp36
 70
     0
102
RTVSPost2010Prop37
 90
       50
102
RTVSPost2010PropOp37
 70
     0
102
RTVSPost2010Prop38
140
0.0
102
RTVSPost2010PropOp38
 70
     0
102
RTVSPost2010Prop39
140
1.0
102
RTVSPost2010PropOp39
 70
     0
102
RTVSPost2010Prop40
 90
        0
102
RTVSPost2010PropOp40
 70
     0
102
RTVSPost2010Prop41ColorIndex
 90
       18
102
RTVSPost2010Prop41ColorRGB
 90
        0
102
RTVSPost2010PropOp41
 70
     0
102
RTVSPost2010Prop42
 90
       50
102
RTVSPost2010PropOp42
 70
     0
102
RTVSPost2010Prop43
 90
        3
102
RTVSPost2010PropOp43
 70
     0
102
RTVSPost2010Prop44ColorIndex
 90
        5
102
RTVSPost2010Prop44ColorRGB
 90
      255
102
RTVSPost2010PropOp44
 70
     0
102
RTVSPost2010Prop45
280
     0
102
RTVSPost2010PropOp45
 70
     0
102
RTVSPost2010Prop46
 90
       50
102
RTVSPost2010PropOp46
 70
     0
102
RTVSPost2010Prop47
 90
       50
102
RTVSPost2010PropOp47
 70
     0
102
RTVSPost2010Prop48
 90
       50
102
RTVSPost2010PropOp48
 70
     0
102
RTVSPost2010Prop49
280
     0
102
RTVSPost2010PropOp49
 70
     0
102
RTVSPost2010Prop50
 90
       50
102
RTVSPost2010PropOp50
 70
     0
102
RTVSPost2010Prop51ColorIndex
 90
      256
102
RTVSPost2010Prop51ColorRGB
 90
-16777216
102
RTVSPost2010PropOp51
 70
     0
102
RTVSPost2010Prop52
140
1.0
102
RTVSPost2010PropOp52
 70
     0
102
RTVSPost2010Prop53
 90
        2
102
RTVSPost2010PropOp53
 70
     0
102
RTVSPost2010Prop54
  1
strokes_ogs.tif
102
RTVSPost2010PropOp54
 70
     0
102
RTVSPost2010Prop55
280
     0
102
RTVSPost2010PropOp55
 70
     0
102
RTVSPost2010Prop56
140
1.0
102
RTVSPost2010PropOp56
 70
     0
102
RTVSPost2010Prop57
140
1.0
102
RTVSPost2010PropOp57
 70
     0
  0
XRECORD
  5
558
102
{ACAD_REACTORS
330
557
102
}
330
557
100
AcDbXrecord
280
     1
102
RTVSPropertyOp0
 70
     1
102
RTVSPropertyOp1
 70
     1
102
RTVSPropertyOp2
 70
     1
102
RTVSPropertyOp3
 70
     1
102
RTVSPropertyOp4
 70
     1
102
RTVSPropertyOp5
 70
     1
102
RTVSPropertyOp6
 70
     1
102
RTVSPropertyOp7
 70
     1
102
RTVSPropertyOp8
 70
     1
102
RTVSPropertyOp9
 70
     1
102
RTVSPropertyOp10
 70
     1
102
RTVSPropertyOp11
 70
     1
102
RTVSPropertyOp12
 70
     1
102
RTVSPropertyOp13
 70
     1
102
RTVSPropertyOp14
 70
     1
102
RTVSPropertyOp15
 70
     1
102
RTVSPropertyOp16
 70
     1
102
RTVSPropertyOp17
 70
     1
102
RTVSPropertyOp18
 70
     1
102
RTVSPropertyOp19
 70
     1
102
RTVSPropertyOp20
 70
     1
102
RTVSPropertyOp21
 70
     1
102
RTVSPropertyOp22
 70
     1
102
RTVSPropertyOp23
 70
     1
102
RTVSPropertyOp24
 70
     1
102
RTVSPropertyOp25
 70
     1
102
RTVSPropertyOp26
 70
     1
102
RTVSPropertyOp27
 70
     1
102
RTVSPropertyOp28
 70
     1
102
RTVSPropertyOp29
 70
     1
102
RTVSPropertyOp30
 70
     1
102
RTVSPropertyOp31
 70
     1
102
RTVSPropertyOp32
 70
     1
102
RTVSPropertyOp33
 70
     1
102
RTVSPropertyOp34
 70
     1
102
RTVSPropertyOp35
 70
     1
102
RTVSPropertyOp36
 70
     1
102
RTVSPropertyOp37
 70
     1
102
RTVSPropertyOp38
 70
     1
102
RTVSPropertyOp39
 70
     1
102
RTVSPropertyOp40
 70
     1
102
RTVSPropertyOp41
 70
     1
102
RTVSPropertyOp42
 70
     1
102
RTVSPropertyOp43
 70
     1
102
RTVSPropertyOp44
 70
     1
102
RTVSPropertyOp45
 70
     1
102
RTVSPropertyOp46
 70
     1
102
RTVSPropertyOp47
 70
     1
102
RTVSPropertyOp48
 70
     1
102
RTVSPropertyOp49
 70
     1
102
RTVSPropertyOp50
 70
     1
102
RTVSPropertyOp51
 70
     0
102
RTVSPropertyOp52
 70
     0
102
RTVSPropertyOp53
 70
     1
102
RTVSPropertyOp54
 70
     1
102
RTVSPropertyOp55
 70
     1
102
RTVSPropertyOp56
 70
     1
102
RTVSPropertyOp57
 70
     1
102
RTVSPost2010Prop28
280
     0
102
RTVSPost2010PropOp28
 70
     1
102
RTVSPost2010Prop29
280
     1
102
RTVSPost2010PropOp29
 70
     1
102
RTVSPost2010Prop30
280
     1
102
RTVSPost2010PropOp30
 70
     1
102
RTVSPost2010Prop31
280
     0
102
RTVSPost2010PropOp31
 70
     1
102
RTVSPost2010Prop32
280
     0
102
RTVSPost2010PropOp32
 70
     1
102
RTVSPost2010Prop33
280
     0
102
RTVSPost2010PropOp33
 70
     1
102
RTVSPost2010Prop34
280
     0
102
RTVSPost2010PropOp34
 70
     1
102
RTVSPost2010Prop35
280
     0
102
RTVSPost2010PropOp35
 70
     1
102
RTVSPost2010Prop36
280
     0
102
RTVSPost2010PropOp36
 70
     1
102
RTVSPost2010Prop37
 90
       50
102
RTVSPost2010PropOp37
 70
     1
102
RTVSPost2010Prop38
140
0.0
102
RTVSPost2010PropOp38
 70
     1
102
RTVSPost2010Prop39
140
1.0
102
RTVSPost2010PropOp39
 70
     1
102
RTVSPost2010Prop40
 90
        0
102
RTVSPost2010PropOp40
 70
     1
102
RTVSPost2010Prop41ColorIndex
 90
       18
102
RTVSPost2010Prop41ColorRGB
 90
        0
102
RTVSPost2010PropOp41
 70
     1
102
RTVSPost2010Prop42
 90
       50
102
RTVSPost2010PropOp42
 70
     1
102
RTVSPost2010Prop43
 90
        3
102
RTVSPost2010PropOp43
 70
     1
102
RTVSPost2010Prop44ColorIndex
 90
        5
102
RTVSPost2010Prop44ColorRGB
 90
      255
102
RTVSPost2010PropOp44
 70
     1
102
RTVSPost2010Prop45
280
     0
102
RTVSPost2010PropOp45
 70
     1
102
RTVSPost2010Prop46
 90
       50
102
RTVSPost2010PropOp46
 70
     1
102
RTVSPost2010Prop47
 90
       50
102
RTVSPost2010PropOp47
 70
     1
102
RTVSPost2010Prop48
 90
       50
102
RTVSPost2010PropOp48
 70
     1
102
RTVSPost2010Prop49
280
     0
102
RTVSPost2010PropOp49
 70
     1
102
RTVSPost2010Prop50
 90
       50
102
RTVSPost2010PropOp50
 70
     1
102
RTVSPost2010Prop51ColorIndex
 90
      256
102
RTVSPost2010Prop51ColorRGB
 90
-16777216
102
RTVSPost2010PropOp51
 70
     0
102
RTVSPost2010Prop52
140
1.0
102
RTVSPost2010PropOp52
 70
     0
102
RTVSPost2010Prop53
 90
        2
102
RTVSPost2010PropOp53
 70
     1
102
RTVSPost2010Prop54
  1
strokes_ogs.tif
102
RTVSPost2010PropOp54
 70
     1
102
RTVSPost2010Prop55
280
     0
102
RTVSPost2010PropOp55
 70
     1
102
RTVSPost2010Prop56
140
1.0
102
RTVSPost2010PropOp56
 70
     1
102
RTVSPost2010Prop57
140
1.0
102
RTVSPost2010PropOp57
 70
     1
  0
XRECORD
  5
576
102
{ACAD_REACTORS
330
575
102
}
330
575
100
AcDbXrecord
280
     1
102
RTVSPropertyOp0
 70
     1
102
RTVSPropertyOp1
 70
     1
102
RTVSPropertyOp2
 70
     1
102
RTVSPropertyOp3
 70
     1
102
RTVSPropertyOp4
 70
     1
102
RTVSPropertyOp5
 70
     1
102
RTVSPropertyOp6
 70
     1
102
RTVSPropertyOp7
 70
     1
102
RTVSPropertyOp8
 70
     1
102
RTVSPropertyOp9
 70
     1
102
RTVSPropertyOp10
 70
     1
102
RTVSPropertyOp11
 70
     1
102
RTVSPropertyOp12
 70
     1
102
RTVSPropertyOp13
 70
     1
102
RTVSPropertyOp14
 70
     1
102
RTVSPropertyOp15
 70
     1
102
RTVSPropertyOp16
 70
     1
102
RTVSPropertyOp17
 70
     1
102
RTVSPropertyOp18
 70
     1
102
RTVSPropertyOp19
 70
     1
102
RTVSPropertyOp20
 70
     1
102
RTVSPropertyOp21
 70
     1
102
RTVSPropertyOp22
 70
     1
102
RTVSPropertyOp23
 70
     1
102
RTVSPropertyOp24
 70
     1
102
RTVSPropertyOp25
 70
     1
102
RTVSPropertyOp26
 70
     1
102
RTVSPropertyOp27
 70
     1
102
RTVSPropertyOp28
 70
     1
102
RTVSPropertyOp29
 70
     1
102
RTVSPropertyOp30
 70
     1
102
RTVSPropertyOp31
 70
     1
102
RTVSPropertyOp32
 70
     1
102
RTVSPropertyOp33
 70
     1
102
RTVSPropertyOp34
 70
     1
102
RTVSPropertyOp35
 70
     1
102
RTVSPropertyOp36
 70
     1
102
RTVSPropertyOp37
 70
     1
102
RTVSPropertyOp38
 70
     1
102
RTVSPropertyOp39
 70
     1
102
RTVSPropertyOp40
 70
     1
102
RTVSPropertyOp41
 70
     1
102
RTVSPropertyOp42
 70
     1
102
RTVSPropertyOp43
 70
     1
102
RTVSPropertyOp44
 70
     1
102
RTVSPropertyOp45
 70
     1
102
RTVSPropertyOp46
 70
     1
102
RTVSPropertyOp47
 70
     1
102
RTVSPropertyOp48
 70
     1
102
RTVSPropertyOp49
 70
     1
102
RTVSPropertyOp50
 70
     1
102
RTVSPropertyOp51
 70
     0
102
RTVSPropertyOp52
 70
     0
102
RTVSPropertyOp53
 70
     1
102
RTVSPropertyOp54
 70
     1
102
RTVSPropertyOp55
 70
     1
102
RTVSPropertyOp56
 70
     1
102
RTVSPropertyOp57
 70
     1
102
RTVSPost2010Prop28
280
     0
102
RTVSPost2010PropOp28
 70
     1
102
RTVSPost2010Prop29
280
     1
102
RTVSPost2010PropOp29
 70
     1
102
RTVSPost2010Prop30
280
     1
102
RTVSPost2010PropOp30
 70
     1
102
RTVSPost2010Prop31
280
     0
102
RTVSPost2010PropOp31
 70
     1
102
RTVSPost2010Prop32
280
     0
102
RTVSPost2010PropOp32
 70
     1
102
RTVSPost2010Prop33
280
     0
102
RTVSPost2010PropOp33
 70
     1
102
RTVSPost2010Prop34
280
     0
102
RTVSPost2010PropOp34
 70
     1
102
RTVSPost2010Prop35
280
     0
102
RTVSPost2010PropOp35
 70
     1
102
RTVSPost2010Prop36
280
     0
102
RTVSPost2010PropOp36
 70
     1
102
RTVSPost2010Prop37
 90
       50
102
RTVSPost2010PropOp37
 70
     1
102
RTVSPost2010Prop38
140
0.0
102
RTVSPost2010PropOp38
 70
     1
102
RTVSPost2010Prop39
140
1.0
102
RTVSPost2010PropOp39
 70
     1
102
RTVSPost2010Prop40
 90
        0
102
RTVSPost2010PropOp40
 70
     1
102
RTVSPost2010Prop41ColorIndex
 90
       18
102
RTVSPost2010Prop41ColorRGB
 90
        0
102
RTVSPost2010PropOp41
 70
     1
102
RTVSPost2010Prop42
 90
       50
102
RTVSPost2010PropOp42
 70
     1
102
RTVSPost2010Prop43
 90
        3
102
RTVSPost2010PropOp43
 70
     1
102
RTVSPost2010Prop44ColorIndex
 90
        5
102
RTVSPost2010Prop44ColorRGB
 90
      255
102
RTVSPost2010PropOp44
 70
     1
102
RTVSPost2010Prop45
280
     0
102
RTVSPost2010PropOp45
 70
     1
102
RTVSPost2010Prop46
 90
       50
102
RTVSPost2010PropOp46
 70
     1
102
RTVSPost2010Prop47
 90
       50
102
RTVSPost2010PropOp47
 70
     1
102
RTVSPost2010Prop48
 90
       50
102
RTVSPost2010PropOp48
 70
     1
102
RTVSPost2010Prop49
280
     0
102
RTVSPost2010PropOp49
 70
     1
102
RTVSPost2010Prop50
 90
       50
102
RTVSPost2010PropOp50
 70
     1
102
RTVSPost2010Prop51ColorIndex
 90
      256
102
RTVSPost2010Prop51ColorRGB
 90
-16777216
102
RTVSPost2010PropOp51
 70
     0
102
RTVSPost2010Prop52
140
1.0
102
RTVSPost2010PropOp52
 70
     0
102
RTVSPost2010Prop53
 90
        2
102
RTVSPost2010PropOp53
 70
     1
102
RTVSPost2010Prop54
  1
strokes_ogs.tif
102
RTVSPost2010PropOp54
 70
     1
102
RTVSPost2010Prop55
280
     0
102
RTVSPost2010PropOp55
 70
     1
102
RTVSPost2010Prop56
140
1.0
102
RTVSPost2010PropOp56
 70
     1
102
RTVSPost2010Prop57
140
1.0
102
RTVSPost2010PropOp57
 70
     1
  0
XRECORD
  5
574
102
{ACAD_REACTORS
330
573
102
}
330
573
100
AcDbXrecord
280
     1
102
RTVSPropertyOp0
 70
     1
102
RTVSPropertyOp1
 70
     1
102
RTVSPropertyOp2
 70
     1
102
RTVSPropertyOp3
 70
     1
102
RTVSPropertyOp4
 70
     1
102
RTVSPropertyOp5
 70
     1
102
RTVSPropertyOp6
 70
     1
102
RTVSPropertyOp7
 70
     1
102
RTVSPropertyOp8
 70
     1
102
RTVSPropertyOp9
 70
     1
102
RTVSPropertyOp10
 70
     1
102
RTVSPropertyOp11
 70
     1
102
RTVSPropertyOp12
 70
     1
102
RTVSPropertyOp13
 70
     1
102
RTVSPropertyOp14
 70
     1
102
RTVSPropertyOp15
 70
     1
102
RTVSPropertyOp16
 70
     1
102
RTVSPropertyOp17
 70
     1
102
RTVSPropertyOp18
 70
     1
102
RTVSPropertyOp19
 70
     1
102
RTVSPropertyOp20
 70
     1
102
RTVSPropertyOp21
 70
     1
102
RTVSPropertyOp22
 70
     1
102
RTVSPropertyOp23
 70
     1
102
RTVSPropertyOp24
 70
     1
102
RTVSPropertyOp25
 70
     1
102
RTVSPropertyOp26
 70
     1
102
RTVSPropertyOp27
 70
     1
102
RTVSPropertyOp28
 70
     1
102
RTVSPropertyOp29
 70
     1
102
RTVSPropertyOp30
 70
     1
102
RTVSPropertyOp31
 70
     1
102
RTVSPropertyOp32
 70
     1
102
RTVSPropertyOp33
 70
     1
102
RTVSPropertyOp34
 70
     1
102
RTVSPropertyOp35
 70
     1
102
RTVSPropertyOp36
 70
     1
102
RTVSPropertyOp37
 70
     1
102
RTVSPropertyOp38
 70
     1
102
RTVSPropertyOp39
 70
     1
102
RTVSPropertyOp40
 70
     1
102
RTVSPropertyOp41
 70
     1
102
RTVSPropertyOp42
 70
     1
102
RTVSPropertyOp43
 70
     1
102
RTVSPropertyOp44
 70
     1
102
RTVSPropertyOp45
 70
     1
102
RTVSPropertyOp46
 70
     1
102
RTVSPropertyOp47
 70
     1
102
RTVSPropertyOp48
 70
     1
102
RTVSPropertyOp49
 70
     1
102
RTVSPropertyOp50
 70
     1
102
RTVSPropertyOp51
 70
     0
102
RTVSPropertyOp52
 70
     0
102
RTVSPropertyOp53
 70
     1
102
RTVSPropertyOp54
 70
     1
102
RTVSPropertyOp55
 70
     1
102
RTVSPropertyOp56
 70
     1
102
RTVSPropertyOp57
 70
     1
102
RTVSPost2010Prop28
280
     0
102
RTVSPost2010PropOp28
 70
     1
102
RTVSPost2010Prop29
280
     1
102
RTVSPost2010PropOp29
 70
     1
102
RTVSPost2010Prop30
280
     1
102
RTVSPost2010PropOp30
 70
     1
102
RTVSPost2010Prop31
280
     0
102
RTVSPost2010PropOp31
 70
     1
102
RTVSPost2010Prop32
280
     0
102
RTVSPost2010PropOp32
 70
     1
102
RTVSPost2010Prop33
280
     0
102
RTVSPost2010PropOp33
 70
     1
102
RTVSPost2010Prop34
280
     0
102
RTVSPost2010PropOp34
 70
     1
102
RTVSPost2010Prop35
280
     0
102
RTVSPost2010PropOp35
 70
     1
102
RTVSPost2010Prop36
280
     0
102
RTVSPost2010PropOp36
 70
     1
102
RTVSPost2010Prop37
 90
       50
102
RTVSPost2010PropOp37
 70
     1
102
RTVSPost2010Prop38
140
0.0
102
RTVSPost2010PropOp38
 70
     1
102
RTVSPost2010Prop39
140
1.0
102
RTVSPost2010PropOp39
 70
     1
102
RTVSPost2010Prop40
 90
        0
102
RTVSPost2010PropOp40
 70
     1
102
RTVSPost2010Prop41ColorIndex
 90
       18
102
RTVSPost2010Prop41ColorRGB
 90
        0
102
RTVSPost2010PropOp41
 70
     1
102
RTVSPost2010Prop42
 90
       50
102
RTVSPost2010PropOp42
 70
     1
102
RTVSPost2010Prop43
 90
        3
102
RTVSPost2010PropOp43
 70
     1
102
RTVSPost2010Prop44ColorIndex
 90
        5
102
RTVSPost2010Prop44ColorRGB
 90
      255
102
RTVSPost2010PropOp44
 70
     1
102
RTVSPost2010Prop45
280
     0
102
RTVSPost2010PropOp45
 70
     1
102
RTVSPost2010Prop46
 90
       50
102
RTVSPost2010PropOp46
 70
     1
102
RTVSPost2010Prop47
 90
       50
102
RTVSPost2010PropOp47
 70
     1
102
RTVSPost2010Prop48
 90
       50
102
RTVSPost2010PropOp48
 70
     1
102
RTVSPost2010Prop49
280
     0
102
RTVSPost2010PropOp49
 70
     1
102
RTVSPost2010Prop50
 90
       50
102
RTVSPost2010PropOp50
 70
     1
102
RTVSPost2010Prop51ColorIndex
 90
      256
102
RTVSPost2010Prop51ColorRGB
 90
-16777216
102
RTVSPost2010PropOp51
 70
     0
102
RTVSPost2010Prop52
140
1.0
102
RTVSPost2010PropOp52
 70
     0
102
RTVSPost2010Prop53
 90
        2
102
RTVSPost2010PropOp53
 70
     1
102
RTVSPost2010Prop54
  1
strokes_ogs.tif
102
RTVSPost2010PropOp54
 70
     1
102
RTVSPost2010Prop55
280
     0
102
RTVSPost2010PropOp55
 70
     1
102
RTVSPost2010Prop56
140
1.0
102
RTVSPost2010PropOp56
 70
     1
102
RTVSPost2010Prop57
140
1.0
102
RTVSPost2010PropOp57
 70
     1
  0
XRECORD
  5
56E
102
{ACAD_REACTORS
330
56D
102
}
330
56D
100
AcDbXrecord
280
     1
102
RTVSPropertyOp0
 70
     1
102
RTVSPropertyOp1
 70
     1
102
RTVSPropertyOp2
 70
     1
102
RTVSPropertyOp3
 70
     1
102
RTVSPropertyOp4
 70
     1
102
RTVSPropertyOp5
 70
     1
102
RTVSPropertyOp6
 70
     1
102
RTVSPropertyOp7
 70
     1
102
RTVSPropertyOp8
 70
     1
102
RTVSPropertyOp9
 70
     1
102
RTVSPropertyOp10
 70
     1
102
RTVSPropertyOp11
 70
     1
102
RTVSPropertyOp12
 70
     1
102
RTVSPropertyOp13
 70
     1
102
RTVSPropertyOp14
 70
     1
102
RTVSPropertyOp15
 70
     1
102
RTVSPropertyOp16
 70
     1
102
RTVSPropertyOp17
 70
     1
102
RTVSPropertyOp18
 70
     1
102
RTVSPropertyOp19
 70
     1
102
RTVSPropertyOp20
 70
     1
102
RTVSPropertyOp21
 70
     1
102
RTVSPropertyOp22
 70
     1
102
RTVSPropertyOp23
 70
     1
102
RTVSPropertyOp24
 70
     1
102
RTVSPropertyOp25
 70
     1
102
RTVSPropertyOp26
 70
     1
102
RTVSPropertyOp27
 70
     1
102
RTVSPropertyOp28
 70
     1
102
RTVSPropertyOp29
 70
     1
102
RTVSPropertyOp30
 70
     1
102
RTVSPropertyOp31
 70
     1
102
RTVSPropertyOp32
 70
     1
102
RTVSPropertyOp33
 70
     1
102
RTVSPropertyOp34
 70
     1
102
RTVSPropertyOp35
 70
     1
102
RTVSPropertyOp36
 70
     1
102
RTVSPropertyOp37
 70
     1
102
RTVSPropertyOp38
 70
     1
102
RTVSPropertyOp39
 70
     1
102
RTVSPropertyOp40
 70
     1
102
RTVSPropertyOp41
 70
     1
102
RTVSPropertyOp42
 70
     1
102
RTVSPropertyOp43
 70
     1
102
RTVSPropertyOp44
 70
     1
102
RTVSPropertyOp45
 70
     1
102
RTVSPropertyOp46
 70
     1
102
RTVSPropertyOp47
 70
     1
102
RTVSPropertyOp48
 70
     1
102
RTVSPropertyOp49
 70
     1
102
RTVSPropertyOp50
 70
     1
102
RTVSPropertyOp51
 70
     0
102
RTVSPropertyOp52
 70
     0
102
RTVSPropertyOp53
 70
     1
102
RTVSPropertyOp54
 70
     1
102
RTVSPropertyOp55
 70
     1
102
RTVSPropertyOp56
 70
     1
102
RTVSPropertyOp57
 70
     1
102
RTVSPost2010Prop28
280
     0
102
RTVSPost2010PropOp28
 70
     1
102
RTVSPost2010Prop29
280
     1
102
RTVSPost2010PropOp29
 70
     1
102
RTVSPost2010Prop30
280
     1
102
RTVSPost2010PropOp30
 70
     1
102
RTVSPost2010Prop31
280
     0
102
RTVSPost2010PropOp31
 70
     1
102
RTVSPost2010Prop32
280
     0
102
RTVSPost2010PropOp32
 70
     1
102
RTVSPost2010Prop33
280
     0
102
RTVSPost2010PropOp33
 70
     1
102
RTVSPost2010Prop34
280
     0
102
RTVSPost2010PropOp34
 70
     1
102
RTVSPost2010Prop35
280
     0
102
RTVSPost2010PropOp35
 70
     1
102
RTVSPost2010Prop36
280
     0
102
RTVSPost2010PropOp36
 70
     1
102
RTVSPost2010Prop37
 90
       50
102
RTVSPost2010PropOp37
 70
     1
102
RTVSPost2010Prop38
140
0.0
102
RTVSPost2010PropOp38
 70
     1
102
RTVSPost2010Prop39
140
1.0
102
RTVSPost2010PropOp39
 70
     1
102
RTVSPost2010Prop40
 90
        0
102
RTVSPost2010PropOp40
 70
     1
102
RTVSPost2010Prop41ColorIndex
 90
       18
102
RTVSPost2010Prop41ColorRGB
 90
        0
102
RTVSPost2010PropOp41
 70
     1
102
RTVSPost2010Prop42
 90
       50
102
RTVSPost2010PropOp42
 70
     1
102
RTVSPost2010Prop43
 90
        3
102
RTVSPost2010PropOp43
 70
     1
102
RTVSPost2010Prop44ColorIndex
 90
        5
102
RTVSPost2010Prop44ColorRGB
 90
      255
102
RTVSPost2010PropOp44
 70
     1
102
RTVSPost2010Prop45
280
     0
102
RTVSPost2010PropOp45
 70
     1
102
RTVSPost2010Prop46
 90
       50
102
RTVSPost2010PropOp46
 70
     1
102
RTVSPost2010Prop47
 90
       50
102
RTVSPost2010PropOp47
 70
     1
102
RTVSPost2010Prop48
 90
       50
102
RTVSPost2010PropOp48
 70
     1
102
RTVSPost2010Prop49
280
     0
102
RTVSPost2010PropOp49
 70
     1
102
RTVSPost2010Prop50
 90
       50
102
RTVSPost2010PropOp50
 70
     1
102
RTVSPost2010Prop51ColorIndex
 90
      256
102
RTVSPost2010Prop51ColorRGB
 90
-16777216
102
RTVSPost2010PropOp51
 70
     0
102
RTVSPost2010Prop52
140
1.0
102
RTVSPost2010PropOp52
 70
     0
102
RTVSPost2010Prop53
 90
        2
102
RTVSPost2010PropOp53
 70
     1
102
RTVSPost2010Prop54
  1
strokes_ogs.tif
102
RTVSPost2010PropOp54
 70
     1
102
RTVSPost2010Prop55
280
     0
102
RTVSPost2010PropOp55
 70
     1
102
RTVSPost2010Prop56
140
1.0
102
RTVSPost2010PropOp56
 70
     1
102
RTVSPost2010Prop57
140
1.0
102
RTVSPost2010PropOp57
 70
     1
  0
XRECORD
  5
570
102
{ACAD_REACTORS
330
56F
102
}
330
56F
100
AcDbXrecord
280
     1
102
RTVSPropertyOp0
 70
     1
102
RTVSPropertyOp1
 70
     1
102
RTVSPropertyOp2
 70
     1
102
RTVSPropertyOp3
 70
     1
102
RTVSPropertyOp4
 70
     1
102
RTVSPropertyOp5
 70
     1
102
RTVSPropertyOp6
 70
     1
102
RTVSPropertyOp7
 70
     1
102
RTVSPropertyOp8
 70
     1
102
RTVSPropertyOp9
 70
     1
102
RTVSPropertyOp10
 70
     1
102
RTVSPropertyOp11
 70
     1
102
RTVSPropertyOp12
 70
     1
102
RTVSPropertyOp13
 70
     1
102
RTVSPropertyOp14
 70
     1
102
RTVSPropertyOp15
 70
     1
102
RTVSPropertyOp16
 70
     1
102
RTVSPropertyOp17
 70
     1
102
RTVSPropertyOp18
 70
     1
102
RTVSPropertyOp19
 70
     1
102
RTVSPropertyOp20
 70
     1
102
RTVSPropertyOp21
 70
     1
102
RTVSPropertyOp22
 70
     1
102
RTVSPropertyOp23
 70
     1
102
RTVSPropertyOp24
 70
     1
102
RTVSPropertyOp25
 70
     1
102
RTVSPropertyOp26
 70
     1
102
RTVSPropertyOp27
 70
     1
102
RTVSPropertyOp28
 70
     1
102
RTVSPropertyOp29
 70
     1
102
RTVSPropertyOp30
 70
     1
102
RTVSPropertyOp31
 70
     1
102
RTVSPropertyOp32
 70
     1
102
RTVSPropertyOp33
 70
     1
102
RTVSPropertyOp34
 70
     1
102
RTVSPropertyOp35
 70
     1
102
RTVSPropertyOp36
 70
     1
102
RTVSPropertyOp37
 70
     1
102
RTVSPropertyOp38
 70
     1
102
RTVSPropertyOp39
 70
     1
102
RTVSPropertyOp40
 70
     1
102
RTVSPropertyOp41
 70
     1
102
RTVSPropertyOp42
 70
     1
102
RTVSPropertyOp43
 70
     1
102
RTVSPropertyOp44
 70
     1
102
RTVSPropertyOp45
 70
     1
102
RTVSPropertyOp46
 70
     1
102
RTVSPropertyOp47
 70
     1
102
RTVSPropertyOp48
 70
     1
102
RTVSPropertyOp49
 70
     1
102
RTVSPropertyOp50
 70
     1
102
RTVSPropertyOp51
 70
     0
102
RTVSPropertyOp52
 70
     0
102
RTVSPropertyOp53
 70
     1
102
RTVSPropertyOp54
 70
     1
102
RTVSPropertyOp55
 70
     1
102
RTVSPropertyOp56
 70
     1
102
RTVSPropertyOp57
 70
     1
102
RTVSPost2010Prop28
280
     0
102
RTVSPost2010PropOp28
 70
     1
102
RTVSPost2010Prop29
280
     1
102
RTVSPost2010PropOp29
 70
     1
102
RTVSPost2010Prop30
280
     1
102
RTVSPost2010PropOp30
 70
     1
102
RTVSPost2010Prop31
280
     0
102
RTVSPost2010PropOp31
 70
     1
102
RTVSPost2010Prop32
280
     0
102
RTVSPost2010PropOp32
 70
     1
102
RTVSPost2010Prop33
280
     0
102
RTVSPost2010PropOp33
 70
     1
102
RTVSPost2010Prop34
280
     0
102
RTVSPost2010PropOp34
 70
     1
102
RTVSPost2010Prop35
280
     0
102
RTVSPost2010PropOp35
 70
     1
102
RTVSPost2010Prop36
280
     0
102
RTVSPost2010PropOp36
 70
     1
102
RTVSPost2010Prop37
 90
       50
102
RTVSPost2010PropOp37
 70
     1
102
RTVSPost2010Prop38
140
0.0
102
RTVSPost2010PropOp38
 70
     1
102
RTVSPost2010Prop39
140
1.0
102
RTVSPost2010PropOp39
 70
     1
102
RTVSPost2010Prop40
 90
        0
102
RTVSPost2010PropOp40
 70
     1
102
RTVSPost2010Prop41ColorIndex
 90
       18
102
RTVSPost2010Prop41ColorRGB
 90
        0
102
RTVSPost2010PropOp41
 70
     1
102
RTVSPost2010Prop42
 90
       50
102
RTVSPost2010PropOp42
 70
     1
102
RTVSPost2010Prop43
 90
        3
102
RTVSPost2010PropOp43
 70
     1
102
RTVSPost2010Prop44ColorIndex
 90
        5
102
RTVSPost2010Prop44ColorRGB
 90
      255
102
RTVSPost2010PropOp44
 70
     1
102
RTVSPost2010Prop45
280
     0
102
RTVSPost2010PropOp45
 70
     1
102
RTVSPost2010Prop46
 90
       50
102
RTVSPost2010PropOp46
 70
     1
102
RTVSPost2010Prop47
 90
       50
102
RTVSPost2010PropOp47
 70
     1
102
RTVSPost2010Prop48
 90
       50
102
RTVSPost2010PropOp48
 70
     1
102
RTVSPost2010Prop49
280
     0
102
RTVSPost2010PropOp49
 70
     1
102
RTVSPost2010Prop50
 90
       50
102
RTVSPost2010PropOp50
 70
     1
102
RTVSPost2010Prop51ColorIndex
 90
      256
102
RTVSPost2010Prop51ColorRGB
 90
-16777216
102
RTVSPost2010PropOp51
 70
     0
102
RTVSPost2010Prop52
140
1.0
102
RTVSPost2010PropOp52
 70
     0
102
RTVSPost2010Prop53
 90
        2
102
RTVSPost2010PropOp53
 70
     1
102
RTVSPost2010Prop54
  1
strokes_ogs.tif
102
RTVSPost2010PropOp54
 70
     1
102
RTVSPost2010Prop55
280
     0
102
RTVSPost2010PropOp55
 70
     1
102
RTVSPost2010Prop56
140
1.0
102
RTVSPost2010PropOp56
 70
     1
102
RTVSPost2010Prop57
140
1.0
102
RTVSPost2010PropOp57
 70
     1
  0
XRECORD
  5
560
102
{ACAD_REACTORS
330
55F
102
}
330
55F
100
AcDbXrecord
280
     1
102
RTVSPropertyOp0
 70
     1
102
RTVSPropertyOp1
 70
     1
102
RTVSPropertyOp2
 70
     1
102
RTVSPropertyOp3
 70
     1
102
RTVSPropertyOp4
 70
     1
102
RTVSPropertyOp5
 70
     1
102
RTVSPropertyOp6
 70
     1
102
RTVSPropertyOp7
 70
     1
102
RTVSPropertyOp8
 70
     1
102
RTVSPropertyOp9
 70
     1
102
RTVSPropertyOp10
 70
     1
102
RTVSPropertyOp11
 70
     1
102
RTVSPropertyOp12
 70
     1
102
RTVSPropertyOp13
 70
     1
102
RTVSPropertyOp14
 70
     1
102
RTVSPropertyOp15
 70
     1
102
RTVSPropertyOp16
 70
     1
102
RTVSPropertyOp17
 70
     1
102
RTVSPropertyOp18
 70
     1
102
RTVSPropertyOp19
 70
     1
102
RTVSPropertyOp20
 70
     1
102
RTVSPropertyOp21
 70
     1
102
RTVSPropertyOp22
 70
     1
102
RTVSPropertyOp23
 70
     1
102
RTVSPropertyOp24
 70
     1
102
RTVSPropertyOp25
 70
     1
102
RTVSPropertyOp26
 70
     1
102
RTVSPropertyOp27
 70
     1
102
RTVSPropertyOp28
 70
     1
102
RTVSPropertyOp29
 70
     1
102
RTVSPropertyOp30
 70
     1
102
RTVSPropertyOp31
 70
     1
102
RTVSPropertyOp32
 70
     1
102
RTVSPropertyOp33
 70
     1
102
RTVSPropertyOp34
 70
     1
102
RTVSPropertyOp35
 70
     1
102
RTVSPropertyOp36
 70
     1
102
RTVSPropertyOp37
 70
     1
102
RTVSPropertyOp38
 70
     1
102
RTVSPropertyOp39
 70
     1
102
RTVSPropertyOp40
 70
     1
102
RTVSPropertyOp41
 70
     1
102
RTVSPropertyOp42
 70
     1
102
RTVSPropertyOp43
 70
     1
102
RTVSPropertyOp44
 70
     1
102
RTVSPropertyOp45
 70
     1
102
RTVSPropertyOp46
 70
     1
102
RTVSPropertyOp47
 70
     1
102
RTVSPropertyOp48
 70
     1
102
RTVSPropertyOp49
 70
     1
102
RTVSPropertyOp50
 70
     1
102
RTVSPropertyOp51
 70
     0
102
RTVSPropertyOp52
 70
     0
102
RTVSPropertyOp53
 70
     1
102
RTVSPropertyOp54
 70
     1
102
RTVSPropertyOp55
 70
     1
102
RTVSPropertyOp56
 70
     1
102
RTVSPropertyOp57
 70
     1
102
RTVSPost2010Prop28
280
     0
102
RTVSPost2010PropOp28
 70
     1
102
RTVSPost2010Prop29
280
     1
102
RTVSPost2010PropOp29
 70
     1
102
RTVSPost2010Prop30
280
     1
102
RTVSPost2010PropOp30
 70
     1
102
RTVSPost2010Prop31
280
     0
102
RTVSPost2010PropOp31
 70
     1
102
RTVSPost2010Prop32
280
     0
102
RTVSPost2010PropOp32
 70
     1
102
RTVSPost2010Prop33
280
     0
102
RTVSPost2010PropOp33
 70
     1
102
RTVSPost2010Prop34
280
     0
102
RTVSPost2010PropOp34
 70
     1
102
RTVSPost2010Prop35
280
     0
102
RTVSPost2010PropOp35
 70
     1
102
RTVSPost2010Prop36
280
     0
102
RTVSPost2010PropOp36
 70
     1
102
RTVSPost2010Prop37
 90
       50
102
RTVSPost2010PropOp37
 70
     1
102
RTVSPost2010Prop38
140
0.0
102
RTVSPost2010PropOp38
 70
     1
102
RTVSPost2010Prop39
140
1.0
102
RTVSPost2010PropOp39
 70
     1
102
RTVSPost2010Prop40
 90
        0
102
RTVSPost2010PropOp40
 70
     1
102
RTVSPost2010Prop41ColorIndex
 90
       18
102
RTVSPost2010Prop41ColorRGB
 90
        0
102
RTVSPost2010PropOp41
 70
     1
102
RTVSPost2010Prop42
 90
       50
102
RTVSPost2010PropOp42
 70
     1
102
RTVSPost2010Prop43
 90
        3
102
RTVSPost2010PropOp43
 70
     1
102
RTVSPost2010Prop44ColorIndex
 90
        5
102
RTVSPost2010Prop44ColorRGB
 90
      255
102
RTVSPost2010PropOp44
 70
     1
102
RTVSPost2010Prop45
280
     0
102
RTVSPost2010PropOp45
 70
     1
102
RTVSPost2010Prop46
 90
       50
102
RTVSPost2010PropOp46
 70
     1
102
RTVSPost2010Prop47
 90
       50
102
RTVSPost2010PropOp47
 70
     1
102
RTVSPost2010Prop48
 90
       50
102
RTVSPost2010PropOp48
 70
     1
102
RTVSPost2010Prop49
280
     0
102
RTVSPost2010PropOp49
 70
     1
102
RTVSPost2010Prop50
 90
       50
102
RTVSPost2010PropOp50
 70
     1
102
RTVSPost2010Prop51ColorIndex
 90
      256
102
RTVSPost2010Prop51ColorRGB
 90
-16777216
102
RTVSPost2010PropOp51
 70
     0
102
RTVSPost2010Prop52
140
1.0
102
RTVSPost2010PropOp52
 70
     0
102
RTVSPost2010Prop53
 90
        2
102
RTVSPost2010PropOp53
 70
     1
102
RTVSPost2010Prop54
  1
strokes_ogs.tif
102
RTVSPost2010PropOp54
 70
     1
102
RTVSPost2010Prop55
280
     0
102
RTVSPost2010PropOp55
 70
     1
102
RTVSPost2010Prop56
140
1.0
102
RTVSPost2010PropOp56
 70
     1
102
RTVSPost2010Prop57
140
1.0
102
RTVSPost2010PropOp57
 70
     1
  0
XRECORD
  5
552
102
{ACAD_REACTORS
330
551
102
}
330
551
100
AcDbXrecord
280
     1
102
RTVSPropertyOp0
 70
     1
102
RTVSPropertyOp1
 70
     1
102
RTVSPropertyOp2
 70
     1
102
RTVSPropertyOp3
 70
     1
102
RTVSPropertyOp4
 70
     1
102
RTVSPropertyOp5
 70
     1
102
RTVSPropertyOp6
 70
     1
102
RTVSPropertyOp7
 70
     1
102
RTVSPropertyOp8
 70
     1
102
RTVSPropertyOp9
 70
     1
102
RTVSPropertyOp10
 70
     1
102
RTVSPropertyOp11
 70
     1
102
RTVSPropertyOp12
 70
     1
102
RTVSPropertyOp13
 70
     1
102
RTVSPropertyOp14
 70
     1
102
RTVSPropertyOp15
 70
     1
102
RTVSPropertyOp16
 70
     1
102
RTVSPropertyOp17
 70
     1
102
RTVSPropertyOp18
 70
     1
102
RTVSPropertyOp19
 70
     1
102
RTVSPropertyOp20
 70
     1
102
RTVSPropertyOp21
 70
     1
102
RTVSPropertyOp22
 70
     1
102
RTVSPropertyOp23
 70
     1
102
RTVSPropertyOp24
 70
     1
102
RTVSPropertyOp25
 70
     1
102
RTVSPropertyOp26
 70
     1
102
RTVSPropertyOp27
 70
     1
102
RTVSPropertyOp28
 70
     1
102
RTVSPropertyOp29
 70
     1
102
RTVSPropertyOp30
 70
     1
102
RTVSPropertyOp31
 70
     1
102
RTVSPropertyOp32
 70
     1
102
RTVSPropertyOp33
 70
     1
102
RTVSPropertyOp34
 70
     1
102
RTVSPropertyOp35
 70
     1
102
RTVSPropertyOp36
 70
     1
102
RTVSPropertyOp37
 70
     1
102
RTVSPropertyOp38
 70
     1
102
RTVSPropertyOp39
 70
     1
102
RTVSPropertyOp40
 70
     1
102
RTVSPropertyOp41
 70
     1
102
RTVSPropertyOp42
 70
     1
102
RTVSPropertyOp43
 70
     1
102
RTVSPropertyOp44
 70
     1
102
RTVSPropertyOp45
 70
     1
102
RTVSPropertyOp46
 70
     1
102
RTVSPropertyOp47
 70
     1
102
RTVSPropertyOp48
 70
     1
102
RTVSPropertyOp49
 70
     1
102
RTVSPropertyOp50
 70
     1
102
RTVSPropertyOp51
 70
     0
102
RTVSPropertyOp52
 70
     0
102
RTVSPropertyOp53
 70
     1
102
RTVSPropertyOp54
 70
     1
102
RTVSPropertyOp55
 70
     1
102
RTVSPropertyOp56
 70
     1
102
RTVSPropertyOp57
 70
     1
102
RTVSPost2010Prop28
280
     0
102
RTVSPost2010PropOp28
 70
     1
102
RTVSPost2010Prop29
280
     1
102
RTVSPost2010PropOp29
 70
     1
102
RTVSPost2010Prop30
280
     1
102
RTVSPost2010PropOp30
 70
     1
102
RTVSPost2010Prop31
280
     0
102
RTVSPost2010PropOp31
 70
     1
102
RTVSPost2010Prop32
280
     0
102
RTVSPost2010PropOp32
 70
     1
102
RTVSPost2010Prop33
280
     0
102
RTVSPost2010PropOp33
 70
     1
102
RTVSPost2010Prop34
280
     0
102
RTVSPost2010PropOp34
 70
     1
102
RTVSPost2010Prop35
280
     0
102
RTVSPost2010PropOp35
 70
     1
102
RTVSPost2010Prop36
280
     0
102
RTVSPost2010PropOp36
 70
     1
102
RTVSPost2010Prop37
 90
       50
102
RTVSPost2010PropOp37
 70
     1
102
RTVSPost2010Prop38
140
0.0
102
RTVSPost2010PropOp38
 70
     1
102
RTVSPost2010Prop39
140
1.0
102
RTVSPost2010PropOp39
 70
     1
102
RTVSPost2010Prop40
 90
        0
102
RTVSPost2010PropOp40
 70
     1
102
RTVSPost2010Prop41ColorIndex
 90
       18
102
RTVSPost2010Prop41ColorRGB
 90
        0
102
RTVSPost2010PropOp41
 70
     1
102
RTVSPost2010Prop42
 90
       50
102
RTVSPost2010PropOp42
 70
     1
102
RTVSPost2010Prop43
 90
        3
102
RTVSPost2010PropOp43
 70
     1
102
RTVSPost2010Prop44ColorIndex
 90
        5
102
RTVSPost2010Prop44ColorRGB
 90
      255
102
RTVSPost2010PropOp44
 70
     1
102
RTVSPost2010Prop45
280
     0
102
RTVSPost2010PropOp45
 70
     1
102
RTVSPost2010Prop46
 90
       50
102
RTVSPost2010PropOp46
 70
     1
102
RTVSPost2010Prop47
 90
       50
102
RTVSPost2010PropOp47
 70
     1
102
RTVSPost2010Prop48
 90
       50
102
RTVSPost2010PropOp48
 70
     1
102
RTVSPost2010Prop49
280
     0
102
RTVSPost2010PropOp49
 70
     1
102
RTVSPost2010Prop50
 90
       50
102
RTVSPost2010PropOp50
 70
     1
102
RTVSPost2010Prop51ColorIndex
 90
      256
102
RTVSPost2010Prop51ColorRGB
 90
-16777216
102
RTVSPost2010PropOp51
 70
     0
102
RTVSPost2010Prop52
140
1.0
102
RTVSPost2010PropOp52
 70
     0
102
RTVSPost2010Prop53
 90
        2
102
RTVSPost2010PropOp53
 70
     1
102
RTVSPost2010Prop54
  1
strokes_ogs.tif
102
RTVSPost2010PropOp54
 70
     1
102
RTVSPost2010Prop55
280
     0
102
RTVSPost2010PropOp55
 70
     1
102
RTVSPost2010Prop56
140
1.0
102
RTVSPost2010PropOp56
 70
     1
102
RTVSPost2010Prop57
140
1.0
102
RTVSPost2010PropOp57
 70
     1
  0
XRECORD
  5
572
102
{ACAD_REACTORS
330
571
102
}
330
571
100
AcDbXrecord
280
     1
102
RTVSPropertyOp0
 70
     1
102
RTVSPropertyOp1
 70
     1
102
RTVSPropertyOp2
 70
     1
102
RTVSPropertyOp3
 70
     1
102
RTVSPropertyOp4
 70
     1
102
RTVSPropertyOp5
 70
     1
102
RTVSPropertyOp6
 70
     1
102
RTVSPropertyOp7
 70
     1
102
RTVSPropertyOp8
 70
     1
102
RTVSPropertyOp9
 70
     1
102
RTVSPropertyOp10
 70
     1
102
RTVSPropertyOp11
 70
     1
102
RTVSPropertyOp12
 70
     1
102
RTVSPropertyOp13
 70
     1
102
RTVSPropertyOp14
 70
     1
102
RTVSPropertyOp15
 70
     1
102
RTVSPropertyOp16
 70
     1
102
RTVSPropertyOp17
 70
     1
102
RTVSPropertyOp18
 70
     1
102
RTVSPropertyOp19
 70
     1
102
RTVSPropertyOp20
 70
     1
102
RTVSPropertyOp21
 70
     1
102
RTVSPropertyOp22
 70
     1
102
RTVSPropertyOp23
 70
     1
102
RTVSPropertyOp24
 70
     1
102
RTVSPropertyOp25
 70
     1
102
RTVSPropertyOp26
 70
     1
102
RTVSPropertyOp27
 70
     1
102
RTVSPropertyOp28
 70
     1
102
RTVSPropertyOp29
 70
     1
102
RTVSPropertyOp30
 70
     1
102
RTVSPropertyOp31
 70
     1
102
RTVSPropertyOp32
 70
     1
102
RTVSPropertyOp33
 70
     1
102
RTVSPropertyOp34
 70
     1
102
RTVSPropertyOp35
 70
     1
102
RTVSPropertyOp36
 70
     1
102
RTVSPropertyOp37
 70
     1
102
RTVSPropertyOp38
 70
     1
102
RTVSPropertyOp39
 70
     1
102
RTVSPropertyOp40
 70
     1
102
RTVSPropertyOp41
 70
     1
102
RTVSPropertyOp42
 70
     1
102
RTVSPropertyOp43
 70
     1
102
RTVSPropertyOp44
 70
     1
102
RTVSPropertyOp45
 70
     1
102
RTVSPropertyOp46
 70
     1
102
RTVSPropertyOp47
 70
     1
102
RTVSPropertyOp48
 70
     1
102
RTVSPropertyOp49
 70
     1
102
RTVSPropertyOp50
 70
     1
102
RTVSPropertyOp51
 70
     0
102
RTVSPropertyOp52
 70
     0
102
RTVSPropertyOp53
 70
     1
102
RTVSPropertyOp54
 70
     1
102
RTVSPropertyOp55
 70
     1
102
RTVSPropertyOp56
 70
     1
102
RTVSPropertyOp57
 70
     1
102
RTVSPost2010Prop28
280
     0
102
RTVSPost2010PropOp28
 70
     1
102
RTVSPost2010Prop29
280
     1
102
RTVSPost2010PropOp29
 70
     1
102
RTVSPost2010Prop30
280
     1
102
RTVSPost2010PropOp30
 70
     1
102
RTVSPost2010Prop31
280
     0
102
RTVSPost2010PropOp31
 70
     1
102
RTVSPost2010Prop32
280
     0
102
RTVSPost2010PropOp32
 70
     1
102
RTVSPost2010Prop33
280
     0
102
RTVSPost2010PropOp33
 70
     1
102
RTVSPost2010Prop34
280
     0
102
RTVSPost2010PropOp34
 70
     1
102
RTVSPost2010Prop35
280
     0
102
RTVSPost2010PropOp35
 70
     1
102
RTVSPost2010Prop36
280
     0
102
RTVSPost2010PropOp36
 70
     1
102
RTVSPost2010Prop37
 90
       50
102
RTVSPost2010PropOp37
 70
     1
102
RTVSPost2010Prop38
140
0.0
102
RTVSPost2010PropOp38
 70
     1
102
RTVSPost2010Prop39
140
1.0
102
RTVSPost2010PropOp39
 70
     1
102
RTVSPost2010Prop40
 90
        0
102
RTVSPost2010PropOp40
 70
     1
102
RTVSPost2010Prop41ColorIndex
 90
       18
102
RTVSPost2010Prop41ColorRGB
 90
        0
102
RTVSPost2010PropOp41
 70
     1
102
RTVSPost2010Prop42
 90
       50
102
RTVSPost2010PropOp42
 70
     1
102
RTVSPost2010Prop43
 90
        3
102
RTVSPost2010PropOp43
 70
     1
102
RTVSPost2010Prop44ColorIndex
 90
        5
102
RTVSPost2010Prop44ColorRGB
 90
      255
102
RTVSPost2010PropOp44
 70
     1
102
RTVSPost2010Prop45
280
     0
102
RTVSPost2010PropOp45
 70
     1
102
RTVSPost2010Prop46
 90
       50
102
RTVSPost2010PropOp46
 70
     1
102
RTVSPost2010Prop47
 90
       50
102
RTVSPost2010PropOp47
 70
     1
102
RTVSPost2010Prop48
 90
       50
102
RTVSPost2010PropOp48
 70
     1
102
RTVSPost2010Prop49
280
     0
102
RTVSPost2010PropOp49
 70
     1
102
RTVSPost2010Prop50
 90
       50
102
RTVSPost2010PropOp50
 70
     1
102
RTVSPost2010Prop51ColorIndex
 90
      256
102
RTVSPost2010Prop51ColorRGB
 90
-16777216
102
RTVSPost2010PropOp51
 70
     0
102
RTVSPost2010Prop52
140
1.0
102
RTVSPost2010PropOp52
 70
     0
102
RTVSPost2010Prop53
 90
        2
102
RTVSPost2010PropOp53
 70
     1
102
RTVSPost2010Prop54
  1
strokes_ogs.tif
102
RTVSPost2010PropOp54
 70
     1
102
RTVSPost2010Prop55
280
     0
102
RTVSPost2010PropOp55
 70
     1
102
RTVSPost2010Prop56
140
1.0
102
RTVSPost2010PropOp56
 70
     1
102
RTVSPost2010Prop57
140
1.0
102
RTVSPost2010PropOp57
 70
     1
  0
ENDSEC
  0
EOF
