  0
SECTION
  2
HEADER
  9
$ACADVER
  1
AC1018
  9
$ACADMAINTVER
 70
   104
  9
$DWGCODEPAGE
  3
ANSI_1252
  9
$LASTSAVEDBY
  1
TITADI
  9
$INSBASE
 10
0.0
 20
0.0
 30
0.0
  9
$EXTMIN
 10
-59.1582166505491
 20
-14.60922123003888
 30
-0.0000000349181948
  9
$EXTMAX
 10
54.12265120949905
 20
94.14398274168366
 30
0.0000000814935747
  9
$LIMMIN
 10
-170.0
 20
-170.0
  9
$LIMMAX
 10
519.0
 20
260.0
  9
$ORTHOMODE
 70
     1
  9
$REGENMODE
 70
     1
  9
$FILLMODE
 70
     1
  9
$QTEXTMODE
 70
     0
  9
$MIRRTEXT
 70
     0
  9
$LTSCALE
 40
1.0
  9
$ATTMODE
 70
     1
  9
$TEXTSIZE
 40
3.5
  9
$TRACEWID
 40
1.0
  9
$TEXTSTYLE
  7
SIMPLEX
  9
$CLAYER
  8
1
  9
$CELTYPE
  6
BYLAYER
  9
$CECOLOR
 62
   256
  9
$CELTSCALE
 40
1.0
  9
$DISPSILH
 70
     0
  9
$DIMSCALE
 40
1.0
  9
$DIMASZ
 40
2.5
  9
$DIMEXO
 40
0.0
  9
$DIMDLI
 40
3.75
  9
$DIMRND
 40
0.0
  9
$DIMDLE
 40
0.0
  9
$DIMEXE
 40
1.25
  9
$DIMTP
 40
0.0
  9
$DIMTM
 40
0.0
  9
$DIMTXT
 40
3.5
  9
$DIMCEN
 40
0.0
  9
$DIMTSZ
 40
0.0
  9
$DIMTOL
 70
     0
  9
$DIMLIM
 70
     0
  9
$DIMTIH
 70
     0
  9
$DIMTOH
 70
     0
  9
$DIMSE1
 70
     0
  9
$DIMSE2
 70
     0
  9
$DIMTAD
 70
     1
  9
$DIMZIN
 70
     8
  9
$DIMBLK
  1

  9
$DIMASO
 70
     1
  9
$DIMSHO
 70
     1
  9
$DIMPOST
  1

  9
$DIMAPOST
  1

  9
$DIMALT
 70
     0
  9
$DIMALTD
 70
     3
  9
$DIMALTF
 40
0.039370078
  9
$DIMLFAC
 40
1.0
  9
$DIMTOFL
 70
     0
  9
$DIMTVP
 40
0.0
  9
$DIMTIX
 70
     0
  9
$DIMSOXD
 70
     0
  9
$DIMSAH
 70
     0
  9
$DIMBLK1
  1

  9
$DIMBLK2
  1

  9
$DIMSTYLE
  2
STANDARD
  9
$DIMCLRD
 70
     0
  9
$DIMCLRE
 70
     0
  9
$DIMCLRT
 70
     0
  9
$DIMTFAC
 40
1.0
  9
$DIMGAP
 40
0.625
  9
$DIMJUST
 70
     0
  9
$DIMSD1
 70
     0
  9
$DIMSD2
 70
     0
  9
$DIMTOLJ
 70
     0
  9
$DIMTZIN
 70
     8
  9
$DIMALTZ
 70
     0
  9
$DIMALTTZ
 70
     0
  9
$DIMUPT
 70
     0
  9
$DIMDEC
 70
     2
  9
$DIMTDEC
 70
     2
  9
$DIMALTU
 70
     2
  9
$DIMALTTD
 70
     3
  9
$DIMTXSTY
  7
SIMPLEX
  9
$DIMAUNIT
 70
     0
  9
$DIMADEC
 70
     2
  9
$DIMALTRND
 40
0.0
  9
$DIMAZIN
 70
     2
  9
$DIMDSEP
 70
    46
  9
$DIMATFIT
 70
     3
  9
$DIMFRAC
 70
     0
  9
$DIMLDRBLK
  1

  9
$DIMLUNIT
 70
     2
  9
$DIMLWD
 70
    -2
  9
$DIMLWE
 70
    -2
  9
$DIMTMOVE
 70
     0
  9
$LUNITS
 70
     2
  9
$LUPREC
 70
     2
  9
$SKETCHINC
 40
1.0
  9
$FILLETRAD
 40
0.0
  9
$AUNITS
 70
     0
  9
$AUPREC
 70
     0
  9
$MENU
  1
c:\tdm21\cad\caduti13\tdm13
  9
$ELEVATION
 40
0.0
  9
$PELEVATION
 40
0.0
  9
$THICKNESS
 40
0.0
  9
$LIMCHECK
 70
     0
  9
$CHAMFERA
 40
0.1
  9
$CHAMFERB
 40
0.1
  9
$CHAMFERC
 40
0.0
  9
$CHAMFERD
 40
0.0
  9
$SKPOLY
 70
     0
  9
$TDCREATE
 40
2454957.593642639
  9
$TDUCREATE
 40
2454957.510309306
  9
$TDUPDATE
 40
2457134.398303657
  9
$TDUUPDATE
 40
2457134.314970324
  9
$TDINDWG
 40
0.1737211343
  9
$TDUSRTIMER
 40
0.1737039468
  9
$USRTIMER
 70
     1
  9
$ANGBASE
 50
0.0
  9
$ANGDIR
 70
     0
  9
$PDMODE
 70
     1
  9
$PDSIZE
 40
0.0
  9
$PLINEWID
 40
0.0
  9
$SPLFRAME
 70
     0
  9
$SPLINETYPE
 70
     6
  9
$SPLINESEGS
 70
     8
  9
$HANDSEED
  5
1122
  9
$SURFTAB1
 70
     6
  9
$SURFTAB2
 70
     6
  9
$SURFTYPE
 70
     6
  9
$SURFU
 70
     6
  9
$SURFV
 70
     6
  9
$UCSBASE
  2

  9
$UCSNAME
  2

  9
$UCSORG
 10
0.0
 20
0.0
 30
0.0
  9
$UCSXDIR
 10
1.0
 20
0.0
 30
0.0
  9
$UCSYDIR
 10
0.0
 20
1.0
 30
0.0
  9
$UCSORTHOREF
  2

  9
$UCSORTHOVIEW
 70
     0
  9
$UCSORGTOP
 10
0.0
 20
0.0
 30
0.0
  9
$UCSORGBOTTOM
 10
0.0
 20
0.0
 30
0.0
  9
$UCSORGLEFT
 10
0.0
 20
0.0
 30
0.0
  9
$UCSORGRIGHT
 10
0.0
 20
0.0
 30
0.0
  9
$UCSORGFRONT
 10
0.0
 20
0.0
 30
0.0
  9
$UCSORGBACK
 10
0.0
 20
0.0
 30
0.0
  9
$PUCSBASE
  2

  9
$PUCSNAME
  2

  9
$PUCSORG
 10
0.0
 20
0.0
 30
0.0
  9
$PUCSXDIR
 10
1.0
 20
0.0
 30
0.0
  9
$PUCSYDIR
 10
0.0
 20
1.0
 30
0.0
  9
$PUCSORTHOREF
  2

  9
$PUCSORTHOVIEW
 70
     0
  9
$PUCSORGTOP
 10
0.0
 20
0.0
 30
0.0
  9
$PUCSORGBOTTOM
 10
0.0
 20
0.0
 30
0.0
  9
$PUCSORGLEFT
 10
0.0
 20
0.0
 30
0.0
  9
$PUCSORGRIGHT
 10
0.0
 20
0.0
 30
0.0
  9
$PUCSORGFRONT
 10
0.0
 20
0.0
 30
0.0
  9
$PUCSORGBACK
 10
0.0
 20
0.0
 30
0.0
  9
$USERI1
 70
     0
  9
$USERI2
 70
     0
  9
$USERI3
 70
     0
  9
$USERI4
 70
     0
  9
$USERI5
 70
     0
  9
$USERR1
 40
0.0
  9
$USERR2
 40
0.0
  9
$USERR3
 40
0.0
  9
$USERR4
 40
0.0
  9
$USERR5
 40
0.0
  9
$WORLDVIEW
 70
     1
  9
$SHADEDGE
 70
     3
  9
$SHADEDIF
 70
    70
  9
$TILEMODE
 70
     1
  9
$MAXACTVP
 70
    64
  9
$PINSBASE
 10
0.0
 20
0.0
 30
0.0
  9
$PLIMCHECK
 70
     0
  9
$PEXTMIN
 10
0.0
 20
0.0
 30
0.0
  9
$PEXTMAX
 10
0.0
 20
0.0
 30
0.0
  9
$PLIMMIN
 10
0.0
 20
0.0
  9
$PLIMMAX
 10
12.0
 20
9.0
  9
$UNITMODE
 70
     0
  9
$VISRETAIN
 70
     0
  9
$PLINEGEN
 70
     0
  9
$PSLTSCALE
 70
     1
  9
$TREEDEPTH
 70
  3020
  9
$CMLSTYLE
  2
STANDARD
  9
$CMLJUST
 70
     0
  9
$CMLSCALE
 40
20.0
  9
$PROXYGRAPHICS
 70
     1
  9
$MEASUREMENT
 70
     1
  9
$CELWEIGHT
370
    -1
  9
$ENDCAPS
280
     0
  9
$JOINSTYLE
280
     0
  9
$LWDISPLAY
290
     0
  9
$INSUNITS
 70
     4
  9
$HYPERLINKBASE
  1

  9
$STYLESHEET
  1
MONOCHROME.CTB
  9
$XEDIT
290
     1
  9
$CEPSNTYPE
380
     0
  9
$PSTYLEMODE
290
     1
  9
$FINGERPRINTGUID
  2
{46B44192-1510-48B1-B61B-CBE2ADA013A7}
  9
$VERSIONGUID
  2
{24DEBF89-500F-4049-B683-7E424DA5EEDE}
  9
$EXTNAMES
290
     1
  9
$PSVPSCALE
 40
0.0
  9
$OLESTARTUP
290
     0
  9
$SORTENTS
280
   127
  9
$INDEXCTL
280
     0
  9
$HIDETEXT
280
     1
  9
$XCLIPFRAME
290
     0
  9
$HALOGAP
280
     0
  9
$OBSCOLOR
 70
   257
  9
$OBSLTYPE
280
     0
  9
$INTERSECTIONDISPLAY
280
     0
  9
$INTERSECTIONCOLOR
 70
   257
  9
$DIMASSOC
280
     2
  9
$PROJECTNAME
  1

  0
ENDSEC
  0
SECTION
  2
CLASSES
  0
CLASS
  1
ACDBDICTIONARYWDFLT
  2
AcDbDictionaryWithDefault
  3
ObjectDBX Classes
 90
        0
 91
        1
280
     0
281
     0
  0
CLASS
  1
DICTIONARYVAR
  2
AcDbDictionaryVar
  3
ObjectDBX Classes
 90
        0
 91
       16
280
     0
281
     0
  0
CLASS
  1
TABLESTYLE
  2
AcDbTableStyle
  3
ObjectDBX Classes
 90
     4095
 91
        1
280
     0
281
     0
  0
CLASS
  1
SCALE
  2
AcDbScale
  3
ObjectDBX Classes
 90
     1153
 91
       33
280
     0
281
     0
  0
CLASS
  1
MATERIAL
  2
AcDbMaterial
  3
ObjectDBX Classes
 90
     1153
 91
        3
280
     0
281
     0
  0
CLASS
  1
VISUALSTYLE
  2
AcDbVisualStyle
  3
ObjectDBX Classes
 90
     4095
 91
       24
280
     0
281
     0
  0
CLASS
  1
MLEADERSTYLE
  2
AcDbMLeaderStyle
  3
ACDB_MLEADERSTYLE_CLASS
 90
     4095
 91
        1
280
     0
281
     0
  0
CLASS
  1
ACDBSECTIONVIEWSTYLE
  2
AcDbSectionViewStyle
  3
ObjectDBX Classes
 90
     1025
 91
        1
280
     0
281
     0
  0
CLASS
  1
ACDBDETAILVIEWSTYLE
  2
AcDbDetailViewStyle
  3
ObjectDBX Classes
 90
     1025
 91
        1
280
     0
281
     0
  0
CLASS
  1
EXACXREFPANELOBJECT
  2
ExAcXREFPanelObject
  3
EXAC_ESW
 90
     1025
 91
        0
280
     0
281
     0
  0
CLASS
  1
NPOCOLLECTION
  2
AcDbImpNonPersistentObjectsCollection
  3
ObjectDBX Classes
 90
     1153
 91
        0
280
     0
281
     0
  0
CLASS
  1
CELLSTYLEMAP
  2
AcDbCellStyleMap
  3
ObjectDBX Classes
 90
     1152
 91
        2
280
     0
281
     0
  0
CLASS
  1
AMGSETTINGSOBJ
  2
AmgSettingsObj
  3
"AcadM|Product Description: AutoCAD Mechanical|Company: Autodesk, Inc."
 90
     1024
 91
        0
280
     0
281
     0
  0
CLASS
  1
ACME_DOCUMENT
  2
AcMeDbDoc
  3
AcMeServices
 90
     1024
 91
        0
280
     0
281
     0
  0
CLASS
  1
ACMESCOPE
  2
AcMeScope
  3
AcMeServices
 90
     1024
 91
        0
280
     0
281
     0
  0
CLASS
  1
ACMECOMMANDHISTORY
  2
AcMeCommandHistory
  3
AcMeServices
 90
     1024
 91
        0
280
     0
281
     0
  0
CLASS
  1
ACIMSYSVARMAN
  2
AcImSysVarManager
  3
AcMeServices
 90
     1024
 91
        0
280
     0
281
     0
  0
CLASS
  1
ACIMINTSYSVAR
  2
AcImIntSysVar
  3
AcMeServices
 90
     1024
 91
        0
280
     0
281
     0
  0
CLASS
  1
ACMESTATEMGR
  2
AcMeStateMgr
  3
AcMeServices
 90
     1024
 91
        0
280
     0
281
     0
  0
CLASS
  1
ACDBENTITYCACHE
  2
AcMeEntityCache
  3
AcMeServices
 90
     1024
 91
        0
280
     0
281
     0
  0
CLASS
  1
ACGREFMASTER
  2
AcGrefMaster
  3
AcAttribServices
 90
     1024
 91
        0
280
     0
281
     0
  0
CLASS
  1
ACME_DATABASE
  2
AcMeDbDatabase
  3
AcMeServices
 90
     1024
 91
        0
280
     0
281
     0
  0
CLASS
  1
ACRFINSADJUSTERMGR
  2
AcRfInsAdjusterMgr
  3
AcMeServices
 90
     1024
 91
        0
280
     0
281
     0
  0
CLASS
  1
ACGREFACADMASTER
  2
AcGrefacadMaster
  3
AcGrefServices
 90
     1024
 91
        0
280
     0
281
     0
  0
CLASS
  1
AMDTMENUSTATEMGR
  2
AmdtMenuStateMgr
  3
McadcomServices
 90
     1024
 91
        0
280
     0
281
     0
  0
CLASS
  1
AMDTMCOMMENUSTATE
  2
AmdtMcomMenuState
  3
McadcomServices
 90
     1024
 91
        0
280
     0
281
     0
  0
CLASS
  1
AMIMASTER
  2
AmiMaster
  3
AmiServices
 90
     1024
 91
        0
280
     0
281
     0
  0
CLASS
  1
MAPIAMMOUDLE
  2
MApiAmModule
  3
MApiAmServices
 90
     1024
 91
        0
280
     0
281
     0
  0
CLASS
  1
ACIMSTRSYSVAR
  2
AcImStrSysVar
  3
AcMeServices
 90
     1024
 91
        0
280
     0
281
     0
  0
CLASS
  1
AMDTAMMENUSTATE
  2
AmdtAmMenuState
  3
DesignerAssemblies
 90
     1024
 91
        0
280
     0
281
     0
  0
CLASS
  1
ACAMPROJECT
  2
AcAmProject
  3
DesignerAssemblies
 90
     1024
 91
        0
280
     0
281
     0
  0
CLASS
  1
ACAMGRCOMPDEF
  2
AcAmGrCompDef
  3
DesignerAssemblies
 90
     1024
 91
        0
280
     0
281
     0
  0
CLASS
  1
ACAMCOMPDEF
  2
AcAmCompDef
  3
DesignerAssemblies
 90
     1024
 91
        0
280
     0
281
     0
  0
CLASS
  1
ACAMCOMPDEFMGR
  2
AcAmCompDefMgr
  3
DesignerAssemblies
 90
     1024
 91
        0
280
     0
281
     0
  0
CLASS
  1
AMCONTEXTMGR
  2
AcAmContextMgr
  3
DesignerAssemblies
 90
     1024
 91
        0
280
     0
281
     0
  0
CLASS
  1
ACAMCONTEXTMODELER
  2
AcAmContextModeler
  3
DesignerAssemblies
 90
     1024
 91
        0
280
     0
281
     0
  0
CLASS
  1
ACMDATADICTIONARY
  2
AcmDataDictionary
  3
"AcmSymBB|Product Description: AutoCAD Mechanical|Company: Autodesk, Inc."
 90
     1024
 91
        0
280
     0
281
     0
  0
CLASS
  1
ACAMGRCOMPDEFSET
  2
AcAmGrCompDefSet
  3
DesignerAssemblies
 90
     1024
 91
        0
280
     0
281
     0
  0
CLASS
  1
AMDTBROWSERDBTAB
  2
AmdtBrowserDbTab
  3
McadcomServices
 90
     1024
 91
        0
280
     0
281
     0
  0
CLASS
  1
CBROWSERAPPOBJECT
  2
CBrowserAppObject
  3
McadcomServices
 90
     1024
 91
        0
280
     0
281
     0
  0
CLASS
  1
DM_PLACEHOLDER
  2
AcDmSelsetPlaceholder
  3
McadcomServices
 90
     1024
 91
        0
280
     0
281
     0
  0
CLASS
  1
ACMSTANDARDISO
  2
AcmStandardISO
  3
"Amdt_StdImp|Product Description: AutoCAD Mechanical|Company: Autodesk, Inc."
 90
     1024
 91
        0
280
     0
281
     0
  0
CLASS
  1
AMDTEDGESTANDARDISO13715
  2
AmdtEdgeStdISO13715
  3
"Amdt_StdImp|Product Description: AutoCAD Mechanical|Company: Autodesk, Inc."
 90
     1024
 91
        0
280
     0
281
     0
  0
CLASS
  1
ACMSURFSTANDARDISO2002
  2
AcmSurfTextStdISO2002
  3
"Amdt_StdImp|Product Description: AutoCAD Mechanical|Company: Autodesk, Inc."
 90
     1024
 91
        0
280
     0
281
     0
  0
CLASS
  1
ACMFCFSTANDARDISO2004
  2
AcmFCFStdISO2004
  3
"Amdt_StdImp|Product Description: AutoCAD Mechanical|Company: Autodesk, Inc."
 90
     1024
 91
        0
280
     0
281
     0
  0
CLASS
  1
ACMWELDSTANDARDISO
  2
AcmWeldingStdISO
  3
"Amdt_StdImp|Product Description: AutoCAD Mechanical|Company: Autodesk, Inc."
 90
     1024
 91
        0
280
     0
281
     0
  0
CLASS
  1
ACMIDSTANDARDISO2004
  2
AcmIdStdISO2004
  3
"Amdt_StdImp|Product Description: AutoCAD Mechanical|Company: Autodesk, Inc."
 90
     1024
 91
        0
280
     0
281
     0
  0
CLASS
  1
ACMDATUMSTANDARDISO
  2
AcmDatumStdISO
  3
"Amdt_StdImp|Product Description: AutoCAD Mechanical|Company: Autodesk, Inc."
 90
     1024
 91
        0
280
     0
281
     0
  0
CLASS
  1
ACMBOMSTANDARDISO
  2
AcmBOMStdISO
  3
"Amdt_StdImp|Product Description: AutoCAD Mechanical|Company: Autodesk, Inc."
 90
     1024
 91
        0
280
     0
281
     0
  0
CLASS
  1
ACMDETAILSTANDARDISO
  2
AmdtDetailSymStdISO
  3
"Amdt_StdImp|Product Description: AutoCAD Mechanical|Company: Autodesk, Inc."
 90
     1024
 91
        0
280
     0
281
     0
  0
CLASS
  1
ACMSECTIONSTANDARDISO2001
  2
AmdtSectionSymStdISO2001
  3
"Amdt_StdImp|Product Description: AutoCAD Mechanical|Company: Autodesk, Inc."
 90
     1024
 91
        0
280
     0
281
     0
  0
CLASS
  1
ACMCENTERLINESTANDARDISO
  2
AmdtCenterLineStdISO
  3
"Amdt_StdImp|Product Description: AutoCAD Mechanical|Company: Autodesk, Inc."
 90
     1024
 91
        0
280
     0
281
     0
  0
CLASS
  1
ACMTHREADLINESTANDARDISO
  2
AmdtThreadLineStdISO
  3
"Amdt_StdImp|Product Description: AutoCAD Mechanical|Company: Autodesk, Inc."
 90
     1024
 91
        0
280
     0
281
     0
  0
CLASS
  1
ACMNOTESTANDARDISO
  2
AmdtNoteStdISO
  3
"Amdt_StdImp|Product Description: AutoCAD Mechanical|Company: Autodesk, Inc."
 90
     1024
 91
        0
280
     0
281
     0
  0
CLASS
  1
ACMTAPERSTANDARDISO
  2
AcmTaperStdISO
  3
"Amdt_StdImp|Product Description: AutoCAD Mechanical|Company: Autodesk, Inc."
 90
     1024
 91
        0
280
     0
281
     0
  0
CLASS
  1
ACMANOOTATIONVIEWSTANDARDISO
  2
AmdtAnViewStdISO
  3
"Amdt_StdImp|Product Description: AutoCAD Mechanical|Company: Autodesk, Inc."
 90
     1024
 91
        0
280
     0
281
     0
  0
CLASS
  1
ACAMGLAYSTD
  2
AcAmgLayStd
  3
"AmgLay|Product Description: AutoCAD Mechanical|Company: Autodesk, Inc."
 90
     1024
 91
        0
280
     0
281
     0
  0
CLASS
  1
ACAMGDIMSTD
  2
AcAmgDimStd
  3
"AmgDim|Product Description: AutoCAD Mechanical|Company: Autodesk, Inc."
 90
     1024
 91
        0
280
     0
281
     0
  0
CLASS
  1
AMGOBJPROPCFG
  2
AmgObjPropCfg
  3
"AmgLay|Product Description: AutoCAD Mechanical|Company: Autodesk, Inc."
 90
     1024
 91
        0
280
     0
281
     0
  0
CLASS
  1
ACAMGHOLECHARTSTDISO
  2
AcAmgHoleChartStdISO
  3
AmgDim|Product Description: AutoCAD Mechanical|Company: Autodesk, Inc.
 90
     1024
 91
        0
280
     0
281
     0
  0
CLASS
  1
ACAMGTITLESTD
  2
AcAmgTitleStd
  3
"AmgTitle|Product Description: AutoCAD Mechanical|Company: Autodesk, Inc."
 90
     1024
 91
        0
280
     0
281
     0
  0
CLASS
  1
ACMSECTIONSTANDARDCUSTOM
  2
AmdtSectionSymStdCustom
  3
"Amdt_StdImp|Product Description: AutoCAD Mechanical|Company: Autodesk, Inc."
 90
     1024
 91
        0
280
     0
281
     0
  0
CLASS
  1
ACMDETAILTANDARDCUSTOM
  2
AmdtDetailSymStdCustom
  3
"Amdt_StdImp|Product Description: AutoCAD Mechanical|Company: Autodesk, Inc."
 90
     1024
 91
        0
280
     0
281
     0
  0
CLASS
  1
FIELD
  2
AcDbField
  3
ObjectDBX Classes
 90
     1152
 91
        0
280
     0
281
     0
  0
CLASS
  1
FIELDLIST
  2
AcDbFieldList
  3
ObjectDBX Classes
 90
     1152
 91
        1
280
     0
281
     0
  0
CLASS
  1
AMDTNOTETEMPLATEDB
  2
AmdtNoteTemplateDB
  3
AcmSymBB|Product Description: AutoCAD Mechanical|Company: Autodesk, Inc.
 90
     1024
 91
        0
280
     0
281
     0
  0
CLASS
  1
CAMSSTRUCTBTNSTATE
  2
StructBtnState
  3
DesignerAssemblies
 90
     1024
 91
        0
280
     0
281
     0
  0
CLASS
  1
ACAMGFILTERDAT
  2
AcAmgFilterDat
  3
"AcadM|Product Description: AutoCAD Mechanical|Company: Autodesk, Inc."
 90
     1024
 91
        0
280
     0
281
     0
  0
CLASS
  1
DIMASSOC
  2
AcDbDimAssoc
  3
"AcDbDimAssoc|Product Desc:     AcDim ARX App For Dimension|Company:          Autodesk, Inc.|WEB Address:      www.autodesk.com"
 90
        0
 91
        0
280
     0
281
     0
  0
CLASS
  1
SORTENTSTABLE
  2
AcDbSortentsTable
  3
ObjectDBX Classes
 90
        0
 91
        1
280
     0
281
     0
  0
ENDSEC
  0
SECTION
  2
TABLES
  0
TABLE
  2
VPORT
  5
8
330
0
100
AcDbSymbolTable
 70
     1
  0
VPORT
  5
39A
330
8
100
AcDbSymbolTableRecord
100
AcDbViewportTableRecord
  2
*Active
 70
     0
 10
0.0
 20
0.0
 11
1.0
 21
1.0
 12
-2.517782720525019
 22
39.76738075582239
 13
0.0
 23
0.0
 14
5.0
 24
5.0
 15
5.0
 25
5.0
 16
0.0
 26
0.0
 36
1.0
 17
0.0
 27
0.0
 37
0.0
 40
109.5460584356719
 41
2.329683698296836
 42
50.0
 43
0.0
 44
0.0
 50
0.0
 51
0.0
 71
     0
 72
  2000
 73
     1
 74
     1
 75
     0
 76
     0
 77
     0
 78
     0
281
     0
 65
     0
110
0.0
120
0.0
130
0.0
111
1.0
121
0.0
131
0.0
112
0.0
122
1.0
132
0.0
 79
     0
146
0.0
1001
ACAD_NAV_VCDISPLAY
1070
     3
  0
ENDTAB
  0
TABLE
  2
LTYPE
  5
5
330
0
100
AcDbSymbolTable
 70
     7
  0
LTYPE
  5
12
330
5
100
AcDbSymbolTableRecord
100
AcDbLinetypeTableRecord
  2
BYBLOCK
 70
     0
  3

 72
    65
 73
     0
 40
0.0
  0
LTYPE
  5
13
330
5
100
AcDbSymbolTableRecord
100
AcDbLinetypeTableRecord
  2
BYLAYER
 70
     0
  3

 72
    65
 73
     0
 40
0.0
  0
LTYPE
  5
14
330
5
100
AcDbSymbolTableRecord
100
AcDbLinetypeTableRecord
  2
CONTINUOUS
 70
     0
  3
Solid line
 72
    65
 73
     0
 40
0.0
  0
LTYPE
  5
20
330
5
100
AcDbSymbolTableRecord
100
AcDbLinetypeTableRecord
  2
HIDDEN
 70
     0
  3
Hidden __ __ __ __ __ __ __ __ __ __ __ __ __ _
 72
    65
 73
     2
 40
9.524999999999996
 49
6.349999999999997
 74
     0
 49
-3.174999999999998
 74
     0
  0
LTYPE
  5
351
330
5
100
AcDbSymbolTableRecord
100
AcDbLinetypeTableRecord
  2
CENTER
 70
     0
  3
Dash dot __ . __ . __ . __ . __ . __ . __ . __
 72
    65
 73
     4
 40
25.4
 49
12.7
 74
     0
 49
-6.349999999999997
 74
     0
 49
0.0
 74
     0
 49
-6.349999999999997
 74
     0
  0
LTYPE
  5
601
330
5
100
AcDbSymbolTableRecord
100
AcDbLinetypeTableRecord
  2
PHANTOM2
 70
     0
  3
Phantom (.5x) ___ _ _ ___ _ _ ___ _ _ ___ _ _
 72
    65
 73
     6
 40
31.75
 49
15.875
 74
     0
 49
-3.174999999999998
 74
     0
 49
3.174999999999998
 74
     0
 49
-3.174999999999998
 74
     0
 49
3.174999999999998
 74
     0
 49
-3.174999999999998
 74
     0
  0
LTYPE
  5
64C
330
5
100
AcDbSymbolTableRecord
100
AcDbLinetypeTableRecord
  2
ACISOWELD
 70
     0
  3
_ _ _ _ _
 72
    65
 73
     2
 40
2.0
 49
2.0
 74
     0
 49
-1.0
 74
     0
  0
LTYPE
  5
64D
330
5
100
AcDbSymbolTableRecord
100
AcDbLinetypeTableRecord
  2
ACISOTGL
 70
     0
  3
_ _ _ _ _
 72
    65
 73
     2
 40
3.0
 49
2.0
 74
     0
 49
-1.0
 74
     0
  0
LTYPE
  5
64E
330
5
100
AcDbSymbolTableRecord
100
AcDbLinetypeTableRecord
  2
ACISOTGB
 70
     0
  3
__ . . __ . .
 72
    65
 73
     6
 40
9.0
 49
4.0
 74
     0
 49
-1.0
 74
     0
 49
1.0
 74
     0
 49
-1.0
 74
     0
 49
1.0
 74
     0
 49
-1.0
 74
     0
  0
ENDTAB
  0
TABLE
  2
LAYER
  5
2
102
{ACAD_XDICTIONARY
360
D20
102
}
330
0
100
AcDbSymbolTable
 70
    17
  0
LAYER
  5
F
102
{ACAD_XDICTIONARY
360
58D
102
}
330
2
100
AcDbSymbolTableRecord
100
AcDbLayerTableRecord
  2
0
 70
     0
 62
     7
  6
CONTINUOUS
370
    -3
390
300
  0
LAYER
  5
23
102
{ACAD_XDICTIONARY
360
58F
102
}
330
2
100
AcDbSymbolTableRecord
100
AcDbLayerTableRecord
  2
1
 70
     0
 62
     4
  6
CONTINUOUS
370
    -3
390
300
  0
LAYER
  5
24
102
{ACAD_XDICTIONARY
360
591
102
}
330
2
100
AcDbSymbolTableRecord
100
AcDbLayerTableRecord
  2
SK1
 70
     0
 62
     4
  6
CONTINUOUS
370
    -3
390
300
  0
LAYER
  5
25
102
{ACAD_XDICTIONARY
360
593
102
}
330
2
100
AcDbSymbolTableRecord
100
AcDbLayerTableRecord
  2
2
 70
     0
 62
     7
  6
CONTINUOUS
370
    -3
390
300
  0
LAYER
  5
26
102
{ACAD_XDICTIONARY
360
595
102
}
330
2
100
AcDbSymbolTableRecord
100
AcDbLayerTableRecord
  2
2L
 70
     0
 62
     7
  6
CONTINUOUS
370
    -3
390
300
  0
LAYER
  5
27
102
{ACAD_XDICTIONARY
360
597
102
}
330
2
100
AcDbSymbolTableRecord
100
AcDbLayerTableRecord
  2
SK2
 70
     0
 62
     7
  6
CONTINUOUS
370
    -3
390
300
  0
LAYER
  5
28
102
{ACAD_XDICTIONARY
360
599
102
}
330
2
100
AcDbSymbolTableRecord
100
AcDbLayerTableRecord
  2
3
 70
     0
 62
     1
  6
HIDDEN
370
    -3
390
300
  0
LAYER
  5
29
102
{ACAD_XDICTIONARY
360
59B
102
}
330
2
100
AcDbSymbolTableRecord
100
AcDbLayerTableRecord
  2
SK3
 70
     0
 62
     1
  6
HIDDEN
370
    -3
390
300
  0
LAYER
  5
2A
102
{ACAD_XDICTIONARY
360
59D
102
}
330
2
100
AcDbSymbolTableRecord
100
AcDbLayerTableRecord
  2
4
 70
     0
 62
     2
  6
CENTER
370
    -3
390
300
  0
LAYER
  5
2B
102
{ACAD_XDICTIONARY
360
59F
102
}
330
2
100
AcDbSymbolTableRecord
100
AcDbLayerTableRecord
  2
SK4
 70
     0
 62
     2
  6
CENTER
370
    -3
390
300
  0
LAYER
  5
2C
102
{ACAD_XDICTIONARY
360
5A1
102
}
330
2
100
AcDbSymbolTableRecord
100
AcDbLayerTableRecord
  2
5
 70
     0
 62
    -7
  6
CONTINUOUS
370
    -3
390
300
  0
LAYER
  5
2D
102
{ACAD_XDICTIONARY
360
5A3
102
}
330
2
100
AcDbSymbolTableRecord
100
AcDbLayerTableRecord
  2
6
 70
     0
 62
     5
  6
CONTINUOUS
370
    -3
390
300
  0
LAYER
  5
2E
102
{ACAD_XDICTIONARY
360
5A5
102
}
330
2
100
AcDbSymbolTableRecord
100
AcDbLayerTableRecord
  2
SK6
 70
     0
 62
     5
  6
CONTINUOUS
370
    -3
390
300
  0
LAYER
  5
2F
330
2
100
AcDbSymbolTableRecord
100
AcDbLayerTableRecord
  2
DEFPOINTS
 70
     0
 62
     7
  6
CONTINUOUS
290
     0
370
    -3
390
300
  0
LAYER
  5
375
102
{ACAD_XDICTIONARY
360
5A7
102
}
330
2
100
AcDbSymbolTableRecord
100
AcDbLayerTableRecord
  2
CUT
 70
     0
 62
     1
  6
CONTINUOUS
370
    -3
390
300
  0
LAYER
  5
376
102
{ACAD_XDICTIONARY
360
5A9
102
}
330
2
100
AcDbSymbolTableRecord
100
AcDbLayerTableRecord
  2
NOCUT
 70
     0
 62
     7
  6
CONTINUOUS
370
    -3
390
300
  0
LAYER
  5
684
330
2
100
AcDbSymbolTableRecord
100
AcDbLayerTableRecord
  2
AM_5
 70
     0
 62
    92
  6
CONTINUOUS
370
    25
390
300
1001
AcAecLayerStandard
1000

1000

  0
ENDTAB
  0
TABLE
  2
STYLE
  5
3
330
0
100
AcDbSymbolTable
 70
     6
  0
STYLE
  5
10
330
3
100
AcDbSymbolTableRecord
100
AcDbTextStyleTableRecord
  2
STANDARD
 70
     0
 40
0.0
 41
1.0
 50
0.0
 71
     0
 42
5.0
  3
txt
  4

  0
STYLE
  5
1D
330
3
100
AcDbSymbolTableRecord
100
AcDbTextStyleTableRecord
  2
TXT
 70
     0
 40
8.0
 41
1.0
 50
0.0
 71
     0
 42
8.0
  3
txt
  4

  0
STYLE
  5
1E
330
3
100
AcDbSymbolTableRecord
100
AcDbTextStyleTableRecord
  2
SIMPLEX
 70
     0
 40
0.0
 41
1.0
 50
0.0
 71
     0
 42
3.5
  3
simplex
  4

  0
STYLE
  5
34C
330
3
100
AcDbSymbolTableRecord
100
AcDbTextStyleTableRecord
  2

 70
     1
 40
0.0
 41
1.0
 50
0.0
 71
     0
 42
2.5
  3
ltypeshp.shx
  4

  0
STYLE
  5
64A
330
3
100
AcDbSymbolTableRecord
100
AcDbTextStyleTableRecord
  2
ACISOTS
 70
     0
 40
0.0
 41
1.0
 50
0.0
 71
     0
 42
3.5
  3
isocp.shx
  4

  0
STYLE
  5
64B
330
3
100
AcDbSymbolTableRecord
100
AcDbTextStyleTableRecord
  2
ACISOGDT
 70
     0
 40
0.0
 41
1.0
 50
0.0
 71
     0
 42
3.5
  3
amgdt.shx
  4

  0
ENDTAB
  0
TABLE
  2
VIEW
  5
6
330
0
100
AcDbSymbolTable
 70
     0
  0
ENDTAB
  0
TABLE
  2
UCS
  5
7
330
0
100
AcDbSymbolTable
 70
     0
  0
ENDTAB
  0
TABLE
  2
APPID
  5
9
330
0
100
AcDbSymbolTable
 70
    18
  0
APPID
  5
11
330
9
100
AcDbSymbolTableRecord
100
AcDbRegAppTableRecord
  2
ACAD
 70
     0
  0
APPID
  5
5B1
330
9
100
AcDbSymbolTableRecord
100
AcDbRegAppTableRecord
  2
ACAD_NAV_VCDISPLAY
 70
     0
  0
APPID
  5
5EF
330
9
100
AcDbSymbolTableRecord
100
AcDbRegAppTableRecord
  2
ACAD_MLEADERVER
 70
     0
  0
APPID
  5
5FA
330
9
100
AcDbSymbolTableRecord
100
AcDbRegAppTableRecord
  2
MCAD_NO_VIS
 70
     0
  0
APPID
  5
5FB
330
9
100
AcDbSymbolTableRecord
100
AcDbRegAppTableRecord
  2
ACAD_TEMP_GRAPHIC
 70
     0
  0
APPID
  5
606
330
9
100
AcDbSymbolTableRecord
100
AcDbRegAppTableRecord
  2
ACATTRIBSERVICES
 70
     0
  0
APPID
  5
61E
330
9
100
AcDbSymbolTableRecord
100
AcDbRegAppTableRecord
  2
DESIGNERASSEMBLIES
 70
     0
  0
APPID
  5
639
330
9
100
AcDbSymbolTableRecord
100
AcDbRegAppTableRecord
  2
ACAD_DSTYLE_DIMJAG
 70
     0
  0
APPID
  5
63A
330
9
100
AcDbSymbolTableRecord
100
AcDbRegAppTableRecord
  2
ACAD_DSTYLE_DIMBREAK
 70
     0
  0
APPID
  5
685
330
9
100
AcDbSymbolTableRecord
100
AcDbRegAppTableRecord
  2
AcAecLayerStandard
 70
     0
  0
APPID
  5
6A3
330
9
100
AcDbSymbolTableRecord
100
AcDbRegAppTableRecord
  2
GENIUS_GENDTOL_13
 70
     0
  0
APPID
  5
6A4
330
9
100
AcDbSymbolTableRecord
100
AcDbRegAppTableRecord
  2
ACAD_DSTYLE_DIMINSPECT
 70
     0
  0
APPID
  5
D97
330
9
100
AcDbSymbolTableRecord
100
AcDbRegAppTableRecord
  2
ACAD_DSTYLE_DIMARC_LENGTH_SYMBOL
 70
     0
  0
APPID
  5
D98
330
9
100
AcDbSymbolTableRecord
100
AcDbRegAppTableRecord
  2
ACAD_DSTYLE_DIM_LINETYPE
 70
     0
  0
APPID
  5
D99
330
9
100
AcDbSymbolTableRecord
100
AcDbRegAppTableRecord
  2
ACAD_DSTYLE_DIM_EXT1_LINETYPE
 70
     0
  0
APPID
  5
D9A
330
9
100
AcDbSymbolTableRecord
100
AcDbRegAppTableRecord
  2
ACAD_DSTYLE_DIM_EXT2_LINETYPE
 70
     0
  0
APPID
  5
DA2
330
9
100
AcDbSymbolTableRecord
100
AcDbRegAppTableRecord
  2
ACAD_EXEMPT_FROM_CAD_STANDARDS
 70
     0
  0
APPID
  5
F18
330
9
100
AcDbSymbolTableRecord
100
AcDbRegAppTableRecord
  2
AcadAnnoMonitorAlertIconDisabled
 70
     0
  0
ENDTAB
  0
TABLE
  2
DIMSTYLE
  5
A
330
0
100
AcDbSymbolTable
 70
     9
100
AcDbDimStyleTable
 71
     1
340
3F
  0
DIMSTYLE
105
3F
102
{ACAD_REACTORS
330
520
330
52D
330
AFF
330
B00
330
506
330
F46
102
}
330
A
100
AcDbSymbolTableRecord
100
AcDbDimStyleTableRecord
  2
STANDARD
 70
     0
 41
2.5
 42
0.0
 43
3.75
 44
1.25
 73
     0
 74
     0
 77
     1
 78
     8
 79
     2
140
3.5
141
0.0
143
0.039370078
147
0.625
171
     3
179
     2
271
     2
272
     2
274
     3
283
     0
284
     8
340
1E
  0
DIMSTYLE
105
638
330
A
100
AcDbSymbolTableRecord
100
AcDbDimStyleTableRecord
  2
AM_ISO
 70
     0
  4
"
 41
3.5
 42
1.0
 43
10.0
 44
1.0
 47
0.1
 48
0.1
 73
     0
 74
     0
 77
     1
 78
     8
 79
     2
140
3.5
141
0.0
143
0.0393701
146
0.71
147
1.5
172
     1
176
   256
177
   256
178
   140
271
     2
272
     3
274
     4
283
     0
284
     8
340
10
371
    -1
372
    -1
1001
ACAD_DSTYLE_DIMJAG
1070
   388
1040
1.5
1001
ACAD_DSTYLE_DIMBREAK
1070
   391
1040
3.75
1001
ACAD_DSTYLE_DIMARC_LENGTH_SYMBOL
1070
   379
1070
     1
1001
ACAD_DSTYLE_DIM_LINETYPE
1070
   380
1005
12
1001
ACAD_DSTYLE_DIM_EXT1_LINETYPE
1070
   381
1005
12
1001
ACAD_DSTYLE_DIM_EXT2_LINETYPE
1070
   382
1005
12
  0
DIMSTYLE
105
63C
330
A
100
AcDbSymbolTableRecord
100
AcDbDimStyleTableRecord
  2
AM_ISO$3
 70
     0
  4
"
 41
3.5
 42
1.0
 43
10.0
 44
1.0
 47
0.1
 48
0.1
 73
     0
 77
     1
 78
     8
 79
     2
140
3.5
141
0.0
143
0.0393701
146
0.71
147
1.5
176
   256
177
   256
178
   140
271
     2
272
     3
274
     4
283
     0
284
     8
288
     1
289
     0
340
10
371
    -1
372
    -1
1001
ACAD_DSTYLE_DIMBREAK
1070
   391
1040
3.75
1001
ACAD_DSTYLE_DIMJAG
1070
   388
1040
1.5
1001
ACAD_DSTYLE_DIMARC_LENGTH_SYMBOL
1070
   379
1070
     1
1001
ACAD_DSTYLE_DIM_LINETYPE
1070
   380
1005
12
1001
ACAD_DSTYLE_DIM_EXT1_LINETYPE
1070
   381
1005
12
1001
ACAD_DSTYLE_DIM_EXT2_LINETYPE
1070
   382
1005
12
  0
DIMSTYLE
105
63D
330
A
100
AcDbSymbolTableRecord
100
AcDbDimStyleTableRecord
  2
AM_ISO$4
 70
     0
  4
"
 41
3.5
 42
1.0
 43
10.0
 44
1.0
 47
0.1
 48
0.1
 73
     0
 77
     1
 78
     8
 79
     2
140
3.5
141
0.0
143
0.0393701
146
0.71
147
1.5
176
   256
177
   256
178
   140
271
     2
272
     3
274
     4
283
     0
284
     8
288
     1
289
     0
340
10
371
    -1
372
    -1
1001
ACAD_DSTYLE_DIMBREAK
1070
   391
1040
3.75
1001
ACAD_DSTYLE_DIMJAG
1070
   388
1040
1.5
1001
ACAD_DSTYLE_DIMARC_LENGTH_SYMBOL
1070
   379
1070
     1
1001
ACAD_DSTYLE_DIM_LINETYPE
1070
   380
1005
12
1001
ACAD_DSTYLE_DIM_EXT1_LINETYPE
1070
   381
1005
12
1001
ACAD_DSTYLE_DIM_EXT2_LINETYPE
1070
   382
1005
12
  0
DIMSTYLE
105
63E
330
A
100
AcDbSymbolTableRecord
100
AcDbDimStyleTableRecord
  2
AM_ISO$6
 70
     0
  4
"
 41
3.5
 42
1.0
 43
10.0
 44
1.0
 47
0.1
 48
0.1
 73
     0
 74
     0
 78
     8
 79
     2
140
3.5
141
0.0
143
0.0393701
146
0.71
147
1.5
172
     1
176
   256
177
   256
178
   140
271
     2
272
     3
274
     4
283
     0
284
     8
340
10
371
    -1
372
    -1
1001
ACAD_DSTYLE_DIMBREAK
1070
   391
1040
3.75
1001
ACAD_DSTYLE_DIMJAG
1070
   388
1040
1.5
1001
ACAD_DSTYLE_DIMARC_LENGTH_SYMBOL
1070
   379
1070
     1
1001
ACAD_DSTYLE_DIM_LINETYPE
1070
   380
1005
12
1001
ACAD_DSTYLE_DIM_EXT1_LINETYPE
1070
   381
1005
12
1001
ACAD_DSTYLE_DIM_EXT2_LINETYPE
1070
   382
1005
12
  0
DIMSTYLE
105
63F
330
A
100
AcDbSymbolTableRecord
100
AcDbDimStyleTableRecord
  2
AM_ISO$7
 70
     0
  4
"
 41
3.5
 42
1.0
 43
10.0
 44
1.0
 47
0.1
 48
0.1
 73
     0
 74
     0
 77
     1
 78
     8
 79
     2
140
3.5
141
0.0
143
0.0393701
146
0.71
147
1.5
172
     1
176
   256
177
   256
178
   140
271
     2
272
     3
274
     4
283
     0
284
     8
340
10
371
    -1
372
    -1
1001
ACAD_DSTYLE_DIMBREAK
1070
   391
1040
3.75
1001
ACAD_DSTYLE_DIMJAG
1070
   388
1040
1.5
1001
ACAD_DSTYLE_DIMARC_LENGTH_SYMBOL
1070
   379
1070
     1
1001
ACAD_DSTYLE_DIM_LINETYPE
1070
   380
1005
12
1001
ACAD_DSTYLE_DIM_EXT1_LINETYPE
1070
   381
1005
12
1001
ACAD_DSTYLE_DIM_EXT2_LINETYPE
1070
   382
1005
12
  0
DIMSTYLE
105
640
330
A
100
AcDbSymbolTableRecord
100
AcDbDimStyleTableRecord
  2
AM_ISO$SF
 70
     0
  4
"
 41
3.5
 42
1.0
 43
10.0
 44
1.0
 47
0.1
 48
0.1
 73
     0
 74
     0
 75
     1
 76
     1
 77
     1
 78
     8
 79
     2
140
3.5
141
0.0
143
0.0393701
146
0.71
147
1.5
172
     1
176
   256
177
   256
178
   140
271
     2
272
     3
274
     4
283
     0
284
     8
340
10
371
    -1
372
    -1
1001
ACAD_DSTYLE_DIMBREAK
1070
   391
1040
3.75
1001
ACAD_DSTYLE_DIMJAG
1070
   388
1040
1.5
1001
ACAD_DSTYLE_DIMARC_LENGTH_SYMBOL
1070
   379
1070
     1
1001
ACAD_DSTYLE_DIM_LINETYPE
1070
   380
1005
12
1001
ACAD_DSTYLE_DIM_EXT1_LINETYPE
1070
   381
1005
12
1001
ACAD_DSTYLE_DIM_EXT2_LINETYPE
1070
   382
1005
12
  0
DIMSTYLE
105
645
330
A
100
AcDbSymbolTableRecord
100
AcDbDimStyleTableRecord
  2
AM_ISO$SH
 70
     0
  4
"
 41
3.5
 42
1.0
 43
10.0
 44
1.0
 47
0.1
 48
0.1
 73
     0
 74
     0
 75
     1
 76
     1
 77
     1
 78
     8
 79
     2
140
3.5
141
0.0
143
0.0393701
144
2.0
146
0.71
147
1.5
172
     1
173
     1
176
   256
177
   256
178
   140
271
     2
272
     3
274
     4
283
     0
284
     8
340
10
343
641
371
    -1
372
    -1
1001
ACAD_DSTYLE_DIMBREAK
1070
   391
1040
3.75
1001
ACAD_DSTYLE_DIMJAG
1070
   388
1040
1.5
1001
ACAD_DSTYLE_DIMARC_LENGTH_SYMBOL
1070
   379
1070
     1
1001
ACAD_DSTYLE_DIM_LINETYPE
1070
   380
1005
12
1001
ACAD_DSTYLE_DIM_EXT1_LINETYPE
1070
   381
1005
12
1001
ACAD_DSTYLE_DIM_EXT2_LINETYPE
1070
   382
1005
12
  0
DIMSTYLE
105
689
330
A
100
AcDbSymbolTableRecord
100
AcDbDimStyleTableRecord
  2
STANDARD$0
 70
     0
 41
2.5
 42
0.0
 43
3.75
 44
1.25
 73
     0
 74
     0
 77
     1
 78
     8
 79
     2
140
3.5
141
0.0
143
0.039370078
147
0.625
171
     3
179
     2
271
     2
272
     2
274
     3
283
     0
284
     8
340
1E
1001
ACAD_DSTYLE_DIMBREAK
1070
   391
1040
3.75
1001
ACAD_DSTYLE_DIMJAG
1070
   388
1040
1.5
  0
ENDTAB
  0
TABLE
  2
BLOCK_RECORD
  5
1
330
0
100
AcDbSymbolTable
 70
    16
  0
BLOCK_RECORD
  5
18
102
{ACAD_XDICTIONARY
360
B89
102
}
330
1
100
AcDbSymbolTableRecord
100
AcDbBlockTableRecord
  2
*MODEL_SPACE
340
303
  0
BLOCK_RECORD
  5
338
330
1
100
AcDbSymbolTableRecord
100
AcDbBlockTableRecord
  2
*Paper_Space
340
33B
  0
BLOCK_RECORD
  5
507
330
1
100
AcDbSymbolTableRecord
100
AcDbBlockTableRecord
  2
*D0
340
0
  0
BLOCK_RECORD
  5
514
330
1
100
AcDbSymbolTableRecord
100
AcDbBlockTableRecord
  2
*D1
340
0
  0
BLOCK_RECORD
  5
521
330
1
100
AcDbSymbolTableRecord
100
AcDbBlockTableRecord
  2
*D2
340
0
  0
BLOCK_RECORD
  5
52E
330
1
100
AcDbSymbolTableRecord
100
AcDbBlockTableRecord
  2
*D3
340
0
  0
BLOCK_RECORD
  5
641
330
1
100
AcDbSymbolTableRecord
100
AcDbBlockTableRecord
  2
GENAXEH
340
0
  0
BLOCK_RECORD
  5
B01
330
1
100
AcDbSymbolTableRecord
100
AcDbBlockTableRecord
  2
*D5
340
0
  0
BLOCK_RECORD
  5
B0D
330
1
100
AcDbSymbolTableRecord
100
AcDbBlockTableRecord
  2
*D6
340
0
  0
BLOCK_RECORD
  5
E08
330
1
100
AcDbSymbolTableRecord
100
AcDbBlockTableRecord
  2
*D7
340
0
  0
BLOCK_RECORD
  5
E20
330
1
100
AcDbSymbolTableRecord
100
AcDbBlockTableRecord
  2
*D8
340
0
  0
BLOCK_RECORD
  5
E54
330
1
100
AcDbSymbolTableRecord
100
AcDbBlockTableRecord
  2
*D9
340
0
  0
BLOCK_RECORD
  5
E75
330
1
100
AcDbSymbolTableRecord
100
AcDbBlockTableRecord
  2
*D10
340
0
  0
BLOCK_RECORD
  5
E8F
330
1
100
AcDbSymbolTableRecord
100
AcDbBlockTableRecord
  2
*D11
340
0
  0
BLOCK_RECORD
  5
F33
330
1
100
AcDbSymbolTableRecord
100
AcDbBlockTableRecord
  2
*D12
340
0
  0
BLOCK_RECORD
  5
F47
330
1
100
AcDbSymbolTableRecord
100
AcDbBlockTableRecord
  2
*D13
340
0
  0
BLOCK_RECORD
  5
F6F
330
1
100
AcDbSymbolTableRecord
100
AcDbBlockTableRecord
  2
*D14
340
0
  0
BLOCK_RECORD
  5
F8E
330
1
100
AcDbSymbolTableRecord
100
AcDbBlockTableRecord
  2
*D15
340
0
  0
ENDTAB
  0
ENDSEC
  0
SECTION
  2
BLOCKS
  0
BLOCK
  5
32
330
18
100
AcDbEntity
  8
0
100
AcDbBlockBegin
  2
*MODEL_SPACE
 70
     0
 10
0.0
 20
0.0
 30
0.0
  3
*MODEL_SPACE
  1

  0
ENDBLK
  5
33
330
18
100
AcDbEntity
  8
0
100
AcDbBlockEnd
  0
BLOCK
  5
339
330
338
100
AcDbEntity
 67
     1
  8
0
100
AcDbBlockBegin
  2
*Paper_Space
 70
     0
 10
0.0
 20
0.0
 30
0.0
  3
*Paper_Space
  1

  0
ENDBLK
  5
33A
330
338
100
AcDbEntity
 67
     1
  8
0
100
AcDbBlockEnd
  0
BLOCK
  5
511
330
507
100
AcDbEntity
  8
0
100
AcDbBlockBegin
  2
*D0
 70
     1
 10
0.0
 20
0.0
 30
0.0
  3
*D0
  1

  0
LINE
  5
EFB
330
507
100
AcDbEntity
  8
2
 62
     0
440
 16777216
370
    -2
100
AcDbLine
 10
0.0
 20
0.0
 30
0.0
 11
0.0000000000000047
 21
76.25
 31
0.0
  0
LINE
  5
EFC
330
507
100
AcDbEntity
  8
2
 62
     0
440
 16777216
370
    -2
100
AcDbLine
 10
30.0
 20
0.0358404818432132
 30
0.0
 11
30.0
 21
76.25
 31
0.0
  0
LINE
  5
EFD
330
507
100
AcDbEntity
  8
2
 62
     0
440
 16777216
370
    -2
100
AcDbLine
 10
2.500000000000003
 20
75.0
 30
0.0
 11
27.5
 21
75.0
 31
0.0
  0
SOLID
  5
EFE
330
507
100
AcDbEntity
  8
2
 62
     0
440
 16777216
100
AcDbTrace
 10
2.500000000000003
 20
75.41666666666667
 30
0.0
 11
2.500000000000003
 21
74.58333333333333
 31
0.0
 12
0.0000000000000046
 22
75.0
 32
0.0
 13
0.0000000000000046
 23
75.0
 33
0.0
  0
SOLID
  5
EFF
330
507
100
AcDbEntity
  8
2
 62
     0
440
 16777216
100
AcDbTrace
 10
27.5
 20
75.41666666666667
 30
0.0
 11
27.5
 21
74.58333333333333
 31
0.0
 12
30.0
 22
75.0
 32
0.0
 13
30.0
 23
75.0
 33
0.0
  0
MTEXT
  5
F00
330
507
100
AcDbEntity
  8
2
 62
     0
440
 16777216
100
AcDbMText
 10
15.0
 20
77.375
 30
0.0
 40
3.5
 41
0.0
 71
     5
 72
     1
  1
30
  7
SIMPLEX
 73
     1
 44
1.0
  0
POINT
  5
F01
330
507
100
AcDbEntity
  8
DEFPOINTS
 62
     0
440
 16777216
100
AcDbPoint
 10
0.0
 20
0.0
 30
0.0
  0
POINT
  5
F02
330
507
100
AcDbEntity
  8
DEFPOINTS
 62
     0
440
 16777216
100
AcDbPoint
 10
30.0
 20
0.0358404818432132
 30
0.0
  0
POINT
  5
F03
330
507
100
AcDbEntity
  8
DEFPOINTS
 62
     0
440
 16777216
100
AcDbPoint
 10
30.0
 20
75.0
 30
0.0
  0
ENDBLK
  5
512
330
507
100
AcDbEntity
  8
0
100
AcDbBlockEnd
  0
BLOCK
  5
51E
330
514
100
AcDbEntity
  8
0
100
AcDbBlockBegin
  2
*D1
 70
     1
 10
0.0
 20
0.0
 30
0.0
  3
*D1
  1

  0
LINE
  5
EB0
330
514
100
AcDbEntity
  8
2
 62
     0
440
 16777216
370
    -2
100
AcDbLine
 10
6.0
 20
3.0
 30
0.0
 11
6.000000000000002
 21
61.25
 31
0.0
  0
LINE
  5
EB1
330
514
100
AcDbEntity
  8
2
 62
     0
440
 16777216
370
    -2
100
AcDbLine
 10
47.0
 20
4.849519647839488
 30
0.0
 11
47.0
 21
61.25
 31
0.0
  0
LINE
  5
EB2
330
514
100
AcDbEntity
  8
2
 62
     0
440
 16777216
370
    -2
100
AcDbLine
 10
8.500000000000001
 20
60.0
 30
0.0
 11
44.5
 21
60.0
 31
0.0
  0
SOLID
  5
EB3
330
514
100
AcDbEntity
  8
2
 62
     0
440
 16777216
100
AcDbTrace
 10
8.500000000000001
 20
60.41666666666666
 30
0.0
 11
8.500000000000001
 21
59.58333333333333
 31
0.0
 12
6.000000000000002
 22
60.0
 32
0.0
 13
6.000000000000002
 23
60.0
 33
0.0
  0
SOLID
  5
EB4
330
514
100
AcDbEntity
  8
2
 62
     0
440
 16777216
100
AcDbTrace
 10
44.5
 20
60.41666666666666
 30
0.0
 11
44.5
 21
59.58333333333333
 31
0.0
 12
47.0
 22
60.0
 32
0.0
 13
47.0
 23
60.0
 33
0.0
  0
MTEXT
  5
EB5
330
514
100
AcDbEntity
  8
2
 62
     0
440
 16777216
100
AcDbMText
 10
26.5
 20
62.375
 30
0.0
 40
3.5
 41
0.0
 71
     5
 72
     1
  1
41
  7
SIMPLEX
 73
     1
 44
1.0
  0
POINT
  5
EB6
330
514
100
AcDbEntity
  8
DEFPOINTS
 62
     0
440
 16777216
100
AcDbPoint
 10
6.0
 20
3.0
 30
0.0
  0
POINT
  5
EB7
330
514
100
AcDbEntity
  8
DEFPOINTS
 62
     0
440
 16777216
100
AcDbPoint
 10
47.0
 20
4.849519647839488
 30
0.0
  0
POINT
  5
EB8
330
514
100
AcDbEntity
  8
DEFPOINTS
 62
     0
440
 16777216
100
AcDbPoint
 10
47.0
 20
60.0
 30
0.0
  0
ENDBLK
  5
51F
330
514
100
AcDbEntity
  8
0
100
AcDbBlockEnd
  0
BLOCK
  5
52B
330
521
100
AcDbEntity
  8
0
100
AcDbBlockBegin
  2
*D2
 70
     1
 10
0.0
 20
0.0
 30
0.0
  3
*D2
  1

  0
LINE
  5
E49
330
521
100
AcDbEntity
  8
SK2
 62
     0
440
 16777216
370
    -2
100
AcDbLine
 10
-35.7
 20
3.000000000000001
 30
0.0
 11
-56.24999999997448
 21
3.000000000000006
 31
0.0
  0
LINE
  5
E4A
330
521
100
AcDbEntity
  8
SK2
 62
     0
440
 16777216
370
    -2
100
AcDbLine
 10
-35.7
 20
-2.999999999999998
 30
0.0
 11
-56.24999999997448
 21
-2.999999999999991
 31
0.0
  0
LINE
  5
E4B
330
521
100
AcDbEntity
  8
SK2
 62
     0
440
 16777216
370
    -2
100
AcDbLine
 10
-54.99999999997448
 20
5.500000000000007
 30
0.0
 11
-54.99999999997448
 21
8.000000000000008
 31
0.0
  0
LINE
  5
E4C
330
521
100
AcDbEntity
  8
SK2
 62
     0
440
 16777216
370
    -2
100
AcDbLine
 10
-54.99999999997448
 20
-5.499999999999992
 30
0.0
 11
-54.99999999997448
 21
-14.58333333333333
 31
0.0
  0
SOLID
  5
E4D
330
521
100
AcDbEntity
  8
SK2
 62
     0
440
 16777216
100
AcDbTrace
 10
-55.41666666664114
 20
5.500000000000007
 30
0.0
 11
-54.58333333330781
 21
5.500000000000007
 31
0.0
 12
-54.99999999997448
 22
3.000000000000006
 32
0.0
 13
-54.99999999997448
 23
3.000000000000006
 33
0.0
  0
SOLID
  5
E4E
330
521
100
AcDbEntity
  8
SK2
 62
     0
440
 16777216
100
AcDbTrace
 10
-55.41666666664114
 20
-5.499999999999992
 30
0.0
 11
-54.58333333330781
 21
-5.499999999999992
 31
0.0
 12
-54.99999999997448
 22
-2.999999999999993
 32
0.0
 13
-54.99999999997448
 23
-2.999999999999993
 33
0.0
  0
MTEXT
  5
E4F
330
521
100
AcDbEntity
  8
SK2
 62
     0
440
 16777216
100
AcDbMText
 10
-57.37499999997448
 20
-11.29166666666667
 30
0.0
 40
3.5
 41
0.0
 71
     5
 72
     1
  1
%%c6
  7
SIMPLEX
 11
0.0000000000000001
 21
1.0
 31
0.0
 73
     1
 44
1.0
  0
POINT
  5
E50
330
521
100
AcDbEntity
  8
DEFPOINTS
 62
     0
440
 16777216
100
AcDbPoint
 10
-35.7
 20
3.000000000000001
 30
0.0
  0
POINT
  5
E51
330
521
100
AcDbEntity
  8
DEFPOINTS
 62
     0
440
 16777216
100
AcDbPoint
 10
-35.7
 20
-2.999999999999998
 30
0.0
  0
POINT
  5
E52
330
521
100
AcDbEntity
  8
DEFPOINTS
 62
     0
440
 16777216
100
AcDbPoint
 10
-54.99999999997448
 20
-2.999999999999993
 30
0.0
  0
ENDBLK
  5
52C
330
521
100
AcDbEntity
  8
0
100
AcDbBlockEnd
  0
BLOCK
  5
538
330
52E
100
AcDbEntity
  8
0
100
AcDbBlockBegin
  2
*D3
 70
     1
 10
0.0
 20
0.0
 30
0.0
  3
*D3
  1

  0
LINE
  5
EE9
330
52E
100
AcDbEntity
  8
SK2
 62
     0
440
 16777216
370
    -2
100
AcDbLine
 10
-36.0
 20
0.0000000000000013
 30
0.0
 11
-36.0
 21
91.25
 31
0.0
  0
LINE
  5
EEA
330
52E
100
AcDbEntity
  8
SK2
 62
     0
440
 16777216
370
    -2
100
AcDbLine
 10
30.0
 20
0.0222614968836608
 30
0.0
 11
30.00000000000001
 21
91.25
 31
0.0
  0
LINE
  5
EEB
330
52E
100
AcDbEntity
  8
SK2
 62
     0
440
 16777216
370
    -2
100
AcDbLine
 10
-33.5
 20
90.0
 30
0.0
 11
27.50000000000001
 21
90.0
 31
0.0
  0
SOLID
  5
EEC
330
52E
100
AcDbEntity
  8
SK2
 62
     0
440
 16777216
100
AcDbTrace
 10
-33.5
 20
90.41666666666669
 30
0.0
 11
-33.5
 21
89.58333333333332
 31
0.0
 12
-36.0
 22
90.0
 32
0.0
 13
-36.0
 23
90.0
 33
0.0
  0
SOLID
  5
EED
330
52E
100
AcDbEntity
  8
SK2
 62
     0
440
 16777216
100
AcDbTrace
 10
27.50000000000001
 20
90.41666666666669
 30
0.0
 11
27.50000000000001
 21
89.58333333333332
 31
0.0
 12
30.00000000000001
 22
90.0
 32
0.0
 13
30.00000000000001
 23
90.0
 33
0.0
  0
MTEXT
  5
EEE
330
52E
100
AcDbEntity
  8
SK2
 62
     0
440
 16777216
100
AcDbMText
 10
-2.999999999999991
 20
92.375
 30
0.0
 40
3.5
 41
0.0
 71
     5
 72
     1
  1
66
  7
SIMPLEX
 73
     1
 44
1.0
  0
POINT
  5
EEF
330
52E
100
AcDbEntity
  8
DEFPOINTS
 62
     0
440
 16777216
100
AcDbPoint
 10
-36.0
 20
0.0000000000000013
 30
0.0
  0
POINT
  5
EF0
330
52E
100
AcDbEntity
  8
DEFPOINTS
 62
     0
440
 16777216
100
AcDbPoint
 10
30.0
 20
0.0222614968836608
 30
0.0
  0
POINT
  5
EF1
330
52E
100
AcDbEntity
  8
DEFPOINTS
 62
     0
440
 16777216
100
AcDbPoint
 10
30.00000000000001
 20
90.0
 30
0.0
  0
ENDBLK
  5
539
330
52E
100
AcDbEntity
  8
0
100
AcDbBlockEnd
  0
BLOCK
  5
643
330
641
100
AcDbEntity
  8
0
100
AcDbBlockBegin
  2
GENAXEH
 70
     0
 10
0.0
 20
0.0
 30
0.0
  3
GENAXEH
  1

  0
LINE
  5
642
330
641
100
AcDbEntity
  8
0
100
AcDbLine
 10
-1.0
 20
0.0
 30
0.0
 11
1.0
 21
0.0
 31
0.0
  0
ENDBLK
  5
644
330
641
100
AcDbEntity
  8
0
100
AcDbBlockEnd
  0
BLOCK
  5
B02
330
B01
100
AcDbEntity
  8
0
100
AcDbBlockBegin
  2
*D5
 70
     1
 10
0.0
 20
0.0
 30
0.0
  3
*D5
  1

  0
LINE
  5
EC4
330
B01
100
AcDbEntity
  8
2
 62
     0
440
 16777216
370
    -2
100
AcDbLine
 10
29.90010847732915
 20
2.997995780984295
 30
0.0
 11
46.15008074236846
 21
2.99799578098429
 31
0.0
  0
LINE
  5
EC5
330
B01
100
AcDbEntity
  8
2
 62
     0
440
 16777216
370
    -2
100
AcDbLine
 10
29.90008074236846
 20
-2.998472469717686
 30
0.0
 11
46.15008074236846
 21
-2.998472469717689
 31
0.0
  0
LINE
  5
EC6
330
B01
100
AcDbEntity
  8
2
 62
     0
440
 16777216
370
    -2
100
AcDbLine
 10
44.90008074236846
 20
5.497995780984289
 30
0.0
 11
44.90008074236846
 21
7.997995780984289
 31
0.0
  0
LINE
  5
EC7
330
B01
100
AcDbEntity
  8
2
 62
     0
440
 16777216
370
    -2
100
AcDbLine
 10
44.90008074236846
 20
-5.49847246971769
 30
0.0
 11
44.90008074236846
 21
-14.58180580305102
 31
0.0
  0
SOLID
  5
EC8
330
B01
100
AcDbEntity
  8
2
 62
     0
440
 16777216
100
AcDbTrace
 10
44.4834140757018
 20
5.497995780984289
 30
0.0
 11
45.31674740903513
 21
5.497995780984289
 31
0.0
 12
44.90008074236846
 22
2.99799578098429
 32
0.0
 13
44.90008074236846
 23
2.99799578098429
 33
0.0
  0
SOLID
  5
EC9
330
B01
100
AcDbEntity
  8
2
 62
     0
440
 16777216
100
AcDbTrace
 10
44.4834140757018
 20
-5.49847246971769
 30
0.0
 11
45.31674740903513
 21
-5.49847246971769
 31
0.0
 12
44.90008074236846
 22
-2.998472469717689
 32
0.0
 13
44.90008074236846
 23
-2.998472469717689
 33
0.0
  0
MTEXT
  5
ECA
330
B01
100
AcDbEntity
  8
2
 62
     0
440
 16777216
100
AcDbMText
 10
42.52508074236845
 20
-11.29013913638435
 30
0.0
 40
3.5
 41
0.0
 71
     5
 72
     1
  1
%%c6
  7
SIMPLEX
 11
0.0000000000000001
 21
1.0
 31
0.0
 73
     1
 44
1.0
  0
POINT
  5
ECB
330
B01
100
AcDbEntity
  8
DEFPOINTS
 62
     0
440
 16777216
100
AcDbPoint
 10
29.90010847732915
 20
2.997995780984295
 30
0.0
  0
POINT
  5
ECC
330
B01
100
AcDbEntity
  8
DEFPOINTS
 62
     0
440
 16777216
100
AcDbPoint
 10
29.90008074236846
 20
-2.998472469717686
 30
0.0
  0
POINT
  5
ECD
330
B01
100
AcDbEntity
  8
DEFPOINTS
 62
     0
440
 16777216
100
AcDbPoint
 10
44.90008074236846
 20
-2.998472469717689
 30
0.0
  0
ENDBLK
  5
B03
330
B01
100
AcDbEntity
  8
0
100
AcDbBlockEnd
  0
BLOCK
  5
B0E
330
B0D
100
AcDbEntity
  8
0
100
AcDbBlockBegin
  2
*D6
 70
     1
 10
0.0
 20
0.0
 30
0.0
  3
*D6
  1

  0
LINE
  5
F24
330
B0D
100
AcDbEntity
  8
2
 62
     0
440
 16777216
370
    -2
100
AcDbLine
 10
29.90010847732915
 20
2.997995780984295
 30
0.0
 11
29.90010847732915
 21
19.24799578098429
 31
0.0
  0
LINE
  5
F25
330
B0D
100
AcDbEntity
  8
2
 62
     0
440
 16777216
370
    -2
100
AcDbLine
 10
30.0
 20
2.997995780984295
 30
0.0
 11
30.0
 21
19.24799578098429
 31
0.0
  0
LINE
  5
F26
330
B0D
100
AcDbEntity
  8
2
 62
     0
440
 16777216
370
    -2
100
AcDbLine
 10
27.40010847732915
 20
17.99799578098429
 30
0.0
 11
24.90010847732915
 21
17.99799578098429
 31
0.0
  0
LINE
  5
F27
330
B0D
100
AcDbEntity
  8
2
 62
     0
440
 16777216
370
    -2
100
AcDbLine
 10
32.5
 20
17.99799578098429
 30
0.0
 11
54.08333333333333
 21
17.99799578098429
 31
0.0
  0
SOLID
  5
F28
330
B0D
100
AcDbEntity
  8
2
 62
     0
440
 16777216
100
AcDbTrace
 10
27.40010847732915
 20
18.41466244765096
 30
0.0
 11
27.40010847732915
 21
17.58132911431762
 31
0.0
 12
29.90010847732915
 22
17.99799578098429
 32
0.0
 13
29.90010847732915
 23
17.99799578098429
 33
0.0
  0
SOLID
  5
F29
330
B0D
100
AcDbEntity
  8
2
 62
     0
440
 16777216
100
AcDbTrace
 10
32.5
 20
18.41466244765096
 30
0.0
 11
32.5
 21
17.58132911431762
 31
0.0
 12
30.0
 22
17.99799578098429
 32
0.0
 13
30.0
 23
17.99799578098429
 33
0.0
  0
MTEXT
  5
F2A
330
B0D
100
AcDbEntity
  8
2
 62
     0
440
 16777216
100
AcDbMText
 10
44.54166666666664
 20
20.37299578098429
 30
0.0
 40
3.5
 41
0.0
 71
     5
 72
     1
  1
0.1x45°
  7
SIMPLEX
 73
     1
 44
1.0
  0
POINT
  5
F2B
330
B0D
100
AcDbEntity
  8
DEFPOINTS
 62
     0
440
 16777216
100
AcDbPoint
 10
29.90010847732915
 20
2.997995780984295
 30
0.0
  0
POINT
  5
F2C
330
B0D
100
AcDbEntity
  8
DEFPOINTS
 62
     0
440
 16777216
100
AcDbPoint
 10
30.0
 20
2.997995780984295
 30
0.0
  0
POINT
  5
F2D
330
B0D
100
AcDbEntity
  8
DEFPOINTS
 62
     0
440
 16777216
100
AcDbPoint
 10
30.0
 20
17.99799578098429
 30
0.0
  0
ENDBLK
  5
B0F
330
B0D
100
AcDbEntity
  8
0
100
AcDbBlockEnd
  0
BLOCK
  5
E09
330
E08
100
AcDbEntity
  8
0
100
AcDbBlockBegin
  2
*D7
 70
     1
 10
0.0
 20
0.0
 30
0.0
  3
*D7
  1

  0
LINE
  5
E15
330
E08
100
AcDbEntity
  8
1
  6
ByBlock
 62
     0
440
 16777216
370
    -2
100
AcDbLine
 10
0.0
 20
0.0
 30
0.0
 11
0.0000000000000008
 21
12.94350875036019
 31
0.0
  0
LINE
  5
E16
330
E08
100
AcDbEntity
  8
1
  6
ByBlock
 62
     0
440
 16777216
370
    -2
100
AcDbLine
 10
-24.0
 20
0.0
 30
0.0
 11
-24.0
 21
12.94350875036019
 31
0.0
  0
LINE
  5
E17
330
E08
100
AcDbEntity
  8
1
  6
ByBlock
 62
     0
440
 16777216
370
    -2
100
AcDbLine
 10
-2.499999999999999
 20
11.69350875036019
 30
0.0
 11
-21.5
 21
11.69350875036019
 31
0.0
  0
SOLID
  5
E18
330
E08
100
AcDbEntity
  8
1
 62
     0
440
 16777216
100
AcDbTrace
 10
-2.499999999999999
 20
12.11017541702686
 30
0.0
 11
-2.499999999999999
 21
11.27684208369353
 31
0.0
 12
0.0000000000000007
 22
11.69350875036019
 32
0.0
 13
0.0000000000000007
 23
11.69350875036019
 33
0.0
  0
SOLID
  5
E19
330
E08
100
AcDbEntity
  8
1
 62
     0
440
 16777216
100
AcDbTrace
 10
-21.5
 20
12.11017541702686
 30
0.0
 11
-21.5
 21
11.27684208369353
 31
0.0
 12
-24.0
 22
11.69350875036019
 32
0.0
 13
-24.0
 23
11.69350875036019
 33
0.0
  0
MTEXT
  5
E1A
330
E08
100
AcDbEntity
  8
1
 62
     0
440
 16777216
100
AcDbMText
 10
-12.0
 20
14.06850875036019
 30
0.0
 40
3.5
 41
0.0
 71
     5
 72
     1
  1
24
  7
SIMPLEX
 73
     1
 44
1.0
  0
POINT
  5
E1B
330
E08
100
AcDbEntity
  8
DEFPOINTS
 62
     0
440
 16777216
100
AcDbPoint
 10
0.0
 20
0.0
 30
0.0
  0
POINT
  5
E1C
330
E08
100
AcDbEntity
  8
DEFPOINTS
 62
     0
440
 16777216
100
AcDbPoint
 10
-24.0
 20
0.0
 30
0.0
  0
POINT
  5
E1D
330
E08
100
AcDbEntity
  8
DEFPOINTS
 62
     0
440
 16777216
100
AcDbPoint
 10
-24.0
 20
11.69350875036019
 30
0.0
  0
ENDBLK
  5
E0A
330
E08
100
AcDbEntity
  8
0
100
AcDbBlockEnd
  0
BLOCK
  5
E21
330
E20
100
AcDbEntity
  8
0
100
AcDbBlockBegin
  2
*D8
 70
     1
 10
0.0
 20
0.0
 30
0.0
  3
*D8
  1

  0
LINE
  5
E2D
330
E20
100
AcDbEntity
  8
1
  6
ByBlock
 62
     0
440
 16777216
370
    -2
100
AcDbLine
 10
-36.0
 20
2.457738146943234
 30
0.0
 11
-36.0
 21
11.23300797514395
 31
0.0
  0
LINE
  5
E2E
330
E20
100
AcDbEntity
  8
1
  6
ByBlock
 62
     0
440
 16777216
370
    -2
100
AcDbLine
 10
0.0
 20
3.0
 30
0.0
 11
0.0000000000000005
 21
11.23300797514395
 31
0.0
  0
LINE
  5
E2F
330
E20
100
AcDbEntity
  8
1
  6
ByBlock
 62
     0
440
 16777216
370
    -2
100
AcDbLine
 10
-33.5
 20
9.983007975143948
 30
0.0
 11
-2.499999999999999
 21
9.983007975143948
 31
0.0
  0
SOLID
  5
E30
330
E20
100
AcDbEntity
  8
1
 62
     0
440
 16777216
100
AcDbTrace
 10
-33.5
 20
10.39967464181061
 30
0.0
 11
-33.5
 21
9.566341308477284
 31
0.0
 12
-36.0
 22
9.983007975143948
 32
0.0
 13
-36.0
 23
9.983007975143948
 33
0.0
  0
SOLID
  5
E31
330
E20
100
AcDbEntity
  8
1
 62
     0
440
 16777216
100
AcDbTrace
 10
-2.499999999999999
 20
10.39967464181061
 30
0.0
 11
-2.499999999999999
 21
9.566341308477284
 31
0.0
 12
0.0000000000000004
 22
9.983007975143948
 32
0.0
 13
0.0000000000000004
 23
9.983007975143948
 33
0.0
  0
MTEXT
  5
E32
330
E20
100
AcDbEntity
  8
1
 62
     0
440
 16777216
100
AcDbMText
 10
-18.0
 20
12.35800797514395
 30
0.0
 40
3.5
 41
0.0
 71
     5
 72
     1
  1
36
  7
SIMPLEX
 73
     1
 44
1.0
  0
POINT
  5
E33
330
E20
100
AcDbEntity
  8
DEFPOINTS
 62
     0
440
 16777216
100
AcDbPoint
 10
-36.0
 20
2.457738146943234
 30
0.0
  0
POINT
  5
E34
330
E20
100
AcDbEntity
  8
DEFPOINTS
 62
     0
440
 16777216
100
AcDbPoint
 10
0.0
 20
3.0
 30
0.0
  0
POINT
  5
E35
330
E20
100
AcDbEntity
  8
DEFPOINTS
 62
     0
440
 16777216
100
AcDbPoint
 10
0.0000000000000004
 20
9.983007975143948
 30
0.0
  0
ENDBLK
  5
E22
330
E20
100
AcDbEntity
  8
0
100
AcDbBlockEnd
  0
BLOCK
  5
E55
330
E54
100
AcDbEntity
  8
0
100
AcDbBlockBegin
  2
*D9
 70
     1
 10
0.0
 20
0.0
 30
0.0
  3
*D9
  1

  0
LINE
  5
E6B
330
E54
100
AcDbEntity
  8
1
  6
ByBlock
 62
     0
440
 16777216
370
    -2
100
AcDbLine
 10
-36.0
 20
0.0000000000000015
 30
0.0
 11
-36.0
 21
6.462184792997763
 31
0.0
  0
LINE
  5
E6C
330
E54
100
AcDbEntity
  8
1
  6
ByBlock
 62
     0
440
 16777216
370
    -2
100
AcDbLine
 10
-18.5
 20
2.142428528562854
 30
0.0
 11
-18.5
 21
6.462184792997763
 31
0.0
  0
LINE
  5
E6D
330
E54
100
AcDbEntity
  8
1
  6
ByBlock
 62
     0
440
 16777216
370
    -2
100
AcDbLine
 10
-33.5
 20
5.212184792997764
 30
0.0
 11
-21.0
 21
5.212184792997764
 31
0.0
  0
SOLID
  5
E6E
330
E54
100
AcDbEntity
  8
1
 62
     0
440
 16777216
100
AcDbTrace
 10
-33.5
 20
5.628851459664431
 30
0.0
 11
-33.5
 21
4.795518126331097
 31
0.0
 12
-36.0
 22
5.212184792997764
 32
0.0
 13
-36.0
 23
5.212184792997764
 33
0.0
  0
SOLID
  5
E6F
330
E54
100
AcDbEntity
  8
1
 62
     0
440
 16777216
100
AcDbTrace
 10
-21.0
 20
5.628851459664431
 30
0.0
 11
-21.0
 21
4.795518126331097
 31
0.0
 12
-18.5
 22
5.212184792997764
 32
0.0
 13
-18.5
 23
5.212184792997764
 33
0.0
  0
MTEXT
  5
E70
330
E54
100
AcDbEntity
  8
1
 62
     0
440
 16777216
100
AcDbMText
 10
-27.25
 20
7.587184792997763
 30
0.0
 40
3.5
 41
0.0
 71
     5
 72
     1
  1
17.5
  7
SIMPLEX
 73
     1
 44
1.0
  0
POINT
  5
E71
330
E54
100
AcDbEntity
  8
DEFPOINTS
 62
     0
440
 16777216
100
AcDbPoint
 10
-36.0
 20
0.0000000000000015
 30
0.0
  0
POINT
  5
E72
330
E54
100
AcDbEntity
  8
DEFPOINTS
 62
     0
440
 16777216
100
AcDbPoint
 10
-18.5
 20
2.142428528562854
 30
0.0
  0
POINT
  5
E73
330
E54
100
AcDbEntity
  8
DEFPOINTS
 62
     0
440
 16777216
100
AcDbPoint
 10
-18.5
 20
5.212184792997764
 30
0.0
  0
ENDBLK
  5
E56
330
E54
100
AcDbEntity
  8
0
100
AcDbBlockEnd
  0
BLOCK
  5
E76
330
E75
100
AcDbEntity
  8
0
100
AcDbBlockBegin
  2
*D10
 70
     1
 10
0.0
 20
0.0
 30
0.0
  3
*D10
  1

  0
LINE
  5
E83
330
E75
100
AcDbEntity
  8
1
  6
ByBlock
 62
     0
440
 16777216
370
    -2
100
AcDbLine
 10
-20.6
 20
2.142428528562854
 30
0.0
 11
-20.6
 21
-11.00881437791076
 31
0.0
  0
LINE
  5
E84
330
E75
100
AcDbEntity
  8
1
  6
ByBlock
 62
     0
440
 16777216
370
    -2
100
AcDbLine
 10
-16.4
 20
2.142428528562854
 30
0.0
 11
-16.4
 21
-11.00881437791076
 31
0.0
  0
LINE
  5
E85
330
E75
100
AcDbEntity
  8
1
  6
ByBlock
 62
     0
440
 16777216
370
    -2
100
AcDbLine
 10
-23.1
 20
-9.758814377910765
 30
0.0
 11
-25.6
 21
-9.758814377910765
 31
0.0
  0
LINE
  5
E86
330
E75
100
AcDbEntity
  8
1
  6
ByBlock
 62
     0
440
 16777216
370
    -2
100
AcDbLine
 10
-13.9
 20
-9.758814377910765
 30
0.0
 11
-2.816666666666666
 21
-9.758814377910765
 31
0.0
  0
SOLID
  5
E87
330
E75
100
AcDbEntity
  8
1
 62
     0
440
 16777216
100
AcDbTrace
 10
-23.1
 20
-9.342147711244095
 30
0.0
 11
-23.1
 21
-10.17548104457743
 31
0.0
 12
-20.6
 22
-9.758814377910765
 32
0.0
 13
-20.6
 23
-9.758814377910765
 33
0.0
  0
SOLID
  5
E88
330
E75
100
AcDbEntity
  8
1
 62
     0
440
 16777216
100
AcDbTrace
 10
-13.9
 20
-9.342147711244095
 30
0.0
 11
-13.9
 21
-10.17548104457743
 31
0.0
 12
-16.4
 22
-9.758814377910765
 32
0.0
 13
-16.4
 23
-9.758814377910765
 33
0.0
  0
MTEXT
  5
E89
330
E75
100
AcDbEntity
  8
1
 62
     0
440
 16777216
100
AcDbMText
 10
-7.108333333333332
 20
-7.383814377910766
 30
0.0
 40
3.5
 41
0.0
 71
     5
 72
     1
  1
4.2
  7
SIMPLEX
 73
     1
 44
1.0
  0
POINT
  5
E8A
330
E75
100
AcDbEntity
  8
DEFPOINTS
 62
     0
440
 16777216
100
AcDbPoint
 10
-20.6
 20
2.142428528562854
 30
0.0
  0
POINT
  5
E8B
330
E75
100
AcDbEntity
  8
DEFPOINTS
 62
     0
440
 16777216
100
AcDbPoint
 10
-16.4
 20
2.142428528562854
 30
0.0
  0
POINT
  5
E8C
330
E75
100
AcDbEntity
  8
DEFPOINTS
 62
     0
440
 16777216
100
AcDbPoint
 10
-16.4
 20
-9.758814377910765
 30
0.0
  0
ENDBLK
  5
E77
330
E75
100
AcDbEntity
  8
0
100
AcDbBlockEnd
  0
BLOCK
  5
E90
330
E8F
100
AcDbEntity
  8
0
100
AcDbBlockBegin
  2
*D11
 70
     1
 10
0.0
 20
0.0
 30
0.0
  3
*D11
  1

  0
LINE
  5
EA6
330
E8F
100
AcDbEntity
  8
1
  6
ByBlock
 62
     0
440
 16777216
370
    -2
100
AcDbLine
 10
-36.0
 20
0.0000000000000015
 30
0.0
 11
-36.0
 21
-14.60189633569129
 31
0.0
  0
LINE
  5
EA7
330
E8F
100
AcDbEntity
  8
1
  6
ByBlock
 62
     0
440
 16777216
370
    -2
100
AcDbLine
 10
30.0
 20
0.0
 30
0.0
 11
30.0
 21
-14.60189633569129
 31
0.0
  0
LINE
  5
EA8
330
E8F
100
AcDbEntity
  8
1
  6
ByBlock
 62
     0
440
 16777216
370
    -2
100
AcDbLine
 10
-33.5
 20
-13.35189633569129
 30
0.0
 11
27.5
 21
-13.35189633569129
 31
0.0
  0
SOLID
  5
EA9
330
E8F
100
AcDbEntity
  8
1
 62
     0
440
 16777216
100
AcDbTrace
 10
-33.5
 20
-12.93522966902463
 30
0.0
 11
-33.5
 21
-13.76856300235796
 31
0.0
 12
-36.0
 22
-13.35189633569129
 32
0.0
 13
-36.0
 23
-13.35189633569129
 33
0.0
  0
SOLID
  5
EAA
330
E8F
100
AcDbEntity
  8
1
 62
     0
440
 16777216
100
AcDbTrace
 10
27.5
 20
-12.93522966902463
 30
0.0
 11
27.5
 21
-13.76856300235796
 31
0.0
 12
30.0
 22
-13.35189633569129
 32
0.0
 13
30.0
 23
-13.35189633569129
 33
0.0
  0
MTEXT
  5
EAB
330
E8F
100
AcDbEntity
  8
1
 62
     0
440
 16777216
100
AcDbMText
 10
-3.0
 20
-10.97689633569129
 30
0.0
 40
3.5
 41
0.0
 71
     5
 72
     1
  1
66
  7
SIMPLEX
 73
     1
 44
1.0
  0
POINT
  5
EAC
330
E8F
100
AcDbEntity
  8
DEFPOINTS
 62
     0
440
 16777216
100
AcDbPoint
 10
-36.0
 20
0.0000000000000015
 30
0.0
  0
POINT
  5
EAD
330
E8F
100
AcDbEntity
  8
DEFPOINTS
 62
     0
440
 16777216
100
AcDbPoint
 10
30.0
 20
0.0
 30
0.0
  0
POINT
  5
EAE
330
E8F
100
AcDbEntity
  8
DEFPOINTS
 62
     0
440
 16777216
100
AcDbPoint
 10
30.0
 20
-13.35189633569129
 30
0.0
  0
ENDBLK
  5
E91
330
E8F
100
AcDbEntity
  8
0
100
AcDbBlockEnd
  0
BLOCK
  5
F34
330
F33
100
AcDbEntity
  8
0
100
AcDbBlockBegin
  2
*D12
 70
     1
 10
0.0
 20
0.0
 30
0.0
  3
*D12
  1

  0
LINE
  5
F35
330
F33
100
AcDbEntity
  8
SK2
 62
     0
440
 16777216
370
    -2
100
AcDbLine
 10
-40.0
 20
0.0
 30
0.0
 11
-40.0
 21
91.25
 31
0.0
  0
LINE
  5
F36
330
F33
100
AcDbEntity
  8
SK2
 62
     0
440
 16777216
370
    -2
100
AcDbLine
 10
47.0
 20
0.0222614968836608
 30
0.0
 11
47.00000000000001
 21
91.25
 31
0.0
  0
LINE
  5
F37
330
F33
100
AcDbEntity
  8
SK2
 62
     0
440
 16777216
370
    -2
100
AcDbLine
 10
-37.5
 20
90.0
 30
0.0
 11
44.50000000000001
 21
90.0
 31
0.0
  0
SOLID
  5
F38
330
F33
100
AcDbEntity
  8
SK2
 62
     0
440
 16777216
100
AcDbTrace
 10
-37.5
 20
90.41666666666669
 30
0.0
 11
-37.5
 21
89.58333333333332
 31
0.0
 12
-40.0
 22
90.0
 32
0.0
 13
-40.0
 23
90.0
 33
0.0
  0
SOLID
  5
F39
330
F33
100
AcDbEntity
  8
SK2
 62
     0
440
 16777216
100
AcDbTrace
 10
44.50000000000001
 20
90.41666666666669
 30
0.0
 11
44.50000000000001
 21
89.58333333333332
 31
0.0
 12
47.00000000000001
 22
90.0
 32
0.0
 13
47.00000000000001
 23
90.0
 33
0.0
  0
MTEXT
  5
F3A
330
F33
100
AcDbEntity
  8
SK2
 62
     0
440
 16777216
100
AcDbMText
 10
3.500000000000006
 20
92.375
 30
0.0
 40
3.5
 41
0.0
 71
     5
 72
     1
  1
87
  7
SIMPLEX
 73
     1
 44
1.0
  0
POINT
  5
F3B
330
F33
100
AcDbEntity
  8
DEFPOINTS
 62
     0
440
 16777216
100
AcDbPoint
 10
-40.0
 20
0.0
 30
0.0
  0
POINT
  5
F3C
330
F33
100
AcDbEntity
  8
DEFPOINTS
 62
     0
440
 16777216
100
AcDbPoint
 10
47.0
 20
0.0222614968836608
 30
0.0
  0
POINT
  5
F3D
330
F33
100
AcDbEntity
  8
DEFPOINTS
 62
     0
440
 16777216
100
AcDbPoint
 10
47.00000000000001
 20
90.0
 30
0.0
  0
ENDBLK
  5
F3E
330
F33
100
AcDbEntity
  8
0
100
AcDbBlockEnd
  0
BLOCK
  5
F48
330
F47
100
AcDbEntity
  8
0
100
AcDbBlockBegin
  2
*D13
 70
     1
 10
0.0
 20
0.0
 30
0.0
  3
*D13
  1

  0
LINE
  5
1054
330
F47
100
AcDbEntity
  8
2
 62
     0
440
 16777216
370
    -2
100
AcDbLine
 10
6.0
 20
2.999792784578126
 30
0.0
 11
6.000000000000002
 21
61.27121468528098
 31
0.0
  0
LINE
  5
1055
330
F47
100
AcDbEntity
  8
2
 62
     0
440
 16777216
370
    -2
100
AcDbLine
 10
30.0
 20
0.0000000000000001
 30
0.0
 11
30.0
 21
61.27121468528098
 31
0.0
  0
LINE
  5
1056
330
F47
100
AcDbEntity
  8
2
 62
     0
440
 16777216
370
    -2
100
AcDbLine
 10
8.500000000000001
 20
60.02121468528098
 30
0.0
 11
27.5
 21
60.02121468528098
 31
0.0
  0
SOLID
  5
1057
330
F47
100
AcDbEntity
  8
2
 62
     0
440
 16777216
100
AcDbTrace
 10
8.500000000000001
 20
60.43788135194765
 30
0.0
 11
8.500000000000001
 21
59.60454801861432
 31
0.0
 12
6.000000000000002
 22
60.02121468528098
 32
0.0
 13
6.000000000000002
 23
60.02121468528098
 33
0.0
  0
SOLID
  5
1058
330
F47
100
AcDbEntity
  8
2
 62
     0
440
 16777216
100
AcDbTrace
 10
27.5
 20
60.43788135194765
 30
0.0
 11
27.5
 21
59.60454801861432
 31
0.0
 12
30.0
 22
60.02121468528098
 32
0.0
 13
30.0
 23
60.02121468528098
 33
0.0
  0
MTEXT
  5
1059
330
F47
100
AcDbEntity
  8
2
 62
     0
440
 16777216
100
AcDbMText
 10
18.0
 20
62.39621468528099
 30
0.0
 40
3.5
 41
0.0
 71
     5
 72
     1
  1
24
  7
SIMPLEX
 73
     1
 44
1.0
  0
POINT
  5
105A
330
F47
100
AcDbEntity
  8
DEFPOINTS
 62
     0
440
 16777216
100
AcDbPoint
 10
6.0
 20
2.999792784578126
 30
0.0
  0
POINT
  5
105B
330
F47
100
AcDbEntity
  8
DEFPOINTS
 62
     0
440
 16777216
100
AcDbPoint
 10
30.0
 20
0.0000000000000001
 30
0.0
  0
POINT
  5
105C
330
F47
100
AcDbEntity
  8
DEFPOINTS
 62
     0
440
 16777216
100
AcDbPoint
 10
30.0
 20
60.02121468528098
 30
0.0
  0
ENDBLK
  5
F49
330
F47
100
AcDbEntity
  8
0
100
AcDbBlockEnd
  0
BLOCK
  5
F70
330
F6F
100
AcDbEntity
  8
0
100
AcDbBlockBegin
  2
*D14
 70
     1
 10
0.0
 20
0.0
 30
0.0
  3
*D14
  1

  0
LINE
  5
F84
330
F6F
100
AcDbEntity
  8
1
  6
ByBlock
 62
     0
440
 16777216
370
    -2
100
AcDbLine
 10
30.00000000000001
 20
90.0
 30
0.0
 11
44.20622278738279
 21
89.99999999999998
 31
0.0
  0
LINE
  5
F85
330
F6F
100
AcDbEntity
  8
1
  6
ByBlock
 62
     0
440
 16777216
370
    -2
100
AcDbLine
 10
30.00000000000001
 20
75.0
 30
0.0
 11
44.20622278738278
 21
74.99999999999999
 31
0.0
  0
LINE
  5
F86
330
F6F
100
AcDbEntity
  8
1
  6
ByBlock
 62
     0
440
 16777216
370
    -2
100
AcDbLine
 10
42.95622278738279
 20
87.49999999999998
 30
0.0
 11
42.95622278738278
 21
77.49999999999999
 31
0.0
  0
SOLID
  5
F87
330
F6F
100
AcDbEntity
  8
1
 62
     0
440
 16777216
100
AcDbTrace
 10
42.53955612071613
 20
87.49999999999998
 30
0.0
 11
43.37288945404945
 21
87.49999999999998
 31
0.0
 12
42.95622278738279
 22
89.99999999999998
 32
0.0
 13
42.95622278738279
 23
89.99999999999998
 33
0.0
  0
SOLID
  5
F88
330
F6F
100
AcDbEntity
  8
1
 62
     0
440
 16777216
100
AcDbTrace
 10
42.53955612071612
 20
77.49999999999999
 30
0.0
 11
43.37288945404945
 21
77.49999999999999
 31
0.0
 12
42.95622278738278
 22
74.99999999999999
 32
0.0
 13
42.95622278738278
 23
74.99999999999999
 33
0.0
  0
MTEXT
  5
F89
330
F6F
100
AcDbEntity
  8
1
 62
     0
440
 16777216
100
AcDbMText
 10
40.58122278738276
 20
82.5
 30
0.0
 40
3.5
 41
0.0
 71
     5
 72
     1
  1
15
  7
SIMPLEX
 11
0.0000000000000001
 21
1.0
 31
0.0
 73
     1
 44
1.0
  0
POINT
  5
F8A
330
F6F
100
AcDbEntity
  8
DEFPOINTS
 62
     0
440
 16777216
100
AcDbPoint
 10
30.00000000000001
 20
90.0
 30
0.0
  0
POINT
  5
F8B
330
F6F
100
AcDbEntity
  8
DEFPOINTS
 62
     0
440
 16777216
100
AcDbPoint
 10
30.00000000000001
 20
75.0
 30
0.0
  0
POINT
  5
F8C
330
F6F
100
AcDbEntity
  8
DEFPOINTS
 62
     0
440
 16777216
100
AcDbPoint
 10
42.95622278738278
 20
74.99999999999999
 30
0.0
  0
ENDBLK
  5
F71
330
F6F
100
AcDbEntity
  8
0
100
AcDbBlockEnd
  0
BLOCK
  5
F8F
330
F8E
100
AcDbEntity
  8
0
100
AcDbBlockBegin
  2
*D15
 70
     1
 10
0.0
 20
0.0
 30
0.0
  3
*D15
  1

  0
LINE
  5
FB6
330
F8E
100
AcDbEntity
  8
1
  6
ByBlock
 62
     0
440
 16777216
370
    -2
100
AcDbLine
 10
30.00000000000001
 20
75.0
 30
0.0
 11
43.42914594103773
 21
74.99999999999999
 31
0.0
  0
LINE
  5
FB7
330
F8E
100
AcDbEntity
  8
1
  6
ByBlock
 62
     0
440
 16777216
370
    -2
100
AcDbLine
 10
30.0
 20
60.02121468528098
 30
0.0
 11
43.42914594103773
 21
60.02121468528098
 31
0.0
  0
LINE
  5
FB8
330
F8E
100
AcDbEntity
  8
1
  6
ByBlock
 62
     0
440
 16777216
370
    -2
100
AcDbLine
 10
42.17914594103771
 20
72.49999999999999
 30
0.0
 11
42.17914594103771
 21
62.52121468528098
 31
0.0
  0
SOLID
  5
FB9
330
F8E
100
AcDbEntity
  8
1
 62
     0
440
 16777216
100
AcDbTrace
 10
41.76247927437108
 20
72.49999999999999
 30
0.0
 11
42.59581260770438
 21
72.49999999999999
 31
0.0
 12
42.17914594103771
 22
74.99999999999999
 32
0.0
 13
42.17914594103771
 23
74.99999999999999
 33
0.0
  0
SOLID
  5
FBA
330
F8E
100
AcDbEntity
  8
1
 62
     0
440
 16777216
100
AcDbTrace
 10
41.76247927437108
 20
62.52121468528098
 30
0.0
 11
42.59581260770438
 21
62.52121468528098
 31
0.0
 12
42.17914594103771
 22
60.02121468528098
 32
0.0
 13
42.17914594103771
 23
60.02121468528098
 33
0.0
  0
MTEXT
  5
FBB
330
F8E
100
AcDbEntity
  8
1
 62
     0
440
 16777216
100
AcDbMText
 10
39.80414594103774
 20
67.5106073426405
 30
0.0
 40
3.5
 41
0.0
 71
     5
 72
     1
  1
14.98
  7
SIMPLEX
 11
0.0000000000000001
 21
1.0
 31
0.0
 73
     1
 44
1.0
  0
POINT
  5
FBC
330
F8E
100
AcDbEntity
  8
DEFPOINTS
 62
     0
440
 16777216
100
AcDbPoint
 10
30.00000000000001
 20
75.0
 30
0.0
  0
POINT
  5
FBD
330
F8E
100
AcDbEntity
  8
DEFPOINTS
 62
     0
440
 16777216
100
AcDbPoint
 10
30.0
 20
60.02121468528098
 30
0.0
  0
POINT
  5
FBE
330
F8E
100
AcDbEntity
  8
DEFPOINTS
 62
     0
440
 16777216
100
AcDbPoint
 10
42.17914594103771
 20
60.02121468528098
 30
0.0
  0
ENDBLK
  5
F90
330
F8E
100
AcDbEntity
  8
0
100
AcDbBlockEnd
  0
ENDSEC
  0
SECTION
  2
ENTITIES
  0
LINE
  5
3C2
330
18
100
AcDbEntity
  8
SK4
100
AcDbLine
 10
-37.21929789283979
 20
0.0000000000000015
 30
0.0
 11
0.0
 21
0.0
 31
0.0
  0
LINE
  5
3C3
330
18
100
AcDbEntity
  8
4
100
AcDbLine
 10
0.0
 20
0.000000000000002
 30
0.0
 11
32.05378225569136
 21
0.0
 31
0.0
  0
LINE
  5
3C6
330
18
100
AcDbEntity
  8
1
 62
     4
100
AcDbLine
 10
5.399999999999997
 20
-2.871367740410131
 30
0.0
 11
5.399999999999997
 21
-2.999999999999998
 31
0.0
  0
LINE
  5
3C7
330
18
100
AcDbEntity
  8
1
 62
     4
100
AcDbLine
 10
5.999999999999997
 20
-2.935421614477698
 30
0.0
 11
5.399999999999997
 21
-2.670883673082304
 31
0.0
  0
ARC
  5
3C8
330
18
100
AcDbEntity
  8
1
 62
     4
100
AcDbCircle
 10
6.622835612453003
 20
2.768472676567399
 30
0.0
 40
5.770878309972672
100
AcDbArc
 50
257.7664336438684
 51
263.8041077949
  0
LINE
  5
3C9
330
18
100
AcDbEntity
  8
1
 62
     4
100
AcDbLine
 10
5.999999999999992
 20
-2.459285885481759
 30
0.0
 11
6.0
 21
-2.968657495856962
 31
0.0
  0
LINE
  5
3CC
330
18
100
AcDbEntity
  8
1
 62
     4
100
AcDbLine
 10
5.399999999999997
 20
-0.5065009118107426
 30
0.0
 11
5.399999999999997
 21
-2.670883673082304
 31
0.0
  0
LINE
  5
3CD
330
18
100
AcDbEntity
  8
1
 62
     4
100
AcDbLine
 10
5.399999999999997
 20
-0.5065009118107426
 30
0.0
 11
5.999999999999997
 21
-0.761370010219236
 31
0.0
  0
ARC
  5
3CE
330
18
100
AcDbEntity
  8
1
 62
     4
100
AcDbCircle
 10
-0.6166216243284375
 20
-10.13847657431319
 30
0.0
 40
12.62504189312806
100
AcDbArc
 50
59.02784707936089
 51
61.5388471887682
  0
LINE
  5
3CF
330
18
100
AcDbEntity
  8
1
 62
     4
100
AcDbLine
 10
5.399999999999997
 20
3.0
 30
0.0
 11
5.399999999999997
 21
2.999792784578126
 31
0.0
  0
LINE
  5
3D0
330
18
100
AcDbEntity
  8
1
 62
     4
100
AcDbLine
 10
5.399999999999997
 20
2.968296722068548
 30
0.0
 11
5.399999999999997
 21
2.93680065955897
 31
0.0
  0
LINE
  5
3D1
330
18
100
AcDbEntity
  8
1
 62
     4
100
AcDbLine
 10
5.399999999999997
 20
2.93680065955897
 30
0.0
 11
5.400003723888093
 21
0.9607081805432184
 31
0.0
  0
LINE
  5
3D2
330
18
100
AcDbEntity
  8
1
100
AcDbLine
 10
0.0000000000000003
 20
3.0
 30
0.0
 11
6.0
 21
3.0
 31
0.0
  0
ARC
  5
3D3
330
18
100
AcDbEntity
  8
1
 62
     4
100
AcDbCircle
 10
6.715565870778115
 20
11.55752532664632
 30
0.0
 40
8.689393625682592
100
AcDbArc
 50
261.2919882056564
 51
265.2763810069255
  0
LINE
  5
3D4
330
18
100
AcDbEntity
  8
1
 62
     4
100
AcDbLine
 10
6.0
 20
1.79900399533403
 30
0.0
 11
6.0
 21
2.968657495856966
 31
0.0
  0
LINE
  5
3D5
330
18
100
AcDbEntity
  8
1
 62
     4
100
AcDbLine
 10
6.0
 20
1.71811318994709
 30
0.0
 11
6.0
 21
1.79900399533403
 31
0.0
  0
LINE
  5
3D6
330
18
100
AcDbEntity
  8
1
 62
     4
100
AcDbLine
 10
6.0
 20
1.718113189947093
 30
0.0
 11
6.0
 21
0.4325189848922761
 31
0.0
  0
LINE
  5
3D7
330
18
100
AcDbEntity
  8
1
 62
     4
100
AcDbLine
 10
6.0
 20
0.2621061483060756
 30
0.0
 11
6.0
 21
0.4325189848922736
 31
0.0
  0
LINE
  5
3D8
330
18
100
AcDbEntity
  8
1
 62
     4
100
AcDbLine
 10
6.0
 20
-2.459285885481759
 30
0.0
 11
6.0
 21
0.2621061483060756
 31
0.0
  0
LINE
  5
3D9
330
18
100
AcDbEntity
  8
1
 62
     4
100
AcDbLine
 10
5.880516469154281
 20
0.6864908927850131
 30
0.0
 11
5.999999999999997
 21
0.6141805545642269
 31
0.0
  0
LINE
  5
3DA
330
18
100
AcDbEntity
  8
1
100
AcDbLine
 10
0.0000000000000003
 20
-2.999911193390625
 30
0.0
 11
5.999999999999997
 21
-3.000207215421871
 31
0.0
  0
LINE
  5
3DB
330
18
100
AcDbEntity
  8
1
 62
     4
100
AcDbLine
 10
6.0
 20
1.718113189947093
 30
0.0
 11
6.0
 21
0.4325189848922761
 31
0.0
  0
LINE
  5
427
330
18
100
AcDbEntity
  8
1
 62
     4
100
AcDbLine
 10
6.0
 20
1.71811318994709
 30
0.0
 11
6.0
 21
1.79900399533403
 31
0.0
  0
LINE
  5
439
330
18
100
AcDbEntity
  8
1
 62
     4
100
AcDbLine
 10
5.999999999999992
 20
-2.459285885481759
 30
0.0
 11
6.0
 21
-2.968657495856962
 31
0.0
  0
LINE
  5
43A
330
18
100
AcDbEntity
  8
1
 62
     4
100
AcDbLine
 10
6.0
 20
-2.459285885481759
 30
0.0
 11
6.0
 21
0.2621061483060756
 31
0.0
  0
LINE
  5
43B
330
18
100
AcDbEntity
  8
1
 62
     4
100
AcDbLine
 10
6.0
 20
0.2621061483060756
 30
0.0
 11
6.0
 21
0.4325189848922736
 31
0.0
  0
LINE
  5
43C
330
18
100
AcDbEntity
  8
1
 62
     4
100
AcDbLine
 10
6.0
 20
1.79900399533403
 30
0.0
 11
6.0
 21
2.999792784578126
 31
0.0
  0
LINE
  5
4F1
330
18
100
AcDbEntity
  8
SK1
100
AcDbLine
 10
0.0000000000000003
 20
3.000000000000001
 30
0.0
 11
-35.7
 21
3.000000000000001
 31
0.0
  0
LINE
  5
4F2
330
18
100
AcDbEntity
  8
SK1
100
AcDbLine
 10
-35.7
 20
3.000000000000001
 30
0.0
 11
-36.0
 21
2.700000000000001
 31
0.0
  0
LINE
  5
4F3
330
18
100
AcDbEntity
  8
SK1
100
AcDbLine
 10
-36.0
 20
2.700000000000001
 30
0.0
 11
-36.0
 21
2.697315678105308
 31
0.0
  0
LINE
  5
4F4
330
18
100
AcDbEntity
  8
SK1
100
AcDbLine
 10
-36.0
 20
2.697315678105308
 30
0.0
 11
-36.0
 21
2.457738146943234
 31
0.0
  0
LINE
  5
4F5
330
18
100
AcDbEntity
  8
SK1
100
AcDbLine
 10
-36.0
 20
2.457738146943234
 30
0.0
 11
-36.0
 21
-2.699999999999998
 31
0.0
  0
LINE
  5
4F6
330
18
100
AcDbEntity
  8
SK1
100
AcDbLine
 10
-35.7
 20
3.000000000000001
 30
0.0
 11
-35.7
 21
-2.999999994159458
 31
0.0
  0
LINE
  5
4F7
330
18
100
AcDbEntity
  8
SK1
100
AcDbLine
 10
0.0000000000000003
 20
-2.999999999999998
 30
0.0
 11
-35.7
 21
-2.999999999999998
 31
0.0
  0
LINE
  5
4F8
330
18
100
AcDbEntity
  8
SK1
100
AcDbLine
 10
-35.7
 20
-2.999999994159458
 30
0.0
 11
-36.0
 21
-2.699999994159457
 31
0.0
  0
DIMENSION
  5
506
330
18
100
AcDbEntity
  8
2
100
AcDbDimension
  2
*D0
 10
30.0
 20
75.0
 30
0.0
 11
15.0
 21
77.375
 31
0.0
 70
    32
  1
<>
 71
     5
 42
30.0
  3
STANDARD
100
AcDbAlignedDimension
 13
0.0
 23
0.0
 33
0.0
 14
30.0
 24
0.0358404818432132
 34
0.0
100
AcDbRotatedDimension
  0
DIMENSION
  5
520
330
18
100
AcDbEntity
  8
SK2
100
AcDbDimension
  2
*D2
 10
-54.99999999997448
 20
-2.999999999999993
 30
0.0
 11
-57.37499999997448
 21
-11.29166666666667
 31
0.0
 70
    32
  1
%%c<>
 71
     5
 42
6.0
  3
STANDARD
100
AcDbAlignedDimension
 13
-35.7
 23
3.000000000000001
 33
0.0
 14
-35.7
 24
-2.999999999999998
 34
0.0
 50
90.00000000029242
100
AcDbRotatedDimension
  0
DIMENSION
  5
52D
330
18
100
AcDbEntity
  8
SK2
100
AcDbDimension
  2
*D3
 10
30.00000000000001
 20
90.0
 30
0.0
 11
-2.999999999999991
 21
92.375
 31
0.0
 70
    32
  1
<>
 71
     5
 42
66.0
  3
STANDARD
100
AcDbAlignedDimension
 13
-36.0
 23
0.0000000000000013
 33
0.0
 14
30.0
 24
0.0222614968836608
 34
0.0
100
AcDbRotatedDimension
  0
LINE
  5
9C5
330
18
100
AcDbEntity
  8
1
 62
     4
100
AcDbLine
 10
5.399999999999997
 20
2.999792784578126
 30
0.0
 11
5.999999999999997
 21
2.999792784578126
 31
0.0
  0
LINE
  5
9C6
330
18
100
AcDbEntity
  8
1
 62
     4
100
AcDbLine
 10
29.90008074236846
 20
-2.998472469717686
 30
0.0
 11
29.7163701106754
 21
-2.991085553907165
 31
0.0
  0
LINE
  5
9C7
330
18
100
AcDbEntity
  8
1
 62
     4
100
AcDbLine
 10
29.7163701106754
 20
-2.991085553907165
 30
0.0
 11
29.52274628506165
 21
-2.976366816363058
 31
0.0
  0
LINE
  5
9C8
330
18
100
AcDbEntity
  8
1
 62
     4
100
AcDbLine
 10
29.52274628506165
 20
-2.976366816363058
 30
0.0
 11
29.32911243257768
 21
-2.954746754350754
 31
0.0
  0
LINE
  5
9C9
330
18
100
AcDbEntity
  8
1
 62
     4
100
AcDbLine
 10
29.32911243257768
 20
-2.954746754350754
 30
0.0
 11
28.94185954415437
 21
-2.891024831271748
 31
0.0
  0
LINE
  5
9CA
330
18
100
AcDbEntity
  8
1
 62
     4
100
AcDbLine
 10
28.94185954415437
 20
-2.891024831271748
 30
0.0
 11
28.55460577257316
 21
-2.800509337986934
 31
0.0
  0
LINE
  5
9CB
330
18
100
AcDbEntity
  8
1
 62
     4
100
AcDbLine
 10
28.55460577257316
 20
-2.800509337986934
 30
0.0
 11
28.16734761562562
 21
-2.684038495705979
 31
0.0
  0
LINE
  5
9CC
330
18
100
AcDbEntity
  8
1
 62
     4
100
AcDbLine
 10
28.16734761562562
 20
-2.684038495705979
 30
0.0
 11
27.78008854071615
 21
-2.542692485986881
 31
0.0
  0
LINE
  5
9CD
330
18
100
AcDbEntity
  8
1
 62
     4
100
AcDbLine
 10
27.78008854071615
 20
-2.542692485986881
 30
0.0
 11
27.39283181758322
 21
-2.377782653630794
 31
0.0
  0
LINE
  5
9CE
330
18
100
AcDbEntity
  8
1
 62
     4
100
AcDbLine
 10
27.39283181758322
 20
-2.377782653630794
 30
0.0
 11
27.00558003601901
 21
-2.19083874015632
 31
0.0
  0
LINE
  5
9CF
330
18
100
AcDbEntity
  8
1
 62
     4
100
AcDbLine
 10
27.00558003601901
 20
-2.19083874015632
 30
0.0
 11
26.61832503649878
 21
-1.983589556005694
 31
0.0
  0
LINE
  5
9D0
330
18
100
AcDbEntity
  8
1
 62
     4
100
AcDbLine
 10
26.61832503649878
 20
-1.983589556005694
 30
0.0
 11
25.8438077901471
 21
-1.516030243298618
 31
0.0
  0
LINE
  5
9D1
330
18
100
AcDbEntity
  8
1
 62
     4
100
AcDbLine
 10
25.8438077901471
 20
-1.516030243298618
 30
0.0
 11
25.06930086682336
 21
-0.9924108482338338
 31
0.0
  0
LINE
  5
9D2
330
18
100
AcDbEntity
  8
1
 62
     4
100
AcDbLine
 10
25.06930086682336
 20
-0.9924108482338338
 30
0.0
 11
23.71391313705444
 21
-0.000207215422577
 31
0.0
  0
LINE
  5
9D3
330
18
100
AcDbEntity
  8
1
 62
     4
100
AcDbLine
 10
29.90008074236845
 20
-2.636296710035549
 30
0.0
 11
29.90008074236846
 21
-2.998472469717686
 31
0.0
  0
LINE
  5
9D4
330
18
100
AcDbEntity
  8
1
 62
     4
100
AcDbLine
 10
30.0
 20
-2.547107330990508
 30
0.0
 11
29.90008074236845
 21
-2.636296710035549
 31
0.0
  0
LINE
  5
9D5
330
18
100
AcDbEntity
  8
1
 62
     4
100
AcDbLine
 10
29.89999999999998
 20
1.431099252621715
 30
0.0
 11
29.32877746417511
 21
1.790215677820294
 31
0.0
  0
LINE
  5
9D6
330
18
100
AcDbEntity
  8
1
 62
     4
100
AcDbLine
 10
29.99999999999998
 20
1.384165979624245
 30
0.0
 11
29.89999999999998
 21
1.431099252621715
 31
0.0
  0
LINE
  5
9D7
330
18
100
AcDbEntity
  8
1
 62
     4
100
AcDbLine
 10
29.89999999999998
 20
1.431099252621715
 30
0.0
 11
29.89999999999999
 21
0.0965436367362808
 31
0.0
  0
LINE
  5
9D8
330
18
100
AcDbEntity
  8
1
 62
     4
100
AcDbLine
 10
29.99999999999998
 20
0.0215042891059272
 30
0.0
 11
29.89999999999999
 21
0.0965436367362808
 31
0.0
  0
LINE
  5
9D9
330
18
100
AcDbEntity
  8
1
 62
     4
100
AcDbLine
 10
30.0
 20
1.38416597962424
 30
0.0
 11
30.0
 21
0.0215042891059272
 31
0.0
  0
LINE
  5
9DB
330
18
100
AcDbEntity
  8
1
 62
     4
100
AcDbLine
 10
30.0
 20
-2.559818681413893
 30
0.0
 11
30.0
 21
-2.902490174829096
 31
0.0
  0
LINE
  5
9DC
330
18
100
AcDbEntity
  8
1
 62
     4
100
AcDbLine
 10
23.71391313705401
 20
2.999792784578126
 30
0.0
 11
25.58415417556236
 21
2.999792784578126
 31
0.0
  0
LINE
  5
9DD
330
18
100
AcDbEntity
  8
1
 62
     4
100
AcDbLine
 10
17.39782618272375
 20
2.999792784578126
 30
0.0
 11
19.26806795862279
 21
2.999792784578126
 31
0.0
  0
LINE
  5
9DE
330
18
100
AcDbEntity
  8
1
 62
     4
100
AcDbLine
 10
11.37779668605677
 20
2.999792784578126
 30
0.0
 11
12.95198112078262
 21
2.999792784578126
 31
0.0
  0
LINE
  5
9DF
330
18
100
AcDbEntity
  8
1
 62
     4
100
AcDbLine
 10
30.0
 20
1.81774472562205
 30
0.0
 11
30.0
 21
2.902652356818567
 31
0.0
  0
LINE
  5
9E0
330
18
100
AcDbEntity
  8
1
 62
     4
100
AcDbLine
 10
11.37779668605677
 20
-2.77228541307756
 30
0.0
 11
11.41950014773089
 21
-2.784948043261412
 31
0.0
  0
LINE
  5
9E1
330
18
100
AcDbEntity
  8
1
 62
     4
100
AcDbLine
 10
11.41950014773089
 20
-2.784948043261412
 30
0.0
 11
11.72599961602916
 21
-2.861839010269042
 31
0.0
  0
LINE
  5
9E2
330
18
100
AcDbEntity
  8
1
 62
     4
100
AcDbLine
 10
11.72599961602916
 20
-2.861839010269042
 30
0.0
 11
12.03249893503607
 21
-2.922110956627021
 31
0.0
  0
LINE
  5
9E3
330
18
100
AcDbEntity
  8
1
 62
     4
100
AcDbLine
 10
12.03249893503607
 20
-2.922110956627021
 30
0.0
 11
12.33899791470363
 21
-2.965413899404661
 31
0.0
  0
LINE
  5
9E4
330
18
100
AcDbEntity
  8
1
 62
     4
100
AcDbLine
 10
12.33899791470363
 20
-2.965413899404661
 30
0.0
 11
12.64549682968489
 21
-2.991496285099431
 31
0.0
  0
LINE
  5
9E5
330
18
100
AcDbEntity
  8
1
 62
     4
100
AcDbLine
 10
12.64549682968489
 20
-2.991496285099431
 30
0.0
 11
12.95198112078522
 21
-3.000207215415903
 31
0.0
  0
LINE
  5
9E6
330
18
100
AcDbEntity
  8
1
 62
     4
100
AcDbLine
 10
30.0
 20
1.81774472562205
 30
0.0
 11
30.0
 21
1.38416597962424
 31
0.0
  0
LINE
  5
9E7
330
18
100
AcDbEntity
  8
1
 62
     4
100
AcDbLine
 10
30.0
 20
0.0133568981301965
 30
0.0
 11
30.0
 21
0.0215042891059272
 31
0.0
  0
LINE
  5
9E8
330
18
100
AcDbEntity
  8
1
 62
     4
100
AcDbLine
 10
29.89999999999999
 20
0.0965436367362808
 30
0.0
 11
28.36097217112536
 21
1.209591472643614
 31
0.0
  0
LINE
  5
9E9
330
18
100
AcDbEntity
  8
1
 62
     4
100
AcDbLine
 10
28.36097217112536
 20
1.209591472643614
 30
0.0
 11
27.5864656370236
 21
1.712738320098825
 31
0.0
  0
LINE
  5
9EA
330
18
100
AcDbEntity
  8
1
 62
     4
100
AcDbLine
 10
27.5864656370236
 20
1.712738320098825
 30
0.0
 11
27.11241298779836
 21
1.99293620616974
 31
0.0
  0
LINE
  5
9EB
330
18
100
AcDbEntity
  8
1
 62
     4
100
AcDbLine
 10
26.94873682698779
 20
2.108729827894548
 30
0.0
 11
26.81194845527426
 21
2.152533756664638
 31
0.0
  0
LINE
  5
9EC
330
18
100
AcDbEntity
  8
1
 62
     4
100
AcDbLine
 10
26.81194845527426
 20
2.152533756664638
 30
0.0
 11
26.42469237678223
 21
2.34347887991424
 31
0.0
  0
LINE
  5
9ED
330
18
100
AcDbEntity
  8
1
 62
     4
100
AcDbLine
 10
26.42469237678223
 20
2.34347887991424
 30
0.0
 11
26.03744087429959
 21
2.512699734044606
 31
0.0
  0
LINE
  5
9EE
330
18
100
AcDbEntity
  8
1
 62
     4
100
AcDbLine
 10
26.03744087429959
 20
2.512699734044606
 30
0.0
 11
25.65018529951944
 21
2.658631653318264
 31
0.0
  0
LINE
  5
9EF
330
18
100
AcDbEntity
  8
1
 62
     4
100
AcDbLine
 10
25.65018529951944
 20
2.658631653318264
 30
0.0
 11
25.26292663021771
 21
2.779921488040153
 31
0.0
  0
LINE
  5
9F0
330
18
100
AcDbEntity
  8
1
 62
     4
100
AcDbLine
 10
25.26292663021771
 20
2.779921488040153
 30
0.0
 11
24.87566829434642
 21
2.875443898239752
 31
0.0
  0
LINE
  5
9F1
330
18
100
AcDbEntity
  8
1
 62
     4
100
AcDbLine
 10
24.87566829434642
 20
2.875443898239752
 30
0.0
 11
24.48841380296015
 21
2.944312910960758
 31
0.0
  0
LINE
  5
9F2
330
18
100
AcDbEntity
  8
1
 62
     4
100
AcDbLine
 10
24.48841380296015
 20
2.944312910960758
 30
0.0
 11
24.29478647084521
 21
2.968542821450308
 31
0.0
  0
LINE
  5
9F3
330
18
100
AcDbEntity
  8
1
 62
     4
100
AcDbLine
 10
24.29478647084521
 20
2.968542821450308
 30
0.0
 11
24.10116207495067
 21
2.985890559211008
 31
0.0
  0
LINE
  5
9F4
330
18
100
AcDbEntity
  8
1
 62
     4
100
AcDbLine
 10
24.10116207495067
 20
2.985890559211008
 30
0.0
 11
23.90752855915029
 21
2.996315301494626
 31
0.0
  0
LINE
  5
9F5
330
18
100
AcDbEntity
  8
1
 62
     4
100
AcDbLine
 10
23.90752855915029
 20
2.996315301494626
 30
0.0
 11
23.71391313705401
 21
2.999792784578126
 31
0.0
  0
LINE
  5
9F6
330
18
100
AcDbEntity
  8
1
 62
     4
100
AcDbLine
 10
29.90008074236845
 20
-2.636296710035549
 30
0.0
 11
29.47891425319496
 21
-2.472518740523134
 31
0.0
  0
LINE
  5
9F7
330
18
100
AcDbEntity
  8
1
 62
     4
100
AcDbLine
 10
29.47891425319496
 20
-2.472518740523134
 30
0.0
 11
29.04782827613202
 21
-2.276487524476654
 31
0.0
  0
LINE
  5
9F8
330
18
100
AcDbEntity
  8
1
 62
     4
100
AcDbLine
 10
29.04782827613202
 20
-2.276487524476654
 30
0.0
 11
28.61674913687352
 21
-2.054323393483495
 31
0.0
  0
LINE
  5
9F9
330
18
100
AcDbEntity
  8
1
 62
     4
100
AcDbLine
 10
28.61674913687352
 20
-2.054323393483495
 30
0.0
 11
28.18566732423398
 21
-1.808569850678256
 31
0.0
  0
LINE
  5
9FA
330
18
100
AcDbEntity
  8
1
 62
     4
100
AcDbLine
 10
28.18566732423398
 20
-1.808569850678256
 30
0.0
 11
27.11241298779836
 21
-1.105244613444843
 31
0.0
  0
LINE
  5
9FB
330
18
100
AcDbEntity
  8
1
 62
     4
100
AcDbLine
 10
26.81195253625889
 20
-0.8880595040284728
 30
0.0
 11
25.59918354429665
 21
-0.0114204493158168
 31
0.0
  0
LINE
  5
9FC
330
18
100
AcDbEntity
  8
1
 62
     4
100
AcDbLine
 10
25.59918354429665
 20
-0.0114204493158168
 30
0.0
 11
24.30593732330253
 21
0.9374805503298306
 31
0.0
  0
LINE
  5
9FD
330
18
100
AcDbEntity
  8
1
 62
     4
100
AcDbLine
 10
24.30593732330253
 20
0.9374805503298306
 30
0.0
 11
23.65931402044143
 21
1.381679233912354
 31
0.0
  0
LINE
  5
9FE
330
18
100
AcDbEntity
  8
1
 62
     4
100
AcDbLine
 10
23.65931402044143
 20
1.381679233912354
 30
0.0
 11
23.01269030082005
 21
1.790217042034375
 31
0.0
  0
LINE
  5
9FF
330
18
100
AcDbEntity
  8
1
 62
     4
100
AcDbLine
 10
30.0
 20
0.0133568981301965
 30
0.0
 11
30.0
 21
-2.559818681413893
 31
0.0
  0
LINE
  5
A00
330
18
100
AcDbEntity
  8
1
 62
     4
100
AcDbLine
 10
11.37779668605677
 20
1.136852292574324
 30
0.0
 11
11.59600836051344
 21
0.9924080278582108
 31
0.0
  0
LINE
  5
A01
330
18
100
AcDbEntity
  8
1
 62
     4
100
AcDbLine
 10
11.59600836051344
 20
0.9924080278582108
 30
0.0
 11
13.78802094163984
 21
-0.6194863050834872
 31
0.0
  0
LINE
  5
A02
330
18
100
AcDbEntity
  8
1
 62
     4
100
AcDbLine
 10
13.78802094163984
 20
-0.6194863050834872
 30
0.0
 11
14.88403243872884
 21
-1.386866848828181
 31
0.0
  0
LINE
  5
A03
330
18
100
AcDbEntity
  8
1
 62
     4
100
AcDbLine
 10
14.88403243872884
 20
-1.386866848828181
 30
0.0
 11
15.43204123862646
 21
-1.735454265726111
 31
0.0
  0
LINE
  5
A04
330
18
100
AcDbEntity
  8
1
 62
     4
100
AcDbLine
 10
15.43204123862646
 20
-1.735454265726111
 30
0.0
 11
15.98004350615833
 21
-2.05185717654353
 31
0.0
  0
LINE
  5
A05
330
18
100
AcDbEntity
  8
1
 62
     4
100
AcDbLine
 10
15.98004350615833
 20
-2.05185717654353
 30
0.0
 11
16.52804801346379
 21
-2.330213101541704
 31
0.0
  0
LINE
  5
A06
330
18
100
AcDbEntity
  8
1
 62
     4
100
AcDbLine
 10
16.52804801346379
 20
-2.330213101541704
 30
0.0
 11
16.80205418516786
 21
-2.453480327063977
 31
0.0
  0
LINE
  5
A07
330
18
100
AcDbEntity
  8
1
 62
     4
100
AcDbLine
 10
16.80205418516786
 20
-2.453480327063977
 30
0.0
 11
17.07605942803574
 21
-2.565359653211269
 31
0.0
  0
LINE
  5
A08
330
18
100
AcDbEntity
  8
1
 62
     4
100
AcDbLine
 10
17.07605942803574
 20
-2.565359653211269
 30
0.0
 11
17.35006213983266
 21
-2.665330857427478
 31
0.0
  0
LINE
  5
A09
330
18
100
AcDbEntity
  8
1
 62
     4
100
AcDbLine
 10
17.35006213983266
 20
-2.665330857427478
 30
0.0
 11
17.62406357772951
 21
-2.752930608021626
 31
0.0
  0
LINE
  5
A0A
330
18
100
AcDbEntity
  8
1
 62
     4
100
AcDbLine
 10
17.62406357772951
 20
-2.752930608021626
 30
0.0
 11
17.89806441230309
 21
-2.827753046480692
 31
0.0
  0
LINE
  5
A0B
330
18
100
AcDbEntity
  8
1
 62
     4
100
AcDbLine
 10
17.89806441230309
 20
-2.827753046480692
 30
0.0
 11
18.17206590849943
 21
-2.889451002369277
 31
0.0
  0
LINE
  5
A0C
330
18
100
AcDbEntity
  8
1
 62
     4
100
AcDbLine
 10
18.17206590849943
 20
-2.889451002369277
 30
0.0
 11
18.44606910684187
 21
-2.937738126032201
 31
0.0
  0
LINE
  5
A0D
330
18
100
AcDbEntity
  8
1
 62
     4
100
AcDbLine
 10
18.44606910684187
 20
-2.937738126032201
 30
0.0
 11
18.72007445904366
 21
-2.972390094265868
 31
0.0
  0
LINE
  5
A0E
330
18
100
AcDbEntity
  8
1
 62
     4
100
AcDbLine
 10
18.72007445904366
 20
-2.972390094265868
 30
0.0
 11
18.99407998023654
 21
-2.993245168339146
 31
0.0
  0
LINE
  5
A0F
330
18
100
AcDbEntity
  8
1
 62
     4
100
AcDbLine
 10
18.99407998023654
 20
-2.993245168339146
 30
0.0
 11
19.26806795864514
 21
-3.000207215391518
 31
0.0
  0
LINE
  5
A11
330
18
100
AcDbEntity
  8
1
 62
     4
100
AcDbLine
 10
19.26806795864514
 20
-3.000207215391518
 30
0.0
 11
19.54593451475416
 21
-2.993046636757392
 31
0.0
  0
LINE
  5
A12
330
18
100
AcDbEntity
  8
1
 62
     4
100
AcDbLine
 10
19.54593451475416
 20
-2.993046636757392
 30
0.0
 11
19.82379947774898
 21
-2.971599708560491
 31
0.0
  0
LINE
  5
A13
330
18
100
AcDbEntity
  8
1
 62
     4
100
AcDbLine
 10
19.82379947774898
 20
-2.971599708560491
 30
0.0
 11
20.10166316087116
 21
-2.935969101303825
 31
0.0
  0
LINE
  5
A14
330
18
100
AcDbEntity
  8
1
 62
     4
100
AcDbLine
 10
20.10166316087116
 20
-2.935969101303825
 30
0.0
 11
20.37952627663597
 21
-2.886324867110332
 31
0.0
  0
LINE
  5
A15
330
18
100
AcDbEntity
  8
1
 62
     4
100
AcDbLine
 10
20.37952627663597
 20
-2.886324867110332
 30
0.0
 11
20.58408258640612
 21
-2.839636053598995
 31
0.0
  0
LINE
  5
A17
330
18
100
AcDbEntity
  8
1
 62
     4
100
AcDbLine
 10
20.88454303794559
 20
-2.764319928440134
 30
0.0
 11
21.21312213638308
 21
-2.656005216067315
 31
0.0
  0
LINE
  5
A18
330
18
100
AcDbEntity
  8
1
 62
     4
100
AcDbLine
 10
21.21312213638308
 20
-2.656005216067315
 30
0.0
 11
21.49099057575801
 21
-2.553323861311429
 31
0.0
  0
LINE
  5
A19
330
18
100
AcDbEntity
  8
1
 62
     4
100
AcDbLine
 10
17.39782618272389
 20
-3.000207215421871
 30
0.0
 11
19.26806795864514
 21
-3.000207215421871
 31
0.0
  0
LINE
  5
A1A
330
18
100
AcDbEntity
  8
1
 62
     4
100
AcDbLine
 10
23.71391313705351
 20
-3.000207215415171
 30
0.0
 11
23.51653371580926
 21
-2.996593028143183
 31
0.0
  0
LINE
  5
A1B
330
18
100
AcDbEntity
  8
1
 62
     4
100
AcDbLine
 10
23.51653371580926
 20
-2.996593028143183
 30
0.0
 11
23.31915992059573
 21
-2.985761307139546
 31
0.0
  0
LINE
  5
A1C
330
18
100
AcDbEntity
  8
1
 62
     4
100
AcDbLine
 10
23.31915992059573
 20
-2.985761307139546
 30
0.0
 11
23.12177594593403
 21
-2.967736148634778
 31
0.0
  0
LINE
  5
A1D
330
18
100
AcDbEntity
  8
1
 62
     4
100
AcDbLine
 10
23.12177594593403
 20
-2.967736148634778
 30
0.0
 11
22.92440128806024
 21
-2.942562398759907
 31
0.0
  0
LINE
  5
A1E
330
18
100
AcDbEntity
  8
1
 62
     4
100
AcDbLine
 10
22.92440128806024
 20
-2.942562398759907
 30
0.0
 11
22.52964173375854
 21
-2.871026732136451
 31
0.0
  0
LINE
  5
A1F
330
18
100
AcDbEntity
  8
1
 62
     4
100
AcDbLine
 10
22.52964173375854
 20
-2.871026732136451
 30
0.0
 11
22.13488576375611
 21
-2.771844168534114
 31
0.0
  0
LINE
  5
A20
330
18
100
AcDbEntity
  8
1
 62
     4
100
AcDbLine
 10
22.13488576375611
 20
-2.771844168534114
 30
0.0
 11
21.7401340327704
 21
-2.645970234376151
 31
0.0
  0
LINE
  5
A21
330
18
100
AcDbEntity
  8
1
 62
     4
100
AcDbLine
 10
21.7401340327704
 20
-2.645970234376151
 30
0.0
 11
21.34537672742025
 21
-2.4946140997846
 31
0.0
  0
LINE
  5
A22
330
18
100
AcDbEntity
  8
1
 62
     4
100
AcDbLine
 10
21.34537672742025
 20
-2.4946140997846
 30
0.0
 11
20.95061708512429
 21
-2.319234428393718
 31
0.0
  0
LINE
  5
A23
330
18
100
AcDbEntity
  8
1
 62
     4
100
AcDbLine
 10
20.95061708512429
 20
-2.319234428393718
 30
0.0
 11
20.55585971745321
 21
-2.121522242324376
 31
0.0
  0
LINE
  5
A24
330
18
100
AcDbEntity
  8
1
 62
     4
100
AcDbLine
 10
20.55585971745321
 20
-2.121522242324376
 30
0.0
 11
20.16110807613137
 21
-1.903383507363549
 31
0.0
  0
LINE
  5
A25
330
18
100
AcDbEntity
  8
1
 62
     4
100
AcDbLine
 10
20.16110807613137
 20
-1.903383507363549
 30
0.0
 11
19.37159295593995
 21
-1.41439034607953
 31
0.0
  0
LINE
  5
A26
330
18
100
AcDbEntity
  8
1
 62
     4
100
AcDbLine
 10
19.37159295593995
 20
-1.41439034607953
 30
0.0
 11
18.58208210191403
 21
-0.8710538050336266
 31
0.0
  0
LINE
  5
A27
330
18
100
AcDbEntity
  8
1
 62
     4
100
AcDbLine
 10
18.58208210191403
 20
-0.8710538050336266
 30
0.0
 11
17.39782618272386
 21
-0.0002072154216305
 31
0.0
  0
LINE
  5
A28
330
18
100
AcDbEntity
  8
1
 62
     4
100
AcDbLine
 10
25.58415417556295
 20
-3.000207215420926
 30
0.0
 11
25.30641730717477
 21
-2.993053247461348
 31
0.0
  0
LINE
  5
A29
330
18
100
AcDbEntity
  8
1
 62
     4
100
AcDbLine
 10
25.30641730717477
 20
-2.993053247461348
 30
0.0
 11
25.02868136354174
 21
-2.971626230413243
 31
0.0
  0
LINE
  5
A2A
330
18
100
AcDbEntity
  8
1
 62
     4
100
AcDbLine
 10
25.02868136354174
 20
-2.971626230413243
 30
0.0
 11
24.75094648208884
 21
-2.936028544318103
 31
0.0
  0
LINE
  5
A2B
330
18
100
AcDbEntity
  8
1
 62
     4
100
AcDbLine
 10
24.75094648208884
 20
-2.936028544318103
 30
0.0
 11
24.47321174824594
 21
-2.886429919209868
 31
0.0
  0
LINE
  5
A2C
330
18
100
AcDbEntity
  8
1
 62
     4
100
AcDbLine
 10
24.47321174824594
 20
-2.886429919209868
 30
0.0
 11
24.1954760783781
 21
-2.823066763604363
 31
0.0
  0
LINE
  5
A2D
330
18
100
AcDbEntity
  8
1
 62
     4
100
AcDbLine
 10
24.1954760783781
 20
-2.823066763604363
 30
0.0
 11
23.91773904316266
 21
-2.746240637926331
 31
0.0
  0
LINE
  5
A2E
330
18
100
AcDbEntity
  8
1
 62
     4
100
AcDbLine
 10
23.91773904316266
 20
-2.746240637926331
 30
0.0
 11
23.63999972800538
 21
-2.656317297000854
 31
0.0
  0
LINE
  5
A2F
330
18
100
AcDbEntity
  8
1
 62
     4
100
AcDbLine
 10
23.63999972800538
 20
-2.656317297000854
 30
0.0
 11
23.36226061217094
 21
-2.553726801091535
 31
0.0
  0
LINE
  5
A30
330
18
100
AcDbEntity
  8
1
 62
     4
100
AcDbLine
 10
23.36226061217094
 20
-2.553726801091535
 30
0.0
 11
23.08452408372465
 21
-2.438958797624191
 31
0.0
  0
LINE
  5
A31
330
18
100
AcDbEntity
  8
1
 62
     4
100
AcDbLine
 10
23.08452408372465
 20
-2.438958797624191
 30
0.0
 11
22.52905425451899
 21
-2.17513561461187
 31
0.0
  0
LINE
  5
A32
330
18
100
AcDbEntity
  8
1
 62
     4
100
AcDbLine
 10
22.52905425451899
 20
-2.17513561461187
 30
0.0
 11
21.97358337283901
 21
-1.869872168536444
 31
0.0
  0
LINE
  5
A33
330
18
100
AcDbEntity
  8
1
 62
     4
100
AcDbLine
 10
21.97358337283901
 20
-1.869872168536444
 30
0.0
 11
21.41810581916818
 21
-1.5289804658337
 31
0.0
  0
LINE
  5
A34
330
18
100
AcDbEntity
  8
1
 62
     4
100
AcDbLine
 10
21.41810581916818
 20
-1.5289804658337
 30
0.0
 11
20.30716269438343
 21
-0.7668687679421178
 31
0.0
  0
LINE
  5
A35
330
18
100
AcDbEntity
  8
1
 62
     4
100
AcDbLine
 10
20.30716269438343
 20
-0.7668687679421178
 30
0.0
 11
19.19623648463223
 21
0.0533826058063271
 31
0.0
  0
LINE
  5
A36
330
18
100
AcDbEntity
  8
1
 62
     4
100
AcDbLine
 10
19.19623648463223
 20
0.0533826058063271
 30
0.0
 11
18.08528484843636
 21
0.8695876902944993
 31
0.0
  0
LINE
  5
A37
330
18
100
AcDbEntity
  8
1
 62
     4
100
AcDbLine
 10
18.08528484843636
 20
0.8695876902944993
 30
0.0
 11
17.39094218895174
 21
1.349983891763029
 31
0.0
  0
LINE
  5
A38
330
18
100
AcDbEntity
  8
1
 62
     4
100
AcDbLine
 10
17.39094218895174
 20
1.349983891763029
 30
0.0
 11
16.69660339565765
 21
1.790217470313945
 31
0.0
  0
LINE
  5
A39
330
18
100
AcDbEntity
  8
1
 62
     4
100
AcDbLine
 10
23.71391313705351
 20
-3.000207215421871
 30
0.0
 11
25.58415417556295
 21
-3.000207215421871
 31
0.0
  0
LINE
  5
A3A
330
18
100
AcDbEntity
  8
1
 62
     4
100
AcDbLine
 10
12.95198112078522
 20
-3.000207215415903
 30
0.0
 11
13.22984803449864
 21
-2.993046657490951
 31
0.0
  0
LINE
  5
A3B
330
18
100
AcDbEntity
  8
1
 62
     4
100
AcDbLine
 10
13.22984803449864
 20
-2.993046657490951
 30
0.0
 11
13.507712843638
 21
-2.97159966183125
 31
0.0
  0
LINE
  5
A3C
330
18
100
AcDbEntity
  8
1
 62
     4
100
AcDbLine
 10
13.507712843638
 20
-2.97159966183125
 30
0.0
 11
13.92450820190445
 21
-2.911146907872728
 31
0.0
  0
LINE
  5
A3F
330
18
100
AcDbEntity
  8
1
 62
     4
100
AcDbLine
 10
14.22496865344393
 20
-2.835830782713868
 30
0.0
 11
14.61916861933278
 21
-2.746008604161388
 31
0.0
  0
LINE
  5
A40
330
18
100
AcDbEntity
  8
1
 62
     4
100
AcDbLine
 10
14.61916861933278
 20
-2.746008604161388
 30
0.0
 11
14.89703538500787
 21
-2.656005188429173
 31
0.0
  0
LINE
  5
A41
330
18
100
AcDbEntity
  8
1
 62
     4
100
AcDbLine
 10
14.89703538500787
 20
-2.656005188429173
 30
0.0
 11
15.17490364314988
 21
-2.553323609725548
 31
0.0
  0
LINE
  5
A42
330
18
100
AcDbEntity
  8
1
 62
     4
100
AcDbLine
 10
11.37779668605677
 20
-3.000207215421871
 30
0.0
 11
12.95198112078522
 21
-3.000207215421871
 31
0.0
  0
LINE
  5
A43
330
18
100
AcDbEntity
  8
1
 62
     4
100
AcDbLine
 10
11.37779668605677
 20
-0.2154599063608357
 30
0.0
 11
12.6607659816554
 21
-1.148260898983072
 31
0.0
  0
LINE
  5
A44
330
18
100
AcDbEntity
  8
1
 62
     4
100
AcDbLine
 10
12.6607659816554
 20
-1.148260898983072
 30
0.0
 11
13.4502740285083
 21
-1.666918994526304
 31
0.0
  0
LINE
  5
A45
330
18
100
AcDbEntity
  8
1
 62
     4
100
AcDbLine
 10
13.4502740285083
 20
-1.666918994526304
 30
0.0
 11
14.23979167214891
 21
-2.121532112390982
 31
0.0
  0
LINE
  5
A46
330
18
100
AcDbEntity
  8
1
 62
     4
100
AcDbLine
 10
14.23979167214891
 20
-2.121532112390982
 30
0.0
 11
14.63454392154912
 21
-2.319241283087082
 31
0.0
  0
LINE
  5
A47
330
18
100
AcDbEntity
  8
1
 62
     4
100
AcDbLine
 10
14.63454392154912
 20
-2.319241283087082
 30
0.0
 11
15.0292985697642
 21
-2.49461783740231
 31
0.0
  0
LINE
  5
A48
330
18
100
AcDbEntity
  8
1
 62
     4
100
AcDbLine
 10
15.0292985697642
 20
-2.49461783740231
 30
0.0
 11
15.42405765713522
 21
-2.645973574506326
 31
0.0
  0
LINE
  5
A49
330
18
100
AcDbEntity
  8
1
 62
     4
100
AcDbLine
 10
15.42405765713522
 20
-2.645973574506326
 30
0.0
 11
15.81881644720478
 21
-2.771848964765701
 31
0.0
  0
LINE
  5
A4A
330
18
100
AcDbEntity
  8
1
 62
     4
100
AcDbLine
 10
15.81881644720478
 20
-2.771848964765701
 30
0.0
 11
16.21357022951039
 21
-2.871030469919201
 31
0.0
  0
LINE
  5
A4B
330
18
100
AcDbEntity
  8
1
 62
     4
100
AcDbLine
 10
16.21357022951039
 20
-2.871030469919201
 30
0.0
 11
16.60832304157454
 21
-2.942563935569046
 31
0.0
  0
LINE
  5
A4C
330
18
100
AcDbEntity
  8
1
 62
     4
100
AcDbLine
 10
16.60832304157454
 20
-2.942563935569046
 30
0.0
 11
16.80570673181953
 21
-2.967738088461241
 31
0.0
  0
LINE
  5
A4D
330
18
100
AcDbEntity
  8
1
 62
     4
100
AcDbLine
 10
16.80570673181953
 20
-2.967738088461241
 30
0.0
 11
17.00308140212199
 21
-2.985761652503295
 31
0.0
  0
LINE
  5
A4E
330
18
100
AcDbEntity
  8
1
 62
     4
100
AcDbLine
 10
17.00308140212199
 20
-2.985761652503295
 30
0.0
 11
17.20045809592622
 21
-2.996593918560336
 31
0.0
  0
LINE
  5
A4F
330
18
100
AcDbEntity
  8
1
 62
     4
100
AcDbLine
 10
17.20045809592622
 20
-2.996593918560336
 30
0.0
 11
17.39782618272389
 21
-3.000207215397423
 31
0.0
  0
LINE
  5
A50
330
18
100
AcDbEntity
  8
1
 62
     4
100
AcDbLine
 10
27.80707702022017
 20
2.552909039668668
 30
0.0
 11
28.06994205682349
 21
2.650365851786228
 31
0.0
  0
LINE
  5
A51
330
18
100
AcDbEntity
  8
1
 62
     4
100
AcDbLine
 10
28.06994205682349
 20
2.650365851786228
 30
0.0
 11
28.33280630985322
 21
2.736498764107462
 31
0.0
  0
LINE
  5
A52
330
18
100
AcDbEntity
  8
1
 62
     4
100
AcDbLine
 10
28.33280630985322
 20
2.736498764107462
 30
0.0
 11
28.59567178442261
 21
2.810940423894503
 31
0.0
  0
LINE
  5
A53
330
18
100
AcDbEntity
  8
1
 62
     4
100
AcDbLine
 10
28.59567178442261
 20
2.810940423894503
 30
0.0
 11
28.85854039140781
 21
2.873372893229673
 31
0.0
  0
LINE
  5
A54
330
18
100
AcDbEntity
  8
1
 62
     4
100
AcDbLine
 10
28.85854039140781
 20
2.873372893229673
 30
0.0
 11
29.12141076120356
 21
2.923528383223595
 31
0.0
  0
LINE
  5
A55
330
18
100
AcDbEntity
  8
1
 62
     4
100
AcDbLine
 10
29.12141076120356
 20
2.923528383223595
 30
0.0
 11
29.38427743644549
 21
2.961191850275291
 31
0.0
  0
LINE
  5
A56
330
18
100
AcDbEntity
  8
1
 62
     4
100
AcDbLine
 10
29.38427743644549
 20
2.961191850275291
 30
0.0
 11
29.64714191926779
 21
2.986203409322992
 31
0.0
  0
LINE
  5
A57
330
18
100
AcDbEntity
  8
1
 62
     4
100
AcDbLine
 10
29.64714191926779
 20
2.986203409322992
 30
0.0
 11
29.90010847732915
 21
2.997995780984295
 31
0.0
  0
LINE
  5
A58
330
18
100
AcDbEntity
  8
1
 62
     4
100
AcDbLine
 10
29.32877746417511
 20
1.790215677820294
 30
0.0
 11
28.86070396360048
 21
2.05768089840353
 31
0.0
  0
LINE
  5
A59
330
18
100
AcDbEntity
  8
1
 62
     4
100
AcDbLine
 10
28.86070396360048
 20
2.05768089840353
 30
0.0
 11
28.39261868734899
 21
2.297295564145279
 31
0.0
  0
LINE
  5
A5A
330
18
100
AcDbEntity
  8
1
 62
     4
100
AcDbLine
 10
28.39261868734899
 20
2.297295564145279
 30
0.0
 11
27.92454451277406
 21
2.50580568118573
 31
0.0
  0
LINE
  5
A5B
330
18
100
AcDbEntity
  8
1
 62
     4
100
AcDbLine
 10
27.92454451277406
 20
2.50580568118573
 30
0.0
 11
27.45645950425491
 21
2.680398411403392
 31
0.0
  0
LINE
  5
A5C
330
18
100
AcDbEntity
  8
1
 62
     4
100
AcDbLine
 10
27.45645950425491
 20
2.680398411403392
 30
0.0
 11
27.22242315973348
 21
2.754214601153329
 31
0.0
  0
LINE
  5
A5D
330
18
100
AcDbEntity
  8
1
 62
     4
100
AcDbLine
 10
27.22242315973348
 20
2.754214601153329
 30
0.0
 11
27.11241298779836
 21
2.784527670634521
 31
0.0
  0
LINE
  5
A5E
330
18
100
AcDbEntity
  8
1
 62
     4
100
AcDbLine
 10
26.81195253625889
 20
2.860121045548634
 30
0.0
 11
26.7543395036373
 21
2.873645767812766
 31
0.0
  0
LINE
  5
A5F
330
18
100
AcDbEntity
  8
1
 62
     4
100
AcDbLine
 10
26.7543395036373
 20
2.873645767812766
 30
0.0
 11
26.520300711122
 21
2.918852982214111
 31
0.0
  0
LINE
  5
A60
330
18
100
AcDbEntity
  8
1
 62
     4
100
AcDbLine
 10
26.520300711122
 20
2.918852982214111
 30
0.0
 11
26.28626450551821
 21
2.954173804729241
 31
0.0
  0
LINE
  5
A61
330
18
100
AcDbEntity
  8
1
 62
     4
100
AcDbLine
 10
26.28626450551821
 20
2.954173804729241
 30
0.0
 11
26.05222415193191
 21
2.979489501563788
 31
0.0
  0
LINE
  5
A62
330
18
100
AcDbEntity
  8
1
 62
     4
100
AcDbLine
 10
26.05222415193191
 20
2.979489501563788
 30
0.0
 11
25.81817997800158
 21
2.994712884356399
 31
0.0
  0
LINE
  5
A63
330
18
100
AcDbEntity
  8
1
 62
     4
100
AcDbLine
 10
25.81817997800158
 20
2.994712884356399
 30
0.0
 11
25.58415417556236
 21
2.999792784578126
 31
0.0
  0
LINE
  5
A64
330
18
100
AcDbEntity
  8
1
 62
     4
100
AcDbLine
 10
21.49099051728004
 20
2.552909151328211
 30
0.0
 11
21.76885623832048
 21
2.655589668362785
 31
0.0
  0
LINE
  5
A65
330
18
100
AcDbEntity
  8
1
 62
     4
100
AcDbLine
 10
21.76885623832048
 20
2.655589668362785
 30
0.0
 11
22.04672139835856
 21
2.745592538216238
 31
0.0
  0
LINE
  5
A66
330
18
100
AcDbEntity
  8
1
 62
     4
100
AcDbLine
 10
22.04672139835856
 20
2.745592538216238
 30
0.0
 11
22.32458674486418
 21
2.822488467726099
 31
0.0
  0
LINE
  5
A67
330
18
100
AcDbEntity
  8
1
 62
     4
100
AcDbLine
 10
22.32458674486418
 20
2.822488467726099
 30
0.0
 11
22.60245309596369
 21
2.885910467782008
 31
0.0
  0
LINE
  5
A68
330
18
100
AcDbEntity
  8
1
 62
     4
100
AcDbLine
 10
22.60245309596369
 20
2.885910467782008
 30
0.0
 11
22.88032124118126
 21
2.935555664844228
 31
0.0
  0
LINE
  5
A69
330
18
100
AcDbEntity
  8
1
 62
     4
100
AcDbLine
 10
22.88032124118126
 20
2.935555664844228
 30
0.0
 11
23.15819135636182
 21
2.971186694777011
 31
0.0
  0
LINE
  5
A6A
330
18
100
AcDbEntity
  8
1
 62
     4
100
AcDbLine
 10
23.15819135636182
 20
2.971186694777011
 30
0.0
 11
23.43605980606426
 21
2.992632925651797
 31
0.0
  0
LINE
  5
A6B
330
18
100
AcDbEntity
  8
1
 62
     4
100
AcDbLine
 10
23.43605980606426
 20
2.992632925651797
 30
0.0
 11
23.71391313705401
 21
2.999792784578126
 31
0.0
  0
LINE
  5
A6C
330
18
100
AcDbEntity
  8
1
 62
     4
100
AcDbLine
 10
23.01269030082006
 20
1.790217042034379
 30
0.0
 11
22.54461368125836
 21
2.057682445222098
 31
0.0
  0
LINE
  5
A6D
330
18
100
AcDbEntity
  8
1
 62
     4
100
AcDbLine
 10
22.54461368125836
 20
2.057682445222098
 30
0.0
 11
22.07653023110307
 21
2.297296128946261
 31
0.0
  0
LINE
  5
A6E
330
18
100
AcDbEntity
  8
1
 62
     4
100
AcDbLine
 10
22.07653023110307
 20
2.297296128946261
 30
0.0
 11
21.60845558854644
 21
2.505806130752294
 31
0.0
  0
LINE
  5
A6F
330
18
100
AcDbEntity
  8
1
 62
     4
100
AcDbLine
 10
21.60845558854644
 20
2.505806130752294
 30
0.0
 11
21.14037119519233
 21
2.680399053463115
 31
0.0
  0
LINE
  5
A70
330
18
100
AcDbEntity
  8
1
 62
     4
100
AcDbLine
 10
21.14037119519233
 20
2.680399053463115
 30
0.0
 11
20.88454303794559
 21
2.763818548141931
 31
0.0
  0
LINE
  5
A73
330
18
100
AcDbEntity
  8
1
 62
     4
100
AcDbLine
 10
20.58408258640612
 20
2.839411923056048
 30
0.0
 11
20.20421273996435
 21
2.918853392156696
 31
0.0
  0
LINE
  5
A74
330
18
100
AcDbEntity
  8
1
 62
     4
100
AcDbLine
 10
20.20421273996435
 20
2.918853392156696
 30
0.0
 11
19.97017614816964
 21
2.954173897052355
 31
0.0
  0
LINE
  5
A75
330
18
100
AcDbEntity
  8
1
 62
     4
100
AcDbLine
 10
19.97017614816964
 20
2.954173897052355
 30
0.0
 11
19.73613905734741
 21
2.979489231746017
 31
0.0
  0
LINE
  5
A76
330
18
100
AcDbEntity
  8
1
 62
     4
100
AcDbLine
 10
19.73613905734741
 20
2.979489231746017
 30
0.0
 11
19.50209456410071
 21
2.994712965731642
 31
0.0
  0
LINE
  5
A77
330
18
100
AcDbEntity
  8
1
 62
     4
100
AcDbLine
 10
19.50209456410071
 20
2.994712965731642
 30
0.0
 11
19.2680679586228
 21
2.999792784578126
 31
0.0
  0
LINE
  5
A78
330
18
100
AcDbEntity
  8
1
 62
     4
100
AcDbLine
 10
17.39782618272386
 20
-0.0002072154216305
 30
0.0
 11
15.81879989849126
 21
1.147846150497172
 31
0.0
  0
LINE
  5
A79
330
18
100
AcDbEntity
  8
1
 62
     4
100
AcDbLine
 10
15.81879989849126
 20
1.147846150497172
 30
0.0
 11
15.02929219314743
 21
1.666504127472655
 31
0.0
  0
LINE
  5
A7A
330
18
100
AcDbEntity
  8
1
 62
     4
100
AcDbLine
 10
15.02929219314743
 20
1.666504127472655
 30
0.0
 11
14.21739261258937
 21
2.123215371764674
 31
0.0
  0
LINE
  5
A7B
330
18
100
AcDbEntity
  8
1
 62
     4
100
AcDbLine
 10
13.9169321610499
 20
2.282810910040375
 30
0.0
 11
13.84502204818094
 21
2.318826644785855
 31
0.0
  0
LINE
  5
A7C
330
18
100
AcDbEntity
  8
1
 62
     4
100
AcDbLine
 10
13.84502204818094
 20
2.318826644785855
 30
0.0
 11
13.45026775938292
 21
2.494203060754908
 31
0.0
  0
LINE
  5
A7D
330
18
100
AcDbEntity
  8
1
 62
     4
100
AcDbLine
 10
13.45026775938292
 20
2.494203060754908
 30
0.0
 11
13.05550882752916
 21
2.645558784368423
 31
0.0
  0
LINE
  5
A7E
330
18
100
AcDbEntity
  8
1
 62
     4
100
AcDbLine
 10
13.05550882752916
 20
2.645558784368423
 30
0.0
 11
12.66074995745422
 21
2.771434248236522
 31
0.0
  0
LINE
  5
A7F
330
18
100
AcDbEntity
  8
1
 62
     4
100
AcDbLine
 10
12.66074995745422
 20
2.771434248236522
 30
0.0
 11
12.26599584445405
 21
2.870615889617263
 31
0.0
  0
LINE
  5
A80
330
18
100
AcDbEntity
  8
1
 62
     4
100
AcDbLine
 10
12.26599584445405
 20
2.870615889617263
 30
0.0
 11
11.87124339404133
 21
2.942149376523796
 31
0.0
  0
LINE
  5
A81
330
18
100
AcDbEntity
  8
1
 62
     4
100
AcDbLine
 10
11.87124339404133
 20
2.942149376523796
 30
0.0
 11
11.6738597024624
 21
2.967323541720301
 31
0.0
  0
LINE
  5
A82
330
18
100
AcDbEntity
  8
1
 62
     4
100
AcDbLine
 10
11.6738597024624
 20
2.967323541720301
 30
0.0
 11
11.47648522540984
 21
2.985347136266057
 31
0.0
  0
LINE
  5
A83
330
18
100
AcDbEntity
  8
1
 62
     4
100
AcDbLine
 10
11.47648522540984
 20
2.985347136266057
 30
0.0
 11
11.37779668605677
 21
2.999792784578126
 31
0.0
  0
LINE
  5
A84
330
18
100
AcDbEntity
  8
1
 62
     4
100
AcDbLine
 10
16.69660339565765
 20
1.790217470313945
 30
0.0
 11
16.22852514129018
 21
2.05768350759936
 31
0.0
  0
LINE
  5
A85
330
18
100
AcDbEntity
  8
1
 62
     4
100
AcDbLine
 10
16.22852514129018
 20
2.05768350759936
 30
0.0
 11
15.76044306904799
 21
2.297296325036461
 31
0.0
  0
LINE
  5
A86
330
18
100
AcDbEntity
  8
1
 62
     4
100
AcDbLine
 10
15.76044306904799
 20
2.297296325036461
 30
0.0
 11
15.29236757395203
 21
2.505806577408808
 31
0.0
  0
LINE
  5
A87
330
18
100
AcDbEntity
  8
1
 62
     4
100
AcDbLine
 10
15.29236757395203
 20
2.505806577408808
 30
0.0
 11
14.82428387894653
 21
2.680399068987834
 31
0.0
  0
LINE
  5
A88
330
18
100
AcDbEntity
  8
1
 62
     4
100
AcDbLine
 10
14.82428387894653
 20
2.680399068987834
 30
0.0
 11
14.59024605515408
 21
2.754215617499434
 31
0.0
  0
LINE
  5
A89
330
18
100
AcDbEntity
  8
1
 62
     4
100
AcDbLine
 10
14.59024605515408
 20
2.754215617499434
 30
0.0
 11
14.21739261258937
 21
2.83649769409681
 31
0.0
  0
LINE
  5
A8C
330
18
100
AcDbEntity
  8
1
 62
     4
100
AcDbLine
 10
13.9169321610499
 20
2.91209106901093
 30
0.0
 11
13.65408887885043
 21
2.954173979338958
 31
0.0
  0
LINE
  5
A8D
330
18
100
AcDbEntity
  8
1
 62
     4
100
AcDbLine
 10
13.65408887885043
 20
2.954173979338958
 30
0.0
 11
13.42005226525592
 21
2.979489090352613
 31
0.0
  0
LINE
  5
A8E
330
18
100
AcDbEntity
  8
1
 62
     4
100
AcDbLine
 10
13.42005226525592
 20
2.979489090352613
 30
0.0
 11
13.18600918252143
 21
2.994712933888903
 31
0.0
  0
LINE
  5
A8F
330
18
100
AcDbEntity
  8
1
 62
     4
100
AcDbLine
 10
13.18600918252143
 20
2.994712933888903
 30
0.0
 11
12.95198112078262
 21
2.999792784578126
 31
0.0
  0
LINE
  5
A90
330
18
100
AcDbEntity
  8
1
 62
     4
100
AcDbLine
 10
27.80707726538658
 20
-2.553323374462279
 30
0.0
 11
27.52921197730916
 21
-2.656003861093334
 31
0.0
  0
LINE
  5
A91
330
18
100
AcDbEntity
  8
1
 62
     4
100
AcDbLine
 10
27.52921197730916
 20
-2.656003861093334
 30
0.0
 11
27.25134625469789
 21
-2.746007012110323
 31
0.0
  0
LINE
  5
A92
330
18
100
AcDbEntity
  8
1
 62
     4
100
AcDbLine
 10
27.25134625469789
 20
-2.746007012110323
 30
0.0
 11
27.11241298779836
 21
-2.784455263524681
 31
0.0
  0
LINE
  5
A93
330
18
100
AcDbEntity
  8
1
 62
     4
100
AcDbLine
 10
26.81195253625889
 20
-2.859771388683542
 30
0.0
 11
26.69561094259919
 21
-2.886325848824977
 31
0.0
  0
LINE
  5
A94
330
18
100
AcDbEntity
  8
1
 62
     4
100
AcDbLine
 10
26.69561094259919
 20
-2.886325848824977
 30
0.0
 11
26.41774042234375
 21
-2.935970952774066
 31
0.0
  0
LINE
  5
A95
330
18
100
AcDbEntity
  8
1
 62
     4
100
AcDbLine
 10
26.41774042234375
 20
-2.935970952774066
 30
0.0
 11
26.13987240032087
 21
-2.971601343582721
 31
0.0
  0
LINE
  5
A96
330
18
100
AcDbEntity
  8
1
 62
     4
100
AcDbLine
 10
26.13987240032087
 20
-2.971601343582721
 30
0.0
 11
25.86200590741363
 21
-2.993047228956006
 31
0.0
  0
LINE
  5
A97
330
18
100
AcDbEntity
  8
1
 62
     4
100
AcDbLine
 10
25.86200590741363
 20
-2.993047228956006
 30
0.0
 11
25.58415417556295
 21
-3.000207215420926
 31
0.0
  0
LINE
  5
A98
330
18
100
AcDbEntity
  8
1
 62
     4
100
AcDbLine
 10
23.71391313705444
 20
-0.000207215422577
 30
0.0
 11
22.13488651149101
 21
1.147846398667954
 31
0.0
  0
LINE
  5
A99
330
18
100
AcDbEntity
  8
1
 62
     4
100
AcDbLine
 10
22.13488651149101
 20
1.147846398667954
 30
0.0
 11
20.88454303794559
 21
1.945271024870589
 31
0.0
  0
LINE
  5
A9B
330
18
100
AcDbEntity
  8
1
 62
     4
100
AcDbLine
 10
20.58407850542148
 20
2.104868575365485
 30
0.0
 11
20.16110975853152
 21
2.31882620694774
 31
0.0
  0
LINE
  5
A9C
330
18
100
AcDbEntity
  8
1
 62
     4
100
AcDbLine
 10
20.16110975853152
 20
2.31882620694774
 30
0.0
 11
19.76635420470107
 21
2.494203190442509
 31
0.0
  0
LINE
  5
A9D
330
18
100
AcDbEntity
  8
1
 62
     4
100
AcDbLine
 10
19.76635420470107
 20
2.494203190442509
 30
0.0
 11
19.37159501240552
 21
2.645559046994641
 31
0.0
  0
LINE
  5
A9E
330
18
100
AcDbEntity
  8
1
 62
     4
100
AcDbLine
 10
19.37159501240552
 20
2.645559046994641
 30
0.0
 11
18.97683692395302
 21
2.77143431001876
 31
0.0
  0
LINE
  5
A9F
330
18
100
AcDbEntity
  8
1
 62
     4
100
AcDbLine
 10
18.97683692395302
 20
2.77143431001876
 30
0.0
 11
18.58208453197558
 21
2.870615517922018
 31
0.0
  0
LINE
  5
AA0
330
18
100
AcDbEntity
  8
1
 62
     4
100
AcDbLine
 10
18.58208453197558
 20
2.870615517922018
 30
0.0
 11
18.18733065925247
 21
2.94214924641863
 31
0.0
  0
LINE
  5
AA1
330
18
100
AcDbEntity
  8
1
 62
     4
100
AcDbLine
 10
18.18733065925247
 20
2.94214924641863
 30
0.0
 11
17.98994751371207
 21
2.96732351054905
 31
0.0
  0
LINE
  5
AA2
330
18
100
AcDbEntity
  8
1
 62
     4
100
AcDbLine
 10
17.98994751371207
 20
2.96732351054905
 30
0.0
 11
17.79257200906626
 21
2.985347138249703
 31
0.0
  0
LINE
  5
AA3
330
18
100
AcDbEntity
  8
1
 62
     4
100
AcDbLine
 10
17.79257200906626
 20
2.985347138249703
 30
0.0
 11
17.59519672200345
 21
2.996179371338359
 31
0.0
  0
LINE
  5
AA4
330
18
100
AcDbEntity
  8
1
 62
     4
100
AcDbLine
 10
17.59519672200345
 20
2.996179371338359
 30
0.0
 11
17.39782618272373
 21
2.999792784578126
 31
0.0
  0
LINE
  5
AA5
330
18
100
AcDbEntity
  8
1
 62
     4
100
AcDbLine
 10
15.17490349720652
 20
2.552909121704167
 30
0.0
 11
15.45276929419244
 21
2.655589652065105
 31
0.0
  0
LINE
  5
AA6
330
18
100
AcDbEntity
  8
1
 62
     4
100
AcDbLine
 10
15.45276929419244
 20
2.655589652065105
 30
0.0
 11
15.73063445171998
 21
2.745592530177659
 31
0.0
  0
LINE
  5
AA7
330
18
100
AcDbEntity
  8
1
 62
     4
100
AcDbLine
 10
15.73063445171998
 20
2.745592530177659
 30
0.0
 11
16.00849978806203
 21
2.822488434705622
 31
0.0
  0
LINE
  5
AA8
330
18
100
AcDbEntity
  8
1
 62
     4
100
AcDbLine
 10
16.00849978806203
 20
2.822488434705622
 30
0.0
 11
16.28636604195954
 21
2.885910428444606
 31
0.0
  0
LINE
  5
AA9
330
18
100
AcDbEntity
  8
1
 62
     4
100
AcDbLine
 10
16.28636604195954
 20
2.885910428444606
 30
0.0
 11
16.56423404855457
 21
2.935555621820466
 31
0.0
  0
LINE
  5
AAA
330
18
100
AcDbEntity
  8
1
 62
     4
100
AcDbLine
 10
16.56423404855457
 20
2.935555621820466
 30
0.0
 11
16.84210417175571
 21
2.971186666042568
 31
0.0
  0
LINE
  5
AAB
330
18
100
AcDbEntity
  8
1
 62
     4
100
AcDbLine
 10
16.84210417175571
 20
2.971186666042568
 30
0.0
 11
17.11997274154386
 21
2.99263292947448
 31
0.0
  0
LINE
  5
AAC
330
18
100
AcDbEntity
  8
1
 62
     4
100
AcDbLine
 10
17.11997274154386
 20
2.99263292947448
 30
0.0
 11
17.39782618272374
 21
2.999792784578126
 31
0.0
  0
LINE
  5
AAD
330
18
100
AcDbEntity
  8
1
 62
     4
100
AcDbLine
 10
5.999999999999997
 20
2.999792784578126
 30
0.0
 11
6.835143796577427
 21
2.999792784578126
 31
0.0
  0
LINE
  5
AAE
330
18
100
AcDbEntity
  8
1
 62
     4
100
AcDbLine
 10
11.47460439710491
 20
2.99631530149462
 30
0.0
 11
11.28098897500864
 21
2.999792784578126
 31
0.0
  0
LINE
  5
AAF
330
18
100
AcDbEntity
  8
1
 62
     4
100
AcDbLine
 10
11.37779668605677
 20
1.136852292574324
 30
0.0
 11
10.57976613877468
 21
1.790217042034375
 31
0.0
  0
LINE
  5
AB4
330
18
100
AcDbEntity
  8
1
 62
     4
100
AcDbLine
 10
5.999999999999997
 20
-2.935421614477698
 30
0.0
 11
6.013144944796502
 21
-2.937738126032201
 31
0.0
  0
LINE
  5
AB5
330
18
100
AcDbEntity
  8
1
 62
     4
100
AcDbLine
 10
6.013144944796502
 20
-2.937738126032201
 30
0.0
 11
6.287150296998293
 21
-2.972390094265868
 31
0.0
  0
LINE
  5
AB6
330
18
100
AcDbEntity
  8
1
 62
     4
100
AcDbLine
 10
6.287150296998293
 20
-2.972390094265868
 30
0.0
 11
6.561155818191171
 21
-2.993245168339146
 31
0.0
  0
LINE
  5
AB7
330
18
100
AcDbEntity
  8
1
 62
     4
100
AcDbLine
 10
6.561155818191171
 20
-2.993245168339146
 30
0.0
 11
6.835143796599787
 21
-3.000207215391518
 31
0.0
  0
LINE
  5
AB8
330
18
100
AcDbEntity
  8
1
 62
     4
100
AcDbLine
 10
6.835143796599787
 20
-3.000207215391518
 30
0.0
 11
7.113010352708792
 21
-2.993046636757397
 31
0.0
  0
LINE
  5
AB9
330
18
100
AcDbEntity
  8
1
 62
     4
100
AcDbLine
 10
7.113010352708792
 20
-2.993046636757397
 30
0.0
 11
7.390875315703609
 21
-2.971599708560491
 31
0.0
  0
LINE
  5
ABA
330
18
100
AcDbEntity
  8
1
 62
     4
100
AcDbLine
 10
7.390875315703609
 20
-2.971599708560491
 30
0.0
 11
7.668738998825794
 21
-2.935969101303825
 31
0.0
  0
LINE
  5
ABB
330
18
100
AcDbEntity
  8
1
 62
     4
100
AcDbLine
 10
7.668738998825794
 20
-2.935969101303825
 30
0.0
 11
7.946602114590596
 21
-2.886324867110332
 31
0.0
  0
LINE
  5
ABC
330
18
100
AcDbEntity
  8
1
 62
     4
100
AcDbLine
 10
7.946602114590596
 20
-2.886324867110332
 30
0.0
 11
8.224466029508464
 21
-2.822904009940451
 31
0.0
  0
LINE
  5
ABD
330
18
100
AcDbEntity
  8
1
 62
     4
100
AcDbLine
 10
8.224466029508464
 20
-2.822904009940451
 30
0.0
 11
8.502330865501491
 21
-2.74600857392819
 31
0.0
  0
LINE
  5
ABE
330
18
100
AcDbEntity
  8
1
 62
     4
100
AcDbLine
 10
8.502330865501491
 20
-2.74600857392819
 30
0.0
 11
8.780197974337706
 21
-2.656005216067315
 31
0.0
  0
LINE
  5
ABF
330
18
100
AcDbEntity
  8
1
 62
     4
100
AcDbLine
 10
8.780197974337706
 20
-2.656005216067315
 30
0.0
 11
9.058066413712635
 21
-2.553323861311429
 31
0.0
  0
LINE
  5
AC0
330
18
100
AcDbEntity
  8
1
 62
     4
100
AcDbLine
 10
5.999999999999997
 20
-3.000207215421871
 30
0.0
 11
6.835143796599787
 21
-3.000207215421871
 31
0.0
  0
LINE
  5
AC1
330
18
100
AcDbEntity
  8
1
 62
     4
100
AcDbLine
 10
11.37779668605677
 20
-3.000207215421871
 30
0.0
 11
11.08360955376389
 21
-2.996593028143183
 31
0.0
  0
LINE
  5
AC2
330
18
100
AcDbEntity
  8
1
 62
     4
100
AcDbLine
 10
11.08360955376389
 20
-2.996593028143183
 30
0.0
 11
10.88623575855036
 21
-2.985761307139551
 31
0.0
  0
LINE
  5
AC3
330
18
100
AcDbEntity
  8
1
 62
     4
100
AcDbLine
 10
10.88623575855036
 20
-2.985761307139551
 30
0.0
 11
10.68885178388867
 21
-2.967736148634778
 31
0.0
  0
LINE
  5
AC4
330
18
100
AcDbEntity
  8
1
 62
     4
100
AcDbLine
 10
10.68885178388867
 20
-2.967736148634778
 30
0.0
 11
10.49147712601486
 21
-2.942562398759907
 31
0.0
  0
LINE
  5
AC5
330
18
100
AcDbEntity
  8
1
 62
     4
100
AcDbLine
 10
10.49147712601486
 20
-2.942562398759907
 30
0.0
 11
10.09671757171317
 21
-2.871026732136451
 31
0.0
  0
LINE
  5
AC6
330
18
100
AcDbEntity
  8
1
 62
     4
100
AcDbLine
 10
10.09671757171317
 20
-2.871026732136451
 30
0.0
 11
9.701961601710744
 21
-2.771844168534114
 31
0.0
  0
LINE
  5
AC7
330
18
100
AcDbEntity
  8
1
 62
     4
100
AcDbLine
 10
9.701961601710744
 20
-2.771844168534114
 30
0.0
 11
9.307209870725023
 21
-2.645970234376151
 31
0.0
  0
LINE
  5
AC8
330
18
100
AcDbEntity
  8
1
 62
     4
100
AcDbLine
 10
9.307209870725023
 20
-2.645970234376151
 30
0.0
 11
8.912452565374882
 21
-2.4946140997846
 31
0.0
  0
LINE
  5
AC9
330
18
100
AcDbEntity
  8
1
 62
     4
100
AcDbLine
 10
8.912452565374882
 20
-2.4946140997846
 30
0.0
 11
8.517692923078913
 21
-2.319234428393718
 31
0.0
  0
LINE
  5
ACA
330
18
100
AcDbEntity
  8
1
 62
     4
100
AcDbLine
 10
8.517692923078913
 20
-2.319234428393718
 30
0.0
 11
8.122935555407837
 21
-2.121522242324376
 31
0.0
  0
LINE
  5
ACB
330
18
100
AcDbEntity
  8
1
 62
     4
100
AcDbLine
 10
8.122935555407837
 20
-2.121522242324376
 30
0.0
 11
7.728183914086008
 21
-1.903383507363549
 31
0.0
  0
LINE
  5
ACC
330
18
100
AcDbEntity
  8
1
 62
     4
100
AcDbLine
 10
7.728183914086008
 20
-1.903383507363549
 30
0.0
 11
6.938668793894588
 21
-1.41439034607953
 31
0.0
  0
LINE
  5
ACD
330
18
100
AcDbEntity
  8
1
 62
     4
100
AcDbLine
 10
6.938668793894588
 20
-1.41439034607953
 30
0.0
 11
6.149157939868662
 21
-0.8710538050336266
 31
0.0
  0
LINE
  5
ACE
330
18
100
AcDbEntity
  8
1
 62
     4
100
AcDbLine
 10
6.149157939868662
 20
-0.8710538050336266
 30
0.0
 11
5.999999999999997
 21
-0.7613700102192367
 31
0.0
  0
LINE
  5
ACF
330
18
100
AcDbEntity
  8
1
 62
     4
100
AcDbLine
 10
11.37779668605677
 20
-2.77228541307756
 30
0.0
 11
10.65159992167927
 21
-2.438958797624191
 31
0.0
  0
LINE
  5
AD0
330
18
100
AcDbEntity
  8
1
 62
     4
100
AcDbLine
 10
10.65159992167927
 20
-2.438958797624191
 30
0.0
 11
10.09613009247362
 21
-2.17513561461187
 31
0.0
  0
LINE
  5
AD1
330
18
100
AcDbEntity
  8
1
 62
     4
100
AcDbLine
 10
10.09613009247362
 20
-2.17513561461187
 30
0.0
 11
9.540659210793648
 21
-1.869872168536444
 31
0.0
  0
LINE
  5
AD2
330
18
100
AcDbEntity
  8
1
 62
     4
100
AcDbLine
 10
9.540659210793648
 20
-1.869872168536444
 30
0.0
 11
8.985181657122804
 21
-1.5289804658337
 31
0.0
  0
LINE
  5
AD3
330
18
100
AcDbEntity
  8
1
 62
     4
100
AcDbLine
 10
8.985181657122804
 20
-1.5289804658337
 30
0.0
 11
7.874238532338059
 21
-0.7668687679421178
 31
0.0
  0
LINE
  5
AD4
330
18
100
AcDbEntity
  8
1
 62
     4
100
AcDbLine
 10
7.874238532338059
 20
-0.7668687679421178
 30
0.0
 11
6.76331232258687
 21
0.0533826058063228
 31
0.0
  0
LINE
  5
AD5
330
18
100
AcDbEntity
  8
1
 62
     4
100
AcDbLine
 10
6.76331232258687
 20
0.0533826058063228
 30
0.0
 11
5.999999999999997
 21
0.6141805545642253
 31
0.0
  0
LINE
  5
AD9
330
18
100
AcDbEntity
  8
1
 62
     4
100
AcDbLine
 10
9.058066355234663
 20
2.55290915132821
 30
0.0
 11
9.335932076275108
 21
2.655589668362785
 31
0.0
  0
LINE
  5
ADA
330
18
100
AcDbEntity
  8
1
 62
     4
100
AcDbLine
 10
9.335932076275108
 20
2.655589668362785
 30
0.0
 11
9.613797236313192
 21
2.745592538216234
 31
0.0
  0
LINE
  5
ADB
330
18
100
AcDbEntity
  8
1
 62
     4
100
AcDbLine
 10
9.613797236313192
 20
2.745592538216234
 30
0.0
 11
9.891662582818817
 21
2.822488467726099
 31
0.0
  0
LINE
  5
ADC
330
18
100
AcDbEntity
  8
1
 62
     4
100
AcDbLine
 10
9.891662582818817
 20
2.822488467726099
 30
0.0
 11
10.16952893391833
 21
2.885910467782008
 31
0.0
  0
LINE
  5
ADD
330
18
100
AcDbEntity
  8
1
 62
     4
100
AcDbLine
 10
10.16952893391833
 20
2.885910467782008
 30
0.0
 11
10.44739707913589
 21
2.935555664844228
 31
0.0
  0
LINE
  5
ADE
330
18
100
AcDbEntity
  8
1
 62
     4
100
AcDbLine
 10
10.44739707913589
 20
2.935555664844228
 30
0.0
 11
10.72526719431645
 21
2.971186694777011
 31
0.0
  0
LINE
  5
ADF
330
18
100
AcDbEntity
  8
1
 62
     4
100
AcDbLine
 10
10.72526719431645
 20
2.971186694777011
 30
0.0
 11
11.00313564401889
 21
2.992632925651797
 31
0.0
  0
LINE
  5
AE0
330
18
100
AcDbEntity
  8
1
 62
     4
100
AcDbLine
 10
11.00313564401889
 20
2.992632925651797
 30
0.0
 11
11.28098897500864
 21
2.999792784578126
 31
0.0
  0
LINE
  5
AE1
330
18
100
AcDbEntity
  8
1
 62
     4
100
AcDbLine
 10
10.57976613877469
 20
1.790217042034379
 30
0.0
 11
10.111689519213
 21
2.057682445222098
 31
0.0
  0
LINE
  5
AE2
330
18
100
AcDbEntity
  8
1
 62
     4
100
AcDbLine
 10
10.111689519213
 20
2.057682445222098
 30
0.0
 11
9.643606069057693
 21
2.297296128946257
 31
0.0
  0
LINE
  5
AE3
330
18
100
AcDbEntity
  8
1
 62
     4
100
AcDbLine
 10
9.643606069057693
 20
2.297296128946257
 30
0.0
 11
9.175531426501072
 21
2.505806130752294
 31
0.0
  0
LINE
  5
AE4
330
18
100
AcDbEntity
  8
1
 62
     4
100
AcDbLine
 10
9.175531426501072
 20
2.505806130752294
 30
0.0
 11
8.707447033146959
 21
2.680399053463115
 31
0.0
  0
LINE
  5
AE5
330
18
100
AcDbEntity
  8
1
 62
     4
100
AcDbLine
 10
8.707447033146959
 20
2.680399053463115
 30
0.0
 11
8.473409710381261
 21
2.754215339116336
 31
0.0
  0
LINE
  5
AE6
330
18
100
AcDbEntity
  8
1
 62
     4
100
AcDbLine
 10
8.473409710381261
 20
2.754215339116336
 30
0.0
 11
8.239373249898774
 21
2.818703199677555
 31
0.0
  0
LINE
  5
AE7
330
18
100
AcDbEntity
  8
1
 62
     4
100
AcDbLine
 10
8.239373249898774
 20
2.818703199677555
 30
0.0
 11
8.005330566201125
 21
2.873645368698672
 31
0.0
  0
LINE
  5
AE8
330
18
100
AcDbEntity
  8
1
 62
     4
100
AcDbLine
 10
8.005330566201125
 20
2.873645368698672
 30
0.0
 11
7.771288577918973
 21
2.918853392156696
 31
0.0
  0
LINE
  5
AE9
330
18
100
AcDbEntity
  8
1
 62
     4
100
AcDbLine
 10
7.771288577918973
 20
2.918853392156696
 30
0.0
 11
7.55024218723316
 21
2.952213432415848
 31
0.0
  0
LINE
  5
AEB
330
18
100
AcDbEntity
  8
1
 62
     4
100
AcDbLine
 10
7.249781735693686
 20
2.982964862369088
 30
0.0
 11
7.069170402055342
 21
2.994712965731642
 31
0.0
  0
LINE
  5
AEC
330
18
100
AcDbEntity
  8
1
 62
     4
100
AcDbLine
 10
7.069170402055342
 20
2.994712965731642
 30
0.0
 11
6.835143796577437
 21
2.999792784578121
 31
0.0
  0
LINE
  5
AED
330
18
100
AcDbEntity
  8
1
 62
     4
100
AcDbLine
 10
11.37779668605677
 20
-0.2154599063608357
 30
0.0
 11
9.701962349445642
 21
1.147846398667954
 31
0.0
  0
LINE
  5
AEE
330
18
100
AcDbEntity
  8
1
 62
     4
100
AcDbLine
 10
9.701962349445642
 20
1.147846398667954
 30
0.0
 11
8.912453687076792
 21
1.666504848545276
 31
0.0
  0
LINE
  5
AEF
330
18
100
AcDbEntity
  8
1
 62
     4
100
AcDbLine
 10
8.912453687076792
 20
1.666504848545276
 30
0.0
 11
8.122937050919736
 21
2.121117454422305
 31
0.0
  0
LINE
  5
AF0
330
18
100
AcDbEntity
  8
1
 62
     4
100
AcDbLine
 10
8.122937050919736
 20
2.121117454422305
 30
0.0
 11
7.728185596486152
 21
2.31882620694774
 31
0.0
  0
LINE
  5
AF1
330
18
100
AcDbEntity
  8
1
 62
     4
100
AcDbLine
 10
7.728185596486152
 20
2.31882620694774
 30
0.0
 11
7.55024218723316
 21
2.397880644674458
 31
0.0
  0
LINE
  5
AF2
330
18
100
AcDbEntity
  8
1
 62
     4
100
AcDbLine
 10
7.249781735693686
 20
2.526275049430134
 30
0.0
 11
6.93867085036015
 21
2.645559046994641
 31
0.0
  0
LINE
  5
AF3
330
18
100
AcDbEntity
  8
1
 62
     4
100
AcDbLine
 10
6.93867085036015
 20
2.645559046994641
 30
0.0
 11
6.543912761907657
 21
2.77143431001876
 31
0.0
  0
LINE
  5
AF4
330
18
100
AcDbEntity
  8
1
 62
     4
100
AcDbLine
 10
6.543912761907657
 20
2.77143431001876
 30
0.0
 11
6.149160369930211
 21
2.870615517922018
 31
0.0
  0
LINE
  5
AF5
330
18
100
AcDbEntity
  8
1
 62
     4
100
AcDbLine
 10
6.149160369930211
 20
2.870615517922018
 30
0.0
 11
6.0
 21
2.897645011848041
 31
0.0
  0
DIMENSION
  5
AFF
330
18
100
AcDbEntity
  8
2
100
AcDbDimension
  2
*D5
 10
44.90008074236846
 20
-2.998472469717689
 30
0.0
 11
42.52508074236845
 21
-11.29013913638435
 31
0.0
 70
    32
  1
%%c<>
 71
     5
 42
5.996468250701981
  3
STANDARD
100
AcDbAlignedDimension
 13
29.90010847732915
 23
2.997995780984295
 33
0.0
 14
29.90008074236846
 24
-2.998472469717686
 34
0.0
 50
90.00000000000019
100
AcDbRotatedDimension
  0
DIMENSION
  5
B00
330
18
100
AcDbEntity
  8
2
100
AcDbDimension
  2
*D6
 10
30.0
 20
17.99799578098429
 30
0.0
 11
44.54166666666664
 21
20.37299578098429
 31
0.0
 70
    32
  1
0.1x45°
 71
     5
 42
0.0998915226708519
  3
STANDARD
100
AcDbAlignedDimension
 13
29.90010847732915
 23
2.997995780984295
 33
0.0
 14
30.0
 24
2.997995780984295
 34
0.0
100
AcDbRotatedDimension
  0
LINE
  5
BD8
330
18
100
AcDbEntity
  8
1
 62
     4
100
AcDbLine
 10
27.11241298779836
 20
2.784527670634517
 30
0.0
 11
27.11241298779836
 21
1.99293620616974
 31
0.0
  0
LINE
  5
BD9
330
18
100
AcDbEntity
  8
1
 62
     4
100
AcDbLine
 10
26.81195253625889
 20
2.860121045548634
 30
0.0
 11
26.81195253625889
 21
2.152531744445439
 31
0.0
  0
LINE
  5
BDD
330
18
100
AcDbEntity
  8
1
 62
     4
100
AcDbLine
 10
27.11241298779836
 20
2.784527670634517
 30
0.0
 11
27.03561214643071
 21
2.717786501873284
 31
0.0
  0
LINE
  5
BDE
330
18
100
AcDbEntity
  8
1
 62
     4
100
AcDbLine
 10
26.81195253625889
 20
2.860121045548634
 30
0.0
 11
26.95648443981695
 21
2.735362788736687
 31
0.0
  0
ARC
  5
BDF
330
18
100
AcDbEntity
  8
1
 62
     4
100
AcDbCircle
 10
27.00940805514552
 20
2.786719733849424
 30
0.0
 40
0.0737458125642314
100
AcDbArc
 50
224.1392754477617
 51
290.8136637753667
  0
LINE
  5
BE0
330
18
100
AcDbEntity
  8
1
 62
     4
100
AcDbLine
 10
27.11241298779836
 20
1.99293620616974
 30
0.0
 11
27.0246636024306
 21
2.061229657357918
 31
0.0
  0
ARC
  5
BE2
330
18
100
AcDbEntity
  8
1
 62
     4
100
AcDbCircle
 10
26.83234256140618
 20
1.838246336244423
 30
0.0
 40
0.2944638251390609
100
AcDbArc
 50
49.2225357121466
 51
66.71685745953292
  0
LINE
  5
BF0
330
18
100
AcDbEntity
  8
1
 62
     4
100
AcDbLine
 10
26.81195253625889
 20
-0.8880595040284728
 30
0.0
 11
26.96979756497064
 21
-0.9706258820489123
 31
0.0
  0
LINE
  5
BF1
330
18
100
AcDbEntity
  8
1
 62
     4
100
AcDbLine
 10
27.11241298779836
 20
-1.105244613444843
 30
0.0
 11
26.96979756497065
 21
-0.9706258820489159
 31
0.0
  0
POINT
  5
BF3
330
18
100
AcDbEntity
  8
1
100
AcDbPoint
 10
41.68658756043149
 20
0.6440890812230215
 30
0.0
  0
LINE
  5
BF4
330
18
100
AcDbEntity
  8
1
 62
     4
100
AcDbLine
 10
26.81195138200746
 20
-0.8880586696883071
 30
0.0
 11
26.81195253625889
 21
-2.087214148081008
 31
0.0
  0
LINE
  5
BF5
330
18
100
AcDbEntity
  8
1
 62
     4
100
AcDbLine
 10
27.11241298779836
 20
-1.105244613444843
 30
0.0
 11
27.11241298779836
 21
-2.242411827859088
 31
0.0
  0
LINE
  5
BF8
330
18
100
AcDbEntity
  8
1
 62
     4
100
AcDbLine
 10
26.81195253625889
 20
-2.859771388683542
 30
0.0
 11
26.97591039169648
 21
-2.793257143866881
 31
0.0
  0
LINE
  5
BF9
330
18
100
AcDbEntity
  8
1
 62
     4
100
AcDbLine
 10
27.11241298779836
 20
-2.784455263524681
 30
0.0
 11
27.02102112417302
 21
-2.784455263524681
 31
0.0
  0
ARC
  5
C01
330
18
100
AcDbEntity
  8
1
 62
     4
100
AcDbCircle
 10
27.03589049131198
 20
-2.980662621160022
 30
0.0
 40
0.1967699806102441
100
AcDbArc
 50
94.33381607116777
 51
107.7475411081572
  0
LINE
  5
C0E
330
18
100
AcDbEntity
  8
1
 62
     4
100
AcDbLine
 10
20.72086687713502
 20
2.061064646595395
 30
0.0
 11
20.58407850542148
 21
2.104868575365485
 31
0.0
  0
LINE
  5
C0F
330
18
100
AcDbEntity
  8
1
 62
     4
100
AcDbLine
 10
20.88454303794559
 20
2.763818548141931
 30
0.0
 11
20.88454303794559
 21
1.945271024870589
 31
0.0
  0
LINE
  5
C10
330
18
100
AcDbEntity
  8
1
 62
     4
100
AcDbLine
 10
20.58408258640612
 20
2.839411923056048
 30
0.0
 11
20.58408258640612
 21
2.104867268506149
 31
0.0
  0
LINE
  5
C11
330
18
100
AcDbEntity
  8
1
 62
     4
100
AcDbLine
 10
20.88454303794559
 20
2.763818548141931
 30
0.0
 11
20.80774219657794
 21
2.697077379380701
 31
0.0
  0
LINE
  5
C12
330
18
100
AcDbEntity
  8
1
 62
     4
100
AcDbLine
 10
20.58408258640612
 20
2.839411923056048
 30
0.0
 11
20.72861448996418
 21
2.714653666244103
 31
0.0
  0
ARC
  5
C13
330
18
100
AcDbEntity
  8
1
 62
     4
100
AcDbCircle
 10
20.78153810529274
 20
2.766010611356843
 30
0.0
 40
0.0737458125642314
100
AcDbArc
 50
224.1392754477617
 51
290.8136637753667
  0
LINE
  5
C14
330
18
100
AcDbEntity
  8
1
 62
     4
100
AcDbLine
 10
20.88454303794559
 20
1.945271024870589
 30
0.0
 11
20.79679365257783
 21
2.013564476058768
 31
0.0
  0
ARC
  5
C15
330
18
100
AcDbEntity
  8
1
 62
     4
100
AcDbCircle
 10
20.60447261155339
 20
1.790581154945271
 30
0.0
 40
0.2944638251390609
100
AcDbArc
 50
49.22253571214657
 51
66.71685745953292
  0
LINE
  5
C16
330
18
100
AcDbEntity
  8
1
 62
     4
100
AcDbLine
 10
20.5840814503215
 20
-0.9568362096209018
 30
0.0
 11
20.58408258500021
 21
-2.135657519577804
 31
0.0
  0
LINE
  5
C17
330
18
100
AcDbEntity
  8
1
 62
     4
100
AcDbLine
 10
20.8845430379456
 20
-1.162954133740345
 30
0.0
 11
20.88454303794559
 21
-2.286141583573063
 31
0.0
  0
LINE
  5
C18
330
18
100
AcDbEntity
  8
1
 62
     4
100
AcDbLine
 10
20.58408258640612
 20
-2.839636053598995
 30
0.0
 11
20.7480404418437
 21
-2.773121808782335
 31
0.0
  0
LINE
  5
C19
330
18
100
AcDbEntity
  8
1
 62
     4
100
AcDbLine
 10
20.88454303794559
 20
-2.764319928440134
 30
0.0
 11
20.79315117432024
 21
-2.764319928440134
 31
0.0
  0
ARC
  5
C1A
330
18
100
AcDbEntity
  8
1
 62
     4
100
AcDbCircle
 10
20.80802054145921
 20
-2.960527286075473
 30
0.0
 40
0.1967699806102441
100
AcDbArc
 50
94.33381607116784
 51
107.7475411081574
  0
LINE
  5
C1B
330
18
100
AcDbEntity
  8
1
 62
     4
100
AcDbLine
 10
14.05371645177879
 20
2.239008993489481
 30
0.0
 11
13.91692808006526
 21
2.282812922259568
 31
0.0
  0
LINE
  5
C1C
330
18
100
AcDbEntity
  8
1
 62
     4
100
AcDbLine
 10
14.21739261258937
 20
2.83649769409681
 30
0.0
 11
14.21739261258937
 21
2.123215371764674
 31
0.0
  0
LINE
  5
C1D
330
18
100
AcDbEntity
  8
1
 62
     4
100
AcDbLine
 10
13.9169321610499
 20
2.91209106901093
 30
0.0
 11
13.9169321610499
 21
2.282810910040375
 31
0.0
  0
LINE
  5
C1E
330
18
100
AcDbEntity
  8
1
 62
     4
100
AcDbLine
 10
14.21739261258937
 20
2.83649769409681
 30
0.0
 11
14.14059177122171
 21
2.769756525335581
 31
0.0
  0
LINE
  5
C1F
330
18
100
AcDbEntity
  8
1
 62
     4
100
AcDbLine
 10
13.9169321610499
 20
2.91209106901093
 30
0.0
 11
14.06146406460796
 21
2.787332812198984
 31
0.0
  0
ARC
  5
C20
330
18
100
AcDbEntity
  8
1
 62
     4
100
AcDbCircle
 10
14.11438767993652
 20
2.838689757311724
 30
0.0
 40
0.0737458125642314
100
AcDbArc
 50
224.1392754477617
 51
290.8136637753667
  0
LINE
  5
C21
330
18
100
AcDbEntity
  8
1
 62
     4
100
AcDbLine
 10
14.21739261258937
 20
2.123215371764674
 30
0.0
 11
14.12964322722161
 21
2.191508822952853
 31
0.0
  0
ARC
  5
C22
330
18
100
AcDbEntity
  8
1
 62
     4
100
AcDbCircle
 10
13.93732218619718
 20
1.968525501839355
 30
0.0
 40
0.2944638251390609
100
AcDbArc
 50
49.22253571214657
 51
66.716857459533
  0
LINE
  5
C23
330
18
100
AcDbEntity
  8
1
 62
     4
100
AcDbLine
 10
13.91693088518455
 20
-0.7097435540577605
 30
0.0
 11
13.91693206516205
 21
-1.935625928093374
 31
0.0
  0
LINE
  5
C24
330
18
100
AcDbEntity
  8
1
 62
     4
100
AcDbLine
 10
14.21739261258938
 20
-0.9201140514136586
 30
0.0
 11
14.21739261258937
 21
-2.108634482571534
 31
0.0
  0
LINE
  5
C25
330
18
100
AcDbEntity
  8
1
 62
     4
100
AcDbLine
 10
13.92450820190445
 20
-2.911146907872728
 30
0.0
 11
14.08846605734203
 21
-2.844632663056069
 31
0.0
  0
LINE
  5
C26
330
18
100
AcDbEntity
  8
1
 62
     4
100
AcDbLine
 10
14.22496865344393
 20
-2.835830782713868
 30
0.0
 11
14.13357678981857
 21
-2.835830782713868
 31
0.0
  0
ARC
  5
C27
330
18
100
AcDbEntity
  8
1
 62
     4
100
AcDbCircle
 10
14.14844615695755
 20
-3.032038140349208
 30
0.0
 40
0.1967699806102441
100
AcDbArc
 50
94.33381607116766
 51
107.7475411081574
  0
LINE
  5
CD2
330
18
100
AcDbEntity
  8
SK1
100
AcDbLine
 10
-20.6
 20
-2.142428528562854
 30
0.0
 11
-16.4
 21
-2.142428528562854
 31
0.0
  0
LINE
  5
CD8
330
18
100
AcDbEntity
  8
SK1
100
AcDbLine
 10
-16.4
 20
-2.142428528562917
 30
0.0
 11
-16.4
 21
2.142428528562922
 31
0.0
  0
LINE
  5
CD9
330
18
100
AcDbEntity
  8
SK1
100
AcDbLine
 10
-16.4
 20
2.142428528562922
 30
0.0
 11
-16.29652663059943
 21
2.037790956181313
 31
0.0
  0
LINE
  5
CDA
330
18
100
AcDbEntity
  8
SK1
100
AcDbLine
 10
-16.29652663059943
 20
2.037790956181313
 30
0.0
 11
-16.19752749574039
 21
1.927366267412109
 31
0.0
  0
LINE
  5
CDB
330
18
100
AcDbEntity
  8
SK1
100
AcDbLine
 10
-16.19752749574039
 20
1.927366267412109
 30
0.0
 11
-16.10348258131685
 21
1.811427311784369
 31
0.0
  0
LINE
  5
CDC
330
18
100
AcDbEntity
  8
SK1
100
AcDbLine
 10
-16.10348258131685
 20
1.811427311784369
 30
0.0
 11
-16.0148490027631
 21
1.690296728151453
 31
0.0
  0
LINE
  5
CDD
330
18
100
AcDbEntity
  8
SK1
100
AcDbLine
 10
-16.0148490027631
 20
1.690296728151453
 30
0.0
 11
-15.93205444370411
 21
1.564344601343804
 31
0.0
  0
LINE
  5
CDE
330
18
100
AcDbEntity
  8
SK1
100
AcDbLine
 10
-15.93205444370411
 20
1.564344601343804
 30
0.0
 11
-15.85549090425923
 21
1.43398512900331
 31
0.0
  0
LINE
  5
CDF
330
18
100
AcDbEntity
  8
SK1
100
AcDbLine
 10
-15.85549090425923
 20
1.43398512900331
 30
0.0
 11
-15.78550893786256
 21
1.299672347826379
 31
0.0
  0
LINE
  5
CE0
330
18
100
AcDbEntity
  8
SK1
100
AcDbLine
 10
-15.78550893786256
 20
1.299672347826379
 30
0.0
 11
-15.72241254536848
 21
1.161895003862269
 31
0.0
  0
LINE
  5
CE1
330
18
100
AcDbEntity
  8
SK1
100
AcDbLine
 10
-15.72241254536848
 20
1.161895003862269
 30
0.0
 11
-15.66645487700823
 21
1.021170684483374
 31
0.0
  0
LINE
  5
CE2
330
18
100
AcDbEntity
  8
SK1
100
AcDbLine
 10
-15.66645487700823
 20
1.021170684483374
 30
0.0
 11
-15.61783486718133
 21
0.8780393581935289
 31
0.0
  0
LINE
  5
CE3
330
18
100
AcDbEntity
  8
SK1
100
AcDbLine
 10
-15.61783486718133
 20
0.8780393581935289
 30
0.0
 11
-15.57669489537028
 21
0.7330564908368145
 31
0.0
  0
LINE
  5
CE4
330
18
100
AcDbEntity
  8
SK1
100
AcDbLine
 10
-15.57669489537028
 20
0.7330564908368145
 30
0.0
 11
-15.54311953037369
 21
0.5867859216691304
 31
0.0
  0
LINE
  5
CE5
330
18
100
AcDbEntity
  8
SK1
100
AcDbLine
 10
-15.54311953037369
 20
0.5867859216691304
 30
0.0
 11
-15.51713537659085
 21
0.4397926893206975
 31
0.0
  0
LINE
  5
CE6
330
18
100
AcDbEntity
  8
SK1
100
AcDbLine
 10
-15.51713537659085
 20
0.4397926893206975
 30
0.0
 11
-15.49871200243553
 21
0.2926359956461171
 31
0.0
  0
LINE
  5
CE7
330
18
100
AcDbEntity
  8
SK1
100
AcDbLine
 10
-15.49871200243553
 20
0.2926359956461171
 30
0.0
 11
-15.48776389425512
 21
0.1458624851541672
 31
0.0
  0
LINE
  5
CE8
330
18
100
AcDbEntity
  8
SK1
100
AcDbLine
 10
-15.48776389425512
 20
0.1458624851541672
 30
0.0
 11
-15.48415334632501
 21
0.0000000000000015
 31
0.0
  0
LINE
  5
CE9
330
18
100
AcDbEntity
  8
SK1
100
AcDbLine
 10
-15.48415334632501
 20
0.0000000000000015
 30
0.0
 11
-15.48776389425511
 21
-0.14586248515416
 31
0.0
  0
LINE
  5
CEA
330
18
100
AcDbEntity
  8
SK1
100
AcDbLine
 10
-15.48776389425511
 20
-0.14586248515416
 30
0.0
 11
-15.49871200243553
 21
-0.2926359956461142
 31
0.0
  0
LINE
  5
CEB
330
18
100
AcDbEntity
  8
SK1
100
AcDbLine
 10
-15.49871200243553
 20
-0.2926359956461142
 30
0.0
 11
-15.51713537659085
 21
-0.4397926893206943
 31
0.0
  0
LINE
  5
CEC
330
18
100
AcDbEntity
  8
SK1
100
AcDbLine
 10
-15.51713537659085
 20
-0.4397926893206943
 30
0.0
 11
-15.54311953037369
 21
-0.5867859216691274
 31
0.0
  0
LINE
  5
CED
330
18
100
AcDbEntity
  8
SK1
100
AcDbLine
 10
-15.54311953037369
 20
-0.5867859216691274
 30
0.0
 11
-15.57669489537028
 21
-0.7330564908368116
 31
0.0
  0
LINE
  5
CEE
330
18
100
AcDbEntity
  8
SK1
100
AcDbLine
 10
-15.57669489537028
 20
-0.7330564908368116
 30
0.0
 11
-15.61783486718133
 21
-0.8780393581935259
 31
0.0
  0
LINE
  5
CEF
330
18
100
AcDbEntity
  8
SK1
100
AcDbLine
 10
-15.61783486718133
 20
-0.8780393581935259
 30
0.0
 11
-15.66645487700823
 21
-1.021170684483369
 31
0.0
  0
LINE
  5
CF0
330
18
100
AcDbEntity
  8
SK1
100
AcDbLine
 10
-15.66645487700823
 20
-1.021170684483369
 30
0.0
 11
-15.72241254536848
 21
-1.161895003862264
 31
0.0
  0
LINE
  5
CF1
330
18
100
AcDbEntity
  8
SK1
100
AcDbLine
 10
-15.72241254536848
 20
-1.161895003862264
 30
0.0
 11
-15.78550893786256
 21
-1.299672347826379
 31
0.0
  0
LINE
  5
CF2
330
18
100
AcDbEntity
  8
SK1
100
AcDbLine
 10
-15.78550893786256
 20
-1.299672347826379
 30
0.0
 11
-15.85549090425923
 21
-1.433985129003309
 31
0.0
  0
LINE
  5
CF3
330
18
100
AcDbEntity
  8
SK1
100
AcDbLine
 10
-15.85549090425923
 20
-1.433985129003309
 30
0.0
 11
-15.93205444370411
 21
-1.5643446013438
 31
0.0
  0
LINE
  5
CF4
330
18
100
AcDbEntity
  8
SK1
100
AcDbLine
 10
-15.93205444370411
 20
-1.5643446013438
 30
0.0
 11
-16.0148490027631
 21
-1.690296728151448
 31
0.0
  0
LINE
  5
CF5
330
18
100
AcDbEntity
  8
SK1
100
AcDbLine
 10
-16.0148490027631
 20
-1.690296728151448
 30
0.0
 11
-16.10348258131685
 21
-1.811427311784363
 31
0.0
  0
LINE
  5
CF6
330
18
100
AcDbEntity
  8
SK1
100
AcDbLine
 10
-16.10348258131685
 20
-1.811427311784363
 30
0.0
 11
-16.19752749574038
 21
-1.927366267412108
 31
0.0
  0
LINE
  5
CF7
330
18
100
AcDbEntity
  8
SK1
100
AcDbLine
 10
-16.19752749574038
 20
-1.927366267412108
 30
0.0
 11
-16.29652663059943
 21
-2.037790956181309
 31
0.0
  0
LINE
  5
CF8
330
18
100
AcDbEntity
  8
SK1
100
AcDbLine
 10
-16.29652663059943
 20
-2.037790956181309
 30
0.0
 11
-16.4
 21
-2.142428528562917
 31
0.0
  0
LINE
  5
CF9
330
18
100
AcDbEntity
  8
SK1
100
AcDbLine
 10
-20.6
 20
2.142428528562854
 30
0.0
 11
-16.4
 21
2.142428528562854
 31
0.0
  0
LINE
  5
CFA
330
18
100
AcDbEntity
  8
SK1
100
AcDbLine
 10
-20.6
 20
-2.142428528562899
 30
0.0
 11
-20.6
 21
2.142428528562901
 31
0.0
  0
LINE
  5
CFB
330
18
100
AcDbEntity
  8
SK1
100
AcDbLine
 10
-20.6
 20
2.142428528562901
 30
0.0
 11
-20.70347336940057
 21
2.037790956181292
 31
0.0
  0
LINE
  5
CFC
330
18
100
AcDbEntity
  8
SK1
100
AcDbLine
 10
-20.70347336940057
 20
2.037790956181292
 30
0.0
 11
-20.80247250425961
 21
1.927366267412089
 31
0.0
  0
LINE
  5
CFD
330
18
100
AcDbEntity
  8
SK1
100
AcDbLine
 10
-20.80247250425961
 20
1.927366267412089
 30
0.0
 11
-20.89651741868314
 21
1.811427311784344
 31
0.0
  0
LINE
  5
CFE
330
18
100
AcDbEntity
  8
SK1
100
AcDbLine
 10
-20.89651741868314
 20
1.811427311784344
 30
0.0
 11
-20.98515099723687
 21
1.690296728151434
 31
0.0
  0
LINE
  5
CFF
330
18
100
AcDbEntity
  8
SK1
100
AcDbLine
 10
-20.98515099723687
 20
1.690296728151434
 30
0.0
 11
-21.06794555629587
 21
1.564344601343788
 31
0.0
  0
LINE
  5
D00
330
18
100
AcDbEntity
  8
SK1
100
AcDbLine
 10
-21.06794555629587
 20
1.564344601343788
 30
0.0
 11
-21.14450909574076
 21
1.433985129003295
 31
0.0
  0
LINE
  5
D01
330
18
100
AcDbEntity
  8
SK1
100
AcDbLine
 10
-21.14450909574076
 20
1.433985129003295
 30
0.0
 11
-21.21449106213741
 21
1.299672347826364
 31
0.0
  0
LINE
  5
D02
330
18
100
AcDbEntity
  8
SK1
100
AcDbLine
 10
-21.21449106213741
 20
1.299672347826364
 30
0.0
 11
-21.2775874546315
 21
1.161895003862254
 31
0.0
  0
LINE
  5
D03
330
18
100
AcDbEntity
  8
SK1
100
AcDbLine
 10
-21.2775874546315
 20
1.161895003862254
 30
0.0
 11
-21.33354512299175
 21
1.021170684483361
 31
0.0
  0
LINE
  5
D04
330
18
100
AcDbEntity
  8
SK1
100
AcDbLine
 10
-21.33354512299175
 20
1.021170684483361
 30
0.0
 11
-21.38216513281864
 21
0.8780393581935213
 31
0.0
  0
LINE
  5
D05
330
18
100
AcDbEntity
  8
SK1
100
AcDbLine
 10
-21.38216513281864
 20
0.8780393581935213
 30
0.0
 11
-21.42330510462969
 21
0.7330564908368056
 31
0.0
  0
LINE
  5
D06
330
18
100
AcDbEntity
  8
SK1
100
AcDbLine
 10
-21.42330510462969
 20
0.7330564908368056
 30
0.0
 11
-21.45688046962628
 21
0.5867859216691236
 31
0.0
  0
LINE
  5
D07
330
18
100
AcDbEntity
  8
SK1
100
AcDbLine
 10
-21.45688046962628
 20
0.5867859216691236
 30
0.0
 11
-21.48286462340912
 21
0.4397926893206929
 31
0.0
  0
LINE
  5
D08
330
18
100
AcDbEntity
  8
SK1
100
AcDbLine
 10
-21.48286462340912
 20
0.4397926893206929
 30
0.0
 11
-21.50128799756443
 21
0.2926359956461128
 31
0.0
  0
LINE
  5
D09
330
18
100
AcDbEntity
  8
SK1
100
AcDbLine
 10
-21.50128799756443
 20
0.2926359956461128
 30
0.0
 11
-21.51223610574484
 21
0.1458624851541629
 31
0.0
  0
LINE
  5
D0A
330
18
100
AcDbEntity
  8
SK1
100
AcDbLine
 10
-21.51223610574484
 20
0.1458624851541629
 30
0.0
 11
-21.51584665367495
 21
0.0000000000000015
 31
0.0
  0
LINE
  5
D0B
330
18
100
AcDbEntity
  8
SK1
100
AcDbLine
 10
-21.51584665367495
 20
0.0000000000000015
 30
0.0
 11
-21.51223610574484
 21
-0.14586248515416
 31
0.0
  0
LINE
  5
D0C
330
18
100
AcDbEntity
  8
SK1
100
AcDbLine
 10
-21.51223610574484
 20
-0.14586248515416
 30
0.0
 11
-21.50128799756443
 21
-0.2926359956461099
 31
0.0
  0
LINE
  5
D0D
330
18
100
AcDbEntity
  8
SK1
100
AcDbLine
 10
-21.50128799756443
 20
-0.2926359956461099
 30
0.0
 11
-21.48286462340912
 21
-0.4397926893206903
 31
0.0
  0
LINE
  5
D0E
330
18
100
AcDbEntity
  8
SK1
100
AcDbLine
 10
-21.48286462340912
 20
-0.4397926893206903
 30
0.0
 11
-21.45688046962628
 21
-0.5867859216691186
 31
0.0
  0
LINE
  5
D0F
330
18
100
AcDbEntity
  8
SK1
100
AcDbLine
 10
-21.45688046962628
 20
-0.5867859216691186
 30
0.0
 11
-21.42330510462969
 21
-0.7330564908367984
 31
0.0
  0
LINE
  5
D10
330
18
100
AcDbEntity
  8
SK1
100
AcDbLine
 10
-21.42330510462969
 20
-0.7330564908367984
 30
0.0
 11
-21.38216513281864
 21
-0.8780393581935134
 31
0.0
  0
LINE
  5
D11
330
18
100
AcDbEntity
  8
SK1
100
AcDbLine
 10
-21.38216513281864
 20
-0.8780393581935134
 30
0.0
 11
-21.33354512299175
 21
-1.021170684483355
 31
0.0
  0
LINE
  5
D12
330
18
100
AcDbEntity
  8
SK1
100
AcDbLine
 10
-21.33354512299175
 20
-1.021170684483355
 30
0.0
 11
-21.2775874546315
 21
-1.161895003862247
 31
0.0
  0
LINE
  5
D13
330
18
100
AcDbEntity
  8
SK1
100
AcDbLine
 10
-21.2775874546315
 20
-1.161895003862247
 30
0.0
 11
-21.21449106213741
 21
-1.299672347826356
 31
0.0
  0
LINE
  5
D14
330
18
100
AcDbEntity
  8
SK1
100
AcDbLine
 10
-21.21449106213741
 20
-1.299672347826356
 30
0.0
 11
-21.14450909574076
 21
-1.433985129003293
 31
0.0
  0
LINE
  5
D15
330
18
100
AcDbEntity
  8
SK1
100
AcDbLine
 10
-21.14450909574076
 20
-1.433985129003293
 30
0.0
 11
-21.06794555629588
 21
-1.56434460134378
 31
0.0
  0
LINE
  5
D16
330
18
100
AcDbEntity
  8
SK1
100
AcDbLine
 10
-21.06794555629588
 20
-1.56434460134378
 30
0.0
 11
-20.98515099723687
 21
-1.690296728151428
 31
0.0
  0
LINE
  5
D17
330
18
100
AcDbEntity
  8
SK1
100
AcDbLine
 10
-20.98515099723687
 20
-1.690296728151428
 30
0.0
 11
-20.89651741868314
 21
-1.811427311784344
 31
0.0
  0
LINE
  5
D18
330
18
100
AcDbEntity
  8
SK1
100
AcDbLine
 10
-20.89651741868314
 20
-1.811427311784344
 30
0.0
 11
-20.80247250425961
 21
-1.927366267412083
 31
0.0
  0
LINE
  5
D19
330
18
100
AcDbEntity
  8
SK1
100
AcDbLine
 10
-20.80247250425961
 20
-1.927366267412083
 30
0.0
 11
-20.70347336940057
 21
-2.037790956181289
 31
0.0
  0
LINE
  5
D1A
330
18
100
AcDbEntity
  8
SK1
100
AcDbLine
 10
-20.70347336940057
 20
-2.037790956181289
 30
0.0
 11
-20.60000000000001
 21
-2.142428528562895
 31
0.0
  0
LINE
  5
DA9
330
18
100
AcDbEntity
  8
1
 62
     4
100
AcDbLine
 10
7.249780297244917
 20
-0.3058005883567298
 30
0.0
 11
7.249781549796856
 21
-1.607080778642176
 31
0.0
  0
LINE
  5
DAA
330
18
100
AcDbEntity
  8
1
 62
     4
100
AcDbLine
 10
7.550242187233167
 20
-0.5276463562022041
 30
0.0
 11
7.55024218723316
 21
-1.79317372757236
 31
0.0
  0
LINE
  5
DAB
330
18
100
AcDbEntity
  8
1
 62
     4
100
AcDbLine
 10
7.389566070941968
 20
2.493276720640107
 30
0.0
 11
7.249777510177603
 21
2.526276737172869
 31
0.0
  0
LINE
  5
DAC
330
18
100
AcDbEntity
  8
1
 62
     4
100
AcDbLine
 10
7.55024218723316
 20
2.952213432415845
 30
0.0
 11
7.55024218723316
 21
2.397880644674458
 31
0.0
  0
LINE
  5
DAD
330
18
100
AcDbEntity
  8
1
 62
     4
100
AcDbLine
 10
7.249781735693686
 20
2.982964862369088
 30
0.0
 11
7.249781735693686
 21
2.526275049430134
 31
0.0
  0
LINE
  5
DAE
330
18
100
AcDbEntity
  8
1
 62
     4
100
AcDbLine
 10
7.55024218723316
 20
2.952213432415848
 30
0.0
 11
7.493819886283934
 21
2.880286415775206
 31
0.0
  0
LINE
  5
DAF
330
18
100
AcDbEntity
  8
1
 62
     4
100
AcDbLine
 10
7.249781735693686
 20
2.982964862369088
 30
0.0
 11
7.41286607205628
 21
2.884360698025141
 31
0.0
  0
ARC
  5
DB0
330
18
100
AcDbEntity
  8
1
 62
     4
100
AcDbCircle
 10
7.456439847222576
 20
2.943856672582385
 30
0.0
 40
0.0737458125642314
100
AcDbArc
 50
233.7816274548932
 51
300.4560157824982
  0
LINE
  5
DB1
330
18
100
AcDbEntity
  8
1
 62
     4
100
AcDbLine
 10
7.55024218723316
 20
2.397880644674458
 30
0.0
 11
7.468966823903508
 21
2.451844102338904
 31
0.0
  0
ARC
  5
DB2
330
18
100
AcDbEntity
  8
1
 62
     4
100
AcDbCircle
 10
7.294626052263677
 20
2.214537887376974
 30
0.0
 40
0.2944638251390609
100
AcDbArc
 50
53.69654588629583
 51
71.1908676336823
  0
LINE
  5
EB9
330
18
100
AcDbEntity
  8
1
 62
     4
100
AcDbLine
 10
29.90010847732915
 20
2.997995780984295
 30
0.0
 11
30.0
 21
2.902652356818567
 31
0.0
  0
LINE
  5
EBA
330
18
100
AcDbEntity
  8
1
 62
     4
100
AcDbLine
 10
29.90008074236846
 20
-2.998472469717686
 30
0.0
 11
30.0
 21
-2.902490174829096
 31
0.0
  0
DIMENSION
  5
F46
330
18
100
AcDbEntity
  8
2
100
AcDbDimension
  2
*D13
 10
30.0
 20
60.02121468528098
 30
0.0
 11
18.0
 21
60.02121468528098
 31
0.0
 70
   160
  1
<>
 71
     5
 42
24.0
  3
STANDARD
100
AcDbAlignedDimension
 13
6.0
 23
2.999792784578126
 33
0.0
 14
30.0
 24
0.0000000000000001
 34
0.0
100
AcDbRotatedDimension
  0
ENDSEC
  0
SECTION
  2
OBJECTS
  0
DICTIONARY
  5
C
330
0
100
AcDbDictionary
281
     1
  3
ACAD_2007HEADERVARS_RT
350
10E8
  3
ACAD_CIP_PREVIOUS_PRODUCT_INFO
350
58A
  3
ACAD_COLOR
350
387
  3
ACAD_DETAILVIEWSTYLE
350
584
  3
ACAD_FIELDLIST
350
655
  3
ACAD_GROUP
350
D
  3
ACAD_LAYOUT
350
301
  3
ACAD_MATERIAL
350
386
  3
ACAD_MLEADERSTYLE
350
548
  3
ACAD_MLINESTYLE
350
E
  3
ACAD_PLOTSETTINGS
350
302
  3
ACAD_PLOTSTYLENAME
350
2FF
  3
ACAD_SCALELIST
350
3A0
  3
ACAD_SECTIONVIEWSTYLE
350
582
  3
ACAD_TABLESTYLE
350
388
  3
ACAD_VISUALSTYLE
350
567
  3
ACDB_RECOMPOSE_DATA
350
10E7
  3
AcDbVariableDictionary
350
357
  3
AcmDictionary
350
61F
  3
AMG
350
5F5
  3
AMGSNAPSETTINGS
350
66B
  0
DICTIONARY
  5
D20
330
2
100
AcDbDictionary
280
     1
281
     1
  3
ACAD_LAYERSTATES
360
D21
  0
DICTIONARY
  5
58D
330
F
100
AcDbDictionary
280
     1
281
     1
  3
ADSK_XREC_LAYER_RECONCILED
360
58E
  0
DICTIONARY
  5
58F
330
23
100
AcDbDictionary
280
     1
281
     1
  3
ADSK_XREC_LAYER_RECONCILED
360
590
  0
DICTIONARY
  5
591
330
24
100
AcDbDictionary
280
     1
281
     1
  3
ADSK_XREC_LAYER_RECONCILED
360
592
  0
DICTIONARY
  5
593
330
25
100
AcDbDictionary
280
     1
281
     1
  3
ADSK_XREC_LAYER_RECONCILED
360
594
  0
DICTIONARY
  5
595
330
26
100
AcDbDictionary
280
     1
281
     1
  3
ADSK_XREC_LAYER_RECONCILED
360
596
  0
DICTIONARY
  5
597
330
27
100
AcDbDictionary
280
     1
281
     1
  3
ADSK_XREC_LAYER_RECONCILED
360
598
  0
DICTIONARY
  5
599
330
28
100
AcDbDictionary
280
     1
281
     1
  3
ADSK_XREC_LAYER_RECONCILED
360
59A
  0
DICTIONARY
  5
59B
330
29
100
AcDbDictionary
280
     1
281
     1
  3
ADSK_XREC_LAYER_RECONCILED
360
59C
  0
DICTIONARY
  5
59D
330
2A
100
AcDbDictionary
280
     1
281
     1
  3
ADSK_XREC_LAYER_RECONCILED
360
59E
  0
DICTIONARY
  5
59F
330
2B
100
AcDbDictionary
280
     1
281
     1
  3
ADSK_XREC_LAYER_RECONCILED
360
5A0
  0
DICTIONARY
  5
5A1
330
2C
100
AcDbDictionary
280
     1
281
     1
  3
ADSK_XREC_LAYER_RECONCILED
360
5A2
  0
DICTIONARY
  5
5A3
330
2D
100
AcDbDictionary
280
     1
281
     1
  3
ADSK_XREC_LAYER_RECONCILED
360
5A4
  0
DICTIONARY
  5
5A5
330
2E
100
AcDbDictionary
280
     1
281
     1
  3
ADSK_XREC_LAYER_RECONCILED
360
5A6
  0
DICTIONARY
  5
5A7
330
375
100
AcDbDictionary
280
     1
281
     1
  3
ADSK_XREC_LAYER_RECONCILED
360
5A8
  0
DICTIONARY
  5
5A9
330
376
100
AcDbDictionary
280
     1
281
     1
  3
ADSK_XREC_LAYER_RECONCILED
360
5AA
  0
DICTIONARY
  5
B89
330
18
100
AcDbDictionary
280
     1
281
     1
  3
ACAD_SORTENTS
360
B8A
  0
DICTIONARY
  5
10E8
102
{ACAD_REACTORS
330
C
102
}
330
C
100
AcDbDictionary
281
     1
  3
DIMARCSYM
350
10E9
  3
DIMLTEX1
350
10EB
  3
DIMLTEX2
350
10EC
  3
DIMLTYPE
350
10EA
  0
XRECORD
  5
58A
102
{ACAD_REACTORS
330
C
102
}
330
C
100
AcDbXrecord
280
     1
300
AMECH_PP
300
2014
300
86132PDSS_2014_0F
  0
DICTIONARY
  5
387
102
{ACAD_REACTORS
330
C
102
}
330
C
100
AcDbDictionary
281
     1
  0
DICTIONARY
  5
584
102
{ACAD_REACTORS
330
C
102
}
330
C
100
AcDbDictionary
281
     1
  3
Metric50
350
585
  0
FIELDLIST
  5
655
102
{ACAD_REACTORS
330
C
102
}
330
C
100
AcDbIdSet
 90
        0
100
AcDbFieldList
  0
DICTIONARY
  5
D
102
{ACAD_REACTORS
330
C
102
}
330
C
100
AcDbDictionary
281
     1
  0
DICTIONARY
  5
301
102
{ACAD_REACTORS
330
C
102
}
330
C
100
AcDbDictionary
281
     1
  3
Layout1
350
33B
  3
Model
350
303
  0
DICTIONARY
  5
386
102
{ACAD_REACTORS
330
C
102
}
330
C
100
AcDbDictionary
281
     1
  3
ByBlock
350
557
  3
ByLayer
350
54F
  3
Global
350
55F
  0
DICTIONARY
  5
548
102
{ACAD_REACTORS
330
C
102
}
330
C
100
AcDbDictionary
281
     1
  3
Standard
350
581
  0
DICTIONARY
  5
E
102
{ACAD_REACTORS
330
C
102
}
330
C
100
AcDbDictionary
281
     1
  3
STANDARD
350
1B
  0
DICTIONARY
  5
302
102
{ACAD_REACTORS
330
C
102
}
330
C
100
AcDbDictionary
281
     1
  0
ACDBDICTIONARYWDFLT
  5
2FF
102
{ACAD_REACTORS
330
C
102
}
330
C
100
AcDbDictionary
281
     1
  3
Normal
350
300
100
AcDbDictionaryWithDefault
340
300
  0
DICTIONARY
  5
3A0
102
{ACAD_REACTORS
330
C
102
}
330
C
100
AcDbDictionary
281
     1
  3
A0
350
3A1
  3
A1
350
3A2
  3
A2
350
3A3
  3
A3
350
3A4
  3
A4
350
3A5
  3
A5
350
3A6
  3
A6
350
3A7
  3
A7
350
3A8
  3
A8
350
3A9
  3
A9
350
3AA
  3
B0
350
3AB
  3
B1
350
3AC
  3
B2
350
3AD
  3
B3
350
3AE
  3
B4
350
3AF
  3
B5
350
3B0
  3
B6
350
3B1
  3
B7
350
3B2
  3
B8
350
3B3
  3
B9
350
3B4
  3
C0
350
3B5
  3
C1
350
3B6
  3
C2
350
3B7
  3
C3
350
3B8
  3
C4
350
3B9
  3
C5
350
3BA
  3
C6
350
3BB
  3
C7
350
3BC
  3
C8
350
3BD
  3
C9
350
3BE
  3
D0
350
3BF
  3
D1
350
3C0
  3
D2
350
3C1
  0
DICTIONARY
  5
582
102
{ACAD_REACTORS
330
C
102
}
330
C
100
AcDbDictionary
281
     1
  3
Metric50
350
583
  0
DICTIONARY
  5
388
102
{ACAD_REACTORS
330
C
102
}
330
C
100
AcDbDictionary
281
     1
  3
Standard
350
580
  0
DICTIONARY
  5
567
102
{ACAD_REACTORS
330
C
102
}
330
C
100
AcDbDictionary
281
     1
  3
2dWireframe
350
56D
  3
Basic
350
56C
  3
Brighten
350
573
  3
ColorChange
350
577
  3
Conceptual
350
570
  3
Dim
350
572
  3
EdgeColorOff
350
57F
  3
Facepattern
350
576
  3
Flat
350
568
  3
FlatWithEdges
350
569
  3
Gouraud
350
56A
  3
GouraudWithEdges
350
56B
  3
Hidden
350
56F
  3
JitterOff
350
57D
  3
Linepattern
350
575
  3
OverhangOff
350
57E
  3
Realistic
350
571
  3
Shaded
350
57C
  3
Shaded with edges
350
57B
  3
Shades of Gray
350
578
  3
Sketchy
350
579
  3
Thicken
350
574
  3
Wireframe
350
56E
  3
X-Ray
350
57A
  0
XRECORD
  5
10E7
102
{ACAD_REACTORS
330
C
102
}
330
C
100
AcDbXrecord
280
     1
 90
        1
330
580
  0
DICTIONARY
  5
357
102
{ACAD_REACTORS
330
C
102
}
330
C
100
AcDbDictionary
281
     1
  3
CANNOSCALE
350
549
  3
CMLEADERSTYLE
350
5AB
  3
CTABLESTYLE
350
38D
  3
CVIEWDETAILSTYLE
350
5AC
  3
CVIEWSECTIONSTYLE
350
5AD
  3
DIMASSOC
350
359
  3
HIDETEXT
350
358
  3
INDEXCTL
350
5AF
  3
LAYEREVAL
350
D43
  3
LAYERNOTIFY
350
D44
  3
LIGHTINGUNITS
350
D42
  3
MSLTSCALE
350
D41
  3
PROJECTNAME
350
38E
  3
SORTENTS
350
5AE
  3
XCLIPFRAME
350
10E5
  0
DICTIONARY
  5
61F
102
{ACAD_REACTORS
330
C
102
}
330
C
100
AcDbDictionary
281
     1
  3
AcmStdDictionary
350
626
  0
DICTIONARY
  5
5F5
102
{ACAD_REACTORS
330
C
102
}
330
C
100
AcDbDictionary
281
     1
  0
DICTIONARY
  5
66B
102
{ACAD_REACTORS
330
C
102
}
330
C
100
AcDbDictionary
281
     1
  0
DICTIONARY
  5
D21
102
{ACAD_REACTORS
330
D20
102
}
330
D20
100
AcDbDictionary
281
     1
  0
XRECORD
  5
58E
102
{ACAD_REACTORS
330
58D
102
}
330
58D
100
AcDbXrecord
280
     1
290
     1
  0
XRECORD
  5
590
102
{ACAD_REACTORS
330
58F
102
}
330
58F
100
AcDbXrecord
280
     1
290
     1
  0
XRECORD
  5
592
102
{ACAD_REACTORS
330
591
102
}
330
591
100
AcDbXrecord
280
     1
290
     1
  0
XRECORD
  5
594
102
{ACAD_REACTORS
330
593
102
}
330
593
100
AcDbXrecord
280
     1
290
     1
  0
XRECORD
  5
596
102
{ACAD_REACTORS
330
595
102
}
330
595
100
AcDbXrecord
280
     1
290
     1
  0
XRECORD
  5
598
102
{ACAD_REACTORS
330
597
102
}
330
597
100
AcDbXrecord
280
     1
290
     1
  0
XRECORD
  5
59A
102
{ACAD_REACTORS
330
599
102
}
330
599
100
AcDbXrecord
280
     1
290
     1
  0
XRECORD
  5
59C
102
{ACAD_REACTORS
330
59B
102
}
330
59B
100
AcDbXrecord
280
     1
290
     1
  0
XRECORD
  5
59E
102
{ACAD_REACTORS
330
59D
102
}
330
59D
100
AcDbXrecord
280
     1
290
     1
  0
XRECORD
  5
5A0
102
{ACAD_REACTORS
330
59F
102
}
330
59F
100
AcDbXrecord
280
     1
290
     1
  0
XRECORD
  5
5A2
102
{ACAD_REACTORS
330
5A1
102
}
330
5A1
100
AcDbXrecord
280
     1
290
     1
  0
XRECORD
  5
5A4
102
{ACAD_REACTORS
330
5A3
102
}
330
5A3
100
AcDbXrecord
280
     1
290
     1
  0
XRECORD
  5
5A6
102
{ACAD_REACTORS
330
5A5
102
}
330
5A5
100
AcDbXrecord
280
     1
290
     1
  0
XRECORD
  5
5A8
102
{ACAD_REACTORS
330
5A7
102
}
330
5A7
100
AcDbXrecord
280
     1
290
     1
  0
XRECORD
  5
5AA
102
{ACAD_REACTORS
330
5A9
102
}
330
5A9
100
AcDbXrecord
280
     1
290
     1
  0
SORTENTSTABLE
  5
B8A
102
{ACAD_REACTORS
330
B89
102
}
330
B89
100
AcDbSortentsTable
330
18
331
AAE
  5
AB4
331
AAA
  5
AAC
331
AA6
  5
AA8
331
AE5
  5
AE7
331
DB1
  5
EB9
331
CEF
  5
CF1
331
DAD
  5
DAF
331
CEB
  5
CED
331
AA2
  5
AA4
331
AE1
  5
AE3
331
DA9
  5
DAB
331
A34
  5
A36
331
A6F
  5
A73
331
4F6
  5
4F6
331
9F5
  5
9F7
331
A30
  5
A32
331
9F1
  5
9F3
331
A2C
  5
A2E
331
A6B
  5
A6D
331
4F2
  5
4F2
331
A28
  5
A2A
331
506
  5
506
331
CE7
  5
CE9
331
A9E
  5
AA0
331
ADD
  5
ADF
331
AD9
  5
ADB
331
CE3
  5
CE5
331
A96
  5
A98
331
AD5
  5
ADA
331
BF8
  5
C01
331
EBA
  5
9DC
331
D19
  5
DA9
331
CDF
  5
CE1
331
CDB
  5
CDD
331
A92
  5
A94
331
AD1
  5
AD3
331
D15
  5
D17
331
BF4
  5
BF8
331
BF0
  5
BF3
331
D11
  5
D13
331
9ED
  5
9EF
331
A67
  5
A69
331
43A
  5
43A
331
9E9
  5
9EB
331
A24
  5
A26
331
A63
  5
A65
331
A5F
  5
A61
331
9E5
  5
9E7
331
A20
  5
A22
331
A1C
  5
A1E
331
A5B
  5
A5D
331
9E1
  5
9E3
331
A18
  5
A1A
331
A8E
  5
A90
331
ACD
  5
ACF
331
AC9
  5
ACB
331
D0D
  5
D0F
331
A86
  5
A88
331
AC5
  5
AC7
331
BE0
  5
BF0
331
D09
  5
D0B
331
C27
  5
CD8
331
C23
  5
C25
331
A82
  5
A84
331
AC1
  5
AC3
331
D05
  5
D07
331
D01
  5
D03
331
BD8
  5
BDD
331
9DD
  5
9DE
331
A57
  5
A59
331
3DA
  5
3DA
331
9D9
  5
9D9
331
A14
  5
A17
331
A53
  5
A55
331
A4F
  5
A51
331
3D6
  5
3D6
331
9D5
  5
9D5
331
A0C
  5
A0E
331
A4B
  5
A4D
331
3D2
  5
3D2
331
9D1
  5
9D1
331
A08
  5
A0A
331
C1F
  5
C21
331
A7E
  5
A80
331
ABD
  5
ABF
331
AB9
  5
ABB
331
AF4
  5
AFF
331
CFD
  5
CFF
331
C1B
  5
C1D
331
A7A
  5
A7C
331
A76
  5
A78
331
AB5
  5
AB7
331
AF0
  5
AF2
331
CF9
  5
CFB
331
C17
  5
C19
331
AEC
  5
AEE
331
CF5
  5
CF7
331
C13
  5
C15
331
CF1
  5
CF3
331
AE8
  5
AEB
331
9CD
  5
9CD
331
A47
  5
A49
331
3CE
  5
3CE
331
9C9
  5
9C9
331
A04
  5
A06
331
A43
  5
A45
331
A3F
  5
A41
331
3C6
  5
3C6
331
9C5
  5
9C5
331
A00
  5
A02
331
A3B
  5
A3F
331
3C2
  5
3C2
331
9FC
  5
9FE
331
9F8
  5
9FA
331
C0F
  5
C11
331
AAD
  5
AAF
331
AA9
  5
AAB
331
AA5
  5
AA7
331
AE4
  5
AE6
331
DB0
  5
DB2
331
CEE
  5
CF0
331
DAC
  5
DAE
331
CEA
  5
CEC
331
AA1
  5
AA3
331
AE0
  5
AE2
331
A37
  5
A39
331
A33
  5
A35
331
A6E
  5
A70
331
4F5
  5
4F5
331
9F4
  5
9F6
331
A2F
  5
A31
331
9F0
  5
9F2
331
A2B
  5
A2D
331
A6A
  5
A6C
331
4F1
  5
4F1
331
ADC
  5
ADE
331
CE6
  5
CE8
331
A9D
  5
A9F
331
CE2
  5
CE4
331
A99
  5
A9C
331
A95
  5
A97
331
AD4
  5
AD9
331
EB9
  5
9E1
331
D18
  5
D1A
331
CDE
  5
CE0
331
CDA
  5
CDC
331
A91
  5
A93
331
AD0
  5
AD2
331
D14
  5
D16
331
BF3
  5
BF5
331
D10
  5
D12
331
9EC
  5
9EE
331
A27
  5
A29
331
A66
  5
A68
331
439
  5
439
331
9E8
  5
9EA
331
A23
  5
A25
331
A62
  5
A64
331
A5E
  5
A60
331
9E4
  5
9E6
331
A1F
  5
A21
331
9E0
  5
9E2
331
A1B
  5
A1D
331
A5A
  5
A5C
331
52D
  5
52D
331
A8D
  5
A8F
331
ACC
  5
ACE
331
AC8
  5
ACA
331
D0C
  5
D0E
331
CD2
  5
CD9
331
A89
  5
A8D
331
A85
  5
A87
331
AC4
  5
AC6
331
BDF
  5
BE2
331
D08
  5
D0A
331
C26
  5
CD2
331
D04
  5
D06
331
C22
  5
C24
331
A81
  5
A83
331
AC0
  5
AC2
331
D00
  5
D02
331
9DC
  5
9DD
331
A17
  5
A19
331
A56
  5
A58
331
3D9
  5
3D9
331
9D8
  5
9D8
331
A13
  5
A15
331
A52
  5
A54
331
A4E
  5
A50
331
3D5
  5
3D5
331
9D4
  5
9D4
331
A0F
  5
A12
331
A0B
  5
A0D
331
A4A
  5
A4C
331
3D1
  5
3D1
331
9D0
  5
9D0
331
C1E
  5
C20
331
A7D
  5
A7F
331
ABC
  5
ABE
331
AB8
  5
ABA
331
AF3
  5
AF5
331
CFC
  5
CFE
331
C1A
  5
C1C
331
A79
  5
A7B
331
A75
  5
A77
331
AB4
  5
AB6
331
AEF
  5
AF1
331
CF8
  5
CFA
331
C16
  5
C18
331
C12
  5
C14
331
AEB
  5
AED
331
CF4
  5
CF6
331
CF0
  5
CF2
331
9CC
  5
9CC
331
A07
  5
A09
331
A46
  5
A48
331
3CD
  5
3CD
331
3C9
  5
3C9
331
9C8
  5
9C8
331
A03
  5
A05
331
A42
  5
A44
331
9FF
  5
A01
331
9FB
  5
9FD
331
A3A
  5
A3C
331
C0E
  5
C10
331
AAC
  5
AAE
331
AA8
  5
AAA
331
AE7
  5
AE9
331
CED
  5
CEF
331
AA4
  5
AA6
331
AE3
  5
AE5
331
DAF
  5
DB1
331
DAB
  5
DAD
331
CE9
  5
CEB
331
AA0
  5
AA2
331
A36
  5
A38
331
4F8
  5
4F8
331
9F7
  5
9F9
331
A32
  5
A34
331
A2E
  5
A30
331
A6D
  5
A6F
331
4F4
  5
4F4
331
9F3
  5
9F5
331
A2A
  5
A2C
331
A69
  5
A6B
331
B00
  5
BD9
331
ADF
  5
AE1
331
ADB
  5
ADD
331
CE5
  5
CE7
331
A9C
  5
A9E
331
A98
  5
A9B
331
CE1
  5
CE3
331
A94
  5
A96
331
AD3
  5
AD5
331
D17
  5
D19
331
CDD
  5
CDF
331
D13
  5
D15
331
CD9
  5
CDB
331
A90
  5
A92
331
9EF
  5
9F1
331
43C
  5
43C
331
9EB
  5
9ED
331
A26
  5
A28
331
A65
  5
A67
331
A61
  5
A63
331
9E7
  5
9E9
331
A22
  5
A24
331
A5D
  5
A5F
331
9E3
  5
9E5
331
A1E
  5
A20
331
A1A
  5
A1C
331
A59
  5
A5B
331
ACF
  5
AD1
331
ACB
  5
ACD
331
D0F
  5
D11
331
A8C
  5
A8E
331
AC7
  5
AC9
331
BE2
  5
BF1
331
D0B
  5
D0D
331
A88
  5
A8C
331
A84
  5
A86
331
AC3
  5
AC5
331
BDE
  5
BE0
331
D07
  5
D09
331
C25
  5
C27
331
D03
  5
D05
331
C21
  5
C23
331
A80
  5
A82
331
9DF
  5
9E0
331
9DB
  5
9DB
331
A55
  5
A57
331
3D8
  5
3D8
331
9D7
  5
9D7
331
A12
  5
A14
331
A51
  5
A53
331
A4D
  5
A4F
331
3D4
  5
3D4
331
9D3
  5
9D3
331
A0E
  5
A10
331
A0A
  5
A0C
331
A49
  5
A4B
331
3D0
  5
3D0
331
520
  5
520
331
ABF
  5
AC1
331
CFF
  5
D01
331
C1D
  5
C1F
331
A7C
  5
A7E
331
ABB
  5
ABD
331
AB7
  5
AB9
331
AF2
  5
AF4
331
CFB
  5
CFD
331
C19
  5
C1B
331
A78
  5
A7A
331
A74
  5
A76
331
AEE
  5
AF0
331
CF7
  5
CF9
331
C15
  5
C17
331
CF3
  5
CF5
331
C11
  5
C13
331
A70
  5
A74
331
9CF
  5
9CF
331
9CB
  5
9CB
331
A06
  5
A08
331
A45
  5
A47
331
3CC
  5
3CC
331
3C8
  5
3C8
331
9C7
  5
9C7
331
A02
  5
A04
331
A41
  5
A43
331
9FE
  5
A00
331
9FA
  5
9FC
331
A39
  5
A3B
331
AAF
  5
AB5
331
AAB
  5
AAD
331
AA7
  5
AA9
331
AE6
  5
AE8
331
DB2
  5
EBA
331
DAE
  5
DB0
331
CEC
  5
CEE
331
AA3
  5
AA5
331
AE2
  5
AE4
331
C01
  5
C0F
331
DAA
  5
DAC
331
CE8
  5
CEA
331
A35
  5
A37
331
4F7
  5
4F7
331
9F6
  5
9F8
331
A31
  5
A33
331
A2D
  5
A2F
331
A6C
  5
A6E
331
4F3
  5
4F3
331
9F2
  5
9F4
331
A29
  5
A2B
331
A68
  5
A6A
331
A9F
  5
AA1
331
ADE
  5
AE0
331
ADA
  5
ADC
331
CE4
  5
CE6
331
A9B
  5
A9D
331
A97
  5
A99
331
BF9
  5
C0E
331
D1A
  5
DAA
331
CE0
  5
CE2
331
CDC
  5
CDE
331
A93
  5
A95
331
AD2
  5
AD4
331
BF5
  5
BF9
331
D16
  5
D18
331
CD8
  5
CDA
331
D12
  5
D14
331
BF1
  5
BF4
331
9EE
  5
9F0
331
43B
  5
43B
331
9EA
  5
9EC
331
A25
  5
A27
331
A64
  5
A66
331
A60
  5
A62
331
427
  5
427
331
9E6
  5
9E8
331
A21
  5
A23
331
A1D
  5
A1F
331
A5C
  5
A5E
331
9E2
  5
9E4
331
A19
  5
A1B
331
A58
  5
A5A
331
AFF
  5
BD8
331
A8F
  5
A91
331
ACE
  5
AD0
331
ACA
  5
ACC
331
D0E
  5
D10
331
A87
  5
A89
331
AC6
  5
AC8
331
D0A
  5
D0C
331
A83
  5
A85
331
AC2
  5
AC4
331
BDD
  5
BDF
331
D06
  5
D08
331
C24
  5
C26
331
C20
  5
C22
331
D02
  5
D04
331
BD9
  5
BDE
331
9DE
  5
9DF
331
3DB
  5
3DB
331
A15
  5
A18
331
A54
  5
A56
331
A50
  5
A52
331
3D7
  5
3D7
331
9D6
  5
9D6
331
A11
  5
A13
331
A4C
  5
A4E
331
3D3
  5
3D3
331
9D2
  5
9D2
331
A0D
  5
A0F
331
A09
  5
A0B
331
A48
  5
A4A
331
A7F
  5
A81
331
ABE
  5
AC0
331
ABA
  5
ABC
331
AF5
  5
B00
331
CFE
  5
D00
331
C1C
  5
C1E
331
A7B
  5
A7D
331
AB6
  5
AB8
331
AF1
  5
AF3
331
CFA
  5
CFC
331
C18
  5
C1A
331
A77
  5
A79
331
A73
  5
A75
331
AED
  5
AEF
331
CF6
  5
CF8
331
C14
  5
C16
331
C10
  5
C12
331
CF2
  5
CF4
331
AE9
  5
AEC
331
9CE
  5
9CE
331
3CF
  5
3CF
331
9CA
  5
9CA
331
A05
  5
A07
331
A44
  5
A46
331
3C7
  5
3C7
331
9C6
  5
9C6
331
A01
  5
A03
331
A40
  5
A42
331
A3C
  5
A40
331
3C3
  5
3C3
331
9FD
  5
9FF
331
9F9
  5
9FB
331
A38
  5
A3A
  0
XRECORD
  5
10E9
102
{ACAD_REACTORS
330
10E8
102
}
330
10E8
100
AcDbXrecord
280
     1
 70
     1
  0
XRECORD
  5
10EB
102
{ACAD_REACTORS
330
10E8
102
}
330
10E8
100
AcDbXrecord
280
     1
340
12
  0
XRECORD
  5
10EC
102
{ACAD_REACTORS
330
10E8
102
}
330
10E8
100
AcDbXrecord
280
     1
340
12
  0
XRECORD
  5
10EA
102
{ACAD_REACTORS
330
10E8
102
}
330
10E8
100
AcDbXrecord
280
     1
340
12
  0
ACDBDETAILVIEWSTYLE
  5
585
102
{ACAD_XDICTIONARY
360
1120
102
}
102
{ACAD_REACTORS
330
584
102
}
330
584
100
AcDbModelDocViewStyle
 70
     0
  3
Metric50
290
     0
100
AcDbDetailViewStyle
 70
     0
 71
     0
 90
        3
 71
     1
340
10
 62
   256
 40
5.0
340
0
 62
   256
 40
5.0
300

 40
0.0
280
     1
 71
     2
340
14
 90
       25
 62
   256
 71
     3
340
10
 62
   256
 40
5.0
 90
        0
 40
15.0
 90
        1
300
%<\AcVar ViewDetailId>% (%<\AcVar ViewScale \f "%sn">%)
 71
     4
340
14
 90
       25
 62
   256
340
14
 90
       25
 62
   256
280
     0
  0
LAYOUT
  5
33B
102
{ACAD_REACTORS
330
301
102
}
330
301
100
AcDbPlotSettings
  1

  2
Lexmark Optra PS2
  4

  6

 40
0.0
 41
0.0
 42
0.0
 43
0.0
 44
0.0
 45
0.0
 46
0.0
 47
0.0
 48
0.0
 49
0.0
140
0.0
141
0.0
142
1.0
143
1.0
 70
   688
 72
     0
 73
     0
 74
     5
  7
monochrome.ctb
 75
    16
147
1.0
 76
     0
 77
     2
 78
   300
148
0.0
149
0.0
100
AcDbLayout
  1
Layout1
 70
     1
 71
     1
 10
0.0
 20
0.0
 11
12.0
 21
9.0
 12
0.0
 22
0.0
 32
0.0
 14
0.0
 24
0.0
 34
0.0
 15
0.0
 25
0.0
 35
0.0
146
0.0
 13
0.0
 23
0.0
 33
0.0
 16
1.0
 26
0.0
 36
0.0
 17
0.0
 27
1.0
 37
0.0
 76
     0
330
338
  0
LAYOUT
  5
303
102
{ACAD_REACTORS
330
301
102
}
330
301
100
AcDbPlotSettings
  1

  2
Lexmark Optra Rx
  4
A4
  6

 40
6.805083274841307
 41
5.535083293914794
 42
6.974411010742187
 43
7.14373779296875
 44
209.9733276367186
 45
296.9259948730469
 46
0.0
 47
0.0
 48
0.0
 49
0.0
140
0.0
141
0.0
142
1.0
143
2.976565420630883
 70
 11952
 72
     1
 73
     1
 74
     0
  7
monochrome.ctb
 75
     0
147
0.335957675604539
 76
     0
 77
     2
 78
   300
148
204.1199660668592
149
172.3933209647495
100
AcDbLayout
  1
Model
 70
     1
 71
     0
 10
0.0
 20
0.0
 11
12.0
 21
9.0
 12
0.0
 22
0.0
 32
0.0
 14
0.0
 24
0.0
 34
0.0
 15
0.0
 25
0.0
 35
0.0
146
0.0
 13
0.0
 23
0.0
 33
0.0
 16
1.0
 26
0.0
 36
0.0
 17
0.0
 27
1.0
 37
0.0
 76
     0
330
18
331
39A
  0
MATERIAL
  5
557
102
{ACAD_XDICTIONARY
360
558
102
}
102
{ACAD_REACTORS
330
386
102
}
330
386
100
AcDbMaterial
  1
ByBlock
 72
     0
 43
0.0008202099737533
 43
0.0
 43
0.0
 43
0.0
 43
0.0
 43
0.0008202099737533
 43
0.0
 43
0.0
 43
0.0
 43
0.0
 43
1.0
 43
0.0
 43
0.0
 43
0.0
 43
0.0
 43
1.0
 77
     0
 47
0.0008202099737533
 47
0.0
 47
0.0
 47
0.0
 47
0.0
 47
0.0008202099737533
 47
0.0
 47
0.0
 47
0.0
 47
0.0
 47
1.0
 47
0.0
 47
0.0
 47
0.0
 47
0.0
 47
1.0
171
     0
 49
0.0008202099737533
 49
0.0
 49
0.0
 49
0.0
 49
0.0
 49
0.0008202099737533
 49
0.0
 49
0.0
 49
0.0
 49
0.0
 49
1.0
 49
0.0
 49
0.0
 49
0.0
 49
0.0
 49
1.0
175
     0
142
0.0008202099737533
142
0.0
142
0.0
142
0.0
142
0.0
142
0.0008202099737533
142
0.0
142
0.0
142
0.0
142
0.0
142
1.0
142
0.0
142
0.0
142
0.0
142
0.0
142
1.0
179
     0
144
0.0008202099737533
144
0.0
144
0.0
144
0.0
144
0.0
144
0.0008202099737533
144
0.0
144
0.0
144
0.0
144
0.0
144
1.0
144
0.0
144
0.0
144
0.0
144
0.0
144
1.0
147
0.0008202099737533
147
0.0
147
0.0
147
0.0
147
0.0
147
0.0008202099737533
147
0.0
147
0.0
147
0.0
147
0.0
147
1.0
147
0.0
147
0.0
147
0.0
147
0.0
147
1.0
  0
MATERIAL
  5
54F
102
{ACAD_XDICTIONARY
360
550
102
}
102
{ACAD_REACTORS
330
386
102
}
330
386
100
AcDbMaterial
  1
ByLayer
 72
     0
 43
0.0008202099737533
 43
0.0
 43
0.0
 43
0.0
 43
0.0
 43
0.0008202099737533
 43
0.0
 43
0.0
 43
0.0
 43
0.0
 43
1.0
 43
0.0
 43
0.0
 43
0.0
 43
0.0
 43
1.0
 77
     0
 47
0.0008202099737533
 47
0.0
 47
0.0
 47
0.0
 47
0.0
 47
0.0008202099737533
 47
0.0
 47
0.0
 47
0.0
 47
0.0
 47
1.0
 47
0.0
 47
0.0
 47
0.0
 47
0.0
 47
1.0
171
     0
 49
0.0008202099737533
 49
0.0
 49
0.0
 49
0.0
 49
0.0
 49
0.0008202099737533
 49
0.0
 49
0.0
 49
0.0
 49
0.0
 49
1.0
 49
0.0
 49
0.0
 49
0.0
 49
0.0
 49
1.0
175
     0
142
0.0008202099737533
142
0.0
142
0.0
142
0.0
142
0.0
142
0.0008202099737533
142
0.0
142
0.0
142
0.0
142
0.0
142
1.0
142
0.0
142
0.0
142
0.0
142
0.0
142
1.0
179
     0
144
0.0008202099737533
144
0.0
144
0.0
144
0.0
144
0.0
144
0.0008202099737533
144
0.0
144
0.0
144
0.0
144
0.0
144
1.0
144
0.0
144
0.0
144
0.0
144
0.0
144
1.0
147
0.0008202099737533
147
0.0
147
0.0
147
0.0
147
0.0
147
0.0008202099737533
147
0.0
147
0.0
147
0.0
147
0.0
147
1.0
147
0.0
147
0.0
147
0.0
147
0.0
147
1.0
  0
MATERIAL
  5
55F
102
{ACAD_XDICTIONARY
360
560
102
}
102
{ACAD_REACTORS
330
386
102
}
330
386
100
AcDbMaterial
  1
Global
 72
     0
 43
0.0008202099737533
 43
0.0
 43
0.0
 43
0.0
 43
0.0
 43
0.0008202099737533
 43
0.0
 43
0.0
 43
0.0
 43
0.0
 43
1.0
 43
0.0
 43
0.0
 43
0.0
 43
0.0
 43
1.0
 77
     0
 47
0.0008202099737533
 47
0.0
 47
0.0
 47
0.0
 47
0.0
 47
0.0008202099737533
 47
0.0
 47
0.0
 47
0.0
 47
0.0
 47
1.0
 47
0.0
 47
0.0
 47
0.0
 47
0.0
 47
1.0
171
     0
 49
0.0008202099737533
 49
0.0
 49
0.0
 49
0.0
 49
0.0
 49
0.0008202099737533
 49
0.0
 49
0.0
 49
0.0
 49
0.0
 49
1.0
 49
0.0
 49
0.0
 49
0.0
 49
0.0
 49
1.0
175
     0
142
0.0008202099737533
142
0.0
142
0.0
142
0.0
142
0.0
142
0.0008202099737533
142
0.0
142
0.0
142
0.0
142
0.0
142
1.0
142
0.0
142
0.0
142
0.0
142
0.0
142
1.0
179
     0
144
0.0008202099737533
144
0.0
144
0.0
144
0.0
144
0.0
144
0.0008202099737533
144
0.0
144
0.0
144
0.0
144
0.0
144
1.0
144
0.0
144
0.0
144
0.0
144
0.0
144
1.0
147
0.0008202099737533
147
0.0
147
0.0
147
0.0
147
0.0
147
0.0008202099737533
147
0.0
147
0.0
147
0.0
147
0.0
147
1.0
147
0.0
147
0.0
147
0.0
147
0.0
147
1.0
  0
MLEADERSTYLE
  5
581
102
{ACAD_REACTORS
330
548
102
}
330
548
100
AcDbMLeaderStyle
170
     2
171
     1
172
     0
 90
        2
 40
0.0
 41
0.0
173
     1
 91
-1056964608
340
12
 92
       -2
290
     1
 42
2.0
291
     1
 43
0.36
  3
Standard
 44
4.0
300

342
10
174
     1
178
     6
175
     1
176
     0
 93
-1056964608
 45
4.0
292
     0
297
     0
 46
4.0
 94
-1056964608
 47
1.0
 49
1.0
140
1.0
293
     1
141
0.0
294
     1
177
     0
142
1.0
295
     0
296
     0
143
0.125
1001
ACAD_MLEADERVER
1070
     2
  0
MLINESTYLE
  5
1B
102
{ACAD_REACTORS
330
E
102
}
330
E
100
AcDbMlineStyle
  2
STANDARD
 70
     0
  3

 62
     0
 51
90.0
 52
90.0
 71
     2
 49
0.5
 62
   256
  6
BYLAYER
 49
-0.5
 62
   256
  6
BYLAYER
  0
ACDBPLACEHOLDER
  5
300
102
{ACAD_REACTORS
330
2FF
102
}
330
2FF
  0
SCALE
  5
3A1
102
{ACAD_REACTORS
330
3A0
102
}
330
3A0
100
AcDbScale
 70
     0
300
1:1
140
1.0
141
1.0
290
     1
  0
SCALE
  5
3A2
102
{ACAD_REACTORS
330
3A0
102
}
330
3A0
100
AcDbScale
 70
     0
300
1:2
140
1.0
141
2.0
290
     0
  0
SCALE
  5
3A3
102
{ACAD_REACTORS
330
3A0
102
}
330
3A0
100
AcDbScale
 70
     0
300
1:4
140
1.0
141
4.0
290
     0
  0
SCALE
  5
3A4
102
{ACAD_REACTORS
330
3A0
102
}
330
3A0
100
AcDbScale
 70
     0
300
1:5
140
1.0
141
5.0
290
     0
  0
SCALE
  5
3A5
102
{ACAD_REACTORS
330
3A0
102
}
330
3A0
100
AcDbScale
 70
     0
300
1:8
140
1.0
141
8.0
290
     0
  0
SCALE
  5
3A6
102
{ACAD_REACTORS
330
3A0
102
}
330
3A0
100
AcDbScale
 70
     0
300
1:10
140
1.0
141
10.0
290
     0
  0
SCALE
  5
3A7
102
{ACAD_REACTORS
330
3A0
102
}
330
3A0
100
AcDbScale
 70
     0
300
1:16
140
1.0
141
16.0
290
     0
  0
SCALE
  5
3A8
102
{ACAD_REACTORS
330
3A0
102
}
330
3A0
100
AcDbScale
 70
     0
300
1:20
140
1.0
141
20.0
290
     0
  0
SCALE
  5
3A9
102
{ACAD_REACTORS
330
3A0
102
}
330
3A0
100
AcDbScale
 70
     0
300
1:30
140
1.0
141
30.0
290
     0
  0
SCALE
  5
3AA
102
{ACAD_REACTORS
330
3A0
102
}
330
3A0
100
AcDbScale
 70
     0
300
1:40
140
1.0
141
40.0
290
     0
  0
SCALE
  5
3AB
102
{ACAD_REACTORS
330
3A0
102
}
330
3A0
100
AcDbScale
 70
     0
300
1:50
140
1.0
141
50.0
290
     0
  0
SCALE
  5
3AC
102
{ACAD_REACTORS
330
3A0
102
}
330
3A0
100
AcDbScale
 70
     0
300
1:100
140
1.0
141
100.0
290
     0
  0
SCALE
  5
3AD
102
{ACAD_REACTORS
330
3A0
102
}
330
3A0
100
AcDbScale
 70
     0
300
2:1
140
2.0
141
1.0
290
     0
  0
SCALE
  5
3AE
102
{ACAD_REACTORS
330
3A0
102
}
330
3A0
100
AcDbScale
 70
     0
300
4:1
140
4.0
141
1.0
290
     0
  0
SCALE
  5
3AF
102
{ACAD_REACTORS
330
3A0
102
}
330
3A0
100
AcDbScale
 70
     0
300
8:1
140
8.0
141
1.0
290
     0
  0
SCALE
  5
3B0
102
{ACAD_REACTORS
330
3A0
102
}
330
3A0
100
AcDbScale
 70
     0
300
10:1
140
10.0
141
1.0
290
     0
  0
SCALE
  5
3B1
102
{ACAD_REACTORS
330
3A0
102
}
330
3A0
100
AcDbScale
 70
     0
300
100:1
140
100.0
141
1.0
290
     0
  0
SCALE
  5
3B2
102
{ACAD_REACTORS
330
3A0
102
}
330
3A0
100
AcDbScale
 70
     0
300
1/128" = 1'-0"
140
0.0078125
141
12.0
290
     0
  0
SCALE
  5
3B3
102
{ACAD_REACTORS
330
3A0
102
}
330
3A0
100
AcDbScale
 70
     0
300
1/64" = 1'-0"
140
0.015625
141
12.0
290
     0
  0
SCALE
  5
3B4
102
{ACAD_REACTORS
330
3A0
102
}
330
3A0
100
AcDbScale
 70
     0
300
1/32" = 1'-0"
140
0.03125
141
12.0
290
     0
  0
SCALE
  5
3B5
102
{ACAD_REACTORS
330
3A0
102
}
330
3A0
100
AcDbScale
 70
     0
300
1/16" = 1'-0"
140
0.0625
141
12.0
290
     0
  0
SCALE
  5
3B6
102
{ACAD_REACTORS
330
3A0
102
}
330
3A0
100
AcDbScale
 70
     0
300
3/32" = 1'-0"
140
0.09375
141
12.0
290
     0
  0
SCALE
  5
3B7
102
{ACAD_REACTORS
330
3A0
102
}
330
3A0
100
AcDbScale
 70
     0
300
1/8" = 1'-0"
140
0.125
141
12.0
290
     0
  0
SCALE
  5
3B8
102
{ACAD_REACTORS
330
3A0
102
}
330
3A0
100
AcDbScale
 70
     0
300
3/16" = 1'-0"
140
0.1875
141
12.0
290
     0
  0
SCALE
  5
3B9
102
{ACAD_REACTORS
330
3A0
102
}
330
3A0
100
AcDbScale
 70
     0
300
1/4" = 1'-0"
140
0.25
141
12.0
290
     0
  0
SCALE
  5
3BA
102
{ACAD_REACTORS
330
3A0
102
}
330
3A0
100
AcDbScale
 70
     0
300
3/8" = 1'-0"
140
0.375
141
12.0
290
     0
  0
SCALE
  5
3BB
102
{ACAD_REACTORS
330
3A0
102
}
330
3A0
100
AcDbScale
 70
     0
300
1/2" = 1'-0"
140
0.5
141
12.0
290
     0
  0
SCALE
  5
3BC
102
{ACAD_REACTORS
330
3A0
102
}
330
3A0
100
AcDbScale
 70
     0
300
3/4" = 1'-0"
140
0.75
141
12.0
290
     0
  0
SCALE
  5
3BD
102
{ACAD_REACTORS
330
3A0
102
}
330
3A0
100
AcDbScale
 70
     0
300
1" = 1'-0"
140
1.0
141
12.0
290
     0
  0
SCALE
  5
3BE
102
{ACAD_REACTORS
330
3A0
102
}
330
3A0
100
AcDbScale
 70
     0
300
1-1/2" = 1'-0"
140
1.5
141
12.0
290
     0
  0
SCALE
  5
3BF
102
{ACAD_REACTORS
330
3A0
102
}
330
3A0
100
AcDbScale
 70
     0
300
3" = 1'-0"
140
3.0
141
12.0
290
     0
  0
SCALE
  5
3C0
102
{ACAD_REACTORS
330
3A0
102
}
330
3A0
100
AcDbScale
 70
     0
300
6" = 1'-0"
140
6.0
141
12.0
290
     0
  0
SCALE
  5
3C1
102
{ACAD_REACTORS
330
3A0
102
}
330
3A0
100
AcDbScale
 70
     0
300
1'-0" = 1'-0"
140
12.0
141
12.0
290
     0
  0
ACDBSECTIONVIEWSTYLE
  5
583
102
{ACAD_XDICTIONARY
360
111E
102
}
102
{ACAD_REACTORS
330
582
102
}
330
582
100
AcDbModelDocViewStyle
 70
     0
  3
Metric50
290
     0
100
AcDbSectionViewStyle
 70
     0
 71
     0
 90
      102
 71
     1
340
10
 62
   256
 40
5.0
340
0
340
0
 62
   256
 40
5.0
300
I, O, Q, S, X, Z
 40
10.0
 90
        0
 40
2.5
 90
        0
 71
     2
340
14
 90
       25
 62
   256
340
14
 90
       50
 62
   256
 40
5.0
 40
2.5
 40
5.0
 71
     3
340
10
 62
   256
 40
5.0
 90
        0
 40
15.0
 90
        1
300
%<\AcVar ViewSectionStartId>%-%<\AcVar ViewSectionEndId>% (%<\AcVar ViewScale \f "%sn">%)
 71
     4
 62
   256
 62
   257
300
ANSI31
 40
1.0
 90
        0
290
     0
290
     0
 90
        6
 40
0.0
 40
1.570796326794896
 40
0.2617993877991494
 40
1.308996938995747
 40
-0.2617993877991494
 40
1.832595714594044
  0
TABLESTYLE
  5
580
102
{ACAD_XDICTIONARY
360
5B2
102
}
102
{ACAD_REACTORS
330
388
102
}
330
388
100
AcDbTableStyle
  3
Standard
 70
     0
 71
     0
 40
1.5
 41
1.5
280
     0
281
     0
  7
STANDARD
140
4.5
170
     2
 62
     0
 63
     7
283
     0
274
    -2
284
     1
 64
     0
275
    -2
285
     1
 65
     0
276
    -2
286
     1
 66
     0
277
    -2
287
     1
 67
     0
278
    -2
288
     1
 68
     0
279
    -2
289
     1
 69
     0
  7
STANDARD
140
6.0
170
     5
 62
     0
 63
     7
283
     0
274
    -2
284
     1
 64
     0
275
    -2
285
     1
 65
     0
276
    -2
286
     1
 66
     0
277
    -2
287
     1
 67
     0
278
    -2
288
     1
 68
     0
279
    -2
289
     1
 69
     0
  7
STANDARD
140
4.5
170
     5
 62
     0
 63
     7
283
     0
274
    -2
284
     1
 64
     0
275
    -2
285
     1
 65
     0
276
    -2
286
     1
 66
     0
277
    -2
287
     1
 67
     0
278
    -2
288
     1
 68
     0
279
    -2
289
     1
 69
     0
  0
VISUALSTYLE
  5
56D
102
{ACAD_XDICTIONARY
360
10F7
102
}
102
{ACAD_REACTORS
330
567
102
}
330
567
100
AcDbVisualStyle
  2

 70
     4
 71
     0
 72
     2
 73
     0
 90
        0
 40
-0.6
 41
-30.0
 62
     5
 63
     7
 74
     1
 91
        4
 64
     7
 65
   257
 75
     1
175
     1
 42
1.0
 92
        0
 66
   257
 43
1.0
 76
     1
 77
     6
 78
     2
 67
     7
 79
     5
170
     0
171
     0
290
     0
174
     0
 93
        1
 44
0.0
173
     0
291
     0
 45
0.0
1001
ACAD
1000
AcDbSavedByObjectVersion
1070
     0
  0
VISUALSTYLE
  5
56C
102
{ACAD_XDICTIONARY
360
10F5
102
}
102
{ACAD_REACTORS
330
567
102
}
330
567
100
AcDbVisualStyle
  2

 70
     7
 71
     1
 72
     0
 73
     1
 90
        0
 40
-0.6
 41
-30.0
 62
     5
 63
     7
 74
     0
 91
        4
 64
     7
 65
   257
 75
     1
175
     1
 42
1.0
 92
        8
 66
     7
 43
1.0
 76
     1
 77
     6
 78
     2
 67
     7
 79
     5
170
     0
171
     0
290
     0
174
     0
 93
        1
 44
0.0
173
     0
291
     1
 45
0.0
1001
ACAD
1000
AcDbSavedByObjectVersion
1070
     0
  0
VISUALSTYLE
  5
573
102
{ACAD_XDICTIONARY
360
1103
102
}
102
{ACAD_REACTORS
330
567
102
}
330
567
100
AcDbVisualStyle
  2

 70
    12
 71
     2
 72
     2
 73
     0
 90
        0
 40
-0.6
 41
-30.0
 62
     5
 63
     7
 74
     1
 91
        4
 64
     7
 65
   257
 75
     1
175
     1
 42
1.0
 92
        8
 66
     7
 43
1.0
 76
     1
 77
     6
 78
     2
 67
     7
 79
     5
170
     0
171
     0
290
     0
174
     0
 93
        1
 44
50.0
173
     0
291
     1
 45
0.0
1001
ACAD
1000
AcDbSavedByObjectVersion
1070
     0
  0
VISUALSTYLE
  5
577
102
{ACAD_XDICTIONARY
360
110B
102
}
102
{ACAD_REACTORS
330
567
102
}
330
567
100
AcDbVisualStyle
  2

 70
    16
 71
     2
 72
     2
 73
     3
 90
        0
 40
-0.6
 41
-30.0
 62
     5
 63
     8
 74
     1
 91
        4
 64
     7
 65
   257
 75
     1
175
     1
 42
1.0
 92
        8
 66
     8
 43
1.0
 76
     1
 77
     6
 78
     2
 67
     7
 79
     5
170
     0
171
     0
290
     0
174
     0
 93
        1
 44
0.0
173
     0
291
     1
 45
0.0
1001
ACAD
1000
AcDbSavedByObjectVersion
1070
     0
  0
VISUALSTYLE
  5
570
102
{ACAD_XDICTIONARY
360
10FD
102
}
102
{ACAD_REACTORS
330
567
102
}
330
567
100
AcDbVisualStyle
  2

 70
     9
 71
     3
 72
     2
 73
     0
 90
        0
 40
-0.6
 41
-30.0
 62
     5
 63
     7
 74
     2
 91
        2
 64
     7
 65
   257
 75
     1
175
     1
 42
179.0
 92
        8
 66
     7
 43
1.0
 76
     1
 77
     6
 78
     2
 67
     7
 79
     3
170
     0
171
     0
290
     0
174
     0
 93
        1
 44
0.0
173
     0
291
     0
 45
0.0
1001
ACAD
1000
AcDbSavedByObjectVersion
1070
     0
  0
VISUALSTYLE
  5
572
102
{ACAD_XDICTIONARY
360
1101
102
}
102
{ACAD_REACTORS
330
567
102
}
330
567
100
AcDbVisualStyle
  2

 70
    11
 71
     2
 72
     2
 73
     0
 90
        0
 40
-0.6
 41
-30.0
 62
     5
 63
     7
 74
     1
 91
        4
 64
     7
 65
   257
 75
     1
175
     1
 42
1.0
 92
        8
 66
     7
 43
1.0
 76
     1
 77
     6
 78
     2
 67
     7
 79
     5
170
     0
171
     0
290
     0
174
     0
 93
        1
 44
-50.0
173
     0
291
     1
 45
0.0
1001
ACAD
1000
AcDbSavedByObjectVersion
1070
     0
  0
VISUALSTYLE
  5
57F
102
{ACAD_XDICTIONARY
360
111B
102
}
102
{ACAD_REACTORS
330
567
102
}
330
567
100
AcDbVisualStyle
  2

 70
    22
 71
     2
 72
     2
 73
     0
 90
        0
 40
-0.6
 41
-30.0
 62
     5
 63
     7
 74
     1
 91
        4
 64
     7
 65
   257
 75
     1
175
     1
 42
1.0
 92
        8
 66
     7
 43
1.0
 76
     1
 77
     6
 78
     2
 67
     7
 79
     5
170
     0
171
     0
290
     0
174
     0
 93
        1
 44
0.0
173
     0
291
     1
 45
0.0
1001
ACAD
1000
AcDbSavedByObjectVersion
1070
     0
  0
VISUALSTYLE
  5
576
102
{ACAD_XDICTIONARY
360
1109
102
}
102
{ACAD_REACTORS
330
567
102
}
330
567
100
AcDbVisualStyle
  2

 70
    15
 71
     2
 72
     2
 73
     0
 90
        0
 40
-0.6
 41
-30.0
 62
     5
 63
     7
 74
     1
 91
        4
 64
     7
 65
   257
 75
     1
175
     1
 42
1.0
 92
        8
 66
     7
 43
1.0
 76
     1
 77
     6
 78
     2
 67
     7
 79
     5
170
     0
171
     0
290
     0
174
     0
 93
        1
 44
0.0
173
     0
291
     1
 45
0.0
1001
ACAD
1000
AcDbSavedByObjectVersion
1070
     0
  0
VISUALSTYLE
  5
568
102
{ACAD_XDICTIONARY
360
10ED
102
}
102
{ACAD_REACTORS
330
567
102
}
330
567
100
AcDbVisualStyle
  2

 70
     0
 71
     2
 72
     1
 73
     1
 90
        2
 40
-0.6
 41
30.0
 62
     5
 63
     7
 74
     0
 91
        0
 64
     7
 65
   257
 75
     1
175
     1
 42
1.0
 92
        8
 66
     7
 43
1.0
 76
     1
 77
     6
 78
     2
 67
     7
 79
     5
170
     0
171
     0
290
     0
174
     0
 93
       13
 44
0.0
173
     0
291
     1
 45
0.0
1001
ACAD
1000
AcDbSavedByObjectVersion
1070
     0
  0
VISUALSTYLE
  5
569
102
{ACAD_XDICTIONARY
360
10EF
102
}
102
{ACAD_REACTORS
330
567
102
}
330
567
100
AcDbVisualStyle
  2

 70
     1
 71
     2
 72
     1
 73
     1
 90
        2
 40
-0.6
 41
30.0
 62
     5
 63
     7
 74
     1
 91
        0
 64
     7
 65
   257
 75
     1
175
     1
 42
1.0
 92
        0
 66
   257
 43
1.0
 76
     1
 77
     6
 78
     2
 67
     7
 79
     5
170
     0
171
     0
290
     0
174
     0
 93
       13
 44
0.0
173
     0
291
     1
 45
0.0
1001
ACAD
1000
AcDbSavedByObjectVersion
1070
     0
  0
VISUALSTYLE
  5
56A
102
{ACAD_XDICTIONARY
360
10F1
102
}
102
{ACAD_REACTORS
330
567
102
}
330
567
100
AcDbVisualStyle
  2

 70
     2
 71
     2
 72
     2
 73
     1
 90
        2
 40
-0.6
 41
30.0
 62
     5
 63
     7
 74
     0
 91
        0
 64
     7
 65
   257
 75
     1
175
     1
 42
1.0
 92
        0
 66
     7
 43
1.0
 76
     1
 77
     6
 78
     2
 67
     7
 79
     5
170
     0
171
     0
290
     0
174
     0
 93
       13
 44
0.0
173
     0
291
     1
 45
0.0
1001
ACAD
1000
AcDbSavedByObjectVersion
1070
     0
  0
VISUALSTYLE
  5
56B
102
{ACAD_XDICTIONARY
360
10F3
102
}
102
{ACAD_REACTORS
330
567
102
}
330
567
100
AcDbVisualStyle
  2

 70
     3
 71
     2
 72
     2
 73
     1
 90
        2
 40
-0.6
 41
30.0
 62
     5
 63
     7
 74
     1
 91
        0
 64
     7
 65
   257
 75
     1
175
     1
 42
1.0
 92
        0
 66
   257
 43
1.0
 76
     1
 77
     6
 78
     2
 67
     7
 79
     5
170
     0
171
     0
290
     0
174
     0
 93
       13
 44
0.0
173
     0
291
     1
 45
0.0
1001
ACAD
1000
AcDbSavedByObjectVersion
1070
     0
  0
VISUALSTYLE
  5
56F
102
{ACAD_XDICTIONARY
360
10FB
102
}
102
{ACAD_REACTORS
330
567
102
}
330
567
100
AcDbVisualStyle
  2

 70
     6
 71
     1
 72
     2
 73
     2
 90
        0
 40
-0.6
 41
-30.0
 62
     5
 63
     7
 74
     2
 91
        2
 64
     7
 65
   257
 75
     2
175
     1
 42
40.0
 92
        0
 66
   257
 43
1.0
 76
     1
 77
     6
 78
     2
 67
     7
 79
     3
170
     0
171
     0
290
     0
174
     0
 93
        1
 44
0.0
173
     0
291
     0
 45
0.0
1001
ACAD
1000
AcDbSavedByObjectVersion
1070
     0
  0
VISUALSTYLE
  5
57D
102
{ACAD_XDICTIONARY
360
1117
102
}
102
{ACAD_REACTORS
330
567
102
}
330
567
100
AcDbVisualStyle
  2

 70
    20
 71
     2
 72
     2
 73
     0
 90
        0
 40
-0.6
 41
-30.0
 62
     5
 63
     7
 74
     1
 91
        4
 64
     7
 65
   257
 75
     1
175
     1
 42
1.0
 92
       10
 66
     7
 43
1.0
 76
     1
 77
     6
 78
     2
 67
     7
 79
     5
170
     0
171
     0
290
     0
174
     0
 93
        1
 44
0.0
173
     0
291
     1
 45
0.0
1001
ACAD
1000
AcDbSavedByObjectVersion
1070
     0
  0
VISUALSTYLE
  5
575
102
{ACAD_XDICTIONARY
360
1107
102
}
102
{ACAD_REACTORS
330
567
102
}
330
567
100
AcDbVisualStyle
  2

 70
    14
 71
     2
 72
     2
 73
     0
 90
        0
 40
-0.6
 41
-30.0
 62
     5
 63
     7
 74
     1
 91
        4
 64
     7
 65
   257
 75
     7
175
     7
 42
1.0
 92
        8
 66
     7
 43
1.0
 76
     1
 77
     6
 78
     2
 67
     7
 79
     5
170
     0
171
     0
290
     0
174
     0
 93
        1
 44
0.0
173
     0
291
     1
 45
0.0
1001
ACAD
1000
AcDbSavedByObjectVersion
1070
     0
  0
VISUALSTYLE
  5
57E
102
{ACAD_XDICTIONARY
360
1119
102
}
102
{ACAD_REACTORS
330
567
102
}
330
567
100
AcDbVisualStyle
  2

 70
    21
 71
     2
 72
     2
 73
     0
 90
        0
 40
-0.6
 41
-30.0
 62
     5
 63
     7
 74
     1
 91
        4
 64
     7
 65
   257
 75
     1
175
     1
 42
1.0
 92
        9
 66
     7
 43
1.0
 76
     1
 77
     6
 78
     2
 67
     7
 79
     5
170
     0
171
     0
290
     0
174
     0
 93
        1
 44
0.0
173
     0
291
     1
 45
0.0
1001
ACAD
1000
AcDbSavedByObjectVersion
1070
     0
  0
VISUALSTYLE
  5
571
102
{ACAD_XDICTIONARY
360
10FF
102
}
102
{ACAD_REACTORS
330
567
102
}
330
567
100
AcDbVisualStyle
  2

 70
     8
 71
     2
 72
     3
 73
     0
 90
        2
 40
-0.6
 41
30.0
 62
     5
 63
     7
 74
     0
 91
        0
 64
     7
 65
   257
 75
     1
175
     1
 42
1.0
 92
        8
 66
   257
 43
1.0
 76
     1
 77
     6
 78
     2
 67
     7
 79
     3
170
     0
171
     0
290
     0
174
     0
 93
       13
 44
0.0
173
     0
291
     0
 45
0.0
1001
ACAD
1000
AcDbSavedByObjectVersion
1070
     0
  0
VISUALSTYLE
  5
57C
102
{ACAD_XDICTIONARY
360
1115
102
}
102
{ACAD_REACTORS
330
567
102
}
330
567
100
AcDbVisualStyle
  2

 70
    27
 71
     2
 72
     2
 73
     1
 90
        2
 40
-0.6
 41
30.0
 62
     5
 63
     7
 74
     0
 91
        4
 64
     7
 65
   257
 75
     1
175
     1
 42
1.0
 92
        8
 66
   257
 43
1.0
 76
     1
 77
     6
 78
     2
 67
     8
 79
     3
170
     0
171
     0
290
     0
174
     0
 93
        5
 44
0.0
173
     0
291
     0
 45
0.0
1001
ACAD
1000
AcDbSavedByObjectVersion
1070
     0
  0
VISUALSTYLE
  5
57B
102
{ACAD_XDICTIONARY
360
1113
102
}
102
{ACAD_REACTORS
330
567
102
}
330
567
100
AcDbVisualStyle
  2

 70
    26
 71
     2
 72
     2
 73
     1
 90
        2
 40
-0.6
 41
30.0
 62
     5
 63
     7
 74
     1
 91
       10
 64
     7
 65
   257
 75
     2
175
     1
 42
1.0
 92
        8
 66
   257
 43
1.0
 76
     1
 77
     6
 78
     2
 67
     7
 79
     3
170
     0
171
     0
290
     0
174
     0
 93
        5
 44
0.0
173
     0
291
     0
 45
0.0
1001
ACAD
1000
AcDbSavedByObjectVersion
1070
     0
  0
VISUALSTYLE
  5
578
102
{ACAD_XDICTIONARY
360
110D
102
}
102
{ACAD_REACTORS
330
567
102
}
330
567
100
AcDbVisualStyle
  2

 70
    23
 71
     2
 72
     2
 73
     3
 90
        0
 40
-0.6
 41
-30.0
 62
     5
 63
     7
 74
     2
 91
        2
 64
     7
 65
     7
 75
     1
175
     1
 42
40.0
 92
        8
 66
     7
 43
1.0
 76
     1
 77
     6
 78
     2
 67
     7
 79
     3
170
     0
171
     0
290
     0
174
     0
 93
        1
 44
0.0
173
     0
291
     0
 45
0.0
1001
ACAD
1000
AcDbSavedByObjectVersion
1070
     0
  0
VISUALSTYLE
  5
579
102
{ACAD_XDICTIONARY
360
110F
102
}
102
{ACAD_REACTORS
330
567
102
}
330
567
100
AcDbVisualStyle
  2

 70
    24
 71
     1
 72
     2
 73
     2
 90
        0
 40
-0.6
 41
-30.0
 62
     5
 63
     7
 74
     2
 91
        2
 64
     7
 65
     7
 75
     1
175
     1
 42
40.0
 92
       11
 66
     7
 43
1.0
 76
     1
 77
     6
 78
     2
 67
     7
 79
     6
170
     0
171
     0
290
     0
174
     0
 93
        1
 44
0.0
173
     0
291
     0
 45
0.0
1001
ACAD
1000
AcDbSavedByObjectVersion
1070
     0
  0
VISUALSTYLE
  5
574
102
{ACAD_XDICTIONARY
360
1105
102
}
102
{ACAD_REACTORS
330
567
102
}
330
567
100
AcDbVisualStyle
  2

 70
    13
 71
     2
 72
     2
 73
     0
 90
        0
 40
-0.6
 41
-30.0
 62
     5
 63
     7
 74
     1
 91
        4
 64
     7
 65
   257
 75
     1
175
     1
 42
1.0
 92
       12
 66
     7
 43
1.0
 76
     1
 77
     6
 78
     2
 67
     7
 79
     5
170
     0
171
     0
290
     0
174
     0
 93
        1
 44
0.0
173
     0
291
     1
 45
0.0
1001
ACAD
1000
AcDbSavedByObjectVersion
1070
     0
  0
VISUALSTYLE
  5
56E
102
{ACAD_XDICTIONARY
360
10F9
102
}
102
{ACAD_REACTORS
330
567
102
}
330
567
100
AcDbVisualStyle
  2

 70
     5
 71
     0
 72
     2
 73
     0
 90
        0
 40
-0.6
 41
-30.0
 62
     5
 63
     7
 74
     1
 91
        4
 64
     7
 65
   257
 75
     1
175
     1
 42
1.0
 92
        0
 66
   257
 43
1.0
 76
     1
 77
     6
 78
     2
 67
     7
 79
     3
170
     0
171
     0
290
     0
174
     0
 93
        1
 44
0.0
173
     0
291
     0
 45
0.0
1001
ACAD
1000
AcDbSavedByObjectVersion
1070
     0
  0
VISUALSTYLE
  5
57A
102
{ACAD_XDICTIONARY
360
1111
102
}
102
{ACAD_REACTORS
330
567
102
}
330
567
100
AcDbVisualStyle
  2

 70
    25
 71
     2
 72
     2
 73
     1
 90
        1
 40
0.5
 41
-30.0
 62
     5
 63
     7
 74
     1
 91
        0
 64
     7
 65
   257
 75
     1
175
     1
 42
1.0
 92
        8
 66
     7
 43
1.0
 76
     1
 77
     6
 78
     2
 67
     7
 79
     3
170
     0
171
     0
290
     0
174
     0
 93
       13
 44
0.0
173
     0
291
     0
 45
0.0
1001
ACAD
1000
AcDbSavedByObjectVersion
1070
     0
  0
DICTIONARYVAR
  5
549
102
{ACAD_REACTORS
330
357
102
}
330
357
100
DictionaryVariables
280
     0
  1
1:1
  0
DICTIONARYVAR
  5
5AB
102
{ACAD_REACTORS
330
357
102
}
330
357
100
DictionaryVariables
280
     0
  1
STANDARD
  0
DICTIONARYVAR
  5
38D
102
{ACAD_REACTORS
330
357
102
}
330
357
100
DictionaryVariables
280
     0
  1
STANDARD
  0
DICTIONARYVAR
  5
5AC
102
{ACAD_REACTORS
330
357
102
}
330
357
100
DictionaryVariables
280
     0
  1
Metric50
  0
DICTIONARYVAR
  5
5AD
102
{ACAD_REACTORS
330
357
102
}
330
357
100
DictionaryVariables
280
     0
  1
Metric50
  0
DICTIONARYVAR
  5
359
102
{ACAD_REACTORS
330
357
102
}
330
357
100
DictionaryVariables
280
     0
  1
2
  0
DICTIONARYVAR
  5
358
102
{ACAD_REACTORS
330
357
102
}
330
357
100
DictionaryVariables
280
     0
  1
1
  0
DICTIONARYVAR
  5
5AF
102
{ACAD_REACTORS
330
357
102
}
330
357
100
DictionaryVariables
280
     0
  1
0
  0
DICTIONARYVAR
  5
D43
102
{ACAD_REACTORS
330
357
102
}
330
357
100
DictionaryVariables
280
     0
  1
1
  0
DICTIONARYVAR
  5
D44
102
{ACAD_REACTORS
330
357
102
}
330
357
100
DictionaryVariables
280
     0
  1
15
  0
DICTIONARYVAR
  5
D42
102
{ACAD_REACTORS
330
357
102
}
330
357
100
DictionaryVariables
280
     0
  1
0
  0
DICTIONARYVAR
  5
D41
102
{ACAD_REACTORS
330
357
102
}
330
357
100
DictionaryVariables
280
     0
  1
0
  0
DICTIONARYVAR
  5
38E
102
{ACAD_REACTORS
330
357
102
}
330
357
100
DictionaryVariables
280
     0
  1

  0
DICTIONARYVAR
  5
5AE
102
{ACAD_REACTORS
330
357
102
}
330
357
100
DictionaryVariables
280
     0
  1
127
  0
DICTIONARYVAR
  5
10E5
102
{ACAD_REACTORS
330
357
102
}
330
357
100
DictionaryVariables
280
     0
  1
2
  0
DICTIONARY
  5
626
102
{ACAD_REACTORS
330
61F
102
}
330
61F
100
AcDbDictionary
281
     1
  0
DICTIONARY
  5
1120
330
585
100
AcDbDictionary
280
     1
281
     1
  3
ACAD_XREC_ROUNDTRIP
360
1121
  0
DICTIONARY
  5
558
330
557
100
AcDbDictionary
280
     1
281
     1
  3
ACAD_XREC_ROUNDTRIP
360
5BC
  3
BUMPTILE
360
55A
  3
DIFFUSETILE
360
559
  3
OPACITYTILE
360
55D
  3
REFLECTIONTILE
360
55C
  3
REFRACTIONTILE
360
55E
  3
SPECULARTILE
360
55B
  0
DICTIONARY
  5
550
330
54F
100
AcDbDictionary
280
     1
281
     1
  3
ACAD_XREC_ROUNDTRIP
360
5BB
  3
BUMPTILE
360
552
  3
DIFFUSETILE
360
551
  3
OPACITYTILE
360
555
  3
REFLECTIONTILE
360
554
  3
REFRACTIONTILE
360
556
  3
SPECULARTILE
360
553
  0
DICTIONARY
  5
560
330
55F
100
AcDbDictionary
280
     1
281
     1
  3
ACAD_XREC_ROUNDTRIP
360
5BD
  3
BUMPTILE
360
562
  3
DIFFUSETILE
360
561
  3
OPACITYTILE
360
565
  3
REFLECTIONTILE
360
564
  3
REFRACTIONTILE
360
566
  3
SPECULARTILE
360
563
  0
DICTIONARY
  5
111E
330
583
100
AcDbDictionary
280
     1
281
     1
  3
ACAD_XREC_ROUNDTRIP
360
111F
  0
DICTIONARY
  5
5B2
330
580
100
AcDbDictionary
280
     1
281
     1
  3
ACAD_ROUNDTRIP_2008_TABLESTYLE_CELLSTYLEMAP
360
10E6
  3
ACAD_XREC_ROUNDTRIP
360
111D
  0
DICTIONARY
  5
10F7
330
56D
100
AcDbDictionary
280
     1
281
     1
  3
ACAD_XREC_ROUNDTRIP
360
10F8
  0
DICTIONARY
  5
10F5
330
56C
100
AcDbDictionary
280
     1
281
     1
  3
ACAD_XREC_ROUNDTRIP
360
10F6
  0
DICTIONARY
  5
1103
330
573
100
AcDbDictionary
280
     1
281
     1
  3
ACAD_XREC_ROUNDTRIP
360
1104
  0
DICTIONARY
  5
110B
330
577
100
AcDbDictionary
280
     1
281
     1
  3
ACAD_XREC_ROUNDTRIP
360
110C
  0
DICTIONARY
  5
10FD
330
570
100
AcDbDictionary
280
     1
281
     1
  3
ACAD_XREC_ROUNDTRIP
360
10FE
  0
DICTIONARY
  5
1101
330
572
100
AcDbDictionary
280
     1
281
     1
  3
ACAD_XREC_ROUNDTRIP
360
1102
  0
DICTIONARY
  5
111B
330
57F
100
AcDbDictionary
280
     1
281
     1
  3
ACAD_XREC_ROUNDTRIP
360
111C
  0
DICTIONARY
  5
1109
330
576
100
AcDbDictionary
280
     1
281
     1
  3
ACAD_XREC_ROUNDTRIP
360
110A
  0
DICTIONARY
  5
10ED
330
568
100
AcDbDictionary
280
     1
281
     1
  3
ACAD_XREC_ROUNDTRIP
360
10EE
  0
DICTIONARY
  5
10EF
330
569
100
AcDbDictionary
280
     1
281
     1
  3
ACAD_XREC_ROUNDTRIP
360
10F0
  0
DICTIONARY
  5
10F1
330
56A
100
AcDbDictionary
280
     1
281
     1
  3
ACAD_XREC_ROUNDTRIP
360
10F2
  0
DICTIONARY
  5
10F3
330
56B
100
AcDbDictionary
280
     1
281
     1
  3
ACAD_XREC_ROUNDTRIP
360
10F4
  0
DICTIONARY
  5
10FB
330
56F
100
AcDbDictionary
280
     1
281
     1
  3
ACAD_XREC_ROUNDTRIP
360
10FC
  0
DICTIONARY
  5
1117
330
57D
100
AcDbDictionary
280
     1
281
     1
  3
ACAD_XREC_ROUNDTRIP
360
1118
  0
DICTIONARY
  5
1107
330
575
100
AcDbDictionary
280
     1
281
     1
  3
ACAD_XREC_ROUNDTRIP
360
1108
  0
DICTIONARY
  5
1119
330
57E
100
AcDbDictionary
280
     1
281
     1
  3
ACAD_XREC_ROUNDTRIP
360
111A
  0
DICTIONARY
  5
10FF
330
571
100
AcDbDictionary
280
     1
281
     1
  3
ACAD_XREC_ROUNDTRIP
360
1100
  0
DICTIONARY
  5
1115
330
57C
100
AcDbDictionary
280
     1
281
     1
  3
ACAD_XREC_ROUNDTRIP
360
1116
  0
DICTIONARY
  5
1113
330
57B
100
AcDbDictionary
280
     1
281
     1
  3
ACAD_XREC_ROUNDTRIP
360
1114
  0
DICTIONARY
  5
110D
330
578
100
AcDbDictionary
280
     1
281
     1
  3
ACAD_XREC_ROUNDTRIP
360
110E
  0
DICTIONARY
  5
110F
330
579
100
AcDbDictionary
280
     1
281
     1
  3
ACAD_XREC_ROUNDTRIP
360
1110
  0
DICTIONARY
  5
1105
330
574
100
AcDbDictionary
280
     1
281
     1
  3
ACAD_XREC_ROUNDTRIP
360
1106
  0
DICTIONARY
  5
10F9
330
56E
100
AcDbDictionary
280
     1
281
     1
  3
ACAD_XREC_ROUNDTRIP
360
10FA
  0
DICTIONARY
  5
1111
330
57A
100
AcDbDictionary
280
     1
281
     1
  3
ACAD_XREC_ROUNDTRIP
360
1112
  0
XRECORD
  5
1121
102
{ACAD_REACTORS
330
1120
102
}
330
1120
100
AcDbXrecord
280
     1
102
DISPLAYNAME
  1
Metric50
102
FLAGS
 90
        0
  0
XRECORD
  5
5BC
102
{ACAD_REACTORS
330
558
102
}
330
558
100
AcDbXrecord
280
     1
102
MATERIAL
148
0.0
149
0.0
149
0.0
 93
        0
 94
      127
282
     0
 72
     0
 77
     0
171
     0
175
     0
179
     0
273
     0
  0
XRECORD
  5
55A
102
{ACAD_REACTORS
330
558
102
}
330
558
100
AcDbXrecord
280
     1
270
     1
271
     1
  0
XRECORD
  5
559
102
{ACAD_REACTORS
330
558
102
}
330
558
100
AcDbXrecord
280
     1
270
     1
271
     1
  0
XRECORD
  5
55D
102
{ACAD_REACTORS
330
558
102
}
330
558
100
AcDbXrecord
280
     1
270
     1
271
     1
  0
XRECORD
  5
55C
102
{ACAD_REACTORS
330
558
102
}
330
558
100
AcDbXrecord
280
     1
270
     1
271
     1
  0
XRECORD
  5
55E
102
{ACAD_REACTORS
330
558
102
}
330
558
100
AcDbXrecord
280
     1
270
     1
271
     1
  0
XRECORD
  5
55B
102
{ACAD_REACTORS
330
558
102
}
330
558
100
AcDbXrecord
280
     1
270
     1
271
     1
  0
XRECORD
  5
5BB
102
{ACAD_REACTORS
330
550
102
}
330
550
100
AcDbXrecord
280
     1
102
MATERIAL
148
0.0
149
0.0
149
0.0
 93
        0
 94
      127
282
     0
 72
     0
 77
     0
171
     0
175
     0
179
     0
273
     0
  0
XRECORD
  5
552
102
{ACAD_REACTORS
330
550
102
}
330
550
100
AcDbXrecord
280
     1
270
     1
271
     1
  0
XRECORD
  5
551
102
{ACAD_REACTORS
330
550
102
}
330
550
100
AcDbXrecord
280
     1
270
     1
271
     1
  0
XRECORD
  5
555
102
{ACAD_REACTORS
330
550
102
}
330
550
100
AcDbXrecord
280
     1
270
     1
271
     1
  0
XRECORD
  5
554
102
{ACAD_REACTORS
330
550
102
}
330
550
100
AcDbXrecord
280
     1
270
     1
271
     1
  0
XRECORD
  5
556
102
{ACAD_REACTORS
330
550
102
}
330
550
100
AcDbXrecord
280
     1
270
     1
271
     1
  0
XRECORD
  5
553
102
{ACAD_REACTORS
330
550
102
}
330
550
100
AcDbXrecord
280
     1
270
     1
271
     1
  0
XRECORD
  5
5BD
102
{ACAD_REACTORS
330
560
102
}
330
560
100
AcDbXrecord
280
     1
102
MATERIAL
148
0.0
149
0.0
149
0.0
 93
        0
 94
      127
282
     0
 72
     0
 77
     0
171
     0
175
     0
179
     0
273
     0
  0
XRECORD
  5
562
102
{ACAD_REACTORS
330
560
102
}
330
560
100
AcDbXrecord
280
     1
270
     1
271
     1
  0
XRECORD
  5
561
102
{ACAD_REACTORS
330
560
102
}
330
560
100
AcDbXrecord
280
     1
270
     1
271
     1
  0
XRECORD
  5
565
102
{ACAD_REACTORS
330
560
102
}
330
560
100
AcDbXrecord
280
     1
270
     1
271
     1
  0
XRECORD
  5
564
102
{ACAD_REACTORS
330
560
102
}
330
560
100
AcDbXrecord
280
     1
270
     1
271
     1
  0
XRECORD
  5
566
102
{ACAD_REACTORS
330
560
102
}
330
560
100
AcDbXrecord
280
     1
270
     1
271
     1
  0
XRECORD
  5
563
102
{ACAD_REACTORS
330
560
102
}
330
560
100
AcDbXrecord
280
     1
270
     1
271
     1
  0
XRECORD
  5
111F
102
{ACAD_REACTORS
330
111E
102
}
330
111E
100
AcDbXrecord
280
     1
102
DISPLAYNAME
  1
Metric50
102
FLAGS
 90
        0
  0
CELLSTYLEMAP
  5
10E6
102
{ACAD_REACTORS
330
5B2
102
}
330
5B2
100
AcDbCellStyleMap
 90
        3
300
CELLSTYLE
  1
TABLEFORMAT_BEGIN
 90
        5
170
     1
 91
        0
 92
    32768
 62
   257
 93
        1
300
CONTENTFORMAT
  1
CONTENTFORMAT_BEGIN
 90
        0
 91
        0
 92
      512
 93
        0
300

 40
0.0
140
1.0
 94
        5
 62
     0
340
10
144
6.0
309
CONTENTFORMAT_END
171
     1
301
MARGIN
  1
CELLMARGIN_BEGIN
 40
1.5
 40
1.5
 40
1.5
 40
1.5
 40
0.18
 40
0.18
309
CELLMARGIN_END
 94
        6
 95
        1
302
GRIDFORMAT
  1
GRIDFORMAT_BEGIN
 90
        0
 91
        1
 62
     0
 92
       -2
340
0
 93
        0
 40
1.125
309
GRIDFORMAT_END
 95
        2
302
GRIDFORMAT
  1
GRIDFORMAT_BEGIN
 90
        0
 91
        1
 62
     0
 92
       -2
340
0
 93
        0
 40
1.125
309
GRIDFORMAT_END
 95
        4
302
GRIDFORMAT
  1
GRIDFORMAT_BEGIN
 90
        0
 91
        1
 62
     0
 92
       -2
340
0
 93
        0
 40
1.125
309
GRIDFORMAT_END
 95
        8
302
GRIDFORMAT
  1
GRIDFORMAT_BEGIN
 90
        0
 91
        1
 62
     0
 92
       -2
340
0
 93
        0
 40
1.125
309
GRIDFORMAT_END
 95
       16
302
GRIDFORMAT
  1
GRIDFORMAT_BEGIN
 90
        0
 91
        1
 62
     0
 92
       -2
340
0
 93
        0
 40
1.125
309
GRIDFORMAT_END
 95
       32
302
GRIDFORMAT
  1
GRIDFORMAT_BEGIN
 90
        0
 91
        1
 62
     0
 92
       -2
340
0
 93
        0
 40
1.125
309
GRIDFORMAT_END
309
TABLEFORMAT_END
  1
CELLSTYLE_BEGIN
 90
        1
 91
        1
300
_TITLE
309
CELLSTYLE_END
300
CELLSTYLE
  1
TABLEFORMAT_BEGIN
 90
        5
170
     1
 91
        0
 92
        0
 62
   257
 93
        1
300
CONTENTFORMAT
  1
CONTENTFORMAT_BEGIN
 90
        0
 91
        0
 92
      512
 93
        0
300

 40
0.0
140
1.0
 94
        5
 62
     0
340
10
144
4.5
309
CONTENTFORMAT_END
171
     1
301
MARGIN
  1
CELLMARGIN_BEGIN
 40
1.5
 40
1.5
 40
1.5
 40
1.5
 40
0.18
 40
0.18
309
CELLMARGIN_END
 94
        6
 95
        1
302
GRIDFORMAT
  1
GRIDFORMAT_BEGIN
 90
        0
 91
        1
 62
     0
 92
       -2
340
0
 93
        0
 40
1.125
309
GRIDFORMAT_END
 95
        2
302
GRIDFORMAT
  1
GRIDFORMAT_BEGIN
 90
        0
 91
        1
 62
     0
 92
       -2
340
0
 93
        0
 40
1.125
309
GRIDFORMAT_END
 95
        4
302
GRIDFORMAT
  1
GRIDFORMAT_BEGIN
 90
        0
 91
        1
 62
     0
 92
       -2
340
0
 93
        0
 40
1.125
309
GRIDFORMAT_END
 95
        8
302
GRIDFORMAT
  1
GRIDFORMAT_BEGIN
 90
        0
 91
        1
 62
     0
 92
       -2
340
0
 93
        0
 40
1.125
309
GRIDFORMAT_END
 95
       16
302
GRIDFORMAT
  1
GRIDFORMAT_BEGIN
 90
        0
 91
        1
 62
     0
 92
       -2
340
0
 93
        0
 40
1.125
309
GRIDFORMAT_END
 95
       32
302
GRIDFORMAT
  1
GRIDFORMAT_BEGIN
 90
        0
 91
        1
 62
     0
 92
       -2
340
0
 93
        0
 40
1.125
309
GRIDFORMAT_END
309
TABLEFORMAT_END
  1
CELLSTYLE_BEGIN
 90
        2
 91
        1
300
_HEADER
309
CELLSTYLE_END
300
CELLSTYLE
  1
TABLEFORMAT_BEGIN
 90
        5
170
     1
 91
        0
 92
        0
 62
   257
 93
        1
300
CONTENTFORMAT
  1
CONTENTFORMAT_BEGIN
 90
        0
 91
        0
 92
      512
 93
        0
300

 40
0.0
140
1.0
 94
        2
 62
     0
340
10
144
4.5
309
CONTENTFORMAT_END
171
     1
301
MARGIN
  1
CELLMARGIN_BEGIN
 40
1.5
 40
1.5
 40
1.5
 40
1.5
 40
0.18
 40
0.18
309
CELLMARGIN_END
 94
        6
 95
        1
302
GRIDFORMAT
  1
GRIDFORMAT_BEGIN
 90
        0
 91
        1
 62
     0
 92
       -2
340
0
 93
        0
 40
1.125
309
GRIDFORMAT_END
 95
        2
302
GRIDFORMAT
  1
GRIDFORMAT_BEGIN
 90
        0
 91
        1
 62
     0
 92
       -2
340
0
 93
        0
 40
1.125
309
GRIDFORMAT_END
 95
        4
302
GRIDFORMAT
  1
GRIDFORMAT_BEGIN
 90
        0
 91
        1
 62
     0
 92
       -2
340
0
 93
        0
 40
1.125
309
GRIDFORMAT_END
 95
        8
302
GRIDFORMAT
  1
GRIDFORMAT_BEGIN
 90
        0
 91
        1
 62
     0
 92
       -2
340
0
 93
        0
 40
1.125
309
GRIDFORMAT_END
 95
       16
302
GRIDFORMAT
  1
GRIDFORMAT_BEGIN
 90
        0
 91
        1
 62
     0
 92
       -2
340
0
 93
        0
 40
1.125
309
GRIDFORMAT_END
 95
       32
302
GRIDFORMAT
  1
GRIDFORMAT_BEGIN
 90
        0
 91
        1
 62
     0
 92
       -2
340
0
 93
        0
 40
1.125
309
GRIDFORMAT_END
309
TABLEFORMAT_END
  1
CELLSTYLE_BEGIN
 90
        3
 91
        2
300
_DATA
309
CELLSTYLE_END
  0
XRECORD
  5
111D
102
{ACAD_REACTORS
330
5B2
102
}
330
5B2
100
AcDbXrecord
280
     1
102
ACAD_ROUNDTRIP_PRE2007_TABLESTYLE
 90
      512
 91
        0
  1

 92
      512
 93
        0
  2

 94
      512
 95
        0
  3

  0
XRECORD
  5
10F8
102
{ACAD_REACTORS
330
10F7
102
}
330
10F7
100
AcDbXrecord
280
     1
102
RTVSPost2010Prop28
280
     1
102
RTVSPost2010PropOp28
 70
     1
102
RTVSPost2010Prop29
280
     1
102
RTVSPost2010PropOp29
 70
     1
102
RTVSPost2010Prop30
280
     0
102
RTVSPost2010PropOp30
 70
     1
102
RTVSPost2010Prop31
280
     0
102
RTVSPost2010PropOp31
 70
     1
102
RTVSPost2010Prop32
280
     0
102
RTVSPost2010PropOp32
 70
     1
102
RTVSPost2010Prop33
280
     0
102
RTVSPost2010PropOp33
 70
     1
102
RTVSPost2010Prop34
280
     0
102
RTVSPost2010PropOp34
 70
     1
102
RTVSPost2010Prop35
280
     0
102
RTVSPost2010PropOp35
 70
     1
102
RTVSPost2010Prop36
280
     0
102
RTVSPost2010PropOp36
 70
     1
102
RTVSPost2010Prop37
 90
       50
102
RTVSPost2010PropOp37
 70
     1
102
RTVSPost2010Prop38
140
0.0
102
RTVSPost2010PropOp38
 70
     1
102
RTVSPost2010Prop39
140
1.0
102
RTVSPost2010PropOp39
 70
     1
102
RTVSPost2010Prop40
 90
        0
102
RTVSPost2010PropOp40
 70
     1
102
RTVSPost2010Prop41ColorIndex
 90
       18
102
RTVSPost2010Prop41ColorRGB
 90
        0
102
RTVSPost2010PropOp41
 70
     1
102
RTVSPost2010Prop42
 90
       50
102
RTVSPost2010PropOp42
 70
     1
102
RTVSPost2010Prop43
 90
        3
102
RTVSPost2010PropOp43
 70
     1
102
RTVSPost2010Prop44ColorIndex
 90
        5
102
RTVSPost2010Prop44ColorRGB
 90
      255
102
RTVSPost2010PropOp44
 70
     1
102
RTVSPost2010Prop45
280
     0
102
RTVSPost2010PropOp45
 70
     1
102
RTVSPost2010Prop46
 90
       50
102
RTVSPost2010PropOp46
 70
     1
102
RTVSPost2010Prop47
 90
       50
102
RTVSPost2010PropOp47
 70
     1
102
RTVSPost2010Prop48
 90
       50
102
RTVSPost2010PropOp48
 70
     1
102
RTVSPost2010Prop49
280
     0
102
RTVSPost2010PropOp49
 70
     1
102
RTVSPost2010Prop50
 90
       50
102
RTVSPost2010PropOp50
 70
     1
102
RTVSPost2010Prop51ColorIndex
 90
      256
102
RTVSPost2010Prop51ColorRGB
 90
-16777216
102
RTVSPost2010PropOp51
 70
     0
102
RTVSPost2010Prop52
140
1.0
102
RTVSPost2010PropOp52
 70
     0
102
RTVSPost2010Prop53
 90
        2
102
RTVSPost2010PropOp53
 70
     1
102
RTVSPost2010Prop54
  1
strokes_ogs.tif
102
RTVSPost2010PropOp54
 70
     1
102
RTVSPost2010Prop55
280
     0
102
RTVSPost2010PropOp55
 70
     1
102
RTVSPost2010Prop56
140
1.0
102
RTVSPost2010PropOp56
 70
     1
102
RTVSPost2010Prop57
140
1.0
102
RTVSPost2010PropOp57
 70
     1
102
RTVSPropertyOp0
 70
     1
102
RTVSPropertyOp1
 70
     1
102
RTVSPropertyOp2
 70
     1
102
RTVSPropertyOp3
 70
     1
102
RTVSPropertyOp4
 70
     1
102
RTVSPropertyOp5
 70
     1
102
RTVSPropertyOp6
 70
     1
102
RTVSPropertyOp7
 70
     1
102
RTVSPropertyOp8
 70
     1
102
RTVSPropertyOp9
 70
     1
102
RTVSPropertyOp10
 70
     1
102
RTVSPropertyOp11
 70
     1
102
RTVSPropertyOp12
 70
     1
102
RTVSPropertyOp13
 70
     1
102
RTVSPropertyOp14
 70
     1
102
RTVSPropertyOp15
 70
     1
102
RTVSPropertyOp16
 70
     1
102
RTVSPropertyOp17
 70
     1
102
RTVSPropertyOp18
 70
     1
102
RTVSPropertyOp19
 70
     1
102
RTVSPropertyOp20
 70
     1
102
RTVSPropertyOp21
 70
     1
102
RTVSPropertyOp22
 70
     1
102
RTVSPropertyOp23
 70
     1
102
RTVSPropertyOp24
 70
     1
102
RTVSPropertyOp25
 70
     1
102
RTVSPropertyOp26
 70
     1
102
RTVSPropertyOp27
 70
     1
102
RTVSPropertyOp28
 70
     1
102
RTVSPropertyOp29
 70
     1
102
RTVSPropertyOp30
 70
     1
102
RTVSPropertyOp31
 70
     1
102
RTVSPropertyOp32
 70
     1
102
RTVSPropertyOp33
 70
     1
102
RTVSPropertyOp34
 70
     1
102
RTVSPropertyOp35
 70
     1
102
RTVSPropertyOp36
 70
     1
102
RTVSPropertyOp37
 70
     1
102
RTVSPropertyOp38
 70
     1
102
RTVSPropertyOp39
 70
     1
102
RTVSPropertyOp40
 70
     1
102
RTVSPropertyOp41
 70
     1
102
RTVSPropertyOp42
 70
     1
102
RTVSPropertyOp43
 70
     1
102
RTVSPropertyOp44
 70
     1
102
RTVSPropertyOp45
 70
     1
102
RTVSPropertyOp46
 70
     1
102
RTVSPropertyOp47
 70
     1
102
RTVSPropertyOp48
 70
     1
102
RTVSPropertyOp49
 70
     1
102
RTVSPropertyOp50
 70
     1
102
RTVSPropertyOp51
 70
     0
102
RTVSPropertyOp52
 70
     0
102
RTVSPropertyOp53
 70
     1
102
RTVSPropertyOp54
 70
     1
102
RTVSPropertyOp55
 70
     1
102
RTVSPropertyOp56
 70
     1
102
RTVSPropertyOp57
 70
     1
102
RTVSPropertyOp58
 70
     1
102
RTVSPropertyOp59
 70
     1
102
RTVSPropertyOp60
 70
     1
102
RTVSPropertyOp61
 70
     1
102
RTVSPropertyOp62
 70
     1
  0
XRECORD
  5
10F6
102
{ACAD_REACTORS
330
10F5
102
}
330
10F5
100
AcDbXrecord
280
     1
102
RTVSPost2010Prop28
280
     0
102
RTVSPost2010PropOp28
 70
     1
102
RTVSPost2010Prop29
280
     1
102
RTVSPost2010PropOp29
 70
     1
102
RTVSPost2010Prop30
280
     1
102
RTVSPost2010PropOp30
 70
     1
102
RTVSPost2010Prop31
280
     0
102
RTVSPost2010PropOp31
 70
     1
102
RTVSPost2010Prop32
280
     0
102
RTVSPost2010PropOp32
 70
     1
102
RTVSPost2010Prop33
280
     0
102
RTVSPost2010PropOp33
 70
     1
102
RTVSPost2010Prop34
280
     0
102
RTVSPost2010PropOp34
 70
     1
102
RTVSPost2010Prop35
280
     0
102
RTVSPost2010PropOp35
 70
     1
102
RTVSPost2010Prop36
280
     0
102
RTVSPost2010PropOp36
 70
     1
102
RTVSPost2010Prop37
 90
       50
102
RTVSPost2010PropOp37
 70
     1
102
RTVSPost2010Prop38
140
0.0
102
RTVSPost2010PropOp38
 70
     1
102
RTVSPost2010Prop39
140
1.0
102
RTVSPost2010PropOp39
 70
     1
102
RTVSPost2010Prop40
 90
        0
102
RTVSPost2010PropOp40
 70
     1
102
RTVSPost2010Prop41ColorIndex
 90
       18
102
RTVSPost2010Prop41ColorRGB
 90
        0
102
RTVSPost2010PropOp41
 70
     1
102
RTVSPost2010Prop42
 90
       50
102
RTVSPost2010PropOp42
 70
     1
102
RTVSPost2010Prop43
 90
        3
102
RTVSPost2010PropOp43
 70
     1
102
RTVSPost2010Prop44ColorIndex
 90
        5
102
RTVSPost2010Prop44ColorRGB
 90
      255
102
RTVSPost2010PropOp44
 70
     1
102
RTVSPost2010Prop45
280
     0
102
RTVSPost2010PropOp45
 70
     1
102
RTVSPost2010Prop46
 90
       50
102
RTVSPost2010PropOp46
 70
     1
102
RTVSPost2010Prop47
 90
       50
102
RTVSPost2010PropOp47
 70
     1
102
RTVSPost2010Prop48
 90
       50
102
RTVSPost2010PropOp48
 70
     1
102
RTVSPost2010Prop49
280
     0
102
RTVSPost2010PropOp49
 70
     1
102
RTVSPost2010Prop50
 90
       50
102
RTVSPost2010PropOp50
 70
     1
102
RTVSPost2010Prop51ColorIndex
 90
      256
102
RTVSPost2010Prop51ColorRGB
 90
-16777216
102
RTVSPost2010PropOp51
 70
     0
102
RTVSPost2010Prop52
140
1.0
102
RTVSPost2010PropOp52
 70
     0
102
RTVSPost2010Prop53
 90
        2
102
RTVSPost2010PropOp53
 70
     1
102
RTVSPost2010Prop54
  1
strokes_ogs.tif
102
RTVSPost2010PropOp54
 70
     1
102
RTVSPost2010Prop55
280
     0
102
RTVSPost2010PropOp55
 70
     1
102
RTVSPost2010Prop56
140
1.0
102
RTVSPost2010PropOp56
 70
     1
102
RTVSPost2010Prop57
140
1.0
102
RTVSPost2010PropOp57
 70
     1
102
RTVSPropertyOp0
 70
     1
102
RTVSPropertyOp1
 70
     1
102
RTVSPropertyOp2
 70
     1
102
RTVSPropertyOp3
 70
     1
102
RTVSPropertyOp4
 70
     1
102
RTVSPropertyOp5
 70
     1
102
RTVSPropertyOp6
 70
     1
102
RTVSPropertyOp7
 70
     1
102
RTVSPropertyOp8
 70
     1
102
RTVSPropertyOp9
 70
     1
102
RTVSPropertyOp10
 70
     1
102
RTVSPropertyOp11
 70
     1
102
RTVSPropertyOp12
 70
     1
102
RTVSPropertyOp13
 70
     1
102
RTVSPropertyOp14
 70
     1
102
RTVSPropertyOp15
 70
     1
102
RTVSPropertyOp16
 70
     1
102
RTVSPropertyOp17
 70
     1
102
RTVSPropertyOp18
 70
     1
102
RTVSPropertyOp19
 70
     1
102
RTVSPropertyOp20
 70
     1
102
RTVSPropertyOp21
 70
     1
102
RTVSPropertyOp22
 70
     1
102
RTVSPropertyOp23
 70
     1
102
RTVSPropertyOp24
 70
     1
102
RTVSPropertyOp25
 70
     1
102
RTVSPropertyOp26
 70
     1
102
RTVSPropertyOp27
 70
     1
102
RTVSPropertyOp28
 70
     1
102
RTVSPropertyOp29
 70
     1
102
RTVSPropertyOp30
 70
     1
102
RTVSPropertyOp31
 70
     1
102
RTVSPropertyOp32
 70
     1
102
RTVSPropertyOp33
 70
     1
102
RTVSPropertyOp34
 70
     1
102
RTVSPropertyOp35
 70
     1
102
RTVSPropertyOp36
 70
     1
102
RTVSPropertyOp37
 70
     1
102
RTVSPropertyOp38
 70
     1
102
RTVSPropertyOp39
 70
     1
102
RTVSPropertyOp40
 70
     1
102
RTVSPropertyOp41
 70
     1
102
RTVSPropertyOp42
 70
     1
102
RTVSPropertyOp43
 70
     1
102
RTVSPropertyOp44
 70
     1
102
RTVSPropertyOp45
 70
     1
102
RTVSPropertyOp46
 70
     1
102
RTVSPropertyOp47
 70
     1
102
RTVSPropertyOp48
 70
     1
102
RTVSPropertyOp49
 70
     1
102
RTVSPropertyOp50
 70
     1
102
RTVSPropertyOp51
 70
     0
102
RTVSPropertyOp52
 70
     0
102
RTVSPropertyOp53
 70
     1
102
RTVSPropertyOp54
 70
     1
102
RTVSPropertyOp55
 70
     1
102
RTVSPropertyOp56
 70
     1
102
RTVSPropertyOp57
 70
     1
102
RTVSPropertyOp58
 70
     1
102
RTVSPropertyOp59
 70
     1
102
RTVSPropertyOp60
 70
     1
102
RTVSPropertyOp61
 70
     1
102
RTVSPropertyOp62
 70
     1
  0
XRECORD
  5
1104
102
{ACAD_REACTORS
330
1103
102
}
330
1103
100
AcDbXrecord
280
     1
102
RTVSPost2010Prop28
280
     0
102
RTVSPost2010PropOp28
 70
     1
102
RTVSPost2010Prop29
280
     1
102
RTVSPost2010PropOp29
 70
     1
102
RTVSPost2010Prop30
280
     1
102
RTVSPost2010PropOp30
 70
     1
102
RTVSPost2010Prop31
280
     0
102
RTVSPost2010PropOp31
 70
     1
102
RTVSPost2010Prop32
280
     0
102
RTVSPost2010PropOp32
 70
     1
102
RTVSPost2010Prop33
280
     0
102
RTVSPost2010PropOp33
 70
     1
102
RTVSPost2010Prop34
280
     0
102
RTVSPost2010PropOp34
 70
     1
102
RTVSPost2010Prop35
280
     0
102
RTVSPost2010PropOp35
 70
     1
102
RTVSPost2010Prop36
280
     0
102
RTVSPost2010PropOp36
 70
     1
102
RTVSPost2010Prop37
 90
       50
102
RTVSPost2010PropOp37
 70
     1
102
RTVSPost2010Prop38
140
0.0
102
RTVSPost2010PropOp38
 70
     1
102
RTVSPost2010Prop39
140
1.0
102
RTVSPost2010PropOp39
 70
     1
102
RTVSPost2010Prop40
 90
        0
102
RTVSPost2010PropOp40
 70
     1
102
RTVSPost2010Prop41ColorIndex
 90
       18
102
RTVSPost2010Prop41ColorRGB
 90
        0
102
RTVSPost2010PropOp41
 70
     1
102
RTVSPost2010Prop42
 90
       50
102
RTVSPost2010PropOp42
 70
     1
102
RTVSPost2010Prop43
 90
        3
102
RTVSPost2010PropOp43
 70
     1
102
RTVSPost2010Prop44ColorIndex
 90
        5
102
RTVSPost2010Prop44ColorRGB
 90
      255
102
RTVSPost2010PropOp44
 70
     1
102
RTVSPost2010Prop45
280
     0
102
RTVSPost2010PropOp45
 70
     1
102
RTVSPost2010Prop46
 90
       50
102
RTVSPost2010PropOp46
 70
     1
102
RTVSPost2010Prop47
 90
       50
102
RTVSPost2010PropOp47
 70
     1
102
RTVSPost2010Prop48
 90
       50
102
RTVSPost2010PropOp48
 70
     1
102
RTVSPost2010Prop49
280
     0
102
RTVSPost2010PropOp49
 70
     1
102
RTVSPost2010Prop50
 90
       50
102
RTVSPost2010PropOp50
 70
     1
102
RTVSPost2010Prop51ColorIndex
 90
      256
102
RTVSPost2010Prop51ColorRGB
 90
-16777216
102
RTVSPost2010PropOp51
 70
     0
102
RTVSPost2010Prop52
140
1.0
102
RTVSPost2010PropOp52
 70
     0
102
RTVSPost2010Prop53
 90
        2
102
RTVSPost2010PropOp53
 70
     1
102
RTVSPost2010Prop54
  1
strokes_ogs.tif
102
RTVSPost2010PropOp54
 70
     1
102
RTVSPost2010Prop55
280
     0
102
RTVSPost2010PropOp55
 70
     1
102
RTVSPost2010Prop56
140
1.0
102
RTVSPost2010PropOp56
 70
     1
102
RTVSPost2010Prop57
140
1.0
102
RTVSPost2010PropOp57
 70
     1
102
RTVSPropertyOp0
 70
     1
102
RTVSPropertyOp1
 70
     1
102
RTVSPropertyOp2
 70
     1
102
RTVSPropertyOp3
 70
     1
102
RTVSPropertyOp4
 70
     1
102
RTVSPropertyOp5
 70
     1
102
RTVSPropertyOp6
 70
     1
102
RTVSPropertyOp7
 70
     1
102
RTVSPropertyOp8
 70
     1
102
RTVSPropertyOp9
 70
     1
102
RTVSPropertyOp10
 70
     1
102
RTVSPropertyOp11
 70
     1
102
RTVSPropertyOp12
 70
     1
102
RTVSPropertyOp13
 70
     1
102
RTVSPropertyOp14
 70
     1
102
RTVSPropertyOp15
 70
     1
102
RTVSPropertyOp16
 70
     1
102
RTVSPropertyOp17
 70
     1
102
RTVSPropertyOp18
 70
     1
102
RTVSPropertyOp19
 70
     1
102
RTVSPropertyOp20
 70
     1
102
RTVSPropertyOp21
 70
     1
102
RTVSPropertyOp22
 70
     1
102
RTVSPropertyOp23
 70
     1
102
RTVSPropertyOp24
 70
     1
102
RTVSPropertyOp25
 70
     1
102
RTVSPropertyOp26
 70
     1
102
RTVSPropertyOp27
 70
     1
102
RTVSPropertyOp28
 70
     1
102
RTVSPropertyOp29
 70
     1
102
RTVSPropertyOp30
 70
     1
102
RTVSPropertyOp31
 70
     1
102
RTVSPropertyOp32
 70
     1
102
RTVSPropertyOp33
 70
     1
102
RTVSPropertyOp34
 70
     1
102
RTVSPropertyOp35
 70
     1
102
RTVSPropertyOp36
 70
     1
102
RTVSPropertyOp37
 70
     1
102
RTVSPropertyOp38
 70
     1
102
RTVSPropertyOp39
 70
     1
102
RTVSPropertyOp40
 70
     1
102
RTVSPropertyOp41
 70
     1
102
RTVSPropertyOp42
 70
     1
102
RTVSPropertyOp43
 70
     1
102
RTVSPropertyOp44
 70
     1
102
RTVSPropertyOp45
 70
     1
102
RTVSPropertyOp46
 70
     1
102
RTVSPropertyOp47
 70
     1
102
RTVSPropertyOp48
 70
     1
102
RTVSPropertyOp49
 70
     1
102
RTVSPropertyOp50
 70
     1
102
RTVSPropertyOp51
 70
     0
102
RTVSPropertyOp52
 70
     0
102
RTVSPropertyOp53
 70
     1
102
RTVSPropertyOp54
 70
     1
102
RTVSPropertyOp55
 70
     1
102
RTVSPropertyOp56
 70
     1
102
RTVSPropertyOp57
 70
     1
102
RTVSPropertyOp58
 70
     1
102
RTVSPropertyOp59
 70
     1
102
RTVSPropertyOp60
 70
     1
102
RTVSPropertyOp61
 70
     1
102
RTVSPropertyOp62
 70
     1
  0
XRECORD
  5
110C
102
{ACAD_REACTORS
330
110B
102
}
330
110B
100
AcDbXrecord
280
     1
102
RTVSPost2010Prop28
280
     0
102
RTVSPost2010PropOp28
 70
     1
102
RTVSPost2010Prop29
280
     1
102
RTVSPost2010PropOp29
 70
     1
102
RTVSPost2010Prop30
280
     1
102
RTVSPost2010PropOp30
 70
     1
102
RTVSPost2010Prop31
280
     0
102
RTVSPost2010PropOp31
 70
     1
102
RTVSPost2010Prop32
280
     0
102
RTVSPost2010PropOp32
 70
     1
102
RTVSPost2010Prop33
280
     0
102
RTVSPost2010PropOp33
 70
     1
102
RTVSPost2010Prop34
280
     0
102
RTVSPost2010PropOp34
 70
     1
102
RTVSPost2010Prop35
280
     0
102
RTVSPost2010PropOp35
 70
     1
102
RTVSPost2010Prop36
280
     0
102
RTVSPost2010PropOp36
 70
     1
102
RTVSPost2010Prop37
 90
       50
102
RTVSPost2010PropOp37
 70
     1
102
RTVSPost2010Prop38
140
0.0
102
RTVSPost2010PropOp38
 70
     1
102
RTVSPost2010Prop39
140
1.0
102
RTVSPost2010PropOp39
 70
     1
102
RTVSPost2010Prop40
 90
        0
102
RTVSPost2010PropOp40
 70
     1
102
RTVSPost2010Prop41ColorIndex
 90
       18
102
RTVSPost2010Prop41ColorRGB
 90
        0
102
RTVSPost2010PropOp41
 70
     1
102
RTVSPost2010Prop42
 90
       50
102
RTVSPost2010PropOp42
 70
     1
102
RTVSPost2010Prop43
 90
        3
102
RTVSPost2010PropOp43
 70
     1
102
RTVSPost2010Prop44ColorIndex
 90
        5
102
RTVSPost2010Prop44ColorRGB
 90
      255
102
RTVSPost2010PropOp44
 70
     1
102
RTVSPost2010Prop45
280
     0
102
RTVSPost2010PropOp45
 70
     1
102
RTVSPost2010Prop46
 90
       50
102
RTVSPost2010PropOp46
 70
     1
102
RTVSPost2010Prop47
 90
       50
102
RTVSPost2010PropOp47
 70
     1
102
RTVSPost2010Prop48
 90
       50
102
RTVSPost2010PropOp48
 70
     1
102
RTVSPost2010Prop49
280
     0
102
RTVSPost2010PropOp49
 70
     1
102
RTVSPost2010Prop50
 90
       50
102
RTVSPost2010PropOp50
 70
     1
102
RTVSPost2010Prop51ColorIndex
 90
      256
102
RTVSPost2010Prop51ColorRGB
 90
-16777216
102
RTVSPost2010PropOp51
 70
     0
102
RTVSPost2010Prop52
140
1.0
102
RTVSPost2010PropOp52
 70
     0
102
RTVSPost2010Prop53
 90
        2
102
RTVSPost2010PropOp53
 70
     1
102
RTVSPost2010Prop54
  1
strokes_ogs.tif
102
RTVSPost2010PropOp54
 70
     1
102
RTVSPost2010Prop55
280
     0
102
RTVSPost2010PropOp55
 70
     1
102
RTVSPost2010Prop56
140
1.0
102
RTVSPost2010PropOp56
 70
     1
102
RTVSPost2010Prop57
140
1.0
102
RTVSPost2010PropOp57
 70
     1
102
RTVSPropertyOp0
 70
     1
102
RTVSPropertyOp1
 70
     1
102
RTVSPropertyOp2
 70
     1
102
RTVSPropertyOp3
 70
     1
102
RTVSPropertyOp4
 70
     1
102
RTVSPropertyOp5
 70
     1
102
RTVSPropertyOp6
 70
     1
102
RTVSPropertyOp7
 70
     1
102
RTVSPropertyOp8
 70
     1
102
RTVSPropertyOp9
 70
     1
102
RTVSPropertyOp10
 70
     1
102
RTVSPropertyOp11
 70
     1
102
RTVSPropertyOp12
 70
     1
102
RTVSPropertyOp13
 70
     1
102
RTVSPropertyOp14
 70
     1
102
RTVSPropertyOp15
 70
     1
102
RTVSPropertyOp16
 70
     1
102
RTVSPropertyOp17
 70
     1
102
RTVSPropertyOp18
 70
     1
102
RTVSPropertyOp19
 70
     1
102
RTVSPropertyOp20
 70
     1
102
RTVSPropertyOp21
 70
     1
102
RTVSPropertyOp22
 70
     1
102
RTVSPropertyOp23
 70
     1
102
RTVSPropertyOp24
 70
     1
102
RTVSPropertyOp25
 70
     1
102
RTVSPropertyOp26
 70
     1
102
RTVSPropertyOp27
 70
     1
102
RTVSPropertyOp28
 70
     1
102
RTVSPropertyOp29
 70
     1
102
RTVSPropertyOp30
 70
     1
102
RTVSPropertyOp31
 70
     1
102
RTVSPropertyOp32
 70
     1
102
RTVSPropertyOp33
 70
     1
102
RTVSPropertyOp34
 70
     1
102
RTVSPropertyOp35
 70
     1
102
RTVSPropertyOp36
 70
     1
102
RTVSPropertyOp37
 70
     1
102
RTVSPropertyOp38
 70
     1
102
RTVSPropertyOp39
 70
     1
102
RTVSPropertyOp40
 70
     1
102
RTVSPropertyOp41
 70
     1
102
RTVSPropertyOp42
 70
     1
102
RTVSPropertyOp43
 70
     1
102
RTVSPropertyOp44
 70
     1
102
RTVSPropertyOp45
 70
     1
102
RTVSPropertyOp46
 70
     1
102
RTVSPropertyOp47
 70
     1
102
RTVSPropertyOp48
 70
     1
102
RTVSPropertyOp49
 70
     1
102
RTVSPropertyOp50
 70
     1
102
RTVSPropertyOp51
 70
     0
102
RTVSPropertyOp52
 70
     0
102
RTVSPropertyOp53
 70
     1
102
RTVSPropertyOp54
 70
     1
102
RTVSPropertyOp55
 70
     1
102
RTVSPropertyOp56
 70
     1
102
RTVSPropertyOp57
 70
     1
102
RTVSPropertyOp58
 70
     1
102
RTVSPropertyOp59
 70
     1
102
RTVSPropertyOp60
 70
     1
102
RTVSPropertyOp61
 70
     1
102
RTVSPropertyOp62
 70
     1
  0
XRECORD
  5
10FE
102
{ACAD_REACTORS
330
10FD
102
}
330
10FD
100
AcDbXrecord
280
     1
102
RTVSPost2010Prop28
280
     0
102
RTVSPost2010PropOp28
 70
     1
102
RTVSPost2010Prop29
280
     1
102
RTVSPost2010PropOp29
 70
     1
102
RTVSPost2010Prop30
280
     1
102
RTVSPost2010PropOp30
 70
     1
102
RTVSPost2010Prop31
280
     0
102
RTVSPost2010PropOp31
 70
     1
102
RTVSPost2010Prop32
280
     0
102
RTVSPost2010PropOp32
 70
     1
102
RTVSPost2010Prop33
280
     0
102
RTVSPost2010PropOp33
 70
     1
102
RTVSPost2010Prop34
280
     0
102
RTVSPost2010PropOp34
 70
     1
102
RTVSPost2010Prop35
280
     0
102
RTVSPost2010PropOp35
 70
     1
102
RTVSPost2010Prop36
280
     0
102
RTVSPost2010PropOp36
 70
     1
102
RTVSPost2010Prop37
 90
       50
102
RTVSPost2010PropOp37
 70
     1
102
RTVSPost2010Prop38
140
0.0
102
RTVSPost2010PropOp38
 70
     1
102
RTVSPost2010Prop39
140
1.0
102
RTVSPost2010PropOp39
 70
     1
102
RTVSPost2010Prop40
 90
        0
102
RTVSPost2010PropOp40
 70
     1
102
RTVSPost2010Prop41ColorIndex
 90
       18
102
RTVSPost2010Prop41ColorRGB
 90
        0
102
RTVSPost2010PropOp41
 70
     1
102
RTVSPost2010Prop42
 90
       50
102
RTVSPost2010PropOp42
 70
     1
102
RTVSPost2010Prop43
 90
        3
102
RTVSPost2010PropOp43
 70
     1
102
RTVSPost2010Prop44ColorIndex
 90
        5
102
RTVSPost2010Prop44ColorRGB
 90
      255
102
RTVSPost2010PropOp44
 70
     1
102
RTVSPost2010Prop45
280
     0
102
RTVSPost2010PropOp45
 70
     1
102
RTVSPost2010Prop46
 90
       50
102
RTVSPost2010PropOp46
 70
     1
102
RTVSPost2010Prop47
 90
       50
102
RTVSPost2010PropOp47
 70
     1
102
RTVSPost2010Prop48
 90
       50
102
RTVSPost2010PropOp48
 70
     1
102
RTVSPost2010Prop49
280
     0
102
RTVSPost2010PropOp49
 70
     1
102
RTVSPost2010Prop50
 90
       50
102
RTVSPost2010PropOp50
 70
     1
102
RTVSPost2010Prop51ColorIndex
 90
      256
102
RTVSPost2010Prop51ColorRGB
 90
-16777216
102
RTVSPost2010PropOp51
 70
     0
102
RTVSPost2010Prop52
140
1.0
102
RTVSPost2010PropOp52
 70
     0
102
RTVSPost2010Prop53
 90
        2
102
RTVSPost2010PropOp53
 70
     1
102
RTVSPost2010Prop54
  1
strokes_ogs.tif
102
RTVSPost2010PropOp54
 70
     1
102
RTVSPost2010Prop55
280
     0
102
RTVSPost2010PropOp55
 70
     1
102
RTVSPost2010Prop56
140
1.0
102
RTVSPost2010PropOp56
 70
     1
102
RTVSPost2010Prop57
140
1.0
102
RTVSPost2010PropOp57
 70
     1
102
RTVSPropertyOp0
 70
     1
102
RTVSPropertyOp1
 70
     1
102
RTVSPropertyOp2
 70
     1
102
RTVSPropertyOp3
 70
     1
102
RTVSPropertyOp4
 70
     1
102
RTVSPropertyOp5
 70
     1
102
RTVSPropertyOp6
 70
     1
102
RTVSPropertyOp7
 70
     1
102
RTVSPropertyOp8
 70
     1
102
RTVSPropertyOp9
 70
     1
102
RTVSPropertyOp10
 70
     1
102
RTVSPropertyOp11
 70
     1
102
RTVSPropertyOp12
 70
     1
102
RTVSPropertyOp13
 70
     1
102
RTVSPropertyOp14
 70
     1
102
RTVSPropertyOp15
 70
     1
102
RTVSPropertyOp16
 70
     1
102
RTVSPropertyOp17
 70
     1
102
RTVSPropertyOp18
 70
     1
102
RTVSPropertyOp19
 70
     1
102
RTVSPropertyOp20
 70
     1
102
RTVSPropertyOp21
 70
     1
102
RTVSPropertyOp22
 70
     1
102
RTVSPropertyOp23
 70
     1
102
RTVSPropertyOp24
 70
     1
102
RTVSPropertyOp25
 70
     1
102
RTVSPropertyOp26
 70
     1
102
RTVSPropertyOp27
 70
     1
102
RTVSPropertyOp28
 70
     1
102
RTVSPropertyOp29
 70
     1
102
RTVSPropertyOp30
 70
     1
102
RTVSPropertyOp31
 70
     1
102
RTVSPropertyOp32
 70
     1
102
RTVSPropertyOp33
 70
     1
102
RTVSPropertyOp34
 70
     1
102
RTVSPropertyOp35
 70
     1
102
RTVSPropertyOp36
 70
     1
102
RTVSPropertyOp37
 70
     1
102
RTVSPropertyOp38
 70
     1
102
RTVSPropertyOp39
 70
     1
102
RTVSPropertyOp40
 70
     1
102
RTVSPropertyOp41
 70
     1
102
RTVSPropertyOp42
 70
     1
102
RTVSPropertyOp43
 70
     1
102
RTVSPropertyOp44
 70
     1
102
RTVSPropertyOp45
 70
     1
102
RTVSPropertyOp46
 70
     1
102
RTVSPropertyOp47
 70
     1
102
RTVSPropertyOp48
 70
     1
102
RTVSPropertyOp49
 70
     1
102
RTVSPropertyOp50
 70
     1
102
RTVSPropertyOp51
 70
     0
102
RTVSPropertyOp52
 70
     0
102
RTVSPropertyOp53
 70
     1
102
RTVSPropertyOp54
 70
     1
102
RTVSPropertyOp55
 70
     1
102
RTVSPropertyOp56
 70
     1
102
RTVSPropertyOp57
 70
     1
102
RTVSPropertyOp58
 70
     1
102
RTVSPropertyOp59
 70
     1
102
RTVSPropertyOp60
 70
     1
102
RTVSPropertyOp61
 70
     1
102
RTVSPropertyOp62
 70
     1
  0
XRECORD
  5
1102
102
{ACAD_REACTORS
330
1101
102
}
330
1101
100
AcDbXrecord
280
     1
102
RTVSPost2010Prop28
280
     0
102
RTVSPost2010PropOp28
 70
     1
102
RTVSPost2010Prop29
280
     1
102
RTVSPost2010PropOp29
 70
     1
102
RTVSPost2010Prop30
280
     1
102
RTVSPost2010PropOp30
 70
     1
102
RTVSPost2010Prop31
280
     0
102
RTVSPost2010PropOp31
 70
     1
102
RTVSPost2010Prop32
280
     0
102
RTVSPost2010PropOp32
 70
     1
102
RTVSPost2010Prop33
280
     0
102
RTVSPost2010PropOp33
 70
     1
102
RTVSPost2010Prop34
280
     0
102
RTVSPost2010PropOp34
 70
     1
102
RTVSPost2010Prop35
280
     0
102
RTVSPost2010PropOp35
 70
     1
102
RTVSPost2010Prop36
280
     0
102
RTVSPost2010PropOp36
 70
     1
102
RTVSPost2010Prop37
 90
       50
102
RTVSPost2010PropOp37
 70
     1
102
RTVSPost2010Prop38
140
0.0
102
RTVSPost2010PropOp38
 70
     1
102
RTVSPost2010Prop39
140
1.0
102
RTVSPost2010PropOp39
 70
     1
102
RTVSPost2010Prop40
 90
        0
102
RTVSPost2010PropOp40
 70
     1
102
RTVSPost2010Prop41ColorIndex
 90
       18
102
RTVSPost2010Prop41ColorRGB
 90
        0
102
RTVSPost2010PropOp41
 70
     1
102
RTVSPost2010Prop42
 90
       50
102
RTVSPost2010PropOp42
 70
     1
102
RTVSPost2010Prop43
 90
        3
102
RTVSPost2010PropOp43
 70
     1
102
RTVSPost2010Prop44ColorIndex
 90
        5
102
RTVSPost2010Prop44ColorRGB
 90
      255
102
RTVSPost2010PropOp44
 70
     1
102
RTVSPost2010Prop45
280
     0
102
RTVSPost2010PropOp45
 70
     1
102
RTVSPost2010Prop46
 90
       50
102
RTVSPost2010PropOp46
 70
     1
102
RTVSPost2010Prop47
 90
       50
102
RTVSPost2010PropOp47
 70
     1
102
RTVSPost2010Prop48
 90
       50
102
RTVSPost2010PropOp48
 70
     1
102
RTVSPost2010Prop49
280
     0
102
RTVSPost2010PropOp49
 70
     1
102
RTVSPost2010Prop50
 90
       50
102
RTVSPost2010PropOp50
 70
     1
102
RTVSPost2010Prop51ColorIndex
 90
      256
102
RTVSPost2010Prop51ColorRGB
 90
-16777216
102
RTVSPost2010PropOp51
 70
     0
102
RTVSPost2010Prop52
140
1.0
102
RTVSPost2010PropOp52
 70
     0
102
RTVSPost2010Prop53
 90
        2
102
RTVSPost2010PropOp53
 70
     1
102
RTVSPost2010Prop54
  1
strokes_ogs.tif
102
RTVSPost2010PropOp54
 70
     1
102
RTVSPost2010Prop55
280
     0
102
RTVSPost2010PropOp55
 70
     1
102
RTVSPost2010Prop56
140
1.0
102
RTVSPost2010PropOp56
 70
     1
102
RTVSPost2010Prop57
140
1.0
102
RTVSPost2010PropOp57
 70
     1
102
RTVSPropertyOp0
 70
     1
102
RTVSPropertyOp1
 70
     1
102
RTVSPropertyOp2
 70
     1
102
RTVSPropertyOp3
 70
     1
102
RTVSPropertyOp4
 70
     1
102
RTVSPropertyOp5
 70
     1
102
RTVSPropertyOp6
 70
     1
102
RTVSPropertyOp7
 70
     1
102
RTVSPropertyOp8
 70
     1
102
RTVSPropertyOp9
 70
     1
102
RTVSPropertyOp10
 70
     1
102
RTVSPropertyOp11
 70
     1
102
RTVSPropertyOp12
 70
     1
102
RTVSPropertyOp13
 70
     1
102
RTVSPropertyOp14
 70
     1
102
RTVSPropertyOp15
 70
     1
102
RTVSPropertyOp16
 70
     1
102
RTVSPropertyOp17
 70
     1
102
RTVSPropertyOp18
 70
     1
102
RTVSPropertyOp19
 70
     1
102
RTVSPropertyOp20
 70
     1
102
RTVSPropertyOp21
 70
     1
102
RTVSPropertyOp22
 70
     1
102
RTVSPropertyOp23
 70
     1
102
RTVSPropertyOp24
 70
     1
102
RTVSPropertyOp25
 70
     1
102
RTVSPropertyOp26
 70
     1
102
RTVSPropertyOp27
 70
     1
102
RTVSPropertyOp28
 70
     1
102
RTVSPropertyOp29
 70
     1
102
RTVSPropertyOp30
 70
     1
102
RTVSPropertyOp31
 70
     1
102
RTVSPropertyOp32
 70
     1
102
RTVSPropertyOp33
 70
     1
102
RTVSPropertyOp34
 70
     1
102
RTVSPropertyOp35
 70
     1
102
RTVSPropertyOp36
 70
     1
102
RTVSPropertyOp37
 70
     1
102
RTVSPropertyOp38
 70
     1
102
RTVSPropertyOp39
 70
     1
102
RTVSPropertyOp40
 70
     1
102
RTVSPropertyOp41
 70
     1
102
RTVSPropertyOp42
 70
     1
102
RTVSPropertyOp43
 70
     1
102
RTVSPropertyOp44
 70
     1
102
RTVSPropertyOp45
 70
     1
102
RTVSPropertyOp46
 70
     1
102
RTVSPropertyOp47
 70
     1
102
RTVSPropertyOp48
 70
     1
102
RTVSPropertyOp49
 70
     1
102
RTVSPropertyOp50
 70
     1
102
RTVSPropertyOp51
 70
     0
102
RTVSPropertyOp52
 70
     0
102
RTVSPropertyOp53
 70
     1
102
RTVSPropertyOp54
 70
     1
102
RTVSPropertyOp55
 70
     1
102
RTVSPropertyOp56
 70
     1
102
RTVSPropertyOp57
 70
     1
102
RTVSPropertyOp58
 70
     1
102
RTVSPropertyOp59
 70
     1
102
RTVSPropertyOp60
 70
     1
102
RTVSPropertyOp61
 70
     1
102
RTVSPropertyOp62
 70
     1
  0
XRECORD
  5
111C
102
{ACAD_REACTORS
330
111B
102
}
330
111B
100
AcDbXrecord
280
     1
102
RTVSPost2010Prop28
280
     0
102
RTVSPost2010PropOp28
 70
     1
102
RTVSPost2010Prop29
280
     1
102
RTVSPost2010PropOp29
 70
     1
102
RTVSPost2010Prop30
280
     1
102
RTVSPost2010PropOp30
 70
     1
102
RTVSPost2010Prop31
280
     0
102
RTVSPost2010PropOp31
 70
     1
102
RTVSPost2010Prop32
280
     0
102
RTVSPost2010PropOp32
 70
     1
102
RTVSPost2010Prop33
280
     0
102
RTVSPost2010PropOp33
 70
     1
102
RTVSPost2010Prop34
280
     0
102
RTVSPost2010PropOp34
 70
     1
102
RTVSPost2010Prop35
280
     0
102
RTVSPost2010PropOp35
 70
     1
102
RTVSPost2010Prop36
280
     0
102
RTVSPost2010PropOp36
 70
     1
102
RTVSPost2010Prop37
 90
       50
102
RTVSPost2010PropOp37
 70
     0
102
RTVSPost2010Prop38
140
0.0
102
RTVSPost2010PropOp38
 70
     0
102
RTVSPost2010Prop39
140
1.0
102
RTVSPost2010PropOp39
 70
     0
102
RTVSPost2010Prop40
 90
        0
102
RTVSPost2010PropOp40
 70
     0
102
RTVSPost2010Prop41ColorIndex
 90
       18
102
RTVSPost2010Prop41ColorRGB
 90
        0
102
RTVSPost2010PropOp41
 70
     0
102
RTVSPost2010Prop42
 90
       50
102
RTVSPost2010PropOp42
 70
     0
102
RTVSPost2010Prop43
 90
        3
102
RTVSPost2010PropOp43
 70
     0
102
RTVSPost2010Prop44ColorIndex
 90
        5
102
RTVSPost2010Prop44ColorRGB
 90
      255
102
RTVSPost2010PropOp44
 70
     0
102
RTVSPost2010Prop45
280
     0
102
RTVSPost2010PropOp45
 70
     1
102
RTVSPost2010Prop46
 90
       50
102
RTVSPost2010PropOp46
 70
     0
102
RTVSPost2010Prop47
 90
       50
102
RTVSPost2010PropOp47
 70
     0
102
RTVSPost2010Prop48
 90
       50
102
RTVSPost2010PropOp48
 70
     0
102
RTVSPost2010Prop49
280
     0
102
RTVSPost2010PropOp49
 70
     1
102
RTVSPost2010Prop50
 90
       50
102
RTVSPost2010PropOp50
 70
     0
102
RTVSPost2010Prop51ColorIndex
 90
      256
102
RTVSPost2010Prop51ColorRGB
 90
-16777216
102
RTVSPost2010PropOp51
 70
     0
102
RTVSPost2010Prop52
140
1.0
102
RTVSPost2010PropOp52
 70
     0
102
RTVSPost2010Prop53
 90
        2
102
RTVSPost2010PropOp53
 70
     0
102
RTVSPost2010Prop54
  1
strokes_ogs.tif
102
RTVSPost2010PropOp54
 70
     0
102
RTVSPost2010Prop55
280
     0
102
RTVSPost2010PropOp55
 70
     1
102
RTVSPost2010Prop56
140
1.0
102
RTVSPost2010PropOp56
 70
     0
102
RTVSPost2010Prop57
140
1.0
102
RTVSPost2010PropOp57
 70
     0
102
RTVSPropertyOp0
 70
     0
102
RTVSPropertyOp1
 70
     0
102
RTVSPropertyOp2
 70
     0
102
RTVSPropertyOp3
 70
     0
102
RTVSPropertyOp4
 70
     0
102
RTVSPropertyOp5
 70
     0
102
RTVSPropertyOp6
 70
     0
102
RTVSPropertyOp7
 70
     0
102
RTVSPropertyOp8
 70
     0
102
RTVSPropertyOp9
 70
     0
102
RTVSPropertyOp10
 70
     0
102
RTVSPropertyOp11
 70
     0
102
RTVSPropertyOp12
 70
     0
102
RTVSPropertyOp13
 70
     0
102
RTVSPropertyOp14
 70
     2
102
RTVSPropertyOp15
 70
     0
102
RTVSPropertyOp16
 70
     0
102
RTVSPropertyOp17
 70
     0
102
RTVSPropertyOp18
 70
     0
102
RTVSPropertyOp19
 70
     0
102
RTVSPropertyOp20
 70
     0
102
RTVSPropertyOp21
 70
     0
102
RTVSPropertyOp22
 70
     0
102
RTVSPropertyOp23
 70
     0
102
RTVSPropertyOp24
 70
     0
102
RTVSPropertyOp25
 70
     0
102
RTVSPropertyOp26
 70
     0
102
RTVSPropertyOp27
 70
     0
102
RTVSPropertyOp28
 70
     1
102
RTVSPropertyOp29
 70
     1
102
RTVSPropertyOp30
 70
     1
102
RTVSPropertyOp31
 70
     1
102
RTVSPropertyOp32
 70
     1
102
RTVSPropertyOp33
 70
     1
102
RTVSPropertyOp34
 70
     1
102
RTVSPropertyOp35
 70
     1
102
RTVSPropertyOp36
 70
     1
102
RTVSPropertyOp37
 70
     0
102
RTVSPropertyOp38
 70
     0
102
RTVSPropertyOp39
 70
     0
102
RTVSPropertyOp40
 70
     0
102
RTVSPropertyOp41
 70
     0
102
RTVSPropertyOp42
 70
     0
102
RTVSPropertyOp43
 70
     0
102
RTVSPropertyOp44
 70
     0
102
RTVSPropertyOp45
 70
     1
102
RTVSPropertyOp46
 70
     0
102
RTVSPropertyOp47
 70
     0
102
RTVSPropertyOp48
 70
     0
102
RTVSPropertyOp49
 70
     1
102
RTVSPropertyOp50
 70
     0
102
RTVSPropertyOp51
 70
     0
102
RTVSPropertyOp52
 70
     0
102
RTVSPropertyOp53
 70
     0
102
RTVSPropertyOp54
 70
     0
102
RTVSPropertyOp55
 70
     1
102
RTVSPropertyOp56
 70
     0
102
RTVSPropertyOp57
 70
     0
102
RTVSPropertyOp58
 70
     1
102
RTVSPropertyOp59
 70
     1
102
RTVSPropertyOp60
 70
     1
102
RTVSPropertyOp61
 70
     1
102
RTVSPropertyOp62
 70
     1
  0
XRECORD
  5
110A
102
{ACAD_REACTORS
330
1109
102
}
330
1109
100
AcDbXrecord
280
     1
102
RTVSPost2010Prop28
280
     0
102
RTVSPost2010PropOp28
 70
     1
102
RTVSPost2010Prop29
280
     1
102
RTVSPost2010PropOp29
 70
     1
102
RTVSPost2010Prop30
280
     1
102
RTVSPost2010PropOp30
 70
     1
102
RTVSPost2010Prop31
280
     0
102
RTVSPost2010PropOp31
 70
     1
102
RTVSPost2010Prop32
280
     0
102
RTVSPost2010PropOp32
 70
     1
102
RTVSPost2010Prop33
280
     0
102
RTVSPost2010PropOp33
 70
     1
102
RTVSPost2010Prop34
280
     0
102
RTVSPost2010PropOp34
 70
     1
102
RTVSPost2010Prop35
280
     0
102
RTVSPost2010PropOp35
 70
     1
102
RTVSPost2010Prop36
280
     0
102
RTVSPost2010PropOp36
 70
     1
102
RTVSPost2010Prop37
 90
       50
102
RTVSPost2010PropOp37
 70
     1
102
RTVSPost2010Prop38
140
0.0
102
RTVSPost2010PropOp38
 70
     1
102
RTVSPost2010Prop39
140
1.0
102
RTVSPost2010PropOp39
 70
     1
102
RTVSPost2010Prop40
 90
        0
102
RTVSPost2010PropOp40
 70
     1
102
RTVSPost2010Prop41ColorIndex
 90
       18
102
RTVSPost2010Prop41ColorRGB
 90
        0
102
RTVSPost2010PropOp41
 70
     1
102
RTVSPost2010Prop42
 90
       50
102
RTVSPost2010PropOp42
 70
     1
102
RTVSPost2010Prop43
 90
        3
102
RTVSPost2010PropOp43
 70
     1
102
RTVSPost2010Prop44ColorIndex
 90
        5
102
RTVSPost2010Prop44ColorRGB
 90
      255
102
RTVSPost2010PropOp44
 70
     1
102
RTVSPost2010Prop45
280
     0
102
RTVSPost2010PropOp45
 70
     1
102
RTVSPost2010Prop46
 90
       50
102
RTVSPost2010PropOp46
 70
     1
102
RTVSPost2010Prop47
 90
       50
102
RTVSPost2010PropOp47
 70
     1
102
RTVSPost2010Prop48
 90
       50
102
RTVSPost2010PropOp48
 70
     1
102
RTVSPost2010Prop49
280
     0
102
RTVSPost2010PropOp49
 70
     1
102
RTVSPost2010Prop50
 90
       50
102
RTVSPost2010PropOp50
 70
     1
102
RTVSPost2010Prop51ColorIndex
 90
      256
102
RTVSPost2010Prop51ColorRGB
 90
-16777216
102
RTVSPost2010PropOp51
 70
     0
102
RTVSPost2010Prop52
140
1.0
102
RTVSPost2010PropOp52
 70
     0
102
RTVSPost2010Prop53
 90
        2
102
RTVSPost2010PropOp53
 70
     1
102
RTVSPost2010Prop54
  1
strokes_ogs.tif
102
RTVSPost2010PropOp54
 70
     1
102
RTVSPost2010Prop55
280
     0
102
RTVSPost2010PropOp55
 70
     1
102
RTVSPost2010Prop56
140
1.0
102
RTVSPost2010PropOp56
 70
     1
102
RTVSPost2010Prop57
140
1.0
102
RTVSPost2010PropOp57
 70
     1
102
RTVSPropertyOp0
 70
     1
102
RTVSPropertyOp1
 70
     1
102
RTVSPropertyOp2
 70
     1
102
RTVSPropertyOp3
 70
     1
102
RTVSPropertyOp4
 70
     1
102
RTVSPropertyOp5
 70
     1
102
RTVSPropertyOp6
 70
     1
102
RTVSPropertyOp7
 70
     1
102
RTVSPropertyOp8
 70
     1
102
RTVSPropertyOp9
 70
     1
102
RTVSPropertyOp10
 70
     1
102
RTVSPropertyOp11
 70
     1
102
RTVSPropertyOp12
 70
     1
102
RTVSPropertyOp13
 70
     1
102
RTVSPropertyOp14
 70
     1
102
RTVSPropertyOp15
 70
     1
102
RTVSPropertyOp16
 70
     1
102
RTVSPropertyOp17
 70
     1
102
RTVSPropertyOp18
 70
     1
102
RTVSPropertyOp19
 70
     1
102
RTVSPropertyOp20
 70
     1
102
RTVSPropertyOp21
 70
     1
102
RTVSPropertyOp22
 70
     1
102
RTVSPropertyOp23
 70
     1
102
RTVSPropertyOp24
 70
     1
102
RTVSPropertyOp25
 70
     1
102
RTVSPropertyOp26
 70
     1
102
RTVSPropertyOp27
 70
     1
102
RTVSPropertyOp28
 70
     1
102
RTVSPropertyOp29
 70
     1
102
RTVSPropertyOp30
 70
     1
102
RTVSPropertyOp31
 70
     1
102
RTVSPropertyOp32
 70
     1
102
RTVSPropertyOp33
 70
     1
102
RTVSPropertyOp34
 70
     1
102
RTVSPropertyOp35
 70
     1
102
RTVSPropertyOp36
 70
     1
102
RTVSPropertyOp37
 70
     1
102
RTVSPropertyOp38
 70
     1
102
RTVSPropertyOp39
 70
     1
102
RTVSPropertyOp40
 70
     1
102
RTVSPropertyOp41
 70
     1
102
RTVSPropertyOp42
 70
     1
102
RTVSPropertyOp43
 70
     1
102
RTVSPropertyOp44
 70
     1
102
RTVSPropertyOp45
 70
     1
102
RTVSPropertyOp46
 70
     1
102
RTVSPropertyOp47
 70
     1
102
RTVSPropertyOp48
 70
     1
102
RTVSPropertyOp49
 70
     1
102
RTVSPropertyOp50
 70
     1
102
RTVSPropertyOp51
 70
     0
102
RTVSPropertyOp52
 70
     0
102
RTVSPropertyOp53
 70
     1
102
RTVSPropertyOp54
 70
     1
102
RTVSPropertyOp55
 70
     1
102
RTVSPropertyOp56
 70
     1
102
RTVSPropertyOp57
 70
     1
102
RTVSPropertyOp58
 70
     1
102
RTVSPropertyOp59
 70
     1
102
RTVSPropertyOp60
 70
     1
102
RTVSPropertyOp61
 70
     1
102
RTVSPropertyOp62
 70
     1
  0
XRECORD
  5
10EE
102
{ACAD_REACTORS
330
10ED
102
}
330
10ED
100
AcDbXrecord
280
     1
102
RTVSPost2010Prop28
280
     0
102
RTVSPost2010PropOp28
 70
     1
102
RTVSPost2010Prop29
280
     1
102
RTVSPost2010PropOp29
 70
     1
102
RTVSPost2010Prop30
280
     1
102
RTVSPost2010PropOp30
 70
     1
102
RTVSPost2010Prop31
280
     0
102
RTVSPost2010PropOp31
 70
     1
102
RTVSPost2010Prop32
280
     0
102
RTVSPost2010PropOp32
 70
     1
102
RTVSPost2010Prop33
280
     0
102
RTVSPost2010PropOp33
 70
     1
102
RTVSPost2010Prop34
280
     0
102
RTVSPost2010PropOp34
 70
     1
102
RTVSPost2010Prop35
280
     0
102
RTVSPost2010PropOp35
 70
     1
102
RTVSPost2010Prop36
280
     0
102
RTVSPost2010PropOp36
 70
     1
102
RTVSPost2010Prop37
 90
       50
102
RTVSPost2010PropOp37
 70
     1
102
RTVSPost2010Prop38
140
0.0
102
RTVSPost2010PropOp38
 70
     1
102
RTVSPost2010Prop39
140
1.0
102
RTVSPost2010PropOp39
 70
     1
102
RTVSPost2010Prop40
 90
        0
102
RTVSPost2010PropOp40
 70
     1
102
RTVSPost2010Prop41ColorIndex
 90
       18
102
RTVSPost2010Prop41ColorRGB
 90
        0
102
RTVSPost2010PropOp41
 70
     1
102
RTVSPost2010Prop42
 90
       50
102
RTVSPost2010PropOp42
 70
     1
102
RTVSPost2010Prop43
 90
        3
102
RTVSPost2010PropOp43
 70
     1
102
RTVSPost2010Prop44ColorIndex
 90
        5
102
RTVSPost2010Prop44ColorRGB
 90
      255
102
RTVSPost2010PropOp44
 70
     1
102
RTVSPost2010Prop45
280
     0
102
RTVSPost2010PropOp45
 70
     1
102
RTVSPost2010Prop46
 90
       50
102
RTVSPost2010PropOp46
 70
     1
102
RTVSPost2010Prop47
 90
       50
102
RTVSPost2010PropOp47
 70
     1
102
RTVSPost2010Prop48
 90
       50
102
RTVSPost2010PropOp48
 70
     1
102
RTVSPost2010Prop49
280
     0
102
RTVSPost2010PropOp49
 70
     1
102
RTVSPost2010Prop50
 90
       50
102
RTVSPost2010PropOp50
 70
     1
102
RTVSPost2010Prop51ColorIndex
 90
      256
102
RTVSPost2010Prop51ColorRGB
 90
-16777216
102
RTVSPost2010PropOp51
 70
     0
102
RTVSPost2010Prop52
140
1.0
102
RTVSPost2010PropOp52
 70
     0
102
RTVSPost2010Prop53
 90
        2
102
RTVSPost2010PropOp53
 70
     1
102
RTVSPost2010Prop54
  1
strokes_ogs.tif
102
RTVSPost2010PropOp54
 70
     1
102
RTVSPost2010Prop55
280
     0
102
RTVSPost2010PropOp55
 70
     1
102
RTVSPost2010Prop56
140
1.0
102
RTVSPost2010PropOp56
 70
     1
102
RTVSPost2010Prop57
140
1.0
102
RTVSPost2010PropOp57
 70
     1
102
RTVSPropertyOp0
 70
     1
102
RTVSPropertyOp1
 70
     1
102
RTVSPropertyOp2
 70
     1
102
RTVSPropertyOp3
 70
     1
102
RTVSPropertyOp4
 70
     1
102
RTVSPropertyOp5
 70
     1
102
RTVSPropertyOp6
 70
     1
102
RTVSPropertyOp7
 70
     1
102
RTVSPropertyOp8
 70
     1
102
RTVSPropertyOp9
 70
     1
102
RTVSPropertyOp10
 70
     1
102
RTVSPropertyOp11
 70
     1
102
RTVSPropertyOp12
 70
     1
102
RTVSPropertyOp13
 70
     1
102
RTVSPropertyOp14
 70
     1
102
RTVSPropertyOp15
 70
     1
102
RTVSPropertyOp16
 70
     1
102
RTVSPropertyOp17
 70
     1
102
RTVSPropertyOp18
 70
     1
102
RTVSPropertyOp19
 70
     1
102
RTVSPropertyOp20
 70
     1
102
RTVSPropertyOp21
 70
     1
102
RTVSPropertyOp22
 70
     1
102
RTVSPropertyOp23
 70
     1
102
RTVSPropertyOp24
 70
     1
102
RTVSPropertyOp25
 70
     1
102
RTVSPropertyOp26
 70
     1
102
RTVSPropertyOp27
 70
     1
102
RTVSPropertyOp28
 70
     1
102
RTVSPropertyOp29
 70
     1
102
RTVSPropertyOp30
 70
     1
102
RTVSPropertyOp31
 70
     1
102
RTVSPropertyOp32
 70
     1
102
RTVSPropertyOp33
 70
     1
102
RTVSPropertyOp34
 70
     1
102
RTVSPropertyOp35
 70
     1
102
RTVSPropertyOp36
 70
     1
102
RTVSPropertyOp37
 70
     1
102
RTVSPropertyOp38
 70
     1
102
RTVSPropertyOp39
 70
     1
102
RTVSPropertyOp40
 70
     1
102
RTVSPropertyOp41
 70
     1
102
RTVSPropertyOp42
 70
     1
102
RTVSPropertyOp43
 70
     1
102
RTVSPropertyOp44
 70
     1
102
RTVSPropertyOp45
 70
     1
102
RTVSPropertyOp46
 70
     1
102
RTVSPropertyOp47
 70
     1
102
RTVSPropertyOp48
 70
     1
102
RTVSPropertyOp49
 70
     1
102
RTVSPropertyOp50
 70
     1
102
RTVSPropertyOp51
 70
     0
102
RTVSPropertyOp52
 70
     0
102
RTVSPropertyOp53
 70
     1
102
RTVSPropertyOp54
 70
     1
102
RTVSPropertyOp55
 70
     1
102
RTVSPropertyOp56
 70
     1
102
RTVSPropertyOp57
 70
     1
102
RTVSPropertyOp58
 70
     1
102
RTVSPropertyOp59
 70
     1
102
RTVSPropertyOp60
 70
     1
102
RTVSPropertyOp61
 70
     1
102
RTVSPropertyOp62
 70
     1
  0
XRECORD
  5
10F0
102
{ACAD_REACTORS
330
10EF
102
}
330
10EF
100
AcDbXrecord
280
     1
102
RTVSPost2010Prop28
280
     0
102
RTVSPost2010PropOp28
 70
     1
102
RTVSPost2010Prop29
280
     1
102
RTVSPost2010PropOp29
 70
     1
102
RTVSPost2010Prop30
280
     1
102
RTVSPost2010PropOp30
 70
     1
102
RTVSPost2010Prop31
280
     0
102
RTVSPost2010PropOp31
 70
     1
102
RTVSPost2010Prop32
280
     0
102
RTVSPost2010PropOp32
 70
     1
102
RTVSPost2010Prop33
280
     0
102
RTVSPost2010PropOp33
 70
     1
102
RTVSPost2010Prop34
280
     0
102
RTVSPost2010PropOp34
 70
     1
102
RTVSPost2010Prop35
280
     0
102
RTVSPost2010PropOp35
 70
     1
102
RTVSPost2010Prop36
280
     0
102
RTVSPost2010PropOp36
 70
     1
102
RTVSPost2010Prop37
 90
       50
102
RTVSPost2010PropOp37
 70
     1
102
RTVSPost2010Prop38
140
0.0
102
RTVSPost2010PropOp38
 70
     1
102
RTVSPost2010Prop39
140
1.0
102
RTVSPost2010PropOp39
 70
     1
102
RTVSPost2010Prop40
 90
        0
102
RTVSPost2010PropOp40
 70
     1
102
RTVSPost2010Prop41ColorIndex
 90
       18
102
RTVSPost2010Prop41ColorRGB
 90
        0
102
RTVSPost2010PropOp41
 70
     1
102
RTVSPost2010Prop42
 90
       50
102
RTVSPost2010PropOp42
 70
     1
102
RTVSPost2010Prop43
 90
        3
102
RTVSPost2010PropOp43
 70
     1
102
RTVSPost2010Prop44ColorIndex
 90
        5
102
RTVSPost2010Prop44ColorRGB
 90
      255
102
RTVSPost2010PropOp44
 70
     1
102
RTVSPost2010Prop45
280
     0
102
RTVSPost2010PropOp45
 70
     1
102
RTVSPost2010Prop46
 90
       50
102
RTVSPost2010PropOp46
 70
     1
102
RTVSPost2010Prop47
 90
       50
102
RTVSPost2010PropOp47
 70
     1
102
RTVSPost2010Prop48
 90
       50
102
RTVSPost2010PropOp48
 70
     1
102
RTVSPost2010Prop49
280
     0
102
RTVSPost2010PropOp49
 70
     1
102
RTVSPost2010Prop50
 90
       50
102
RTVSPost2010PropOp50
 70
     1
102
RTVSPost2010Prop51ColorIndex
 90
      256
102
RTVSPost2010Prop51ColorRGB
 90
-16777216
102
RTVSPost2010PropOp51
 70
     0
102
RTVSPost2010Prop52
140
1.0
102
RTVSPost2010PropOp52
 70
     0
102
RTVSPost2010Prop53
 90
        2
102
RTVSPost2010PropOp53
 70
     1
102
RTVSPost2010Prop54
  1
strokes_ogs.tif
102
RTVSPost2010PropOp54
 70
     1
102
RTVSPost2010Prop55
280
     0
102
RTVSPost2010PropOp55
 70
     1
102
RTVSPost2010Prop56
140
1.0
102
RTVSPost2010PropOp56
 70
     1
102
RTVSPost2010Prop57
140
1.0
102
RTVSPost2010PropOp57
 70
     1
102
RTVSPropertyOp0
 70
     1
102
RTVSPropertyOp1
 70
     1
102
RTVSPropertyOp2
 70
     1
102
RTVSPropertyOp3
 70
     1
102
RTVSPropertyOp4
 70
     1
102
RTVSPropertyOp5
 70
     1
102
RTVSPropertyOp6
 70
     1
102
RTVSPropertyOp7
 70
     1
102
RTVSPropertyOp8
 70
     1
102
RTVSPropertyOp9
 70
     1
102
RTVSPropertyOp10
 70
     1
102
RTVSPropertyOp11
 70
     1
102
RTVSPropertyOp12
 70
     1
102
RTVSPropertyOp13
 70
     1
102
RTVSPropertyOp14
 70
     1
102
RTVSPropertyOp15
 70
     1
102
RTVSPropertyOp16
 70
     1
102
RTVSPropertyOp17
 70
     1
102
RTVSPropertyOp18
 70
     1
102
RTVSPropertyOp19
 70
     1
102
RTVSPropertyOp20
 70
     1
102
RTVSPropertyOp21
 70
     1
102
RTVSPropertyOp22
 70
     1
102
RTVSPropertyOp23
 70
     1
102
RTVSPropertyOp24
 70
     1
102
RTVSPropertyOp25
 70
     1
102
RTVSPropertyOp26
 70
     1
102
RTVSPropertyOp27
 70
     1
102
RTVSPropertyOp28
 70
     1
102
RTVSPropertyOp29
 70
     1
102
RTVSPropertyOp30
 70
     1
102
RTVSPropertyOp31
 70
     1
102
RTVSPropertyOp32
 70
     1
102
RTVSPropertyOp33
 70
     1
102
RTVSPropertyOp34
 70
     1
102
RTVSPropertyOp35
 70
     1
102
RTVSPropertyOp36
 70
     1
102
RTVSPropertyOp37
 70
     1
102
RTVSPropertyOp38
 70
     1
102
RTVSPropertyOp39
 70
     1
102
RTVSPropertyOp40
 70
     1
102
RTVSPropertyOp41
 70
     1
102
RTVSPropertyOp42
 70
     1
102
RTVSPropertyOp43
 70
     1
102
RTVSPropertyOp44
 70
     1
102
RTVSPropertyOp45
 70
     1
102
RTVSPropertyOp46
 70
     1
102
RTVSPropertyOp47
 70
     1
102
RTVSPropertyOp48
 70
     1
102
RTVSPropertyOp49
 70
     1
102
RTVSPropertyOp50
 70
     1
102
RTVSPropertyOp51
 70
     0
102
RTVSPropertyOp52
 70
     0
102
RTVSPropertyOp53
 70
     1
102
RTVSPropertyOp54
 70
     1
102
RTVSPropertyOp55
 70
     1
102
RTVSPropertyOp56
 70
     1
102
RTVSPropertyOp57
 70
     1
102
RTVSPropertyOp58
 70
     1
102
RTVSPropertyOp59
 70
     1
102
RTVSPropertyOp60
 70
     1
102
RTVSPropertyOp61
 70
     1
102
RTVSPropertyOp62
 70
     1
  0
XRECORD
  5
10F2
102
{ACAD_REACTORS
330
10F1
102
}
330
10F1
100
AcDbXrecord
280
     1
102
RTVSPost2010Prop28
280
     0
102
RTVSPost2010PropOp28
 70
     1
102
RTVSPost2010Prop29
280
     1
102
RTVSPost2010PropOp29
 70
     1
102
RTVSPost2010Prop30
280
     1
102
RTVSPost2010PropOp30
 70
     1
102
RTVSPost2010Prop31
280
     0
102
RTVSPost2010PropOp31
 70
     1
102
RTVSPost2010Prop32
280
     0
102
RTVSPost2010PropOp32
 70
     1
102
RTVSPost2010Prop33
280
     0
102
RTVSPost2010PropOp33
 70
     1
102
RTVSPost2010Prop34
280
     0
102
RTVSPost2010PropOp34
 70
     1
102
RTVSPost2010Prop35
280
     0
102
RTVSPost2010PropOp35
 70
     1
102
RTVSPost2010Prop36
280
     0
102
RTVSPost2010PropOp36
 70
     1
102
RTVSPost2010Prop37
 90
       50
102
RTVSPost2010PropOp37
 70
     1
102
RTVSPost2010Prop38
140
0.0
102
RTVSPost2010PropOp38
 70
     1
102
RTVSPost2010Prop39
140
1.0
102
RTVSPost2010PropOp39
 70
     1
102
RTVSPost2010Prop40
 90
        0
102
RTVSPost2010PropOp40
 70
     1
102
RTVSPost2010Prop41ColorIndex
 90
       18
102
RTVSPost2010Prop41ColorRGB
 90
        0
102
RTVSPost2010PropOp41
 70
     1
102
RTVSPost2010Prop42
 90
       50
102
RTVSPost2010PropOp42
 70
     1
102
RTVSPost2010Prop43
 90
        3
102
RTVSPost2010PropOp43
 70
     1
102
RTVSPost2010Prop44ColorIndex
 90
        5
102
RTVSPost2010Prop44ColorRGB
 90
      255
102
RTVSPost2010PropOp44
 70
     1
102
RTVSPost2010Prop45
280
     0
102
RTVSPost2010PropOp45
 70
     1
102
RTVSPost2010Prop46
 90
       50
102
RTVSPost2010PropOp46
 70
     1
102
RTVSPost2010Prop47
 90
       50
102
RTVSPost2010PropOp47
 70
     1
102
RTVSPost2010Prop48
 90
       50
102
RTVSPost2010PropOp48
 70
     1
102
RTVSPost2010Prop49
280
     0
102
RTVSPost2010PropOp49
 70
     1
102
RTVSPost2010Prop50
 90
       50
102
RTVSPost2010PropOp50
 70
     1
102
RTVSPost2010Prop51ColorIndex
 90
      256
102
RTVSPost2010Prop51ColorRGB
 90
-16777216
102
RTVSPost2010PropOp51
 70
     0
102
RTVSPost2010Prop52
140
1.0
102
RTVSPost2010PropOp52
 70
     0
102
RTVSPost2010Prop53
 90
        2
102
RTVSPost2010PropOp53
 70
     1
102
RTVSPost2010Prop54
  1
strokes_ogs.tif
102
RTVSPost2010PropOp54
 70
     1
102
RTVSPost2010Prop55
280
     0
102
RTVSPost2010PropOp55
 70
     1
102
RTVSPost2010Prop56
140
1.0
102
RTVSPost2010PropOp56
 70
     1
102
RTVSPost2010Prop57
140
1.0
102
RTVSPost2010PropOp57
 70
     1
102
RTVSPropertyOp0
 70
     1
102
RTVSPropertyOp1
 70
     1
102
RTVSPropertyOp2
 70
     1
102
RTVSPropertyOp3
 70
     1
102
RTVSPropertyOp4
 70
     1
102
RTVSPropertyOp5
 70
     1
102
RTVSPropertyOp6
 70
     1
102
RTVSPropertyOp7
 70
     1
102
RTVSPropertyOp8
 70
     1
102
RTVSPropertyOp9
 70
     1
102
RTVSPropertyOp10
 70
     1
102
RTVSPropertyOp11
 70
     1
102
RTVSPropertyOp12
 70
     1
102
RTVSPropertyOp13
 70
     1
102
RTVSPropertyOp14
 70
     1
102
RTVSPropertyOp15
 70
     1
102
RTVSPropertyOp16
 70
     1
102
RTVSPropertyOp17
 70
     1
102
RTVSPropertyOp18
 70
     1
102
RTVSPropertyOp19
 70
     1
102
RTVSPropertyOp20
 70
     1
102
RTVSPropertyOp21
 70
     1
102
RTVSPropertyOp22
 70
     1
102
RTVSPropertyOp23
 70
     1
102
RTVSPropertyOp24
 70
     1
102
RTVSPropertyOp25
 70
     1
102
RTVSPropertyOp26
 70
     1
102
RTVSPropertyOp27
 70
     1
102
RTVSPropertyOp28
 70
     1
102
RTVSPropertyOp29
 70
     1
102
RTVSPropertyOp30
 70
     1
102
RTVSPropertyOp31
 70
     1
102
RTVSPropertyOp32
 70
     1
102
RTVSPropertyOp33
 70
     1
102
RTVSPropertyOp34
 70
     1
102
RTVSPropertyOp35
 70
     1
102
RTVSPropertyOp36
 70
     1
102
RTVSPropertyOp37
 70
     1
102
RTVSPropertyOp38
 70
     1
102
RTVSPropertyOp39
 70
     1
102
RTVSPropertyOp40
 70
     1
102
RTVSPropertyOp41
 70
     1
102
RTVSPropertyOp42
 70
     1
102
RTVSPropertyOp43
 70
     1
102
RTVSPropertyOp44
 70
     1
102
RTVSPropertyOp45
 70
     1
102
RTVSPropertyOp46
 70
     1
102
RTVSPropertyOp47
 70
     1
102
RTVSPropertyOp48
 70
     1
102
RTVSPropertyOp49
 70
     1
102
RTVSPropertyOp50
 70
     1
102
RTVSPropertyOp51
 70
     0
102
RTVSPropertyOp52
 70
     0
102
RTVSPropertyOp53
 70
     1
102
RTVSPropertyOp54
 70
     1
102
RTVSPropertyOp55
 70
     1
102
RTVSPropertyOp56
 70
     1
102
RTVSPropertyOp57
 70
     1
102
RTVSPropertyOp58
 70
     1
102
RTVSPropertyOp59
 70
     1
102
RTVSPropertyOp60
 70
     1
102
RTVSPropertyOp61
 70
     1
102
RTVSPropertyOp62
 70
     1
  0
XRECORD
  5
10F4
102
{ACAD_REACTORS
330
10F3
102
}
330
10F3
100
AcDbXrecord
280
     1
102
RTVSPost2010Prop28
280
     0
102
RTVSPost2010PropOp28
 70
     1
102
RTVSPost2010Prop29
280
     1
102
RTVSPost2010PropOp29
 70
     1
102
RTVSPost2010Prop30
280
     1
102
RTVSPost2010PropOp30
 70
     1
102
RTVSPost2010Prop31
280
     0
102
RTVSPost2010PropOp31
 70
     1
102
RTVSPost2010Prop32
280
     0
102
RTVSPost2010PropOp32
 70
     1
102
RTVSPost2010Prop33
280
     0
102
RTVSPost2010PropOp33
 70
     1
102
RTVSPost2010Prop34
280
     0
102
RTVSPost2010PropOp34
 70
     1
102
RTVSPost2010Prop35
280
     0
102
RTVSPost2010PropOp35
 70
     1
102
RTVSPost2010Prop36
280
     0
102
RTVSPost2010PropOp36
 70
     1
102
RTVSPost2010Prop37
 90
       50
102
RTVSPost2010PropOp37
 70
     1
102
RTVSPost2010Prop38
140
0.0
102
RTVSPost2010PropOp38
 70
     1
102
RTVSPost2010Prop39
140
1.0
102
RTVSPost2010PropOp39
 70
     1
102
RTVSPost2010Prop40
 90
        0
102
RTVSPost2010PropOp40
 70
     1
102
RTVSPost2010Prop41ColorIndex
 90
       18
102
RTVSPost2010Prop41ColorRGB
 90
        0
102
RTVSPost2010PropOp41
 70
     1
102
RTVSPost2010Prop42
 90
       50
102
RTVSPost2010PropOp42
 70
     1
102
RTVSPost2010Prop43
 90
        3
102
RTVSPost2010PropOp43
 70
     1
102
RTVSPost2010Prop44ColorIndex
 90
        5
102
RTVSPost2010Prop44ColorRGB
 90
      255
102
RTVSPost2010PropOp44
 70
     1
102
RTVSPost2010Prop45
280
     0
102
RTVSPost2010PropOp45
 70
     1
102
RTVSPost2010Prop46
 90
       50
102
RTVSPost2010PropOp46
 70
     1
102
RTVSPost2010Prop47
 90
       50
102
RTVSPost2010PropOp47
 70
     1
102
RTVSPost2010Prop48
 90
       50
102
RTVSPost2010PropOp48
 70
     1
102
RTVSPost2010Prop49
280
     0
102
RTVSPost2010PropOp49
 70
     1
102
RTVSPost2010Prop50
 90
       50
102
RTVSPost2010PropOp50
 70
     1
102
RTVSPost2010Prop51ColorIndex
 90
      256
102
RTVSPost2010Prop51ColorRGB
 90
-16777216
102
RTVSPost2010PropOp51
 70
     0
102
RTVSPost2010Prop52
140
1.0
102
RTVSPost2010PropOp52
 70
     0
102
RTVSPost2010Prop53
 90
        2
102
RTVSPost2010PropOp53
 70
     1
102
RTVSPost2010Prop54
  1
strokes_ogs.tif
102
RTVSPost2010PropOp54
 70
     1
102
RTVSPost2010Prop55
280
     0
102
RTVSPost2010PropOp55
 70
     1
102
RTVSPost2010Prop56
140
1.0
102
RTVSPost2010PropOp56
 70
     1
102
RTVSPost2010Prop57
140
1.0
102
RTVSPost2010PropOp57
 70
     1
102
RTVSPropertyOp0
 70
     1
102
RTVSPropertyOp1
 70
     1
102
RTVSPropertyOp2
 70
     1
102
RTVSPropertyOp3
 70
     1
102
RTVSPropertyOp4
 70
     1
102
RTVSPropertyOp5
 70
     1
102
RTVSPropertyOp6
 70
     1
102
RTVSPropertyOp7
 70
     1
102
RTVSPropertyOp8
 70
     1
102
RTVSPropertyOp9
 70
     1
102
RTVSPropertyOp10
 70
     1
102
RTVSPropertyOp11
 70
     1
102
RTVSPropertyOp12
 70
     1
102
RTVSPropertyOp13
 70
     1
102
RTVSPropertyOp14
 70
     1
102
RTVSPropertyOp15
 70
     1
102
RTVSPropertyOp16
 70
     1
102
RTVSPropertyOp17
 70
     1
102
RTVSPropertyOp18
 70
     1
102
RTVSPropertyOp19
 70
     1
102
RTVSPropertyOp20
 70
     1
102
RTVSPropertyOp21
 70
     1
102
RTVSPropertyOp22
 70
     1
102
RTVSPropertyOp23
 70
     1
102
RTVSPropertyOp24
 70
     1
102
RTVSPropertyOp25
 70
     1
102
RTVSPropertyOp26
 70
     1
102
RTVSPropertyOp27
 70
     1
102
RTVSPropertyOp28
 70
     1
102
RTVSPropertyOp29
 70
     1
102
RTVSPropertyOp30
 70
     1
102
RTVSPropertyOp31
 70
     1
102
RTVSPropertyOp32
 70
     1
102
RTVSPropertyOp33
 70
     1
102
RTVSPropertyOp34
 70
     1
102
RTVSPropertyOp35
 70
     1
102
RTVSPropertyOp36
 70
     1
102
RTVSPropertyOp37
 70
     1
102
RTVSPropertyOp38
 70
     1
102
RTVSPropertyOp39
 70
     1
102
RTVSPropertyOp40
 70
     1
102
RTVSPropertyOp41
 70
     1
102
RTVSPropertyOp42
 70
     1
102
RTVSPropertyOp43
 70
     1
102
RTVSPropertyOp44
 70
     1
102
RTVSPropertyOp45
 70
     1
102
RTVSPropertyOp46
 70
     1
102
RTVSPropertyOp47
 70
     1
102
RTVSPropertyOp48
 70
     1
102
RTVSPropertyOp49
 70
     1
102
RTVSPropertyOp50
 70
     1
102
RTVSPropertyOp51
 70
     0
102
RTVSPropertyOp52
 70
     0
102
RTVSPropertyOp53
 70
     1
102
RTVSPropertyOp54
 70
     1
102
RTVSPropertyOp55
 70
     1
102
RTVSPropertyOp56
 70
     1
102
RTVSPropertyOp57
 70
     1
102
RTVSPropertyOp58
 70
     1
102
RTVSPropertyOp59
 70
     1
102
RTVSPropertyOp60
 70
     1
102
RTVSPropertyOp61
 70
     1
102
RTVSPropertyOp62
 70
     1
  0
XRECORD
  5
10FC
102
{ACAD_REACTORS
330
10FB
102
}
330
10FB
100
AcDbXrecord
280
     1
102
RTVSPost2010Prop28
280
     0
102
RTVSPost2010PropOp28
 70
     1
102
RTVSPost2010Prop29
280
     1
102
RTVSPost2010PropOp29
 70
     1
102
RTVSPost2010Prop30
280
     1
102
RTVSPost2010PropOp30
 70
     1
102
RTVSPost2010Prop31
280
     0
102
RTVSPost2010PropOp31
 70
     1
102
RTVSPost2010Prop32
280
     0
102
RTVSPost2010PropOp32
 70
     1
102
RTVSPost2010Prop33
280
     0
102
RTVSPost2010PropOp33
 70
     1
102
RTVSPost2010Prop34
280
     0
102
RTVSPost2010PropOp34
 70
     1
102
RTVSPost2010Prop35
280
     0
102
RTVSPost2010PropOp35
 70
     1
102
RTVSPost2010Prop36
280
     0
102
RTVSPost2010PropOp36
 70
     1
102
RTVSPost2010Prop37
 90
       50
102
RTVSPost2010PropOp37
 70
     1
102
RTVSPost2010Prop38
140
0.0
102
RTVSPost2010PropOp38
 70
     1
102
RTVSPost2010Prop39
140
1.0
102
RTVSPost2010PropOp39
 70
     1
102
RTVSPost2010Prop40
 90
        0
102
RTVSPost2010PropOp40
 70
     1
102
RTVSPost2010Prop41ColorIndex
 90
       18
102
RTVSPost2010Prop41ColorRGB
 90
        0
102
RTVSPost2010PropOp41
 70
     1
102
RTVSPost2010Prop42
 90
       50
102
RTVSPost2010PropOp42
 70
     1
102
RTVSPost2010Prop43
 90
        3
102
RTVSPost2010PropOp43
 70
     1
102
RTVSPost2010Prop44ColorIndex
 90
        5
102
RTVSPost2010Prop44ColorRGB
 90
      255
102
RTVSPost2010PropOp44
 70
     1
102
RTVSPost2010Prop45
280
     0
102
RTVSPost2010PropOp45
 70
     1
102
RTVSPost2010Prop46
 90
       50
102
RTVSPost2010PropOp46
 70
     1
102
RTVSPost2010Prop47
 90
       50
102
RTVSPost2010PropOp47
 70
     1
102
RTVSPost2010Prop48
 90
       50
102
RTVSPost2010PropOp48
 70
     1
102
RTVSPost2010Prop49
280
     0
102
RTVSPost2010PropOp49
 70
     1
102
RTVSPost2010Prop50
 90
       50
102
RTVSPost2010PropOp50
 70
     1
102
RTVSPost2010Prop51ColorIndex
 90
      256
102
RTVSPost2010Prop51ColorRGB
 90
-16777216
102
RTVSPost2010PropOp51
 70
     0
102
RTVSPost2010Prop52
140
1.0
102
RTVSPost2010PropOp52
 70
     0
102
RTVSPost2010Prop53
 90
        2
102
RTVSPost2010PropOp53
 70
     1
102
RTVSPost2010Prop54
  1
strokes_ogs.tif
102
RTVSPost2010PropOp54
 70
     1
102
RTVSPost2010Prop55
280
     0
102
RTVSPost2010PropOp55
 70
     1
102
RTVSPost2010Prop56
140
1.0
102
RTVSPost2010PropOp56
 70
     1
102
RTVSPost2010Prop57
140
1.0
102
RTVSPost2010PropOp57
 70
     1
102
RTVSPropertyOp0
 70
     1
102
RTVSPropertyOp1
 70
     1
102
RTVSPropertyOp2
 70
     1
102
RTVSPropertyOp3
 70
     1
102
RTVSPropertyOp4
 70
     1
102
RTVSPropertyOp5
 70
     1
102
RTVSPropertyOp6
 70
     1
102
RTVSPropertyOp7
 70
     1
102
RTVSPropertyOp8
 70
     1
102
RTVSPropertyOp9
 70
     1
102
RTVSPropertyOp10
 70
     1
102
RTVSPropertyOp11
 70
     1
102
RTVSPropertyOp12
 70
     1
102
RTVSPropertyOp13
 70
     1
102
RTVSPropertyOp14
 70
     1
102
RTVSPropertyOp15
 70
     1
102
RTVSPropertyOp16
 70
     1
102
RTVSPropertyOp17
 70
     1
102
RTVSPropertyOp18
 70
     1
102
RTVSPropertyOp19
 70
     1
102
RTVSPropertyOp20
 70
     1
102
RTVSPropertyOp21
 70
     1
102
RTVSPropertyOp22
 70
     1
102
RTVSPropertyOp23
 70
     1
102
RTVSPropertyOp24
 70
     1
102
RTVSPropertyOp25
 70
     1
102
RTVSPropertyOp26
 70
     1
102
RTVSPropertyOp27
 70
     1
102
RTVSPropertyOp28
 70
     1
102
RTVSPropertyOp29
 70
     1
102
RTVSPropertyOp30
 70
     1
102
RTVSPropertyOp31
 70
     1
102
RTVSPropertyOp32
 70
     1
102
RTVSPropertyOp33
 70
     1
102
RTVSPropertyOp34
 70
     1
102
RTVSPropertyOp35
 70
     1
102
RTVSPropertyOp36
 70
     1
102
RTVSPropertyOp37
 70
     1
102
RTVSPropertyOp38
 70
     1
102
RTVSPropertyOp39
 70
     1
102
RTVSPropertyOp40
 70
     1
102
RTVSPropertyOp41
 70
     1
102
RTVSPropertyOp42
 70
     1
102
RTVSPropertyOp43
 70
     1
102
RTVSPropertyOp44
 70
     1
102
RTVSPropertyOp45
 70
     1
102
RTVSPropertyOp46
 70
     1
102
RTVSPropertyOp47
 70
     1
102
RTVSPropertyOp48
 70
     1
102
RTVSPropertyOp49
 70
     1
102
RTVSPropertyOp50
 70
     1
102
RTVSPropertyOp51
 70
     0
102
RTVSPropertyOp52
 70
     0
102
RTVSPropertyOp53
 70
     1
102
RTVSPropertyOp54
 70
     1
102
RTVSPropertyOp55
 70
     1
102
RTVSPropertyOp56
 70
     1
102
RTVSPropertyOp57
 70
     1
102
RTVSPropertyOp58
 70
     1
102
RTVSPropertyOp59
 70
     1
102
RTVSPropertyOp60
 70
     1
102
RTVSPropertyOp61
 70
     1
102
RTVSPropertyOp62
 70
     1
  0
XRECORD
  5
1118
102
{ACAD_REACTORS
330
1117
102
}
330
1117
100
AcDbXrecord
280
     1
102
RTVSPost2010Prop28
280
     0
102
RTVSPost2010PropOp28
 70
     1
102
RTVSPost2010Prop29
280
     1
102
RTVSPost2010PropOp29
 70
     1
102
RTVSPost2010Prop30
280
     1
102
RTVSPost2010PropOp30
 70
     1
102
RTVSPost2010Prop31
280
     0
102
RTVSPost2010PropOp31
 70
     1
102
RTVSPost2010Prop32
280
     0
102
RTVSPost2010PropOp32
 70
     1
102
RTVSPost2010Prop33
280
     0
102
RTVSPost2010PropOp33
 70
     1
102
RTVSPost2010Prop34
280
     0
102
RTVSPost2010PropOp34
 70
     1
102
RTVSPost2010Prop35
280
     0
102
RTVSPost2010PropOp35
 70
     1
102
RTVSPost2010Prop36
280
     0
102
RTVSPost2010PropOp36
 70
     1
102
RTVSPost2010Prop37
 90
       50
102
RTVSPost2010PropOp37
 70
     0
102
RTVSPost2010Prop38
140
0.0
102
RTVSPost2010PropOp38
 70
     0
102
RTVSPost2010Prop39
140
1.0
102
RTVSPost2010PropOp39
 70
     0
102
RTVSPost2010Prop40
 90
        0
102
RTVSPost2010PropOp40
 70
     0
102
RTVSPost2010Prop41ColorIndex
 90
       18
102
RTVSPost2010Prop41ColorRGB
 90
        0
102
RTVSPost2010PropOp41
 70
     0
102
RTVSPost2010Prop42
 90
       50
102
RTVSPost2010PropOp42
 70
     0
102
RTVSPost2010Prop43
 90
        3
102
RTVSPost2010PropOp43
 70
     0
102
RTVSPost2010Prop44ColorIndex
 90
        5
102
RTVSPost2010Prop44ColorRGB
 90
      255
102
RTVSPost2010PropOp44
 70
     0
102
RTVSPost2010Prop45
280
     0
102
RTVSPost2010PropOp45
 70
     1
102
RTVSPost2010Prop46
 90
       50
102
RTVSPost2010PropOp46
 70
     0
102
RTVSPost2010Prop47
 90
       50
102
RTVSPost2010PropOp47
 70
     0
102
RTVSPost2010Prop48
 90
       50
102
RTVSPost2010PropOp48
 70
     0
102
RTVSPost2010Prop49
280
     0
102
RTVSPost2010PropOp49
 70
     1
102
RTVSPost2010Prop50
 90
       50
102
RTVSPost2010PropOp50
 70
     0
102
RTVSPost2010Prop51ColorIndex
 90
      256
102
RTVSPost2010Prop51ColorRGB
 90
-16777216
102
RTVSPost2010PropOp51
 70
     0
102
RTVSPost2010Prop52
140
1.0
102
RTVSPost2010PropOp52
 70
     0
102
RTVSPost2010Prop53
 90
        2
102
RTVSPost2010PropOp53
 70
     0
102
RTVSPost2010Prop54
  1
strokes_ogs.tif
102
RTVSPost2010PropOp54
 70
     0
102
RTVSPost2010Prop55
280
     0
102
RTVSPost2010PropOp55
 70
     1
102
RTVSPost2010Prop56
140
1.0
102
RTVSPost2010PropOp56
 70
     0
102
RTVSPost2010Prop57
140
1.0
102
RTVSPost2010PropOp57
 70
     0
102
RTVSPropertyOp0
 70
     0
102
RTVSPropertyOp1
 70
     0
102
RTVSPropertyOp2
 70
     0
102
RTVSPropertyOp3
 70
     0
102
RTVSPropertyOp4
 70
     0
102
RTVSPropertyOp5
 70
     0
102
RTVSPropertyOp6
 70
     0
102
RTVSPropertyOp7
 70
     0
102
RTVSPropertyOp8
 70
     0
102
RTVSPropertyOp9
 70
     0
102
RTVSPropertyOp10
 70
     0
102
RTVSPropertyOp11
 70
     0
102
RTVSPropertyOp12
 70
     0
102
RTVSPropertyOp13
 70
     0
102
RTVSPropertyOp14
 70
     2
102
RTVSPropertyOp15
 70
     0
102
RTVSPropertyOp16
 70
     0
102
RTVSPropertyOp17
 70
     0
102
RTVSPropertyOp18
 70
     0
102
RTVSPropertyOp19
 70
     0
102
RTVSPropertyOp20
 70
     0
102
RTVSPropertyOp21
 70
     0
102
RTVSPropertyOp22
 70
     0
102
RTVSPropertyOp23
 70
     0
102
RTVSPropertyOp24
 70
     0
102
RTVSPropertyOp25
 70
     0
102
RTVSPropertyOp26
 70
     0
102
RTVSPropertyOp27
 70
     0
102
RTVSPropertyOp28
 70
     1
102
RTVSPropertyOp29
 70
     1
102
RTVSPropertyOp30
 70
     1
102
RTVSPropertyOp31
 70
     1
102
RTVSPropertyOp32
 70
     1
102
RTVSPropertyOp33
 70
     1
102
RTVSPropertyOp34
 70
     1
102
RTVSPropertyOp35
 70
     1
102
RTVSPropertyOp36
 70
     1
102
RTVSPropertyOp37
 70
     0
102
RTVSPropertyOp38
 70
     0
102
RTVSPropertyOp39
 70
     0
102
RTVSPropertyOp40
 70
     0
102
RTVSPropertyOp41
 70
     0
102
RTVSPropertyOp42
 70
     0
102
RTVSPropertyOp43
 70
     0
102
RTVSPropertyOp44
 70
     0
102
RTVSPropertyOp45
 70
     1
102
RTVSPropertyOp46
 70
     0
102
RTVSPropertyOp47
 70
     0
102
RTVSPropertyOp48
 70
     0
102
RTVSPropertyOp49
 70
     1
102
RTVSPropertyOp50
 70
     0
102
RTVSPropertyOp51
 70
     0
102
RTVSPropertyOp52
 70
     0
102
RTVSPropertyOp53
 70
     0
102
RTVSPropertyOp54
 70
     0
102
RTVSPropertyOp55
 70
     1
102
RTVSPropertyOp56
 70
     0
102
RTVSPropertyOp57
 70
     0
102
RTVSPropertyOp58
 70
     1
102
RTVSPropertyOp59
 70
     1
102
RTVSPropertyOp60
 70
     1
102
RTVSPropertyOp61
 70
     1
102
RTVSPropertyOp62
 70
     1
  0
XRECORD
  5
1108
102
{ACAD_REACTORS
330
1107
102
}
330
1107
100
AcDbXrecord
280
     1
102
RTVSPost2010Prop28
280
     0
102
RTVSPost2010PropOp28
 70
     1
102
RTVSPost2010Prop29
280
     1
102
RTVSPost2010PropOp29
 70
     1
102
RTVSPost2010Prop30
280
     1
102
RTVSPost2010PropOp30
 70
     1
102
RTVSPost2010Prop31
280
     0
102
RTVSPost2010PropOp31
 70
     1
102
RTVSPost2010Prop32
280
     0
102
RTVSPost2010PropOp32
 70
     1
102
RTVSPost2010Prop33
280
     0
102
RTVSPost2010PropOp33
 70
     1
102
RTVSPost2010Prop34
280
     0
102
RTVSPost2010PropOp34
 70
     1
102
RTVSPost2010Prop35
280
     0
102
RTVSPost2010PropOp35
 70
     1
102
RTVSPost2010Prop36
280
     0
102
RTVSPost2010PropOp36
 70
     1
102
RTVSPost2010Prop37
 90
       50
102
RTVSPost2010PropOp37
 70
     1
102
RTVSPost2010Prop38
140
0.0
102
RTVSPost2010PropOp38
 70
     1
102
RTVSPost2010Prop39
140
1.0
102
RTVSPost2010PropOp39
 70
     1
102
RTVSPost2010Prop40
 90
        0
102
RTVSPost2010PropOp40
 70
     1
102
RTVSPost2010Prop41ColorIndex
 90
       18
102
RTVSPost2010Prop41ColorRGB
 90
        0
102
RTVSPost2010PropOp41
 70
     1
102
RTVSPost2010Prop42
 90
       50
102
RTVSPost2010PropOp42
 70
     1
102
RTVSPost2010Prop43
 90
        3
102
RTVSPost2010PropOp43
 70
     1
102
RTVSPost2010Prop44ColorIndex
 90
        5
102
RTVSPost2010Prop44ColorRGB
 90
      255
102
RTVSPost2010PropOp44
 70
     1
102
RTVSPost2010Prop45
280
     0
102
RTVSPost2010PropOp45
 70
     1
102
RTVSPost2010Prop46
 90
       50
102
RTVSPost2010PropOp46
 70
     1
102
RTVSPost2010Prop47
 90
       50
102
RTVSPost2010PropOp47
 70
     1
102
RTVSPost2010Prop48
 90
       50
102
RTVSPost2010PropOp48
 70
     1
102
RTVSPost2010Prop49
280
     0
102
RTVSPost2010PropOp49
 70
     1
102
RTVSPost2010Prop50
 90
       50
102
RTVSPost2010PropOp50
 70
     1
102
RTVSPost2010Prop51ColorIndex
 90
      256
102
RTVSPost2010Prop51ColorRGB
 90
-16777216
102
RTVSPost2010PropOp51
 70
     0
102
RTVSPost2010Prop52
140
1.0
102
RTVSPost2010PropOp52
 70
     0
102
RTVSPost2010Prop53
 90
        2
102
RTVSPost2010PropOp53
 70
     1
102
RTVSPost2010Prop54
  1
strokes_ogs.tif
102
RTVSPost2010PropOp54
 70
     1
102
RTVSPost2010Prop55
280
     0
102
RTVSPost2010PropOp55
 70
     1
102
RTVSPost2010Prop56
140
1.0
102
RTVSPost2010PropOp56
 70
     1
102
RTVSPost2010Prop57
140
1.0
102
RTVSPost2010PropOp57
 70
     1
102
RTVSPropertyOp0
 70
     1
102
RTVSPropertyOp1
 70
     1
102
RTVSPropertyOp2
 70
     1
102
RTVSPropertyOp3
 70
     1
102
RTVSPropertyOp4
 70
     1
102
RTVSPropertyOp5
 70
     1
102
RTVSPropertyOp6
 70
     1
102
RTVSPropertyOp7
 70
     1
102
RTVSPropertyOp8
 70
     1
102
RTVSPropertyOp9
 70
     1
102
RTVSPropertyOp10
 70
     1
102
RTVSPropertyOp11
 70
     1
102
RTVSPropertyOp12
 70
     1
102
RTVSPropertyOp13
 70
     1
102
RTVSPropertyOp14
 70
     1
102
RTVSPropertyOp15
 70
     1
102
RTVSPropertyOp16
 70
     1
102
RTVSPropertyOp17
 70
     1
102
RTVSPropertyOp18
 70
     1
102
RTVSPropertyOp19
 70
     1
102
RTVSPropertyOp20
 70
     1
102
RTVSPropertyOp21
 70
     1
102
RTVSPropertyOp22
 70
     1
102
RTVSPropertyOp23
 70
     1
102
RTVSPropertyOp24
 70
     1
102
RTVSPropertyOp25
 70
     1
102
RTVSPropertyOp26
 70
     1
102
RTVSPropertyOp27
 70
     1
102
RTVSPropertyOp28
 70
     1
102
RTVSPropertyOp29
 70
     1
102
RTVSPropertyOp30
 70
     1
102
RTVSPropertyOp31
 70
     1
102
RTVSPropertyOp32
 70
     1
102
RTVSPropertyOp33
 70
     1
102
RTVSPropertyOp34
 70
     1
102
RTVSPropertyOp35
 70
     1
102
RTVSPropertyOp36
 70
     1
102
RTVSPropertyOp37
 70
     1
102
RTVSPropertyOp38
 70
     1
102
RTVSPropertyOp39
 70
     1
102
RTVSPropertyOp40
 70
     1
102
RTVSPropertyOp41
 70
     1
102
RTVSPropertyOp42
 70
     1
102
RTVSPropertyOp43
 70
     1
102
RTVSPropertyOp44
 70
     1
102
RTVSPropertyOp45
 70
     1
102
RTVSPropertyOp46
 70
     1
102
RTVSPropertyOp47
 70
     1
102
RTVSPropertyOp48
 70
     1
102
RTVSPropertyOp49
 70
     1
102
RTVSPropertyOp50
 70
     1
102
RTVSPropertyOp51
 70
     0
102
RTVSPropertyOp52
 70
     0
102
RTVSPropertyOp53
 70
     1
102
RTVSPropertyOp54
 70
     1
102
RTVSPropertyOp55
 70
     1
102
RTVSPropertyOp56
 70
     1
102
RTVSPropertyOp57
 70
     1
102
RTVSPropertyOp58
 70
     1
102
RTVSPropertyOp59
 70
     1
102
RTVSPropertyOp60
 70
     1
102
RTVSPropertyOp61
 70
     1
102
RTVSPropertyOp62
 70
     1
  0
XRECORD
  5
111A
102
{ACAD_REACTORS
330
1119
102
}
330
1119
100
AcDbXrecord
280
     1
102
RTVSPost2010Prop28
280
     0
102
RTVSPost2010PropOp28
 70
     1
102
RTVSPost2010Prop29
280
     1
102
RTVSPost2010PropOp29
 70
     1
102
RTVSPost2010Prop30
280
     1
102
RTVSPost2010PropOp30
 70
     1
102
RTVSPost2010Prop31
280
     0
102
RTVSPost2010PropOp31
 70
     1
102
RTVSPost2010Prop32
280
     0
102
RTVSPost2010PropOp32
 70
     1
102
RTVSPost2010Prop33
280
     0
102
RTVSPost2010PropOp33
 70
     1
102
RTVSPost2010Prop34
280
     0
102
RTVSPost2010PropOp34
 70
     1
102
RTVSPost2010Prop35
280
     0
102
RTVSPost2010PropOp35
 70
     1
102
RTVSPost2010Prop36
280
     0
102
RTVSPost2010PropOp36
 70
     1
102
RTVSPost2010Prop37
 90
       50
102
RTVSPost2010PropOp37
 70
     0
102
RTVSPost2010Prop38
140
0.0
102
RTVSPost2010PropOp38
 70
     0
102
RTVSPost2010Prop39
140
1.0
102
RTVSPost2010PropOp39
 70
     0
102
RTVSPost2010Prop40
 90
        0
102
RTVSPost2010PropOp40
 70
     0
102
RTVSPost2010Prop41ColorIndex
 90
       18
102
RTVSPost2010Prop41ColorRGB
 90
        0
102
RTVSPost2010PropOp41
 70
     0
102
RTVSPost2010Prop42
 90
       50
102
RTVSPost2010PropOp42
 70
     0
102
RTVSPost2010Prop43
 90
        3
102
RTVSPost2010PropOp43
 70
     0
102
RTVSPost2010Prop44ColorIndex
 90
        5
102
RTVSPost2010Prop44ColorRGB
 90
      255
102
RTVSPost2010PropOp44
 70
     0
102
RTVSPost2010Prop45
280
     0
102
RTVSPost2010PropOp45
 70
     1
102
RTVSPost2010Prop46
 90
       50
102
RTVSPost2010PropOp46
 70
     0
102
RTVSPost2010Prop47
 90
       50
102
RTVSPost2010PropOp47
 70
     0
102
RTVSPost2010Prop48
 90
       50
102
RTVSPost2010PropOp48
 70
     0
102
RTVSPost2010Prop49
280
     0
102
RTVSPost2010PropOp49
 70
     1
102
RTVSPost2010Prop50
 90
       50
102
RTVSPost2010PropOp50
 70
     0
102
RTVSPost2010Prop51ColorIndex
 90
      256
102
RTVSPost2010Prop51ColorRGB
 90
-16777216
102
RTVSPost2010PropOp51
 70
     0
102
RTVSPost2010Prop52
140
1.0
102
RTVSPost2010PropOp52
 70
     0
102
RTVSPost2010Prop53
 90
        2
102
RTVSPost2010PropOp53
 70
     0
102
RTVSPost2010Prop54
  1
strokes_ogs.tif
102
RTVSPost2010PropOp54
 70
     0
102
RTVSPost2010Prop55
280
     0
102
RTVSPost2010PropOp55
 70
     1
102
RTVSPost2010Prop56
140
1.0
102
RTVSPost2010PropOp56
 70
     0
102
RTVSPost2010Prop57
140
1.0
102
RTVSPost2010PropOp57
 70
     0
102
RTVSPropertyOp0
 70
     0
102
RTVSPropertyOp1
 70
     0
102
RTVSPropertyOp2
 70
     0
102
RTVSPropertyOp3
 70
     0
102
RTVSPropertyOp4
 70
     0
102
RTVSPropertyOp5
 70
     0
102
RTVSPropertyOp6
 70
     0
102
RTVSPropertyOp7
 70
     0
102
RTVSPropertyOp8
 70
     0
102
RTVSPropertyOp9
 70
     0
102
RTVSPropertyOp10
 70
     0
102
RTVSPropertyOp11
 70
     0
102
RTVSPropertyOp12
 70
     0
102
RTVSPropertyOp13
 70
     0
102
RTVSPropertyOp14
 70
     2
102
RTVSPropertyOp15
 70
     0
102
RTVSPropertyOp16
 70
     0
102
RTVSPropertyOp17
 70
     0
102
RTVSPropertyOp18
 70
     0
102
RTVSPropertyOp19
 70
     0
102
RTVSPropertyOp20
 70
     0
102
RTVSPropertyOp21
 70
     0
102
RTVSPropertyOp22
 70
     0
102
RTVSPropertyOp23
 70
     0
102
RTVSPropertyOp24
 70
     0
102
RTVSPropertyOp25
 70
     0
102
RTVSPropertyOp26
 70
     0
102
RTVSPropertyOp27
 70
     0
102
RTVSPropertyOp28
 70
     1
102
RTVSPropertyOp29
 70
     1
102
RTVSPropertyOp30
 70
     1
102
RTVSPropertyOp31
 70
     1
102
RTVSPropertyOp32
 70
     1
102
RTVSPropertyOp33
 70
     1
102
RTVSPropertyOp34
 70
     1
102
RTVSPropertyOp35
 70
     1
102
RTVSPropertyOp36
 70
     1
102
RTVSPropertyOp37
 70
     0
102
RTVSPropertyOp38
 70
     0
102
RTVSPropertyOp39
 70
     0
102
RTVSPropertyOp40
 70
     0
102
RTVSPropertyOp41
 70
     0
102
RTVSPropertyOp42
 70
     0
102
RTVSPropertyOp43
 70
     0
102
RTVSPropertyOp44
 70
     0
102
RTVSPropertyOp45
 70
     1
102
RTVSPropertyOp46
 70
     0
102
RTVSPropertyOp47
 70
     0
102
RTVSPropertyOp48
 70
     0
102
RTVSPropertyOp49
 70
     1
102
RTVSPropertyOp50
 70
     0
102
RTVSPropertyOp51
 70
     0
102
RTVSPropertyOp52
 70
     0
102
RTVSPropertyOp53
 70
     0
102
RTVSPropertyOp54
 70
     0
102
RTVSPropertyOp55
 70
     1
102
RTVSPropertyOp56
 70
     0
102
RTVSPropertyOp57
 70
     0
102
RTVSPropertyOp58
 70
     1
102
RTVSPropertyOp59
 70
     1
102
RTVSPropertyOp60
 70
     1
102
RTVSPropertyOp61
 70
     1
102
RTVSPropertyOp62
 70
     1
  0
XRECORD
  5
1100
102
{ACAD_REACTORS
330
10FF
102
}
330
10FF
100
AcDbXrecord
280
     1
102
RTVSPost2010Prop28
280
     0
102
RTVSPost2010PropOp28
 70
     1
102
RTVSPost2010Prop29
280
     1
102
RTVSPost2010PropOp29
 70
     1
102
RTVSPost2010Prop30
280
     1
102
RTVSPost2010PropOp30
 70
     1
102
RTVSPost2010Prop31
280
     0
102
RTVSPost2010PropOp31
 70
     1
102
RTVSPost2010Prop32
280
     0
102
RTVSPost2010PropOp32
 70
     1
102
RTVSPost2010Prop33
280
     0
102
RTVSPost2010PropOp33
 70
     1
102
RTVSPost2010Prop34
280
     0
102
RTVSPost2010PropOp34
 70
     1
102
RTVSPost2010Prop35
280
     0
102
RTVSPost2010PropOp35
 70
     1
102
RTVSPost2010Prop36
280
     0
102
RTVSPost2010PropOp36
 70
     1
102
RTVSPost2010Prop37
 90
       50
102
RTVSPost2010PropOp37
 70
     1
102
RTVSPost2010Prop38
140
0.0
102
RTVSPost2010PropOp38
 70
     1
102
RTVSPost2010Prop39
140
1.0
102
RTVSPost2010PropOp39
 70
     1
102
RTVSPost2010Prop40
 90
        0
102
RTVSPost2010PropOp40
 70
     1
102
RTVSPost2010Prop41ColorIndex
 90
       18
102
RTVSPost2010Prop41ColorRGB
 90
        0
102
RTVSPost2010PropOp41
 70
     1
102
RTVSPost2010Prop42
 90
       50
102
RTVSPost2010PropOp42
 70
     1
102
RTVSPost2010Prop43
 90
        3
102
RTVSPost2010PropOp43
 70
     1
102
RTVSPost2010Prop44ColorIndex
 90
        5
102
RTVSPost2010Prop44ColorRGB
 90
      255
102
RTVSPost2010PropOp44
 70
     1
102
RTVSPost2010Prop45
280
     0
102
RTVSPost2010PropOp45
 70
     1
102
RTVSPost2010Prop46
 90
       50
102
RTVSPost2010PropOp46
 70
     1
102
RTVSPost2010Prop47
 90
       50
102
RTVSPost2010PropOp47
 70
     1
102
RTVSPost2010Prop48
 90
       50
102
RTVSPost2010PropOp48
 70
     1
102
RTVSPost2010Prop49
280
     0
102
RTVSPost2010PropOp49
 70
     1
102
RTVSPost2010Prop50
 90
       50
102
RTVSPost2010PropOp50
 70
     1
102
RTVSPost2010Prop51ColorIndex
 90
      256
102
RTVSPost2010Prop51ColorRGB
 90
-16777216
102
RTVSPost2010PropOp51
 70
     0
102
RTVSPost2010Prop52
140
1.0
102
RTVSPost2010PropOp52
 70
     0
102
RTVSPost2010Prop53
 90
        2
102
RTVSPost2010PropOp53
 70
     1
102
RTVSPost2010Prop54
  1
strokes_ogs.tif
102
RTVSPost2010PropOp54
 70
     1
102
RTVSPost2010Prop55
280
     0
102
RTVSPost2010PropOp55
 70
     1
102
RTVSPost2010Prop56
140
1.0
102
RTVSPost2010PropOp56
 70
     1
102
RTVSPost2010Prop57
140
1.0
102
RTVSPost2010PropOp57
 70
     1
102
RTVSPropertyOp0
 70
     1
102
RTVSPropertyOp1
 70
     1
102
RTVSPropertyOp2
 70
     1
102
RTVSPropertyOp3
 70
     1
102
RTVSPropertyOp4
 70
     1
102
RTVSPropertyOp5
 70
     1
102
RTVSPropertyOp6
 70
     1
102
RTVSPropertyOp7
 70
     1
102
RTVSPropertyOp8
 70
     1
102
RTVSPropertyOp9
 70
     1
102
RTVSPropertyOp10
 70
     1
102
RTVSPropertyOp11
 70
     1
102
RTVSPropertyOp12
 70
     1
102
RTVSPropertyOp13
 70
     1
102
RTVSPropertyOp14
 70
     1
102
RTVSPropertyOp15
 70
     1
102
RTVSPropertyOp16
 70
     1
102
RTVSPropertyOp17
 70
     1
102
RTVSPropertyOp18
 70
     1
102
RTVSPropertyOp19
 70
     1
102
RTVSPropertyOp20
 70
     1
102
RTVSPropertyOp21
 70
     1
102
RTVSPropertyOp22
 70
     1
102
RTVSPropertyOp23
 70
     1
102
RTVSPropertyOp24
 70
     1
102
RTVSPropertyOp25
 70
     1
102
RTVSPropertyOp26
 70
     1
102
RTVSPropertyOp27
 70
     1
102
RTVSPropertyOp28
 70
     1
102
RTVSPropertyOp29
 70
     1
102
RTVSPropertyOp30
 70
     1
102
RTVSPropertyOp31
 70
     1
102
RTVSPropertyOp32
 70
     1
102
RTVSPropertyOp33
 70
     1
102
RTVSPropertyOp34
 70
     1
102
RTVSPropertyOp35
 70
     1
102
RTVSPropertyOp36
 70
     1
102
RTVSPropertyOp37
 70
     1
102
RTVSPropertyOp38
 70
     1
102
RTVSPropertyOp39
 70
     1
102
RTVSPropertyOp40
 70
     1
102
RTVSPropertyOp41
 70
     1
102
RTVSPropertyOp42
 70
     1
102
RTVSPropertyOp43
 70
     1
102
RTVSPropertyOp44
 70
     1
102
RTVSPropertyOp45
 70
     1
102
RTVSPropertyOp46
 70
     1
102
RTVSPropertyOp47
 70
     1
102
RTVSPropertyOp48
 70
     1
102
RTVSPropertyOp49
 70
     1
102
RTVSPropertyOp50
 70
     1
102
RTVSPropertyOp51
 70
     0
102
RTVSPropertyOp52
 70
     0
102
RTVSPropertyOp53
 70
     1
102
RTVSPropertyOp54
 70
     1
102
RTVSPropertyOp55
 70
     1
102
RTVSPropertyOp56
 70
     1
102
RTVSPropertyOp57
 70
     1
102
RTVSPropertyOp58
 70
     1
102
RTVSPropertyOp59
 70
     1
102
RTVSPropertyOp60
 70
     1
102
RTVSPropertyOp61
 70
     1
102
RTVSPropertyOp62
 70
     1
  0
XRECORD
  5
1116
102
{ACAD_REACTORS
330
1115
102
}
330
1115
100
AcDbXrecord
280
     1
102
RTVSPost2010Prop28
280
     0
102
RTVSPost2010PropOp28
 70
     1
102
RTVSPost2010Prop29
280
     1
102
RTVSPost2010PropOp29
 70
     1
102
RTVSPost2010Prop30
280
     1
102
RTVSPost2010PropOp30
 70
     1
102
RTVSPost2010Prop31
280
     0
102
RTVSPost2010PropOp31
 70
     1
102
RTVSPost2010Prop32
280
     0
102
RTVSPost2010PropOp32
 70
     1
102
RTVSPost2010Prop33
280
     0
102
RTVSPost2010PropOp33
 70
     1
102
RTVSPost2010Prop34
280
     0
102
RTVSPost2010PropOp34
 70
     1
102
RTVSPost2010Prop35
280
     0
102
RTVSPost2010PropOp35
 70
     1
102
RTVSPost2010Prop36
280
     0
102
RTVSPost2010PropOp36
 70
     1
102
RTVSPost2010Prop37
 90
       50
102
RTVSPost2010PropOp37
 70
     1
102
RTVSPost2010Prop38
140
0.0
102
RTVSPost2010PropOp38
 70
     1
102
RTVSPost2010Prop39
140
1.0
102
RTVSPost2010PropOp39
 70
     1
102
RTVSPost2010Prop40
 90
        0
102
RTVSPost2010PropOp40
 70
     1
102
RTVSPost2010Prop41ColorIndex
 90
       18
102
RTVSPost2010Prop41ColorRGB
 90
        0
102
RTVSPost2010PropOp41
 70
     1
102
RTVSPost2010Prop42
 90
       50
102
RTVSPost2010PropOp42
 70
     1
102
RTVSPost2010Prop43
 90
        3
102
RTVSPost2010PropOp43
 70
     1
102
RTVSPost2010Prop44ColorIndex
 90
        5
102
RTVSPost2010Prop44ColorRGB
 90
      255
102
RTVSPost2010PropOp44
 70
     1
102
RTVSPost2010Prop45
280
     0
102
RTVSPost2010PropOp45
 70
     1
102
RTVSPost2010Prop46
 90
       50
102
RTVSPost2010PropOp46
 70
     1
102
RTVSPost2010Prop47
 90
       50
102
RTVSPost2010PropOp47
 70
     1
102
RTVSPost2010Prop48
 90
       50
102
RTVSPost2010PropOp48
 70
     1
102
RTVSPost2010Prop49
280
     0
102
RTVSPost2010PropOp49
 70
     1
102
RTVSPost2010Prop50
 90
       50
102
RTVSPost2010PropOp50
 70
     1
102
RTVSPost2010Prop51ColorIndex
 90
      256
102
RTVSPost2010Prop51ColorRGB
 90
-16777216
102
RTVSPost2010PropOp51
 70
     0
102
RTVSPost2010Prop52
140
1.0
102
RTVSPost2010PropOp52
 70
     0
102
RTVSPost2010Prop53
 90
        2
102
RTVSPost2010PropOp53
 70
     1
102
RTVSPost2010Prop54
  1
strokes_ogs.tif
102
RTVSPost2010PropOp54
 70
     1
102
RTVSPost2010Prop55
280
     0
102
RTVSPost2010PropOp55
 70
     1
102
RTVSPost2010Prop56
140
1.0
102
RTVSPost2010PropOp56
 70
     1
102
RTVSPost2010Prop57
140
1.0
102
RTVSPost2010PropOp57
 70
     1
102
RTVSPropertyOp0
 70
     1
102
RTVSPropertyOp1
 70
     1
102
RTVSPropertyOp2
 70
     1
102
RTVSPropertyOp3
 70
     1
102
RTVSPropertyOp4
 70
     1
102
RTVSPropertyOp5
 70
     1
102
RTVSPropertyOp6
 70
     1
102
RTVSPropertyOp7
 70
     1
102
RTVSPropertyOp8
 70
     1
102
RTVSPropertyOp9
 70
     1
102
RTVSPropertyOp10
 70
     1
102
RTVSPropertyOp11
 70
     1
102
RTVSPropertyOp12
 70
     1
102
RTVSPropertyOp13
 70
     1
102
RTVSPropertyOp14
 70
     1
102
RTVSPropertyOp15
 70
     1
102
RTVSPropertyOp16
 70
     1
102
RTVSPropertyOp17
 70
     1
102
RTVSPropertyOp18
 70
     1
102
RTVSPropertyOp19
 70
     1
102
RTVSPropertyOp20
 70
     1
102
RTVSPropertyOp21
 70
     1
102
RTVSPropertyOp22
 70
     1
102
RTVSPropertyOp23
 70
     1
102
RTVSPropertyOp24
 70
     1
102
RTVSPropertyOp25
 70
     1
102
RTVSPropertyOp26
 70
     1
102
RTVSPropertyOp27
 70
     1
102
RTVSPropertyOp28
 70
     1
102
RTVSPropertyOp29
 70
     1
102
RTVSPropertyOp30
 70
     1
102
RTVSPropertyOp31
 70
     1
102
RTVSPropertyOp32
 70
     1
102
RTVSPropertyOp33
 70
     1
102
RTVSPropertyOp34
 70
     1
102
RTVSPropertyOp35
 70
     1
102
RTVSPropertyOp36
 70
     1
102
RTVSPropertyOp37
 70
     1
102
RTVSPropertyOp38
 70
     1
102
RTVSPropertyOp39
 70
     1
102
RTVSPropertyOp40
 70
     1
102
RTVSPropertyOp41
 70
     1
102
RTVSPropertyOp42
 70
     1
102
RTVSPropertyOp43
 70
     1
102
RTVSPropertyOp44
 70
     1
102
RTVSPropertyOp45
 70
     1
102
RTVSPropertyOp46
 70
     1
102
RTVSPropertyOp47
 70
     1
102
RTVSPropertyOp48
 70
     1
102
RTVSPropertyOp49
 70
     1
102
RTVSPropertyOp50
 70
     1
102
RTVSPropertyOp51
 70
     0
102
RTVSPropertyOp52
 70
     0
102
RTVSPropertyOp53
 70
     1
102
RTVSPropertyOp54
 70
     1
102
RTVSPropertyOp55
 70
     1
102
RTVSPropertyOp56
 70
     1
102
RTVSPropertyOp57
 70
     1
102
RTVSPropertyOp58
 70
     1
102
RTVSPropertyOp59
 70
     1
102
RTVSPropertyOp60
 70
     1
102
RTVSPropertyOp61
 70
     1
102
RTVSPropertyOp62
 70
     1
  0
XRECORD
  5
1114
102
{ACAD_REACTORS
330
1113
102
}
330
1113
100
AcDbXrecord
280
     1
102
RTVSPost2010Prop28
280
     0
102
RTVSPost2010PropOp28
 70
     1
102
RTVSPost2010Prop29
280
     1
102
RTVSPost2010PropOp29
 70
     1
102
RTVSPost2010Prop30
280
     1
102
RTVSPost2010PropOp30
 70
     1
102
RTVSPost2010Prop31
280
     0
102
RTVSPost2010PropOp31
 70
     1
102
RTVSPost2010Prop32
280
     0
102
RTVSPost2010PropOp32
 70
     1
102
RTVSPost2010Prop33
280
     0
102
RTVSPost2010PropOp33
 70
     1
102
RTVSPost2010Prop34
280
     0
102
RTVSPost2010PropOp34
 70
     1
102
RTVSPost2010Prop35
280
     0
102
RTVSPost2010PropOp35
 70
     1
102
RTVSPost2010Prop36
280
     0
102
RTVSPost2010PropOp36
 70
     1
102
RTVSPost2010Prop37
 90
       50
102
RTVSPost2010PropOp37
 70
     1
102
RTVSPost2010Prop38
140
0.0
102
RTVSPost2010PropOp38
 70
     1
102
RTVSPost2010Prop39
140
1.0
102
RTVSPost2010PropOp39
 70
     1
102
RTVSPost2010Prop40
 90
        0
102
RTVSPost2010PropOp40
 70
     1
102
RTVSPost2010Prop41ColorIndex
 90
       18
102
RTVSPost2010Prop41ColorRGB
 90
        0
102
RTVSPost2010PropOp41
 70
     1
102
RTVSPost2010Prop42
 90
       50
102
RTVSPost2010PropOp42
 70
     1
102
RTVSPost2010Prop43
 90
        3
102
RTVSPost2010PropOp43
 70
     1
102
RTVSPost2010Prop44ColorIndex
 90
        5
102
RTVSPost2010Prop44ColorRGB
 90
      255
102
RTVSPost2010PropOp44
 70
     1
102
RTVSPost2010Prop45
280
     0
102
RTVSPost2010PropOp45
 70
     1
102
RTVSPost2010Prop46
 90
       50
102
RTVSPost2010PropOp46
 70
     1
102
RTVSPost2010Prop47
 90
       50
102
RTVSPost2010PropOp47
 70
     1
102
RTVSPost2010Prop48
 90
       50
102
RTVSPost2010PropOp48
 70
     1
102
RTVSPost2010Prop49
280
     0
102
RTVSPost2010PropOp49
 70
     1
102
RTVSPost2010Prop50
 90
       50
102
RTVSPost2010PropOp50
 70
     1
102
RTVSPost2010Prop51ColorIndex
 90
      256
102
RTVSPost2010Prop51ColorRGB
 90
-16777216
102
RTVSPost2010PropOp51
 70
     0
102
RTVSPost2010Prop52
140
1.0
102
RTVSPost2010PropOp52
 70
     0
102
RTVSPost2010Prop53
 90
        2
102
RTVSPost2010PropOp53
 70
     1
102
RTVSPost2010Prop54
  1
strokes_ogs.tif
102
RTVSPost2010PropOp54
 70
     1
102
RTVSPost2010Prop55
280
     0
102
RTVSPost2010PropOp55
 70
     1
102
RTVSPost2010Prop56
140
1.0
102
RTVSPost2010PropOp56
 70
     1
102
RTVSPost2010Prop57
140
1.0
102
RTVSPost2010PropOp57
 70
     1
102
RTVSPropertyOp0
 70
     1
102
RTVSPropertyOp1
 70
     1
102
RTVSPropertyOp2
 70
     1
102
RTVSPropertyOp3
 70
     1
102
RTVSPropertyOp4
 70
     1
102
RTVSPropertyOp5
 70
     1
102
RTVSPropertyOp6
 70
     1
102
RTVSPropertyOp7
 70
     1
102
RTVSPropertyOp8
 70
     1
102
RTVSPropertyOp9
 70
     1
102
RTVSPropertyOp10
 70
     1
102
RTVSPropertyOp11
 70
     1
102
RTVSPropertyOp12
 70
     1
102
RTVSPropertyOp13
 70
     1
102
RTVSPropertyOp14
 70
     1
102
RTVSPropertyOp15
 70
     1
102
RTVSPropertyOp16
 70
     1
102
RTVSPropertyOp17
 70
     1
102
RTVSPropertyOp18
 70
     1
102
RTVSPropertyOp19
 70
     1
102
RTVSPropertyOp20
 70
     1
102
RTVSPropertyOp21
 70
     1
102
RTVSPropertyOp22
 70
     1
102
RTVSPropertyOp23
 70
     1
102
RTVSPropertyOp24
 70
     1
102
RTVSPropertyOp25
 70
     1
102
RTVSPropertyOp26
 70
     1
102
RTVSPropertyOp27
 70
     1
102
RTVSPropertyOp28
 70
     1
102
RTVSPropertyOp29
 70
     1
102
RTVSPropertyOp30
 70
     1
102
RTVSPropertyOp31
 70
     1
102
RTVSPropertyOp32
 70
     1
102
RTVSPropertyOp33
 70
     1
102
RTVSPropertyOp34
 70
     1
102
RTVSPropertyOp35
 70
     1
102
RTVSPropertyOp36
 70
     1
102
RTVSPropertyOp37
 70
     1
102
RTVSPropertyOp38
 70
     1
102
RTVSPropertyOp39
 70
     1
102
RTVSPropertyOp40
 70
     1
102
RTVSPropertyOp41
 70
     1
102
RTVSPropertyOp42
 70
     1
102
RTVSPropertyOp43
 70
     1
102
RTVSPropertyOp44
 70
     1
102
RTVSPropertyOp45
 70
     1
102
RTVSPropertyOp46
 70
     1
102
RTVSPropertyOp47
 70
     1
102
RTVSPropertyOp48
 70
     1
102
RTVSPropertyOp49
 70
     1
102
RTVSPropertyOp50
 70
     1
102
RTVSPropertyOp51
 70
     0
102
RTVSPropertyOp52
 70
     0
102
RTVSPropertyOp53
 70
     1
102
RTVSPropertyOp54
 70
     1
102
RTVSPropertyOp55
 70
     1
102
RTVSPropertyOp56
 70
     1
102
RTVSPropertyOp57
 70
     1
102
RTVSPropertyOp58
 70
     1
102
RTVSPropertyOp59
 70
     1
102
RTVSPropertyOp60
 70
     1
102
RTVSPropertyOp61
 70
     1
102
RTVSPropertyOp62
 70
     1
  0
XRECORD
  5
110E
102
{ACAD_REACTORS
330
110D
102
}
330
110D
100
AcDbXrecord
280
     1
102
RTVSPost2010Prop28
280
     0
102
RTVSPost2010PropOp28
 70
     1
102
RTVSPost2010Prop29
280
     1
102
RTVSPost2010PropOp29
 70
     1
102
RTVSPost2010Prop30
280
     1
102
RTVSPost2010PropOp30
 70
     1
102
RTVSPost2010Prop31
280
     0
102
RTVSPost2010PropOp31
 70
     1
102
RTVSPost2010Prop32
280
     0
102
RTVSPost2010PropOp32
 70
     1
102
RTVSPost2010Prop33
280
     0
102
RTVSPost2010PropOp33
 70
     1
102
RTVSPost2010Prop34
280
     0
102
RTVSPost2010PropOp34
 70
     1
102
RTVSPost2010Prop35
280
     0
102
RTVSPost2010PropOp35
 70
     1
102
RTVSPost2010Prop36
280
     0
102
RTVSPost2010PropOp36
 70
     1
102
RTVSPost2010Prop37
 90
       50
102
RTVSPost2010PropOp37
 70
     1
102
RTVSPost2010Prop38
140
0.0
102
RTVSPost2010PropOp38
 70
     1
102
RTVSPost2010Prop39
140
1.0
102
RTVSPost2010PropOp39
 70
     1
102
RTVSPost2010Prop40
 90
        0
102
RTVSPost2010PropOp40
 70
     1
102
RTVSPost2010Prop41ColorIndex
 90
       18
102
RTVSPost2010Prop41ColorRGB
 90
        0
102
RTVSPost2010PropOp41
 70
     1
102
RTVSPost2010Prop42
 90
       50
102
RTVSPost2010PropOp42
 70
     1
102
RTVSPost2010Prop43
 90
        3
102
RTVSPost2010PropOp43
 70
     1
102
RTVSPost2010Prop44ColorIndex
 90
        5
102
RTVSPost2010Prop44ColorRGB
 90
      255
102
RTVSPost2010PropOp44
 70
     1
102
RTVSPost2010Prop45
280
     0
102
RTVSPost2010PropOp45
 70
     1
102
RTVSPost2010Prop46
 90
       50
102
RTVSPost2010PropOp46
 70
     1
102
RTVSPost2010Prop47
 90
       50
102
RTVSPost2010PropOp47
 70
     1
102
RTVSPost2010Prop48
 90
       50
102
RTVSPost2010PropOp48
 70
     1
102
RTVSPost2010Prop49
280
     0
102
RTVSPost2010PropOp49
 70
     1
102
RTVSPost2010Prop50
 90
       50
102
RTVSPost2010PropOp50
 70
     1
102
RTVSPost2010Prop51ColorIndex
 90
      256
102
RTVSPost2010Prop51ColorRGB
 90
-16777216
102
RTVSPost2010PropOp51
 70
     0
102
RTVSPost2010Prop52
140
1.0
102
RTVSPost2010PropOp52
 70
     0
102
RTVSPost2010Prop53
 90
        2
102
RTVSPost2010PropOp53
 70
     1
102
RTVSPost2010Prop54
  1
strokes_ogs.tif
102
RTVSPost2010PropOp54
 70
     1
102
RTVSPost2010Prop55
280
     0
102
RTVSPost2010PropOp55
 70
     1
102
RTVSPost2010Prop56
140
1.0
102
RTVSPost2010PropOp56
 70
     1
102
RTVSPost2010Prop57
140
1.0
102
RTVSPost2010PropOp57
 70
     1
102
RTVSPropertyOp0
 70
     1
102
RTVSPropertyOp1
 70
     1
102
RTVSPropertyOp2
 70
     1
102
RTVSPropertyOp3
 70
     1
102
RTVSPropertyOp4
 70
     1
102
RTVSPropertyOp5
 70
     1
102
RTVSPropertyOp6
 70
     1
102
RTVSPropertyOp7
 70
     1
102
RTVSPropertyOp8
 70
     1
102
RTVSPropertyOp9
 70
     1
102
RTVSPropertyOp10
 70
     1
102
RTVSPropertyOp11
 70
     1
102
RTVSPropertyOp12
 70
     1
102
RTVSPropertyOp13
 70
     1
102
RTVSPropertyOp14
 70
     1
102
RTVSPropertyOp15
 70
     1
102
RTVSPropertyOp16
 70
     1
102
RTVSPropertyOp17
 70
     1
102
RTVSPropertyOp18
 70
     1
102
RTVSPropertyOp19
 70
     1
102
RTVSPropertyOp20
 70
     1
102
RTVSPropertyOp21
 70
     1
102
RTVSPropertyOp22
 70
     1
102
RTVSPropertyOp23
 70
     1
102
RTVSPropertyOp24
 70
     1
102
RTVSPropertyOp25
 70
     1
102
RTVSPropertyOp26
 70
     1
102
RTVSPropertyOp27
 70
     1
102
RTVSPropertyOp28
 70
     1
102
RTVSPropertyOp29
 70
     1
102
RTVSPropertyOp30
 70
     1
102
RTVSPropertyOp31
 70
     1
102
RTVSPropertyOp32
 70
     1
102
RTVSPropertyOp33
 70
     1
102
RTVSPropertyOp34
 70
     1
102
RTVSPropertyOp35
 70
     1
102
RTVSPropertyOp36
 70
     1
102
RTVSPropertyOp37
 70
     1
102
RTVSPropertyOp38
 70
     1
102
RTVSPropertyOp39
 70
     1
102
RTVSPropertyOp40
 70
     1
102
RTVSPropertyOp41
 70
     1
102
RTVSPropertyOp42
 70
     1
102
RTVSPropertyOp43
 70
     1
102
RTVSPropertyOp44
 70
     1
102
RTVSPropertyOp45
 70
     1
102
RTVSPropertyOp46
 70
     1
102
RTVSPropertyOp47
 70
     1
102
RTVSPropertyOp48
 70
     1
102
RTVSPropertyOp49
 70
     1
102
RTVSPropertyOp50
 70
     1
102
RTVSPropertyOp51
 70
     0
102
RTVSPropertyOp52
 70
     0
102
RTVSPropertyOp53
 70
     1
102
RTVSPropertyOp54
 70
     1
102
RTVSPropertyOp55
 70
     1
102
RTVSPropertyOp56
 70
     1
102
RTVSPropertyOp57
 70
     1
102
RTVSPropertyOp58
 70
     1
102
RTVSPropertyOp59
 70
     1
102
RTVSPropertyOp60
 70
     1
102
RTVSPropertyOp61
 70
     1
102
RTVSPropertyOp62
 70
     1
  0
XRECORD
  5
1110
102
{ACAD_REACTORS
330
110F
102
}
330
110F
100
AcDbXrecord
280
     1
102
RTVSPost2010Prop28
280
     0
102
RTVSPost2010PropOp28
 70
     1
102
RTVSPost2010Prop29
280
     1
102
RTVSPost2010PropOp29
 70
     1
102
RTVSPost2010Prop30
280
     1
102
RTVSPost2010PropOp30
 70
     1
102
RTVSPost2010Prop31
280
     0
102
RTVSPost2010PropOp31
 70
     1
102
RTVSPost2010Prop32
280
     0
102
RTVSPost2010PropOp32
 70
     1
102
RTVSPost2010Prop33
280
     0
102
RTVSPost2010PropOp33
 70
     1
102
RTVSPost2010Prop34
280
     0
102
RTVSPost2010PropOp34
 70
     1
102
RTVSPost2010Prop35
280
     0
102
RTVSPost2010PropOp35
 70
     1
102
RTVSPost2010Prop36
280
     0
102
RTVSPost2010PropOp36
 70
     1
102
RTVSPost2010Prop37
 90
       50
102
RTVSPost2010PropOp37
 70
     1
102
RTVSPost2010Prop38
140
0.0
102
RTVSPost2010PropOp38
 70
     1
102
RTVSPost2010Prop39
140
1.0
102
RTVSPost2010PropOp39
 70
     1
102
RTVSPost2010Prop40
 90
        0
102
RTVSPost2010PropOp40
 70
     1
102
RTVSPost2010Prop41ColorIndex
 90
       18
102
RTVSPost2010Prop41ColorRGB
 90
        0
102
RTVSPost2010PropOp41
 70
     1
102
RTVSPost2010Prop42
 90
       50
102
RTVSPost2010PropOp42
 70
     1
102
RTVSPost2010Prop43
 90
        3
102
RTVSPost2010PropOp43
 70
     1
102
RTVSPost2010Prop44ColorIndex
 90
        5
102
RTVSPost2010Prop44ColorRGB
 90
      255
102
RTVSPost2010PropOp44
 70
     1
102
RTVSPost2010Prop45
280
     0
102
RTVSPost2010PropOp45
 70
     1
102
RTVSPost2010Prop46
 90
       50
102
RTVSPost2010PropOp46
 70
     1
102
RTVSPost2010Prop47
 90
       50
102
RTVSPost2010PropOp47
 70
     1
102
RTVSPost2010Prop48
 90
       50
102
RTVSPost2010PropOp48
 70
     1
102
RTVSPost2010Prop49
280
     0
102
RTVSPost2010PropOp49
 70
     1
102
RTVSPost2010Prop50
 90
       50
102
RTVSPost2010PropOp50
 70
     1
102
RTVSPost2010Prop51ColorIndex
 90
      256
102
RTVSPost2010Prop51ColorRGB
 90
-16777216
102
RTVSPost2010PropOp51
 70
     0
102
RTVSPost2010Prop52
140
1.0
102
RTVSPost2010PropOp52
 70
     0
102
RTVSPost2010Prop53
 90
        2
102
RTVSPost2010PropOp53
 70
     1
102
RTVSPost2010Prop54
  1
strokes_ogs.tif
102
RTVSPost2010PropOp54
 70
     1
102
RTVSPost2010Prop55
280
     0
102
RTVSPost2010PropOp55
 70
     1
102
RTVSPost2010Prop56
140
1.0
102
RTVSPost2010PropOp56
 70
     1
102
RTVSPost2010Prop57
140
1.0
102
RTVSPost2010PropOp57
 70
     1
102
RTVSPropertyOp0
 70
     1
102
RTVSPropertyOp1
 70
     1
102
RTVSPropertyOp2
 70
     1
102
RTVSPropertyOp3
 70
     1
102
RTVSPropertyOp4
 70
     1
102
RTVSPropertyOp5
 70
     1
102
RTVSPropertyOp6
 70
     1
102
RTVSPropertyOp7
 70
     1
102
RTVSPropertyOp8
 70
     1
102
RTVSPropertyOp9
 70
     1
102
RTVSPropertyOp10
 70
     1
102
RTVSPropertyOp11
 70
     1
102
RTVSPropertyOp12
 70
     1
102
RTVSPropertyOp13
 70
     1
102
RTVSPropertyOp14
 70
     1
102
RTVSPropertyOp15
 70
     1
102
RTVSPropertyOp16
 70
     1
102
RTVSPropertyOp17
 70
     1
102
RTVSPropertyOp18
 70
     1
102
RTVSPropertyOp19
 70
     1
102
RTVSPropertyOp20
 70
     1
102
RTVSPropertyOp21
 70
     1
102
RTVSPropertyOp22
 70
     1
102
RTVSPropertyOp23
 70
     1
102
RTVSPropertyOp24
 70
     1
102
RTVSPropertyOp25
 70
     1
102
RTVSPropertyOp26
 70
     1
102
RTVSPropertyOp27
 70
     1
102
RTVSPropertyOp28
 70
     1
102
RTVSPropertyOp29
 70
     1
102
RTVSPropertyOp30
 70
     1
102
RTVSPropertyOp31
 70
     1
102
RTVSPropertyOp32
 70
     1
102
RTVSPropertyOp33
 70
     1
102
RTVSPropertyOp34
 70
     1
102
RTVSPropertyOp35
 70
     1
102
RTVSPropertyOp36
 70
     1
102
RTVSPropertyOp37
 70
     1
102
RTVSPropertyOp38
 70
     1
102
RTVSPropertyOp39
 70
     1
102
RTVSPropertyOp40
 70
     1
102
RTVSPropertyOp41
 70
     1
102
RTVSPropertyOp42
 70
     1
102
RTVSPropertyOp43
 70
     1
102
RTVSPropertyOp44
 70
     1
102
RTVSPropertyOp45
 70
     1
102
RTVSPropertyOp46
 70
     1
102
RTVSPropertyOp47
 70
     1
102
RTVSPropertyOp48
 70
     1
102
RTVSPropertyOp49
 70
     1
102
RTVSPropertyOp50
 70
     1
102
RTVSPropertyOp51
 70
     0
102
RTVSPropertyOp52
 70
     0
102
RTVSPropertyOp53
 70
     1
102
RTVSPropertyOp54
 70
     1
102
RTVSPropertyOp55
 70
     1
102
RTVSPropertyOp56
 70
     1
102
RTVSPropertyOp57
 70
     1
102
RTVSPropertyOp58
 70
     1
102
RTVSPropertyOp59
 70
     1
102
RTVSPropertyOp60
 70
     1
102
RTVSPropertyOp61
 70
     1
102
RTVSPropertyOp62
 70
     1
  0
XRECORD
  5
1106
102
{ACAD_REACTORS
330
1105
102
}
330
1105
100
AcDbXrecord
280
     1
102
RTVSPost2010Prop28
280
     0
102
RTVSPost2010PropOp28
 70
     1
102
RTVSPost2010Prop29
280
     1
102
RTVSPost2010PropOp29
 70
     1
102
RTVSPost2010Prop30
280
     1
102
RTVSPost2010PropOp30
 70
     1
102
RTVSPost2010Prop31
280
     0
102
RTVSPost2010PropOp31
 70
     1
102
RTVSPost2010Prop32
280
     0
102
RTVSPost2010PropOp32
 70
     1
102
RTVSPost2010Prop33
280
     0
102
RTVSPost2010PropOp33
 70
     1
102
RTVSPost2010Prop34
280
     0
102
RTVSPost2010PropOp34
 70
     1
102
RTVSPost2010Prop35
280
     0
102
RTVSPost2010PropOp35
 70
     1
102
RTVSPost2010Prop36
280
     0
102
RTVSPost2010PropOp36
 70
     1
102
RTVSPost2010Prop37
 90
       50
102
RTVSPost2010PropOp37
 70
     1
102
RTVSPost2010Prop38
140
0.0
102
RTVSPost2010PropOp38
 70
     1
102
RTVSPost2010Prop39
140
1.0
102
RTVSPost2010PropOp39
 70
     1
102
RTVSPost2010Prop40
 90
        0
102
RTVSPost2010PropOp40
 70
     1
102
RTVSPost2010Prop41ColorIndex
 90
       18
102
RTVSPost2010Prop41ColorRGB
 90
        0
102
RTVSPost2010PropOp41
 70
     1
102
RTVSPost2010Prop42
 90
       50
102
RTVSPost2010PropOp42
 70
     1
102
RTVSPost2010Prop43
 90
        3
102
RTVSPost2010PropOp43
 70
     1
102
RTVSPost2010Prop44ColorIndex
 90
        5
102
RTVSPost2010Prop44ColorRGB
 90
      255
102
RTVSPost2010PropOp44
 70
     1
102
RTVSPost2010Prop45
280
     0
102
RTVSPost2010PropOp45
 70
     1
102
RTVSPost2010Prop46
 90
       50
102
RTVSPost2010PropOp46
 70
     1
102
RTVSPost2010Prop47
 90
       50
102
RTVSPost2010PropOp47
 70
     1
102
RTVSPost2010Prop48
 90
       50
102
RTVSPost2010PropOp48
 70
     1
102
RTVSPost2010Prop49
280
     0
102
RTVSPost2010PropOp49
 70
     1
102
RTVSPost2010Prop50
 90
       50
102
RTVSPost2010PropOp50
 70
     1
102
RTVSPost2010Prop51ColorIndex
 90
      256
102
RTVSPost2010Prop51ColorRGB
 90
-16777216
102
RTVSPost2010PropOp51
 70
     0
102
RTVSPost2010Prop52
140
1.0
102
RTVSPost2010PropOp52
 70
     0
102
RTVSPost2010Prop53
 90
        2
102
RTVSPost2010PropOp53
 70
     1
102
RTVSPost2010Prop54
  1
strokes_ogs.tif
102
RTVSPost2010PropOp54
 70
     1
102
RTVSPost2010Prop55
280
     0
102
RTVSPost2010PropOp55
 70
     1
102
RTVSPost2010Prop56
140
1.0
102
RTVSPost2010PropOp56
 70
     1
102
RTVSPost2010Prop57
140
1.0
102
RTVSPost2010PropOp57
 70
     1
102
RTVSPropertyOp0
 70
     1
102
RTVSPropertyOp1
 70
     1
102
RTVSPropertyOp2
 70
     1
102
RTVSPropertyOp3
 70
     1
102
RTVSPropertyOp4
 70
     1
102
RTVSPropertyOp5
 70
     1
102
RTVSPropertyOp6
 70
     1
102
RTVSPropertyOp7
 70
     1
102
RTVSPropertyOp8
 70
     1
102
RTVSPropertyOp9
 70
     1
102
RTVSPropertyOp10
 70
     1
102
RTVSPropertyOp11
 70
     1
102
RTVSPropertyOp12
 70
     1
102
RTVSPropertyOp13
 70
     1
102
RTVSPropertyOp14
 70
     1
102
RTVSPropertyOp15
 70
     1
102
RTVSPropertyOp16
 70
     1
102
RTVSPropertyOp17
 70
     1
102
RTVSPropertyOp18
 70
     1
102
RTVSPropertyOp19
 70
     1
102
RTVSPropertyOp20
 70
     1
102
RTVSPropertyOp21
 70
     1
102
RTVSPropertyOp22
 70
     1
102
RTVSPropertyOp23
 70
     1
102
RTVSPropertyOp24
 70
     1
102
RTVSPropertyOp25
 70
     1
102
RTVSPropertyOp26
 70
     1
102
RTVSPropertyOp27
 70
     1
102
RTVSPropertyOp28
 70
     1
102
RTVSPropertyOp29
 70
     1
102
RTVSPropertyOp30
 70
     1
102
RTVSPropertyOp31
 70
     1
102
RTVSPropertyOp32
 70
     1
102
RTVSPropertyOp33
 70
     1
102
RTVSPropertyOp34
 70
     1
102
RTVSPropertyOp35
 70
     1
102
RTVSPropertyOp36
 70
     1
102
RTVSPropertyOp37
 70
     1
102
RTVSPropertyOp38
 70
     1
102
RTVSPropertyOp39
 70
     1
102
RTVSPropertyOp40
 70
     1
102
RTVSPropertyOp41
 70
     1
102
RTVSPropertyOp42
 70
     1
102
RTVSPropertyOp43
 70
     1
102
RTVSPropertyOp44
 70
     1
102
RTVSPropertyOp45
 70
     1
102
RTVSPropertyOp46
 70
     1
102
RTVSPropertyOp47
 70
     1
102
RTVSPropertyOp48
 70
     1
102
RTVSPropertyOp49
 70
     1
102
RTVSPropertyOp50
 70
     1
102
RTVSPropertyOp51
 70
     0
102
RTVSPropertyOp52
 70
     0
102
RTVSPropertyOp53
 70
     1
102
RTVSPropertyOp54
 70
     1
102
RTVSPropertyOp55
 70
     1
102
RTVSPropertyOp56
 70
     1
102
RTVSPropertyOp57
 70
     1
102
RTVSPropertyOp58
 70
     1
102
RTVSPropertyOp59
 70
     1
102
RTVSPropertyOp60
 70
     1
102
RTVSPropertyOp61
 70
     1
102
RTVSPropertyOp62
 70
     1
  0
XRECORD
  5
10FA
102
{ACAD_REACTORS
330
10F9
102
}
330
10F9
100
AcDbXrecord
280
     1
102
RTVSPost2010Prop28
280
     0
102
RTVSPost2010PropOp28
 70
     1
102
RTVSPost2010Prop29
280
     1
102
RTVSPost2010PropOp29
 70
     1
102
RTVSPost2010Prop30
280
     1
102
RTVSPost2010PropOp30
 70
     1
102
RTVSPost2010Prop31
280
     0
102
RTVSPost2010PropOp31
 70
     1
102
RTVSPost2010Prop32
280
     0
102
RTVSPost2010PropOp32
 70
     1
102
RTVSPost2010Prop33
280
     0
102
RTVSPost2010PropOp33
 70
     1
102
RTVSPost2010Prop34
280
     0
102
RTVSPost2010PropOp34
 70
     1
102
RTVSPost2010Prop35
280
     0
102
RTVSPost2010PropOp35
 70
     1
102
RTVSPost2010Prop36
280
     0
102
RTVSPost2010PropOp36
 70
     1
102
RTVSPost2010Prop37
 90
       50
102
RTVSPost2010PropOp37
 70
     1
102
RTVSPost2010Prop38
140
0.0
102
RTVSPost2010PropOp38
 70
     1
102
RTVSPost2010Prop39
140
1.0
102
RTVSPost2010PropOp39
 70
     1
102
RTVSPost2010Prop40
 90
        0
102
RTVSPost2010PropOp40
 70
     1
102
RTVSPost2010Prop41ColorIndex
 90
       18
102
RTVSPost2010Prop41ColorRGB
 90
        0
102
RTVSPost2010PropOp41
 70
     1
102
RTVSPost2010Prop42
 90
       50
102
RTVSPost2010PropOp42
 70
     1
102
RTVSPost2010Prop43
 90
        3
102
RTVSPost2010PropOp43
 70
     1
102
RTVSPost2010Prop44ColorIndex
 90
        5
102
RTVSPost2010Prop44ColorRGB
 90
      255
102
RTVSPost2010PropOp44
 70
     1
102
RTVSPost2010Prop45
280
     0
102
RTVSPost2010PropOp45
 70
     1
102
RTVSPost2010Prop46
 90
       50
102
RTVSPost2010PropOp46
 70
     1
102
RTVSPost2010Prop47
 90
       50
102
RTVSPost2010PropOp47
 70
     1
102
RTVSPost2010Prop48
 90
       50
102
RTVSPost2010PropOp48
 70
     1
102
RTVSPost2010Prop49
280
     0
102
RTVSPost2010PropOp49
 70
     1
102
RTVSPost2010Prop50
 90
       50
102
RTVSPost2010PropOp50
 70
     1
102
RTVSPost2010Prop51ColorIndex
 90
      256
102
RTVSPost2010Prop51ColorRGB
 90
-16777216
102
RTVSPost2010PropOp51
 70
     0
102
RTVSPost2010Prop52
140
1.0
102
RTVSPost2010PropOp52
 70
     0
102
RTVSPost2010Prop53
 90
        2
102
RTVSPost2010PropOp53
 70
     1
102
RTVSPost2010Prop54
  1
strokes_ogs.tif
102
RTVSPost2010PropOp54
 70
     1
102
RTVSPost2010Prop55
280
     0
102
RTVSPost2010PropOp55
 70
     1
102
RTVSPost2010Prop56
140
1.0
102
RTVSPost2010PropOp56
 70
     1
102
RTVSPost2010Prop57
140
1.0
102
RTVSPost2010PropOp57
 70
     1
102
RTVSPropertyOp0
 70
     1
102
RTVSPropertyOp1
 70
     1
102
RTVSPropertyOp2
 70
     1
102
RTVSPropertyOp3
 70
     1
102
RTVSPropertyOp4
 70
     1
102
RTVSPropertyOp5
 70
     1
102
RTVSPropertyOp6
 70
     1
102
RTVSPropertyOp7
 70
     1
102
RTVSPropertyOp8
 70
     1
102
RTVSPropertyOp9
 70
     1
102
RTVSPropertyOp10
 70
     1
102
RTVSPropertyOp11
 70
     1
102
RTVSPropertyOp12
 70
     1
102
RTVSPropertyOp13
 70
     1
102
RTVSPropertyOp14
 70
     1
102
RTVSPropertyOp15
 70
     1
102
RTVSPropertyOp16
 70
     1
102
RTVSPropertyOp17
 70
     1
102
RTVSPropertyOp18
 70
     1
102
RTVSPropertyOp19
 70
     1
102
RTVSPropertyOp20
 70
     1
102
RTVSPropertyOp21
 70
     1
102
RTVSPropertyOp22
 70
     1
102
RTVSPropertyOp23
 70
     1
102
RTVSPropertyOp24
 70
     1
102
RTVSPropertyOp25
 70
     1
102
RTVSPropertyOp26
 70
     1
102
RTVSPropertyOp27
 70
     1
102
RTVSPropertyOp28
 70
     1
102
RTVSPropertyOp29
 70
     1
102
RTVSPropertyOp30
 70
     1
102
RTVSPropertyOp31
 70
     1
102
RTVSPropertyOp32
 70
     1
102
RTVSPropertyOp33
 70
     1
102
RTVSPropertyOp34
 70
     1
102
RTVSPropertyOp35
 70
     1
102
RTVSPropertyOp36
 70
     1
102
RTVSPropertyOp37
 70
     1
102
RTVSPropertyOp38
 70
     1
102
RTVSPropertyOp39
 70
     1
102
RTVSPropertyOp40
 70
     1
102
RTVSPropertyOp41
 70
     1
102
RTVSPropertyOp42
 70
     1
102
RTVSPropertyOp43
 70
     1
102
RTVSPropertyOp44
 70
     1
102
RTVSPropertyOp45
 70
     1
102
RTVSPropertyOp46
 70
     1
102
RTVSPropertyOp47
 70
     1
102
RTVSPropertyOp48
 70
     1
102
RTVSPropertyOp49
 70
     1
102
RTVSPropertyOp50
 70
     1
102
RTVSPropertyOp51
 70
     0
102
RTVSPropertyOp52
 70
     0
102
RTVSPropertyOp53
 70
     1
102
RTVSPropertyOp54
 70
     1
102
RTVSPropertyOp55
 70
     1
102
RTVSPropertyOp56
 70
     1
102
RTVSPropertyOp57
 70
     1
102
RTVSPropertyOp58
 70
     1
102
RTVSPropertyOp59
 70
     1
102
RTVSPropertyOp60
 70
     1
102
RTVSPropertyOp61
 70
     1
102
RTVSPropertyOp62
 70
     1
  0
XRECORD
  5
1112
102
{ACAD_REACTORS
330
1111
102
}
330
1111
100
AcDbXrecord
280
     1
102
RTVSPost2010Prop28
280
     0
102
RTVSPost2010PropOp28
 70
     1
102
RTVSPost2010Prop29
280
     1
102
RTVSPost2010PropOp29
 70
     1
102
RTVSPost2010Prop30
280
     1
102
RTVSPost2010PropOp30
 70
     1
102
RTVSPost2010Prop31
280
     0
102
RTVSPost2010PropOp31
 70
     1
102
RTVSPost2010Prop32
280
     0
102
RTVSPost2010PropOp32
 70
     1
102
RTVSPost2010Prop33
280
     0
102
RTVSPost2010PropOp33
 70
     1
102
RTVSPost2010Prop34
280
     0
102
RTVSPost2010PropOp34
 70
     1
102
RTVSPost2010Prop35
280
     0
102
RTVSPost2010PropOp35
 70
     1
102
RTVSPost2010Prop36
280
     0
102
RTVSPost2010PropOp36
 70
     1
102
RTVSPost2010Prop37
 90
       50
102
RTVSPost2010PropOp37
 70
     1
102
RTVSPost2010Prop38
140
0.0
102
RTVSPost2010PropOp38
 70
     1
102
RTVSPost2010Prop39
140
1.0
102
RTVSPost2010PropOp39
 70
     1
102
RTVSPost2010Prop40
 90
        0
102
RTVSPost2010PropOp40
 70
     1
102
RTVSPost2010Prop41ColorIndex
 90
       18
102
RTVSPost2010Prop41ColorRGB
 90
        0
102
RTVSPost2010PropOp41
 70
     1
102
RTVSPost2010Prop42
 90
       50
102
RTVSPost2010PropOp42
 70
     1
102
RTVSPost2010Prop43
 90
        3
102
RTVSPost2010PropOp43
 70
     1
102
RTVSPost2010Prop44ColorIndex
 90
        5
102
RTVSPost2010Prop44ColorRGB
 90
      255
102
RTVSPost2010PropOp44
 70
     1
102
RTVSPost2010Prop45
280
     0
102
RTVSPost2010PropOp45
 70
     1
102
RTVSPost2010Prop46
 90
       50
102
RTVSPost2010PropOp46
 70
     1
102
RTVSPost2010Prop47
 90
       50
102
RTVSPost2010PropOp47
 70
     1
102
RTVSPost2010Prop48
 90
       50
102
RTVSPost2010PropOp48
 70
     1
102
RTVSPost2010Prop49
280
     0
102
RTVSPost2010PropOp49
 70
     1
102
RTVSPost2010Prop50
 90
       50
102
RTVSPost2010PropOp50
 70
     1
102
RTVSPost2010Prop51ColorIndex
 90
      256
102
RTVSPost2010Prop51ColorRGB
 90
-16777216
102
RTVSPost2010PropOp51
 70
     0
102
RTVSPost2010Prop52
140
1.0
102
RTVSPost2010PropOp52
 70
     0
102
RTVSPost2010Prop53
 90
        2
102
RTVSPost2010PropOp53
 70
     1
102
RTVSPost2010Prop54
  1
strokes_ogs.tif
102
RTVSPost2010PropOp54
 70
     1
102
RTVSPost2010Prop55
280
     0
102
RTVSPost2010PropOp55
 70
     1
102
RTVSPost2010Prop56
140
1.0
102
RTVSPost2010PropOp56
 70
     1
102
RTVSPost2010Prop57
140
1.0
102
RTVSPost2010PropOp57
 70
     1
102
RTVSPropertyOp0
 70
     1
102
RTVSPropertyOp1
 70
     1
102
RTVSPropertyOp2
 70
     1
102
RTVSPropertyOp3
 70
     1
102
RTVSPropertyOp4
 70
     1
102
RTVSPropertyOp5
 70
     1
102
RTVSPropertyOp6
 70
     1
102
RTVSPropertyOp7
 70
     1
102
RTVSPropertyOp8
 70
     1
102
RTVSPropertyOp9
 70
     1
102
RTVSPropertyOp10
 70
     1
102
RTVSPropertyOp11
 70
     1
102
RTVSPropertyOp12
 70
     1
102
RTVSPropertyOp13
 70
     1
102
RTVSPropertyOp14
 70
     1
102
RTVSPropertyOp15
 70
     1
102
RTVSPropertyOp16
 70
     1
102
RTVSPropertyOp17
 70
     1
102
RTVSPropertyOp18
 70
     1
102
RTVSPropertyOp19
 70
     1
102
RTVSPropertyOp20
 70
     1
102
RTVSPropertyOp21
 70
     1
102
RTVSPropertyOp22
 70
     1
102
RTVSPropertyOp23
 70
     1
102
RTVSPropertyOp24
 70
     1
102
RTVSPropertyOp25
 70
     1
102
RTVSPropertyOp26
 70
     1
102
RTVSPropertyOp27
 70
     1
102
RTVSPropertyOp28
 70
     1
102
RTVSPropertyOp29
 70
     1
102
RTVSPropertyOp30
 70
     1
102
RTVSPropertyOp31
 70
     1
102
RTVSPropertyOp32
 70
     1
102
RTVSPropertyOp33
 70
     1
102
RTVSPropertyOp34
 70
     1
102
RTVSPropertyOp35
 70
     1
102
RTVSPropertyOp36
 70
     1
102
RTVSPropertyOp37
 70
     1
102
RTVSPropertyOp38
 70
     1
102
RTVSPropertyOp39
 70
     1
102
RTVSPropertyOp40
 70
     1
102
RTVSPropertyOp41
 70
     1
102
RTVSPropertyOp42
 70
     1
102
RTVSPropertyOp43
 70
     1
102
RTVSPropertyOp44
 70
     1
102
RTVSPropertyOp45
 70
     1
102
RTVSPropertyOp46
 70
     1
102
RTVSPropertyOp47
 70
     1
102
RTVSPropertyOp48
 70
     1
102
RTVSPropertyOp49
 70
     1
102
RTVSPropertyOp50
 70
     1
102
RTVSPropertyOp51
 70
     0
102
RTVSPropertyOp52
 70
     0
102
RTVSPropertyOp53
 70
     1
102
RTVSPropertyOp54
 70
     1
102
RTVSPropertyOp55
 70
     1
102
RTVSPropertyOp56
 70
     1
102
RTVSPropertyOp57
 70
     1
102
RTVSPropertyOp58
 70
     1
102
RTVSPropertyOp59
 70
     1
102
RTVSPropertyOp60
 70
     1
102
RTVSPropertyOp61
 70
     1
102
RTVSPropertyOp62
 70
     1
  0
ENDSEC
  0
EOF
