0
SECTION
2
HEADER
9
$ACADVER
1
AC1015
9
$DWGCODEPAGE
3
ANSI_1252
9
$HANDSEED
5
326
9
$ANGBASE
50
0
9
$ANGDIR
70
0
9
$ATTMODE
70
1
9
$AUNITS
70
0
9
$AUPREC
70
0
9
$CECOLOR
62
256
9
$CELTSCALE
40
1
9
$CELTYPE
6
ByLayer
9
$CELWEIGHT
370
-1
9
$CLAYER
8
0
9
$CMLJUST
70
0
9
$CMLSCALE
40
1
9
$CMLSTYLE
2
Standard
9
$DIMSTYLE
2
Standard
9
$TEXTSIZE
40
0.2
9
$TEXTSTYLE
7
Standard
9
$LUNITS
70
2
9
$LUPREC
70
4
9
$EXTNAMES
290
1
9
$INSUNITS
70
4
9
$LTSCALE
40
1
9
$LWDISPLAY
290
0
9
$PDMODE
70
0
9
$PDSIZE
40
0
9
$PLINEGEN
70
0
0
ENDSEC
0
SECTION
2
CLASSES
0
CLASS
1
RASTERVARIABLES
2
AcDbRasterVariables
3
ISM
90
0
280
0
281
0
0
ENDSEC
0
SECTION
2
TABLES
0
TABLE
2
VPORT
5
31c
100
AcDbSymbolTable
0
VPORT
5
1
100
AcDbSymbolTableRecord
100
AcDbViewportTableRecord
2
*Active
70
0
10
0
20
0
11
1
21
1
12
-1
22
1
13
0
23
0
14
0.5
24
0.5
15
10
25
10
16
0
26
0
36
1
17
0
27
0
37
0
0
ENDTAB
0
TABLE
2
LTYPE
5
31d
100
AcDbSymbolTable
0
LTYPE
5
14
100
AcDbSymbolTableRecord
100
AcDbLinetypeTableRecord
70
0
2
ByBlock
3

72
65
73
0
40
0
0
LTYPE
5
15
100
AcDbSymbolTableRecord
100
AcDbLinetypeTableRecord
70
0
2
ByLayer
3

72
65
73
0
40
0
0
LTYPE
5
16
100
AcDbSymbolTableRecord
100
AcDbLinetypeTableRecord
70
0
2
CONTINUOUS
3
Solid line
72
65
73
0
40
0
0
LTYPE
5
3B
100
AcDbSymbolTableRecord
100
AcDbLinetypeTableRecord
70
0
2
DASHED
3
__ __ __ __ __ __ __ __ __
72
65
73
2
40
25.72
49
12.86
74
0
49
-12.86
74
0
0
LTYPE
5
3C
100
AcDbSymbolTableRecord
100
AcDbLinetypeTableRecord
70
0
2
HIDDEN
3
_ _ _ _ _ _ _ _ _ _ _ _ _ _ _
72
65
73
2
40
0.5
49
0.25
74
0
49
-0.25
74
0
0
LTYPE
5
3D
100
AcDbSymbolTableRecord
100
AcDbLinetypeTableRecord
70
0
2
PHANTOM
3
____ _ _ ____ _ _ _____ _ _ ____
72
65
73
6
40
50.5
49
18
74
0
49
-6.5
74
0
49
6.5
74
0
49
-6.5
74
0
49
6.5
74
0
49
-6.5
74
0
0
LTYPE
5
3E
100
AcDbSymbolTableRecord
100
AcDbLinetypeTableRecord
70
0
2
CENTER
3
____ _ ____ _ ____ _ ____
72
65
73
4
40
47.5
49
22
74
0
49
-8.5
74
0
49
8.5
74
0
49
-8.5
74
0
0
LTYPE
5
3F
100
AcDbSymbolTableRecord
100
AcDbLinetypeTableRecord
70
0
2
DOT
3
.........................
72
65
73
2
40
10
49
0
74
0
49
-10
74
0
0
LTYPE
5
40
100
AcDbSymbolTableRecord
100
AcDbLinetypeTableRecord
70
0
2
DASHDOT
3
_._._._._._._._._._._._._._._._.
72
65
73
4
40
70
49
31
74
0
49
-13
74
0
49
13
74
0
49
-13
74
0
0
ENDTAB
0
TABLE
2
LAYER
5
31e
100
AcDbSymbolTable
0
LAYER
5
10
100
AcDbSymbolTableRecord
100
AcDbLayerTableRecord
2
0
70
0
62
7
6
CONTINUOUS
290
1
370
-3
390
0
0
LAYER
5
42
100
AcDbSymbolTableRecord
100
AcDbLayerTableRecord
2
2
70
0
62
7
6
CONTINUOUS
290
1
370
-3
390
0
0
LAYER
5
44
100
AcDbSymbolTableRecord
100
AcDbLayerTableRecord
2
80
70
0
62
-6
6
CONTINUOUS
290
1
370
-3
390
0
0
LAYER
5
46
100
AcDbSymbolTableRecord
100
AcDbLayerTableRecord
2
1
70
0
62
4
6
CONTINUOUS
290
1
370
-3
390
0
0
LAYER
5
4A
100
AcDbSymbolTableRecord
100
AcDbLayerTableRecord
2
81
70
0
62
-3
6
CONTINUOUS
290
1
370
-3
390
0
0
LAYER
5
6B
100
AcDbSymbolTableRecord
100
AcDbLayerTableRecord
2
4
70
0
62
-2
6
CENTER
290
1
370
-3
390
0
0
LAYER
5
308
100
AcDbSymbolTableRecord
100
AcDbLayerTableRecord
2
SK1
70
0
62
4
6
CONTINUOUS
290
1
370
-3
390
0
0
LAYER
5
309
100
AcDbSymbolTableRecord
100
AcDbLayerTableRecord
2
SK4
70
0
62
2
6
CENTER
290
1
370
-3
390
0
0
LAYER
5
30a
100
AcDbSymbolTableRecord
100
AcDbLayerTableRecord
2
SK6
70
0
62
5
6
CONTINUOUS
290
1
370
-3
390
0
0
LAYER
5
30b
100
AcDbSymbolTableRecord
100
AcDbLayerTableRecord
2
SK2
70
0
62
7
6
CONTINUOUS
290
1
370
-3
390
0
0
ENDTAB
0
TABLE
2
STYLE
5
31f
100
AcDbSymbolTable
0
STYLE
5
11
100
AcDbSymbolTableRecord
100
AcDbTextStyleTableRecord
2
Standard
3
txt
70
0
71
0
40
0
41
1
42
0
50
0
0
STYLE
5
284
100
AcDbSymbolTableRecord
100
AcDbTextStyleTableRecord
2
DEFAULT
3
simplex.shx
70
0
71
0
40
0
41
1
42
0
50
0
0
STYLE
5
2A7
100
AcDbSymbolTableRecord
100
AcDbTextStyleTableRecord
2
DWGDirectTextStyle
3
SIMPLEX
70
0
71
0
40
0
41
1
42
0
50
0
0
ENDTAB
0
TABLE
2
DIMSTYLE
5
320
100
AcDbSymbolTable
100
AcDbDimStyleTable
0
DIMSTYLE
105
27
100
AcDbSymbolTableRecord
100
AcDbDimStyleTableRecord
2
Standard
70
0
3
<>
41
0.18
42
0.0625
44
0.18
140
0.18
147
0.09
73
0
74
0
77
1
271
2
275
0
278
52
280
0
340
11
0
ENDTAB
0
TABLE
2
VIEW
5
321
100
AcDbSymbolTable
0
ENDTAB
0
TABLE
2
UCS
5
322
100
AcDbSymbolTable
0
ENDTAB
0
TABLE
2
APPID
5
323
100
AcDbSymbolTable
0
APPID
5
12
100
AcDbSymbolTableRecord
100
AcDbRegAppTableRecord
2
ACAD
70
0
0
ENDTAB
0
TABLE
2
BLOCK_RECORD
5
324
100
AcDbSymbolTable
0
BLOCK_RECORD
5
1F
100
AcDbSymbolTableRecord
100
AcDbBlockTableRecord
2
*Model_Space
340
0
70
0
0
BLOCK_RECORD
5
1B
100
AcDbSymbolTableRecord
100
AcDbBlockTableRecord
2
*Paper_Space
340
0
70
0
0
BLOCK_RECORD
5
23
100
AcDbSymbolTableRecord
100
AcDbBlockTableRecord
2
*Paper_Space0
340
0
70
0
0
BLOCK_RECORD
5
2A9
100
AcDbSymbolTableRecord
100
AcDbBlockTableRecord
2
DimnDraft3D1
340
0
70
0
0
BLOCK_RECORD
5
2B7
100
AcDbSymbolTableRecord
100
AcDbBlockTableRecord
2
_CLOSED
340
0
70
0
0
BLOCK_RECORD
5
2BE
100
AcDbSymbolTableRecord
100
AcDbBlockTableRecord
2
DimnDraft3D2
340
0
70
0
0
BLOCK_RECORD
5
2CD
100
AcDbSymbolTableRecord
100
AcDbBlockTableRecord
2
DimnDraft3D3
340
0
70
0
0
BLOCK_RECORD
5
2DB
100
AcDbSymbolTableRecord
100
AcDbBlockTableRecord
2
DimnDraft3D4
340
0
70
0
0
ENDTAB
0
ENDSEC
0
SECTION
2
BLOCKS
0
BLOCK
5
20
100
AcDbEntity
8
0
100
AcDbBlockBegin
2
*Model_Space
70
0
10
0
20
0
30
0
3
*Model_Space
0
ENDBLK
5
21
100
AcDbEntity
8
0
100
AcDbBlockEnd
0
BLOCK
5
1C
100
AcDbEntity
8
0
100
AcDbBlockBegin
2
*Paper_Space
70
0
10
0
20
0
30
0
3
*Paper_Space
0
ENDBLK
5
1D
100
AcDbEntity
8
0
100
AcDbBlockEnd
0
BLOCK
5
24
100
AcDbEntity
8
0
100
AcDbBlockBegin
2
*Paper_Space0
70
0
10
0
20
0
30
0
3
*Paper_Space0
0
ENDBLK
5
25
100
AcDbEntity
8
0
100
AcDbBlockEnd
0
BLOCK
5
2B4
100
AcDbEntity
8
0
100
AcDbBlockBegin
2
DimnDraft3D1
70
0
10
0
20
0
30
0
3
DimnDraft3D1
0
MTEXT
5
2AA
100
AcDbEntity
8
2
62
256
6
ByLayer
370
-1
48
1
60
0
100
AcDbMText
10
113.055
20
7.496053
30
0
210
0
220
0
230
1
1
\W01.000;\fsimplex.shx,bigfont.shx;17 
40
4.5
41
0
44
1.084337
50
90
71
7
72
5
7
DEFAULT
0
LINE
5
2AB
100
AcDbEntity
8
2
62
256
6
ByLayer
370
-1
48
1
60
0
100
AcDbLine
10
106.43
20
0
30
0
11
117.18
21
0
31
0
39
0
210
0
220
0
230
1
0
LINE
5
2AC
100
AcDbEntity
8
2
62
256
6
ByLayer
370
-1
48
1
60
0
100
AcDbLine
10
101.43
20
16.875
30
0
11
117.18
21
16.875
31
0
39
0
210
0
220
0
230
1
0
LINE
5
2AD
100
AcDbEntity
8
2
62
256
6
ByLayer
370
-1
48
1
60
0
100
AcDbLine
10
114.18
20
0
30
0
11
114.18
21
16.875
31
0
39
0
210
0
220
0
230
1
0
LINE
5
2AE
100
AcDbEntity
8
2
62
256
6
ByLayer
370
-1
48
1
60
0
100
AcDbLine
10
114.18
20
0
30
0
11
113.785043
21
2.999999
31
0
39
0
210
0
220
0
230
1
0
LINE
5
2AF
100
AcDbEntity
8
2
62
256
6
ByLayer
370
-1
48
1
60
0
100
AcDbLine
10
114.18
20
0
30
0
11
114.574957
21
3.000001
31
0
39
0
210
0
220
0
230
1
0
LINE
5
2B0
100
AcDbEntity
8
2
62
256
6
ByLayer
370
-1
48
1
60
0
100
AcDbLine
10
113.785043
20
2.999999
30
0
11
114.574957
21
3.000001
31
0
39
0
210
0
220
0
230
1
0
LINE
5
2B1
100
AcDbEntity
8
2
62
256
6
ByLayer
370
-1
48
1
60
0
100
AcDbLine
10
114.18
20
16.875
30
0
11
114.574957
21
13.875001
31
0
39
0
210
0
220
0
230
1
0
LINE
5
2B2
100
AcDbEntity
8
2
62
256
6
ByLayer
370
-1
48
1
60
0
100
AcDbLine
10
114.18
20
16.875
30
0
11
113.785043
21
13.874999
31
0
39
0
210
0
220
0
230
1
0
LINE
5
2B3
100
AcDbEntity
8
2
62
256
6
ByLayer
370
-1
48
1
60
0
100
AcDbLine
10
114.574957
20
13.875001
30
0
11
113.785043
21
13.874999
31
0
39
0
210
0
220
0
230
1
0
ENDBLK
5
2B5
100
AcDbEntity
8
0
100
AcDbBlockEnd
0
BLOCK
5
2B8
100
AcDbEntity
8
0
100
AcDbBlockBegin
2
_CLOSED
70
0
10
0
20
0
30
0
3
_CLOSED
0
LINE
5
2BA
100
AcDbEntity
8
0
62
256
6
ByLayer
370
-2
48
1
60
0
100
AcDbLine
10
-1
20
0.166667
30
0
11
0
21
0
31
0
39
0
210
0
220
0
230
1
0
LINE
5
2BB
100
AcDbEntity
8
0
62
256
6
ByLayer
370
-2
48
1
60
0
100
AcDbLine
10
0
20
0
30
0
11
-1
21
-0.166667
31
0
39
0
210
0
220
0
230
1
0
LINE
5
2BC
100
AcDbEntity
8
0
62
256
6
ByLayer
370
-2
48
1
60
0
100
AcDbLine
10
-1
20
0.166667
30
0
11
-1
21
-0.166667
31
0
39
0
210
0
220
0
230
1
0
LINE
5
2BD
100
AcDbEntity
8
0
62
256
6
ByLayer
370
-2
48
1
60
0
100
AcDbLine
10
0
20
0
30
0
11
-1
21
0
31
0
39
0
210
0
220
0
230
1
0
ENDBLK
5
2B9
100
AcDbEntity
8
0
100
AcDbBlockEnd
0
BLOCK
5
2CA
100
AcDbEntity
8
0
100
AcDbBlockBegin
2
DimnDraft3D2
70
0
10
0
20
0
30
0
3
DimnDraft3D2
0
MTEXT
5
2BF
100
AcDbEntity
8
SK2
62
256
6
ByLayer
370
-1
48
1
60
0
100
AcDbMText
10
-92.195
20
-3.659211
30
0
210
0
220
0
230
1
1
\W01.000;\fsimplex.shx,bigfont.shx;%%c25 
40
4.5
41
0
44
1.084337
50
90
71
7
72
5
7
DEFAULT
0
LINE
5
2C1
100
AcDbEntity
8
SK2
62
256
6
ByLayer
370
-1
48
1
60
0
100
AcDbLine
10
-82.82
20
12.49125
30
0
11
-94.07
21
12.49125
31
0
39
0
210
0
220
0
230
1
0
LINE
5
2C2
100
AcDbEntity
8
SK2
62
256
6
ByLayer
370
-1
48
1
60
0
100
AcDbLine
10
-82.82
20
-12.49125
30
0
11
-94.07
21
-12.49125
31
0
39
0
210
0
220
0
230
1
0
LINE
5
2C3
100
AcDbEntity
8
SK2
62
256
6
ByLayer
370
-1
48
1
60
0
100
AcDbLine
10
-91.07
20
12.49125
30
0
11
-91.07
21
-12.49125
31
0
39
0
210
0
220
0
230
1
0
LINE
5
2C4
100
AcDbEntity
8
SK2
62
256
6
ByLayer
370
-1
48
1
60
0
100
AcDbLine
10
-91.07
20
12.49125
30
0
11
-90.675043
21
9.491251
31
0
39
0
210
0
220
0
230
1
0
LINE
5
2C5
100
AcDbEntity
8
SK2
62
256
6
ByLayer
370
-1
48
1
60
0
100
AcDbLine
10
-91.07
20
12.49125
30
0
11
-91.464957
21
9.491249
31
0
39
0
210
0
220
0
230
1
0
LINE
5
2C6
100
AcDbEntity
8
SK2
62
256
6
ByLayer
370
-1
48
1
60
0
100
AcDbLine
10
-90.675043
20
9.491251
30
0
11
-91.464957
21
9.491249
31
0
39
0
210
0
220
0
230
1
0
LINE
5
2C7
100
AcDbEntity
8
SK2
62
256
6
ByLayer
370
-1
48
1
60
0
100
AcDbLine
10
-91.07
20
-12.49125
30
0
11
-91.464957
21
-9.491251
31
0
39
0
210
0
220
0
230
1
0
LINE
5
2C8
100
AcDbEntity
8
SK2
62
256
6
ByLayer
370
-1
48
1
60
0
100
AcDbLine
10
-91.07
20
-12.49125
30
0
11
-90.675043
21
-9.491249
31
0
39
0
210
0
220
0
230
1
0
LINE
5
2C9
100
AcDbEntity
8
SK2
62
256
6
ByLayer
370
-1
48
1
60
0
100
AcDbLine
10
-91.464957
20
-9.491251
30
0
11
-90.675043
21
-9.491249
31
0
39
0
210
0
220
0
230
1
0
ENDBLK
5
2CB
100
AcDbEntity
8
0
100
AcDbBlockEnd
0
BLOCK
5
2D8
100
AcDbEntity
8
0
100
AcDbBlockBegin
2
DimnDraft3D3
70
0
10
0
20
0
30
0
3
DimnDraft3D3
0
MTEXT
5
2CE
100
AcDbEntity
8
2
62
256
6
ByLayer
370
-1
48
1
60
0
100
AcDbMText
10
83.940958
20
27.75
30
0
210
0
220
0
230
1
1
\W01.000;\fsimplex.shx,bigfont.shx;29 
40
4.5
41
0
44
1.084337
50
0
71
7
72
5
7
DEFAULT
0
LINE
5
2CF
100
AcDbEntity
8
2
62
256
6
ByLayer
370
-1
48
1
60
0
100
AcDbLine
10
99.93
20
18.375
30
0
11
99.93
21
29.625
31
0
39
0
210
0
220
0
230
1
0
LINE
5
2D0
100
AcDbEntity
8
2
62
256
6
ByLayer
370
-1
48
1
60
0
100
AcDbLine
10
70.959812
20
18.375
30
0
11
70.959812
21
29.625
31
0
39
0
210
0
220
0
230
1
0
LINE
5
2D1
100
AcDbEntity
8
2
62
256
6
ByLayer
370
-1
48
1
60
0
100
AcDbLine
10
99.93
20
26.625
30
0
11
70.959812
21
26.625
31
0
39
0
210
0
220
0
230
1
0
LINE
5
2D2
100
AcDbEntity
8
2
62
256
6
ByLayer
370
-1
48
1
60
0
100
AcDbLine
10
99.93
20
26.625
30
0
11
96.930001
21
26.230043
31
0
39
0
210
0
220
0
230
1
0
LINE
5
2D3
100
AcDbEntity
8
2
62
256
6
ByLayer
370
-1
48
1
60
0
100
AcDbLine
10
99.93
20
26.625
30
0
11
96.929999
21
27.019957
31
0
39
0
210
0
220
0
230
1
0
LINE
5
2D4
100
AcDbEntity
8
2
62
256
6
ByLayer
370
-1
48
1
60
0
100
AcDbLine
10
96.930001
20
26.230043
30
0
11
96.929999
21
27.019957
31
0
39
0
210
0
220
0
230
1
0
LINE
5
2D5
100
AcDbEntity
8
2
62
256
6
ByLayer
370
-1
48
1
60
0
100
AcDbLine
10
70.959812
20
26.625
30
0
11
73.95981
21
27.019957
31
0
39
0
210
0
220
0
230
1
0
LINE
5
2D6
100
AcDbEntity
8
2
62
256
6
ByLayer
370
-1
48
1
60
0
100
AcDbLine
10
70.959812
20
26.625
30
0
11
73.959813
21
26.230043
31
0
39
0
210
0
220
0
230
1
0
LINE
5
2D7
100
AcDbEntity
8
2
62
256
6
ByLayer
370
-1
48
1
60
0
100
AcDbLine
10
73.95981
20
27.019957
30
0
11
73.959813
21
26.230043
31
0
39
0
210
0
220
0
230
1
0
ENDBLK
5
2D9
100
AcDbEntity
8
0
100
AcDbBlockEnd
0
BLOCK
5
2E6
100
AcDbEntity
8
0
100
AcDbBlockBegin
2
DimnDraft3D4
70
0
10
0
20
0
30
0
3
DimnDraft3D4
0
MTEXT
5
2DC
100
AcDbEntity
8
SK2
62
256
6
ByLayer
370
-1
48
1
60
0
100
AcDbMText
10
7.274079
20
37.75
30
0
210
0
220
0
230
1
1
\W01.000;\fsimplex.shx,bigfont.shx;181 
40
4.5
41
0
44
1.084337
50
0
71
7
72
5
7
DEFAULT
0
LINE
5
2DD
100
AcDbEntity
8
SK2
62
256
6
ByLayer
370
-1
48
1
60
0
100
AcDbLine
10
99.93
20
18.375
30
0
11
99.93
21
39.625
31
0
39
0
210
0
220
0
230
1
0
LINE
5
2DE
100
AcDbEntity
8
SK2
62
256
6
ByLayer
370
-1
48
1
60
0
100
AcDbLine
10
-81.32
20
1.5
30
0
11
-81.32
21
39.625
31
0
39
0
210
0
220
0
230
1
0
LINE
5
2DF
100
AcDbEntity
8
SK2
62
256
6
ByLayer
370
-1
48
1
60
0
100
AcDbLine
10
99.93
20
36.625
30
0
11
-81.32
21
36.625
31
0
39
0
210
0
220
0
230
1
0
LINE
5
2E0
100
AcDbEntity
8
SK2
62
256
6
ByLayer
370
-1
48
1
60
0
100
AcDbLine
10
99.93
20
36.625
30
0
11
96.930001
21
36.230043
31
0
39
0
210
0
220
0
230
1
0
LINE
5
2E1
100
AcDbEntity
8
SK2
62
256
6
ByLayer
370
-1
48
1
60
0
100
AcDbLine
10
99.93
20
36.625
30
0
11
96.929999
21
37.019957
31
0
39
0
210
0
220
0
230
1
0
LINE
5
2E2
100
AcDbEntity
8
SK2
62
256
6
ByLayer
370
-1
48
1
60
0
100
AcDbLine
10
96.930001
20
36.230043
30
0
11
96.929999
21
37.019957
31
0
39
0
210
0
220
0
230
1
0
LINE
5
2E3
100
AcDbEntity
8
SK2
62
256
6
ByLayer
370
-1
48
1
60
0
100
AcDbLine
10
-81.32
20
36.625
30
0
11
-78.320001
21
37.019957
31
0
39
0
210
0
220
0
230
1
0
LINE
5
2E4
100
AcDbEntity
8
SK2
62
256
6
ByLayer
370
-1
48
1
60
0
100
AcDbLine
10
-81.32
20
36.625
30
0
11
-78.319999
21
36.230043
31
0
39
0
210
0
220
0
230
1
0
LINE
5
2E5
100
AcDbEntity
8
SK2
62
256
6
ByLayer
370
-1
48
1
60
0
100
AcDbLine
10
-78.320001
20
37.019957
30
0
11
-78.319999
21
36.230043
31
0
39
0
210
0
220
0
230
1
0
ENDBLK
5
2E7
100
AcDbEntity
8
0
100
AcDbBlockEnd
0
ENDSEC
0
SECTION
2
ENTITIES
0
ARC
5
16A
100
AcDbEntity
8
1
62
256
6
ByLayer
370
-1
48
1
60
0
100
AcDbCircle
39
0
10
-71.174171
20
-12.975
30
0
40
0.800000000000006
210
0
220
0
230
-1
100
AcDbArc
50
60
51
90
0
ARC
5
16B
100
AcDbEntity
8
1
62
256
6
ByLayer
370
-1
48
1
60
0
100
AcDbCircle
39
0
10
-71.174171
20
12.975
30
0
40
0.800000000000006
210
0
220
0
230
-1
100
AcDbArc
50
270
51
300
0
ARC
5
16C
100
AcDbEntity
8
1
62
256
6
ByLayer
370
-1
48
1
60
0
100
AcDbCircle
39
0
10
-82.174171
20
-12.975
30
0
40
0.8
210
0
220
0
230
-1
100
AcDbArc
50
90
51
99.068722
0
ARC
5
16D
100
AcDbEntity
8
1
62
256
6
ByLayer
370
-1
48
1
60
0
100
AcDbCircle
39
0
10
-82.174171
20
12.975
30
0
40
0.8
210
0
220
0
230
-1
100
AcDbArc
50
220
51
270
0
ELLIPSE
5
16E
100
AcDbEntity
8
1
62
256
6
ByLayer
370
-1
48
1
60
0
100
AcDbEllipse
10
86.974877
20
8.530904
30
0
11
-1.64651197074761
21
0.107256010922554
31
0
210
0
220
0
230
1
40
0.965788
41
-1.49804507945723
42
1.50863681175326
0
ELLIPSE
5
16F
100
AcDbEntity
8
1
62
256
6
ByLayer
370
-1
48
1
60
0
100
AcDbEllipse
10
87.521913
20
16.272908
30
0
11
-1.63784993065399
21
-7.54195098416223
31
0
210
0
220
0
230
1
40
0.160744
41
0.24255771525506
42
0.653463957999614
0
ELLIPSE
5
170
100
AcDbEntity
8
1
62
256
6
ByLayer
370
-1
48
1
60
0
100
AcDbEllipse
10
88.138384
20
7.545324
30
0
11
-1.99502603335156
21
0.140964982352103
31
0
210
0
220
0
230
1
40
0.965764
41
-1.26020625214148
42
-0.699701739960728
0
ELLIPSE
5
171
100
AcDbEntity
8
1
62
256
6
ByLayer
370
-1
48
1
60
0
100
AcDbEllipse
10
98.024833
20
2.17362
30
0
11
-2.65443258820054
21
1.29855551833254
31
0
210
0
220
0
230
1
40
0.133258
41
0.880930524605692
42
1.16354352705699
0
ELLIPSE
5
172
100
AcDbEntity
8
1
62
256
6
ByLayer
370
-1
48
1
60
0
100
AcDbEllipse
10
86.842332
20
6.655055
30
0
11
-1.64589647751506
21
0.116296110440486
31
0
210
0
220
0
230
1
40
0.965764
41
-1.5026625466383
42
-0.63087048303165
0
ELLIPSE
5
173
100
AcDbEntity
8
1
62
256
6
ByLayer
370
-1
48
1
60
0
100
AcDbEllipse
10
86.842332
20
6.655055
30
0
11
-1.64589647751506
21
0.116296110440486
31
0
210
0
220
0
230
1
40
0.965764
41
-1.7578189790074
42
-1.50266254663831
0
ELLIPSE
5
174
100
AcDbEntity
8
1
62
256
6
ByLayer
370
-1
48
1
60
0
100
AcDbEllipse
10
93.340829
20
0
30
0
11
-14.573682990125
21
10.4494627420836
31
0
210
0
220
0
230
1
40
0.430064
41
1.0604194088313
42
1.69693156332667
0
ELLIPSE
5
175
100
AcDbEntity
8
1
62
256
6
ByLayer
370
-1
48
1
60
0
100
AcDbEllipse
10
84.127059
20
5.472676
30
0
11
-1.52312151413253
21
1.36586304787045
31
0
210
0
220
0
230
1
40
0.689943
41
-0.840426372305806
42
3.13311504349011
0
ELLIPSE
5
176
100
AcDbEntity
8
1
62
256
6
ByLayer
370
-1
48
1
60
0
100
AcDbEllipse
10
93.340829
20
0
30
0
11
-14.5617226430014
21
10.4408870648299
31
0
210
0
220
0
230
1
40
0.430064
41
-0.326904969291296
42
1.04747439572563
0
ELLIPSE
5
177
100
AcDbEntity
8
1
62
256
6
ByLayer
370
-1
48
1
60
0
100
AcDbEllipse
10
86.844161
20
6.680933
30
0
11
1.64589647751506
21
-0.116296110440486
31
0
210
0
220
0
230
1
40
0.965764
41
1.38386088998114
42
1.86794914054489
0
ELLIPSE
5
178
100
AcDbEntity
8
1
62
256
6
ByLayer
370
-1
48
1
60
0
100
AcDbEllipse
10
86.888593
20
7.309758
30
0
11
1.64589647751506
21
-0.116296110440486
31
0
210
0
220
0
230
1
40
0.965764
41
1.75362471590282
42
2.07470006325474
0
ELLIPSE
5
179
100
AcDbEntity
8
1
62
256
6
ByLayer
370
-1
48
1
60
0
100
AcDbEllipse
10
91.963669
20
5.583049
30
0
11
-2.65443259372302
21
1.29855552048619
31
0
210
0
220
0
230
1
40
0.133258
41
1.16354352639411
42
1.44615652836506
0
ELLIPSE
5
17A
100
AcDbEntity
8
1
62
256
6
ByLayer
370
-1
48
1
60
0
100
AcDbEllipse
10
87.674664
20
8.286369
30
0
11
-1.65306217752372
21
0.107682693210129
31
0
210
0
220
0
230
1
40
0.965788
41
1.05525226572072
42
2.19115544793802
0
ELLIPSE
5
17B
100
AcDbEntity
8
1
62
256
6
ByLayer
370
-1
48
1
60
0
100
AcDbEllipse
10
87.153924
20
11.062465
30
0
11
-2.2463725529504
21
-9.02383655281882
31
0
210
0
220
0
230
1
40
0.041995
41
-1.31704902263885
42
-1.30210806776986
0
ELLIPSE
5
17C
100
AcDbEntity
8
1
62
256
6
ByLayer
370
-1
48
1
60
0
100
AcDbEllipse
10
88.093952
20
6.916499
30
0
11
-2.11145701959825
21
0.149191788241913
31
0
210
0
220
0
230
1
40
0.965764
41
-1.11762307732674
42
-0.627728021228789
0
ELLIPSE
5
17D
100
AcDbEntity
8
1
62
256
6
ByLayer
370
-1
48
1
60
0
100
AcDbEllipse
10
92.782767
20
12.310047
30
0
11
-1.8
21
2.20429143688028E-16
31
0
210
0
220
0
230
1
40
0.258819
41
-0.755396374706173
42
-0.52850357194693
0
ELLIPSE
5
17E
100
AcDbEntity
8
1
62
256
6
ByLayer
370
-1
48
1
60
0
100
AcDbEllipse
10
91.654367
20
12.58508
30
0
11
-0.25
21
3.06151588455594E-17
31
0
210
0
220
0
230
1
40
0.258819
41
-1.58442776940355
42
-0.755396374706275
0
ELLIPSE
5
17F
100
AcDbEntity
8
1
62
256
6
ByLayer
370
-1
48
1
60
0
100
AcDbEllipse
10
90.794868
20
12.317061
30
0
11
-1.8
21
2.20429143688028E-16
31
0
210
0
220
0
230
1
40
0.258819
41
-2.44231040400174
42
-2.41345916410082
0
ELLIPSE
5
180
100
AcDbEntity
8
1
62
256
6
ByLayer
370
-1
48
1
60
0
100
AcDbEllipse
10
91.951815
20
12.58403
30
0
11
-0.25
21
3.06151588455594E-17
31
0
210
0
220
0
230
1
40
0.258819
41
-2.41345916410084
42
-1.58442776940343
0
ELLIPSE
5
181
100
AcDbEntity
8
1
62
256
6
ByLayer
370
-1
48
1
60
0
100
AcDbEllipse
10
91.012464
20
12.577587
30
0
11
-0.25
21
3.06151588455594E-17
31
0
210
0
220
0
230
1
40
0.258819
41
2.02965358241131
42
2.61308908164283
0
ELLIPSE
5
182
100
AcDbEntity
8
1
62
256
6
ByLayer
370
-1
48
1
60
0
100
AcDbEllipse
10
93.868043
20
9.350571
30
0
11
-0.200051044280457
21
-0.326957883010613
31
0
210
0
220
0
230
1
40
0.499975
41
0.178877565651717
42
1.58915102711081
0
ELLIPSE
5
183
100
AcDbEntity
8
1
62
256
6
ByLayer
370
-1
48
1
60
0
100
AcDbEllipse
10
96.436764
20
9.338412
30
0
11
-0.200517583767673
21
0.328568772582156
31
0
210
0
220
0
230
1
40
0.495781
41
0.608513246076102
42
1.54958265944771
0
ELLIPSE
5
184
100
AcDbEntity
8
1
62
256
6
ByLayer
370
-1
48
1
60
0
100
AcDbEllipse
10
95.152404
20
8.628113
30
0
11
-1.28709104541676
21
0.090943558364459
31
0
210
0
220
0
230
1
40
0.965764
41
-2.5498603169643
42
-1.5026627657678
0
ELLIPSE
5
185
100
AcDbEntity
8
1
62
256
6
ByLayer
370
-1
48
1
60
0
100
AcDbEllipse
10
93.669252
20
8.635133
30
0
11
-0.000623103068490297
21
0.380672332819598
31
0
210
0
220
0
230
1
40
0.50691
41
-0.0603741684580066
42
0.90367228396746
0
ELLIPSE
5
186
100
AcDbEntity
8
1
62
256
6
ByLayer
370
-1
48
1
60
0
100
AcDbEllipse
10
95.152404
20
8.628113
30
0
11
-1.28709104541676
21
0.090943558364459
31
0
210
0
220
0
230
1
40
0.965764
41
-0.455465214571033
42
0.124927586583811
0
ELLIPSE
5
187
100
AcDbEntity
8
1
62
256
6
ByLayer
370
-1
48
1
60
0
100
AcDbEllipse
10
95.152404
20
8.628113
30
0
11
-1.28709104541676
21
0.090943558364459
31
0
210
0
220
0
230
1
40
0.965764
41
3.12691571093311
42
-2.54986031696443
0
ELLIPSE
5
188
100
AcDbEntity
8
1
62
256
6
ByLayer
370
-1
48
1
60
0
100
AcDbEllipse
10
96.436764
20
9.338412
30
0
11
-0.200517583763233
21
0.328568772580099
31
0
210
0
220
0
230
1
40
0.495781
41
1.54958265946414
42
2.95985612092223
0
ELLIPSE
5
189
100
AcDbEntity
8
1
62
256
6
ByLayer
370
-1
48
1
60
0
100
AcDbEllipse
10
95.89398
20
9.865491
30
0
11
-0.342845330156831
21
0.189166589712695
31
0
210
0
220
0
230
1
40
0.479089
41
-2.35411703748991
42
0.0400244433160055
0
ELLIPSE
5
18A
100
AcDbEntity
8
1
62
256
6
ByLayer
370
-1
48
1
60
0
100
AcDbEllipse
10
95.152404
20
8.628113
30
0
11
-1.28709104541676
21
0.090943558364459
31
0
210
0
220
0
230
1
40
0.965764
41
0.732793256386709
42
0.963569540893151
0
ELLIPSE
5
18B
100
AcDbEntity
8
1
62
256
6
ByLayer
370
-1
48
1
60
0
100
AcDbEllipse
10
95.152404
20
10.06087
30
0
11
-0.394032475314265
21
0.00240287603114513
31
0
210
0
220
0
230
1
40
0.473102
41
0.163407912190599
42
1.57368137365425
0
ELLIPSE
5
18C
100
AcDbEntity
8
1
62
256
6
ByLayer
370
-1
48
1
60
0
100
AcDbEllipse
10
93.868043
20
9.350571
30
0
11
-0.200051044282714
21
-0.326957883011482
31
0
210
0
220
0
230
1
40
0.499975
41
1.58915102711951
42
2.37462779239221
0
ELLIPSE
5
18D
100
AcDbEntity
8
1
62
256
6
ByLayer
370
-1
48
1
60
0
100
AcDbEllipse
10
95.152404
20
8.628113
30
0
11
-1.28709104541676
21
0.090943558364459
31
0
210
0
220
0
230
1
40
0.965764
41
2.12648254357412
42
2.57250707433191
0
ELLIPSE
5
18E
100
AcDbEntity
8
1
62
256
6
ByLayer
370
-1
48
1
60
0
100
AcDbEllipse
10
95.181202
20
9.035684
30
0
11
1.67223082115528
21
-0.118156848207534
31
0
210
0
220
0
230
1
40
0.965764
41
-3.07345909256256
42
-2.02626154136601
0
ELLIPSE
5
18F
100
AcDbEntity
8
1
62
256
6
ByLayer
370
-1
48
1
60
0
100
AcDbEllipse
10
95.181202
20
9.035684
30
0
11
1.67223082115528
21
-0.118156848207534
31
0
210
0
220
0
230
1
40
0.965764
41
2.16252866342044
42
-3.07345909256256
0
ELLIPSE
5
190
100
AcDbEntity
8
1
62
256
6
ByLayer
370
-1
48
1
60
0
100
AcDbEllipse
10
95.181202
20
9.035684
30
0
11
1.67223082115528
21
-0.118156848207534
31
0
210
0
220
0
230
1
40
0.965764
41
0.0681335610272166
42
1.11533111222383
0
ELLIPSE
5
191
100
AcDbEntity
8
1
62
256
6
ByLayer
370
-1
48
1
60
0
100
AcDbEllipse
10
95.181202
20
9.035684
30
0
11
1.67223082115528
21
-0.118156848207534
31
0
210
0
220
0
230
1
40
0.965764
41
-0.979063990169402
42
0.0681335610272155
0
ELLIPSE
5
192
100
AcDbEntity
8
1
62
256
6
ByLayer
370
-1
48
1
60
0
100
AcDbEllipse
10
95.181202
20
9.035684
30
0
11
1.67223082115528
21
-0.118156848207534
31
0
210
0
220
0
230
1
40
0.965764
41
1.11533111222383
42
2.16252866342044
0
ELLIPSE
5
193
100
AcDbEntity
8
1
62
256
6
ByLayer
370
-1
48
1
60
0
100
AcDbEllipse
10
95.181202
20
9.035684
30
0
11
1.67223082115528
21
-0.118156848207534
31
0
210
0
220
0
230
1
40
0.965764
41
-2.02626154136601
42
-0.979063990169402
0
ELLIPSE
5
194
100
AcDbEntity
8
1
62
256
6
ByLayer
370
-1
48
1
60
0
100
AcDbEllipse
10
95.152404
20
10.06087
30
0
11
-0.394032475316225
21
0.0024028760308848
31
0
210
0
220
0
230
1
40
0.473102
41
1.5736813736529
42
2.98395483511047
0
ELLIPSE
5
195
100
AcDbEntity
8
1
62
256
6
ByLayer
370
-1
48
1
60
0
100
AcDbEllipse
10
95.152404
20
8.628113
30
0
11
1.28709104541676
21
-0.0909435583644591
31
0
210
0
220
0
230
1
40
0.965764
41
1.63892988782213
42
2.68612743901863
0
ELLIPSE
5
196
100
AcDbEntity
8
1
62
256
6
ByLayer
370
-1
48
1
60
0
100
AcDbEllipse
10
96.635556
20
8.621093
30
0
11
-0.000623103068488857
21
0.380672332819596
31
0
210
0
220
0
230
1
40
0.50691
41
-1.20422847250878
42
0.0539160509658872
0
ELLIPSE
5
197
100
AcDbEntity
8
1
62
256
6
ByLayer
370
-1
48
1
60
0
100
AcDbEllipse
10
94.410828
20
9.872511
30
0
11
-0.343133849056975
21
-0.185391276329949
31
0
210
0
220
0
230
1
40
0.48292
41
3.10477118287753
42
-0.966396763246726
0
ELLIPSE
5
198
100
AcDbEntity
8
1
62
256
6
ByLayer
370
-1
48
1
60
0
100
AcDbEllipse
10
100.05537
20
1.267706
30
0
11
0.00693407685584037
21
-1.40968294611881
31
0
210
0
220
0
230
1
40
0.052006
41
-1.83287963693155
42
-0.785682085734749
0
ELLIPSE
5
199
100
AcDbEntity
8
1
62
256
6
ByLayer
370
-1
48
1
60
0
100
AcDbEllipse
10
100.05537
20
1.267706
30
0
11
0.00693407685584037
21
-1.40968294611881
31
0
210
0
220
0
230
1
40
0.052006
41
-2.88007718812826
42
-1.83287963693155
0
ELLIPSE
5
19A
100
AcDbEntity
8
1
62
256
6
ByLayer
370
-1
48
1
60
0
100
AcDbEllipse
10
100.05537
20
1.267706
30
0
11
0.00693407685584037
21
-1.40968294611881
31
0
210
0
220
0
230
1
40
0.052006
41
0.261515465461914
42
1.30871301665814
0
ELLIPSE
5
19B
100
AcDbEntity
8
1
62
256
6
ByLayer
370
-1
48
1
60
0
100
AcDbEllipse
10
100.05537
20
1.267706
30
0
11
0.00693407685584037
21
-1.40968294611881
31
0
210
0
220
0
230
1
40
0.052006
41
2.35591056785449
42
-2.88007718812826
0
ELLIPSE
5
19C
100
AcDbEntity
8
1
62
256
6
ByLayer
370
-1
48
1
60
0
100
AcDbEllipse
10
100.05537
20
1.267706
30
0
11
0.00693407685584037
21
-1.40968294611881
31
0
210
0
220
0
230
1
40
0.052006
41
1.30871301665814
42
2.35591056785449
0
ELLIPSE
5
19D
100
AcDbEntity
8
1
62
256
6
ByLayer
370
-1
48
1
60
0
100
AcDbEllipse
10
100.05537
20
1.267706
30
0
11
0.00693407685584037
21
-1.40968294611881
31
0
210
0
220
0
230
1
40
0.052006
41
-0.785682085734749
42
0.261515465461914
0
ELLIPSE
5
19E
100
AcDbEntity
8
1
62
256
6
ByLayer
370
-1
48
1
60
0
100
AcDbEllipse
10
98.956871
20
1.262303
30
0
11
-0.0152483778485525
21
3.09996249767203
31
0
210
0
220
0
230
1
40
0.052006
41
1.57054039011302
42
1.57486007868976
0
ELLIPSE
5
19F
100
AcDbEntity
8
1
62
256
6
ByLayer
370
-1
48
1
60
0
100
AcDbEllipse
10
98.956871
20
1.262303
30
0
11
-0.0152483778485525
21
3.09996249767203
31
0
210
0
220
0
230
1
40
0.052006
41
1.54049899354178
42
1.57054039011302
0
ELLIPSE
5
1A0
100
AcDbEntity
8
1
62
256
6
ByLayer
370
-1
48
1
60
0
100
AcDbEllipse
10
100.05537
20
1.267706
30
0
11
-0.00836201365888357
21
1.69997943420723
31
0
210
0
220
0
230
1
40
0.052006
41
0
42
6.28318530717959
0
ELLIPSE
5
1A1
100
AcDbEntity
8
1
62
256
6
ByLayer
370
-1
48
1
60
0
100
AcDbEllipse
10
96.672971
20
2.932986
30
0
11
0.176329317764099
21
-0.267035525158821
31
0
210
0
220
0
230
1
40
0.03732
41
-2.29821777815206
42
-1.12825396992128
0
ELLIPSE
5
1A2
100
AcDbEntity
8
1
62
256
6
ByLayer
370
-1
48
1
60
0
100
AcDbEllipse
10
92.28428
20
12.641417
30
0
11
-0.143517613693112
21
-0.0843322544318284
31
0
210
0
220
0
230
1
40
0.195042
41
-2.40799874310965
42
-1.70241255337216
0
ELLIPSE
5
1A3
100
AcDbEntity
8
1
62
256
6
ByLayer
370
-1
48
1
60
0
100
AcDbEllipse
10
98.472053
20
2.867053
30
0
11
0.126989212138566
21
0.304587819849098
31
0
210
0
220
0
230
1
40
0.517188
41
-2.1463557277068
42
-1.54493633139582
0
ELLIPSE
5
1A4
100
AcDbEntity
8
1
62
256
6
ByLayer
370
-1
48
1
60
0
100
AcDbEllipse
10
98.738867
20
13.854076
30
0
11
-0.822902478287499
21
-0.504346294689296
31
0
210
0
220
0
230
1
40
0.3419
41
2.31465636022607
42
3.13110594625876
0
ELLIPSE
5
1A5
100
AcDbEntity
8
1
62
256
6
ByLayer
370
-1
48
1
60
0
100
AcDbEllipse
10
97.871358
20
2.825287
30
0
11
0.329092877421673
21
-0.0244515445386072
31
0
210
0
220
0
230
1
40
0.673036
41
-2.14481203860299
42
-1.32836245256549
0
ELLIPSE
5
1A6
100
AcDbEntity
8
1
62
256
6
ByLayer
370
-1
48
1
60
0
100
AcDbEllipse
10
88.101429
20
9.207093
30
0
11
0.12671433357778
21
-0.304702277093459
31
0
210
0
220
0
230
1
40
0.542683
41
-1.61141908984985
42
-1.00999969353901
0
ELLIPSE
5
1A7
100
AcDbEntity
8
1
62
256
6
ByLayer
370
-1
48
1
60
0
100
AcDbEllipse
10
88.390449
20
9.675195
30
0
11
0.166646788342777
21
0.284831262215084
31
0
210
0
220
0
230
1
40
0.020796
41
1.15004999605075
42
2.03107132206255
0
ELLIPSE
5
1A8
100
AcDbEntity
8
1
62
256
6
ByLayer
370
-1
48
1
60
0
100
AcDbEllipse
10
98.931783
20
15.485321
30
0
11
-0.000396770095287516
21
-0.0911034398186862
31
0
210
0
220
0
230
1
40
0.965798
41
2.10952713467883
42
3.14158434227702
0
ELLIPSE
5
1A9
100
AcDbEntity
8
1
62
256
6
ByLayer
370
-1
48
1
60
0
100
AcDbEllipse
10
88.101429
20
9.207093
30
0
11
-0.0259338634078486
21
-0.328979383440274
31
0
210
0
220
0
230
1
40
0.228524
41
-1.16829399898119
42
-0.819228148582467
0
ELLIPSE
5
1AA
100
AcDbEntity
8
1
62
256
6
ByLayer
370
-1
48
1
60
0
100
AcDbEllipse
10
93.625307
20
13.383532
30
0
11
-0.128945792990225
21
-0.0768529686934563
31
0
210
0
220
0
230
1
40
0.215846
41
-1.71819106638693
42
-1.00566648806679
0
ELLIPSE
5
1AB
100
AcDbEntity
8
1
62
256
6
ByLayer
370
-1
48
1
60
0
100
AcDbEllipse
10
99.966153
20
5.5999
30
0
11
-0.140714193051359
21
-0.239169976832698
31
0
210
0
220
0
230
1
40
0.063581
41
-1.18041021217642
42
-0.753835096689355
0
ELLIPSE
5
1AC
100
AcDbEntity
8
1
62
256
6
ByLayer
370
-1
48
1
60
0
100
AcDbEllipse
10
99.694296
20
13.030832
30
0
11
0.150248298124012
21
0.282533978329754
31
0
210
0
220
0
230
1
40
0.014394
41
1.57841055121137
42
2.74837435944317
0
ELLIPSE
5
1AD
100
AcDbEntity
8
1
62
256
6
ByLayer
370
-1
48
1
60
0
100
AcDbEllipse
10
88.838088
20
9.305221
30
0
11
-0.832437249560871
21
0.488229794606761
31
0
210
0
220
0
230
1
40
0.306363
41
-0.823404481081225
42
-0.00695489505191979
0
ELLIPSE
5
1AE
100
AcDbEntity
8
1
62
256
6
ByLayer
370
-1
48
1
60
0
100
AcDbEllipse
10
93.240641
20
6.194153
30
0
11
0.0357259918071446
21
0.145683401626252
31
0
210
0
220
0
230
1
40
0.046814
41
1.31258632271843
42
1.48711924791781
0
ELLIPSE
5
1AF
100
AcDbEntity
8
1
62
256
6
ByLayer
370
-1
48
1
60
0
100
AcDbEllipse
10
98.760764
20
8.083706
30
0
11
-0.143814300897885
21
-0.0426315242192043
31
0
210
0
220
0
230
1
40
0.244304
41
-1.83516128982973
42
-1.6606283646304
0
ELLIPSE
5
1B0
100
AcDbEntity
8
1
62
256
6
ByLayer
370
-1
48
1
60
0
100
AcDbEllipse
10
98.923128
20
13.967104
30
0
11
-4.67600826818841E-17
21
-0.254558441227155
31
0
210
0
220
0
230
1
40
0.999867
41
-0.558493593836867
42
0.549766437173611
0
ELLIPSE
5
1B1
100
AcDbEntity
8
1
62
256
6
ByLayer
370
-1
48
1
60
0
100
AcDbEllipse
10
96.623385
20
2.709883
30
0
11
-0.289207307160399
21
0.169862173466962
31
0
210
0
220
0
230
1
40
0.223196
41
1.65552978629726
42
1.93117354671619
0
ELLIPSE
5
1B2
100
AcDbEntity
8
1
62
256
6
ByLayer
370
-1
48
1
60
0
100
AcDbEllipse
10
99.051918
20
2.780744
30
0
11
-0.179619284128355
21
0.0117009730030217
31
0
210
0
220
0
230
1
40
0.965789
41
2.39034587768746
42
2.68082561138858
0
ELLIPSE
5
1B3
100
AcDbEntity
8
1
62
256
6
ByLayer
370
-1
48
1
60
0
100
AcDbEllipse
10
99.694296
20
13.030832
30
0
11
-0.175677408214765
21
-0.267464854220032
31
0
210
0
220
0
230
1
40
0.203761
41
0.402079994214401
42
1.3926853202012
0
ELLIPSE
5
1B4
100
AcDbEntity
8
1
62
256
6
ByLayer
370
-1
48
1
60
0
100
AcDbEllipse
10
99.417527
20
7.952518
30
0
11
0.00498680642490531
21
-0.149917082954814
31
0
210
0
220
0
230
1
40
0.026344
41
1.83182940267769
42
2.54435398120655
0
ELLIPSE
5
1B5
100
AcDbEntity
8
1
62
256
6
ByLayer
370
-1
48
1
60
0
100
AcDbEllipse
10
98.616924
20
14.158462
30
0
11
-4.67600826818841E-17
21
-0.254558441227155
31
0
210
0
220
0
230
1
40
0.999867
41
-0.863312072454433
42
-0.558493593836855
0
ELLIPSE
5
1B6
100
AcDbEntity
8
1
62
256
6
ByLayer
370
-1
48
1
60
0
100
AcDbEllipse
10
99.119814
20
1.44743
30
0
11
-0.0878138722405289
21
0.00572047569036614
31
0
210
0
220
0
230
1
40
0.965789
41
2.68082561138879
42
-3.14157919444813
0
ELLIPSE
5
1B7
100
AcDbEntity
8
1
62
256
6
ByLayer
370
-1
48
1
60
0
100
AcDbEllipse
10
99.186343
20
2.468693
30
0
11
-0.0842609164660469
21
-0.0290942334940775
31
0
210
0
220
0
230
1
40
0.911082
41
2.31546043517285
42
-2.93566766440902
0
ELLIPSE
5
1B8
100
AcDbEntity
8
1
62
256
6
ByLayer
370
-1
48
1
60
0
100
AcDbEllipse
10
95.170537
20
8.964191
30
0
11
3.07390048262853
21
-0.200243680603412
31
0
210
0
220
0
230
1
40
0.965789
41
0
42
6.28318530717959
0
ELLIPSE
5
1B9
100
AcDbEntity
8
1
62
256
6
ByLayer
370
-1
48
1
60
0
100
AcDbEllipse
10
99.694296
20
13.030832
30
0
11
-0.101161855390478
21
0.303588996859168
31
0
210
0
220
0
230
1
40
0.015437
41
1.56561488893603
42
1.84125864988079
0
ELLIPSE
5
1BA
100
AcDbEntity
8
1
62
256
6
ByLayer
370
-1
48
1
60
0
100
AcDbEllipse
10
97.871358
20
2.825287
30
0
11
-0.329941928492634
21
-0.00619062376193185
31
0
210
0
220
0
230
1
40
0.387666
41
0.891887709618011
42
1.77290903562745
0
ELLIPSE
5
1BB
100
AcDbEntity
8
1
62
256
6
ByLayer
370
-1
48
1
60
0
100
AcDbEllipse
10
99.106381
20
13.852472
30
0
11
-0.818470076660456
21
0.511508916891276
31
0
210
0
220
0
230
1
40
0.341899
41
0.0104869071732597
42
0.826936493207459
0
ELLIPSE
5
1BC
100
AcDbEntity
8
1
62
256
6
ByLayer
370
-1
48
1
60
0
100
AcDbEllipse
10
89.303711
20
7.448863
30
0
11
-0.352030382785431
21
0.57810192362952
31
0
210
0
220
0
230
1
40
0.071322
41
1.74625735243266
42
2.60919099827037
0
ELLIPSE
5
1BD
100
AcDbEntity
8
1
62
256
6
ByLayer
370
-1
48
1
60
0
100
AcDbEllipse
10
96.740296
20
14.601735
30
0
11
-0.704940313677774
21
0.0225354790908111
31
0
210
0
220
0
230
1
40
0.11846
41
0.629741133711374
42
1.49267477964615
0
ELLIPSE
5
1BE
100
AcDbEntity
8
1
62
256
6
ByLayer
370
-1
48
1
60
0
100
AcDbEllipse
10
98.587629
20
8.667764
30
0
11
-0.143814300897885
21
-0.0426315242192043
31
0
210
0
220
0
230
1
40
0.244304
41
-1.83516128982953
42
-1.66062836463021
0
ELLIPSE
5
1BF
100
AcDbEntity
8
1
62
256
6
ByLayer
370
-1
48
1
60
0
100
AcDbEllipse
10
99.234402
20
14.155669
30
0
11
-0.171567193481955
21
0.281894835214705
31
0
210
0
220
0
230
1
40
0.328804
41
-2.38864574650004
42
-1.57219616046271
0
ELLIPSE
5
1C0
100
AcDbEntity
8
1
62
256
6
ByLayer
370
-1
48
1
60
0
100
AcDbEllipse
10
99.924457
20
12.879656
30
0
11
-0.000910734196786445
21
-0.382239909386348
31
0
210
0
220
0
230
1
40
0.013965
41
-1.40181009847538
42
-0.41120477268438
0
ELLIPSE
5
1C1
100
AcDbEntity
8
1
62
256
6
ByLayer
370
-1
48
1
60
0
100
AcDbEllipse
10
88.360314
20
8.336951
30
0
11
-0.120148037047111
21
0.0531314301989165
31
0
210
0
220
0
230
1
40
0.908072
41
3.10576497481945
42
-2.23387201381434
0
ELLIPSE
5
1C2
100
AcDbEntity
8
1
62
256
6
ByLayer
370
-1
48
1
60
0
100
AcDbEllipse
10
88.697483
20
9.160105
30
0
11
-0.0259338634078486
21
-0.328979383440274
31
0
210
0
220
0
230
1
40
0.228524
41
-1.1682939989811
42
-0.819228148582244
0
ELLIPSE
5
1C3
100
AcDbEntity
8
1
62
256
6
ByLayer
370
-1
48
1
60
0
100
AcDbEllipse
10
89.955785
20
6.862471
30
0
11
0.249471227956048
21
-0.0162513513930857
31
0
210
0
220
0
230
1
40
0.965789
41
-2.12769914672041
42
-2.03156336899624
0
ELLIPSE
5
1C4
100
AcDbEntity
8
1
62
256
6
ByLayer
370
-1
48
1
60
0
100
AcDbEllipse
10
99.088013
20
9.073601
30
0
11
0.0633059060388732
21
-0.135986625300422
31
0
210
0
220
0
230
1
40
0.127852
41
1.09471097891119
42
1.80029716860995
0
ELLIPSE
5
1C5
100
AcDbEntity
8
1
62
256
6
ByLayer
370
-1
48
1
60
0
100
AcDbEllipse
10
98.929689
20
14.688877
30
0
11
-0.285075263893942
21
0.166229040530827
31
0
210
0
220
0
230
1
40
0.008173
41
1.20764539343908
42
1.55671124383619
0
ELLIPSE
5
1C6
100
AcDbEntity
8
1
62
256
6
ByLayer
370
-1
48
1
60
0
100
AcDbEllipse
10
99.682396
20
5.643896
30
0
11
0.249471227956048
21
-0.0162513513930857
31
0
210
0
220
0
230
1
40
0.965789
41
-0.033304044327253
42
0.0628317333970102
0
ELLIPSE
5
1C7
100
AcDbEntity
8
1
62
256
6
ByLayer
370
-1
48
1
60
0
100
AcDbEllipse
10
99.230991
20
14.155782
30
0
11
-4.67600826818841E-17
21
-0.254558441227155
31
0
210
0
220
0
230
1
40
0.999867
41
0.549766437173735
42
0.854585258752919
0
ELLIPSE
5
1C8
100
AcDbEntity
8
1
62
256
6
ByLayer
370
-1
48
1
60
0
100
AcDbEllipse
10
99.439494
20
4.291528
30
0
11
-0.172351874635316
21
-0.0595109321018982
31
0
210
0
220
0
230
1
40
0.911082
41
2.31546043552896
42
-3.02417655308587
0
ELLIPSE
5
1C9
100
AcDbEntity
8
1
62
256
6
ByLayer
370
-1
48
1
60
0
100
AcDbEllipse
10
99.115064
20
3.750084
30
0
11
-0.172351874622906
21
-0.0595109321120825
31
0
210
0
220
0
230
1
40
0.911082
41
1.37191211684169
42
2.31546043541108
0
ELLIPSE
5
1CA
100
AcDbEntity
8
1
62
256
6
ByLayer
370
-1
48
1
60
0
100
AcDbEllipse
10
99.234402
20
14.155669
30
0
11
0.172437766515797
21
-0.281363140228146
31
0
210
0
220
0
230
1
40
0.013865
41
-1.57933547052237
42
-0.698314144517581
0
ELLIPSE
5
1CB
100
AcDbEntity
8
1
62
256
6
ByLayer
370
-1
48
1
60
0
100
AcDbEllipse
10
99.079569
20
3.454334
30
0
11
-0.124476353888279
21
-0.0429801176434622
31
0
210
0
220
0
230
1
40
0.911082
41
-1.76968053682464
42
-0.826132218229489
0
ELLIPSE
5
1CC
100
AcDbEntity
8
1
62
256
6
ByLayer
370
-1
48
1
60
0
100
AcDbEllipse
10
98.926539
20
13.966991
30
0
11
-0.174886668864497
21
-0.279847553238329
31
0
210
0
220
0
230
1
40
0.013828
41
-1.5621967595927
42
-0.681175433582283
0
ELLIPSE
5
1CD
100
AcDbEntity
8
1
62
256
6
ByLayer
370
-1
48
1
60
0
100
AcDbEllipse
10
99.234402
20
14.155669
30
0
11
0.28651500664998
21
0.1637350022578
31
0
210
0
220
0
230
1
40
0.008111
41
1.23585108312798
42
1.5849169335304
0
ELLIPSE
5
1CE
100
AcDbEntity
8
1
62
256
6
ByLayer
370
-1
48
1
60
0
100
AcDbEllipse
10
99.61311
20
4.580301
30
0
11
0.249471227956048
21
-0.0162513513930857
31
0
210
0
220
0
230
1
40
0.965789
41
-0.460767042201195
42
-1.31917322543371E-06
0
ELLIPSE
5
1CF
100
AcDbEntity
8
1
62
256
6
ByLayer
370
-1
48
1
60
0
100
AcDbEllipse
10
98.620335
20
14.158349
30
0
11
0.174886668864497
21
0.279847553238329
31
0
210
0
220
0
230
1
40
0.013828
41
1.57939589399709
42
2.46041722000251
0
ELLIPSE
5
1D0
100
AcDbEntity
8
1
62
256
6
ByLayer
370
-1
48
1
60
0
100
AcDbEllipse
10
98.929689
20
14.688877
30
0
11
0.28651500664998
21
0.1637350022578
31
0
210
0
220
0
230
1
40
0.008111
41
1.23585108312974
42
1.58491693353036
0
ELLIPSE
5
1D1
100
AcDbEntity
8
1
62
256
6
ByLayer
370
-1
48
1
60
0
100
AcDbEllipse
10
94.112088
20
12.348803
30
0
11
0.105854520827007
21
-0.106277092642229
31
0
210
0
220
0
230
1
40
0.19749
41
1.74310194330144
42
1.91763486850069
0
ELLIPSE
5
1D2
100
AcDbEntity
8
1
62
256
6
ByLayer
370
-1
48
1
60
0
100
AcDbEllipse
10
97.446326
20
2.495358
30
0
11
-0.239377603630499
21
-0.0826540723074843
31
0
210
0
220
0
230
1
40
0.911082
41
0.744664108864806
42
1.28340322813882
0
ELLIPSE
5
1D3
100
AcDbEntity
8
1
62
256
6
ByLayer
370
-1
48
1
60
0
100
AcDbEllipse
10
93.675755
20
11.914205
30
0
11
0.105854520827007
21
-0.106277092642229
31
0
210
0
220
0
230
1
40
0.19749
41
1.74310194330182
42
1.91763486850128
0
ELLIPSE
5
1D4
100
AcDbEntity
8
1
62
256
6
ByLayer
370
-1
48
1
60
0
100
AcDbEllipse
10
88.238316
20
8.541619
30
0
11
-0.12014803701991
21
0.0531314302247249
31
0
210
0
220
0
230
1
40
0.908072
41
-2.23387201351572
42
-1.20181480596366
0
ELLIPSE
5
1D5
100
AcDbEntity
8
1
62
256
6
ByLayer
370
-1
48
1
60
0
100
AcDbEllipse
10
98.929689
20
14.688877
30
0
11
-0.329991143274648
21
0.00241771799247104
31
0
210
0
220
0
230
1
40
0.178986
41
-1.85495451927008
42
-1.25353512295933
0
ELLIPSE
5
1D6
100
AcDbEntity
8
1
62
256
6
ByLayer
370
-1
48
1
60
0
100
AcDbEllipse
10
87.320722
20
7.793703
30
0
11
-0.0878138722405259
21
0.00572047569036595
31
0
210
0
220
0
230
1
40
0.965789
41
1.16283420118686E-05
42
0.586430508995146
0
ELLIPSE
5
1D7
100
AcDbEntity
8
1
62
256
6
ByLayer
370
-1
48
1
60
0
100
AcDbEllipse
10
93.356218
20
5.570999
30
0
11
-0.149596176921153
21
0.0109992659107353
31
0
210
0
220
0
230
1
40
0.259322
41
-1.56863274343677
42
-0.863046553738633
0
ELLIPSE
5
1D8
100
AcDbEntity
8
1
62
256
6
ByLayer
370
-1
48
1
60
0
100
AcDbEllipse
10
98.620335
20
14.158349
30
0
11
-0.285075263893942
21
0.166229040530827
31
0
210
0
220
0
230
1
40
0.008173
41
1.20764539343515
42
1.55671124383593
0
ELLIPSE
5
1D9
100
AcDbEntity
8
1
62
256
6
ByLayer
370
-1
48
1
60
0
100
AcDbEllipse
10
99.672559
20
13.859672
30
0
11
-0.00112718864704611
21
-0.258816590516089
31
0
210
0
220
0
230
1
40
0.965798
41
1.57078801895264
42
2.10952713796533
0
ELLIPSE
5
1DA
100
AcDbEntity
8
1
62
256
6
ByLayer
370
-1
48
1
60
0
100
AcDbEllipse
10
93.289913
20
4.669211
30
0
11
-0.143360189785739
21
0.0848352941162516
31
0
210
0
220
0
230
1
40
0.209444
41
-1.46498982421751
42
-0.759403634559099
0
ELLIPSE
5
1DB
100
AcDbEntity
8
1
62
256
6
ByLayer
370
-1
48
1
60
0
100
AcDbEllipse
10
99.376349
20
3.322189
30
0
11
-0.179619284128355
21
0.0117009730030217
31
0
210
0
220
0
230
1
40
0.965789
41
2.68082561138865
42
-3.14158154768317
0
ELLIPSE
5
1DC
100
AcDbEntity
8
1
62
256
6
ByLayer
370
-1
48
1
60
0
100
AcDbEllipse
10
98.620335
20
14.158349
30
0
11
-0.175765810909964
21
-0.279296222164144
31
0
210
0
220
0
230
1
40
0.354829
41
-1.55115824838671
42
-0.734708662349627
0
ELLIPSE
5
1DD
100
AcDbEntity
8
1
62
256
6
ByLayer
370
-1
48
1
60
0
100
AcDbEllipse
10
88.651586
20
9.414338
30
0
11
0.214135434812111
21
-0.137644526072878
31
0
210
0
220
0
230
1
40
0.895737
41
0.50932972197665
42
1.61758975637625
0
ELLIPSE
5
1DE
100
AcDbEntity
8
1
62
256
6
ByLayer
370
-1
48
1
60
0
100
AcDbEllipse
10
98.957571
20
3.250731
30
0
11
-0.124476353894926
21
-0.0429801176405633
31
0
210
0
220
0
230
1
40
0.911082
41
-0.826132218168528
42
0.205924989361637
0
ELLIPSE
5
1DF
100
AcDbEntity
8
1
62
256
6
ByLayer
370
-1
48
1
60
0
100
AcDbEllipse
10
97.76329
20
14.715167
30
0
11
-0.000811575296438283
21
-0.186347945095947
31
0
210
0
220
0
230
1
40
0.965798
41
2.19803602419404
42
3.14158434280002
0
ELLIPSE
5
1E0
100
AcDbEntity
8
1
62
256
6
ByLayer
370
-1
48
1
60
0
100
AcDbEllipse
10
92.187758
20
5.860238
30
0
11
-0.131634364356026
21
0.0719193584550442
31
0
210
0
220
0
230
1
40
0.236597
41
-2.17381970518047
42
-1.46129512665335
0
ELLIPSE
5
1E1
100
AcDbEntity
8
1
62
256
6
ByLayer
370
-1
48
1
60
0
100
AcDbEllipse
10
99.929831
20
12.036648
30
0
11
-0.00056035404206953
21
-0.17520402568263
31
0
210
0
220
0
230
1
40
0.014074
41
1.79425022212155
42
2.73672801774242
0
ELLIPSE
5
1E2
100
AcDbEntity
8
1
62
256
6
ByLayer
370
-1
48
1
60
0
100
AcDbEllipse
10
89.806591
20
6.586741
30
0
11
-0.140264070146463
21
0.240302575335898
31
0
210
0
220
0
230
1
40
0.078706
41
-0.938728400498027
42
-0.512153286045507
0
ELLIPSE
5
1E3
100
AcDbEntity
8
1
62
256
6
ByLayer
370
-1
48
1
60
0
100
AcDbEllipse
10
98.926539
20
13.966991
30
0
11
-0.172437766515797
21
0.281363140228146
31
0
210
0
220
0
230
1
40
0.013865
41
1.56225718306734
42
2.44327850908185
0
ELLIPSE
5
1E4
100
AcDbEntity
8
1
62
256
6
ByLayer
370
-1
48
1
60
0
100
AcDbEllipse
10
88.939267
20
7.600279
30
0
11
-0.166358820493338
21
0.0735665956942916
31
0
210
0
220
0
230
1
40
0.908072
41
0.90772064006858
42
1.85126895865192
0
ELLIPSE
5
1E5
100
AcDbEntity
8
1
62
256
6
ByLayer
370
-1
48
1
60
0
100
AcDbEllipse
10
88.174599
20
7.56351
30
0
11
0.129725038537145
21
-0.00845070272440455
31
0
210
0
220
0
230
1
40
0.965789
41
0.586430508995257
42
1.61848771655667
0
ELLIPSE
5
1E6
100
AcDbEntity
8
1
62
256
6
ByLayer
370
-1
48
1
60
0
100
AcDbEllipse
10
88.654331
20
9.613498
30
0
11
-0.000207326149487028
21
0.890157524651983
31
0
210
0
220
0
230
1
40
0.360082
41
3.11313022188074
42
-2.35360549924121
0
ELLIPSE
5
1E7
100
AcDbEntity
8
1
62
256
6
ByLayer
370
-1
48
1
60
0
100
AcDbEllipse
10
97.871358
20
2.825287
30
0
11
0.0228891020462366
21
-0.329205238426604
31
0
210
0
220
0
230
1
40
0.196789
41
0.82169369962823
42
1.17075955002676
0
ELLIPSE
5
1E8
100
AcDbEntity
8
1
62
256
6
ByLayer
370
-1
48
1
60
0
100
AcDbEllipse
10
92.631173
20
6.343613
30
0
11
0.0357259918071446
21
0.145683401626252
31
0
210
0
220
0
230
1
40
0.046814
41
1.31258632271843
42
1.48711924791781
0
ELLIPSE
5
1E9
100
AcDbEntity
8
1
62
256
6
ByLayer
370
-1
48
1
60
0
100
AcDbEllipse
10
95.149312
20
8.638373
30
0
11
-2.91486949082833
21
0.189883894622037
31
0
210
0
220
0
230
1
40
0.965789
41
-0.59130688192501
42
0
0
ELLIPSE
5
1EA
100
AcDbEntity
8
1
62
256
6
ByLayer
370
-1
48
1
60
0
100
AcDbEllipse
10
95.149312
20
8.638373
30
0
11
-2.91486949082833
21
0.189883894622037
31
0
210
0
220
0
230
1
40
0.965789
41
0
42
0.440412056915356
0
ELLIPSE
5
1EB
100
AcDbEntity
8
1
62
256
6
ByLayer
370
-1
48
1
60
0
100
AcDbEllipse
10
95.149312
20
8.638373
30
0
11
-2.91486949082833
21
0.189883894622037
31
0
210
0
220
0
230
1
40
0.965789
41
2.70108248924326
42
-2.57767685223083
0
ELLIPSE
5
1EC
100
AcDbEntity
8
1
62
256
6
ByLayer
370
-1
48
1
60
0
100
AcDbEllipse
10
98.178392
20
3.337698
30
0
11
-0.206260449892316
21
0.257597800476284
31
0
210
0
220
0
230
1
40
0.301789
41
-2.0276870397458
42
-1.21123745370841
0
ELLIPSE
5
1ED
100
AcDbEntity
8
1
62
256
6
ByLayer
370
-1
48
1
60
0
100
AcDbEllipse
10
87.389289
20
8.811547
30
0
11
-0.0813309789054638
21
0.0359658912299231
31
0
210
0
220
0
230
1
40
0.908072
41
0.907720640086344
42
1.93977784763746
0
ELLIPSE
5
1EE
100
AcDbEntity
8
1
62
256
6
ByLayer
370
-1
48
1
60
0
100
AcDbEllipse
10
91.948886
20
5.42303
30
0
11
-0.128769199394744
21
0.0771501606424101
31
0
210
0
220
0
230
1
40
0.232115
41
-2.16459055345595
42
-1.45206597512009
0
ELLIPSE
5
1EF
100
AcDbEntity
8
1
62
256
6
ByLayer
370
-1
48
1
60
0
100
AcDbEllipse
10
88.614837
20
8.144555
30
0
11
-0.166358820504624
21
0.0735665956822127
31
0
210
0
220
0
230
1
40
0.908072
41
-0.0358276786291153
42
0.907720639951757
0
ELLIPSE
5
1F0
100
AcDbEntity
8
1
62
256
6
ByLayer
370
-1
48
1
60
0
100
AcDbEllipse
10
88.390449
20
9.675195
30
0
11
-0.21023359508877
21
-0.25436555485374
31
0
210
0
220
0
230
1
40
0.325777
41
-1.90870933697283
42
-1.09225975093544
0
ELLIPSE
5
1F1
100
AcDbEntity
8
1
62
256
6
ByLayer
370
-1
48
1
60
0
100
AcDbEllipse
10
95.87343
20
14.386207
30
0
11
0.249471227956048
21
-0.0162513513930857
31
0
210
0
220
0
230
1
40
0.965789
41
2.06109105806605
42
2.15722683579033
0
ELLIPSE
5
1F2
100
AcDbEntity
8
1
62
256
6
ByLayer
370
-1
48
1
60
0
100
AcDbEllipse
10
89.011064
20
9.585376
30
0
11
-1.53630689172659
21
-0.724448865248802
31
0
210
0
220
0
230
1
40
0.188839
41
-0.282355984093618
42
0.319063412215152
0
ELLIPSE
5
1F3
100
AcDbEntity
8
1
62
256
6
ByLayer
370
-1
48
1
60
0
100
AcDbEllipse
10
98.222036
20
3.25875
30
0
11
0.222782340523561
21
0.123158551269667
31
0
210
0
220
0
230
1
40
0.903036
41
1.28317267091926
42
1.58799132119608
0
ELLIPSE
5
1F4
100
AcDbEntity
8
1
62
256
6
ByLayer
370
-1
48
1
60
0
100
AcDbEllipse
10
88.697483
20
9.160105
30
0
11
0.328515456278559
21
0.031266515413302
31
0
210
0
220
0
230
1
40
0.671
41
-1.85705436438107
42
-1.04060477834373
0
ELLIPSE
5
1F5
100
AcDbEntity
8
1
62
256
6
ByLayer
370
-1
48
1
60
0
100
AcDbEllipse
10
93.89874
20
12.963365
30
0
11
0.125722164389598
21
0.0818164859988194
31
0
210
0
220
0
230
1
40
0.210253
41
1.41488498587123
42
2.1274095643974
0
ELLIPSE
5
1F6
100
AcDbEntity
8
1
62
256
6
ByLayer
370
-1
48
1
60
0
100
AcDbEllipse
10
88.702069
20
9.492875
30
0
11
-0.166646788342777
21
-0.284831262215084
31
0
210
0
220
0
230
1
40
0.020796
41
-1.99154265754081
42
-1.11052133152728
0
ELLIPSE
5
1F7
100
AcDbEntity
8
1
62
256
6
ByLayer
370
-1
48
1
60
0
100
AcDbEllipse
10
89.144334
20
10.824273
30
0
11
-0.336670865976756
21
-0.19990071902763
31
0
210
0
220
0
230
1
40
0.176549
41
1.40038053930447
42
2.39098586531606
0
ELLIPSE
5
1F8
100
AcDbEntity
8
1
62
256
6
ByLayer
370
-1
48
1
60
0
100
AcDbEllipse
10
97.915002
20
2.746339
30
0
11
0.222782340523561
21
0.123158551269667
31
0
210
0
220
0
230
1
40
0.903036
41
2.69625135559558
42
3.00107000587238
0
ELLIPSE
5
1F9
100
AcDbEntity
8
1
62
256
6
ByLayer
370
-1
48
1
60
0
100
AcDbEllipse
10
98.178392
20
3.337698
30
0
11
0.164123276904415
21
-0.286292769692419
31
0
210
0
220
0
230
1
40
0.007386
41
-2.00786484603826
42
-1.1268435200288
0
ELLIPSE
5
1FA
100
AcDbEntity
8
1
62
256
6
ByLayer
370
-1
48
1
60
0
100
AcDbEllipse
10
89.119619
20
10.549209
30
0
11
-0.319437373112233
21
-0.0189674631713373
31
0
210
0
220
0
230
1
40
0.372092
41
1.30555697618084
42
2.47552078441336
0
ELLIPSE
5
1FB
100
AcDbEntity
8
1
62
256
6
ByLayer
370
-1
48
1
60
0
100
AcDbEllipse
10
98.472053
20
2.867053
30
0
11
0.0228891020462366
21
-0.329205238426604
31
0
210
0
220
0
230
1
40
0.196789
41
0.82169369962823
42
1.1707595500269
0
ELLIPSE
5
1FC
100
AcDbEntity
8
1
62
256
6
ByLayer
370
-1
48
1
60
0
100
AcDbEllipse
10
89.119619
20
10.549209
30
0
11
-0.214373568568197
21
-0.237579403777635
31
0
210
0
220
0
230
1
40
0.080191
41
1.11663809063073
42
1.39228185157732
0
ELLIPSE
5
1FD
100
AcDbEntity
8
1
62
256
6
ByLayer
370
-1
48
1
60
0
100
AcDbEllipse
10
99.929831
20
9.465493
30
0
11
-0.0005924027438126
21
-0.165729210543782
31
0
210
0
220
0
230
1
40
0.014833
41
1.10168084663128
42
1.80726703712077
0
ELLIPSE
5
1FE
100
AcDbEntity
8
1
62
256
6
ByLayer
370
-1
48
1
60
0
100
AcDbEllipse
10
88.94006
20
10.711229
30
0
11
-0.289259155421133
21
-0.169069488946765
31
0
210
0
220
0
230
1
40
0.207991
41
1.18265416910942
42
1.4582979285103
0
ELLIPSE
5
1FF
100
AcDbEntity
8
1
62
256
6
ByLayer
370
-1
48
1
60
0
100
AcDbEllipse
10
88.551691
20
7.175216
30
0
11
-0.179619284128355
21
0.0117009730030217
31
0
210
0
220
0
230
1
40
0.965789
41
9.08050041589889E-07
42
0.586430508995141
0
ELLIPSE
5
200
100
AcDbEntity
8
1
62
256
6
ByLayer
370
-1
48
1
60
0
100
AcDbEllipse
10
97.865114
20
3.158105
30
0
11
0.329941928492634
21
0.00619062376193209
31
0
210
0
220
0
230
1
40
0.387666
41
-2.24970494397178
42
-1.36868361796235
0
ELLIPSE
5
201
100
AcDbEntity
8
1
62
256
6
ByLayer
370
-1
48
1
60
0
100
AcDbEllipse
10
97.90502
20
3.278345
30
0
11
-0.00595811941935753
21
0.890176669421223
31
0
210
0
220
0
230
1
40
0.362985
41
2.34793671774095
42
-3.11879900341349
0
ELLIPSE
5
202
100
AcDbEntity
8
1
62
256
6
ByLayer
370
-1
48
1
60
0
100
AcDbEllipse
10
88.339966
20
9.596658
30
0
11
0.214135434812111
21
-0.137644526072878
31
0
210
0
220
0
230
1
40
0.895737
41
1.61758975637603
42
1.92240840665296
0
ELLIPSE
5
203
100
AcDbEntity
8
1
62
256
6
ByLayer
370
-1
48
1
60
0
100
AcDbEllipse
10
95.59482
20
3.373575
30
0
11
-0.152152475739831
21
0.089517978510179
31
0
210
0
220
0
230
1
40
0.197758
41
-2.41395421089137
42
-1.47147641481772
0
ELLIPSE
5
204
100
AcDbEntity
8
1
62
256
6
ByLayer
370
-1
48
1
60
0
100
AcDbEllipse
10
96.419111
20
2.82471
30
0
11
-0.335804858951565
21
0.201414936981555
31
0
210
0
220
0
230
1
40
0.189826
41
0.727550146216789
42
1.71815547217246
0
ELLIPSE
5
205
100
AcDbEntity
8
1
62
256
6
ByLayer
370
-1
48
1
60
0
100
AcDbEllipse
10
96.672971
20
2.932986
30
0
11
0.312377620717914
21
-0.0694278191693724
31
0
210
0
220
0
230
1
40
0.335766
41
-1.55801442581516
42
-1.2823706648683
0
ELLIPSE
5
206
100
AcDbEntity
8
1
62
256
6
ByLayer
370
-1
48
1
60
0
100
AcDbEllipse
10
88.697483
20
9.160105
30
0
11
-0.329968661514939
21
0.00454779265573912
31
0
210
0
220
0
230
1
40
0.388155
41
1.33335276074515
42
2.21437408675445
0
ELLIPSE
5
207
100
AcDbEntity
8
1
62
256
6
ByLayer
370
-1
48
1
60
0
100
AcDbEllipse
10
88.101429
20
9.207093
30
0
11
-0.280790684040499
21
0.173368370114241
31
0
210
0
220
0
230
1
40
0.444526
41
1.21365952070713
42
1.56272537110598
0
ELLIPSE
5
208
100
AcDbEntity
8
1
62
256
6
ByLayer
370
-1
48
1
60
0
100
AcDbEllipse
10
95.731281
20
14.58948
30
0
11
-0.283033031704182
21
0.000905222943790032
31
0
210
0
220
0
230
1
40
0.13718
41
-2.5217697402906
42
-2.09519462504056
0
ELLIPSE
5
209
100
AcDbEntity
8
1
62
256
6
ByLayer
370
-1
48
1
60
0
100
AcDbEllipse
10
89.979373
20
11.365898
30
0
11
-0.152300321260578
21
-0.0888973533522479
31
0
210
0
220
0
230
1
40
0.184283
41
-1.69445883671133
42
-0.751981040707982
0
ELLIPSE
5
20A
100
AcDbEntity
8
1
62
256
6
ByLayer
370
-1
48
1
60
0
100
AcDbEllipse
10
89.119619
20
10.549209
30
0
11
0.3187160302586
21
-0.0286372494524013
31
0
210
0
220
0
230
1
40
0.189541
41
-1.61440428860234
42
-0.62379896261505
0
ELLIPSE
5
20B
100
AcDbEntity
8
1
62
256
6
ByLayer
370
-1
48
1
60
0
100
AcDbEllipse
10
87.322761
20
7.790283
30
0
11
-0.0878138722405289
21
0.00572047569036614
31
0
210
0
220
0
230
1
40
0.965789
41
0.586430508995392
42
1.61848771655634
0
ELLIPSE
5
20C
100
AcDbEntity
8
1
62
256
6
ByLayer
370
-1
48
1
60
0
100
AcDbEllipse
10
87.38725
20
8.814967
30
0
11
-0.0813309789155258
21
0.0359658912198334
31
0
210
0
220
0
230
1
40
0.908072
41
-0.124336567608238
42
0.907720639913344
0
ELLIPSE
5
20D
100
AcDbEntity
8
1
62
256
6
ByLayer
370
-1
48
1
60
0
100
AcDbEllipse
10
93.059793
20
12.131521
30
0
11
0.0824075344049275
21
0.125335542737488
31
0
210
0
220
0
230
1
40
0.131471
41
0.637761892176349
42
1.34334808187636
0
ELLIPSE
5
20E
100
AcDbEntity
8
1
62
256
6
ByLayer
370
-1
48
1
60
0
100
AcDbEllipse
10
99.929831
20
7.969559
30
0
11
-0.000654095699738233
21
-0.150104691411644
31
0
210
0
220
0
230
1
40
0.016273
41
1.8324416915718
42
2.54496627387819
0
ELLIPSE
5
20F
100
AcDbEntity
8
1
62
256
6
ByLayer
370
-1
48
1
60
0
100
AcDbEllipse
10
97.545509
20
3.253349
30
0
11
-1.55232594735356
21
0.738057643062851
31
0
210
0
220
0
230
1
40
0.185907
41
2.82298096076919
42
-2.85878495007571
0
ELLIPSE
5
210
100
AcDbEntity
8
1
62
256
6
ByLayer
370
-1
48
1
60
0
100
AcDbEllipse
10
88.390449
20
9.675195
30
0
11
-0.280790684040499
21
0.173368370114241
31
0
210
0
220
0
230
1
40
0.444526
41
1.21365952070717
42
1.56272537110598
0
ELLIPSE
5
211
100
AcDbEntity
8
1
62
256
6
ByLayer
370
-1
48
1
60
0
100
AcDbEllipse
10
99.924457
20
13.107527
30
0
11
-0.00147399362419968
21
-0.337784728712629
31
0
210
0
220
0
230
1
40
0.015426
41
-1.57076265310846
42
-1.29511891234531
0
ELLIPSE
5
212
100
AcDbEntity
8
1
62
256
6
ByLayer
370
-1
48
1
60
0
100
AcDbEllipse
10
99.184304
20
2.465291
30
0
11
-0.0842609164744192
21
-0.029094233486592
31
0
210
0
220
0
230
1
40
0.911082
41
1.28340322773651
42
2.31546043530403
0
ELLIPSE
5
213
100
AcDbEntity
8
1
62
256
6
ByLayer
370
-1
48
1
60
0
100
AcDbEllipse
10
97.908758
20
3.079157
30
0
11
0.222782340523561
21
0.123158551269667
31
0
210
0
220
0
230
1
40
0.903036
41
1.58799132119608
42
2.69625135559558
0
ELLIPSE
5
214
100
AcDbEntity
8
1
62
256
6
ByLayer
370
-1
48
1
60
0
100
AcDbEllipse
10
99.463273
20
4.775482
30
0
11
-0.352978025684849
21
-0.614491680110907
31
0
210
0
220
0
230
1
40
0.052277
41
1.53890582541305
42
2.40183947120371
0
ELLIPSE
5
215
100
AcDbEntity
8
1
62
256
6
ByLayer
370
-1
48
1
60
0
100
AcDbEllipse
10
97.865114
20
3.158105
30
0
11
-0.164123276904415
21
0.286292769692419
31
0
210
0
220
0
230
1
40
0.007386
41
1.13372780754651
42
2.01474913356606
0
ELLIPSE
5
216
100
AcDbEntity
8
1
62
256
6
ByLayer
370
-1
48
1
60
0
100
AcDbEllipse
10
98.299017
20
14.843767
30
0
11
-0.000586137733302605
21
-0.134584627008785
31
0
210
0
220
0
230
1
40
0.965798
41
-8.31065229906357E-06
42
1.0320488969261
0
ELLIPSE
5
217
100
AcDbEntity
8
1
62
256
6
ByLayer
370
-1
48
1
60
0
100
AcDbEllipse
10
97.114428
20
14.717999
30
0
11
-0.000811575302901878
21
-0.186347945092405
31
0
210
0
220
0
230
1
40
0.965798
41
3.14158434283353
42
-2.19805264572978
0
ELLIPSE
5
218
100
AcDbEntity
8
1
62
256
6
ByLayer
370
-1
48
1
60
0
100
AcDbEllipse
10
98.055021
20
14.844831
30
0
11
-0.00058613776650739
21
-0.134584627022078
31
0
210
0
220
0
230
1
40
0.965798
41
-0.943556628987345
42
-8.31041450823532E-06
0
ELLIPSE
5
219
100
AcDbEntity
8
1
62
256
6
ByLayer
370
-1
48
1
60
0
100
AcDbEllipse
10
99.117776
20
1.444027
30
0
11
-0.0878138722405259
21
0.00572047569036595
31
0
210
0
220
0
230
1
40
0.965789
41
1.64876840382731
42
2.68082561138874
0
ELLIPSE
5
21A
100
AcDbEntity
8
1
62
256
6
ByLayer
370
-1
48
1
60
0
100
AcDbEllipse
10
98.178392
20
3.337698
30
0
11
0.279970847001606
21
0.174689223563457
31
0
210
0
220
0
230
1
40
0.429075
41
-1.5934866482703
42
-1.24442079787162
0
ELLIPSE
5
21B
100
AcDbEntity
8
1
62
256
6
ByLayer
370
-1
48
1
60
0
100
AcDbEllipse
10
88.647
20
9.081568
30
0
11
0.214135434812111
21
-0.137644526072878
31
0
210
0
220
0
230
1
40
0.895737
41
0.204511071699803
42
0.50932972197665
0
ELLIPSE
5
21C
100
AcDbEntity
8
1
62
256
6
ByLayer
370
-1
48
1
60
0
100
AcDbEllipse
10
88.363217
20
10.084554
30
0
11
-0.231053917346955
21
0.102175827440256
31
0
210
0
220
0
230
1
40
0.908072
41
-0.6630756863937
42
-0.12433656720372
0
ELLIPSE
5
21D
100
AcDbEntity
8
1
62
256
6
ByLayer
370
-1
48
1
60
0
100
AcDbEllipse
10
95.153552
20
8.703454
30
0
11
-3.00359442768437
21
0.195663719966987
31
0
210
0
220
0
230
1
40
0.965789
41
-0.372671608531899
42
0
0
ELLIPSE
5
21E
100
AcDbEntity
8
1
62
256
6
ByLayer
370
-1
48
1
60
0
100
AcDbEllipse
10
95.153552
20
8.703454
30
0
11
-3.00359442768437
21
0.195663719966987
31
0
210
0
220
0
230
1
40
0.965789
41
0
42
0.220206031232929
0
ELLIPSE
5
21F
100
AcDbEntity
8
1
62
256
6
ByLayer
370
-1
48
1
60
0
100
AcDbEllipse
10
95.153552
20
8.703454
30
0
11
-3.00359442768437
21
0.195663719966987
31
0
210
0
220
0
230
1
40
0.965789
41
2.92128823926724
42
-2.0795383476551
0
ELLIPSE
5
220
100
AcDbEntity
8
1
62
256
6
ByLayer
370
-1
48
1
60
0
100
AcDbEllipse
10
97.721263
20
2.971672
30
0
11
-0.837564038360126
21
-0.479739159389431
31
0
210
0
220
0
230
1
40
0.308746
41
-3.12995290557937
42
-2.31350331954523
0
ELLIPSE
5
221
100
AcDbEntity
8
1
62
256
6
ByLayer
370
-1
48
1
60
0
100
AcDbEllipse
10
98.927706
20
15.485339
30
0
11
-0.000396770121505633
21
-0.0911034398263391
31
0
210
0
220
0
230
1
40
0.965798
41
3.14158434255304
42
-2.10954375708021
0
ELLIPSE
5
222
100
AcDbEntity
8
1
62
256
6
ByLayer
370
-1
48
1
60
0
100
AcDbEllipse
10
98.921235
20
13.534955
30
0
11
-0.00804175809598923
21
-1.84310051258719
31
0
210
0
220
0
230
1
40
0.179021
41
2.84088284843479
42
-2.84088306244412
0
ELLIPSE
5
223
100
AcDbEntity
8
1
62
256
6
ByLayer
370
-1
48
1
60
0
100
AcDbEllipse
10
98.472053
20
2.867053
30
0
11
0.279970847001606
21
0.174689223563457
31
0
210
0
220
0
230
1
40
0.429075
41
-1.59348664827048
42
-1.24442079787171
0
ELLIPSE
5
224
100
AcDbEntity
8
1
62
256
6
ByLayer
370
-1
48
1
60
0
100
AcDbEllipse
10
96.672971
20
2.932986
30
0
11
-0.125543597399466
21
0.294344704644063
31
0
210
0
220
0
230
1
40
0.19293
41
0.864332537322692
42
1.85493786330967
0
ELLIPSE
5
225
100
AcDbEntity
8
1
62
256
6
ByLayer
370
-1
48
1
60
0
100
AcDbEllipse
10
88.702069
20
9.492875
30
0
11
0.329968661514939
21
-0.00454779265573931
31
0
210
0
220
0
230
1
40
0.388155
41
-1.80823989284464
42
-0.927218566835281
0
ELLIPSE
5
226
100
AcDbEntity
8
1
62
256
6
ByLayer
370
-1
48
1
60
0
100
AcDbEllipse
10
95.157432
20
8.699276
30
0
11
-2.71822297044151
21
0.19206478845474
31
0
210
0
220
0
230
1
40
0.965764
41
0
42
3.14149459685375
0
ELLIPSE
5
227
100
AcDbEntity
8
1
62
256
6
ByLayer
370
-1
48
1
60
0
100
AcDbEllipse
10
95.180079
20
9.019799
30
0
11
-2.71822297044151
21
0.19206478845474
31
0
210
0
220
0
230
1
40
0.965764
41
0
42
6.28318530717959
0
ELLIPSE
5
228
100
AcDbEntity
8
1
62
256
6
ByLayer
370
-1
48
1
60
0
100
AcDbEllipse
10
95.181202
20
9.035684
30
0
11
-1.79552343001641
21
0.126868484116892
31
0
210
0
220
0
230
1
40
0.965764
41
0
42
6.28318530717959
0
POINT
5
41
100
AcDbEntity
8
2
62
256
6
ByLayer
370
-1
48
1
60
0
100
AcDbPoint
10
99.93
20
16.875
30
0
39
0
210
0
220
0
230
1
50
360
0
POINT
5
43
100
AcDbEntity
8
80
62
256
6
ByLayer
370
-1
48
1
60
0
100
AcDbPoint
10
0
20
0
30
0
39
0
210
0
220
0
230
1
50
360
0
POINT
5
45
100
AcDbEntity
8
1
62
256
6
ByLayer
370
-1
48
1
60
0
100
AcDbPoint
10
99.935843
20
16.911222
30
0
39
0
210
0
220
0
230
1
50
360
0
POINT
5
47
100
AcDbEntity
8
1
62
256
6
ByLayer
370
-1
48
1
60
0
100
AcDbPoint
10
99.935843
20
16.911222
30
0
39
0
210
0
220
0
230
1
50
360
0
POINT
5
48
100
AcDbEntity
8
1
62
256
6
ByLayer
370
-1
48
1
60
0
100
AcDbPoint
10
98.930142
20
15.576468
30
0
39
0
210
0
220
0
230
1
50
360
0
POINT
5
49
100
AcDbEntity
8
81
62
256
6
ByLayer
370
-1
48
1
60
0
100
AcDbPoint
10
99.93
20
16.875
30
0
39
0
210
0
220
0
230
1
50
360
0
SPLINE
5
229
100
AcDbEntity
8
1
62
256
6
ByLayer
370
-1
48
1
60
0
100
AcDbSpline
70
4
71
1
72
4
73
2
40
0
40
0
40
1
40
1
41
1
10
90.6493348472746
20
12.202101014846
30
0
41
1
10
90.5406558379374
20
11.7139269797371
30
0
0
SPLINE
5
22A
100
AcDbEntity
8
1
62
256
6
ByLayer
370
-1
48
1
60
0
100
AcDbSpline
70
4
71
3
72
11
73
7
40
0
40
0
40
0
40
0
40
0.154208537475322
40
0.563389186466322
40
0.94922561074405
40
1
40
1
40
1
40
1
41
1
10
99.5873498758242
20
3.7326844721471
30
0
41
1
10
99.6174466861712
20
3.69485725663964
30
0
41
1
10
99.7245367842149
20
3.55448213419717
30
0
41
1
10
99.8850393159101
20
3.30359500325662
30
0
41
1
10
100.012136921962
20
3.06970162873935
30
0
41
1
10
100.062177731505
20
2.94237468207243
30
0
41
1
10
100.067856680681
20
2.92750166321323
30
0
0
SPLINE
5
22B
100
AcDbEntity
8
1
62
256
6
ByLayer
370
-1
48
1
60
0
100
AcDbSpline
70
4
71
3
72
11
73
7
40
0
40
0
40
0
40
0
40
0.123470791855095
40
0.463910733871756
40
0.799075261183117
40
1
40
1
40
1
40
1
41
1
10
100.07065483426
20
-0.41102462936874
30
0
41
1
10
100.052325300557
20
-0.460977935470481
30
0
41
1
10
99.978044409052
20
-0.64592557917527
30
0
41
1
10
99.8030616204057
20
-0.943885438180871
30
0
41
1
10
99.5813048702348
20
-1.24867137707375
30
0
41
1
10
99.4285781813968
20
-1.42218746743649
30
0
41
1
10
99.3687810268397
20
-1.48466720201125
30
0
0
SPLINE
5
22C
100
AcDbEntity
8
1
62
256
6
ByLayer
370
-1
48
1
60
0
100
AcDbSpline
70
4
71
3
72
10
73
6
40
0
40
0
40
0
40
0
40
0.410259114256352
40
0.410259114256352
40
1
40
1
40
1
40
1
41
1
10
70.7741710815637
20
0.120450721283305
30
0
41
1
10
70.7410168745801
20
0.145499052051889
30
0
41
1
10
70.7031885880455
20
0.162568571884691
30
0
41
1
10
70.610168793878
20
0.192237159178632
30
0
41
1
10
70.5526656932152
20
0.199999999999989
30
0
41
1
10
70.4958690099222
20
0.199999999999989
30
0
0
SPLINE
5
22D
100
AcDbEntity
8
1
62
256
6
ByLayer
370
-1
48
1
60
0
100
AcDbSpline
70
4
71
3
72
8
73
4
40
0
40
0
40
0
40
0
40
1
40
1
40
1
40
1
41
1
10
83.6586122138145
20
13.4715969635781
30
0
41
1
10
83.5783057390494
20
13.3942780093649
30
0
41
1
10
83.5054162476702
20
13.3167747842223
30
0
41
1
10
83.440366517606
20
13.2390767844617
30
0
0
SPLINE
5
22E
100
AcDbEntity
8
1
62
256
6
ByLayer
370
-1
48
1
60
0
100
AcDbSpline
70
4
71
3
72
20
73
16
40
0
40
0
40
0
40
0
40
0.259774732116149
40
0.259774732116149
40
0.370699273149466
40
0.370699273149466
40
0.48376038943343
40
0.48376038943343
40
0.581506944354029
40
0.581506944354029
40
0.698586224667007
40
0.698586224667007
40
0.909627872253616
40
0.909627872253616
40
1
40
1
40
1
40
1
41
1
10
70.774171081574
20
-0.120450721302575
30
0
41
1
10
70.7937685486993
20
-0.105644641369224
30
0
41
1
10
70.8130938232139
20
-0.0885762657588884
30
0
41
1
10
70.8356717660588
20
-0.0591459139242261
30
0
41
1
10
70.8418384345439
20
-0.0494960279685586
30
0
41
1
10
70.851279321529
20
-0.0285626980361542
30
0
41
1
10
70.8545374126014
20
-0.0169018227888955
30
0
41
1
10
70.8558653902174
20
0.004959448237372
30
0
41
1
10
70.8545643615935
20
0.0153955689131919
30
0
41
1
10
70.8483388381983
20
0.0367296756811299
30
0
41
1
10
70.8427784635629
20
0.0476827315528396
30
0
41
1
10
70.824622392498
20
0.0753865751142371
30
0
41
1
10
70.8097896199589
20
0.0906045513744971
30
0
41
1
10
70.7878318411236
20
0.109787256714554
30
0
41
1
10
70.7810458778685
20
0.115256744787928
30
0
41
1
10
70.7741710815639
20
0.120450721283532
30
0
0
SPLINE
5
22F
100
AcDbEntity
8
1
62
256
6
ByLayer
370
-1
48
1
60
0
100
AcDbSpline
70
4
71
2
72
6
73
3
40
0
40
0
40
0
40
1
40
1
40
1
41
0.499993142148531
10
82.1741710804612
20
12.1097856198567
30
0
41
0.500006857851469
10
82.1086407405695
20
12.1096633467463
30
0
41
0.499993142148531
10
82.0431152734344
20
12.1095408449999
30
0
0
SPLINE
5
230
100
AcDbEntity
8
1
62
256
6
ByLayer
370
-1
48
1
60
0
100
AcDbSpline
70
4
71
3
72
8
73
4
40
0
40
0
40
0
40
0
40
1
40
1
40
1
40
1
41
1
10
83.6586122138145
20
13.4715969635781
30
0
41
1
10
83.3671422407015
20
13.1170709601797
30
0
41
1
10
83.0765231751103
20
12.761888163977
30
0
41
1
10
82.7870066349564
20
12.4058682596721
30
0
0
SPLINE
5
231
100
AcDbEntity
8
1
62
256
6
ByLayer
370
-1
48
1
60
0
100
AcDbSpline
70
4
71
3
72
10
73
6
40
0
40
0
40
0
40
0
40
0.474110106603027
40
0.474110106603027
40
1
40
1
40
1
40
1
41
1
10
70.4958690099222
20
0.199999999999989
30
0
41
1
10
70.4826226355288
20
0.199999999999989
30
0
41
1
10
70.4693762603463
20
0.199999999999989
30
0
41
1
10
70.4414368096093
20
0.199999999999989
30
0
41
1
10
70.426743733874
20
0.199999999999989
30
0
41
1
10
70.4120506571791
20
0.199999999999989
30
0
0
SPLINE
5
232
100
AcDbEntity
8
1
62
256
6
ByLayer
370
-1
48
1
60
0
100
AcDbSpline
70
4
71
3
72
10
73
6
40
0
40
0
40
0
40
0
40
0.603819406198244
40
0.603819406198244
40
1
40
1
40
1
40
1
41
1
10
70.4958690099222
20
-0.199999999999989
30
0
41
1
10
70.5539968043321
20
-0.199999999999989
30
0
41
1
10
70.6128950485081
20
-0.191887776167874
30
0
41
1
10
70.7057154435812
20
-0.161389906079904
30
0
41
1
10
70.7421344206888
20
-0.144654734931123
30
0
41
1
10
70.7741710815637
20
-0.120450721283277
30
0
0
SPLINE
5
233
100
AcDbEntity
8
1
62
256
6
ByLayer
370
-1
48
1
60
0
100
AcDbSpline
70
4
71
3
72
24
73
20
40
0
40
0
40
0
40
0
40
0.0930387984288698
40
0.0930387984288698
40
0.208795884179301
40
0.208795884179301
40
0.367511746263626
40
0.367511746263626
40
0.460500139973002
40
0.460500139973002
40
0.539739222751777
40
0.539739222751777
40
0.642471866929944
40
0.642471866929944
40
0.802983891546493
40
0.802983891546493
40
0.911167552796841
40
0.911167552796841
40
1
40
1
40
1
40
1
41
1
10
85.6421370707741
20
4.09795336691644
30
0
41
1
10
85.6102756509264
20
4.11243541824189
30
0
41
1
10
85.5901668354504
20
4.15464852844985
30
0
41
1
10
85.5610000728736
20
4.29409069024121
30
0
41
1
10
85.5549943224184
20
4.40371366863579
30
0
41
1
10
85.5432721524355
20
4.7025303283738
30
0
41
1
10
85.5402655552213
20
4.91174341304998
30
0
41
1
10
85.4903490886687
20
5.26092767630456
30
0
41
1
10
85.4606514487708
20
5.39702228122749
30
0
41
1
10
85.3621233275794
20
5.63921774263795
30
0
41
1
10
85.2973921620461
20
5.7481879667736
30
0
41
1
10
85.1164481947605
20
5.97154575641099
30
0
41
1
10
84.9906665627361
20
6.08248308368806
30
0
41
1
10
84.6659596701739
20
6.34173433121529
30
0
41
1
10
84.4576410759034
20
6.48520262377437
30
0
41
1
10
84.1571033584848
20
6.72538874252663
30
0
41
1
10
84.0460211054878
20
6.82378976491756
30
0
41
1
10
83.8919006838049
20
7.00294804613861
30
0
41
1
10
83.8390816079736
20
7.08562549196239
30
0
41
1
10
83.8129114113076
20
7.16672480679372
30
0
0
SPLINE
5
234
100
AcDbEntity
8
1
62
256
6
ByLayer
370
-1
48
1
60
0
100
AcDbSpline
70
4
71
3
72
8
73
4
40
0
40
0
40
0
40
0
40
1
40
1
40
1
40
1
41
1
10
86.4696364608439
20
8.23486879167601
30
0
41
1
10
86.5473725817543
20
8.45831468339637
30
0
41
1
10
86.6241312865125
20
8.67783386888388
30
0
41
1
10
86.6997923643458
20
8.89395765533072
30
0
0
SPLINE
5
235
100
AcDbEntity
8
1
62
256
6
ByLayer
370
-1
48
1
60
0
100
AcDbSpline
70
4
71
3
72
10
73
6
40
0
40
0
40
0
40
0
40
0.525889893396814
40
0.525889893396814
40
1
40
1
40
1
40
1
41
1
10
70.4120506571791
20
-0.199999999999989
30
0
41
1
10
70.426743733874
20
-0.199999999999989
30
0
41
1
10
70.4414368096093
20
-0.199999999999989
30
0
41
1
10
70.4693762603463
20
-0.199999999999989
30
0
41
1
10
70.4826226355289
20
-0.199999999999989
30
0
41
1
10
70.4958690099222
20
-0.199999999999989
30
0
0
SPLINE
5
236
100
AcDbEntity
8
1
62
256
6
ByLayer
370
-1
48
1
60
0
100
AcDbSpline
70
4
71
3
72
18
73
14
40
0
40
0
40
0
40
0
40
0.188868289525611
40
0.188868289525611
40
0.379925431045789
40
0.379925431045789
40
0.546079786256096
40
0.546079786256096
40
0.702283134398427
40
0.702283134398427
40
0.873696004719101
40
0.873696004719101
40
1
40
1
40
1
40
1
41
1
10
80.9921634174785
20
11.8989079782662
30
0
41
1
10
80.9585473495194
20
11.9244069968537
30
0
41
1
10
80.9411811638778
20
11.9494464619679
30
0
41
1
10
80.950849941304
20
11.9950204387058
30
0
41
1
10
80.9790945862154
20
12.0161376695315
30
0
41
1
10
81.0764368336834
20
12.0487706140751
30
0
41
1
10
81.1411000920842
20
12.0616531563341
30
0
41
1
10
81.2916053140681
20
12.0813352038779
30
0
41
1
10
81.3776161001817
20
12.0887480290561
30
0
41
1
10
81.5702032220714
20
12.1003571356838
30
0
41
1
10
81.6801067330978
20
12.1043471083453
30
0
41
1
10
81.8743014944952
20
12.1084838203666
30
0
41
1
10
81.9588335178191
20
12.1093832778324
30
0
41
1
10
82.0431152734336
20
12.1095408449999
30
0
0
SPLINE
5
237
100
AcDbEntity
8
1
62
256
6
ByLayer
370
-1
48
1
60
0
100
AcDbSpline
70
4
71
3
72
8
73
4
40
0
40
0
40
0
40
0
40
1
40
1
40
1
40
1
41
1
10
82.3002662825905
20
-0.364242857145967
30
0
41
1
10
82.2598753311152
20
-0.310530079523204
30
0
41
1
10
82.2178580863706
20
-0.257672503070182
30
0
41
1
10
82.1741710804624
20
-0.206382733771306
30
0
0
SPLINE
5
238
100
AcDbEntity
8
1
62
256
6
ByLayer
370
-1
48
1
60
0
100
AcDbSpline
70
4
71
3
72
12
73
8
40
0
40
0
40
0
40
0
40
0.386078051395458
40
0.386078051395458
40
0.773881094604453
40
0.773881094604453
40
1
40
1
40
1
40
1
41
1
10
82.7870066349564
20
12.4058682596721
30
0
41
1
10
82.7309833728968
20
12.3369761805297
30
0
41
1
10
82.6624229431588
20
12.2760369219107
30
0
41
1
10
82.5096762670612
20
12.181007226421
30
0
41
1
10
82.4231917316195
20
12.1457575311748
30
0
41
1
10
82.2818481401063
20
12.1156518598952
30
0
41
1
10
82.2278775972136
20
12.1098858308833
30
0
41
1
10
82.1741710804617
20
12.1097856198533
30
0
0
SPLINE
5
239
100
AcDbEntity
8
1
62
256
6
ByLayer
370
-1
48
1
60
0
100
AcDbSpline
70
4
71
3
72
8
73
4
40
0
40
0
40
0
40
0
40
1
40
1
40
1
40
1
41
1
10
91.1231947459698
20
12.5195752736869
30
0
41
1
10
91.1228674486193
20
12.5195334243282
30
0
41
1
10
91.1225397962008
20
12.5194914679193
30
0
41
1
10
91.1222117941147
20
12.5194494029736
30
0
0
SPLINE
5
23A
100
AcDbEntity
8
1
62
256
6
ByLayer
370
-1
48
1
60
0
100
AcDbSpline
70
4
71
1
72
4
73
2
40
0
40
0
40
1
40
1
41
1.08358774580744
10
87.4996640803816
20
6.7364322602658
30
0
41
1.08358774580744
10
87.5285611960972
20
6.87723351878053
30
0
0
SPLINE
5
23B
100
AcDbEntity
8
1
62
256
6
ByLayer
370
-1
48
1
60
0
100
AcDbSpline
70
4
71
3
72
10
73
6
40
0
40
0
40
0
40
0
40
0.722254617258738
40
0.722254617258738
40
1
40
1
40
1
40
1
41
1
10
90.8966334467428
20
12.4678449382479
30
0
41
1
10
90.9465381236386
20
12.4921615696966
30
0
41
1
10
91.0015087255541
20
12.5084741975072
30
0
41
1
10
91.0785901637137
20
12.5181415458612
30
0
41
1
10
91.1004228019471
20
12.5194861163459
30
0
41
1
10
91.1222117941136
20
12.5194494029737
30
0
0
SPLINE
5
23C
100
AcDbEntity
8
1
62
256
6
ByLayer
370
-1
48
1
60
0
100
AcDbSpline
70
4
71
3
72
10
73
6
40
0
40
0
40
0
40
0
40
0.638091248905444
40
0.638091248905444
40
1
40
1
40
1
40
1
41
1
10
90.8966334467428
20
12.4678449382479
30
0
41
1
10
90.8685978312876
20
12.4574756514364
30
0
41
1
10
90.8438312326531
20
12.446361552474
30
0
41
1
10
90.8120950107052
20
12.4309769815108
30
0
41
1
10
90.8018623344525
20
12.4257459290082
30
0
41
1
10
90.793217013951
20
12.4214773545037
30
0
0
SPLINE
5
23D
100
AcDbEntity
8
1
62
256
6
ByLayer
370
-1
48
1
60
0
100
AcDbSpline
70
4
71
3
72
12
73
8
40
0
40
0
40
0
40
0
40
0.404644073901366
40
0.404644073901366
40
0.80928594775572
40
0.80928594775572
40
1
40
1
40
1
40
1
41
1
10
90.628873699267
20
12.0641123213662
30
0
41
1
10
90.628873699267
20
12.1181595628662
30
0
41
1
10
90.6385338946952
20
12.1729180566476
30
0
41
1
10
90.6755734564293
20
12.274787942225
30
0
41
1
10
90.7034633761763
20
12.3233040845859
30
0
41
1
10
90.7550688745125
20
12.3854398474739
30
0
41
1
10
90.7734540015144
20
12.4042569846192
30
0
41
1
10
90.7932170139529
20
12.421477354506
30
0
0
SPLINE
5
23E
100
AcDbEntity
8
1
62
256
6
ByLayer
370
-1
48
1
60
0
100
AcDbSpline
70
4
71
3
72
8
73
4
40
0
40
0
40
0
40
0
40
1
40
1
40
1
40
1
41
1
10
93.7272439778361
20
8.64070046925622
30
0
41
1
10
93.7206501419503
20
8.64041340087192
30
0
41
1
10
93.7140563447621
20
8.64012635700121
30
0
41
1
10
93.7074625847393
20
8.6398393366724
30
0
0
SPLINE
5
23F
100
AcDbEntity
8
1
62
256
6
ByLayer
370
-1
48
1
60
0
100
AcDbSpline
70
4
71
3
72
30
73
26
40
0
40
0
40
0
40
0
40
0.0511772287528644
40
0.0511772287528644
40
0.135075241067704
40
0.135075241067704
40
0.271834780652212
40
0.271834780652212
40
0.469061266910582
40
0.469061266910582
40
0.500636061959766
40
0.500636061959766
40
0.599800502489139
40
0.599800502489139
40
0.697557955314455
40
0.697557955314455
40
0.781333785463082
40
0.781333785463082
40
0.847844869822056
40
0.847844869822056
40
0.899113486931108
40
0.899113486931108
40
0.939077913069114
40
0.939077913069114
40
1
40
1
40
1
40
1
41
1
10
94.1162123299376
20
7.98799385638273
30
0
41
1
10
94.1252536885758
20
7.99585019416352
30
0
41
1
10
94.1323411237448
20
8.00557471525025
30
0
41
1
10
94.1462457808865
20
8.03340280172392
30
0
41
1
10
94.1504457183651
20
8.05333513446533
30
0
41
1
10
94.1538416383999
20
8.10715095121418
30
0
41
1
10
94.1485236676095
20
8.14312114884055
30
0
41
1
10
94.1253915565417
20
8.23059804340133
30
0
41
1
10
94.102560224758
20
8.28390448540975
30
0
41
1
10
94.069561719086
20
8.34357515582533
30
0
41
1
10
94.0647966449235
20
8.35187044850525
30
0
41
1
10
94.0444826866867
20
8.38595819575545
30
0
41
1
10
94.0275375254499
20
8.41146499339473
30
0
41
1
10
93.9913132373676
20
8.46041829074272
30
0
41
1
10
93.9719523501855
20
8.48405508357496
30
0
41
1
10
93.933778078973
20
8.5255065729163
30
0
41
1
10
93.9151672669994
20
8.54379796026797
30
0
41
1
10
93.880213957017
20
8.57395832221431
30
0
41
1
10
93.8640976049595
20
8.5864558607434
30
0
41
1
10
93.8346248615151
20
8.60610770887695
30
0
41
1
10
93.8214048984608
20
8.61387787406659
30
0
41
1
10
93.7974432564297
20
8.62555707721171
30
0
41
1
10
93.7867353506505
20
8.62996588267174
30
0
41
1
10
93.7597335810229
20
8.63850176242858
30
0
41
1
10
93.7430109972663
20
8.64138690017006
30
0
41
1
10
93.7272439778362
20
8.64070046925625
30
0
0
SPLINE
5
240
100
AcDbEntity
8
1
62
256
6
ByLayer
370
-1
48
1
60
0
100
AcDbSpline
70
4
71
3
72
30
73
26
40
0
40
0
40
0
40
0
40
0.0515194889309895
40
0.0515194889309895
40
0.0928771460763096
40
0.0928771460763096
40
0.148185150442164
40
0.148185150442164
40
0.203338923043255
40
0.203338923043255
40
0.287955708682663
40
0.287955708682663
40
0.372427214532595
40
0.372427214532595
40
0.435367147735207
40
0.435367147735207
40
0.498971020782966
40
0.498971020782966
40
0.701334348039058
40
0.701334348039058
40
0.838887327921446
40
0.838887327921446
40
0.925006664597216
40
0.925006664597216
40
1
40
1
40
1
40
1
41
1
10
93.7272439778361
20
9.39279578822098
30
0
41
1
10
93.7406201383424
20
9.38796539573991
30
0
41
1
10
93.7546831624705
20
9.38569765145434
30
0
41
1
10
93.7796501657884
20
9.38520861533618
30
0
41
1
10
93.7907962310385
20
9.3862616319623
30
0
41
1
10
93.8163266055464
20
9.39096912813002
30
0
41
1
10
93.8306744147182
20
9.39539382138202
30
0
41
1
10
93.8584315584191
20
9.40665808168779
30
0
41
1
10
93.8719368983614
20
9.41353190361176
30
0
41
1
10
93.9050168406034
20
9.43326986758029
30
0
41
1
10
93.9241492436004
20
9.4474568442823
30
0
41
1
10
93.9603631960831
20
9.4789154513648
30
0
41
1
10
93.9775649083274
20
9.49629456966179
30
0
41
1
10
94.0058329180789
20
9.52877591610542
30
0
41
1
10
94.0173882551284
20
9.54338478977087
30
0
41
1
10
94.0394553402459
20
9.57394119140835
30
0
41
1
10
94.0499839342167
20
9.58994206109398
30
0
41
1
10
94.0909899074377
20
9.65836377284307
30
0
41
1
10
94.1165032113726
20
9.71633065021578
30
0
41
1
10
94.1442129999313
20
9.81725785568324
30
0
41
1
10
94.1515231419924
20
9.86005135629895
30
0
41
1
10
94.1525357180564
20
9.92888295046146
30
0
41
1
10
94.1502602491483
20
9.95571491735657
30
0
41
1
10
94.138307899452
20
10.0029073918022
30
0
41
1
10
94.1293367564664
20
10.024309119164
30
0
41
1
10
94.1162123299379
20
10.0418202687174
30
0
0
SPLINE
5
241
100
AcDbEntity
8
1
62
256
6
ByLayer
370
-1
48
1
60
0
100
AcDbSpline
70
4
71
3
72
22
73
18
40
0
40
0
40
0
40
0
40
0.142057608739566
40
0.142057608739566
40
0.35100481299327
40
0.35100481299327
40
0.487763342942327
40
0.487763342942327
40
0.591529353509783
40
0.591529353509783
40
0.758694969227357
40
0.758694969227357
40
0.858776631809093
40
0.858776631809093
40
0.960359919517568
40
0.960359919517568
40
1
40
1
40
1
40
1
41
1
10
93.5050820831053
20
9.04361786606785
30
0
41
1
10
93.5050820831053
20
9.06646426137735
30
0
41
1
10
93.5061148661618
20
9.08925135689927
30
0
41
1
10
93.511293100101
20
9.14500015831857
30
0
41
1
10
93.5166709352441
20
9.17788658889725
30
0
41
1
10
93.5300078335765
20
9.23059379843332
30
0
41
1
10
93.5364645200375
20
9.25109496273632
30
0
41
1
10
93.5502814496132
20
9.28578351355182
30
0
41
1
10
93.557072783583
20
9.30035684720932
30
0
41
1
10
93.5772398695058
20
9.33631874784118
30
0
41
1
10
93.5923759654941
20
9.3570491378517
30
0
41
1
10
93.6217096856829
20
9.38290267056593
30
0
41
1
10
93.6341161680424
20
9.39106283290133
30
0
41
1
10
93.6608785291214
20
9.4017118602691
30
0
41
1
10
93.6756877303862
20
9.4041574274973
30
0
41
1
10
93.6959942179379
20
9.40249258919081
30
0
41
1
10
93.7017783262652
20
9.40147001950876
30
0
41
1
10
93.7074625847393
20
9.39993930465391
30
0
0
SPLINE
5
242
100
AcDbEntity
8
1
62
256
6
ByLayer
370
-1
48
1
60
0
100
AcDbSpline
70
4
71
3
72
8
73
4
40
0
40
0
40
0
40
0
40
1
40
1
40
1
40
1
41
1
10
93.7074625847393
20
9.39993930465391
30
0
41
1
10
93.714056344762
20
9.3975581232522
30
0
41
1
10
93.7206501419502
20
9.39517695098201
30
0
41
1
10
93.727243977836
20
9.39279578822089
30
0
0
SPLINE
5
243
100
AcDbEntity
8
1
62
256
6
ByLayer
370
-1
48
1
60
0
100
AcDbSpline
70
4
71
3
72
24
73
20
40
0
40
0
40
0
40
0
40
0.0974021566269527
40
0.0974021566269527
40
0.180354031075297
40
0.180354031075297
40
0.307542616517158
40
0.307542616517158
40
0.412109117009591
40
0.412109117009591
40
0.516348967690876
40
0.516348967690876
40
0.620446917153493
40
0.620446917153493
40
0.724476829460112
40
0.724476829460112
40
0.933310901386376
40
0.933310901386376
40
1
40
1
40
1
40
1
41
1
10
93.7074625847393
20
8.6398393366724
30
0
41
1
10
93.6937586940945
20
8.64040369489496
30
0
41
1
10
93.6793045673201
20
8.64402823864629
30
0
41
1
10
93.6540757795609
20
8.65573177541415
30
0
41
1
10
93.6427749478255
20
8.66316051365726
30
0
41
1
10
93.6166346395021
20
8.68496771533745
30
0
41
1
10
93.6026035401663
20
8.70121538281637
30
0
41
1
10
93.5806235566253
20
8.73272845751924
30
0
41
1
10
93.5718476138929
20
8.74791041316087
30
0
41
1
10
93.5563644290991
20
8.77899042029378
30
0
41
1
10
93.5496034362222
20
8.79498633620159
30
0
41
1
10
93.5377490448385
20
8.82736616011627
30
0
41
1
10
93.5326346635044
20
8.84380711227581
30
0
41
1
10
93.5238237970247
20
8.87689490311092
30
0
41
1
10
93.5201177823478
20
8.89357902879826
30
0
41
1
10
93.5108799312721
20
8.94383345040561
30
0
41
1
10
93.5072060123785
20
8.97768773353025
30
0
41
1
10
93.505310906217
20
9.02212190311587
30
0
41
1
10
93.5050820831053
20
9.03288062921791
30
0
41
1
10
93.5050820831053
20
9.04361786606785
30
0
0
SPLINE
5
244
100
AcDbEntity
8
1
62
256
6
ByLayer
370
-1
48
1
60
0
100
AcDbSpline
70
4
71
3
72
22
73
18
40
0
40
0
40
0
40
0
40
0.097371265984655
40
0.097371265984655
40
0.180296832630705
40
0.180296832630705
40
0.307445080803115
40
0.307445080803115
40
0.411978418515041
40
0.411978418515041
40
0.516185210011304
40
0.516185210011304
40
0.620250145292153
40
0.620250145292153
40
0.829289859626475
40
0.829289859626475
40
1
40
1
40
1
40
1
41
1
10
95.5749723255622
20
7.58935766389288
30
0
41
1
10
95.5806416969107
20
7.57902448502583
30
0
41
1
10
95.5894380125761
20
7.56957056223257
30
0
41
1
10
95.6097719835989
20
7.55564486558038
30
0
41
1
10
95.6209043787538
20
7.55045482428284
30
0
41
1
10
95.6509111289137
20
7.54067908177379
30
0
41
1
10
95.6711968631146
20
7.53762339360753
30
0
41
1
10
95.7084985628656
20
7.53579028517234
30
0
41
1
10
95.7257619927877
20
7.53632498990743
30
0
41
1
10
95.7601096461618
20
7.53937495195399
30
0
41
1
10
95.7773043241612
20
7.54189570751206
30
0
41
1
10
95.8113598760505
20
7.54845100534672
30
0
41
1
10
95.828280979214
20
7.55249690964581
30
0
41
1
10
95.8785118666786
20
7.56650703103378
30
0
41
1
10
95.9114014302623
20
7.57836597127564
30
0
41
1
10
95.9692334597775
20
7.60327393816345
30
0
41
1
10
95.9946466216471
20
7.61576874988546
30
0
41
1
10
96.019261697528
20
7.62938181187562
30
0
0
SPLINE
5
245
100
AcDbEntity
8
1
62
256
6
ByLayer
370
-1
48
1
60
0
100
AcDbSpline
70
4
71
3
72
8
73
4
40
0
40
0
40
0
40
0
40
1
40
1
40
1
40
1
41
1
10
94.1028414789748
20
10.0596602820651
30
0
41
1
10
94.1072984033189
20
10.0537136212128
30
0
41
1
10
94.1117553532877
20
10.0477669502357
30
0
41
1
10
94.1162123299378
20
10.0418202687174
30
0
0
SPLINE
5
246
100
AcDbEntity
8
1
62
256
6
ByLayer
370
-1
48
1
60
0
100
AcDbSpline
70
4
71
3
72
34
73
30
40
0
40
0
40
0
40
0
40
0.0514465755209254
40
0.0514465755209254
40
0.135786144735421
40
0.135786144735421
40
0.203131635218893
40
0.203131635218893
40
0.270315608875121
40
0.270315608875121
40
0.337431278535976
40
0.337431278535976
40
0.404515897625567
40
0.404515897625567
40
0.499929883690914
40
0.499929883690914
40
0.599210771748022
40
0.599210771748022
40
0.697083019894104
40
0.697083019894104
40
0.780957226922598
40
0.780957226922598
40
0.847546414393175
40
0.847546414393175
40
0.898875235580277
40
0.898875235580277
40
0.980803570703501
40
0.980803570703501
40
1
40
1
40
1
40
1
41
1
10
94.79040981588
20
7.60875508330713
30
0
41
1
10
94.794599060139
20
7.61934075476586
30
0
41
1
10
94.8014293024251
20
7.62920994787453
30
0
41
1
10
94.8235161862328
20
7.65243549923574
30
0
41
1
10
94.8416295163335
20
7.66454149317076
30
0
41
1
10
94.87734494539
20
7.68275772941951
30
0
41
1
10
94.8946173990441
20
7.68971846622492
30
0
41
1
10
94.9305561582315
20
7.70172257382617
30
0
41
1
10
94.9493408283865
20
7.70680574170012
30
0
41
1
10
94.9878109315652
20
7.71541582533069
30
0
41
1
10
95.0075813680367
20
7.71896086377521
30
0
41
1
10
95.0476899418913
20
7.72470425973512
30
0
41
1
10
95.0680978093973
20
7.72691201040476
30
0
41
1
10
95.1178611628519
20
7.7307685374185
30
0
41
1
10
95.1475233189765
20
7.73180548603384
30
0
41
1
10
95.2079208130225
20
7.73151961243113
30
0
41
1
10
95.2388452635759
20
7.7300995626384
30
0
41
1
10
95.2993430508268
20
7.72464630709425
30
0
41
1
10
95.329133034007
20
7.72063553943897
30
0
41
1
10
95.3827769118035
20
7.7104389539916
30
0
41
1
10
95.4070347933771
20
7.70461653035787
30
0
41
1
10
95.4485391274957
20
7.6917691627506
30
0
41
1
10
95.4663137443425
20
7.68520289618749
30
0
41
1
10
95.4957749901302
20
7.67170414047752
30
0
41
1
10
95.5079971139547
20
7.66516303039015
30
0
41
1
10
95.5368135593615
20
7.64634727757064
30
0
41
1
10
95.5523167523331
20
7.63257180969569
30
0
41
1
10
95.5645987164563
20
7.61298561800265
30
0
41
1
10
95.5666572243676
20
7.60907969408817
30
0
41
1
10
95.5683465200832
20
7.60507295093001
30
0
0
SPLINE
5
247
100
AcDbEntity
8
1
62
256
6
ByLayer
370
-1
48
1
60
0
100
AcDbSpline
70
4
71
3
72
24
73
20
40
0
40
0
40
0
40
0
40
0.0380198325526455
40
0.0380198325526455
40
0.246834654675905
40
0.246834654675905
40
0.404726505664128
40
0.404726505664128
40
0.526150637963494
40
0.526150637963494
40
0.621531995504189
40
0.621531995504189
40
0.776890538332498
40
0.776890538332498
40
0.87368421389831
40
0.87368421389831
40
0.971746172255248
40
0.971746172255248
40
1
40
1
40
1
40
1
41
1
10
94.3431419545795
20
7.63731522694647
30
0
41
1
10
94.3486302737782
20
7.63422802552174
30
0
41
1
10
94.354156027819
20
7.63119722338732
30
0
41
1
10
94.3902073306913
20
7.61192351229593
30
0
41
1
10
94.4218388400255
20
7.59729835625092
30
0
41
1
10
94.4787498252268
20
7.57526031032307
30
0
41
1
10
94.5038041336138
20
7.56692036611378
30
0
41
1
10
94.5486884805228
20
7.55481996906445
30
0
41
1
10
94.5684623653714
20
7.55042847849163
30
0
41
1
10
94.6038721530974
20
7.54464060911153
30
0
41
1
10
94.6195450702675
20
7.54279576042691
30
0
41
1
10
94.6602506024773
20
7.54037511322088
30
0
41
1
10
94.6856411946573
20
7.54125560596586
30
0
41
1
10
94.7234207062444
20
7.54891246477663
30
0
41
1
10
94.7373572868913
20
7.5534663547995
30
0
41
1
10
94.7613291770157
20
7.56616547024586
30
0
41
1
10
94.771582450884
20
7.57459354607772
30
0
41
1
10
94.7807797406463
20
7.58710242159586
30
0
41
1
10
94.78262332601
20
7.59005863572582
30
0
41
1
10
94.7842145370912
20
7.59310048106499
30
0
0
SPLINE
5
248
100
AcDbEntity
8
1
62
256
6
ByLayer
370
-1
48
1
60
0
100
AcDbSpline
70
4
71
3
72
8
73
4
40
0
40
0
40
0
40
0
40
1
40
1
40
1
40
1
41
1
10
96.2563453836786
20
7.96618257085032
30
0
41
1
10
96.2517449480731
20
7.97009816910764
30
0
41
1
10
96.2471444891754
20
7.97401381050406
30
0
41
1
10
96.2425440060255
20
7.97792949681914
30
0
0
SPLINE
5
249
100
AcDbEntity
8
1
62
256
6
ByLayer
370
-1
48
1
60
0
100
AcDbSpline
70
4
71
3
72
22
73
18
40
0
40
0
40
0
40
0
40
0.0973712659847
40
0.0973712659847
40
0.180296832630716
40
0.180296832630716
40
0.307445080803091
40
0.307445080803091
40
0.411978418515006
40
0.411978418515006
40
0.516185210011272
40
0.516185210011272
40
0.620250145292201
40
0.620250145292201
40
0.829289859626532
40
0.829289859626532
40
1
40
1
40
1
40
1
41
1
10
94.1028414789748
20
7.9763755420891
30
0
41
1
10
94.0946612774358
20
7.96767089838042
30
0
41
1
10
94.0888588367914
20
7.95677751870937
30
0
41
1
10
94.0837259071769
20
7.93475929011615
30
0
41
1
10
94.0834565520084
20
7.92367670818115
30
0
41
1
10
94.0870995089961
20
7.89550623400024
30
0
41
1
10
94.093243778051
20
7.87789871430354
30
0
41
1
10
94.1084007052706
20
7.84709436111245
30
0
41
1
10
94.1168259283935
20
7.83341197691195
30
0
41
1
10
94.1355841370286
20
7.80703336612848
30
0
41
1
10
94.145973475907
20
7.794250244132
30
0
41
1
10
94.1680989106928
20
7.76961037190614
30
0
41
1
10
94.1798741360825
20
7.75770979463616
30
0
41
1
10
94.2167876046086
20
7.72326551270385
30
0
41
1
10
94.2435852798973
20
7.70189967543934
30
0
41
1
10
94.2946110715836
20
7.66616458017762
30
0
41
1
10
94.3185268786986
20
7.65116130524083
30
0
41
1
10
94.3431419545795
20
7.63731522694647
30
0
0
SPLINE
5
24A
100
AcDbEntity
8
1
62
256
6
ByLayer
370
-1
48
1
60
0
100
AcDbSpline
70
4
71
3
72
8
73
4
40
0
40
0
40
0
40
0
40
1
40
1
40
1
40
1
41
1
10
95.5683465200833
20
7.60507295092998
30
0
41
1
10
95.5705551325689
20
7.59983447025175
30
0
41
1
10
95.5727637342527
20
7.59459604193074
30
0
41
1
10
95.5749723255622
20
7.58935766389288
30
0
0
SPLINE
5
24B
100
AcDbEntity
8
1
62
256
6
ByLayer
370
-1
48
1
60
0
100
AcDbSpline
70
4
71
3
72
24
73
20
40
0
40
0
40
0
40
0
40
0.0380198325527748
40
0.0380198325527748
40
0.246834654676148
40
0.246834654676148
40
0.404726505664386
40
0.404726505664386
40
0.52615063796369
40
0.52615063796369
40
0.621531995504406
40
0.621531995504406
40
0.776890538332628
40
0.776890538332628
40
0.873684213898456
40
0.873684213898456
40
0.971746172255418
40
0.971746172255418
40
1
40
1
40
1
40
1
41
1
10
94.3431419545795
20
10.4419870901185
30
0
41
1
10
94.3376536353808
20
10.438951843352
30
0
41
1
10
94.3322019120987
20
10.4358477486317
30
0
41
1
10
94.2971115229849
20
10.4152849900931
30
0
41
1
10
94.2685058581514
20
10.3958260708972
30
0
41
1
10
94.2211530053126
20
10.3581033836468
30
0
41
1
10
94.201617255621
20
10.3406321938871
30
0
41
1
10
94.1693892752363
20
10.307458305353
30
0
41
1
10
94.1561072060891
20
10.2922235914463
30
0
41
1
10
94.1343755857668
20
10.2635158755177
30
0
41
1
10
94.125465814875
20
10.2503168288717
30
0
41
1
10
94.1046993013746
20
10.2143494056197
30
0
41
1
10
94.0941355865452
20
10.1902208929197
30
0
41
1
10
94.0848945742966
20
10.1495615990174
30
0
41
1
10
94.0832519873412
20
10.1332633633669
30
0
41
1
10
94.0854422280792
20
10.1014835292299
30
0
41
1
10
94.0894691578789
20
10.0855808429971
30
0
41
1
10
94.0982053414522
20
10.0674608281541
30
0
41
1
10
94.1004211720346
20
10.0634791350576
30
0
41
1
10
94.1028414789748
20
10.0596602820651
30
0
0
SPLINE
5
24C
100
AcDbEntity
8
1
62
256
6
ByLayer
370
-1
48
1
60
0
100
AcDbSpline
70
4
71
3
72
22
73
18
40
0
40
0
40
0
40
0
40
0.0973712659846584
40
0.0973712659846584
40
0.180296832630675
40
0.180296832630675
40
0.30744508080309
40
0.30744508080309
40
0.411978418515031
40
0.411978418515031
40
0.516185210011309
40
0.516185210011309
40
0.620250145292289
40
0.620250145292289
40
0.829289859626631
40
0.829289859626631
40
1
40
1
40
1
40
1
41
1
10
94.7842145370912
20
10.4364851890225
30
0
41
1
10
94.7788365302281
20
10.4509419432893
30
0
41
1
10
94.7703294736336
20
10.4644896443184
30
0
41
1
10
94.7504717283667
20
10.4851551905776
30
0
41
1
10
94.7395411703881
20
10.4932017598892
30
0
41
1
10
94.7099813899256
20
10.5093033016705
30
0
41
1
10
94.6899163873449
20
10.5154829240304
30
0
41
1
10
94.6529442655745
20
10.5219804295406
30
0
41
1
10
94.6358053637861
20
10.5232081261084
30
0
41
1
10
94.6016702303025
20
10.5231658806384
30
0
41
1
10
94.5845642447934
20
10.5219003575808
30
0
41
1
10
94.5506601443437
20
10.5174884967882
30
0
41
1
10
94.5338020340577
20
10.5143341077317
30
0
41
1
10
94.4837309582762
20
10.5025857428673
30
0
41
1
10
94.4509098570401
20
10.491695725286
30
0
41
1
10
94.3931539066052
20
10.4678644779021
30
0
41
1
10
94.3677570304604
20
10.4556001521086
30
0
41
1
10
94.3431419545795
20
10.4419870901185
30
0
0
SPLINE
5
24D
100
AcDbEntity
8
1
62
256
6
ByLayer
370
-1
48
1
60
0
100
AcDbSpline
70
4
71
3
72
24
73
20
40
0
40
0
40
0
40
0
40
0.0380198325526829
40
0.0380198325526829
40
0.246834654675994
40
0.246834654675994
40
0.404726505664261
40
0.404726505664261
40
0.526150637963635
40
0.526150637963635
40
0.621531995504346
40
0.621531995504346
40
0.776890538332626
40
0.776890538332626
40
0.873684213898497
40
0.873684213898497
40
0.971746172255479
40
0.971746172255479
40
1
40
1
40
1
40
1
41
1
10
96.8573215690023
20
9.02775103592623
30
0
41
1
10
96.8573215690023
20
9.03387348411744
30
0
41
1
10
96.857246305988
20
9.03999094130552
30
0
41
1
10
96.8562693760962
20
9.07960074043919
30
0
41
1
10
96.8531936052086
20
9.11297822571694
30
0
41
1
10
96.8434701698804
20
9.17039948625103
30
0
41
1
10
96.837854773073
20
9.1948401057073
30
0
41
1
10
96.8249649545601
20
9.23681043035498
30
0
41
1
10
96.8183504643624
20
9.25470046738491
30
0
41
1
10
96.8044011622694
20
9.28535878222601
30
0
41
1
10
96.7975002383959
20
9.2984527614515
30
0
41
1
10
96.7771367357279
20
9.33083326510965
30
0
41
1
10
96.7619789092367
20
9.3493974824606
30
0
41
1
10
96.7327368170625
20
9.37244222451037
30
0
41
1
10
96.7201253331103
20
9.37969324615784
30
0
41
1
10
96.6932419114
20
9.38856579828754
30
0
41
1
10
96.6785448774719
20
9.39014116189205
30
0
41
1
10
96.6600531367365
20
9.38785134611834
30
0
41
1
10
96.6558651065917
20
9.38705659519155
30
0
41
1
10
96.6517242779141
20
9.38600351624299
30
0
0
SPLINE
5
24E
100
AcDbEntity
8
1
62
256
6
ByLayer
370
-1
48
1
60
0
100
AcDbSpline
70
4
71
3
72
22
73
18
40
0
40
0
40
0
40
0
40
0.0973712659846492
40
0.0973712659846492
40
0.180296832630698
40
0.180296832630698
40
0.307445080803113
40
0.307445080803113
40
0.41197841851502
40
0.41197841851502
40
0.516185210011305
40
0.516185210011305
40
0.620250145292226
40
0.620250145292226
40
0.829289859626557
40
0.829289859626557
40
1
40
1
40
1
40
1
41
1
10
96.6517242779141
20
8.62590354826148
30
0
41
1
10
96.6657195330442
20
8.62633680080293
30
0
41
1
10
96.6804629188895
20
8.62982314679863
30
0
41
1
10
96.7061679324047
20
8.64128560354322
30
0
41
1
10
96.7176706013163
20
8.64860640818767
30
0
41
1
10
96.7442578793373
20
8.67016403949569
30
0
41
1
10
96.7585097102933
20
8.68627783812292
30
0
41
1
10
96.780819271815
20
8.71758128141639
30
0
41
1
10
96.7897197426811
20
8.73267957100339
30
0
41
1
10
96.8054154473653
20
8.76361200212176
30
0
41
1
10
96.8122651327315
20
8.77954349592653
30
0
41
1
10
96.8242709755548
20
8.81181038450808
30
0
41
1
10
96.8294483497673
20
8.82820262369845
30
0
41
1
10
96.8428456745476
20
8.87778790528051
30
0
41
1
10
96.8489717940163
20
8.91149714411722
30
0
41
1
10
96.8558160713853
20
8.97267856601869
30
0
41
1
10
96.8573215690023
20
9.00029189564171
30
0
41
1
10
96.8573215690023
20
9.02775103592623
30
0
0
SPLINE
5
24F
100
AcDbEntity
8
1
62
256
6
ByLayer
370
-1
48
1
60
0
100
AcDbSpline
70
4
71
3
72
8
73
4
40
0
40
0
40
0
40
0
40
1
40
1
40
1
40
1
41
1
10
96.2425440060256
20
10.0317559091539
30
0
41
1
10
96.2471444891755
20
10.0376597198759
30
0
41
1
10
96.2517449480731
20
10.0435635202978
30
0
41
1
10
96.2563453836786
20
10.0494673108263
30
0
0
SPLINE
5
250
100
AcDbEntity
8
1
62
256
6
ByLayer
370
-1
48
1
60
0
100
AcDbSpline
70
4
71
3
72
8
73
4
40
0
40
0
40
0
40
0
40
1
40
1
40
1
40
1
41
1
10
96.6517242779141
20
9.38600351624299
30
0
41
1
10
96.6449870066297
20
9.38368543331927
30
0
41
1
10
96.6382497005127
20
9.3813673598678
30
0
41
1
10
96.6315123581271
20
9.37904929628027
30
0
0
SPLINE
5
251
100
AcDbEntity
8
1
62
256
6
ByLayer
370
-1
48
1
60
0
100
AcDbSpline
70
4
71
3
72
8
73
4
40
0
40
0
40
0
40
0
40
1
40
1
40
1
40
1
41
1
10
94.7842145370912
20
7.59310048106502
30
0
41
1
10
94.7862796171392
20
7.59831863094863
30
0
41
1
10
94.7883447098942
20
7.60353683100612
30
0
41
1
10
94.7904098158801
20
7.6087550833071
30
0
0
SPLINE
5
252
100
AcDbEntity
8
1
62
256
6
ByLayer
370
-1
48
1
60
0
100
AcDbSpline
70
4
71
3
72
8
73
4
40
0
40
0
40
0
40
0
40
1
40
1
40
1
40
1
41
1
10
94.1162123299377
20
7.98799385638264
30
0
41
1
10
94.1117553532876
20
7.9841210408639
30
0
41
1
10
94.1072984033188
20
7.98024827002271
30
0
41
1
10
94.1028414789748
20
7.9763755420891
30
0
0
SPLINE
5
253
100
AcDbEntity
8
1
62
256
6
ByLayer
370
-1
48
1
60
0
100
AcDbSpline
70
4
71
3
72
8
73
4
40
0
40
0
40
0
40
0
40
1
40
1
40
1
40
1
41
1
10
94.79040981588
20
10.4146768146065
30
0
41
1
10
94.7883447098942
20
10.421946290488
30
0
41
1
10
94.7862796171392
20
10.4292157483897
30
0
41
1
10
94.7842145370912
20
10.4364851890225
30
0
0
SPLINE
5
254
100
AcDbEntity
8
1
62
256
6
ByLayer
370
-1
48
1
60
0
100
AcDbSpline
70
4
71
3
72
22
73
18
40
0
40
0
40
0
40
0
40
0.0973712659846692
40
0.0973712659846692
40
0.180296832630677
40
0.180296832630677
40
0.307445080803042
40
0.307445080803042
40
0.41197841851493
40
0.41197841851493
40
0.516185210011193
40
0.516185210011193
40
0.620250145292045
40
0.620250145292045
40
0.82928985962626
40
0.82928985962626
40
1
40
1
40
1
40
1
41
1
10
96.2563453836786
20
10.0494673108263
30
0
41
1
10
96.2648169497029
20
10.0622955299347
30
0
41
1
10
96.2709086494182
20
10.0772826878415
30
0
41
1
10
96.2765178047887
20
10.1060407660419
30
0
41
1
10
96.2769889971335
20
10.1199798759908
30
0
41
1
10
96.2737930098433
20
10.154476149444
30
0
41
1
10
96.2678694724084
20
10.1752076033343
30
0
41
1
10
96.2530421231695
20
10.2106763536005
30
0
41
1
10
96.2447414281803
20
10.2261211391038
30
0
41
1
10
96.2261957394357
20
10.2555074664639
30
0
41
1
10
96.2158950930477
20
10.2695458209609
30
0
41
1
10
96.1939211097015
20
10.2963291302288
30
0
41
1
10
96.1822088771892
20
10.3091212227413
30
0
41
1
10
96.1454552203464
20
10.3458272611973
30
0
41
1
10
96.1187260074053
20
10.3681620211223
30
0
41
1
10
96.0677762947992
20
10.404973835888
30
0
41
1
10
96.043876773409
20
10.4202075967533
30
0
41
1
10
96.019261697528
20
10.4340536750477
30
0
0
SPLINE
5
255
100
AcDbEntity
8
1
62
256
6
ByLayer
370
-1
48
1
60
0
100
AcDbSpline
70
4
71
3
72
8
73
4
40
0
40
0
40
0
40
0
40
1
40
1
40
1
40
1
41
1
10
95.5749723255622
20
10.4327423718504
30
0
41
1
10
95.5727637342526
20
10.4254931593718
30
0
41
1
10
95.5705551325689
20
10.4182439297336
30
0
41
1
10
95.5683465200832
20
10.4109946822294
30
0
0
SPLINE
5
256
100
AcDbEntity
8
1
62
256
6
ByLayer
370
-1
48
1
60
0
100
AcDbSpline
70
4
71
3
72
34
73
30
40
0
40
0
40
0
40
0
40
0.0514465755209368
40
0.0514465755209368
40
0.13578614473543
40
0.13578614473543
40
0.203131635218888
40
0.203131635218888
40
0.270315608875112
40
0.270315608875112
40
0.337431278535939
40
0.337431278535939
40
0.40451589762554
40
0.40451589762554
40
0.499929883690876
40
0.499929883690876
40
0.599210771748014
40
0.599210771748014
40
0.697083019894088
40
0.697083019894088
40
0.780957226922645
40
0.780957226922645
40
0.847546414393159
40
0.847546414393159
40
0.898875235580303
40
0.898875235580303
40
0.980803570703447
40
0.980803570703447
40
1
40
1
40
1
40
1
41
1
10
95.5683465200833
20
10.4109946822294
30
0
41
1
10
95.5638661606058
20
10.3962889631539
30
0
41
1
10
95.5567452249735
20
10.3823056930333
30
0
41
1
10
95.5339373337911
20
10.3488759870027
30
0
41
1
10
95.5154080230136
20
10.3308827701157
30
0
41
1
10
95.4790293761322
20
10.3032802536404
30
0
41
1
10
95.4614874508688
20
10.2925057833317
30
0
41
1
10
95.4250660369406
20
10.2736708390449
30
0
41
1
10
95.4060665351141
20
10.2655472367999
30
0
41
1
10
95.3672216115946
20
10.251632457456
30
0
41
1
10
95.3472903542819
20
10.2458113802423
30
0
41
1
10
95.3069150366133
20
10.2362928562731
30
0
41
1
10
95.286400786823
20
10.2325795158958
30
0
41
1
10
95.2364469715201
20
10.2260274517386
30
0
41
1
10
95.2067284965646
20
10.2241934432283
30
0
41
1
10
95.1463310025185
20
10.224479316831
30
0
41
1
10
95.1154675255138
20
10.2267623030425
30
0
41
1
10
95.0552098675276
20
10.2356140205777
30
0
41
1
10
95.025598051844
20
10.242146327894
30
0
41
1
10
94.9723901413922
20
10.2585130003227
30
0
41
1
10
94.9483762815555
20
10.2677889746873
30
0
41
1
10
94.9073831668539
20
10.2878714444373
30
0
41
1
10
94.8898620193761
20
10.2980249706248
30
0
41
1
10
94.8608951863761
20
10.3185209703753
30
0
41
1
10
94.8489048805374
20
10.3283429159507
30
0
41
1
10
94.8207240518169
20
10.3561543201389
30
0
41
1
10
94.8056585545665
20
10.3761243360765
30
0
41
1
10
94.793938265797
20
10.4036597143999
30
0
41
1
10
94.7919893481507
20
10.4091166294039
30
0
41
1
10
94.7904098158801
20
10.4146768146065
30
0
0
SPLINE
5
257
100
AcDbEntity
8
1
62
256
6
ByLayer
370
-1
48
1
60
0
100
AcDbSpline
70
4
71
3
72
24
73
20
40
0
40
0
40
0
40
0
40
0.0380198325523497
40
0.0380198325523497
40
0.246834654675695
40
0.246834654675695
40
0.404726505664035
40
0.404726505664035
40
0.526150637963442
40
0.526150637963442
40
0.621531995504158
40
0.621531995504158
40
0.776890538332621
40
0.776890538332621
40
0.873684213898416
40
0.873684213898416
40
0.971746172255337
40
0.971746172255337
40
1
40
1
40
1
40
1
41
1
10
96.019261697528
20
10.4340536750477
30
0
41
1
10
96.0137733783294
20
10.4371408764724
30
0
41
1
10
96.0082468027848
20
10.4401600521623
30
0
41
1
10
95.9721848224904
20
10.4592826495895
30
0
41
1
10
95.9405200288983
20
10.4734367456592
30
0
41
1
10
95.8834988417199
20
10.4939151431575
30
0
41
1
10
95.8583799745916
20
10.501341411025
30
0
41
1
10
95.8133399930234
20
10.5112391674505
30
0
41
1
10
95.7934843251773
20
10.5144732130569
30
0
41
1
10
95.7578937809917
20
10.5177029021253
30
0
41
1
10
95.7421290120915
20
10.5182478067399
30
0
41
1
10
95.7011404905759
20
10.5166634094126
30
0
41
1
10
95.6755292656356
20
10.5126603815983
30
0
41
1
10
95.637280692158
20
10.4983650607596
30
0
41
1
10
95.6231324513373
20
10.4908156214167
30
0
41
1
10
95.5986797006476
20
10.4713110615964
30
0
41
1
10
95.5881485399392
20
10.4589501545669
30
0
41
1
10
95.5785790719105
20
10.4411739756498
30
0
41
1
10
95.5766497437476
20
10.4370042749242
30
0
41
1
10
95.5749723255622
20
10.4327423718504
30
0
0
SPLINE
5
258
100
AcDbEntity
8
1
62
256
6
ByLayer
370
-1
48
1
60
0
100
AcDbSpline
70
4
71
3
72
8
73
4
40
0
40
0
40
0
40
0
40
1
40
1
40
1
40
1
41
1
10
96.6315123581272
20
8.62695397731562
30
0
41
1
10
96.6382497005128
20
8.62660380975774
30
0
41
1
10
96.6449870066298
20
8.62625366706828
30
0
41
1
10
96.6517242779141
20
8.62590354826148
30
0
0
SPLINE
5
259
100
AcDbEntity
8
1
62
256
6
ByLayer
370
-1
48
1
60
0
100
AcDbSpline
70
4
71
3
72
24
73
20
40
0
40
0
40
0
40
0
40
0.0380198325525612
40
0.0380198325525612
40
0.246834654675778
40
0.246834654675778
40
0.404726505664093
40
0.404726505664093
40
0.526150637963525
40
0.526150637963525
40
0.621531995504224
40
0.621531995504224
40
0.776890538332498
40
0.776890538332498
40
0.873684213898357
40
0.873684213898357
40
0.971746172255335
40
0.971746172255335
40
1
40
1
40
1
40
1
41
1
10
96.019261697528
20
7.62938181187562
30
0
41
1
10
96.0247500167267
20
7.63241705864206
30
0
41
1
10
96.030200918505
20
7.63550952691793
30
0
41
1
10
96.0652806301967
20
7.65592117179227
30
0
41
1
10
96.0938530107721
20
7.67490903101273
30
0
41
1
10
96.1410956616338
20
7.7110720698337
30
0
41
1
10
96.1605668525842
20
7.72762958325157
30
0
41
1
10
96.1926391983098
20
7.75860083116186
30
0
41
1
10
96.2058394844594
20
7.77267810010218
30
0
41
1
10
96.2273903483223
20
7.79882763571905
30
0
41
1
10
96.2362082674839
20
7.81072673829499
30
0
41
1
10
96.2566917916786
20
7.84268911701372
30
0
41
1
10
96.2670348737477
20
7.86369509464433
30
0
41
1
10
96.2758068241058
20
7.8977159265188
30
0
41
1
10
96.2772377508874
20
7.9110186128492
30
0
41
1
10
96.2745666495842
20
7.93599300261229
30
0
41
1
10
96.2702618329444
20
7.9479628576475
30
0
41
1
10
96.2611534711045
20
7.96081556909141
30
0
41
1
10
96.258851897723
20
7.96358377559235
30
0
41
1
10
96.2563453836786
20
7.96618257085032
30
0
0
SPLINE
5
25A
100
AcDbEntity
8
1
62
256
6
ByLayer
370
-1
48
1
60
0
100
AcDbSpline
70
4
71
3
72
34
73
30
40
0
40
0
40
0
40
0
40
0.0514465755209137
40
0.0514465755209137
40
0.135786144735398
40
0.135786144735398
40
0.203131635218862
40
0.203131635218862
40
0.2703156088751
40
0.2703156088751
40
0.337431278535944
40
0.337431278535944
40
0.404515897625537
40
0.404515897625537
40
0.499929883690894
40
0.499929883690894
40
0.599210771747962
40
0.599210771747962
40
0.697083019894054
40
0.697083019894054
40
0.78095722692263
40
0.78095722692263
40
0.847546414393107
40
0.847546414393107
40
0.898875235580247
40
0.898875235580247
40
0.980803570703438
40
0.980803570703438
40
1
40
1
40
1
40
1
41
1
10
96.2425440060255
20
7.97792949681912
30
0
41
1
10
96.233211532169
20
7.98587280167982
30
0
41
1
10
96.2258334036538
20
7.99566579121679
30
0
41
1
10
96.2112077391373
20
8.02362891749587
30
0
41
1
10
96.2065918209819
20
8.04360297747192
30
0
41
1
10
96.2035942336614
20
8.08062143000899
30
0
41
1
10
96.2041400878003
20
8.09775017208213
30
0
41
1
10
96.2080128353351
20
8.13238096060806
30
0
41
1
10
96.2113518607362
20
8.14999701367267
30
0
41
1
10
96.2202332530617
20
8.18536749122757
30
0
41
1
10
96.2257960268003
20
8.20319960308029
30
0
41
1
10
96.2387722948877
20
8.23882937750221
30
0
41
1
10
96.2462089087767
20
8.25668869886272
30
0
41
1
10
96.2661661581356
20
8.29968065348055
30
0
41
1
10
96.2795703818313
20
8.32484713557341
30
0
41
1
10
96.3097691288543
20
8.37523613507008
30
0
41
1
10
96.3267752636399
20
8.40058223433158
30
0
41
1
10
96.3632396809869
20
8.44919148127778
30
0
41
1
10
96.3827787356671
20
8.47264415278559
30
0
41
1
10
96.4213889742244
20
8.51373220545145
30
0
41
1
10
96.4402438079333
20
8.53184626029599
30
0
41
1
10
96.4757083373326
20
8.56167332031049
30
0
41
1
10
96.4920781587591
20
8.5740170951843
30
0
41
1
10
96.5220453149912
20
8.59338760220376
30
0
41
1
10
96.5354970960313
20
8.60103152461301
30
0
41
1
10
96.5708421924448
20
8.61761777535148
30
0
41
1
10
96.5937635194564
20
8.62499513664596
30
0
41
1
10
96.6211144904789
20
8.62713042744193
30
0
41
1
10
96.6263591844942
20
8.6272218090692
30
0
41
1
10
96.6315123581272
20
8.62695397731554
30
0
0
SPLINE
5
25B
100
AcDbEntity
8
1
62
256
6
ByLayer
370
-1
48
1
60
0
100
AcDbSpline
70
4
71
3
72
34
73
30
40
0
40
0
40
0
40
0
40
0.0514465755209279
40
0.0514465755209279
40
0.135786144735372
40
0.135786144735372
40
0.203131635218841
40
0.203131635218841
40
0.270315608875079
40
0.270315608875079
40
0.337431278535929
40
0.337431278535929
40
0.404515897625537
40
0.404515897625537
40
0.499929883690886
40
0.499929883690886
40
0.599210771747956
40
0.599210771747956
40
0.697083019894075
40
0.697083019894075
40
0.780957226922618
40
0.780957226922618
40
0.847546414393147
40
0.847546414393147
40
0.898875235580266
40
0.898875235580266
40
0.980803570703477
40
0.980803570703477
40
1
40
1
40
1
40
1
41
1
10
96.6315123581271
20
9.37904929628024
30
0
41
1
10
96.6178450824023
20
9.37434690587389
30
0
41
1
10
96.6034913649279
20
9.3722136637962
30
0
41
1
10
96.5664183129164
20
9.37184916137937
30
0
41
1
10
96.5434810743219
20
9.37677361594442
30
0
41
1
10
96.5044364490325
20
9.39088269211948
30
0
41
1
10
96.4875751137127
20
9.39914383063555
30
0
41
1
10
96.4552677746896
20
9.41835509321743
30
0
41
1
10
96.4397147141001
20
9.42936776122258
30
0
41
1
10
96.4099385930764
20
9.45347580729026
30
0
41
1
10
96.395650519923
20
9.46662486131387
30
0
41
1
10
96.3683848422487
20
9.49462367577118
30
0
41
1
10
96.3553603974895
20
9.50952245160823
30
0
41
1
10
96.3254590624697
20
9.54731011064058
30
0
41
1
10
96.3091729706253
20
9.57104111417064
30
0
41
1
10
96.2789742236023
20
9.62171598727002
30
0
41
1
10
96.2650863946089
20
9.64891360453362
30
0
41
1
10
96.2411730893374
20
9.70467533801948
30
0
41
1
10
96.2310112445857
20
9.73339954701311
30
0
41
1
10
96.2161955890188
20
9.78776922861698
30
0
41
1
10
96.2109145520225
20
9.81343248246071
30
0
41
1
10
96.2051303570117
20
9.85972446115383
30
0
41
1
10
96.203852296276
20
9.88042813240295
30
0
41
1
10
96.2046054131142
20
9.91679601715262
30
0
41
1
10
96.2059509793228
20
9.93262146739335
30
0
41
1
10
96.2127974386726
20
9.97252129663562
30
0
41
1
10
96.2204344205732
20
9.99677139983638
30
0
41
1
10
96.2357842651493
20
10.0224674756406
30
0
41
1
10
96.2390252463858
20
10.027240276727
30
0
41
1
10
96.2425440060256
20
10.0317559091538
30
0
0
SPLINE
5
25C
100
AcDbEntity
8
1
62
256
6
ByLayer
370
-1
48
1
60
0
100
AcDbSpline
70
4
71
3
72
10
73
6
40
0
40
0
40
0
40
0
40
0.709495622816842
40
0.709495622816842
40
1
40
1
40
1
40
1
41
1
10
89.8106009035156
20
6.66653043480503
30
0
41
1
10
89.7898025525954
20
6.68095737434237
30
0
41
1
10
89.7710800375326
20
6.69754360749164
30
0
41
1
10
89.749818683946
20
6.72235889838214
30
0
41
1
10
89.7441160707407
20
6.72988394758951
30
0
41
1
10
89.7389803454862
20
6.73762243509381
30
0
0
SPLINE
5
25D
100
AcDbEntity
8
1
62
256
6
ByLayer
370
-1
48
1
60
0
100
AcDbSpline
70
4
71
3
72
22
73
18
40
0
40
0
40
0
40
0
40
0.208266363442655
40
0.208266363442655
40
0.317899168105361
40
0.317899168105361
40
0.427584739861724
40
0.427584739861724
40
0.537377253732854
40
0.537377253732854
40
0.647402228730814
40
0.647402228730814
40
0.811583680502274
40
0.811583680502274
40
0.906636022131485
40
0.906636022131485
40
1
40
1
40
1
40
1
41
1
10
100.102321579535
20
2.26447458437136
30
0
41
1
10
100.101144384049
20
2.28515997342447
30
0
41
1
10
100.099296205381
20
2.30451439501888
30
0
41
1
10
100.09533845802
20
2.33139392657713
30
0
41
1
10
100.093759271355
20
2.3402064460069
30
0
41
1
10
100.090107334978
20
2.35668206377005
30
0
41
1
10
100.088031005517
20
2.36436402305262
30
0
41
1
10
100.083262086833
20
2.3782975273532
30
0
41
1
10
100.080562398905
20
2.3845723506515
30
0
41
1
10
100.074350465491
20
2.39523191745189
30
0
41
1
10
100.070821075532
20
2.39964482243241
30
0
41
1
10
100.060718867915
20
2.40726266207557
30
0
41
1
10
100.053308517068
20
2.40896096738183
30
0
41
1
10
100.038940320875
20
2.40374660067175
30
0
41
1
10
100.032948283056
20
2.40002976041686
30
0
41
1
10
100.020269851277
20
2.38889154742455
30
0
41
1
10
100.013433276899
20
2.38137265727749
30
0
41
1
10
100.006639479046
20
2.37255885853404
30
0
0
SPLINE
5
25E
100
AcDbEntity
8
1
62
256
6
ByLayer
370
-1
48
1
60
0
100
AcDbSpline
70
4
71
3
72
8
73
4
40
0
40
0
40
0
40
0
40
1
40
1
40
1
40
1
41
1
10
100.020580085623
20
1.89538586892985
30
0
41
1
10
100.024769799718
20
1.89916771366225
30
0
41
1
10
100.02895960568
20
1.90294952882883
30
0
41
1
10
100.033149499176
20
1.90673131582122
30
0
0
SPLINE
5
25F
100
AcDbEntity
8
1
62
256
6
ByLayer
370
-1
48
1
60
0
100
AcDbSpline
70
4
71
3
72
8
73
4
40
0
40
0
40
0
40
0
40
1
40
1
40
1
40
1
41
1
10
100.045217505229
20
1.26615226944688
30
0
41
1
10
100.040948699691
20
1.26655919434185
30
0
41
1
10
100.036679981088
20
1.26696612291892
30
0
41
1
10
100.032411353721
20
1.26737305536
30
0
0
SPLINE
5
260
100
AcDbEntity
8
1
62
256
6
ByLayer
370
-1
48
1
60
0
100
AcDbSpline
70
4
71
3
72
8
73
4
40
0
40
0
40
0
40
0
40
1
40
1
40
1
40
1
41
1
10
100.026735144036
20
0.638860126854667
30
0
41
1
10
100.030980300259
20
0.635854291638083
30
0
41
1
10
100.035225547907
20
0.632848481026826
30
0
41
1
10
100.039470882667
20
0.629842693862685
30
0
0
SPLINE
5
261
100
AcDbEntity
8
1
62
256
6
ByLayer
370
-1
48
1
60
0
100
AcDbSpline
70
4
71
3
72
22
73
18
40
0
40
0
40
0
40
0
40
0.208266363443131
40
0.208266363443131
40
0.317899168105871
40
0.317899168105871
40
0.427584739862255
40
0.427584739862255
40
0.537377253733428
40
0.537377253733428
40
0.647402228731437
40
0.647402228731437
40
0.811583680502514
40
0.811583680502514
40
0.906636022131706
40
0.906636022131706
40
1
40
1
40
1
40
1
41
1
10
100.081022207045
20
-0.0939532614266056
30
0
41
1
10
100.082454585216
20
-0.0863828907353366
30
0
41
1
10
100.083253099998
20
-0.0768986861662881
30
0
41
1
10
100.083332732673
20
-0.0594928747264589
30
0
41
1
10
100.083150063395
20
-0.0529333844696964
30
0
41
1
10
100.08227995319
20
-0.038669012840586
30
0
41
1
10
100.081592068356
20
-0.0309483682290193
30
0
41
1
10
100.079571821067
20
-0.0142493373413117
30
0
41
1
10
100.078236915807
20
-0.0052434689978043
30
0
41
1
10
100.07469609691
20
0.0141815533505394
30
0
41
1
10
100.07248050497
20
0.0246568278524251
30
0
41
1
10
100.065480554815
20
0.0524996244943736
30
0
41
1
10
100.059837796686
20
0.0712939678141424
30
0
41
1
10
100.04766882571
20
0.102798049856602
30
0
41
1
10
100.042369865483
20
0.115024307808767
30
0
41
1
10
100.030655377692
20
0.138641891960333
30
0
41
1
10
100.024105508881
20
0.150326519498662
30
0
41
1
10
100.017382800332
20
0.160923000850602
30
0
0
SPLINE
5
262
100
AcDbEntity
8
1
62
256
6
ByLayer
370
-1
48
1
60
0
100
AcDbSpline
70
4
71
3
72
16
73
12
40
0
40
0
40
0
40
0
40
0.0023448809057864
40
0.0023448809057864
40
0.244769775800371
40
0.244769775800371
40
0.487038716340245
40
0.487038716340245
40
0.973677497833875
40
0.973677497833875
40
1
40
1
40
1
40
1
41
1
10
100.061481054748
20
-0.113818775305589
30
0
41
1
10
100.061506005083
20
-0.113829931402023
30
0
41
1
10
100.061530925494
20
-0.113841011640176
30
0
41
1
10
100.064130383555
20
-0.11499027683908
30
0
41
1
10
100.066393917598
20
-0.115321828353046
30
0
41
1
10
100.070419821861
20
-0.114623355823852
30
0
41
1
10
100.072186520024
20
-0.11359223781804
30
0
41
1
10
100.076866147013
20
-0.10869150149
30
0
41
1
10
100.079175694685
20
-0.103010617231234
30
0
41
1
10
100.080855773944
20
-0.094815294401883
30
0
41
1
10
100.080940061935
20
-0.0943874127848119
30
0
41
1
10
100.081022207045
20
-0.0939532614266056
30
0
0
SPLINE
5
263
100
AcDbEntity
8
1
62
256
6
ByLayer
370
-1
48
1
60
0
100
AcDbSpline
70
4
71
3
72
24
73
20
40
0
40
0
40
0
40
0
40
0.104000448201639
40
0.104000448201639
40
0.192499055460809
40
0.192499055460809
40
0.328500518746445
40
0.328500518746445
40
0.43868257566505
40
0.43868257566505
40
0.548533158171475
40
0.548533158171475
40
0.658237202769509
40
0.658237202769509
40
0.767870673660612
40
0.767870673660612
40
0.988088331633937
40
0.988088331633937
40
1
40
1
40
1
40
1
41
1
10
100.033149499176
20
1.90673131582122
30
0
41
1
10
100.040772101805
20
1.91474118781605
30
0
41
1
10
100.048223272875
20
1.92524496412901
30
0
41
1
10
100.060280557453
20
1.94716496931605
30
0
41
1
10
100.065301404029
20
1.95843904644914
30
0
41
1
10
100.076252312047
20
1.98764014533933
30
0
41
1
10
100.08147298741
20
2.00636519834302
30
0
41
1
10
100.088942815842
20
2.03948798973752
30
0
41
1
10
100.091629639354
20
2.05430408784315
30
0
41
1
10
100.096017504113
20
2.08322328423711
30
0
41
1
10
100.097733456574
20
2.09742097231188
30
0
41
1
10
100.100453908746
20
2.12508857385842
30
0
41
1
10
100.101462711731
20
2.13860941105295
30
0
41
1
10
100.102931590985
20
2.16492630603943
30
0
41
1
10
100.103392887976
20
2.17775411825696
30
0
41
1
10
100.104100173391
20
2.21520225339771
30
0
41
1
10
100.10367954188
20
2.2388586678006
30
0
41
1
10
100.102454361002
20
2.26209740236311
30
0
41
1
10
100.102389090234
20
2.26328830299639
30
0
41
1
10
100.102321579535
20
2.26447458437136
30
0
0
SPLINE
5
264
100
AcDbEntity
8
1
62
256
6
ByLayer
370
-1
48
1
60
0
100
AcDbSpline
70
4
71
3
72
22
73
18
40
0
40
0
40
0
40
0
40
0.208266363442591
40
0.208266363442591
40
0.317899168105303
40
0.317899168105303
40
0.427584739861654
40
0.427584739861654
40
0.537377253732791
40
0.537377253732791
40
0.647402228730762
40
0.647402228730762
40
0.811583680502221
40
0.811583680502221
40
0.906636022131428
40
0.906636022131428
40
1
40
1
40
1
40
1
41
1
10
100.127974174268
20
0.902815118908023
30
0
41
1
10
100.128229356954
20
0.931070878652378
30
0
41
1
10
100.127781957691
20
0.959912467289882
30
0
41
1
10
100.125876459711
20
1.00420751337461
30
0
41
1
10
100.124991631129
20
1.01958383706321
30
0
41
1
10
100.122688353076
20
1.05033474033615
30
0
41
1
10
100.121267853311
20
1.06574395381568
30
0
41
1
10
100.117756536857
20
1.09639261238868
30
0
41
1
10
100.115660711685
20
1.11168284061915
30
0
41
1
10
100.110578835001
20
1.14179040529629
30
0
41
1
10
100.107578745315
20
1.15669208660446
30
0
41
1
10
100.098636852895
20
1.19219286234599
30
0
41
1
10
100.091803219816
20
1.21271610389647
30
0
41
1
10
100.077918590476
20
1.23906805568424
30
0
41
1
10
100.07201273457
20
1.24760396230914
30
0
41
1
10
100.059263592751
20
1.26014060794282
30
0
41
1
10
100.052271695112
20
1.26433779940712
30
0
41
1
10
100.045217505231
20
1.26615226944668
30
0
0
SPLINE
5
265
100
AcDbEntity
8
1
62
256
6
ByLayer
370
-1
48
1
60
0
100
AcDbSpline
70
4
71
3
72
24
73
20
40
0
40
0
40
0
40
0
40
0.104000448201653
40
0.104000448201653
40
0.192499055460796
40
0.192499055460796
40
0.328500518746407
40
0.328500518746407
40
0.438682575665014
40
0.438682575665014
40
0.548533158171422
40
0.548533158171422
40
0.658237202769456
40
0.658237202769456
40
0.767870673660554
40
0.767870673660554
40
0.988088331633863
40
0.988088331633863
40
1
40
1
40
1
40
1
41
1
10
100.039470882667
20
0.629842693862685
30
0
41
1
10
100.047260649093
20
0.62544306241125
30
0
41
1
10
100.055032127921
20
0.62367095624802
30
0
41
1
10
100.06790007728
20
0.625597384779354
30
0
41
1
10
100.073386122574
20
0.628496442316049
30
0
41
1
10
100.085630363555
20
0.639503354745671
30
0
41
1
10
100.091758340907
20
0.649645866416364
30
0
41
1
10
100.100919602754
20
0.671012226712435
30
0
41
1
10
100.104394954758
20
0.681834096418896
30
0
41
1
10
100.110368991849
20
0.704821740468816
30
0
41
1
10
100.112887677135
20
0.717058761721859
30
0
41
1
10
100.11721093519
20
0.74243142569091
30
0
41
1
10
100.119022755445
20
0.755613527248556
30
0
41
1
10
100.122088554256
20
0.78261694685304
30
0
41
1
10
100.123345686941
20
0.796471101509638
30
0
41
1
10
100.126423962685
20
0.838808617046169
30
0
41
1
10
100.127566348608
20
0.868142243606883
30
0
41
1
10
100.127942546467
20
0.899575913879488
30
0
41
1
10
100.127959539858
20
0.901194686174819
30
0
41
1
10
100.127974174268
20
0.902815118908023
30
0
0
SPLINE
5
266
100
AcDbEntity
8
1
62
256
6
ByLayer
370
-1
48
1
60
0
100
AcDbSpline
70
4
71
3
72
10
73
6
40
0
40
0
40
0
40
0
40
0.425586067180749
40
0.425586067180749
40
1
40
1
40
1
40
1
41
1
10
100.032411353721
20
1.26737305536
30
0
41
1
10
100.02459906551
20
1.26811780847126
30
0
41
1
10
100.016791080648
20
1.2713312544594
30
0
41
1
10
99.9995423170445
20
1.28271082674283
30
0
41
1
10
99.9902142079951
20
1.29226898552781
30
0
41
1
10
99.981728316024
20
1.30350688193619
30
0
0
SPLINE
5
267
100
AcDbEntity
8
1
62
256
6
ByLayer
370
-1
48
1
60
0
100
AcDbSpline
70
4
71
3
72
10
73
6
40
0
40
0
40
0
40
0
40
0.747052175316703
40
0.747052175316703
40
1
40
1
40
1
40
1
41
1
10
99.9868932564665
20
1.85152610305713
30
0
41
1
10
99.9945785809977
20
1.86458610540433
30
0
41
1
10
100.002891685742
20
1.87654835986774
30
0
41
1
10
100.014504104739
20
1.88955711635478
30
0
41
1
10
100.017533385105
20
1.89263576521267
30
0
41
1
10
100.020580085623
20
1.89538586892982
30
0
0
SPLINE
5
268
100
AcDbEntity
8
1
62
256
6
ByLayer
370
-1
48
1
60
0
100
AcDbSpline
70
4
71
3
72
12
73
8
40
0
40
0
40
0
40
0
40
0.347623173836782
40
0.347623173836782
40
0.696503371294913
40
0.696503371294913
40
1
40
1
40
1
40
1
41
1
10
89.324563489464
20
7.32322667964325
30
0
41
1
10
89.3174886405837
20
7.33452097358517
30
0
41
1
10
89.3082734829347
20
7.34490898508071
30
0
41
1
10
89.2868915215767
20
7.36247643812578
30
0
41
1
10
89.2743906795926
20
7.36989429846108
30
0
41
1
10
89.2497533416291
20
7.38013819473602
30
0
41
1
10
89.2374909526799
20
7.38355473409385
30
0
41
1
10
89.2254260720382
20
7.38548666000082
30
0
0
SPLINE
5
269
100
AcDbEntity
8
1
62
256
6
ByLayer
370
-1
48
1
60
0
100
AcDbSpline
70
4
71
3
72
20
73
16
40
0
40
0
40
0
40
0
40
0.511365204367433
40
0.511365204367433
40
0.617167309555441
40
0.617167309555441
40
0.785488434327104
40
0.785488434327104
40
0.873398812153863
40
0.873398812153863
40
0.93568440225422
40
0.93568440225422
40
0.97872276537413
40
0.97872276537413
40
1
40
1
40
1
40
1
41
1
10
99.0905421515043
20
9.11241853568669
30
0
41
1
10
98.9857693315754
20
9.06364360448154
30
0
41
1
10
98.8822441193675
20
9.0111138962036
30
0
41
1
10
98.7657586726924
20
8.93540258519113
30
0
41
1
10
98.7460654548722
20
8.92189494953232
30
0
41
1
10
98.6965340746469
20
8.8852039064036
30
0
41
1
10
98.6671436086565
20
8.86099179792728
30
0
41
1
10
98.6281173327077
20
8.81914538342241
30
0
41
1
10
98.6156391724224
20
8.80373351016789
30
0
41
1
10
98.5986546067453
20
8.77507043527854
30
0
41
1
10
98.5927999473585
20
8.76227691483939
30
0
41
1
10
98.5874149009798
20
8.73969477936194
30
0
41
1
10
98.5865130952957
20
8.73000671488546
30
0
41
1
10
98.5878953134846
20
8.71583995318159
30
0
41
1
10
98.5888060519693
20
8.71114017441852
30
0
41
1
10
98.5901575886814
20
8.7065808650591
30
0
0
SPLINE
5
26A
100
AcDbEntity
8
1
62
256
6
ByLayer
370
-1
48
1
60
0
100
AcDbSpline
70
4
71
3
72
14
73
10
40
0
40
0
40
0
40
0
40
0.249606055015004
40
0.249606055015004
40
0.499158243446936
40
0.499158243446936
40
0.746144217743614
40
0.746144217743614
40
1
40
1
40
1
40
1
41
1
10
93.2732996562534
20
13.1737464755703
30
0
41
1
10
93.2889843871608
20
13.1826456997342
30
0
41
1
10
93.3046840515861
20
13.1919405087065
30
0
41
1
10
93.3354542452958
20
13.2109148462967
30
0
41
1
10
93.350631907035
20
13.220660149995
30
0
41
1
10
93.3798153198994
20
13.240166788466
30
0
41
1
10
93.3939284453082
20
13.2499916661694
30
0
41
1
10
93.4211671830363
20
13.2697673352095
30
0
41
1
10
93.4343492881291
20
13.2797828986409
30
0
41
1
10
93.4466299309381
20
13.2895825839837
30
0
0
SPLINE
5
26B
100
AcDbEntity
8
1
62
256
6
ByLayer
370
-1
48
1
60
0
100
AcDbSpline
70
4
71
3
72
12
73
8
40
0
40
0
40
0
40
0
40
0.474376698371069
40
0.474376698371069
40
0.70621978341375
40
0.70621978341375
40
1
40
1
40
1
40
1
41
1
10
93.0316267640547
20
4.80608433076611
30
0
41
1
10
93.0084393712355
20
4.81369625033958
30
0
41
1
10
92.9818793684277
20
4.82440165525961
30
0
41
1
10
92.9406906963518
20
4.84346958286201
30
0
41
1
10
92.9266869500109
20
4.85033158089931
30
0
41
1
10
92.8947397580638
20
4.86679861415658
30
0
41
1
10
92.8765754479039
20
4.87673269981283
30
0
41
1
10
92.858621958918
20
4.8870953086338
30
0
0
SPLINE
5
26C
100
AcDbEntity
8
1
62
256
6
ByLayer
370
-1
48
1
60
0
100
AcDbSpline
70
4
71
3
72
18
73
14
40
0
40
0
40
0
40
0
40
0.439677344605711
40
0.439677344605711
40
0.819840138515299
40
0.819840138515299
40
0.920758376963043
40
0.920758376963043
40
0.968467673881603
40
0.968467673881603
40
0.990240013274168
40
0.990240013274168
40
1
40
1
40
1
40
1
41
1
10
92.2764270749264
20
5.84510125318775
30
0
41
1
10
92.3150398882892
20
5.92991152887956
30
0
41
1
10
92.3555300286196
20
6.01401277763063
30
0
41
1
10
92.438740625386
20
6.16659021419642
30
0
41
1
10
92.4791358125623
20
6.23753117204475
30
0
41
1
10
92.5461105968759
20
6.31497099891357
30
0
41
1
10
92.5613269517236
20
6.33079661849663
30
0
41
1
10
92.5875573198841
20
6.34896300547439
30
0
41
1
10
92.5968194305221
20
6.35413053449554
30
0
41
1
10
92.6113803253505
20
6.35794536340026
30
0
41
1
10
92.6162120796345
20
6.35858137920053
30
0
41
1
10
92.6231136453418
20
6.35822427589113
30
0
41
1
10
92.6252642265428
20
6.35793335292999
30
0
41
1
10
92.6273628002793
20
6.35745612326267
30
0
0
SPLINE
5
26D
100
AcDbEntity
8
1
62
256
6
ByLayer
370
-1
48
1
60
0
100
AcDbSpline
70
4
71
3
72
20
73
16
40
0
40
0
40
0
40
0
40
0.511365204366865
40
0.511365204366865
40
0.617167309555266
40
0.617167309555266
40
0.785488434326996
40
0.785488434326996
40
0.873398812153788
40
0.873398812153788
40
0.935684402254182
40
0.935684402254182
40
0.978722765374109
40
0.978722765374109
40
1
40
1
40
1
40
1
41
1
10
93.3587469730172
20
5.60981640855474
30
0
41
1
10
93.3669993305704
20
5.72205309330781
30
0
41
1
10
93.3712668021278
20
5.83513804104706
30
0
41
1
10
93.3611825890002
20
5.97074768353724
30
0
41
1
10
93.3588432663654
20
5.99403071702261
30
0
41
1
10
93.3505235805715
20
6.05396031130672
30
0
41
1
10
93.343398943516
20
6.09075068055463
30
0
41
1
10
93.325246277701
20
6.14448900849533
30
0
41
1
10
93.3176206007028
20
6.16269511572509
30
0
41
1
10
93.3003514837784
20
6.19134895528595
30
0
41
1
10
93.2917871840506
20
6.20269407637824
30
0
41
1
10
93.2742149298857
20
6.21857889418655
30
0
41
1
10
93.2659774583124
20
6.22421532283258
30
0
41
1
10
93.2525919901902
20
6.23019768651807
30
0
41
1
10
93.2479270760795
20
6.231803989501
30
0
41
1
10
93.2431694107344
20
6.23297071344652
30
0
0
SPLINE
5
26E
100
AcDbEntity
8
1
62
256
6
ByLayer
370
-1
48
1
60
0
100
AcDbSpline
70
4
71
3
72
12
73
8
40
0
40
0
40
0
40
0
40
0.347623173836916
40
0.347623173836916
40
0.69650337129488
40
0.69650337129488
40
1
40
1
40
1
40
1
41
1
10
99.4841252467712
20
4.73744596379476
30
0
41
1
10
99.4770503978908
20
4.72517693413729
30
0
41
1
10
99.4719007205696
20
4.71161639884744
30
0
41
1
10
99.4663304274206
20
4.68414723749953
30
0
41
1
10
99.465863542846
20
4.6698396075235
30
0
41
1
10
99.4694551123436
20
4.64466621444791
30
0
41
1
10
99.4729802934248
20
4.63330453599437
30
0
41
1
10
99.4779866932226
20
4.62320682869435
30
0
0
SPLINE
5
26F
100
AcDbEntity
8
1
62
256
6
ByLayer
370
-1
48
1
60
0
100
AcDbSpline
70
4
71
3
72
12
73
8
40
0
40
0
40
0
40
0
40
0.47437669837105
40
0.47437669837105
40
0.706219783413742
40
0.706219783413742
40
1
40
1
40
1
40
1
41
1
10
99.9293088935016
20
9.16993280002779
30
0
41
1
10
99.928968152087
20
9.13921639692288
30
0
41
1
10
99.9287026747952
20
9.10580920780069
30
0
41
1
10
99.9284459606277
20
9.05620828486653
30
0
41
1
10
99.9283825030249
20
9.0396835784135
30
0
41
1
10
99.9282887967615
20
9.00271211619562
30
0
41
1
10
99.9282714243003
20
8.98220227939603
30
0
41
1
10
99.9282884283143
20
8.9624169754141
30
0
0
SPLINE
5
270
100
AcDbEntity
8
1
62
256
6
ByLayer
370
-1
48
1
60
0
100
AcDbSpline
70
4
71
3
72
16
73
12
40
0
40
0
40
0
40
0
40
0.0426292751499065
40
0.0426292751499065
40
0.0996436166287583
40
0.0996436166287583
40
0.207156078099357
40
0.207156078099357
40
0.580806890299264
40
0.580806890299264
40
1
40
1
40
1
40
1
41
1
10
94.114616422264
20
12.3876199113404
30
0
41
1
10
94.1215436649207
20
12.3945196103615
30
0
41
1
10
94.1271204047606
20
12.4028380248574
30
0
41
1
10
94.136554318958
20
12.4233808439934
30
0
41
1
10
94.1394899469838
20
12.4362644955191
30
0
41
1
10
94.1433875132128
20
12.4731442676574
30
0
41
1
10
94.1407894829928
20
12.4977525804541
30
0
41
1
10
94.1207421192702
20
12.6037487750256
30
0
41
1
10
94.0843645107257
20
12.6817325547145
30
0
41
1
10
94.0025935024793
20
12.8409825910019
30
0
41
1
10
93.9531583671109
20
12.9224470015774
30
0
41
1
10
93.9012685222777
20
13.0021828093749
30
0
0
SPLINE
5
271
100
AcDbEntity
8
1
62
256
6
ByLayer
370
-1
48
1
60
0
100
AcDbSpline
70
4
71
3
72
24
73
20
40
0
40
0
40
0
40
0
40
0.0154450745970418
40
0.0154450745970418
40
0.0417985895668442
40
0.0417985895668442
40
0.0483972597876852
40
0.0483972597876852
40
0.102103855500447
40
0.102103855500447
40
0.185330321121825
40
0.185330321121825
40
0.354377449491156
40
0.354377449491156
40
0.535348727398707
40
0.535348727398707
40
0.66609150100131
40
0.66609150100131
40
1
40
1
40
1
40
1
41
1
10
93.236830495333
20
6.20799614609882
30
0
41
1
10
93.2400362369562
20
6.20726713906811
30
0
41
1
10
93.2431627834358
20
6.20608389515289
30
0
41
1
10
93.2509294018768
20
6.2019258464519
30
0
41
1
10
93.2552477329254
20
6.19821962341342
30
0
41
1
10
93.2597976113133
20
6.19304861734864
30
0
41
1
10
93.2606813130396
20
6.19196994690617
30
0
41
1
10
93.2683287257741
20
6.18202575184435
30
0
41
1
10
93.2730382889658
20
6.17165320469783
30
0
41
1
10
93.2825157425413
20
6.14495966966186
30
0
41
1
10
93.2860188834566
20
6.12794809945751
30
0
41
1
10
93.2938818284723
20
6.07641176699966
30
0
41
1
10
93.2953785333895
20
6.04133922650297
30
0
41
1
10
93.2958694021076
20
5.96901134780913
30
0
41
1
10
93.2944441131766
20
5.93157805677885
30
0
41
1
10
93.2904825401378
20
5.86723784073169
30
0
41
1
10
93.2883378205896
20
5.84027264802464
30
0
41
1
10
93.2794824608918
20
5.74458068697922
30
0
41
1
10
93.2709122639889
20
5.67600511859428
30
0
41
1
10
93.2611292740382
20
5.60762641257895
30
0
0
SPLINE
5
272
100
AcDbEntity
8
1
62
256
6
ByLayer
370
-1
48
1
60
0
100
AcDbSpline
70
4
71
3
72
14
73
10
40
0
40
0
40
0
40
0
40
0.249606055014946
40
0.249606055014946
40
0.499158243446913
40
0.499158243446913
40
0.746144217743564
40
0.746144217743564
40
1
40
1
40
1
40
1
41
1
10
92.2988678216053
20
5.21018087520318
30
0
41
1
10
92.2832127450053
20
5.21921685896075
30
0
41
1
10
92.2675950846988
20
5.22864832941727
30
0
41
1
10
92.2370879542434
20
5.24789006692541
30
0
41
1
10
92.2220922286485
20
5.25776704023241
30
0
41
1
10
92.1933625089836
20
5.27752639807551
30
0
41
1
10
92.1795216978561
20
5.28747326022326
30
0
41
1
10
92.1529184690107
20
5.30748388301902
30
0
41
1
10
92.1401040876088
20
5.31761288904036
30
0
41
1
10
92.1282294163912
20
5.32751798252676
30
0
0
SPLINE
5
273
100
AcDbEntity
8
1
62
256
6
ByLayer
370
-1
48
1
60
0
100
AcDbSpline
70
4
71
3
72
10
73
6
40
0
40
0
40
0
40
0
40
0.709495622816818
40
0.709495622816818
40
1
40
1
40
1
40
1
41
1
10
99.931205898842
20
5.61963082946676
30
0
41
1
10
99.9287534331305
20
5.5950728089116
30
0
41
1
10
99.922130941094
20
5.56945769790357
30
0
41
1
10
99.9083043093757
20
5.53603195679159
30
0
41
1
10
99.9036778280507
20
5.52643430143971
30
0
41
1
10
99.8985421027961
20
5.51715830363736
30
0
0
SPLINE
5
274
100
AcDbEntity
8
1
62
256
6
ByLayer
370
-1
48
1
60
0
100
AcDbSpline
70
4
71
3
72
24
73
20
40
0
40
0
40
0
40
0
40
0.0154450745970574
40
0.0154450745970574
40
0.0417985895668755
40
0.0417985895668755
40
0.0483972597877205
40
0.0483972597877205
40
0.102103855500566
40
0.102103855500566
40
0.185330321122076
40
0.185330321122076
40
0.35437744949164
40
0.35437744949164
40
0.53534872739946
40
0.53534872739946
40
0.666091500997318
40
0.666091500997318
40
1
40
1
40
1
40
1
41
1
10
98.6151538154919
20
8.7128168472421
30
0
41
1
10
98.6141944096306
20
8.71586419749772
30
0
41
1
10
98.6136752576174
20
8.71906069538966
30
0
41
1
10
98.6134606556869
20
8.7275802633051
30
0
41
1
10
98.614571180002
20
8.73297984146032
30
0
41
1
10
98.6168579523849
20
8.73927055929428
30
0
41
1
10
98.6173676630204
20
8.74052769706603
30
0
41
1
10
98.622316260756
20
8.75169641526932
30
0
41
1
10
98.6291111068649
20
8.76059334292628
30
0
41
1
10
98.647918098235
20
8.78126259907538
30
0
41
1
10
98.6611714111494
20
8.79229728919174
30
0
41
1
10
98.7026959197032
20
8.82340891801329
30
0
41
1
10
98.7328806679834
20
8.84133282594357
30
0
41
1
10
98.7964245003498
20
8.8761066997543
30
0
41
1
10
98.8301500789517
20
8.89268763390069
30
0
41
1
10
98.8888717218141
20
8.91991105779425
30
0
41
1
10
98.9137238482399
20
8.93091171275037
30
0
41
1
10
99.0025376834062
20
8.96889948954504
30
0
41
1
10
99.0672933387235
20
8.99424483621098
30
0
41
1
10
99.1324794711794
20
9.01847176625353
30
0
0
SPLINE
5
275
100
AcDbEntity
8
1
62
256
6
ByLayer
370
-1
48
1
60
0
100
AcDbSpline
70
4
71
2
72
6
73
3
40
0
40
0
40
0
40
1
40
1
40
1
41
0.500001284442636
10
99.4779866932226
20
4.62320682869433
30
0
41
0.499998715557364
10
99.4784028025992
20
4.62236755279565
30
0
41
0.500001284442636
10
99.4788184035137
20
4.62153129237072
30
0
0
SPLINE
5
276
100
AcDbEntity
8
1
62
256
6
ByLayer
370
-1
48
1
60
0
100
AcDbSpline
70
4
71
3
72
20
73
16
40
0
40
0
40
0
40
0
40
0.511365204367416
40
0.511365204367416
40
0.617167309555457
40
0.617167309555457
40
0.785488434327097
40
0.785488434327097
40
0.87339881215387
40
0.87339881215387
40
0.935684402254201
40
0.935684402254201
40
0.978722765374118
40
0.978722765374118
40
1
40
1
40
1
40
1
41
1
10
93.0623215128037
20
12.1703386782686
30
0
41
1
10
93.1588419751794
20
12.1068769247207
30
0
41
1
10
93.2580997158312
20
12.0463216852593
30
0
41
1
10
93.3846693756342
20
11.9864233537817
30
0
41
1
10
93.4067019160876
20
11.9766479559551
30
0
41
1
10
93.4645529821068
20
11.9534094047997
30
0
41
1
10
93.5010680851527
20
11.9408311440282
30
0
41
1
10
93.5582470269166
20
11.9289392305923
30
0
41
1
10
93.5783508642
20
11.9261449966171
30
0
41
1
10
93.6126045468015
20
11.9261542319456
30
0
41
1
10
93.6270235059161
20
11.9276026312924
30
0
41
1
10
93.6499808064597
20
11.9342999489616
30
0
41
1
10
93.6591200837171
20
11.938351584792
30
0
41
1
10
93.6711233336505
20
11.9465359828104
30
0
41
1
10
93.6748775092764
20
11.9496294585906
30
0
41
1
10
93.6782836379095
20
11.9530220440045
30
0
0
SPLINE
5
277
100
AcDbEntity
8
1
62
256
6
ByLayer
370
-1
48
1
60
0
100
AcDbSpline
70
4
71
3
72
16
73
12
40
0
40
0
40
0
40
0
40
0.0426292751498998
40
0.0426292751498998
40
0.0996436166287424
40
0.0996436166287424
40
0.207156078099356
40
0.207156078099356
40
0.580806890299255
40
0.580806890299255
40
1
40
1
40
1
40
1
41
1
10
98.7632924993804
20
8.12252302055936
30
0
41
1
10
98.7660411984967
20
8.11325048693487
30
0
41
1
10
98.7707316707448
20
8.10439294695362
30
0
41
1
10
98.7844671885374
20
8.08614827046983
30
0
41
1
10
98.7945603828549
20
8.07719994544817
30
0
41
1
10
98.825687646951
20
8.0553548821654
30
0
41
1
10
98.8490365732362
20
8.04512810862479
30
0
41
1
10
98.9540019155126
20
8.00848803815228
30
0
41
1
10
99.041956822972
20
7.99962649290214
30
0
41
1
10
99.2252818347612
20
7.98779240534256
30
0
41
1
10
99.322834630849
20
7.98810153818357
30
0
41
1
10
99.4200555765012
20
7.99133547274832
30
0
0
SPLINE
5
278
100
AcDbEntity
8
1
62
256
6
ByLayer
370
-1
48
1
60
0
100
AcDbSpline
70
4
71
3
72
10
73
6
40
0
40
0
40
0
40
0
40
0.709495622816839
40
0.709495622816839
40
1
40
1
40
1
40
1
41
1
10
95.7698038349676
20
14.6064123582383
30
0
41
1
10
95.7930546515993
20
14.6165434392561
30
0
41
1
10
95.818166127392
20
14.6219874249782
30
0
41
1
10
95.8528031113537
20
14.6236746442518
30
0
41
1
10
95.8629839697444
20
14.6234717072203
30
0
41
1
10
95.8731008469154
20
14.6226363932798
30
0
0
SPLINE
5
279
100
AcDbEntity
8
1
62
256
6
ByLayer
370
-1
48
1
60
0
100
AcDbSpline
70
4
71
3
72
14
73
10
40
0
40
0
40
0
40
0
40
0.249606055014988
40
0.249606055014988
40
0.49915824344687
40
0.49915824344687
40
0.746144217743599
40
0.746144217743599
40
1
40
1
40
1
40
1
41
1
10
99.9288185797055
20
8.34555048386048
30
0
41
1
10
99.9288334068592
20
8.32829810190651
30
0
41
1
10
99.9288744089186
20
8.31146006558765
30
0
41
1
10
99.9290059405458
20
8.27930133718365
30
0
41
1
10
99.9290969086179
20
8.26386835793895
30
0
41
1
10
99.9293237552177
20
8.23504919126262
30
0
41
1
10
99.9294599123583
20
8.22154781408821
30
0
41
1
10
99.9297776667997
20
8.19639487588964
30
0
41
1
10
99.9299615286451
20
8.18471758511015
30
0
41
1
10
99.9301645144409
20
8.17436078870264
30
0
0
SPLINE
5
27A
100
AcDbEntity
8
1
62
256
6
ByLayer
370
-1
48
1
60
0
100
AcDbSpline
70
4
71
3
72
24
73
20
40
0
40
0
40
0
40
0
40
0.0154450745970479
40
0.0154450745970479
40
0.04179858956686
40
0.04179858956686
40
0.0483972597877281
40
0.0483972597877281
40
0.102103855500593
40
0.102103855500593
40
0.185330321122057
40
0.185330321122057
40
0.354377449491638
40
0.354377449491638
40
0.535348727399443
40
0.535348727399443
40
0.666091500997331
40
0.666091500997331
40
1
40
1
40
1
40
1
41
1
10
93.6595110772649
20
11.9699914613254
30
0
41
1
10
93.6572652305627
20
11.9676806255588
30
0
41
1
10
93.6546569782996
20
11.9656542037167
30
0
41
1
10
93.6470993833281
20
11.9612070506699
30
0
41
1
10
93.6416634817384
20
11.9594055303532
30
0
41
1
10
93.6348158199376
20
11.9581167904758
30
0
41
1
10
93.6334200583772
20
11.957902261072
30
0
41
1
10
93.6208019908417
20
11.9563391443538
30
0
41
1
10
93.609271954699
20
11.9574213713445
30
0
41
1
10
93.5809193985499
20
11.9624000888381
30
0
41
1
10
93.564117468079
20
11.9676788661506
30
0
41
1
10
93.5145899095937
20
11.9859528473912
30
0
41
1
10
93.4828098480983
20
12.0015877638019
30
0
41
1
10
93.4185693836333
20
12.0359831363987
30
0
41
1
10
93.3861610745211
20
12.0551773085544
30
0
41
1
10
93.3312138517764
20
12.0894211538427
30
0
41
1
10
93.3084275358792
20
12.104174375464
30
0
41
1
10
93.2281877602043
20
12.1575603767459
30
0
41
1
10
93.1717984242115
20
12.1976609144383
30
0
41
1
10
93.1161905812906
20
12.2386703754825
30
0
0
SPLINE
5
27B
100
AcDbEntity
8
1
62
256
6
ByLayer
370
-1
48
1
60
0
100
AcDbSpline
70
4
71
2
72
6
73
3
40
0
40
0
40
0
40
1
40
1
40
1
41
0.500001283674893
10
96.7878399044046
20
14.5713690651681
30
0
41
0.499998716325107
10
96.7884373319052
20
14.57221291814
30
0
41
0.500001283674893
10
96.789033979457
20
14.573057266447
30
0
0
SPLINE
5
27C
100
AcDbEntity
8
1
62
256
6
ByLayer
370
-1
48
1
60
0
100
AcDbSpline
70
4
71
3
72
12
73
8
40
0
40
0
40
0
40
0
40
0.347623173836824
40
0.347623173836824
40
0.696503371294796
40
0.696503371294796
40
1
40
1
40
1
40
1
41
1
10
96.6826194007187
20
14.5202413776193
30
0
41
1
10
96.6966678476777
20
14.5196618326364
30
0
41
1
10
96.7109381549005
20
14.5213832799838
30
0
41
1
10
96.7377731599583
20
14.5294851155642
30
0
41
1
10
96.7507179949088
20
14.5360234807311
30
0
41
1
10
96.7718344427972
20
14.5520379631346
30
0
41
1
10
96.7806519843864
20
14.5612162890356
30
0
41
1
10
96.7878399044045
20
14.5713690651681
30
0
0
SPLINE
5
27D
100
AcDbEntity
8
1
62
256
6
ByLayer
370
-1
48
1
60
0
100
AcDbSpline
70
4
71
2
72
6
73
3
40
0
40
0
40
0
40
1
40
1
40
1
41
0.50000128372792
10
89.2254260720382
20
7.38548666000082
30
0
41
0.49999871627208
10
89.2244232935614
20
7.38564723297089
30
0
41
0.50000128372792
10
89.2234221311149
20
7.38580932434722
30
0
0
SPLINE
5
27E
100
AcDbEntity
8
1
62
256
6
ByLayer
370
-1
48
1
60
0
100
AcDbSpline
70
4
71
3
72
12
73
8
40
0
40
0
40
0
40
0
40
0.474376698371106
40
0.474376698371106
40
0.706219783413727
40
0.706219783413727
40
1
40
1
40
1
40
1
41
1
10
92.541521341396
20
12.7760408293623
30
0
41
1
10
92.5640272513862
20
12.7834533540439
30
0
41
1
10
92.5900562996099
20
12.7939292726391
30
0
41
1
10
92.6307315433508
20
12.8126399652501
30
0
41
1
10
92.6446083744866
20
12.8193802989646
30
0
41
1
10
92.6763681539067
20
12.8355693298915
30
0
41
1
10
92.6944977191443
20
12.8453450375598
30
0
41
1
10
92.7124852161581
20
12.8555508083198
30
0
0
SPLINE
5
27F
100
AcDbEntity
8
1
62
256
6
ByLayer
370
-1
48
1
60
0
100
AcDbSpline
70
4
71
3
72
18
73
14
40
0
40
0
40
0
40
0
40
0.439677344605707
40
0.439677344605707
40
0.819840138515278
40
0.819840138515278
40
0.920758376963041
40
0.920758376963041
40
0.968467673881578
40
0.968467673881578
40
0.990240013274128
40
0.990240013274128
40
1
40
1
40
1
40
1
41
1
10
99.4156243699838
20
8.07655719358601
30
0
41
1
10
99.3215234179368
20
8.06879641802919
30
0
41
1
10
99.2271062263633
20
8.06294958897797
30
0
41
1
10
99.0509332270557
20
8.06055181411313
30
0
41
1
10
98.9681662521439
20
8.0608713033028
30
0
41
1
10
98.8663794543691
20
8.08049438024517
30
0
41
1
10
98.8448137405959
20
8.08579299328349
30
0
41
1
10
98.8156777661562
20
8.0992586550723
30
0
41
1
10
98.8064897602854
20
8.10460620491779
30
0
41
1
10
98.795846279341
20
8.11506098117312
30
0
41
1
10
98.7928700360824
20
8.11882955117792
30
0
41
1
10
98.7897351689593
20
8.12481395365086
30
0
41
1
10
98.7889167817798
20
8.12676411670222
30
0
41
1
10
98.7882887261909
20
8.12875900274236
30
0
0
SPLINE
5
280
100
AcDbEntity
8
1
62
256
6
ByLayer
370
-1
48
1
60
0
100
AcDbSpline
70
4
71
3
72
16
73
12
40
0
40
0
40
0
40
0
40
0.0426292751499033
40
0.0426292751499033
40
0.0996436166287479
40
0.0996436166287479
40
0.207156078099368
40
0.207156078099368
40
0.580806890299256
40
0.580806890299256
40
1
40
1
40
1
40
1
41
1
10
92.6337017156808
20
6.38243069061034
30
0
41
1
10
92.6240257739078
20
6.38480352521364
30
0
41
1
10
92.6137585618198
20
6.3853426506991
30
0
41
1
10
92.5905891298297
20
6.38304450804685
30
0
41
1
10
92.5775603074866
20
6.37910918154276
30
0
41
1
10
92.5425354771614
20
6.36407447268732
30
0
41
1
10
92.5217845810963
20
6.34969293343119
30
0
41
1
10
92.4368666025425
20
6.28033680933223
30
0
41
1
10
92.3852893036275
20
6.21121457489343
30
0
41
1
10
92.2837353000848
20
6.06379862616566
30
0
41
1
10
92.2356176393653
20
5.98202508274906
30
0
41
1
10
92.1902865385463
20
5.89905534038684
30
0
0
SPLINE
5
281
100
AcDbEntity
8
1
62
256
6
ByLayer
370
-1
48
1
60
0
100
AcDbSpline
70
4
71
3
72
18
73
14
40
0
40
0
40
0
40
0
40
0.439677344605699
40
0.439677344605699
40
0.819840138515281
40
0.819840138515281
40
0.920758376963034
40
0.920758376963034
40
0.968467673881574
40
0.968467673881574
40
0.990240013274132
40
0.990240013274132
40
1
40
1
40
1
40
1
41
1
10
93.8177136101134
20
12.9425840128711
30
0
41
1
10
93.8734738421379
20
12.8697113628993
30
0
41
1
10
93.9276718394035
20
12.7956161811196
30
0
41
1
10
94.0211325465436
20
12.6530858931328
30
0
41
1
10
94.0637369283884
20
12.5853959515042
30
0
41
1
10
94.0988208119491
20
12.4925064709321
30
0
41
1
10
94.1052269345297
20
12.4722536057685
30
0
41
1
10
94.1082046744191
20
12.4417288655493
30
0
41
1
10
94.1081525223056
20
12.4315507774569
30
0
41
1
10
94.1042574580355
20
12.4176242567272
30
0
41
1
10
94.1024075854198
20
12.4133062250155
30
0
41
1
10
94.098645365545
20
12.4077476776194
30
0
41
1
10
94.097314059614
20
12.4061020704288
30
0
41
1
10
94.0958438616195
20
12.4045893286613
30
0
0
SPLINE
5
282
100
AcDbEntity
8
SK1
62
256
6
ByLayer
370
-1
48
1
60
0
100
AcDbSpline
70
4
71
3
72
34
73
30
40
0
40
0
40
0
40
0
40
0.364244498967438
40
0.364244498967438
40
0.480526876559609
40
0.480526876559609
40
0.495035825052238
40
0.495035825052238
40
0.498660523292706
40
0.498660523292706
40
0.499866435489196
40
0.499866435489196
40
0.500720301811324
40
0.500720301811324
40
0.50158205956856
40
0.50158205956856
40
0.502536533352049
40
0.502536533352049
40
0.504107440944886
40
0.504107440944886
40
0.508795471397797
40
0.508795471397797
40
0.529815636314131
40
0.529815636314131
40
0.613208433745801
40
0.613208433745801
40
0.946149146042352
40
0.946149146042352
40
1
40
1
40
1
40
1
41
1
10
-27.7603744229819
20
-0.199999999999989
30
0
41
1
10
-28.5970613516733
20
-0.199999999999989
30
0
41
1
10
-29.4347636815454
20
-0.200731481510076
30
0
41
1
10
-30.5364900324021
20
-0.134658830256569
30
0
41
1
10
-30.8065801693045
20
-0.124716329317749
30
0
41
1
10
-31.0985657603883
20
-0.0537786137469993
30
0
41
1
10
-31.1316547042851
20
-0.0453583704019707
30
0
41
1
10
-31.1685740946015
20
-0.0256211546902989
30
0
41
1
10
-31.175941025235
20
-0.0210676090226229
30
0
41
1
10
-31.1836027256213
20
-0.0128535673464114
30
0
41
1
10
-31.1853489661279
20
-0.0105526020642515
30
0
41
1
10
-31.1875108227388
20
-0.0062297099199213
30
0
41
1
10
-31.1881708804229
20
-0.0042818459511409
30
0
41
1
10
-31.1887403672534
20
-0.0003013722274829
30
0
41
1
10
-31.1886403763007
20
0.0017819952313687
30
0
41
1
10
-31.1876738780058
20
0.0059249138631117
30
0
41
1
10
-31.1867291723512
20
0.0080191337478084
30
0
41
1
10
-31.1836182706537
20
0.0130459522630417
30
0
41
1
10
-31.181037603094
20
0.0157779281779256
30
0
41
1
10
-31.1701020468809
20
0.0253717090968735
30
0
41
1
10
-31.1601765538596
20
0.0304491865501575
30
0
41
1
10
-31.1060265301474
20
0.0548288136251642
30
0
41
1
10
-31.0576386032807
20
0.0645159643486011
30
0
41
1
10
-30.8212261663109
20
0.110949330480025
30
0
41
1
10
-30.6284568158672
20
0.125719019185851
30
0
41
1
10
-29.670503727402
20
0.195251788235851
30
0
41
1
10
-28.9012062908579
20
0.197230215314164
30
0
41
1
10
-28.0088944304029
20
0.199851139991012
30
0
41
1
10
-27.884634335732
20
0.199999999999989
30
0
41
1
10
-27.7603744229819
20
0.199999999999989
30
0
0
LINE
5
4B
100
AcDbEntity
8
1
62
256
6
ByLayer
370
-1
48
1
60
0
100
AcDbLine
10
99.207628
20
1.441709
30
0
11
99.274513
21
2.468439
31
0
39
0
210
0
220
0
230
1
0
LINE
5
4C
100
AcDbEntity
8
1
62
256
6
ByLayer
370
-1
48
1
60
0
100
AcDbLine
10
99.555968
20
3.310488
30
0
11
99.619842
21
4.291007
31
0
39
0
210
0
220
0
230
1
0
LINE
5
4D
100
AcDbEntity
8
1
62
256
6
ByLayer
370
-1
48
1
60
0
100
AcDbLine
10
99.862581
20
4.564049
30
0
11
99.931887
21
5.62795
31
0
39
0
210
0
220
0
230
1
0
LINE
5
4E
100
AcDbEntity
8
1
62
256
6
ByLayer
370
-1
48
1
60
0
100
AcDbLine
10
87.299768
20
8.82577
30
0
11
87.232908
21
7.799424
31
0
39
0
210
0
220
0
230
1
0
LINE
5
4F
100
AcDbEntity
8
1
62
256
6
ByLayer
370
-1
48
1
60
0
100
AcDbLine
10
88.435895
20
8.166652
30
0
11
88.372072
21
7.186917
31
0
39
0
210
0
220
0
230
1
0
LINE
5
50
100
AcDbEntity
8
1
62
256
6
ByLayer
370
-1
48
1
60
0
100
AcDbLine
10
0
20
-12.49125
30
0
11
70.412051
21
-12.49125
31
0
39
0
210
0
220
0
230
1
0
LINE
5
51
100
AcDbEntity
8
1
62
256
6
ByLayer
370
-1
48
1
60
0
100
AcDbLine
10
70.412051
20
12.49125
30
0
11
0
21
12.49125
31
0
39
0
210
0
220
0
230
1
0
LINE
5
52
100
AcDbEntity
8
1
62
256
6
ByLayer
370
-1
48
1
60
0
100
AcDbLine
10
70.412051
20
-12.49125
30
0
11
70.774171
21
-12.28218
31
0
39
0
210
0
220
0
230
1
0
LINE
5
53
100
AcDbEntity
8
1
62
256
6
ByLayer
370
-1
48
1
60
0
100
AcDbLine
10
70.774171
20
12.28218
30
0
11
70.412051
21
12.49125
31
0
39
0
210
0
220
0
230
1
0
LINE
5
54
100
AcDbEntity
8
1
62
256
6
ByLayer
370
-1
48
1
60
0
100
AcDbLine
10
82.300266
20
-12.185
30
0
11
82.549866
21
-12.185
31
0
39
0
210
0
220
0
230
1
0
LINE
5
55
100
AcDbEntity
8
1
62
256
6
ByLayer
370
-1
48
1
60
0
100
AcDbLine
10
71.174171
20
-12.175
30
0
11
82.174171
21
-12.175
31
0
39
0
210
0
220
0
230
1
0
LINE
5
56
100
AcDbEntity
8
1
62
256
6
ByLayer
370
-1
48
1
60
0
100
AcDbLine
10
82.174171
20
12.175
30
0
11
71.174171
21
12.175
31
0
39
0
210
0
220
0
230
1
0
LINE
5
57
100
AcDbEntity
8
1
62
256
6
ByLayer
370
-1
48
1
60
0
100
AcDbLine
10
83.445139
20
13.245102
30
0
11
82.787007
21
12.46077
31
0
39
0
210
0
220
0
230
1
0
LINE
5
58
100
AcDbEntity
8
SK1
62
256
6
ByLayer
370
-1
48
1
60
0
100
AcDbLine
10
-80.82
20
-12.49125
30
0
11
0
21
-12.49125
31
0
39
0
210
0
220
0
230
1
0
LINE
5
5A
100
AcDbEntity
8
SK1
62
256
6
ByLayer
370
-1
48
1
60
0
100
AcDbLine
10
0
20
12.49125
30
0
11
-80.82
21
12.49125
31
0
39
0
210
0
220
0
230
1
0
LINE
5
5B
100
AcDbEntity
8
SK1
62
256
6
ByLayer
370
-1
48
1
60
0
100
AcDbLine
10
-80.82
20
12.49125
30
0
11
-81.32
21
11.99125
31
0
39
0
210
0
220
0
230
1
0
LINE
5
5C
100
AcDbEntity
8
SK1
62
256
6
ByLayer
370
-1
48
1
60
0
100
AcDbLine
10
-81.32
20
-11.99125
30
0
11
-80.82
21
-12.49125
31
0
39
0
210
0
220
0
230
1
0
LINE
5
5D
100
AcDbEntity
8
1
62
256
6
ByLayer
370
-1
48
1
60
0
100
AcDbLine
10
99.993281
20
0.650463
30
0
11
99.992475
21
0.650459
31
0
39
0
210
0
220
0
230
1
0
LINE
5
5E
100
AcDbEntity
8
1
62
256
6
ByLayer
370
-1
48
1
60
0
100
AcDbLine
10
92.461856
20
9.211864
30
0
11
92.439209
21
8.891341
31
0
39
0
210
0
220
0
230
1
0
LINE
5
5F
100
AcDbEntity
8
1
62
256
6
ByLayer
370
-1
48
1
60
0
100
AcDbLine
10
97.875655
20
8.507211
30
0
11
97.898302
21
8.827735
31
0
39
0
210
0
220
0
230
1
0
LINE
5
60
100
AcDbEntity
8
1
62
256
6
ByLayer
370
-1
48
1
60
0
100
AcDbLine
10
94.133211
20
7.811522
30
0
11
94.151635
21
8.072275
31
0
39
0
210
0
220
0
230
1
0
LINE
5
61
100
AcDbEntity
8
1
62
256
6
ByLayer
370
-1
48
1
60
0
100
AcDbLine
10
96.204911
20
8.102362
30
0
11
96.179282
21
7.739644
31
0
39
0
210
0
220
0
230
1
0
LINE
5
62
100
AcDbEntity
8
1
62
256
6
ByLayer
370
-1
48
1
60
0
100
AcDbLine
10
94.125525
20
9.516581
30
0
11
94.151173
21
9.879573
31
0
39
0
210
0
220
0
230
1
0
LINE
5
63
100
AcDbEntity
8
1
62
256
6
ByLayer
370
-1
48
1
60
0
100
AcDbLine
10
96.205072
20
9.918468
30
0
11
96.17912
21
9.551176
31
0
39
0
210
0
220
0
230
1
0
LINE
5
64
100
AcDbEntity
8
1
62
256
6
ByLayer
370
-1
48
1
60
0
100
AcDbLine
10
95.748448
20
14.595882
30
0
11
93.627836
21
13.42235
31
0
39
0
210
0
220
0
230
1
0
LINE
5
65
100
AcDbEntity
8
1
62
256
6
ByLayer
370
-1
48
1
60
0
100
AcDbLine
10
99.922524
20
13.858581
30
0
11
99.919247
21
13.107538
31
0
39
0
210
0
220
0
230
1
0
LINE
5
66
100
AcDbEntity
8
SK4
62
256
6
ByLayer
370
-1
48
0.05
60
0
100
AcDbLine
10
-86.32
20
0
30
0
11
104.93
21
0
31
0
39
0
210
0
220
0
230
1
0
LINE
5
68
100
AcDbEntity
8
80
62
256
6
ByLayer
370
-1
48
1
60
0
100
AcDbLine
10
0
20
0
30
0
11
-5
21
0
31
0
39
0
210
0
220
0
230
1
0
LINE
5
69
100
AcDbEntity
8
81
62
256
6
ByLayer
370
-1
48
1
60
0
100
AcDbLine
10
99.93
20
16.875
30
0
11
104.93
21
16.875
31
0
39
0
210
0
220
0
230
1
0
LINE
5
6A
100
AcDbEntity
8
4
62
256
6
ByLayer
370
-1
48
0.05
60
0
100
AcDbLine
10
0
20
0
30
0
11
181.25
21
0
31
0
39
0
210
0
220
0
230
1
0
LINE
5
6C
100
AcDbEntity
8
1
62
256
6
ByLayer
370
-1
48
1
60
0
100
AcDbLine
10
0
20
-0.2
30
0
11
70.412051
21
-0.2
31
0
39
0
210
0
220
0
230
1
0
LINE
5
6D
100
AcDbEntity
8
1
62
256
6
ByLayer
370
-1
48
1
60
0
100
AcDbLine
10
99.362902
20
0.889981
30
0
11
99.349707
21
0.937135
31
0
39
0
210
0
220
0
230
1
0
LINE
5
6E
100
AcDbEntity
8
1
62
256
6
ByLayer
370
-1
48
1
60
0
100
AcDbLine
10
70.412051
20
0.2
30
0
11
70.412051
21
12.49125
31
0
39
0
210
0
220
0
230
1
0
LINE
5
6F
100
AcDbEntity
8
1
62
256
6
ByLayer
370
-1
48
1
60
0
100
AcDbLine
10
70.412051
20
-12.49125
30
0
11
70.412051
21
-0.2
31
0
39
0
210
0
220
0
230
1
0
LINE
5
70
100
AcDbEntity
8
1
62
256
6
ByLayer
370
-1
48
1
60
0
100
AcDbLine
10
90.233782
20
11.544101
30
0
11
90.367318
21
12.010823
31
0
39
0
210
0
220
0
230
1
0
LINE
5
71
100
AcDbEntity
8
1
62
256
6
ByLayer
370
-1
48
1
60
0
100
AcDbLine
10
90.367318
20
12.010823
30
0
11
86.958509
21
10.124674
31
0
39
0
210
0
220
0
230
1
0
LINE
5
72
100
AcDbEntity
8
1
62
256
6
ByLayer
370
-1
48
1
60
0
100
AcDbLine
10
90.367318
20
13.442322
30
0
11
90.367318
21
12.010823
31
0
39
0
210
0
220
0
230
1
0
LINE
5
73
100
AcDbEntity
8
1
62
256
6
ByLayer
370
-1
48
1
60
0
100
AcDbLine
10
92.981736
20
-6.241463
30
0
11
92.103495
21
-6.741839
31
0
39
0
210
0
220
0
230
1
0
LINE
5
74
100
AcDbEntity
8
1
62
256
6
ByLayer
370
-1
48
1
60
0
100
AcDbLine
10
83.658612
20
13.471597
30
0
11
90.367318
21
13.442322
31
0
39
0
210
0
220
0
230
1
0
LINE
5
75
100
AcDbEntity
8
1
62
256
6
ByLayer
370
-1
48
1
60
0
100
AcDbLine
10
87.815958
20
9.678267
30
0
11
86.198384
21
8.783688
31
0
39
0
210
0
220
0
230
1
0
LINE
5
76
100
AcDbEntity
8
1
62
256
6
ByLayer
370
-1
48
1
60
0
100
AcDbLine
10
83.812911
20
7.166725
30
0
11
80.992163
21
11.898908
31
0
39
0
210
0
220
0
230
1
0
LINE
5
77
100
AcDbEntity
8
1
62
256
6
ByLayer
370
-1
48
1
60
0
100
AcDbLine
10
71.174171
20
12.175
30
0
11
71.174171
21
-12.175
31
0
39
0
210
0
220
0
230
1
0
LINE
5
78
100
AcDbEntity
8
1
62
256
6
ByLayer
370
-1
48
1
60
0
100
AcDbLine
10
92.103494
20
-6.741839
30
0
11
90.715982
21
-7.532372
31
0
39
0
210
0
220
0
230
1
0
LINE
5
79
100
AcDbEntity
8
1
62
256
6
ByLayer
370
-1
48
1
60
0
100
AcDbLine
10
91.461977
20
5.393502
30
0
11
96.20199
21
2.727226
31
0
39
0
210
0
220
0
230
1
0
LINE
5
7A
100
AcDbEntity
8
1
62
256
6
ByLayer
370
-1
48
1
60
0
100
AcDbLine
10
92.103494
20
-6.741839
30
0
11
85.642137
21
4.097953
31
0
39
0
210
0
220
0
230
1
0
LINE
5
7B
100
AcDbEntity
8
1
62
256
6
ByLayer
370
-1
48
1
60
0
100
AcDbLine
10
90.715982
20
-7.532372
30
0
11
82.549866
21
-12.185
31
0
39
0
210
0
220
0
230
1
0
LINE
5
7C
100
AcDbEntity
8
1
62
256
6
ByLayer
370
-1
48
1
60
0
100
AcDbLine
10
70.774171
20
0.120451
30
0
11
70.774171
21
12.28218
31
0
39
0
210
0
220
0
230
1
0
LINE
5
7D
100
AcDbEntity
8
1
62
256
6
ByLayer
370
-1
48
1
60
0
100
AcDbLine
10
70.774171
20
-12.28218
30
0
11
70.774171
21
-0.120451
31
0
39
0
210
0
220
0
230
1
0
LINE
5
7E
100
AcDbEntity
8
1
62
256
6
ByLayer
370
-1
48
1
60
0
100
AcDbLine
10
0
20
-12.49125
30
0
11
0
21
-0.2
31
0
39
0
210
0
220
0
230
1
0
LINE
5
7F
100
AcDbEntity
8
1
62
256
6
ByLayer
370
-1
48
1
60
0
100
AcDbLine
10
0
20
0.2
30
0
11
0
21
12.49125
31
0
39
0
210
0
220
0
230
1
0
LINE
5
80
100
AcDbEntity
8
1
62
256
6
ByLayer
370
-1
48
1
60
0
100
AcDbLine
10
82.174171
20
12.175
30
0
11
82.174171
21
12.109786
31
0
39
0
210
0
220
0
230
1
0
LINE
5
81
100
AcDbEntity
8
1
62
256
6
ByLayer
370
-1
48
1
60
0
100
AcDbLine
10
82.174171
20
-0.206383
30
0
11
82.174171
21
-12.175
31
0
39
0
210
0
220
0
230
1
0
LINE
5
82
100
AcDbEntity
8
1
62
256
6
ByLayer
370
-1
48
1
60
0
100
AcDbLine
10
82.787007
20
12.46077
30
0
11
82.787007
21
12.405868
31
0
39
0
210
0
220
0
230
1
0
LINE
5
83
100
AcDbEntity
8
1
62
256
6
ByLayer
370
-1
48
1
60
0
100
AcDbLine
10
88.583741
20
6.954083
30
0
11
88.551014
21
6.92474
31
0
39
0
210
0
220
0
230
1
0
LINE
5
84
100
AcDbEntity
8
1
62
256
6
ByLayer
370
-1
48
1
60
0
100
AcDbLine
10
90.338016
20
11.908401
30
0
11
90.338016
21
11.601765
31
0
39
0
210
0
220
0
230
1
0
LINE
5
85
100
AcDbEntity
8
1
62
256
6
ByLayer
370
-1
48
1
60
0
100
AcDbLine
10
96.814554
20
2.363169
30
0
11
99.349707
21
0.937135
31
0
39
0
210
0
220
0
230
1
0
LINE
5
86
100
AcDbEntity
8
1
62
256
6
ByLayer
370
-1
48
1
60
0
100
AcDbLine
10
82.300266
20
-12.185
30
0
11
82.300266
21
-0.364243
31
0
39
0
210
0
220
0
230
1
0
LINE
5
87
100
AcDbEntity
8
1
62
256
6
ByLayer
370
-1
48
1
60
0
100
AcDbLine
10
70.412051
20
0.2
30
0
11
0
21
0.2
31
0
39
0
210
0
220
0
230
1
0
LINE
5
88
100
AcDbEntity
8
1
62
256
6
ByLayer
370
-1
48
1
60
0
100
AcDbLine
10
99.362902
20
0.889981
30
0
11
99.362902
21
-2.605806
31
0
39
0
210
0
220
0
230
1
0
LINE
5
89
100
AcDbEntity
8
1
62
256
6
ByLayer
370
-1
48
1
60
0
100
AcDbLine
10
99.362902
20
0.889981
30
0
11
88.583741
21
6.954083
31
0
39
0
210
0
220
0
230
1
0
LINE
5
8A
100
AcDbEntity
8
1
62
256
6
ByLayer
370
-1
48
1
60
0
100
AcDbLine
10
0
20
-0.2
30
0
11
0
21
0.2
31
0
39
0
210
0
220
0
230
1
0
LINE
5
8B
100
AcDbEntity
8
1
62
256
6
ByLayer
370
-1
48
1
60
0
100
AcDbLine
10
92.981736
20
-6.241463
30
0
11
99.362902
21
-2.605806
31
0
39
0
210
0
220
0
230
1
0
LINE
5
8C
100
AcDbEntity
8
1
62
256
6
ByLayer
370
-1
48
1
60
0
100
AcDbLine
10
88.771327
20
6.887517
30
0
11
90.75339
21
5.772598
31
0
39
0
210
0
220
0
230
1
0
LINE
5
8D
100
AcDbEntity
8
1
62
256
6
ByLayer
370
-1
48
1
60
0
100
AcDbLine
10
88.771327
20
6.887517
30
0
11
88.583741
21
6.954083
31
0
39
0
210
0
220
0
230
1
0
LINE
5
8E
100
AcDbEntity
8
1
62
256
6
ByLayer
370
-1
48
1
60
0
100
AcDbLine
10
92.981736
20
-6.241463
30
0
11
82.043115
21
12.109541
31
0
39
0
210
0
220
0
230
1
0
LINE
5
8F
100
AcDbEntity
8
SK1
62
256
6
ByLayer
370
-1
48
1
60
0
100
AcDbLine
10
0
20
0.2
30
0
11
-27.760374
21
0.2
31
0
39
0
210
0
220
0
230
1
0
LINE
5
90
100
AcDbEntity
8
1
62
256
6
ByLayer
370
-1
48
1
60
0
100
AcDbLine
10
91.955223
20
12.648729
30
0
11
91.955223
21
12.496736
31
0
39
0
210
0
220
0
230
1
0
LINE
5
91
100
AcDbEntity
8
1
62
256
6
ByLayer
370
-1
48
1
60
0
100
AcDbLine
10
90.628874
20
11.76273
30
0
11
90.628874
21
12.064112
31
0
39
0
210
0
220
0
230
1
0
LINE
5
92
100
AcDbEntity
8
1
62
256
6
ByLayer
370
-1
48
1
60
0
100
AcDbLine
10
87.361842
20
7.704519
30
0
11
87.361842
21
6.71643
31
0
39
0
210
0
220
0
230
1
0
LINE
5
93
100
AcDbEntity
8
1
62
256
6
ByLayer
370
-1
48
1
60
0
100
AcDbLine
10
90.896633
20
12.467845
30
0
11
90.896633
21
11.910817
31
0
39
0
210
0
220
0
230
1
0
LINE
5
94
100
AcDbEntity
8
1
62
256
6
ByLayer
370
-1
48
1
60
0
100
AcDbLine
10
87.528561
20
6.877234
30
0
11
87.528561
21
7.701386
31
0
39
0
210
0
220
0
230
1
0
LINE
5
95
100
AcDbEntity
8
1
62
256
6
ByLayer
370
-1
48
1
60
0
100
AcDbLine
10
90.552353
20
11.720391
30
0
11
90.628874
21
12.064112
31
0
39
0
210
0
220
0
230
1
0
LINE
5
96
100
AcDbEntity
8
1
62
256
6
ByLayer
370
-1
48
1
60
0
100
AcDbLine
10
92.13842
20
12.62709
30
0
11
92.13842
21
12.598079
31
0
39
0
210
0
220
0
230
1
0
LINE
5
97
100
AcDbEntity
8
1
62
256
6
ByLayer
370
-1
48
1
60
0
100
AcDbLine
10
91.228354
20
12.54496
30
0
11
91.228354
21
12.094386
31
0
39
0
210
0
220
0
230
1
0
LINE
5
98
100
AcDbEntity
8
1
62
256
6
ByLayer
370
-1
48
1
60
0
100
AcDbLine
10
91.122212
20
12.51945
30
0
11
91.122212
21
12.035719
31
0
39
0
210
0
220
0
230
1
0
LINE
5
99
100
AcDbEntity
8
1
62
256
6
ByLayer
370
-1
48
1
60
0
100
AcDbLine
10
91.955223
20
12.648729
30
0
11
91.657775
21
12.649778
31
0
39
0
210
0
220
0
230
1
0
LINE
5
9A
100
AcDbEntity
8
1
62
256
6
ByLayer
370
-1
48
1
60
0
100
AcDbLine
10
90.793217
20
12.421477
30
0
11
90.793217
21
11.853651
31
0
39
0
210
0
220
0
230
1
0
LINE
5
9B
100
AcDbEntity
8
1
62
256
6
ByLayer
370
-1
48
1
60
0
100
AcDbLine
10
91.657775
20
12.649778
30
0
11
91.657775
21
12.332096
31
0
39
0
210
0
220
0
230
1
0
LINE
5
9C
100
AcDbEntity
8
1
62
256
6
ByLayer
370
-1
48
1
60
0
100
AcDbLine
10
91.472367
20
12.62944
30
0
11
91.472367
21
12.229475
31
0
39
0
210
0
220
0
230
1
0
LINE
5
9D
100
AcDbEntity
8
1
62
256
6
ByLayer
370
-1
48
1
60
0
100
AcDbLine
10
87.853701
20
6.694815
30
0
11
87.528561
21
6.877234
31
0
39
0
210
0
220
0
230
1
0
LINE
5
9E
100
AcDbEntity
8
SK1
62
256
6
ByLayer
370
-1
48
1
60
0
100
AcDbLine
10
-25.07
20
-0.2
30
0
11
-25.07
21
0.2
31
0
39
0
210
0
220
0
230
1
0
LINE
5
9F
100
AcDbEntity
8
SK1
62
256
6
ByLayer
370
-1
48
1
60
0
100
AcDbLine
10
-27.760374
20
-0.2
30
0
11
0
21
-0.2
31
0
39
0
210
0
220
0
230
1
0
LINE
5
A0
100
AcDbEntity
8
1
62
256
6
ByLayer
370
-1
48
1
60
0
100
AcDbLine
10
93.700269
20
9.011034
30
0
11
93.727244
21
9.392796
31
0
39
0
210
0
220
0
230
1
0
LINE
5
A1
100
AcDbEntity
8
1
62
256
6
ByLayer
370
-1
48
1
60
0
100
AcDbLine
10
93.680273
20
9.01513
30
0
11
93.707463
21
9.399939
31
0
39
0
210
0
220
0
230
1
0
LINE
5
A2
100
AcDbEntity
8
1
62
256
6
ByLayer
370
-1
48
1
60
0
100
AcDbLine
10
94.09592
20
7.878418
30
0
11
94.102841
21
7.976376
31
0
39
0
210
0
220
0
230
1
0
LINE
5
A3
100
AcDbEntity
8
1
62
256
6
ByLayer
370
-1
48
1
60
0
100
AcDbLine
10
96.230266
20
7.804168
30
0
11
96.242544
21
7.977929
31
0
39
0
210
0
220
0
230
1
0
LINE
5
A4
100
AcDbEntity
8
1
62
256
6
ByLayer
370
-1
48
1
60
0
100
AcDbLine
10
95.541372
20
10.029232
30
0
11
95.568347
21
10.410995
31
0
39
0
210
0
220
0
230
1
0
LINE
5
A5
100
AcDbEntity
8
1
62
256
6
ByLayer
370
-1
48
1
60
0
100
AcDbLine
10
94.757025
20
10.051676
30
0
11
94.784215
21
10.436485
31
0
39
0
210
0
220
0
230
1
0
LINE
5
A6
100
AcDbEntity
8
1
62
256
6
ByLayer
370
-1
48
1
60
0
100
AcDbLine
10
96.604538
20
8.997287
30
0
11
96.624534
21
9.001195
31
0
39
0
210
0
220
0
230
1
0
LINE
5
A7
100
AcDbEntity
8
1
62
256
6
ByLayer
370
-1
48
1
60
0
100
AcDbLine
10
96.624534
20
9.001195
30
0
11
96.651724
21
9.386004
31
0
39
0
210
0
220
0
230
1
0
LINE
5
A8
100
AcDbEntity
8
1
62
256
6
ByLayer
370
-1
48
1
60
0
100
AcDbLine
10
95.547782
20
10.047934
30
0
11
95.574972
21
10.432742
31
0
39
0
210
0
220
0
230
1
0
LINE
5
A9
100
AcDbEntity
8
1
62
256
6
ByLayer
370
-1
48
1
60
0
100
AcDbLine
10
96.246621
20
7.828553
30
0
11
96.256345
21
7.966183
31
0
39
0
210
0
220
0
230
1
0
LINE
5
AA
100
AcDbEntity
8
1
62
256
6
ByLayer
370
-1
48
1
60
0
100
AcDbLine
10
96.604538
20
8.997287
30
0
11
96.631512
21
9.379049
31
0
39
0
210
0
220
0
230
1
0
LINE
5
AB
100
AcDbEntity
8
1
62
256
6
ByLayer
370
-1
48
1
60
0
100
AcDbLine
10
94.106645
20
7.852588
30
0
11
94.116212
21
7.987994
31
0
39
0
210
0
220
0
230
1
0
LINE
5
AC
100
AcDbEntity
8
1
62
256
6
ByLayer
370
-1
48
1
60
0
100
AcDbLine
10
93.680273
20
9.01513
30
0
11
93.700269
21
9.011034
31
0
39
0
210
0
220
0
230
1
0
LINE
5
AD
100
AcDbEntity
8
1
62
256
6
ByLayer
370
-1
48
1
60
0
100
AcDbLine
10
95.541372
20
10.029232
30
0
11
95.547782
21
10.047934
31
0
39
0
210
0
220
0
230
1
0
LINE
5
AE
100
AcDbEntity
8
1
62
256
6
ByLayer
370
-1
48
1
60
0
100
AcDbLine
10
94.757025
20
10.051676
30
0
11
94.763435
21
10.032915
31
0
39
0
210
0
220
0
230
1
0
LINE
5
AF
100
AcDbEntity
8
1
62
256
6
ByLayer
370
-1
48
1
60
0
100
AcDbLine
10
94.763435
20
10.032915
30
0
11
94.79041
21
10.414677
31
0
39
0
210
0
220
0
230
1
0
LINE
5
B0
100
AcDbEntity
8
1
62
256
6
ByLayer
370
-1
48
1
60
0
100
AcDbLine
10
99.986875
20
1.906504
30
0
11
100.033149
21
1.906731
31
0
39
0
210
0
220
0
230
1
0
LINE
5
B1
100
AcDbEntity
8
1
62
256
6
ByLayer
370
-1
48
1
60
0
100
AcDbLine
10
100.015376
20
0.160913
30
0
11
100.017383
21
0.160923
31
0
39
0
210
0
220
0
230
1
0
LINE
5
B2
100
AcDbEntity
8
1
62
256
6
ByLayer
370
-1
48
1
60
0
100
AcDbLine
10
99.986623
20
1.895219
30
0
11
100.02058
21
1.895386
31
0
39
0
210
0
220
0
230
1
0
LINE
5
B3
100
AcDbEntity
8
1
62
256
6
ByLayer
370
-1
48
1
60
0
100
AcDbLine
10
99.982055
20
1.265842
30
0
11
100.045218
21
1.266152
31
0
39
0
210
0
220
0
230
1
0
LINE
5
B4
100
AcDbEntity
8
1
62
256
6
ByLayer
370
-1
48
1
60
0
100
AcDbLine
10
99.982057
20
1.267125
30
0
11
100.032411
21
1.267373
31
0
39
0
210
0
220
0
230
1
0
LINE
5
B5
100
AcDbEntity
8
1
62
256
6
ByLayer
370
-1
48
1
60
0
100
AcDbLine
10
99.26294
20
2.431962
30
0
11
99.196014
21
1.404597
31
0
39
0
210
0
220
0
230
1
0
LINE
5
B6
100
AcDbEntity
8
1
62
256
6
ByLayer
370
-1
48
1
60
0
100
AcDbLine
10
99.931206
20
5.619631
30
0
11
95.597349
21
3.412393
31
0
39
0
210
0
220
0
230
1
0
LINE
5
B7
100
AcDbEntity
8
1
62
256
6
ByLayer
370
-1
48
1
60
0
100
AcDbLine
10
93.292442
20
4.708029
30
0
11
95.597349
21
3.412393
31
0
39
0
210
0
220
0
230
1
0
LINE
5
B8
100
AcDbEntity
8
1
62
256
6
ByLayer
370
-1
48
1
60
0
100
AcDbLine
10
99.420056
20
7.991335
30
0
11
99.93236
21
8.008377
31
0
39
0
210
0
220
0
230
1
0
LINE
5
B9
100
AcDbEntity
8
1
62
256
6
ByLayer
370
-1
48
1
60
0
100
AcDbLine
10
88.618152
20
9.03669
30
0
11
88.622739
21
9.36946
31
0
39
0
210
0
220
0
230
1
0
LINE
5
BA
100
AcDbEntity
8
1
62
256
6
ByLayer
370
-1
48
1
60
0
100
AcDbLine
10
88.863134
20
10.591554
30
0
11
89.042693
21
10.429533
31
0
39
0
210
0
220
0
230
1
0
LINE
5
BB
100
AcDbEntity
8
1
62
256
6
ByLayer
370
-1
48
1
60
0
100
AcDbLine
10
99.93236
20
5.642805
30
0
11
99.93236
21
8.008377
31
0
39
0
210
0
220
0
230
1
0
LINE
5
BC
100
AcDbEntity
8
1
62
256
6
ByLayer
370
-1
48
1
60
0
100
AcDbLine
10
89.375139
20
10.490678
30
0
11
89.414606
21
10.929913
31
0
39
0
210
0
220
0
230
1
0
LINE
5
BD
100
AcDbEntity
8
1
62
256
6
ByLayer
370
-1
48
1
60
0
100
AcDbLine
10
88.645416
20
8.723699
30
0
11
88.624848
21
8.939813
31
0
39
0
210
0
220
0
230
1
0
LINE
5
BE
100
AcDbEntity
8
1
62
256
6
ByLayer
370
-1
48
1
60
0
100
AcDbLine
10
98.590158
20
8.706581
30
0
11
98.763292
21
8.122523
31
0
39
0
210
0
220
0
230
1
0
LINE
5
BF
100
AcDbEntity
8
1
62
256
6
ByLayer
370
-1
48
1
60
0
100
AcDbLine
10
89.586088
20
6.938032
30
0
11
89.375139
21
10.490678
31
0
39
0
210
0
220
0
230
1
0
LINE
5
C0
100
AcDbEntity
8
1
62
256
6
ByLayer
370
-1
48
1
60
0
100
AcDbLine
10
93.44663
20
13.289583
30
0
11
93.817714
21
12.942584
31
0
39
0
210
0
220
0
230
1
0
LINE
5
C1
100
AcDbEntity
8
1
62
256
6
ByLayer
370
-1
48
1
60
0
100
AcDbLine
10
89.324563
20
7.323227
30
0
11
89.277628
21
6.602725
31
0
39
0
210
0
220
0
230
1
0
LINE
5
C2
100
AcDbEntity
8
1
62
256
6
ByLayer
370
-1
48
1
60
0
100
AcDbLine
10
87.321429
20
7.705297
30
0
11
88.176566
21
7.689057
31
0
39
0
210
0
220
0
230
1
0
LINE
5
C3
100
AcDbEntity
8
1
62
256
6
ByLayer
370
-1
48
1
60
0
100
AcDbLine
10
89.122019
20
10.731794
30
0
11
89.100302
21
10.490105
31
0
39
0
210
0
220
0
230
1
0
LINE
5
C4
100
AcDbEntity
8
1
62
256
6
ByLayer
370
-1
48
1
60
0
100
AcDbLine
10
93.2733
20
13.173746
30
0
11
94.095844
21
12.404589
31
0
39
0
210
0
220
0
230
1
0
LINE
5
C5
100
AcDbEntity
8
1
62
256
6
ByLayer
370
-1
48
1
60
0
100
AcDbLine
10
89.414606
20
10.929913
30
0
11
89.856952
21
11.320144
31
0
39
0
210
0
220
0
230
1
0
LINE
5
C6
100
AcDbEntity
8
1
62
256
6
ByLayer
370
-1
48
1
60
0
100
AcDbLine
10
99.007512
20
15.531733
30
0
11
99.887697
21
13.991523
31
0
39
0
210
0
220
0
230
1
0
LINE
5
C7
100
AcDbEntity
8
1
62
256
6
ByLayer
370
-1
48
1
60
0
100
AcDbLine
10
93.678284
20
11.953022
30
0
11
94.114616
21
12.38762
31
0
39
0
210
0
220
0
230
1
0
LINE
5
C8
100
AcDbEntity
8
1
62
256
6
ByLayer
370
-1
48
1
60
0
100
AcDbLine
10
99.919042
20
12.815383
30
0
11
99.716807
21
12.948216
31
0
39
0
210
0
220
0
230
1
0
LINE
5
C9
100
AcDbEntity
8
1
62
256
6
ByLayer
370
-1
48
1
60
0
100
AcDbLine
10
98.788289
20
8.128759
30
0
11
98.615154
21
8.712817
31
0
39
0
210
0
220
0
230
1
0
LINE
5
CA
100
AcDbEntity
8
1
62
256
6
ByLayer
370
-1
48
1
60
0
100
AcDbLine
10
99.193975
20
1.401194
30
0
11
99.196014
21
1.404597
31
0
39
0
210
0
220
0
230
1
0
LINE
5
CB
100
AcDbEntity
8
1
62
256
6
ByLayer
370
-1
48
1
60
0
100
AcDbLine
10
93.243169
20
6.232971
30
0
11
92.633702
21
6.382431
31
0
39
0
210
0
220
0
230
1
0
LINE
5
CC
100
AcDbEntity
8
1
62
256
6
ByLayer
370
-1
48
1
60
0
100
AcDbLine
10
98.540636
20
2.742992
30
0
11
97.939942
21
2.701226
31
0
39
0
210
0
220
0
230
1
0
LINE
5
CD
100
AcDbEntity
8
1
62
256
6
ByLayer
370
-1
48
1
60
0
100
AcDbLine
10
96.430596
20
2.732083
30
0
11
96.610085
21
2.631189
31
0
39
0
210
0
220
0
230
1
0
LINE
5
CE
100
AcDbEntity
8
1
62
256
6
ByLayer
370
-1
48
1
60
0
100
AcDbLine
10
99.716807
20
12.948216
30
0
11
99.919042
21
13.015604
31
0
39
0
210
0
220
0
230
1
0
LINE
5
CF
100
AcDbEntity
8
1
62
256
6
ByLayer
370
-1
48
1
60
0
100
AcDbLine
10
97.321343
20
2.286775
30
0
11
96.68989
21
2.589582
31
0
39
0
210
0
220
0
230
1
0
LINE
5
D0
100
AcDbEntity
8
1
62
256
6
ByLayer
370
-1
48
1
60
0
100
AcDbLine
10
89.225426
20
7.385487
30
0
11
89.178082
21
6.658722
31
0
39
0
210
0
220
0
230
1
0
LINE
5
D1
100
AcDbEntity
8
1
62
256
6
ByLayer
370
-1
48
1
60
0
100
AcDbLine
10
88.459787
20
8.070784
30
0
11
88.395828
21
7.088963
31
0
39
0
210
0
220
0
230
1
0
LINE
5
D2
100
AcDbEntity
8
1
62
256
6
ByLayer
370
-1
48
1
60
0
100
AcDbLine
10
88.921124
20
7.434752
30
0
11
88.881441
21
6.825588
31
0
39
0
210
0
220
0
230
1
0
LINE
5
D3
100
AcDbEntity
8
1
62
256
6
ByLayer
370
-1
48
1
60
0
100
AcDbLine
10
92.541521
20
12.776041
30
0
11
93.116191
21
12.23867
31
0
39
0
210
0
220
0
230
1
0
LINE
5
D4
100
AcDbEntity
8
1
62
256
6
ByLayer
370
-1
48
1
60
0
100
AcDbLine
10
99.829585
20
4.458615
30
0
11
99.898542
21
5.517158
31
0
39
0
210
0
220
0
230
1
0
LINE
5
D5
100
AcDbEntity
8
1
62
256
6
ByLayer
370
-1
48
1
60
0
100
AcDbLine
10
88.220083
20
9.618861
30
0
11
87.931063
21
9.150758
31
0
39
0
210
0
220
0
230
1
0
LINE
5
D6
100
AcDbEntity
8
1
62
256
6
ByLayer
370
-1
48
1
60
0
100
AcDbLine
10
88.006711
20
9.795213
30
0
11
88.220083
21
9.618861
31
0
39
0
210
0
220
0
230
1
0
LINE
5
D7
100
AcDbEntity
8
1
62
256
6
ByLayer
370
-1
48
1
60
0
100
AcDbLine
10
99.59617
20
4.216396
30
0
11
99.532211
21
3.234576
31
0
39
0
210
0
220
0
230
1
0
LINE
5
D8
100
AcDbEntity
8
1
62
256
6
ByLayer
370
-1
48
1
60
0
100
AcDbLine
10
98.535082
20
2.646168
30
0
11
98.976728
21
2.462037
31
0
39
0
210
0
220
0
230
1
0
LINE
5
D9
100
AcDbEntity
8
1
62
256
6
ByLayer
370
-1
48
1
60
0
100
AcDbLine
10
87.311449
20
8.778901
30
0
11
87.244523
21
7.751535
31
0
39
0
210
0
220
0
230
1
0
LINE
5
DA
100
AcDbEntity
8
1
62
256
6
ByLayer
370
-1
48
1
60
0
100
AcDbLine
10
87.497476
20
8.970446
30
0
11
88.006711
21
9.795213
31
0
39
0
210
0
220
0
230
1
0
LINE
5
DB
100
AcDbEntity
8
1
62
256
6
ByLayer
370
-1
48
1
60
0
100
AcDbLine
10
99.134162
20
3.584394
30
0
11
99.065776
21
3.573998
31
0
39
0
210
0
220
0
230
1
0
LINE
5
DC
100
AcDbEntity
8
1
62
256
6
ByLayer
370
-1
48
1
60
0
100
AcDbLine
10
93.198175
20
4.75141
30
0
11
93.031627
21
4.806084
31
0
39
0
210
0
220
0
230
1
0
LINE
5
DD
100
AcDbEntity
8
1
62
256
6
ByLayer
370
-1
48
1
60
0
100
AcDbLine
10
98.844417
20
3.304993
30
0
11
98.83739
21
3.197135
31
0
39
0
210
0
220
0
230
1
0
LINE
5
DE
100
AcDbEntity
8
1
62
256
6
ByLayer
370
-1
48
1
60
0
100
AcDbLine
10
99.59617
20
4.216396
30
0
11
99.271739
21
3.674951
31
0
39
0
210
0
220
0
230
1
0
LINE
5
DF
100
AcDbEntity
8
1
62
256
6
ByLayer
370
-1
48
1
60
0
100
AcDbLine
10
89.042693
20
10.429533
30
0
11
89.223422
21
7.385809
31
0
39
0
210
0
220
0
230
1
0
LINE
5
E0
100
AcDbEntity
8
1
62
256
6
ByLayer
370
-1
48
1
60
0
100
AcDbLine
10
92.286809
20
12.680235
30
0
11
89.981901
21
11.404715
31
0
39
0
210
0
220
0
230
1
0
LINE
5
E1
100
AcDbEntity
8
1
62
256
6
ByLayer
370
-1
48
1
60
0
100
AcDbLine
10
99.553956
20
12.77069
30
0
11
99.921489
21
12.529285
31
0
39
0
210
0
220
0
230
1
0
LINE
5
E2
100
AcDbEntity
8
1
62
256
6
ByLayer
370
-1
48
1
60
0
100
AcDbLine
10
99.363969
20
13.938628
30
0
11
99.056106
21
13.74995
31
0
39
0
210
0
220
0
230
1
0
LINE
5
E3
100
AcDbEntity
8
1
62
256
6
ByLayer
370
-1
48
1
60
0
100
AcDbLine
10
99.271739
20
3.674951
30
0
11
99.20778
21
2.693131
31
0
39
0
210
0
220
0
230
1
0
LINE
5
E4
100
AcDbEntity
8
1
62
256
6
ByLayer
370
-1
48
1
60
0
100
AcDbLine
10
87.313487
20
8.77548
30
0
11
87.246562
21
7.748115
31
0
39
0
210
0
220
0
230
1
0
LINE
5
E5
100
AcDbEntity
8
1
62
256
6
ByLayer
370
-1
48
1
60
0
100
AcDbLine
10
99.026647
20
15.294923
30
0
11
99.563532
21
14.355444
31
0
39
0
210
0
220
0
230
1
0
LINE
5
E6
100
AcDbEntity
8
1
62
256
6
ByLayer
370
-1
48
1
60
0
100
AcDbLine
10
88.472294
20
8.39023
30
0
11
88.463033
21
8.248076
31
0
39
0
210
0
220
0
230
1
0
LINE
5
E7
100
AcDbEntity
8
1
62
256
6
ByLayer
370
-1
48
1
60
0
100
AcDbLine
10
87.388161
20
8.729691
30
0
11
87.321429
21
7.705297
31
0
39
0
210
0
220
0
230
1
0
LINE
5
E8
100
AcDbEntity
8
1
62
256
6
ByLayer
370
-1
48
1
60
0
100
AcDbLine
10
88.784218
20
7.526507
30
0
11
88.743242
21
6.897498
31
0
39
0
210
0
220
0
230
1
0
LINE
5
E9
100
AcDbEntity
8
1
62
256
6
ByLayer
370
-1
48
1
60
0
100
AcDbLine
10
98.246975
20
3.213637
30
0
11
98.540636
21
2.742992
31
0
39
0
210
0
220
0
230
1
0
LINE
5
EA
100
AcDbEntity
8
1
62
256
6
ByLayer
370
-1
48
1
60
0
100
AcDbLine
10
88.395828
20
7.088963
30
0
11
88.508401
21
6.900107
31
0
39
0
210
0
220
0
230
1
0
LINE
5
EB
100
AcDbEntity
8
1
62
256
6
ByLayer
370
-1
48
1
60
0
100
AcDbLine
10
88.287166
20
7.625804
30
0
11
88.38948
21
7.454157
31
0
39
0
210
0
220
0
230
1
0
LINE
5
EC
100
AcDbEntity
8
1
62
256
6
ByLayer
370
-1
48
1
60
0
100
AcDbLine
10
89.830803
20
6.653887
30
0
11
91.951415
21
5.461847
31
0
39
0
210
0
220
0
230
1
0
LINE
5
ED
100
AcDbEntity
8
1
62
256
6
ByLayer
370
-1
48
1
60
0
100
AcDbLine
10
96.430596
20
2.732083
30
0
11
96.653654
21
2.827221
31
0
39
0
210
0
220
0
230
1
0
LINE
5
EE
100
AcDbEntity
8
1
62
256
6
ByLayer
370
-1
48
1
60
0
100
AcDbLine
10
99.18584
20
2.383424
30
0
11
99.119108
21
1.35903
31
0
39
0
210
0
220
0
230
1
0
LINE
5
EF
100
AcDbEntity
8
1
62
256
6
ByLayer
370
-1
48
1
60
0
100
AcDbLine
10
97.918341
20
2.388449
30
0
11
97.934387
21
2.604403
31
0
39
0
210
0
220
0
230
1
0
LINE
5
F0
100
AcDbEntity
8
1
62
256
6
ByLayer
370
-1
48
1
60
0
100
AcDbLine
10
92.190287
20
5.899055
30
0
11
91.951415
21
5.461847
31
0
39
0
210
0
220
0
230
1
0
LINE
5
F1
100
AcDbEntity
8
1
62
256
6
ByLayer
370
-1
48
1
60
0
100
AcDbLine
10
92.128229
20
5.327518
30
0
11
92.035776
21
5.404637
31
0
39
0
210
0
220
0
230
1
0
LINE
5
F2
100
AcDbEntity
8
1
62
256
6
ByLayer
370
-1
48
1
60
0
100
AcDbLine
10
98.966415
20
3.508596
30
0
11
98.844417
21
3.304993
31
0
39
0
210
0
220
0
230
1
0
LINE
5
F3
100
AcDbEntity
8
1
62
256
6
ByLayer
370
-1
48
1
60
0
100
AcDbLine
10
95.720214
20
3.326741
30
0
11
99.853154
21
5.431652
31
0
39
0
210
0
220
0
230
1
0
LINE
5
F4
100
AcDbEntity
8
1
62
256
6
ByLayer
370
-1
48
1
60
0
100
AcDbLine
10
97.793727
20
3.27819
30
0
11
98.107005
21
3.457783
31
0
39
0
210
0
220
0
230
1
0
LINE
5
F5
100
AcDbEntity
8
1
62
256
6
ByLayer
370
-1
48
1
60
0
100
AcDbLine
10
98.788245
20
13.751119
30
0
11
98.48204
21
13.942477
31
0
39
0
210
0
220
0
230
1
0
LINE
5
F6
100
AcDbEntity
8
1
62
256
6
ByLayer
370
-1
48
1
60
0
100
AcDbLine
10
99.919247
20
13.107538
30
0
11
99.689085
21
13.030844
31
0
39
0
210
0
220
0
230
1
0
LINE
5
F7
100
AcDbEntity
8
1
62
256
6
ByLayer
370
-1
48
1
60
0
100
AcDbLine
10
88.022099
20
9.083677
30
0
11
88.311119
21
9.55178
31
0
39
0
210
0
220
0
230
1
0
LINE
5
F8
100
AcDbEntity
8
1
62
256
6
ByLayer
370
-1
48
1
60
0
100
AcDbLine
10
87.595208
20
8.806488
30
0
11
88.028794
21
8.986801
31
0
39
0
210
0
220
0
230
1
0
LINE
5
F9
100
AcDbEntity
8
1
62
256
6
ByLayer
370
-1
48
1
60
0
100
AcDbLine
10
88.618152
20
9.03669
30
0
11
88.022099
21
9.083677
31
0
39
0
210
0
220
0
230
1
0
LINE
5
FA
100
AcDbEntity
8
1
62
256
6
ByLayer
370
-1
48
1
60
0
100
AcDbLine
10
89.223422
20
7.385809
30
0
11
88.921124
21
7.434752
31
0
39
0
210
0
220
0
230
1
0
LINE
5
FB
100
AcDbEntity
8
1
62
256
6
ByLayer
370
-1
48
1
60
0
100
AcDbLine
10
98.831184
20
15.295776
30
0
11
98.827154
21
14.745747
31
0
39
0
210
0
220
0
230
1
0
LINE
5
FC
100
AcDbEntity
8
1
62
256
6
ByLayer
370
-1
48
1
60
0
100
AcDbLine
10
98.924316
20
14.688889
30
0
11
99.229028
21
14.155681
31
0
39
0
210
0
220
0
230
1
0
LINE
5
FD
100
AcDbEntity
8
1
62
256
6
ByLayer
370
-1
48
1
60
0
100
AcDbLine
10
98.286122
20
14.361018
30
0
11
98.831184
21
15.295776
31
0
39
0
210
0
220
0
230
1
0
LINE
5
FE
100
AcDbEntity
8
1
62
256
6
ByLayer
370
-1
48
1
60
0
100
AcDbLine
10
96.169005
20
14.570768
30
0
11
99.553956
21
12.77069
31
0
39
0
210
0
220
0
230
1
0
LINE
5
FF
100
AcDbEntity
8
1
62
256
6
ByLayer
370
-1
48
1
60
0
100
AcDbLine
10
88.350296
20
8.594898
30
0
11
88.287166
21
7.625804
31
0
39
0
210
0
220
0
230
1
0
LINE
5
100
100
AcDbEntity
8
1
62
256
6
ByLayer
370
-1
48
1
60
0
100
AcDbLine
10
99.929309
20
9.169933
30
0
11
99.132479
21
9.018472
31
0
39
0
210
0
220
0
230
1
0
LINE
5
101
100
AcDbEntity
8
1
62
256
6
ByLayer
370
-1
48
1
60
0
100
AcDbLine
10
98.843731
20
3.18547
30
0
11
99.263403
21
2.51287
31
0
39
0
210
0
220
0
230
1
0
LINE
5
102
100
AcDbEntity
8
1
62
256
6
ByLayer
370
-1
48
1
60
0
100
AcDbLine
10
99.26294
20
2.431962
30
0
11
99.260901
21
2.42856
31
0
39
0
210
0
220
0
230
1
0
LINE
5
103
100
AcDbEntity
8
1
62
256
6
ByLayer
370
-1
48
1
60
0
100
AcDbLine
10
99.229028
20
14.155681
30
0
11
98.921166
21
13.967002
31
0
39
0
210
0
220
0
230
1
0
LINE
5
104
100
AcDbEntity
8
1
62
256
6
ByLayer
370
-1
48
1
60
0
100
AcDbLine
10
99.928819
20
8.34555
30
0
11
98.788289
21
8.128759
31
0
39
0
210
0
220
0
230
1
0
LINE
5
105
100
AcDbEntity
8
1
62
256
6
ByLayer
370
-1
48
1
60
0
100
AcDbLine
10
89.856952
20
11.320144
30
0
11
89.693593
21
6.801621
31
0
39
0
210
0
220
0
230
1
0
LINE
5
106
100
AcDbEntity
8
1
62
256
6
ByLayer
370
-1
48
1
60
0
100
AcDbLine
10
99.93236
20
9.50431
30
0
11
99.090542
21
9.112419
31
0
39
0
210
0
220
0
230
1
0
LINE
5
107
100
AcDbEntity
8
1
62
256
6
ByLayer
370
-1
48
1
60
0
100
AcDbLine
10
98.614961
20
14.158361
30
0
11
98.924316
21
14.688889
31
0
39
0
210
0
220
0
230
1
0
LINE
5
108
100
AcDbEntity
8
1
62
256
6
ByLayer
370
-1
48
1
60
0
100
AcDbLine
10
99.022617
20
14.744895
30
0
11
99.026647
21
15.294923
31
0
39
0
210
0
220
0
230
1
0
LINE
5
109
100
AcDbEntity
8
1
62
256
6
ByLayer
370
-1
48
1
60
0
100
AcDbLine
10
94.095844
20
12.404589
30
0
11
93.659511
21
11.969991
31
0
39
0
210
0
220
0
230
1
0
LINE
5
10A
100
AcDbEntity
8
1
62
256
6
ByLayer
370
-1
48
1
60
0
100
AcDbLine
10
98.827154
20
14.745747
30
0
11
98.5178
21
14.215219
31
0
39
0
210
0
220
0
230
1
0
LINE
5
10B
100
AcDbEntity
8
1
62
256
6
ByLayer
370
-1
48
1
60
0
100
AcDbLine
10
93.292442
20
4.708029
30
0
11
93.358747
21
5.609816
31
0
39
0
210
0
220
0
230
1
0
LINE
5
10C
100
AcDbEntity
8
1
62
256
6
ByLayer
370
-1
48
1
60
0
100
AcDbLine
10
98.608973
20
1.353794
30
0
11
99.119108
21
1.35903
31
0
39
0
210
0
220
0
230
1
0
LINE
5
10D
100
AcDbEntity
8
1
62
256
6
ByLayer
370
-1
48
1
60
0
100
AcDbLine
10
99.60651
20
4.086324
30
0
11
99.829585
21
4.458615
31
0
39
0
210
0
220
0
230
1
0
LINE
5
10E
100
AcDbEntity
8
1
62
256
6
ByLayer
370
-1
48
1
60
0
100
AcDbLine
10
92.128229
20
5.327518
30
0
11
92.276427
21
5.845101
31
0
39
0
210
0
220
0
230
1
0
LINE
5
10F
100
AcDbEntity
8
1
62
256
6
ByLayer
370
-1
48
1
60
0
100
AcDbLine
10
99.931756
20
9.390559
30
0
11
99.929309
21
9.169933
31
0
39
0
210
0
220
0
230
1
0
LINE
5
110
100
AcDbEntity
8
1
62
256
6
ByLayer
370
-1
48
1
60
0
100
AcDbLine
10
99.563532
20
14.355444
30
0
11
99.32733
21
14.211686
31
0
39
0
210
0
220
0
230
1
0
LINE
5
111
100
AcDbEntity
8
1
62
256
6
ByLayer
370
-1
48
1
60
0
100
AcDbLine
10
99.260901
20
2.42856
30
0
11
99.193975
21
1.401194
31
0
39
0
210
0
220
0
230
1
0
LINE
5
112
100
AcDbEntity
8
1
62
256
6
ByLayer
370
-1
48
1
60
0
100
AcDbLine
10
99.930165
20
8.174361
30
0
11
99.415624
21
8.076557
31
0
39
0
210
0
220
0
230
1
0
LINE
5
113
100
AcDbEntity
8
1
62
256
6
ByLayer
370
-1
48
1
60
0
100
AcDbLine
10
97.450689
20
2.262782
30
0
11
97.434512
21
2.01444
31
0
39
0
210
0
220
0
230
1
0
LINE
5
114
100
AcDbEntity
8
1
62
256
6
ByLayer
370
-1
48
1
60
0
100
AcDbLine
10
98.286122
20
14.361018
30
0
11
98.5178
21
14.215219
31
0
39
0
210
0
220
0
230
1
0
LINE
5
115
100
AcDbEntity
8
1
62
256
6
ByLayer
370
-1
48
1
60
0
100
AcDbLine
10
99.478818
20
4.621531
30
0
11
99.604308
21
4.369025
31
0
39
0
210
0
220
0
230
1
0
LINE
5
116
100
AcDbEntity
8
1
62
256
6
ByLayer
370
-1
48
1
60
0
100
AcDbLine
10
92.379868
20
12.722799
30
0
11
92.541521
21
12.776041
31
0
39
0
210
0
220
0
230
1
0
LINE
5
117
100
AcDbEntity
8
1
62
256
6
ByLayer
370
-1
48
1
60
0
100
AcDbLine
10
92.627363
20
6.357456
30
0
11
93.23683
21
6.207996
31
0
39
0
210
0
220
0
230
1
0
LINE
5
118
100
AcDbEntity
8
1
62
256
6
ByLayer
370
-1
48
1
60
0
100
AcDbLine
10
98.614961
20
14.158361
30
0
11
98.921166
21
13.967002
31
0
39
0
210
0
220
0
230
1
0
LINE
5
119
100
AcDbEntity
8
1
62
256
6
ByLayer
370
-1
48
1
60
0
100
AcDbLine
10
93.116191
20
12.23867
30
0
11
92.379868
21
12.722799
31
0
39
0
210
0
220
0
230
1
0
LINE
5
11A
100
AcDbEntity
8
1
62
256
6
ByLayer
370
-1
48
1
60
0
100
AcDbLine
10
99.32733
20
14.211686
30
0
11
99.022617
21
14.744895
31
0
39
0
210
0
220
0
230
1
0
LINE
5
11B
100
AcDbEntity
8
1
62
256
6
ByLayer
370
-1
48
1
60
0
100
AcDbLine
10
93.901269
20
13.002183
30
0
11
93.627836
21
13.42235
31
0
39
0
210
0
220
0
230
1
0
LINE
5
11C
100
AcDbEntity
8
1
62
256
6
ByLayer
370
-1
48
1
60
0
100
AcDbLine
10
92.858622
20
4.887095
30
0
11
93.23683
21
6.207996
31
0
39
0
210
0
220
0
230
1
0
LINE
5
11D
100
AcDbEntity
8
1
62
256
6
ByLayer
370
-1
48
1
60
0
100
AcDbLine
10
99.921489
20
12.529285
30
0
11
99.931318
21
12.197685
31
0
39
0
210
0
220
0
230
1
0
LINE
5
11E
100
AcDbEntity
8
1
62
256
6
ByLayer
370
-1
48
1
60
0
100
AcDbLine
10
98.054434
20
14.710247
30
0
11
98.29843
21
14.709182
31
0
39
0
210
0
220
0
230
1
0
LINE
5
11F
100
AcDbEntity
8
1
62
256
6
ByLayer
370
-1
48
1
60
0
100
AcDbLine
10
98.632813
20
2.809273
30
0
11
98.339152
21
3.279918
31
0
39
0
210
0
220
0
230
1
0
LINE
5
120
100
AcDbEntity
8
1
62
256
6
ByLayer
370
-1
48
1
60
0
100
AcDbLine
10
89.100302
20
10.490105
30
0
11
88.94253
21
10.632466
31
0
39
0
210
0
220
0
230
1
0
LINE
5
121
100
AcDbEntity
8
1
62
256
6
ByLayer
370
-1
48
1
60
0
100
AcDbLine
10
99.18584
20
2.383424
30
0
11
97.450689
21
2.262782
31
0
39
0
210
0
220
0
230
1
0
LINE
5
122
100
AcDbEntity
8
1
62
256
6
ByLayer
370
-1
48
1
60
0
100
AcDbLine
10
99.853154
20
5.431652
30
0
11
99.745649
21
5.216928
31
0
39
0
210
0
220
0
230
1
0
LINE
5
123
100
AcDbEntity
8
1
62
256
6
ByLayer
370
-1
48
1
60
0
100
AcDbLine
10
99.065776
20
3.573998
30
0
11
99.021869
21
2.899987
31
0
39
0
210
0
220
0
230
1
0
LINE
5
124
100
AcDbEntity
8
1
62
256
6
ByLayer
370
-1
48
1
60
0
100
AcDbLine
10
92.858622
20
4.887095
30
0
11
92.298868
21
5.210181
31
0
39
0
210
0
220
0
230
1
0
LINE
5
125
100
AcDbEntity
8
1
62
256
6
ByLayer
370
-1
48
1
60
0
100
AcDbLine
10
97.934387
20
2.604403
30
0
11
98.535082
21
2.646168
31
0
39
0
210
0
220
0
230
1
0
LINE
5
126
100
AcDbEntity
8
1
62
256
6
ByLayer
370
-1
48
1
60
0
100
AcDbLine
10
97.939942
20
2.701226
30
0
11
97.933697
21
3.034044
31
0
39
0
210
0
220
0
230
1
0
LINE
5
127
100
AcDbEntity
8
1
62
256
6
ByLayer
370
-1
48
1
60
0
100
AcDbLine
10
99.20778
20
2.693131
30
0
11
99.532211
21
3.234576
31
0
39
0
210
0
220
0
230
1
0
LINE
5
128
100
AcDbEntity
8
1
62
256
6
ByLayer
370
-1
48
1
60
0
100
AcDbLine
10
99.132479
20
9.018472
30
0
11
99.931756
21
9.390559
31
0
39
0
210
0
220
0
230
1
0
LINE
5
129
100
AcDbEntity
8
1
62
256
6
ByLayer
370
-1
48
1
60
0
100
AcDbLine
10
88.472294
20
8.39023
30
0
11
88.350296
21
8.594898
31
0
39
0
210
0
220
0
230
1
0
LINE
5
12A
100
AcDbEntity
8
1
62
256
6
ByLayer
370
-1
48
1
60
0
100
AcDbLine
10
98.246975
20
3.213637
30
0
11
97.933697
21
3.034044
31
0
39
0
210
0
220
0
230
1
0
LINE
5
12B
100
AcDbEntity
8
1
62
256
6
ByLayer
370
-1
48
1
60
0
100
AcDbLine
10
88.238234
20
10.294229
30
0
11
88.863134
21
10.591554
31
0
39
0
210
0
220
0
230
1
0
LINE
5
12C
100
AcDbEntity
8
1
62
256
6
ByLayer
370
-1
48
1
60
0
100
AcDbLine
10
87.244523
20
7.751535
30
0
11
87.246562
21
7.748115
31
0
39
0
210
0
220
0
230
1
0
LINE
5
12D
100
AcDbEntity
8
1
62
256
6
ByLayer
370
-1
48
1
60
0
100
AcDbLine
10
88.311119
20
9.55178
30
0
11
88.622739
21
9.36946
31
0
39
0
210
0
220
0
230
1
0
LINE
5
12E
100
AcDbEntity
8
1
62
256
6
ByLayer
370
-1
48
1
60
0
100
AcDbLine
10
88.028794
20
8.986801
30
0
11
88.624848
21
8.939813
31
0
39
0
210
0
220
0
230
1
0
LINE
5
12F
100
AcDbEntity
8
1
62
256
6
ByLayer
370
-1
48
1
60
0
100
AcDbLine
10
98.557047
20
3.454388
30
0
11
99.074459
21
2.625141
31
0
39
0
210
0
220
0
230
1
0
LINE
5
130
100
AcDbEntity
8
1
62
256
6
ByLayer
370
-1
48
1
60
0
100
AcDbLine
10
97.666041
20
2.721855
30
0
11
97.659796
21
3.054672
31
0
39
0
210
0
220
0
230
1
0
LINE
5
131
100
AcDbEntity
8
1
62
256
6
ByLayer
370
-1
48
1
60
0
100
AcDbLine
10
88.784218
20
7.526507
30
0
11
88.459787
21
8.070784
31
0
39
0
210
0
220
0
230
1
0
LINE
5
132
100
AcDbEntity
8
1
62
256
6
ByLayer
370
-1
48
1
60
0
100
AcDbLine
10
89.714195
20
6.357142
30
0
11
89.73898
21
6.737622
31
0
39
0
210
0
220
0
230
1
0
LINE
5
133
100
AcDbEntity
8
1
62
256
6
ByLayer
370
-1
48
1
60
0
100
AcDbLine
10
96.739476
20
2.812684
30
0
11
99.478818
21
4.621531
31
0
39
0
210
0
220
0
230
1
0
LINE
5
134
100
AcDbEntity
8
1
62
256
6
ByLayer
370
-1
48
1
60
0
100
AcDbLine
10
93.261129
20
5.607626
30
0
11
93.198175
21
4.75141
31
0
39
0
210
0
220
0
230
1
0
LINE
5
135
100
AcDbEntity
8
1
62
256
6
ByLayer
370
-1
48
1
60
0
100
AcDbLine
10
87.313487
20
8.77548
30
0
11
87.311449
21
8.778901
31
0
39
0
210
0
220
0
230
1
0
LINE
5
136
100
AcDbEntity
8
1
62
256
6
ByLayer
370
-1
48
1
60
0
100
AcDbLine
10
93.542244
20
13.365881
30
0
11
93.817714
21
12.942584
31
0
39
0
210
0
220
0
230
1
0
LINE
5
137
100
AcDbEntity
8
1
62
256
6
ByLayer
370
-1
48
1
60
0
100
AcDbLine
10
89.122019
20
10.731794
30
0
11
88.94253
21
10.632466
31
0
39
0
210
0
220
0
230
1
0
LINE
5
138
100
AcDbEntity
8
1
62
256
6
ByLayer
370
-1
48
1
60
0
100
AcDbLine
10
99.134162
20
3.584394
30
0
11
99.083176
21
2.80172
31
0
39
0
210
0
220
0
230
1
0
LINE
5
139
100
AcDbEntity
8
1
62
256
6
ByLayer
370
-1
48
1
60
0
100
AcDbLine
10
96.142903
20
2.932735
30
0
11
95.720214
21
3.326741
31
0
39
0
210
0
220
0
230
1
0
LINE
5
13A
100
AcDbEntity
8
1
62
256
6
ByLayer
370
-1
48
1
60
0
100
AcDbLine
10
89.810601
20
6.66653
30
0
11
89.981901
21
11.404715
31
0
39
0
210
0
220
0
230
1
0
LINE
5
13B
100
AcDbEntity
8
1
62
256
6
ByLayer
370
-1
48
1
60
0
100
AcDbLine
10
87.931063
20
9.150758
30
0
11
87.497476
21
8.970446
31
0
39
0
210
0
220
0
230
1
0
LINE
5
13C
100
AcDbEntity
8
1
62
256
6
ByLayer
370
-1
48
1
60
0
100
AcDbLine
10
99.931318
20
12.197685
30
0
11
95.961737
21
14.611298
31
0
39
0
210
0
220
0
230
1
0
LINE
5
13D
100
AcDbEntity
8
1
62
256
6
ByLayer
370
-1
48
1
60
0
100
AcDbLine
10
98.966415
20
3.508596
30
0
11
98.935757
21
3.037979
31
0
39
0
210
0
220
0
230
1
0
LINE
5
13E
100
AcDbEntity
8
1
62
256
6
ByLayer
370
-1
48
1
60
0
100
AcDbLine
10
88.239982
20
8.662541
30
0
11
87.388161
21
8.729691
31
0
39
0
210
0
220
0
230
1
0
LINE
5
13F
100
AcDbEntity
8
1
62
256
6
ByLayer
370
-1
48
1
60
0
100
AcDbLine
10
88.239982
20
8.662541
30
0
11
88.176566
21
7.689057
31
0
39
0
210
0
220
0
230
1
0
LINE
5
140
100
AcDbEntity
8
1
62
256
6
ByLayer
370
-1
48
1
60
0
100
AcDbLine
10
92.712485
20
12.855551
30
0
11
93.2733
21
13.173746
31
0
39
0
210
0
220
0
230
1
0
LINE
5
141
100
AcDbEntity
8
1
62
256
6
ByLayer
370
-1
48
1
60
0
100
AcDbLine
10
96.789034
20
14.573057
30
0
11
96.96919
21
14.828006
31
0
39
0
210
0
220
0
230
1
0
LINE
5
142
100
AcDbEntity
8
1
62
256
6
ByLayer
370
-1
48
1
60
0
100
AcDbLine
10
95.769804
20
14.606412
30
0
11
99.93236
21
12.075466
31
0
39
0
210
0
220
0
230
1
0
LINE
5
143
100
AcDbEntity
8
1
62
256
6
ByLayer
370
-1
48
1
60
0
100
AcDbLine
10
93.031627
20
4.806084
30
0
11
93.261129
21
5.607626
31
0
39
0
210
0
220
0
230
1
0
LINE
5
144
100
AcDbEntity
8
1
62
256
6
ByLayer
370
-1
48
1
60
0
100
AcDbLine
10
99.074459
20
2.625141
30
0
11
98.632813
21
2.809273
31
0
39
0
210
0
220
0
230
1
0
LINE
5
145
100
AcDbEntity
8
1
62
256
6
ByLayer
370
-1
48
1
60
0
100
AcDbLine
10
97.308229
20
2.085461
30
0
11
97.321343
21
2.286775
31
0
39
0
210
0
220
0
230
1
0
LINE
5
146
100
AcDbEntity
8
1
62
256
6
ByLayer
370
-1
48
1
60
0
100
AcDbLine
10
92.712485
20
12.855551
30
0
11
93.659511
21
11.969991
31
0
39
0
210
0
220
0
230
1
0
LINE
5
147
100
AcDbEntity
8
1
62
256
6
ByLayer
370
-1
48
1
60
0
100
AcDbLine
10
99.484125
20
4.737446
30
0
11
99.476911
21
4.626705
31
0
39
0
210
0
220
0
230
1
0
LINE
5
148
100
AcDbEntity
8
1
62
256
6
ByLayer
370
-1
48
1
60
0
100
AcDbLine
10
99.919042
20
12.815383
30
0
11
99.919042
21
13.015604
31
0
39
0
210
0
220
0
230
1
0
LINE
5
149
100
AcDbEntity
8
1
62
256
6
ByLayer
370
-1
48
1
60
0
100
AcDbLine
10
95.961737
20
14.611298
30
0
11
96.169005
21
14.570768
31
0
39
0
210
0
220
0
230
1
0
LINE
5
14A
100
AcDbEntity
8
1
62
256
6
ByLayer
370
-1
48
1
60
0
100
AcDbLine
10
88.453108
20
9.794696
30
0
11
88.764728
21
9.612375
31
0
39
0
210
0
220
0
230
1
0
LINE
5
14B
100
AcDbEntity
8
1
62
256
6
ByLayer
370
-1
48
1
60
0
100
AcDbLine
10
92.286809
20
12.680235
30
0
11
93.062322
21
12.170339
31
0
39
0
210
0
220
0
230
1
0
LINE
5
14C
100
AcDbEntity
8
1
62
256
6
ByLayer
370
-1
48
1
60
0
100
AcDbLine
10
88.645416
20
8.723699
30
0
11
87.595208
21
8.806488
31
0
39
0
210
0
220
0
230
1
0
LINE
5
14D
100
AcDbEntity
8
1
62
256
6
ByLayer
370
-1
48
1
60
0
100
AcDbLine
10
99.928288
20
8.962417
30
0
11
99.928819
21
8.34555
31
0
39
0
210
0
220
0
230
1
0
LINE
5
14E
100
AcDbEntity
8
1
62
256
6
ByLayer
370
-1
48
1
60
0
100
AcDbLine
10
98.976728
20
2.462037
30
0
11
97.918341
21
2.388449
31
0
39
0
210
0
220
0
230
1
0
LINE
5
14F
100
AcDbEntity
8
1
62
256
6
ByLayer
370
-1
48
1
60
0
100
AcDbLine
10
92.035776
20
5.404637
30
0
11
92.276427
21
5.845101
31
0
39
0
210
0
220
0
230
1
0
LINE
5
150
100
AcDbEntity
8
1
62
256
6
ByLayer
370
-1
48
1
60
0
100
AcDbLine
10
99.931745
20
8.093725
30
0
11
99.415624
21
8.076557
31
0
39
0
210
0
220
0
230
1
0
LINE
5
151
100
AcDbEntity
8
1
62
256
6
ByLayer
370
-1
48
1
60
0
100
AcDbLine
10
88.450978
20
8.223486
30
0
11
88.478656
21
8.279945
31
0
39
0
210
0
220
0
230
1
0
LINE
5
152
100
AcDbEntity
8
1
62
256
6
ByLayer
370
-1
48
1
60
0
100
AcDbLine
10
99.928288
20
8.962417
30
0
11
98.615154
21
8.712817
31
0
39
0
210
0
220
0
230
1
0
LINE
5
153
100
AcDbEntity
8
1
62
256
6
ByLayer
370
-1
48
1
60
0
100
AcDbLine
10
98.410286
20
14.77423
30
0
11
98.852385
21
15.53241
31
0
39
0
210
0
220
0
230
1
0
LINE
5
154
100
AcDbEntity
8
1
62
256
6
ByLayer
370
-1
48
1
60
0
100
AcDbLine
10
97.115241
20
14.904347
30
0
11
97.764103
21
14.901515
31
0
39
0
210
0
220
0
230
1
0
LINE
5
155
100
AcDbEntity
8
1
62
256
6
ByLayer
370
-1
48
1
60
0
100
AcDbLine
10
97.909483
20
14.823903
30
0
11
97.949438
21
14.7663
31
0
39
0
210
0
220
0
230
1
0
LINE
5
156
100
AcDbEntity
8
1
62
256
6
ByLayer
370
-1
48
1
60
0
100
AcDbLine
10
99.745649
20
5.216928
30
0
11
96.548278
21
3.105635
31
0
39
0
210
0
220
0
230
1
0
LINE
5
157
100
AcDbEntity
8
1
62
256
6
ByLayer
370
-1
48
1
60
0
100
AcDbLine
10
96.68989
20
2.589582
30
0
11
96.739476
21
2.812684
31
0
39
0
210
0
220
0
230
1
0
LINE
5
158
100
AcDbEntity
8
1
62
256
6
ByLayer
370
-1
48
1
60
0
100
AcDbLine
10
87.310598
20
8.859814
30
0
11
88.145453
21
10.211962
31
0
39
0
210
0
220
0
230
1
0
LINE
5
159
100
AcDbEntity
8
1
62
256
6
ByLayer
370
-1
48
1
60
0
100
AcDbLine
10
98.557047
20
3.454388
30
0
11
98.339152
21
3.279918
31
0
39
0
210
0
220
0
230
1
0
LINE
5
15A
100
AcDbEntity
8
1
62
256
6
ByLayer
370
-1
48
1
60
0
100
AcDbLine
10
96.548278
20
3.105635
30
0
11
96.142903
21
2.932735
31
0
39
0
210
0
220
0
230
1
0
LINE
5
15B
100
AcDbEntity
8
1
62
256
6
ByLayer
370
-1
48
1
60
0
100
AcDbLine
10
89.693593
20
6.801621
30
0
11
89.586088
21
6.938032
31
0
39
0
210
0
220
0
230
1
0
LINE
5
15C
100
AcDbEntity
8
1
62
256
6
ByLayer
370
-1
48
1
60
0
100
AcDbLine
10
89.830803
20
6.653887
30
0
11
89.808034
21
6.304363
31
0
39
0
210
0
220
0
230
1
0
LINE
5
15D
100
AcDbEntity
8
1
62
256
6
ByLayer
370
-1
48
1
60
0
100
AcDbLine
10
96.653654
20
2.827221
30
0
11
96.610085
21
2.631189
31
0
39
0
210
0
220
0
230
1
0
LINE
5
15E
100
AcDbEntity
8
1
62
256
6
ByLayer
370
-1
48
1
60
0
100
AcDbLine
10
99.93236
20
9.50431
30
0
11
99.93236
21
12.075466
31
0
39
0
210
0
220
0
230
1
0
LINE
5
15F
100
AcDbEntity
8
1
62
256
6
ByLayer
370
-1
48
1
60
0
100
AcDbLine
10
99.930165
20
8.174361
30
0
11
99.931745
21
8.093725
31
0
39
0
210
0
220
0
230
1
0
LINE
5
160
100
AcDbEntity
8
1
62
256
6
ByLayer
370
-1
48
1
60
0
100
AcDbLine
10
88.898658
20
9.387689
30
0
11
88.894072
21
9.054919
31
0
39
0
210
0
220
0
230
1
0
LINE
5
161
100
AcDbEntity
8
1
62
256
6
ByLayer
370
-1
48
1
60
0
100
AcDbLine
10
92.298868
20
5.210181
30
0
11
92.627363
21
6.357456
31
0
39
0
210
0
220
0
230
1
0
LINE
5
162
100
AcDbEntity
8
1
62
256
6
ByLayer
370
-1
48
1
60
0
100
AcDbLine
10
98.928103
20
15.576442
30
0
11
98.932181
21
15.576425
31
0
39
0
210
0
220
0
230
1
0
LINE
5
163
100
AcDbEntity
8
1
62
256
6
ByLayer
370
-1
48
1
60
0
100
AcDbLine
10
99.689085
20
13.030844
30
0
11
96.789034
21
14.573057
31
0
39
0
210
0
220
0
230
1
0
LINE
5
164
100
AcDbEntity
8
1
62
256
6
ByLayer
370
-1
48
1
60
0
100
AcDbLine
10
93.44663
20
13.289583
30
0
11
93.542244
21
13.365881
31
0
39
0
210
0
220
0
230
1
0
LINE
5
165
100
AcDbEntity
8
SK1
62
256
6
ByLayer
370
-1
48
1
60
0
100
AcDbLine
10
0
20
-12.49125
30
0
11
0
21
-0.2
31
0
39
0
210
0
220
0
230
1
0
LINE
5
166
100
AcDbEntity
8
SK1
62
256
6
ByLayer
370
-1
48
1
60
0
100
AcDbLine
10
0
20
0.2
30
0
11
0
21
12.49125
31
0
39
0
210
0
220
0
230
1
0
LINE
5
167
100
AcDbEntity
8
SK1
62
256
6
ByLayer
370
-1
48
1
60
0
100
AcDbLine
10
-81.32
20
-11.99125
30
0
11
-81.32
21
11.99125
31
0
39
0
210
0
220
0
230
1
0
LINE
5
168
100
AcDbEntity
8
SK1
62
256
6
ByLayer
370
-1
48
1
60
0
100
AcDbLine
10
-80.82
20
-12.49125
30
0
11
-80.82
21
12.49125
31
0
39
0
210
0
220
0
230
1
0
LINE
5
169
100
AcDbEntity
8
SK1
62
256
6
ByLayer
370
-1
48
1
60
0
100
AcDbLine
10
0
20
-0.2
30
0
11
0
21
0.2
31
0
39
0
210
0
220
0
230
1
0
MTEXT
5
283
100
AcDbEntity
8
SK6
62
256
6
ByLayer
370
-1
48
1
60
0
100
AcDbMText
10
48.34
20
-25.540014
30
0
210
0
220
0
230
1
1
\W00.712;\fsimplex.shx,bigfont.shx;266RKF-25-16-R 
40
3.5
41
0
44
1.084337
50
0
71
7
72
5
7
DEFAULT
0
DIMENSION
5
2B6
100
AcDbEntity
8
2
62
256
6
ByLayer
370
-3
48
1
60
0
100
AcDbDimension
2
DimnDraft3D1
10
114.18
20
16.875
30
0
11
114.18
21
6.371053
31
0
70
32
71
5
72
1
41
1
210
0
220
0
230
1
3
Standard
100
AcDbAlignedDimension
13
106.43
23
0
33
0
14
101.43
24
16.875
34
0
50
90
100
AcDbRotatedDimension
1001
ACAD
1000
DSTYLE
1002
{
1070
    74
1070
     0
1070
   279
1070
     0
1070
   172
1070
     1
1070
   173
1070
     1
1070
   340
1005
284
1070
   271
1070
     3
1070
   272
1070
     3
1070
    77
1070
     1
1070
    73
1070
     0
1070
   171
1070
     4
1070
   274
1070
     4
1070
   177
1070
     2
1070
   176
1070
     2
1070
   178
1070
     7
1070
    78
1070
     8
1070
    41
1041
3.0
1070
   147
1041
2.25
1070
    42
1041
1.5
1070
    44
1041
3.0
1070
   140
1041
4.5
1070
   343
1005
2B7
1070
   344
1005
2B7
1002
}
0
DIMENSION
5
2CC
100
AcDbEntity
8
SK2
62
256
6
ByLayer
370
-3
48
1
60
0
100
AcDbDimension
2
DimnDraft3D2
10
-91.07
20
-12.49125
30
0
11
-91.07
21
-4.784211
31
0
70
32
71
5
72
1
41
1
210
0
220
0
230
1
3
Standard
100
AcDbAlignedDimension
13
-82.82
23
12.49125
33
0
14
-82.82
24
-12.49125
34
0
50
90
100
AcDbRotatedDimension
1001
ACAD
1000
DSTYLE
1002
{
1070
    74
1070
     0
1070
   279
1070
     0
1070
   172
1070
     1
1070
   173
1070
     1
1070
   340
1005
284
1070
   271
1070
     3
1070
   272
1070
     3
1070
    77
1070
     1
1070
    73
1070
     0
1070
   171
1070
     4
1070
   274
1070
     4
1070
   177
1070
     2
1070
   176
1070
     2
1070
   178
1070
     7
1070
    78
1070
     8
1070
    41
1041
3.0
1070
   147
1041
2.25
1070
    42
1041
1.5
1070
    44
1041
3.0
1070
   140
1041
4.5
1070
   343
1005
2B7
1070
   344
1005
2B7
1002
}
0
DIMENSION
5
2DA
100
AcDbEntity
8
2
62
256
6
ByLayer
370
-3
48
1
60
0
100
AcDbDimension
2
DimnDraft3D3
10
70.959812
20
26.625
30
0
11
82.815958
21
26.625
31
0
70
32
71
5
72
1
41
1
210
0
220
0
230
1
3
Standard
100
AcDbAlignedDimension
13
99.93
23
18.375
33
0
14
70.959812
24
18.375
34
0
50
0
100
AcDbRotatedDimension
1001
ACAD
1000
DSTYLE
1002
{
1070
   279
1070
     0
1070
   172
1070
     1
1070
   173
1070
     1
1070
   340
1005
284
1070
   271
1070
     3
1070
   272
1070
     3
1070
    77
1070
     1
1070
    73
1070
     0
1070
   171
1070
     4
1070
   274
1070
     4
1070
   177
1070
     2
1070
   176
1070
     2
1070
   178
1070
     7
1070
    78
1070
     8
1070
    41
1041
3.0
1070
   147
1041
2.25
1070
    42
1041
1.5
1070
    44
1041
3.0
1070
   140
1041
4.5
1070
   343
1005
2B7
1070
   344
1005
2B7
1002
}
0
DIMENSION
5
2E8
100
AcDbEntity
8
SK2
62
256
6
ByLayer
370
-3
48
1
60
0
100
AcDbDimension
2
DimnDraft3D4
10
-81.32
20
36.625
30
0
11
6.149079
21
36.625
31
0
70
32
71
5
72
1
41
1
210
0
220
0
230
1
3
Standard
100
AcDbAlignedDimension
13
99.93
23
18.375
33
0
14
-81.32
24
1.5
34
0
50
0
100
AcDbRotatedDimension
1001
ACAD
1000
DSTYLE
1002
{
1070
   279
1070
     0
1070
   172
1070
     1
1070
   173
1070
     1
1070
   340
1005
284
1070
   271
1070
     3
1070
   272
1070
     3
1070
    77
1070
     1
1070
    73
1070
     0
1070
   171
1070
     4
1070
   274
1070
     4
1070
   177
1070
     2
1070
   176
1070
     2
1070
   178
1070
     7
1070
    78
1070
     8
1070
    41
1041
3.0
1070
   147
1041
2.25
1070
    42
1041
1.5
1070
    44
1041
3.0
1070
   140
1041
4.5
1070
   343
1005
2B7
1070
   344
1005
2B7
1002
}
0
ENDSEC
0
SECTION
2
OBJECTS
0
DICTIONARY
5
319
330
0
100
AcDbDictionary
280
0
281
1
3
ACAD_GROUP
350
31a
3
ACAD_MLINESTYLE
350
31b
0
DICTIONARY
5
31a
330
0
100
AcDbDictionary
280
0
281
1
0
DICTIONARY
5
31b
330
0
100
AcDbDictionary
280
0
281
1
3
Standard
350
18
0
MLINESTYLE
5
18
330
31b
100
AcDbMlineStyle
2
Standard
70
0
3

62
256
51
90
52
90
71
2
49
-0.5
62
256
6
ByLayer
49
0.5
62
256
6
ByLayer
0
RASTERVARIABLES
5
307
330

100
AcDbRasterVariables
90
0
70
1
71
1
72
1
0
ENDSEC
0
EOF
