0
SECTION
2
HEADER
9
$ACADVER
1
AC1015
9
$DWGCODEPAGE
3
ANSI_1252
9
$HANDSEED
5
2f5
9
$ANGBASE
50
0
9
$ANGDIR
70
0
9
$ATTMODE
70
1
9
$AUNITS
70
0
9
$AUPREC
70
0
9
$CECOLOR
62
256
9
$CELTSCALE
40
1
9
$CELTYPE
6
ByLayer
9
$CELWEIGHT
370
-1
9
$CLAYER
8
0
9
$CMLJUST
70
0
9
$CMLSCALE
40
1
9
$CMLSTYLE
2
Standard
9
$DIMSTYLE
2
Standard
9
$TEXTSIZE
40
0.2
9
$TEXTSTYLE
7
Standard
9
$LUNITS
70
2
9
$LUPREC
70
4
9
$EXTNAMES
290
1
9
$INSUNITS
70
4
9
$LTSCALE
40
1
9
$LWDISPLAY
290
0
9
$PDMODE
70
0
9
$PDSIZE
40
0
9
$PLINEGEN
70
0
0
ENDSEC
0
SECTION
2
CLASSES
0
CLASS
1
RASTERVARIABLES
2
AcDbRasterVariables
3
ISM
90
0
280
0
281
0
0
ENDSEC
0
SECTION
2
TABLES
0
TABLE
2
VPORT
5
2eb
100
AcDbSymbolTable
0
VPORT
5
1
100
AcDbSymbolTableRecord
100
AcDbViewportTableRecord
2
*Active
70
0
10
0
20
0
11
1
21
1
12
-1
22
1
13
0
23
0
14
0.5
24
0.5
15
10
25
10
16
0
26
0
36
1
17
0
27
0
37
0
0
ENDTAB
0
TABLE
2
LTYPE
5
2ec
100
AcDbSymbolTable
0
LTYPE
5
14
100
AcDbSymbolTableRecord
100
AcDbLinetypeTableRecord
70
0
2
ByBlock
3

72
65
73
0
40
0
0
LTYPE
5
15
100
AcDbSymbolTableRecord
100
AcDbLinetypeTableRecord
70
0
2
ByLayer
3

72
65
73
0
40
0
0
LTYPE
5
16
100
AcDbSymbolTableRecord
100
AcDbLinetypeTableRecord
70
0
2
CONTINUOUS
3
Solid line
72
65
73
0
40
0
0
LTYPE
5
3B
100
AcDbSymbolTableRecord
100
AcDbLinetypeTableRecord
70
0
2
DASHED
3
__ __ __ __ __ __ __ __ __
72
65
73
2
40
25.72
49
12.86
74
0
49
-12.86
74
0
0
LTYPE
5
3C
100
AcDbSymbolTableRecord
100
AcDbLinetypeTableRecord
70
0
2
HIDDEN
3
_ _ _ _ _ _ _ _ _ _ _ _ _ _ _
72
65
73
2
40
0.5
49
0.25
74
0
49
-0.25
74
0
0
LTYPE
5
3D
100
AcDbSymbolTableRecord
100
AcDbLinetypeTableRecord
70
0
2
PHANTOM
3
____ _ _ ____ _ _ _____ _ _ ____
72
65
73
6
40
50.5
49
18
74
0
49
-6.5
74
0
49
6.5
74
0
49
-6.5
74
0
49
6.5
74
0
49
-6.5
74
0
0
LTYPE
5
3E
100
AcDbSymbolTableRecord
100
AcDbLinetypeTableRecord
70
0
2
CENTER
3
____ _ ____ _ ____ _ ____
72
65
73
4
40
47.5
49
22
74
0
49
-8.5
74
0
49
8.5
74
0
49
-8.5
74
0
0
LTYPE
5
3F
100
AcDbSymbolTableRecord
100
AcDbLinetypeTableRecord
70
0
2
DOT
3
.........................
72
65
73
2
40
10
49
0
74
0
49
-10
74
0
0
LTYPE
5
40
100
AcDbSymbolTableRecord
100
AcDbLinetypeTableRecord
70
0
2
DASHDOT
3
_._._._._._._._._._._._._._._._.
72
65
73
4
40
70
49
31
74
0
49
-13
74
0
49
13
74
0
49
-13
74
0
0
ENDTAB
0
TABLE
2
LAYER
5
2ed
100
AcDbSymbolTable
0
LAYER
5
10
100
AcDbSymbolTableRecord
100
AcDbLayerTableRecord
2
0
70
0
62
7
6
CONTINUOUS
290
1
370
-3
390
0
0
LAYER
5
42
100
AcDbSymbolTableRecord
100
AcDbLayerTableRecord
2
2
70
0
62
7
6
CONTINUOUS
290
1
370
-3
390
0
0
LAYER
5
45
100
AcDbSymbolTableRecord
100
AcDbLayerTableRecord
2
81
70
0
62
-3
6
CONTINUOUS
290
1
370
-3
390
0
0
LAYER
5
47
100
AcDbSymbolTableRecord
100
AcDbLayerTableRecord
2
80
70
0
62
-6
6
CONTINUOUS
290
1
370
-3
390
0
0
LAYER
5
4A
100
AcDbSymbolTableRecord
100
AcDbLayerTableRecord
2
1
70
0
62
4
6
CONTINUOUS
290
1
370
-3
390
0
0
LAYER
5
2d8
100
AcDbSymbolTableRecord
100
AcDbLayerTableRecord
2
SK1
70
0
62
4
6
CONTINUOUS
290
1
370
-3
390
0
0
LAYER
5
2d9
100
AcDbSymbolTableRecord
100
AcDbLayerTableRecord
2
SK2
70
0
62
7
6
CONTINUOUS
290
1
370
-3
390
0
0
LAYER
5
2da
100
AcDbSymbolTableRecord
100
AcDbLayerTableRecord
2
SK6
70
0
62
5
6
CONTINUOUS
290
1
370
-3
390
0
0
ENDTAB
0
TABLE
2
STYLE
5
2ee
100
AcDbSymbolTable
0
STYLE
5
11
100
AcDbSymbolTableRecord
100
AcDbTextStyleTableRecord
2
Standard
3
txt
70
0
71
0
40
0
41
1
42
0
50
0
0
STYLE
5
27C
100
AcDbSymbolTableRecord
100
AcDbTextStyleTableRecord
2
DEFAULT
3
simplex.shx
70
0
71
0
40
0
41
1
42
0
50
0
0
STYLE
5
29F
100
AcDbSymbolTableRecord
100
AcDbTextStyleTableRecord
2
DWGDirectTextStyle
3
SIMPLEX
70
0
71
0
40
0
41
1
42
0
50
0
0
ENDTAB
0
TABLE
2
DIMSTYLE
5
2ef
100
AcDbSymbolTable
100
AcDbDimStyleTable
0
DIMSTYLE
105
27
100
AcDbSymbolTableRecord
100
AcDbDimStyleTableRecord
2
Standard
70
0
3
<>
41
0.18
42
0.0625
44
0.18
140
0.18
147
0.09
73
0
74
0
77
1
271
2
275
0
278
52
280
0
340
11
0
ENDTAB
0
TABLE
2
VIEW
5
2f0
100
AcDbSymbolTable
0
ENDTAB
0
TABLE
2
UCS
5
2f1
100
AcDbSymbolTable
0
ENDTAB
0
TABLE
2
APPID
5
2f2
100
AcDbSymbolTable
0
APPID
5
12
100
AcDbSymbolTableRecord
100
AcDbRegAppTableRecord
2
ACAD
70
0
0
ENDTAB
0
TABLE
2
BLOCK_RECORD
5
2f3
100
AcDbSymbolTable
0
BLOCK_RECORD
5
1F
100
AcDbSymbolTableRecord
100
AcDbBlockTableRecord
2
*Model_Space
340
0
70
0
0
BLOCK_RECORD
5
1B
100
AcDbSymbolTableRecord
100
AcDbBlockTableRecord
2
*Paper_Space
340
0
70
0
0
BLOCK_RECORD
5
23
100
AcDbSymbolTableRecord
100
AcDbBlockTableRecord
2
*Paper_Space0
340
0
70
0
0
BLOCK_RECORD
5
2A4
100
AcDbSymbolTableRecord
100
AcDbBlockTableRecord
2
DimnDraft3D1
340
0
70
0
0
BLOCK_RECORD
5
2B2
100
AcDbSymbolTableRecord
100
AcDbBlockTableRecord
2
_CLOSED
340
0
70
0
0
ENDTAB
0
ENDSEC
0
SECTION
2
BLOCKS
0
BLOCK
5
20
100
AcDbEntity
8
0
100
AcDbBlockBegin
2
*Model_Space
70
0
10
0
20
0
30
0
3
*Model_Space
0
ENDBLK
5
21
100
AcDbEntity
8
0
100
AcDbBlockEnd
0
BLOCK
5
1C
100
AcDbEntity
8
0
100
AcDbBlockBegin
2
*Paper_Space
70
0
10
0
20
0
30
0
3
*Paper_Space
0
ENDBLK
5
1D
100
AcDbEntity
8
0
100
AcDbBlockEnd
0
BLOCK
5
24
100
AcDbEntity
8
0
100
AcDbBlockBegin
2
*Paper_Space0
70
0
10
0
20
0
30
0
3
*Paper_Space0
0
ENDBLK
5
25
100
AcDbEntity
8
0
100
AcDbBlockEnd
0
BLOCK
5
2AF
100
AcDbEntity
8
0
100
AcDbBlockBegin
2
DimnDraft3D1
70
0
10
0
20
0
30
0
3
DimnDraft3D1
0
MTEXT
5
2A5
100
AcDbEntity
8
SK2
62
256
6
ByLayer
370
-1
48
1
60
0
100
AcDbMText
10
-113.869199
20
-1.503947
30
0
210
0
220
0
230
1
1
\W01.000;\fsimplex.shx,bigfont.shx;20 
40
4.5
41
0
44
1.084337
50
90
71
7
72
5
7
DEFAULT
0
LINE
5
2A6
100
AcDbEntity
8
SK2
62
256
6
ByLayer
370
-1
48
1
60
0
100
AcDbLine
10
-104.494199
20
9.9375
30
0
11
-115.744199
21
9.9375
31
0
39
0
210
0
220
0
230
1
0
LINE
5
2A7
100
AcDbEntity
8
SK2
62
256
6
ByLayer
370
-1
48
1
60
0
100
AcDbLine
10
-104.494199
20
-9.9375
30
0
11
-115.744199
21
-9.9375
31
0
39
0
210
0
220
0
230
1
0
LINE
5
2A8
100
AcDbEntity
8
SK2
62
256
6
ByLayer
370
-1
48
1
60
0
100
AcDbLine
10
-112.744199
20
9.9375
30
0
11
-112.744199
21
-9.9375
31
0
39
0
210
0
220
0
230
1
0
LINE
5
2A9
100
AcDbEntity
8
SK2
62
256
6
ByLayer
370
-1
48
1
60
0
100
AcDbLine
10
-112.744199
20
9.9375
30
0
11
-112.349241
21
6.937501
31
0
39
0
210
0
220
0
230
1
0
LINE
5
2AA
100
AcDbEntity
8
SK2
62
256
6
ByLayer
370
-1
48
1
60
0
100
AcDbLine
10
-112.744199
20
9.9375
30
0
11
-113.139156
21
6.937499
31
0
39
0
210
0
220
0
230
1
0
LINE
5
2AB
100
AcDbEntity
8
SK2
62
256
6
ByLayer
370
-1
48
1
60
0
100
AcDbLine
10
-112.349241
20
6.937501
30
0
11
-113.139156
21
6.937499
31
0
39
0
210
0
220
0
230
1
0
LINE
5
2AC
100
AcDbEntity
8
SK2
62
256
6
ByLayer
370
-1
48
1
60
0
100
AcDbLine
10
-112.744199
20
-9.9375
30
0
11
-113.139156
21
-6.937501
31
0
39
0
210
0
220
0
230
1
0
LINE
5
2AD
100
AcDbEntity
8
SK2
62
256
6
ByLayer
370
-1
48
1
60
0
100
AcDbLine
10
-112.744199
20
-9.9375
30
0
11
-112.349241
21
-6.937499
31
0
39
0
210
0
220
0
230
1
0
LINE
5
2AE
100
AcDbEntity
8
SK2
62
256
6
ByLayer
370
-1
48
1
60
0
100
AcDbLine
10
-113.139156
20
-6.937501
30
0
11
-112.349241
21
-6.937499
31
0
39
0
210
0
220
0
230
1
0
ENDBLK
5
2B0
100
AcDbEntity
8
0
100
AcDbBlockEnd
0
BLOCK
5
2B3
100
AcDbEntity
8
0
100
AcDbBlockBegin
2
_CLOSED
70
0
10
0
20
0
30
0
3
_CLOSED
0
LINE
5
2B5
100
AcDbEntity
8
0
62
256
6
ByLayer
370
-2
48
1
60
0
100
AcDbLine
10
-1
20
0.166667
30
0
11
0
21
0
31
0
39
0
210
0
220
0
230
1
0
LINE
5
2B6
100
AcDbEntity
8
0
62
256
6
ByLayer
370
-2
48
1
60
0
100
AcDbLine
10
0
20
0
30
0
11
-1
21
-0.166667
31
0
39
0
210
0
220
0
230
1
0
LINE
5
2B7
100
AcDbEntity
8
0
62
256
6
ByLayer
370
-2
48
1
60
0
100
AcDbLine
10
-1
20
0.166667
30
0
11
-1
21
-0.166667
31
0
39
0
210
0
220
0
230
1
0
LINE
5
2B8
100
AcDbEntity
8
0
62
256
6
ByLayer
370
-2
48
1
60
0
100
AcDbLine
10
0
20
0
30
0
11
-1
21
0
31
0
39
0
210
0
220
0
230
1
0
ENDBLK
5
2B4
100
AcDbEntity
8
0
100
AcDbBlockEnd
0
ENDSEC
0
SECTION
2
ENTITIES
0
ELLIPSE
5
166
100
AcDbEntity
8
1
62
256
6
ByLayer
370
-1
48
1
60
0
100
AcDbEllipse
10
13.297046
20
-0.44278
30
0
11
-0.162533016844046
21
1.64197701257175
31
0
210
0
220
0
230
1
40
0.984661
41
1.42097263515706
42
-2.75150159357375
0
ELLIPSE
5
167
100
AcDbEntity
8
1
62
256
6
ByLayer
370
-1
48
1
60
0
100
AcDbEllipse
10
12.038104
20
-0.577755
30
0
11
-0.175892976529423
21
1.64059795830899
31
0
210
0
220
0
230
1
40
0.984637
41
-2.74154826337732
42
-1.67605762542805
0
ELLIPSE
5
168
100
AcDbEntity
8
1
62
256
6
ByLayer
370
-1
48
1
60
0
100
AcDbEllipse
10
12.055466
20
-0.575894
30
0
11
-0.175892976529423
21
1.64059795830899
31
0
210
0
220
0
230
1
40
0.984637
41
-2.29876619249643
42
-1.66264846869918
0
ELLIPSE
5
169
100
AcDbEntity
8
1
62
256
6
ByLayer
370
-1
48
1
60
0
100
AcDbEllipse
10
12.055466
20
-0.575894
30
0
11
-0.175892976529423
21
1.64059795830899
31
0
210
0
220
0
230
1
40
0.984637
41
0.268133755012308
42
0.307652729844107
0
ELLIPSE
5
16A
100
AcDbEntity
8
1
62
256
6
ByLayer
370
-1
48
1
60
0
100
AcDbEllipse
10
12.99847
20
0.606952
30
0
11
-0.163166420900549
21
1.64837617406218
31
0
210
0
220
0
230
1
40
0.984661
41
0.688188761713466
42
2.09407219885705
0
ELLIPSE
5
16B
100
AcDbEntity
8
1
62
256
6
ByLayer
370
-1
48
1
60
0
100
AcDbEllipse
10
12.399164
20
0.078679
30
0
11
-0.213203607914452
21
1.98860358582908
31
0
210
0
220
0
230
1
40
0.984637
41
-2.28851603275332
42
-2.05487671456079
0
ELLIPSE
5
16C
100
AcDbEntity
8
1
62
256
6
ByLayer
370
-1
48
1
60
0
100
AcDbEllipse
10
13.260381
20
-0.446711
30
0
11
-0.660755624380172
21
1.57699022400442
31
0
210
0
220
0
230
1
40
0.398781
41
-2.87794875784814
42
-2.67750236081889
0
ELLIPSE
5
16D
100
AcDbEntity
8
1
62
256
6
ByLayer
370
-1
48
1
60
0
100
AcDbEllipse
10
11.977272
20
0.033446
30
0
11
-0.225646305867185
21
2.10465975395978
31
0
210
0
220
0
230
1
40
0.984637
41
-2.51293385636387
42
-2.00190252287999
0
ELLIPSE
5
16E
100
AcDbEntity
8
1
62
256
6
ByLayer
370
-1
48
1
60
0
100
AcDbEllipse
10
12.477357
20
-0.530662
30
0
11
-0.175892976529423
21
1.64059795830899
31
0
210
0
220
0
230
1
40
0.984637
41
-2.66369769273191
42
-2.00968035900529
0
ELLIPSE
5
16F
100
AcDbEntity
8
1
62
256
6
ByLayer
370
-1
48
1
60
0
100
AcDbEllipse
10
12.122876
20
-0.568666
30
0
11
-7.40839201199103
21
-1.35677417790615
31
0
210
0
220
0
230
1
40
0.206678
41
1.70287293612175
42
1.80750029835954
0
ELLIPSE
5
170
100
AcDbEntity
8
1
62
256
6
ByLayer
370
-1
48
1
60
0
100
AcDbEllipse
10
15.08102
20
6.13846
30
0
11
-0.137548307646008
21
1.28294760339763
31
0
210
0
220
0
230
1
40
0.984637
41
-1.67597241239435
42
-0.628774861197762
0
ELLIPSE
5
171
100
AcDbEntity
8
1
62
256
6
ByLayer
370
-1
48
1
60
0
100
AcDbEllipse
10
15.815555
20
4.854107
30
0
11
-0.3347491633527
21
-0.198269006353019
31
0
210
0
220
0
230
1
40
0.494774
41
-2.31554829324691
42
-1.57832859670995
0
ELLIPSE
5
172
100
AcDbEntity
8
1
62
256
6
ByLayer
370
-1
48
1
60
0
100
AcDbEllipse
10
16.541785
20
6.13846
30
0
11
-0.00166011276140462
21
0.394030905814205
31
0
210
0
220
0
230
1
40
0.48236
41
1.56876407099537
42
2.97903753245344
0
ELLIPSE
5
173
100
AcDbEntity
8
1
62
256
6
ByLayer
370
-1
48
1
60
0
100
AcDbEllipse
10
15.085815
20
4.655317
30
0
11
-0.388113182761353
21
0.000412013910119093
31
0
210
0
220
0
230
1
40
0.49719
41
2.27233441775496
42
-3.08231238522568
0
ELLIPSE
5
174
100
AcDbEntity
8
1
62
256
6
ByLayer
370
-1
48
1
60
0
100
AcDbEllipse
10
15.08102
20
6.13846
30
0
11
-0.137548307646008
21
1.28294760339763
31
0
210
0
220
0
230
1
40
0.984637
41
-2.72316996359096
42
-1.67597241239436
0
ELLIPSE
5
175
100
AcDbEntity
8
1
62
256
6
ByLayer
370
-1
48
1
60
0
100
AcDbEllipse
10
15.354469
20
6.167777
30
0
11
0.178707264153878
21
-1.66684752564183
31
0
210
0
220
0
230
1
40
0.984637
41
1.98921901679373
42
3.03641656799051
0
ELLIPSE
5
176
100
AcDbEntity
8
1
62
256
6
ByLayer
370
-1
48
1
60
0
100
AcDbEllipse
10
15.354469
20
6.167777
30
0
11
0.178707264153878
21
-1.66684752564183
31
0
210
0
220
0
230
1
40
0.984637
41
-1.15237363679607
42
-0.105176085599325
0
ELLIPSE
5
177
100
AcDbEntity
8
1
62
256
6
ByLayer
370
-1
48
1
60
0
100
AcDbEllipse
10
15.354469
20
6.167777
30
0
11
0.178707264153878
21
-1.66684752564183
31
0
210
0
220
0
230
1
40
0.984637
41
3.03641656799051
42
-2.19957118799265
0
ELLIPSE
5
178
100
AcDbEntity
8
1
62
256
6
ByLayer
370
-1
48
1
60
0
100
AcDbEllipse
10
15.354469
20
6.167777
30
0
11
0.178707264153878
21
-1.66684752564183
31
0
210
0
220
0
230
1
40
0.984637
41
-0.105176085599325
42
0.942021465597123
0
ELLIPSE
5
179
100
AcDbEntity
8
1
62
256
6
ByLayer
370
-1
48
1
60
0
100
AcDbEllipse
10
15.354469
20
6.167777
30
0
11
0.178707264153878
21
-1.66684752564183
31
0
210
0
220
0
230
1
40
0.984637
41
-2.19957118799265
42
-1.15237363679607
0
ELLIPSE
5
17A
100
AcDbEntity
8
1
62
256
6
ByLayer
370
-1
48
1
60
0
100
AcDbEllipse
10
15.354469
20
6.167777
30
0
11
0.178707264153878
21
-1.66684752564183
31
0
210
0
220
0
230
1
40
0.984637
41
0.942021465597123
42
1.98921901679373
0
ELLIPSE
5
17B
100
AcDbEntity
8
1
62
256
6
ByLayer
370
-1
48
1
60
0
100
AcDbEllipse
10
15.08102
20
6.13846
30
0
11
-0.137548307646008
21
1.28294760339763
31
0
210
0
220
0
230
1
40
0.984637
41
2.88439321350821
42
-2.72316996359094
0
ELLIPSE
5
17C
100
AcDbEntity
8
1
62
256
6
ByLayer
370
-1
48
1
60
0
100
AcDbEllipse
10
15.08102
20
6.13846
30
0
11
-0.137548307646008
21
1.28294760339763
31
0
210
0
220
0
230
1
40
0.984637
41
-0.628774861197709
42
0.101399777799882
0
ELLIPSE
5
17D
100
AcDbEntity
8
1
62
256
6
ByLayer
370
-1
48
1
60
0
100
AcDbEllipse
10
14.346485
20
7.422813
30
0
11
-0.334749163353534
21
-0.198269006354514
31
0
210
0
220
0
230
1
40
0.494774
41
0.15299059541786
42
0.826042228553228
0
ELLIPSE
5
17E
100
AcDbEntity
8
1
62
256
6
ByLayer
370
-1
48
1
60
0
100
AcDbEllipse
10
15.08102
20
6.13846
30
0
11
-0.137548307646008
21
1.28294760339763
31
0
210
0
220
0
230
1
40
0.984637
41
0.524075237274921
42
1.1258045609316
0
ELLIPSE
5
17F
100
AcDbEntity
8
1
62
256
6
ByLayer
370
-1
48
1
60
0
100
AcDbEllipse
10
16.348563
20
5.396889
30
0
11
-0.19139221842987
21
-0.342134594454296
31
0
210
0
220
0
230
1
40
0.487307
41
0.936763074552705
42
-3.09386107380812
0
ELLIPSE
5
180
100
AcDbEntity
8
1
62
256
6
ByLayer
370
-1
48
1
60
0
100
AcDbEllipse
10
16.343768
20
6.880032
30
0
11
-0.193958055348338
21
0.341934994911017
31
0
210
0
220
0
230
1
40
0.48462
41
3.09172931451184
42
-0.895650237031301
0
ELLIPSE
5
181
100
AcDbEntity
8
1
62
256
6
ByLayer
370
-1
48
1
60
0
100
AcDbEllipse
10
15.08102
20
6.13846
30
0
11
0.137548307645996
21
-1.28294760339754
31
0
210
0
220
0
230
1
40
0.984637
41
-1.37365937932448
42
-0.776838445829464
0
ELLIPSE
5
182
100
AcDbEntity
8
1
62
256
6
ByLayer
370
-1
48
1
60
0
100
AcDbEllipse
10
15.815555
20
4.854107
30
0
11
-0.33474916335207
21
-0.198269006353558
31
0
210
0
220
0
230
1
40
0.494774
41
-1.57832859671425
42
-0.168055135252073
0
ELLIPSE
5
183
100
AcDbEntity
8
1
62
256
6
ByLayer
370
-1
48
1
60
0
100
AcDbEllipse
10
15.076225
20
7.621603
30
0
11
-0.388113182761355
21
0.000412013910119095
31
0
210
0
220
0
230
1
40
0.49719
41
3.08658270252928
42
-1.66023316912639
0
ELLIPSE
5
184
100
AcDbEntity
8
1
62
256
6
ByLayer
370
-1
48
1
60
0
100
AcDbEllipse
10
15.807251
20
7.422813
30
0
11
-0.335833568590334
21
0.198604627911572
31
0
210
0
220
0
230
1
40
0.491978
41
1.58035745323125
42
2.55849278705902
0
ELLIPSE
5
185
100
AcDbEntity
8
1
62
256
6
ByLayer
370
-1
48
1
60
0
100
AcDbEllipse
10
16.541785
20
6.13846
30
0
11
-0.00166011276137905
21
0.394030905812891
31
0
210
0
220
0
230
1
40
0.48236
41
0.158490609533656
42
1.56876407099553
0
ELLIPSE
5
186
100
AcDbEntity
8
1
62
256
6
ByLayer
370
-1
48
1
60
0
100
AcDbEllipse
10
15.807251
20
7.422813
30
0
11
-0.335833568589439
21
0.198604627908445
31
0
210
0
220
0
230
1
40
0.491978
41
0.170083991760669
42
1.58035745321806
0
ELLIPSE
5
187
100
AcDbEntity
8
1
62
256
6
ByLayer
370
-1
48
1
60
0
100
AcDbEllipse
10
19.307782
20
10.911125
30
0
11
-0.37573491071919
21
-0.000813437674069951
31
0
210
0
220
0
230
1
40
0.014477
41
0.387372407847836
42
1.4223526543059
0
ELLIPSE
5
188
100
AcDbEntity
8
1
62
256
6
ByLayer
370
-1
48
1
60
0
100
AcDbEllipse
10
19.830711
20
4.614241
30
0
11
-0.0758050237685229
21
-0.129554897864077
31
0
210
0
220
0
230
1
40
0.141824
41
0.964634084374278
42
1.67342357371301
0
ELLIPSE
5
189
100
AcDbEntity
8
1
62
256
6
ByLayer
370
-1
48
1
60
0
100
AcDbEllipse
10
19.751892
20
10.911125
30
0
11
0.31999857438126
21
0.000955193153900391
31
0
210
0
220
0
230
1
40
0.016926
41
-1.74535451607704
42
-1.57082159087759
0
ELLIPSE
5
18A
100
AcDbEntity
8
1
62
256
6
ByLayer
370
-1
48
1
60
0
100
AcDbEllipse
10
16.071308
20
-0.674317
30
0
11
0.265031506044518
21
0.196617142700668
31
0
210
0
220
0
230
1
40
0.341239
41
-1.89712853314576
42
-1.07484731081062
0
ELLIPSE
5
18B
100
AcDbEntity
8
1
62
256
6
ByLayer
370
-1
48
1
60
0
100
AcDbEllipse
10
15.864315
20
10.916453
30
0
11
-0.166222822700142
21
-0.000404025363971428
31
0
210
0
220
0
230
1
40
0.015318
41
-1.7281592790842
42
-1.01936978895288
0
ELLIPSE
5
18C
100
AcDbEntity
8
1
62
256
6
ByLayer
370
-1
48
1
60
0
100
AcDbEllipse
10
18.513104
20
10.916453
30
0
11
-0.176125739428309
21
-0.000381298910103553
31
0
210
0
220
0
230
1
40
0.014477
41
-2.75422024574828
42
-1.71923999941447
0
ELLIPSE
5
18D
100
AcDbEntity
8
1
62
256
6
ByLayer
370
-1
48
1
60
0
100
AcDbEllipse
10
20.873641
20
7.743955
30
0
11
-0.0461022224096209
21
0.123922179147849
31
0
210
0
220
0
230
1
40
0.697513
41
0.947166126083
42
1.2919744174236
0
ELLIPSE
5
18E
100
AcDbEntity
8
1
62
256
6
ByLayer
370
-1
48
1
60
0
100
AcDbEllipse
10
20.64432
20
10.274844
30
0
11
0.164128524857489
21
0.286289761130406
31
0
210
0
220
0
230
1
40
0.008441
41
-1.58546855109517
42
-1.23640270069636
0
ELLIPSE
5
18F
100
AcDbEntity
8
1
62
256
6
ByLayer
370
-1
48
1
60
0
100
AcDbEllipse
10
21.15678
20
8.888344
30
0
11
-0.132004876934795
21
-0.000392178518646553
31
0
210
0
220
0
230
1
40
0.984667
41
-3.14157881689558
42
-2.18885913997025
0
ELLIPSE
5
190
100
AcDbEntity
8
1
62
256
6
ByLayer
370
-1
48
1
60
0
100
AcDbEllipse
10
11.889532
20
4.364517
30
0
11
-0.0109764751846185
21
0.149597850895397
31
0
210
0
220
0
230
1
40
0.174416
41
-2.27514962593692
42
-1.56636013641394
0
ELLIPSE
5
191
100
AcDbEntity
8
1
62
256
6
ByLayer
370
-1
48
1
60
0
100
AcDbEllipse
10
21.26472
20
9.131564
30
0
11
-0.132004876934613
21
-0.000392178521471791
31
0
210
0
220
0
230
1
40
0.984667
41
1.38366738766254E-05
42
0.952733513599279
0
ELLIPSE
5
192
100
AcDbEntity
8
1
62
256
6
ByLayer
370
-1
48
1
60
0
100
AcDbEllipse
10
21.827265
20
9.924472
30
0
11
-0.203084426052122
21
-0.000603351551262542
31
0
210
0
220
0
230
1
40
0.984667
41
-3.14157881681778
42
-2.10103542314067
0
ELLIPSE
5
193
100
AcDbEntity
8
1
62
256
6
ByLayer
370
-1
48
1
60
0
100
AcDbEllipse
10
14.296587
20
10.332588
30
0
11
0.149914929437486
21
-0.0050511317299894
31
0
210
0
220
0
230
1
40
0.023376
41
0.6881875985917
42
1.39697708811459
0
ELLIPSE
5
194
100
AcDbEntity
8
1
62
256
6
ByLayer
370
-1
48
1
60
0
100
AcDbEllipse
10
15.80523
20
-0.344518
30
0
11
-0.139234821942734
21
0.213104820120464
31
0
210
0
220
0
230
1
40
0.952081
41
-1.62521932802718
42
-0.551305267922038
0
ELLIPSE
5
195
100
AcDbEntity
8
1
62
256
6
ByLayer
370
-1
48
1
60
0
100
AcDbEllipse
10
16.429985
20
0.143071
30
0
11
0.00576500800462782
21
0.319948065602383
31
0
210
0
220
0
230
1
40
0.256807
41
0.55838269945655
42
1.74352732460071
0
ELLIPSE
5
196
100
AcDbEntity
8
1
62
256
6
ByLayer
370
-1
48
1
60
0
100
AcDbEllipse
10
14.763064
20
-0.662956
30
0
11
-0.0541571275601127
21
0.118791534245415
31
0
210
0
220
0
230
1
40
0.958576
41
-0.937122012151382
42
0.015597664757216
0
ELLIPSE
5
197
100
AcDbEntity
8
1
62
256
6
ByLayer
370
-1
48
1
60
0
100
AcDbEllipse
10
19.342457
20
4.925003
30
0
11
-0.0805414741465712
21
-0.126542763294853
31
0
210
0
220
0
230
1
40
0.138046
41
0.969941273947717
42
1.67873076347029
0
ELLIPSE
5
198
100
AcDbEntity
8
1
62
256
6
ByLayer
370
-1
48
1
60
0
100
AcDbEllipse
10
11.657236
20
10.644296
30
0
11
0.0197022175593631
21
-0.199027190663094
31
0
210
0
220
0
230
1
40
0.984662
41
-3.14159171806168
42
-2.71516118948927
0
ELLIPSE
5
199
100
AcDbEntity
8
1
62
256
6
ByLayer
370
-1
48
1
60
0
100
AcDbEllipse
10
9.027659
20
9.569006
30
0
11
-0.169295514592373
21
-0.283264944422891
31
0
210
0
220
0
230
1
40
0.289048
41
-1.90258548364586
42
-1.55351963324696
0
ELLIPSE
5
19A
100
AcDbEntity
8
1
62
256
6
ByLayer
370
-1
48
1
60
0
100
AcDbEllipse
10
15.09382
20
6.135595
30
0
11
-0.28775559277916
21
2.90683965172194
31
0
210
0
220
0
230
1
40
0.984662
41
-0.100197943764267
42
-3.0879792990532E-16
0
ELLIPSE
5
19B
100
AcDbEntity
8
1
62
256
6
ByLayer
370
-1
48
1
60
0
100
AcDbEllipse
10
15.09382
20
6.135595
30
0
11
-0.28775559277916
21
2.90683965172194
31
0
210
0
220
0
230
1
40
0.984662
41
0
42
0.769349053293881
0
ELLIPSE
5
19C
100
AcDbEntity
8
1
62
256
6
ByLayer
370
-1
48
1
60
0
100
AcDbEllipse
10
15.09382
20
6.135595
30
0
11
-0.28775559277916
21
2.90683965172194
31
0
210
0
220
0
230
1
40
0.984662
41
2.37215009881928
42
-2.21712767815688
0
ELLIPSE
5
19D
100
AcDbEntity
8
1
62
256
6
ByLayer
370
-1
48
1
60
0
100
AcDbEllipse
10
15.09382
20
6.135595
30
0
11
-0.28775559277916
21
2.90683965172194
31
0
210
0
220
0
230
1
40
0.984662
41
-0.879398337508345
42
-0.100197943764274
0
ELLIPSE
5
19E
100
AcDbEntity
8
1
62
256
6
ByLayer
370
-1
48
1
60
0
100
AcDbEllipse
10
9.413833
20
8.846403
30
0
11
0.00278672453945549
21
0.329988233375588
31
0
210
0
220
0
230
1
40
0.260309
41
1.43915566762721
42
2.32017699363669
0
ELLIPSE
5
19F
100
AcDbEntity
8
1
62
256
6
ByLayer
370
-1
48
1
60
0
100
AcDbEllipse
10
8.899198
20
7.754581
30
0
11
-0.162033669206488
21
0.2759439980204
31
0
210
0
220
0
230
1
40
0.158847
41
1.32310456266245
42
1.49763748786194
0
ELLIPSE
5
1A0
100
AcDbEntity
8
1
62
256
6
ByLayer
370
-1
48
1
60
0
100
AcDbEllipse
10
14.479283
20
-1.5938
30
0
11
0.0197022175593631
21
-0.199027190663094
31
0
210
0
220
0
230
1
40
0.984662
41
-1.66130948076643
42
-0.620766087096183
0
ELLIPSE
5
1A1
100
AcDbEntity
8
1
62
256
6
ByLayer
370
-1
48
1
60
0
100
AcDbEllipse
10
17.267458
20
0.172766
30
0
11
-0.188942952881436
21
-0.32598465001462
31
0
210
0
220
0
230
1
40
0.12071
41
-2.51909473222733
42
-1.48411448582006
0
ELLIPSE
5
1A2
100
AcDbEntity
8
1
62
256
6
ByLayer
370
-1
48
1
60
0
100
AcDbEllipse
10
11.015556
20
10.326027
30
0
11
-0.161138499367821
21
0.0281531780966183
31
0
210
0
220
0
230
1
40
0.776532
41
1.99680325526397
42
2.34161154561024
0
ELLIPSE
5
1A3
100
AcDbEntity
8
1
62
256
6
ByLayer
370
-1
48
1
60
0
100
AcDbEllipse
10
20.646486
20
9.549293
30
0
11
-0.165834547046448
21
0.285304929866098
31
0
210
0
220
0
230
1
40
0.008485
41
1.5854432924414
42
1.9345091428399
0
ELLIPSE
5
1A4
100
AcDbEntity
8
1
62
256
6
ByLayer
370
-1
48
1
60
0
100
AcDbEllipse
10
21.158788
20
8.215382
30
0
11
-0.132004876941248
21
-0.000392178435071095
31
0
210
0
220
0
230
1
40
0.984667
41
2.10106309726289
42
-3.1415788162725
0
ELLIPSE
5
1A5
100
AcDbEntity
8
1
62
256
6
ByLayer
370
-1
48
1
60
0
100
AcDbEllipse
10
21.827339
20
9.899611
30
0
11
-0.203084426050442
21
-0.000603351656849316
31
0
210
0
220
0
230
1
40
0.984667
41
2.10106309616938
42
-3.14157881732865
0
ELLIPSE
5
1A6
100
AcDbEntity
8
1
62
256
6
ByLayer
370
-1
48
1
60
0
100
AcDbEllipse
10
9.413833
20
8.846403
30
0
11
-0.286230603216352
21
0.164231671069875
31
0
210
0
220
0
230
1
40
0.012676
41
1.27733562266958
42
2.15835694868141
0
ELLIPSE
5
1A7
100
AcDbEntity
8
1
62
256
6
ByLayer
370
-1
48
1
60
0
100
AcDbEllipse
10
20.349852
20
10.040601
30
0
11
-0.496071482934565
21
0.827532009960775
31
0
210
0
220
0
230
1
40
0.342016
41
2.31469389917704
42
3.13697512151172
0
ELLIPSE
5
1A8
100
AcDbEntity
8
1
62
256
6
ByLayer
370
-1
48
1
60
0
100
AcDbEllipse
10
16.47344
20
-0.773168
30
0
11
-0.0833186583380905
21
0.182756206409103
31
0
210
0
220
0
230
1
40
0.958576
41
-3.03817127475417
42
-2.50791834180387
0
ELLIPSE
5
1A9
100
AcDbEntity
8
1
62
256
6
ByLayer
370
-1
48
1
60
0
100
AcDbEllipse
10
8.731178
20
10.076854
30
0
11
-0.0595777299969902
21
-0.192154317237185
31
0
210
0
220
0
230
1
40
0.960584
41
2.91260164377459
42
-2.33004026973783
0
ELLIPSE
5
1AA
100
AcDbEntity
8
1
62
256
6
ByLayer
370
-1
48
1
60
0
100
AcDbEllipse
10
19.060747
20
3.253105
30
0
11
-0.0837034822090965
21
-0.143972486393594
31
0
210
0
220
0
230
1
40
0.127956
41
1.66290984116094
42
2.37169933079024
0
ELLIPSE
5
1AB
100
AcDbEntity
8
1
62
256
6
ByLayer
370
-1
48
1
60
0
100
AcDbEllipse
10
14.316259
20
10.916453
30
0
11
-0.150100165755179
21
-0.000447445835068693
31
0
210
0
220
0
230
1
40
0.016915
41
-2.45402547078411
42
-1.74523598074611
0
ELLIPSE
5
1AC
100
AcDbEntity
8
1
62
256
6
ByLayer
370
-1
48
1
60
0
100
AcDbEllipse
10
20.430435
20
9.907924
30
0
11
-0.254558441227157
21
3.11733884545897E-17
31
0
210
0
220
0
230
1
40
0.999857
41
-0.533972158064218
42
0.539941900357852
0
ELLIPSE
5
1AD
100
AcDbEntity
8
1
62
256
6
ByLayer
370
-1
48
1
60
0
100
AcDbEllipse
10
9.64208
20
9.976626
30
0
11
-0.0387255244559297
21
-0.124900306223539
31
0
210
0
220
0
230
1
40
0.960584
41
0.811552383524498
42
1.76427206039829
0
ELLIPSE
5
1AE
100
AcDbEntity
8
1
62
256
6
ByLayer
370
-1
48
1
60
0
100
AcDbEllipse
10
16.429985
20
0.143071
30
0
11
0.0113394317527837
21
-0.319799026401776
31
0
210
0
220
0
230
1
40
0.174133
41
-2.59475224021149
42
-1.55977199377872
0
ELLIPSE
5
1AF
100
AcDbEntity
8
1
62
256
6
ByLayer
370
-1
48
1
60
0
100
AcDbEllipse
10
15.451334
20
-0.311541
30
0
11
-0.0210607048197593
21
-0.329327263846307
31
0
210
0
220
0
230
1
40
0.570429
41
-2.20133955212112
42
-1.37905832978617
0
ELLIPSE
5
1B0
100
AcDbEntity
8
1
62
256
6
ByLayer
370
-1
48
1
60
0
100
AcDbEllipse
10
20.814598
20
7.195075
30
0
11
-0.000612742691082328
21
0.283031911606198
31
0
210
0
220
0
230
1
40
0.092039
41
-1.56188658518938
42
-0.526906338712132
0
ELLIPSE
5
1B1
100
AcDbEntity
8
1
62
256
6
ByLayer
370
-1
48
1
60
0
100
AcDbEllipse
10
16.071308
20
-0.674317
30
0
11
0.168419751761703
21
-0.283786516974514
31
0
210
0
220
0
230
1
40
0.305589
41
-1.55760914820953
42
-1.20854329781065
0
ELLIPSE
5
1B2
100
AcDbEntity
8
1
62
256
6
ByLayer
370
-1
48
1
60
0
100
AcDbEllipse
10
15.44889
20
10.041118
30
0
11
0.135513172663691
21
-0.064313140450616
31
0
210
0
220
0
230
1
40
0.090991
41
1.42074880902442
42
2.12953829854617
0
ELLIPSE
5
1B3
100
AcDbEntity
8
1
62
256
6
ByLayer
370
-1
48
1
60
0
100
AcDbEllipse
10
8.02685
20
9.996795
30
0
11
0.0197022175593631
21
-0.199027190663094
31
0
210
0
220
0
230
1
40
0.984662
41
-2.71516118948928
42
-1.67461779581894
0
ELLIPSE
5
1B4
100
AcDbEntity
8
1
62
256
6
ByLayer
370
-1
48
1
60
0
100
AcDbEllipse
10
15.477123
20
-1.02695
30
0
11
0.295739719330958
21
-0.146417274971385
31
0
210
0
220
0
230
1
40
0.437013
41
-2.02995322866209
42
-1.42853383235121
0
ELLIPSE
5
1B5
100
AcDbEntity
8
1
62
256
6
ByLayer
370
-1
48
1
60
0
100
AcDbEllipse
10
12.412494
20
10.719061
30
0
11
0.0197022175593631
21
-0.199027190663094
31
0
210
0
220
0
230
1
40
0.984662
41
3.04442534209199
42
-2.71516118948927
0
ELLIPSE
5
1B6
100
AcDbEntity
8
1
62
256
6
ByLayer
370
-1
48
1
60
0
100
AcDbEllipse
10
21.273839
20
9.913944
30
0
11
-0.00200138935679112
21
0.329993930914862
31
0
210
0
220
0
230
1
40
0.178994
41
-1.88871094612043
42
-1.28729154980982
0
ELLIPSE
5
1B7
100
AcDbEntity
8
1
62
256
6
ByLayer
370
-1
48
1
60
0
100
AcDbEllipse
10
19.754046
20
10.189542
30
0
11
0.272157358452946
21
0.168316286318094
31
0
210
0
220
0
230
1
40
0.077665
41
1.72814974096658
42
2.76312998739976
0
ELLIPSE
5
1B8
100
AcDbEntity
8
1
62
256
6
ByLayer
370
-1
48
1
60
0
100
AcDbEllipse
10
20.64751
20
9.545793
30
0
11
-0.254558441227157
21
3.11733884545897E-17
31
0
210
0
220
0
230
1
40
0.999857
41
0.539941900357807
42
0.844879039200616
0
ELLIPSE
5
1B9
100
AcDbEntity
8
1
62
256
6
ByLayer
370
-1
48
1
60
0
100
AcDbEllipse
10
9.006151
20
8.849846
30
0
11
0.00278672453945549
21
0.329988233375588
31
0
210
0
220
0
230
1
40
0.260309
41
1.43915566762723
42
2.32017699363668
0
ELLIPSE
5
1BA
100
AcDbEntity
8
1
62
256
6
ByLayer
370
-1
48
1
60
0
100
AcDbEllipse
10
19.441087
20
11.270746
30
0
11
-2.45285015456685
21
1.40616694006335
31
0
210
0
220
0
230
1
40
0.300605
41
2.96969697026603
42
3.137292645344
0
ELLIPSE
5
1BB
100
AcDbEntity
8
1
62
256
6
ByLayer
370
-1
48
1
60
0
100
AcDbEllipse
10
20.645344
20
10.271344
30
0
11
-0.254558441227157
21
3.11733884545897E-17
31
0
210
0
220
0
230
1
40
0.999857
41
-0.838909548964113
42
-0.533972158064274
0
ELLIPSE
5
1BC
100
AcDbEntity
8
1
62
256
6
ByLayer
370
-1
48
1
60
0
100
AcDbEllipse
10
15.137485
20
6.139917
30
0
11
-0.296514508703059
21
2.99532017044197
31
0
210
0
220
0
230
1
40
0.984662
41
-0.100198039212818
42
-2.99676166800556E-16
0
ELLIPSE
5
1BD
100
AcDbEntity
8
1
62
256
6
ByLayer
370
-1
48
1
60
0
100
AcDbEllipse
10
15.137485
20
6.139917
30
0
11
-0.296514508703059
21
2.99532017044197
31
0
210
0
220
0
230
1
40
0.984662
41
0
42
0.378515153572109
0
ELLIPSE
5
1BE
100
AcDbEntity
8
1
62
256
6
ByLayer
370
-1
48
1
60
0
100
AcDbEllipse
10
15.137485
20
6.139917
30
0
11
-0.296514508703059
21
2.99532017044197
31
0
210
0
220
0
230
1
40
0.984662
41
2.76298405466848
42
-0.100197701860531
0
ELLIPSE
5
1BF
100
AcDbEntity
8
1
62
256
6
ByLayer
370
-1
48
1
60
0
100
AcDbEllipse
10
20.64432
20
10.274844
30
0
11
-0.284574752690512
21
0.167084440122754
31
0
210
0
220
0
230
1
40
0.328265
41
-1.57537090247437
42
-0.753089680139395
0
ELLIPSE
5
1C0
100
AcDbEntity
8
1
62
256
6
ByLayer
370
-1
48
1
60
0
100
AcDbEllipse
10
15.954652
20
-0.343729
30
0
11
-0.9317316300408
21
0.000752989039769652
31
0
210
0
220
0
230
1
40
0.349223
41
-0.809410479403393
42
0.0128707429223442
0
ELLIPSE
5
1C1
100
AcDbEntity
8
1
62
256
6
ByLayer
370
-1
48
1
60
0
100
AcDbEllipse
10
21.264548
20
9.18935
30
0
11
-0.132004876935153
21
-0.000392178536542357
31
0
210
0
220
0
230
1
40
0.984667
41
-1.04052955710909
42
1.38365622097446E-05
0
ELLIPSE
5
1C2
100
AcDbEntity
8
1
62
256
6
ByLayer
370
-1
48
1
60
0
100
AcDbEllipse
10
15.451334
20
-0.311541
30
0
11
0.329785795493604
21
0.0118881912270347
31
0
210
0
220
0
230
1
40
0.163668
41
-2.18485395513128
42
-1.83578810473247
0
ELLIPSE
5
1C3
100
AcDbEntity
8
1
62
256
6
ByLayer
370
-1
48
1
60
0
100
AcDbEllipse
10
9.62396
20
9.212621
30
0
11
-0.26754992094235
21
0.193176188500918
31
0
210
0
220
0
230
1
40
0.315435
41
-2.08791300409336
42
-1.26563178175831
0
ELLIPSE
5
1C4
100
AcDbEntity
8
1
62
256
6
ByLayer
370
-1
48
1
60
0
100
AcDbEllipse
10
13.767959
20
0.373994
30
0
11
-0.10426550655098
21
-0.108729639449537
31
0
210
0
220
0
230
1
40
0.746902
41
2.89374374063886
42
-3.04463327561773
0
ELLIPSE
5
1C5
100
AcDbEntity
8
1
62
256
6
ByLayer
370
-1
48
1
60
0
100
AcDbEllipse
10
16.017539
20
-0.709447
30
0
11
-0.139234821942734
21
0.213104820120464
31
0
210
0
220
0
230
1
40
0.952081
41
-1.93015659300825
42
-1.62521932802721
0
ELLIPSE
5
1C6
100
AcDbEntity
8
1
62
256
6
ByLayer
370
-1
48
1
60
0
100
AcDbEllipse
10
15.858999
20
-0.309387
30
0
11
0.001743255840723
21
-0.329995395511928
31
0
210
0
220
0
230
1
40
0.260533
41
-2.28511374827561
42
-1.40409242226615
0
ELLIPSE
5
1C7
100
AcDbEntity
8
1
62
256
6
ByLayer
370
-1
48
1
60
0
100
AcDbEllipse
10
18.293938
20
4.679695
30
0
11
0.10884915159153
21
-0.103207859186227
31
0
210
0
220
0
230
1
40
0.132802
41
1.28184863041151
42
1.45638155561103
0
ELLIPSE
5
1C8
100
AcDbEntity
8
1
62
256
6
ByLayer
370
-1
48
1
60
0
100
AcDbEllipse
10
20.646486
20
9.549293
30
0
11
-0.283043037695041
21
-0.169666257141377
31
0
210
0
220
0
230
1
40
0.014531
41
0.681094103133631
42
1.56211542914272
0
ELLIPSE
5
1C9
100
AcDbEntity
8
1
62
256
6
ByLayer
370
-1
48
1
60
0
100
AcDbEllipse
10
9.513627
20
8.115373
30
0
11
0.274009264363062
21
-0.165284370232679
31
0
210
0
220
0
230
1
40
0.019277
41
-1.86390773977019
42
-0.678763114624304
0
ELLIPSE
5
1CA
100
AcDbEntity
8
1
62
256
6
ByLayer
370
-1
48
1
60
0
100
AcDbEllipse
10
9.808779
20
10.275949
30
0
11
-0.0128064414135906
21
0.129367673931011
31
0
210
0
220
0
230
1
40
0.984662
41
-8.82963170530488E-06
42
0.426431464100594
0
ELLIPSE
5
1CB
100
AcDbEntity
8
1
62
256
6
ByLayer
370
-1
48
1
60
0
100
AcDbEllipse
10
20.429411
20
9.911424
30
0
11
0.284050851998538
21
-0.16797354993839
31
0
210
0
220
0
230
1
40
0.014557
41
-2.44318016919506
42
-1.56215884318407
0
ELLIPSE
5
1CC
100
AcDbEntity
8
1
62
256
6
ByLayer
370
-1
48
1
60
0
100
AcDbEllipse
10
15.400854
20
-1.374613
30
0
11
-0.28948032169214
21
-1.13400223648939
31
0
210
0
220
0
230
1
40
0.21433
41
-1.51805604862587
42
-1.35046037550987
0
ELLIPSE
5
1CD
100
AcDbEntity
8
1
62
256
6
ByLayer
370
-1
48
1
60
0
100
AcDbEllipse
10
17.046568
20
-0.217721
30
0
11
-0.161612197743506
21
-0.276191052607636
31
0
210
0
220
0
230
1
40
0.141921
41
-1.46809554306502
42
-1.29356261786558
0
ELLIPSE
5
1CE
100
AcDbEntity
8
1
62
256
6
ByLayer
370
-1
48
1
60
0
100
AcDbEllipse
10
9.282858
20
8.740194
30
0
11
-0.479796040724711
21
-0.837102468404977
31
0
210
0
220
0
230
1
40
0.327398
41
2.31333810640663
42
3.13561932875465
0
ELLIPSE
5
1CF
100
AcDbEntity
8
1
62
256
6
ByLayer
370
-1
48
1
60
0
100
AcDbEllipse
10
19.754046
20
10.189542
30
0
11
-0.27815116708091
21
-0.158214816788845
31
0
210
0
220
0
230
1
40
0.014726
41
0.377304873150831
42
1.5624494982921
0
ELLIPSE
5
1D0
100
AcDbEntity
8
1
62
256
6
ByLayer
370
-1
48
1
60
0
100
AcDbEllipse
10
17.743304
20
0.924143
30
0
11
-0.0885670091611725
21
-0.152805304689779
31
0
210
0
220
0
230
1
40
0.12071
41
0.622497921370975
42
1.65747816780018
0
ELLIPSE
5
1D1
100
AcDbEntity
8
1
62
256
6
ByLayer
370
-1
48
1
60
0
100
AcDbEllipse
10
20.460814
20
10.707852
30
0
11
-0.203084426049461
21
-0.00060335149485929
31
0
210
0
220
0
230
1
40
0.984667
41
-2.10103542287161
42
-1.57078248973449
0
ELLIPSE
5
1D2
100
AcDbEntity
8
1
62
256
6
ByLayer
370
-1
48
1
60
0
100
AcDbEllipse
10
15.162442
20
-1.526173
30
0
11
-0.0833186578109839
21
0.182756206515542
31
0
210
0
220
0
230
1
40
0.958576
41
1.16392724761347
42
2.20447064127566
0
ELLIPSE
5
1D3
100
AcDbEntity
8
1
62
256
6
ByLayer
370
-1
48
1
60
0
100
AcDbEllipse
10
14.604655
20
-0.449168
30
0
11
-0.0541571275818403
21
0.118791534230462
31
0
210
0
220
0
230
1
40
0.958576
41
2.20447064122983
42
-3.1259949890223
0
ELLIPSE
5
1D4
100
AcDbEntity
8
1
62
256
6
ByLayer
370
-1
48
1
60
0
100
AcDbEllipse
10
14.029618
20
-0.112687
30
0
11
-0.0541571275772021
21
0.118791534233885
31
0
210
0
220
0
230
1
40
0.958576
41
1.16392724760531
42
2.20447064127703
0
ELLIPSE
5
1D5
100
AcDbEntity
8
1
62
256
6
ByLayer
370
-1
48
1
60
0
100
AcDbEllipse
10
9.027659
20
9.569006
30
0
11
-0.329852530264881
21
0.00986449582370872
31
0
210
0
220
0
230
1
40
0.130201
41
-1.30693253085104
42
-0.9578666804522
0
ELLIPSE
5
1D6
100
AcDbEntity
8
1
62
256
6
ByLayer
370
-1
48
1
60
0
100
AcDbEllipse
10
13.941804
20
-0.514785
30
0
11
0.012806441413586
21
-0.129367673931011
31
0
210
0
220
0
230
1
40
0.984662
41
-0.620766087096327
42
-7.22549792409863E-06
0
ELLIPSE
5
1D7
100
AcDbEntity
8
1
62
256
6
ByLayer
370
-1
48
1
60
0
100
AcDbEllipse
10
9.602719
20
6.623374
30
0
11
-0.088989706484523
21
0.152707630873794
31
0
210
0
220
0
230
1
40
0.134911
41
-1.63242212138382
42
-0.597441874999619
0
ELLIPSE
5
1D8
100
AcDbEntity
8
1
62
256
6
ByLayer
370
-1
48
1
60
0
100
AcDbEllipse
10
15.183686
20
-1.538603
30
0
11
-0.083318657815863
21
0.182756206510095
31
0
210
0
220
0
230
1
40
0.958576
41
2.20447064124489
42
-3.03817127226019
0
ELLIPSE
5
1D9
100
AcDbEntity
8
1
62
256
6
ByLayer
370
-1
48
1
60
0
100
AcDbEllipse
10
10.934066
20
4.294412
30
0
11
-0.0840441179697344
21
0.143868673288732
31
0
210
0
220
0
230
1
40
0.143076
41
-2.34511467078362
42
-1.6363251815301
0
ELLIPSE
5
1DA
100
AcDbEntity
8
1
62
256
6
ByLayer
370
-1
48
1
60
0
100
AcDbEllipse
10
21.633307
20
9.916124
30
0
11
0.00200138935679094
21
-0.329993930914862
31
0
210
0
220
0
230
1
40
0.178994
41
1.2528817074692
42
1.85430110377997
0
ELLIPSE
5
1DB
100
AcDbEntity
8
1
62
256
6
ByLayer
370
-1
48
1
60
0
100
AcDbEllipse
10
20.64432
20
10.274844
30
0
11
0.284050851998538
21
-0.16797354993839
31
0
210
0
220
0
230
1
40
0.014557
41
-2.44318016919508
42
-1.562158843184
0
ELLIPSE
5
1DC
100
AcDbEntity
8
1
62
256
6
ByLayer
370
-1
48
1
60
0
100
AcDbEllipse
10
10.471629
20
10.341566
30
0
11
-0.0387255244965469
21
-0.124900306204406
31
0
210
0
220
0
230
1
40
0.960584
41
2.91260164376373
42
-2.33004026974814
0
ELLIPSE
5
1DD
100
AcDbEntity
8
1
62
256
6
ByLayer
370
-1
48
1
60
0
100
AcDbEllipse
10
21.811142
20
9.92657
30
0
11
-1.20883011044937
21
0.274665727750502
31
0
210
0
220
0
230
1
40
0.04318
41
-1.6277511683416
42
-1.46015549726975
0
ELLIPSE
5
1DE
100
AcDbEntity
8
1
62
256
6
ByLayer
370
-1
48
1
60
0
100
AcDbEllipse
10
8.663324
20
8.503394
30
0
11
-0.0595777304336563
21
-0.192154317151373
31
0
210
0
220
0
230
1
40
0.960584
41
-1.2894968738136
42
-0.759243940790806
0
ELLIPSE
5
1DF
100
AcDbEntity
8
1
62
256
6
ByLayer
370
-1
48
1
60
0
100
AcDbEllipse
10
13.366767
20
-0.178304
30
0
11
-0.0128064414135906
21
0.129367673931011
31
0
210
0
220
0
230
1
40
0.984662
41
1.48028317282331
42
2.52082656649366
0
ELLIPSE
5
1E0
100
AcDbEntity
8
1
62
256
6
ByLayer
370
-1
48
1
60
0
100
AcDbEllipse
10
20.646019
20
6.414123
30
0
11
0.0197022175593631
21
-0.199027190663094
31
0
210
0
220
0
230
1
40
0.984662
41
0.950030239698765
42
1.47362901529707
0
ELLIPSE
5
1E1
100
AcDbEntity
8
1
62
256
6
ByLayer
370
-1
48
1
60
0
100
AcDbEllipse
10
15.451334
20
-0.311541
30
0
11
-0.00174325584072297
21
0.329995395511928
31
0
210
0
220
0
230
1
40
0.260533
41
0.856478905314179
42
1.73750023132365
0
ELLIPSE
5
1E2
100
AcDbEntity
8
1
62
256
6
ByLayer
370
-1
48
1
60
0
100
AcDbEllipse
10
11.712156
20
2.933276
30
0
11
-0.0760035165698793
21
0.129439174428972
31
0
210
0
220
0
230
1
40
0.158738
41
-1.6439020624171
42
-0.935112572806968
0
ELLIPSE
5
1E3
100
AcDbEntity
8
1
62
256
6
ByLayer
370
-1
48
1
60
0
100
AcDbEllipse
10
21.273839
20
9.913944
30
0
11
-0.165834547046448
21
0.285304929866098
31
0
210
0
220
0
230
1
40
0.008485
41
1.58544329244142
42
1.93450914284164
0
ELLIPSE
5
1E4
100
AcDbEntity
8
1
62
256
6
ByLayer
370
-1
48
1
60
0
100
AcDbEllipse
10
21.023141
20
7.958397
30
0
11
-0.276760933667674
21
-0.160658795918299
31
0
210
0
220
0
230
1
40
0.073503
41
-1.56309533855751
42
-0.766553402307588
0
ELLIPSE
5
1E5
100
AcDbEntity
8
1
62
256
6
ByLayer
370
-1
48
1
60
0
100
AcDbEllipse
10
8.710008
20
10.064423
30
0
11
-0.0595777300208911
21
-0.192154317225776
31
0
210
0
220
0
230
1
40
0.960584
41
-2.33004026961194
42
-1.28949687592769
0
ELLIPSE
5
1E6
100
AcDbEntity
8
1
62
256
6
ByLayer
370
-1
48
1
60
0
100
AcDbEllipse
10
8.949238
20
9.941919
30
0
11
-0.289742090294795
21
1.14609607807105
31
0
210
0
220
0
230
1
40
0.218444
41
1.37698550973888
42
1.54458118774188
0
ELLIPSE
5
1E7
100
AcDbEntity
8
1
62
256
6
ByLayer
370
-1
48
1
60
0
100
AcDbEllipse
10
14.500527
20
-1.606231
30
0
11
0.0197022175593631
21
-0.199027190663094
31
0
210
0
220
0
230
1
40
0.984662
41
-0.620766087096061
42
9.77236635866102E-07
0
ELLIPSE
5
1E8
100
AcDbEntity
8
1
62
256
6
ByLayer
370
-1
48
1
60
0
100
AcDbEllipse
10
20.429411
20
9.911424
30
0
11
0.283043037695041
21
0.169666257141377
31
0
210
0
220
0
230
1
40
0.014531
41
-2.46049855045755
42
-1.57947722444704
0
ELLIPSE
5
1E9
100
AcDbEntity
8
1
62
256
6
ByLayer
370
-1
48
1
60
0
100
AcDbEllipse
10
8.048019
20
10.009226
30
0
11
0.0197022175593631
21
-0.199027190663094
31
0
210
0
220
0
230
1
40
0.984662
41
3.14157835546851
42
-2.71516118948928
0
ELLIPSE
5
1EA
100
AcDbEntity
8
1
62
256
6
ByLayer
370
-1
48
1
60
0
100
AcDbEllipse
10
13.106068
20
0.308472
30
0
11
-0.0128064414135906
21
0.129367673931011
31
0
210
0
220
0
230
1
40
0.984662
41
-1.66130948076648
42
-0.620766087096096
0
ELLIPSE
5
1EB
100
AcDbEntity
8
1
62
256
6
ByLayer
370
-1
48
1
60
0
100
AcDbEllipse
10
15.397565
20
-0.346671
30
0
11
-0.139234821942734
21
0.213104820120464
31
0
210
0
220
0
230
1
40
0.952081
41
-0.551305267922118
42
-0.246368002941065
0
ELLIPSE
5
1EC
100
AcDbEntity
8
1
62
256
6
ByLayer
370
-1
48
1
60
0
100
AcDbEllipse
10
15.032847
20
9.532681
30
0
11
0.0367833786735519
21
0.14542002287635
31
0
210
0
220
0
230
1
40
0.164395
41
-1.51152291065073
42
-1.33698998545131
0
ELLIPSE
5
1ED
100
AcDbEntity
8
1
62
256
6
ByLayer
370
-1
48
1
60
0
100
AcDbEllipse
10
15.33131
20
-1.32147
30
0
11
-0.295739719330958
21
0.146417274971386
31
0
210
0
220
0
230
1
40
0.437013
41
1.11163942492767
42
1.71305882123855
0
ELLIPSE
5
1EE
100
AcDbEntity
8
1
62
256
6
ByLayer
370
-1
48
1
60
0
100
AcDbEllipse
10
16.429985
20
0.143071
30
0
11
0.161612197743497
21
0.276191052607641
31
0
210
0
220
0
230
1
40
0.141921
41
1.6734971105247
42
1.84803003572415
0
ELLIPSE
5
1EF
100
AcDbEntity
8
1
62
256
6
ByLayer
370
-1
48
1
60
0
100
AcDbEllipse
10
8.880074
20
9.867886
30
0
11
0.295892073361188
21
0.146109140446509
31
0
210
0
220
0
230
1
40
0.409519
41
1.44509520917723
42
2.0465146054881
0
ELLIPSE
5
1F0
100
AcDbEntity
8
1
62
256
6
ByLayer
370
-1
48
1
60
0
100
AcDbEllipse
10
20.350646
20
9.774665
30
0
11
-0.491122290579202
21
-0.830478379865555
31
0
210
0
220
0
230
1
40
0.342017
41
-3.13697527937177
42
-2.31469405703012
0
ELLIPSE
5
1F1
100
AcDbEntity
8
1
62
256
6
ByLayer
370
-1
48
1
60
0
100
AcDbEllipse
10
15.477123
20
-1.02695
30
0
11
0.168419751761703
21
-0.283786516974514
31
0
210
0
220
0
230
1
40
0.305589
41
-1.55760914820951
42
-1.20854329781062
0
ELLIPSE
5
1F2
100
AcDbEntity
8
1
62
256
6
ByLayer
370
-1
48
1
60
0
100
AcDbEllipse
10
14.4321
20
9.684638
30
0
11
0.0367833786735519
21
0.14542002287635
31
0
210
0
220
0
230
1
40
0.164395
41
-1.51152291065074
42
-1.33698998545141
0
ELLIPSE
5
1F3
100
AcDbEntity
8
1
62
256
6
ByLayer
370
-1
48
1
60
0
100
AcDbEllipse
10
8.949238
20
9.941919
30
0
11
-0.753374529449082
21
0.876499850310502
31
0
210
0
220
0
230
1
40
0.023719
41
1.3091745732331
42
1.47677023492894
0
ELLIPSE
5
1F4
100
AcDbEntity
8
1
62
256
6
ByLayer
370
-1
48
1
60
0
100
AcDbEllipse
10
19.754046
20
10.189542
30
0
11
-0.31999857438126
21
-0.000955193153904039
31
0
210
0
220
0
230
1
40
0.016926
41
1.39623813751267
42
1.57077106271216
0
ELLIPSE
5
1F5
100
AcDbEntity
8
1
62
256
6
ByLayer
370
-1
48
1
60
0
100
AcDbEllipse
10
9.62396
20
9.212621
30
0
11
0.286230603216352
21
-0.164231671069875
31
0
210
0
220
0
230
1
40
0.012676
41
-1.86425703091936
42
-0.983235704910454
0
ELLIPSE
5
1F6
100
AcDbEntity
8
1
62
256
6
ByLayer
370
-1
48
1
60
0
100
AcDbEllipse
10
9.027659
20
9.569006
30
0
11
-0.295892073361188
21
-0.146109140446509
31
0
210
0
220
0
230
1
40
0.409519
41
-1.69649744441261
42
-1.09507804810175
0
ELLIPSE
5
1F7
100
AcDbEntity
8
1
62
256
6
ByLayer
370
-1
48
1
60
0
100
AcDbEllipse
10
9.898601
20
10.005085
30
0
11
-0.0387255244653649
21
-0.124900306219162
31
0
210
0
220
0
230
1
40
0.960584
41
-2.33004026999073
42
-1.37732059310703
0
ELLIPSE
5
1F8
100
AcDbEntity
8
1
62
256
6
ByLayer
370
-1
48
1
60
0
100
AcDbEllipse
10
13.424253
20
0.770998
30
0
11
-0.243113751240996
21
0.140910408031795
31
0
210
0
220
0
230
1
40
0.05457
41
-2.68143408121399
42
-1.64645383481676
0
ELLIPSE
5
1F9
100
AcDbEntity
8
1
62
256
6
ByLayer
370
-1
48
1
60
0
100
AcDbEllipse
10
21.811142
20
9.92657
30
0
11
-1.20705421814957
21
-0.290156897803547
31
0
210
0
220
0
230
1
40
0.066352
41
1.45436257790966
42
1.62195825254776
0
ELLIPSE
5
1FA
100
AcDbEntity
8
1
62
256
6
ByLayer
370
-1
48
1
60
0
100
AcDbEllipse
10
9.006151
20
8.849846
30
0
11
0.0152761950655617
21
-0.329646231381945
31
0
210
0
220
0
230
1
40
0.571959
41
-1.72135148365323
42
-0.899070261318193
0
ELLIPSE
5
1FB
100
AcDbEntity
8
1
62
256
6
ByLayer
370
-1
48
1
60
0
100
AcDbEllipse
10
15.083268
20
1.174769
30
0
11
-0.112213697550126
21
2.78730395619809
31
0
210
0
220
0
230
1
40
0.294044
41
3.13155367478214
42
-2.98403595748252
0
ELLIPSE
5
1FC
100
AcDbEntity
8
1
62
256
6
ByLayer
370
-1
48
1
60
0
100
AcDbEllipse
10
14.812442
20
-0.691849
30
0
11
-0.0541571275693677
21
0.118791534240256
31
0
210
0
220
0
230
1
40
0.958576
41
-1.97766540589798
42
-0.937122012247944
0
ELLIPSE
5
1FD
100
AcDbEntity
8
1
62
256
6
ByLayer
370
-1
48
1
60
0
100
AcDbEllipse
10
13.949374
20
0.187768
30
0
11
-0.00204490915127067
21
0.320085891154629
31
0
210
0
220
0
230
1
40
0.174338
41
0.942729820107497
42
1.73927175644208
0
ELLIPSE
5
1FE
100
AcDbEntity
8
1
62
256
6
ByLayer
370
-1
48
1
60
0
100
AcDbEllipse
10
16.071308
20
-0.674317
30
0
11
-0.285239483601146
21
-0.165947090950554
31
0
210
0
220
0
230
1
40
0.016637
41
1.26039991204599
42
2.14142123805529
0
ELLIPSE
5
1FF
100
AcDbEntity
8
1
62
256
6
ByLayer
370
-1
48
1
60
0
100
AcDbEllipse
10
12.123486
20
1.263755
30
0
11
0.0197022175593631
21
-0.199027190663094
31
0
210
0
220
0
230
1
40
0.984662
41
-1.14436486269442
42
-0.620766087096092
0
ELLIPSE
5
200
100
AcDbEntity
8
1
62
256
6
ByLayer
370
-1
48
1
60
0
100
AcDbEllipse
10
15.858999
20
-0.309387
30
0
11
-0.285239483601146
21
-0.165947090950554
31
0
210
0
220
0
230
1
40
0.016637
41
1.26039991204596
42
2.14142123805597
0
ELLIPSE
5
201
100
AcDbEntity
8
1
62
256
6
ByLayer
370
-1
48
1
60
0
100
AcDbEllipse
10
15.312419
20
6.157235
30
0
11
-0.30345511464788
21
3.06543254731197
31
0
210
0
220
0
230
1
40
0.984662
41
0
42
6.28318530717959
0
ELLIPSE
5
202
100
AcDbEntity
8
1
62
256
6
ByLayer
370
-1
48
1
60
0
100
AcDbEllipse
10
19.449241
20
8.539117
30
0
11
-2.44441180408609
21
-1.4207830366304
31
0
210
0
220
0
230
1
40
0.300605
41
-3.13729250404345
42
-2.96969682939326
0
ELLIPSE
5
203
100
AcDbEntity
8
1
62
256
6
ByLayer
370
-1
48
1
60
0
100
AcDbEllipse
10
12.532342
20
4.251594
30
0
11
-0.144239959684991
21
-0.0411683620037539
31
0
210
0
220
0
230
1
40
0.031593
41
1.56879056625048
42
1.74332349145006
0
ELLIPSE
5
204
100
AcDbEntity
8
1
62
256
6
ByLayer
370
-1
48
1
60
0
100
AcDbEllipse
10
15.400854
20
-1.374613
30
0
11
-0.748440973020652
21
-0.867906657568448
31
0
210
0
220
0
230
1
40
0.005689
41
-1.4555718542914
42
-1.28797626745216
0
ELLIPSE
5
205
100
AcDbEntity
8
1
62
256
6
ByLayer
370
-1
48
1
60
0
100
AcDbEllipse
10
10.972989
20
8.715077
30
0
11
-2.32265021214618
21
1.38987250068293
31
0
210
0
220
0
230
1
40
0.313983
41
0.00599870855753357
42
0.173594383581718
0
ELLIPSE
5
206
100
AcDbEntity
8
1
62
256
6
ByLayer
370
-1
48
1
60
0
100
AcDbEllipse
10
21.273839
20
9.913944
30
0
11
0.164128524857489
21
0.286289761130406
31
0
210
0
220
0
230
1
40
0.008441
41
-1.58546855109524
42
-1.23640270069464
0
ELLIPSE
5
207
100
AcDbEntity
8
1
62
256
6
ByLayer
370
-1
48
1
60
0
100
AcDbEllipse
10
11.620276
20
10.497897
30
0
11
-0.242332973120697
21
-0.141218484147197
31
0
210
0
220
0
230
1
40
0.03895
41
0.620771685089817
42
1.65575193154922
0
ELLIPSE
5
208
100
AcDbEntity
8
1
62
256
6
ByLayer
370
-1
48
1
60
0
100
AcDbEllipse
10
9.62396
20
9.212621
30
0
11
-0.169295514592373
21
-0.283264944422891
31
0
210
0
220
0
230
1
40
0.289048
41
-1.90258548364581
42
-1.55351963324692
0
ELLIPSE
5
209
100
AcDbEntity
8
1
62
256
6
ByLayer
370
-1
48
1
60
0
100
AcDbEllipse
10
17.41741
20
-0.191045
30
0
11
-2.3157744124354
21
-1.37295386882553
31
0
210
0
220
0
230
1
40
0.315702
41
-0.170441596682095
42
-0.00284592202683578
0
ELLIPSE
5
20A
100
AcDbEntity
8
1
62
256
6
ByLayer
370
-1
48
1
60
0
100
AcDbEllipse
10
15.727413
20
-0.21076
30
0
11
-0.485696724106095
21
0.833628738608054
31
0
210
0
220
0
230
1
40
0.325694
41
-3.13896830808555
42
-2.31668708575843
0
ELLIPSE
5
20B
100
AcDbEntity
8
1
62
256
6
ByLayer
370
-1
48
1
60
0
100
AcDbEllipse
10
9.122419
20
7.364095
30
0
11
-0.189844707163492
21
0.325776279190045
31
0
210
0
220
0
230
1
40
0.134911
41
1.509170532193
42
2.5441507786014
0
ELLIPSE
5
20C
100
AcDbEntity
8
1
62
256
6
ByLayer
370
-1
48
1
60
0
100
AcDbEllipse
10
18.722354
20
5.131528
30
0
11
0.10884915159153
21
-0.103207859186227
31
0
210
0
220
0
230
1
40
0.132802
41
1.28184863041177
42
1.4563815556111
0
ELLIPSE
5
20D
100
AcDbEntity
8
1
62
256
6
ByLayer
370
-1
48
1
60
0
100
AcDbEllipse
10
20.646486
20
9.549293
30
0
11
0.282502684669732
21
0.170564454545471
31
0
210
0
220
0
230
1
40
0.355599
41
-2.40693323079842
42
-1.58465200846347
0
ELLIPSE
5
20E
100
AcDbEntity
8
1
62
256
6
ByLayer
370
-1
48
1
60
0
100
AcDbEllipse
10
9.592875
20
9.947733
30
0
11
-0.0387255244970513
21
-0.124900306205365
31
0
210
0
220
0
230
1
40
0.960584
41
-0.228991009824239
42
0.811552383839637
0
ELLIPSE
5
20F
100
AcDbEntity
8
1
62
256
6
ByLayer
370
-1
48
1
60
0
100
AcDbEllipse
10
9.513627
20
8.115373
30
0
11
0.162033669206491
21
-0.275943998020398
31
0
210
0
220
0
230
1
40
0.158847
41
-1.81848809092727
42
-1.64395516572785
0
ELLIPSE
5
210
100
AcDbEntity
8
1
62
256
6
ByLayer
370
-1
48
1
60
0
100
AcDbEllipse
10
12.878744
20
1.33852
30
0
11
0.0197022175593631
21
-0.199027190663094
31
0
210
0
220
0
230
1
40
0.984662
41
-1.14436486269433
42
-0.620766087096043
0
ELLIPSE
5
211
100
AcDbEntity
8
1
62
256
6
ByLayer
370
-1
48
1
60
0
100
AcDbEllipse
10
12.704673
20
3.647804
30
0
11
-0.144239959684991
21
-0.0411683620037539
31
0
210
0
220
0
230
1
40
0.031593
41
1.56879056625058
42
1.74332349144993
0
ELLIPSE
5
212
100
AcDbEntity
8
1
62
256
6
ByLayer
370
-1
48
1
60
0
100
AcDbEllipse
10
9.570003
20
9.240643
30
0
11
0.117321608038481
21
0.225910690953892
31
0
210
0
220
0
230
1
40
0.957172
41
-1.61459250743369
42
-1.30965524245266
0
ELLIPSE
5
213
100
AcDbEntity
8
1
62
256
6
ByLayer
370
-1
48
1
60
0
100
AcDbEllipse
10
9.513627
20
8.115373
30
0
11
-0.28382522665698
21
0.14779458959351
31
0
210
0
220
0
230
1
40
0.096468
41
1.42421492745177
42
2.45919517388441
0
ELLIPSE
5
214
100
AcDbEntity
8
1
62
256
6
ByLayer
370
-1
48
1
60
0
100
AcDbEllipse
10
8.647002
20
7.349262
30
0
11
-0.0930395426370744
21
-2.80197791956966
31
0
210
0
220
0
230
1
40
0.29268
41
2.98099856134523
42
-3.13459107102861
0
ELLIPSE
5
215
100
AcDbEntity
8
1
62
256
6
ByLayer
370
-1
48
1
60
0
100
AcDbEllipse
10
12.220083
20
3.206379
30
0
11
-0.0710352023429612
21
0.132113587598303
31
0
210
0
220
0
230
1
40
0.161422
41
-1.63793094324483
42
-0.929141453721806
0
ELLIPSE
5
216
100
AcDbEntity
8
1
62
256
6
ByLayer
370
-1
48
1
60
0
100
AcDbEllipse
10
8.952194
20
8.877867
30
0
11
0.117321608038481
21
0.225910690953892
31
0
210
0
220
0
230
1
40
0.957172
41
-2.9934438325199
42
-2.68850656753889
0
ELLIPSE
5
217
100
AcDbEntity
8
1
62
256
6
ByLayer
370
-1
48
1
60
0
100
AcDbEllipse
10
18.520706
20
4.058335
30
0
11
-0.124577066842043
21
-0.0835497122498519
31
0
210
0
220
0
230
1
40
0.083425
41
1.72517806407856
42
2.4339675536018
0
ELLIPSE
5
218
100
AcDbEntity
8
1
62
256
6
ByLayer
370
-1
48
1
60
0
100
AcDbEllipse
10
9.359876
20
8.874424
30
0
11
0.117321608038481
21
0.225910690953892
31
0
210
0
220
0
230
1
40
0.957172
41
-2.68850656753885
42
-1.61459250743363
0
ELLIPSE
5
219
100
AcDbEntity
8
1
62
256
6
ByLayer
370
-1
48
1
60
0
100
AcDbEllipse
10
10.839327
20
10.313124
30
0
11
-0.279775169890582
21
0.155721789670002
31
0
210
0
220
0
230
1
40
0.100809
41
1.27416717387161
42
2.07070911026708
0
ELLIPSE
5
21A
100
AcDbEntity
8
1
62
256
6
ByLayer
370
-1
48
1
60
0
100
AcDbEllipse
10
15.477123
20
-1.02695
30
0
11
0.329785795493604
21
0.0118881912270347
31
0
210
0
220
0
230
1
40
0.163668
41
-2.18485395513128
42
-1.83578810473243
0
ELLIPSE
5
21B
100
AcDbEntity
8
1
62
256
6
ByLayer
370
-1
48
1
60
0
100
AcDbEllipse
10
14.146315
20
-0.757791
30
0
11
-0.0128064414135905
21
0.129367673931011
31
0
210
0
220
0
230
1
40
0.984662
41
-1.66130948076648
42
-0.620766087096229
0
ELLIPSE
5
21C
100
AcDbEntity
8
1
62
256
6
ByLayer
370
-1
48
1
60
0
100
AcDbEllipse
10
9.006151
20
8.849846
30
0
11
-0.329852530264881
21
0.00986449582370872
31
0
210
0
220
0
230
1
40
0.130201
41
-1.30693253085108
42
-0.957866680452195
0
ELLIPSE
5
21D
100
AcDbEntity
8
1
62
256
6
ByLayer
370
-1
48
1
60
0
100
AcDbEllipse
10
9.509304
20
8.873162
30
0
11
-0.931737718900228
21
0.00335270464736835
31
0
210
0
220
0
230
1
40
0.351081
41
-0.0092347847180041
42
0.8130464376212
0
ELLIPSE
5
21E
100
AcDbEntity
8
1
62
256
6
ByLayer
370
-1
48
1
60
0
100
AcDbEllipse
10
8.284861
20
11.036405
30
0
11
1.40969993390543
21
-0.000431679862431753
31
0
210
0
220
0
230
1
40
0.051912
41
0.69806863541568
42
1.74526618661258
0
ELLIPSE
5
21F
100
AcDbEntity
8
1
62
256
6
ByLayer
370
-1
48
1
60
0
100
AcDbEllipse
10
8.284861
20
11.036405
30
0
11
1.40969993390543
21
-0.000431679862431753
31
0
210
0
220
0
230
1
40
0.051912
41
1.74526618661258
42
2.7924637378089
0
ELLIPSE
5
220
100
AcDbEntity
8
1
62
256
6
ByLayer
370
-1
48
1
60
0
100
AcDbEllipse
10
8.284861
20
11.036405
30
0
11
1.40969993390543
21
-0.000431679862431753
31
0
210
0
220
0
230
1
40
0.051912
41
-1.39632646697723
42
-0.349128915780916
0
ELLIPSE
5
221
100
AcDbEntity
8
1
62
256
6
ByLayer
370
-1
48
1
60
0
100
AcDbEllipse
10
8.284861
20
11.036405
30
0
11
1.40969993390543
21
-0.000431679862431753
31
0
210
0
220
0
230
1
40
0.051912
41
2.7924637378089
42
-2.44352401817411
0
ELLIPSE
5
222
100
AcDbEntity
8
1
62
256
6
ByLayer
370
-1
48
1
60
0
100
AcDbEllipse
10
8.284861
20
11.036405
30
0
11
1.40969993390543
21
-0.000431679862431753
31
0
210
0
220
0
230
1
40
0.051912
41
-2.44352401817411
42
-1.39632646697723
0
ELLIPSE
5
223
100
AcDbEntity
8
1
62
256
6
ByLayer
370
-1
48
1
60
0
100
AcDbEllipse
10
8.284861
20
11.036405
30
0
11
1.40969993390543
21
-0.000431679862431753
31
0
210
0
220
0
230
1
40
0.051912
41
-0.349128915780916
42
0.69806863541568
0
ELLIPSE
5
224
100
AcDbEntity
8
1
62
256
6
ByLayer
370
-1
48
1
60
0
100
AcDbEllipse
10
8.284524
20
9.937889
30
0
11
-3.0999998546544
21
0.000949285361075852
31
0
210
0
220
0
230
1
40
0.051912
41
1.32962709031729
42
1.42338510886504
0
ELLIPSE
5
225
100
AcDbEntity
8
1
62
256
6
ByLayer
370
-1
48
1
60
0
100
AcDbEllipse
10
8.284861
20
11.036405
30
0
11
-1.69999992029437
21
0.000520575843170635
31
0
210
0
220
0
230
1
40
0.051912
41
0
42
6.28318530717959
0
ELLIPSE
5
226
100
AcDbEntity
8
1
62
256
6
ByLayer
370
-1
48
1
60
0
100
AcDbEllipse
10
15.128765
20
6.143579
30
0
11
-0.290489915783452
21
2.70947238569222
31
0
210
0
220
0
230
1
40
0.984637
41
0
42
-3.1415120383041
0
ELLIPSE
5
227
100
AcDbEntity
8
1
62
256
6
ByLayer
370
-1
48
1
60
0
100
AcDbEllipse
10
15.343811
20
6.166635
30
0
11
-0.290489915783453
21
2.70947238569223
31
0
210
0
220
0
230
1
40
0.984637
41
0
42
6.28318530717959
0
ELLIPSE
5
228
100
AcDbEntity
8
1
62
256
6
ByLayer
370
-1
48
1
60
0
100
AcDbEllipse
10
15.354469
20
6.167777
30
0
11
-0.191883247123018
21
1.78974322724627
31
0
210
0
220
0
230
1
40
0.984637
41
0
42
6.28318530717959
0
POINT
5
41
100
AcDbEntity
8
2
62
256
6
ByLayer
370
-1
48
1
60
0
100
AcDbPoint
10
23.397097
20
10.916588
30
0
39
0
210
0
220
0
230
1
50
360
0
POINT
5
43
100
AcDbEntity
8
2
62
256
6
ByLayer
370
-1
48
1
60
0
100
AcDbPoint
10
22.030378
20
9.912648
30
0
39
0
210
0
220
0
230
1
50
360
0
POINT
5
44
100
AcDbEntity
8
81
62
256
6
ByLayer
370
-1
48
1
60
0
100
AcDbPoint
10
23.355801
20
10.9125
30
0
39
0
210
0
220
0
230
1
50
360
0
POINT
5
46
100
AcDbEntity
8
80
62
256
6
ByLayer
370
-1
48
1
60
0
100
AcDbPoint
10
0
20
0
30
0
39
0
210
0
220
0
230
1
50
360
0
POINT
5
48
100
AcDbEntity
8
2
62
256
6
ByLayer
370
-1
48
1
60
0
100
AcDbPoint
10
23.355801
20
10.9125
30
0
39
0
210
0
220
0
230
1
50
360
0
SPLINE
5
229
100
AcDbEntity
8
1
62
256
6
ByLayer
370
-1
48
1
60
0
100
AcDbSpline
70
4
71
3
72
12
73
8
40
0
40
0
40
0
40
0
40
0.0459877480390111
40
0.365425292063336
40
0.669294631324425
40
0.95589482561743
40
1
40
1
40
1
40
1
41
1
10
5.56849595486889
20
10.3677179201358
30
0
41
1
10
5.58276178607889
20
10.3809787867599
30
0
41
1
10
5.69690569775176
20
10.4855075735728
30
0
41
1
10
5.91547109489883
20
10.6657718352776
30
0
41
1
10
6.24025176803903
20
10.8724302889376
30
0
41
1
10
6.47734784563664
20
11.0000125821242
30
0
41
1
10
6.60753759108243
20
11.0507001700747
30
0
41
1
10
6.62498929380817
20
11.0572697804262
30
0
0
SPLINE
5
22A
100
AcDbEntity
8
1
62
256
6
ByLayer
370
-1
48
1
60
0
100
AcDbSpline
70
4
71
3
72
11
73
7
40
0
40
0
40
0
40
0
40
0.138774445899175
40
0.527132365625779
40
0.909049961471054
40
1
40
1
40
1
40
1
41
1
10
9.96364027377038
20
11.0428733247269
30
0
41
1
10
10.0127981463782
20
11.0245531850756
30
0
41
1
10
10.1968003381603
20
10.9496467482987
30
0
41
1
10
10.4932910155198
20
10.7735478230415
30
0
41
1
10
10.7551006490283
20
10.5812030984495
30
0
41
1
10
10.8910665755327
20
10.4653722541684
30
0
41
1
10
10.9168839443083
20
10.4427066962678
30
0
0
SPLINE
5
22B
100
AcDbEntity
8
1
62
256
6
ByLayer
370
-1
48
1
60
0
100
AcDbSpline
70
4
71
3
72
8
73
4
40
0
40
0
40
0
40
0
40
1
40
1
40
1
40
1
41
1
10
13.3784313636014
20
-1.53818302480025
30
0
41
1
10
13.6222409306787
20
-1.37543952332675
30
0
41
1
10
13.827896738789
20
-1.22020000734739
30
0
41
1
10
14.0143966384253
20
-1.07102321918524
30
0
0
SPLINE
5
22C
100
AcDbEntity
8
1
62
256
6
ByLayer
370
-1
48
1
60
0
100
AcDbSpline
70
4
71
3
72
8
73
4
40
0
40
0
40
0
40
0
40
1
40
1
40
1
40
1
41
1
10
14.286728010273
20
7.22908006872319
30
0
41
1
10
14.2823889639137
20
7.23368181711481
30
0
41
1
10
14.2780499573183
20
7.23828354127625
30
0
41
1
10
14.2737109889114
20
7.24288524216672
30
0
0
SPLINE
5
22D
100
AcDbEntity
8
1
62
256
6
ByLayer
370
-1
48
1
60
0
100
AcDbSpline
70
4
71
3
72
8
73
4
40
0
40
0
40
0
40
0
40
1
40
1
40
1
40
1
41
1
10
16.3977197976854
20
7.24288524216689
30
0
41
1
10
16.3920474278064
20
7.23828354127642
30
0
41
1
10
16.3863750420468
20
7.23368181711501
30
0
41
1
10
16.3807026397527
20
7.22908006872339
30
0
0
SPLINE
5
22E
100
AcDbEntity
8
1
62
256
6
ByLayer
370
-1
48
1
60
0
100
AcDbSpline
70
4
71
3
72
22
73
18
40
0
40
0
40
0
40
0
40
0.0973712659846956
40
0.0973712659846956
40
0.180296832630793
40
0.180296832630793
40
0.307445080803208
40
0.307445080803208
40
0.411978418515123
40
0.411978418515123
40
0.516185210011369
40
0.516185210011369
40
0.620250145292241
40
0.620250145292241
40
0.829289859626504
40
0.829289859626504
40
1
40
1
40
1
40
1
41
1
10
16.4046817302881
20
5.08939443052742
30
0
41
1
10
16.4171090152697
20
5.08121690436107
30
0
41
1
10
16.431723466224
20
5.07541710565974
30
0
41
1
10
16.459912143559
20
5.0702884987725
30
0
41
1
10
16.4736287877628
20
5.0700209641021
30
0
41
1
10
16.5076691662627
20
5.07366792681898
30
0
41
1
10
16.5282127102031
20
5.07981414764561
30
0
41
1
10
16.5634409212666
20
5.09497395271248
30
0
41
1
10
16.5788130177235
20
5.10340024679917
30
0
41
1
10
16.6080991956121
20
5.12216025651441
30
0
41
1
10
16.6221098021675
20
5.13255033148127
30
0
41
1
10
16.6488653526745
20
5.15467699655511
30
0
41
1
10
16.6616574643317
20
5.16645271801451
30
0
41
1
10
16.6983899522608
20
5.2033674022575
30
0
41
1
10
16.7207767409335
20
5.23016553156938
30
0
41
1
10
16.7577095783805
20
5.28119169861301
30
0
41
1
10
16.7730082906041
20
5.30510750708174
30
0
41
1
10
16.7869266699157
20
5.3297224333057
30
0
0
SPLINE
5
22F
100
AcDbEntity
8
1
62
256
6
ByLayer
370
-1
48
1
60
0
100
AcDbSpline
70
4
71
3
72
8
73
4
40
0
40
0
40
0
40
0
40
1
40
1
40
1
40
1
41
1
10
16.766280854558
20
6.55488668182679
30
0
41
1
10
16.773321184262
20
6.55709657409648
30
0
41
1
10
16.7803614897392
20
6.5593064555863
30
0
41
1
10
16.787401771948
20
6.56151632672297
30
0
0
SPLINE
5
230
100
AcDbEntity
8
1
62
256
6
ByLayer
370
-1
48
1
60
0
100
AcDbSpline
70
4
71
3
72
24
73
20
40
0
40
0
40
0
40
0
40
0.0380198325519195
40
0.0380198325519195
40
0.246834654675089
40
0.246834654675089
40
0.40472650566348
40
0.40472650566348
40
0.526150637962991
40
0.526150637962991
40
0.621531995503799
40
0.621531995503799
40
0.776890538332207
40
0.776890538332207
40
0.873684213898064
40
0.873684213898064
40
0.971746172255047
40
0.971746172255047
40
1
40
1
40
1
40
1
41
1
10
15.3490499236474
20
7.84388676179614
30
0
41
1
10
15.3428077937842
20
7.84388676179614
30
0
41
1
10
15.3365615286184
20
7.84381149183639
30
0
41
1
10
15.2960575399288
20
7.84283447166442
30
0
41
1
10
15.261654087329
20
7.83975841953526
30
0
41
1
10
15.2018699997661
20
7.83003405023686
30
0
41
1
10
15.1762243360376
20
7.82441810579792
30
0
41
1
10
15.1316750736697
20
7.8115269631482
30
0
41
1
10
15.112509983424
20
7.80491177617643
30
0
41
1
10
15.0792017804241
20
7.79096093000254
30
0
41
1
10
15.0648083238828
20
7.78405922036185
30
0
41
1
10
15.0285726045117
20
7.76369329133695
30
0
41
1
10
15.0071274807284
20
7.74853356876639
30
0
41
1
10
14.9782549622122
20
7.71928742741858
30
0
41
1
10
14.9684310335981
20
7.70667411276213
30
0
41
1
10
14.9538475488159
20
7.67978652121377
30
0
41
1
10
14.9490345427939
20
7.66508707245816
30
0
41
1
10
14.9470645307622
20
7.64659209025726
30
0
41
1
10
14.9468825408115
20
7.64240331290185
30
0
41
1
10
14.9469579922809
20
7.63826173254262
30
0
0
SPLINE
5
231
100
AcDbEntity
8
1
62
256
6
ByLayer
370
-1
48
1
60
0
100
AcDbSpline
70
4
71
3
72
22
73
18
40
0
40
0
40
0
40
0
40
0.0973712659846691
40
0.0973712659846691
40
0.180296832630685
40
0.180296832630685
40
0.30744508080297
40
0.30744508080297
40
0.411978418514813
40
0.411978418514813
40
0.516185210011002
40
0.516185210011002
40
0.620250145291825
40
0.620250145291825
40
0.829289859625986
40
0.829289859625986
40
1
40
1
40
1
40
1
41
1
10
15.7219164012597
20
7.63826173254262
30
0
41
1
10
15.7248484599034
20
7.65225952822107
30
0
41
1
10
15.7246365202591
20
7.66700543109314
30
0
41
1
10
15.7184415218789
20
7.69271457984436
30
0
41
1
10
15.7133001642889
20
7.70421899768144
30
0
41
1
10
15.6964554534924
20
7.73081014193275
30
0
41
1
10
15.6825531591423
20
7.74506387536735
30
0
41
1
10
15.6544018499732
20
7.76737627124913
30
0
41
1
10
15.6404268379573
20
7.77627781018955
30
0
41
1
10
15.6113063365766
20
7.79197533457369
30
0
41
1
10
15.5960695382994
20
7.79882577754901
30
0
41
1
10
15.5648874635407
20
7.81083291218636
30
0
41
1
10
15.5488868597352
20
7.81601082258277
30
0
41
1
10
15.5001366799148
20
7.8294095060555
30
0
41
1
10
15.466538367528
20
7.83553620522815
30
0
41
1
10
15.4050162025705
20
7.8423811265732
30
0
41
1
10
15.3770458354528
20
7.84388676179614
30
0
41
1
10
15.3490499236474
20
7.84388676179614
30
0
0
SPLINE
5
232
100
AcDbEntity
8
1
62
256
6
ByLayer
370
-1
48
1
60
0
100
AcDbSpline
70
4
71
3
72
8
73
4
40
0
40
0
40
0
40
0
40
1
40
1
40
1
40
1
41
1
10
14.9469579922809
20
7.63826173254262
30
0
41
1
10
14.9476583794726
20
7.63152320896509
30
0
41
1
10
14.9483587852018
20
7.62478465057609
30
0
41
1
10
14.9490592102333
20
7.61804605594062
30
0
0
SPLINE
5
233
100
AcDbEntity
8
1
62
256
6
ByLayer
370
-1
48
1
60
0
100
AcDbSpline
70
4
71
3
72
8
73
4
40
0
40
0
40
0
40
0
40
1
40
1
40
1
40
1
41
1
10
16.7899581650043
20
5.77076334597137
30
0
41
1
10
16.7829040667017
20
5.7728271202088
30
0
41
1
10
16.775849945056
20
5.77489090717413
30
0
41
1
10
16.7687957991059
20
5.77695470739218
30
0
0
SPLINE
5
234
100
AcDbEntity
8
1
62
256
6
ByLayer
370
-1
48
1
60
0
100
AcDbSpline
70
4
71
3
72
8
73
4
40
0
40
0
40
0
40
0
40
1
40
1
40
1
40
1
41
1
10
16.3875767289
20
5.10276132049557
30
0
41
1
10
16.3932784125084
20
5.09830566415562
30
0
41
1
10
16.3989800794176
20
5.09385003451868
30
0
41
1
10
16.4046817302881
20
5.08939443052742
30
0
0
SPLINE
5
235
100
AcDbEntity
8
1
62
256
6
ByLayer
370
-1
48
1
60
0
100
AcDbSpline
70
4
71
3
72
24
73
20
40
0
40
0
40
0
40
0
40
0.0380198325521684
40
0.0380198325521684
40
0.246834654675191
40
0.246834654675191
40
0.404726505663558
40
0.404726505663558
40
0.526150637963086
40
0.526150637963086
40
0.621531995503868
40
0.621531995503868
40
0.776890538332237
40
0.776890538332237
40
0.873684213898098
40
0.873684213898098
40
0.971746172255077
40
0.971746172255077
40
1
40
1
40
1
40
1
41
1
10
13.9274290559856
20
5.32972243330588
30
0
41
1
10
13.9305678637727
20
5.32423414747564
30
0
41
1
10
13.9337667400615
20
5.31878244993641
30
0
41
1
10
13.9548864683482
20
5.28369217794855
30
0
41
1
10
13.9745580010994
20
5.25508638709252
30
0
41
1
10
14.0120809752595
20
5.207732829066
30
0
41
1
10
14.0292785912704
20
5.18819661637696
30
0
41
1
10
14.0614982997169
20
5.1559674294293
30
0
41
1
10
14.0761592144702
20
5.14268470404619
30
0
41
1
10
14.1034402442777
20
5.12095158695848
30
0
41
1
10
14.1158699783424
20
5.11204104251306
30
0
41
1
10
14.1493214994603
20
5.09127210510593
30
0
41
1
10
14.1713666416402
20
5.08070646626533
30
0
41
1
10
14.2072822660944
20
5.07146128323876
30
0
41
1
10
14.2213795422767
20
5.06981679888946
30
0
41
1
10
14.2480088249076
20
5.07200269302467
30
0
41
1
10
14.2608646414764
20
5.07602709415724
30
0
41
1
10
14.2748148593271
20
5.08475987072239
30
0
41
1
10
14.2778305039778
20
5.08697491515957
30
0
41
1
10
14.2806729215141
20
5.08939443052725
30
0
0
SPLINE
5
236
100
AcDbEntity
8
1
62
256
6
ByLayer
370
-1
48
1
60
0
100
AcDbSpline
70
4
71
3
72
22
73
18
40
0
40
0
40
0
40
0
40
0.0973712659847423
40
0.0973712659847423
40
0.180296832630797
40
0.180296832630797
40
0.307445080803123
40
0.307445080803123
40
0.411978418514991
40
0.411978418514991
40
0.516185210011199
40
0.516185210011199
40
0.620250145292046
40
0.620250145292046
40
0.829289859626228
40
0.829289859626228
40
1
40
1
40
1
40
1
41
1
10
13.8909909472514
20
5.7707633459712
30
0
41
1
10
13.8797814933677
20
5.76538799744367
30
0
41
1
10
13.8694988844865
20
5.75688359923603
30
0
41
1
10
13.8542880650729
20
5.73703026622175
30
0
41
1
10
13.8485875352302
20
5.72610159356012
30
0
41
1
10
13.8377580344965
20
5.69654602069585
30
0
41
1
10
13.8342606542931
20
5.67648312923632
30
0
41
1
10
13.8318779150357
20
5.63951420225212
30
0
41
1
10
13.8322544785526
20
5.62237652685448
30
0
41
1
10
13.835115712179
20
5.58824351603673
30
0
41
1
10
13.8376051465899
20
5.57113843378465
30
0
41
1
10
13.8441887860947
20
5.53723590427632
30
0
41
1
10
13.8482944826352
20
5.5203784641476
30
0
41
1
10
13.8625883643096
20
5.47030913293952
30
0
41
1
10
13.8747749938044
20
5.43748884820212
30
0
41
1
10
13.9004479118377
20
5.3797339345054
30
0
41
1
10
13.9133515234921
20
5.35433735952986
30
0
41
1
10
13.9274290559856
20
5.32972243330588
30
0
0
SPLINE
5
237
100
AcDbEntity
8
1
62
256
6
ByLayer
370
-1
48
1
60
0
100
AcDbSpline
70
4
71
3
72
8
73
4
40
0
40
0
40
0
40
0
40
1
40
1
40
1
40
1
41
1
10
15.7252455289396
20
4.71379533327817
30
0
41
1
10
15.7273085912203
20
4.70720283069437
30
0
41
1
10
15.7293716572632
20
4.70061036682984
30
0
41
1
10
15.7314347269186
20
4.69401794015155
30
0
0
SPLINE
5
238
100
AcDbEntity
8
1
62
256
6
ByLayer
370
-1
48
1
60
0
100
AcDbSpline
70
4
71
3
72
30
73
26
40
0
40
0
40
0
40
0
40
0.051177228752923
40
0.051177228752923
40
0.135075241067869
40
0.135075241067869
40
0.271834780652664
40
0.271834780652664
40
0.469061266911238
40
0.469061266911238
40
0.500636061959709
40
0.500636061959709
40
0.599800502489115
40
0.599800502489115
40
0.697557955314453
40
0.697557955314453
40
0.781333785463048
40
0.781333785463048
40
0.84784486982204
40
0.84784486982204
40
0.89911348693111
40
0.89911348693111
40
0.939077913069138
40
0.939077913069138
40
1
40
1
40
1
40
1
41
1
10
16.3875767289
20
5.10276132049563
30
0
41
1
10
16.376010375654
20
5.11180000077161
30
0
41
1
10
16.3625601139224
20
5.11888477325971
30
0
41
1
10
16.3254481836002
20
5.13278284848775
30
0
41
1
10
16.3001146080031
20
5.13697901181152
30
0
41
1
10
16.2336741431434
20
5.14036621674637
30
0
41
1
10
16.191151346138
20
5.13504384094628
30
0
41
1
10
16.0911795541316
20
5.11190360831492
30
0
41
1
10
16.0332229722701
20
5.08906955961808
30
0
41
1
10
15.9715919057841
20
5.05607045641028
30
0
41
1
10
15.9630988554582
20
5.0513053554908
30
0
41
1
10
15.9285084620185
20
5.03099152076078
30
0
41
1
10
15.9033692402904
20
5.01404701201321
30
0
41
1
10
15.8566243841256
20
4.97782510810114
30
0
41
1
10
15.8348135702297
20
4.9584659441916
30
0
41
1
10
15.7980763436575
20
4.92029583380443
30
0
41
1
10
15.7824974159837
20
4.90168733399017
30
0
41
1
10
15.7581465702856
20
4.86673884338583
30
0
41
1
10
15.748567701306
20
4.85062487345908
30
0
41
1
10
15.7346855108398
20
4.82115676461822
30
0
41
1
10
15.7296439977042
20
4.80793897097308
30
0
41
1
10
15.7231803747469
20
4.78398142885663
30
0
41
1
10
15.7211930476699
20
4.7732754116511
30
0
41
1
10
15.7190199558851
20
4.74627855963095
30
0
41
1
10
15.7203123847687
20
4.7295591645491
30
0
41
1
10
15.7252455289397
20
4.71379533327817
30
0
0
SPLINE
5
239
100
AcDbEntity
8
1
62
256
6
ByLayer
370
-1
48
1
60
0
100
AcDbSpline
70
4
71
3
72
30
73
26
40
0
40
0
40
0
40
0
40
0.0515194889309788
40
0.0515194889309788
40
0.0928771460763102
40
0.0928771460763102
40
0.148185150442169
40
0.148185150442169
40
0.203338923043231
40
0.203338923043231
40
0.287955708682616
40
0.287955708682616
40
0.372427214532521
40
0.372427214532521
40
0.435367147735076
40
0.435367147735076
40
0.498971020782771
40
0.498971020782771
40
0.701334348038783
40
0.701334348038783
40
0.838887327921121
40
0.838887327921121
40
0.925006664596846
40
0.925006664596846
40
1
40
1
40
1
40
1
41
1
10
14.9584482439285
20
4.71379533327817
30
0
41
1
10
14.9597816889688
20
4.72716878906729
30
0
41
1
10
14.9585019042678
20
4.74122910810379
30
0
41
1
10
14.9528736234204
20
4.76619149715307
30
0
41
1
10
14.9491552104474
20
4.7773355705404
30
0
41
1
10
14.9384835619227
20
4.80286152261615
30
0
41
1
10
14.9308167738376
20
4.81720695522762
30
0
41
1
10
14.9134978012715
20
4.84495970479597
30
0
41
1
10
14.9037899337378
20
4.85846301153225
30
0
41
1
10
14.8774063476942
20
4.89153823932566
30
0
41
1
10
14.8596599446506
20
4.91066817044617
30
0
41
1
10
14.8220862873645
20
4.94687798054554
30
0
41
1
10
14.8021307781485
20
4.96407800822487
30
0
41
1
10
14.7660396640423
20
4.99234377739992
30
0
41
1
10
14.7501661999904
20
5.00389837704893
30
0
41
1
10
14.717643650664
20
5.02596443108899
30
0
41
1
10
14.7009447770991
20
5.03649273484385
30
0
41
1
10
14.6308551077199
20
5.0774984587531
30
0
41
1
10
14.5745782938691
20
5.10301388848023
30
0
41
1
10
14.4813462838178
20
5.13073095753575
30
0
41
1
10
14.4430677411525
20
5.13804512957768
30
0
41
1
10
14.383779335297
20
5.13906590562974
30
0
41
1
10
14.3612305898993
20
5.13679405732395
30
0
41
1
10
14.3229983266089
20
5.1248491501847
30
0
41
1
10
14.3062930330123
20
5.11588185911651
30
0
41
1
10
14.2936020994202
20
5.10276132049543
30
0
0
SPLINE
5
23A
100
AcDbEntity
8
1
62
256
6
ByLayer
370
-1
48
1
60
0
100
AcDbSpline
70
4
71
3
72
24
73
20
40
0
40
0
40
0
40
0
40
0.0974021566269828
40
0.0974021566269828
40
0.180354031075317
40
0.180354031075317
40
0.30754261651716
40
0.30754261651716
40
0.412109117009525
40
0.412109117009525
40
0.516348967690756
40
0.516348967690756
40
0.62044691715333
40
0.62044691715333
40
0.724476829459899
40
0.724476829459899
40
0.933310901386082
40
0.933310901386082
40
1
40
1
40
1
40
1
41
1
10
15.7314347269186
20
4.69401794015155
30
0
41
1
10
15.7344563324564
20
4.68031675846282
30
0
41
1
10
15.7343387836858
20
4.66586532623282
30
0
41
1
10
15.728308446113
20
4.64064098338139
30
0
41
1
10
15.7232408085819
20
4.62934203921432
30
0
41
1
10
15.7065665576121
20
4.60320591769903
30
0
41
1
10
15.6927556974379
20
4.58917689279895
30
0
41
1
10
15.664747569262
20
4.56720001289349
30
0
41
1
10
15.6508297022551
20
4.55842524570605
30
0
41
1
10
15.6218099972217
20
4.5429440701763
30
0
41
1
10
15.6066172000833
20
4.53618391765997
30
0
41
1
10
15.5755122616336
20
4.52433096315787
30
0
41
1
10
15.5595449294227
20
4.5192171805804
30
0
41
1
10
15.5271542037437
20
4.51040732622914
30
0
41
1
10
15.5106940030835
20
4.50670172583415
30
0
41
1
10
15.4608107118729
20
4.49746489415026
30
0
41
1
10
15.4268077486077
20
4.49379136170262
30
0
41
1
10
15.3817713093195
20
4.49189645612833
30
0
41
1
10
15.3708343045043
20
4.49166765714233
30
0
41
1
10
15.359887176052
20
4.49166765714233
30
0
0
SPLINE
5
23B
100
AcDbEntity
8
1
62
256
6
ByLayer
370
-1
48
1
60
0
100
AcDbSpline
70
4
71
3
72
8
73
4
40
0
40
0
40
0
40
0
40
1
40
1
40
1
40
1
41
1
10
14.9564763179398
20
4.69401794015155
30
0
41
1
10
14.9571336080463
20
4.70061036682986
30
0
41
1
10
14.9577909164574
20
4.70720283069437
30
0
41
1
10
14.9584482439285
20
4.7137953332782
30
0
0
SPLINE
5
23C
100
AcDbEntity
8
1
62
256
6
ByLayer
370
-1
48
1
60
0
100
AcDbSpline
70
4
71
3
72
22
73
18
40
0
40
0
40
0
40
0
40
0.142057608739134
40
0.142057608739134
40
0.351004812992742
40
0.351004812992742
40
0.487763342941888
40
0.487763342941888
40
0.591529353509439
40
0.591529353509439
40
0.758694969227108
40
0.758694969227108
40
0.858776631808869
40
0.858776631808869
40
0.960359919517345
40
0.960359919517345
40
1
40
1
40
1
40
1
41
1
10
15.359887176052
20
4.49166765714233
30
0
41
1
10
15.3365941792019
20
4.49166765714233
30
0
41
1
10
15.3132177535997
20
4.49270033182924
30
0
41
1
10
15.2556447697912
20
4.49787801264989
30
0
41
1
10
15.2213511979422
20
4.50325527217595
30
0
41
1
10
15.1656046475821
20
4.51659065741924
30
0
41
1
10
15.1437098101846
20
4.52304659606904
30
0
41
1
10
15.1061145642267
20
4.53686184718794
30
0
41
1
10
15.0901329078742
20
4.5436523350464
30
0
41
1
10
15.0499847358607
20
4.56381679757129
30
0
41
1
10
15.0261181553652
20
4.57895083678179
30
0
41
1
10
14.9939102391247
20
4.60828015191586
30
0
41
1
10
14.9830061025852
20
4.62068468784838
30
0
41
1
10
14.9662047565702
20
4.64744257224427
30
0
41
1
10
14.9602359053768
20
4.6622491560525
30
0
41
1
10
14.9568483583243
20
4.68255181405058
30
0
41
1
10
14.9564076842505
20
4.68833480532956
30
0
41
1
10
14.9564763179398
20
4.69401794015155
30
0
0
SPLINE
5
23D
100
AcDbEntity
8
1
62
256
6
ByLayer
370
-1
48
1
60
0
100
AcDbSpline
70
4
71
3
72
22
73
18
40
0
40
0
40
0
40
0
40
0.0973712659846989
40
0.0973712659846989
40
0.180296832630758
40
0.180296832630758
40
0.307445080803131
40
0.307445080803131
40
0.411978418515024
40
0.411978418515024
40
0.516185210011263
40
0.516185210011263
40
0.620250145292135
40
0.620250145292135
40
0.829289859626375
40
0.829289859626375
40
1
40
1
40
1
40
1
41
1
10
16.7874017719481
20
6.56151632672297
30
0
41
1
10
16.8013778189929
20
6.56718828924022
30
0
41
1
10
16.8144070294932
20
6.5759871580899
30
0
41
1
10
16.8341397552677
20
6.596325297004
30
0
41
1
10
16.8417567896244
20
6.60745944333564
30
0
41
1
10
16.8568304016713
20
6.63747003893587
30
0
41
1
10
16.8624236947993
20
6.65775763892987
30
0
41
1
10
16.8679358758146
20
6.69506208189037
30
0
41
1
10
16.8687417442696
20
6.71232652904098
30
0
41
1
10
16.8678984507328
20
6.74667588871316
30
0
41
1
10
16.8662511781146
20
6.76387126142529
30
0
41
1
10
16.8611056154452
20
6.79792797106884
30
0
41
1
10
16.8575980551662
20
6.81484953901565
30
0
41
1
10
16.8448216333472
20
6.86508156122881
30
0
41
1
10
16.8332850743728
20
6.89797154179766
30
0
41
1
10
16.8083345500215
20
6.955803905289
30
0
41
1
10
16.7955855762074
20
6.98121705940864
30
0
41
1
10
16.7815080437138
20
7.0058319856326
30
0
0
SPLINE
5
23E
100
AcDbEntity
8
1
62
256
6
ByLayer
370
-1
48
1
60
0
100
AcDbSpline
70
4
71
3
72
34
73
30
40
0
40
0
40
0
40
0
40
0.0514465755209354
40
0.0514465755209354
40
0.135786144735413
40
0.135786144735413
40
0.203131635218868
40
0.203131635218868
40
0.270315608875092
40
0.270315608875092
40
0.337431278535928
40
0.337431278535928
40
0.404515897625512
40
0.404515897625512
40
0.499929883690807
40
0.499929883690807
40
0.599210771748188
40
0.599210771748188
40
0.697083019894259
40
0.697083019894259
40
0.780957226922769
40
0.780957226922769
40
0.847546414393264
40
0.847546414393264
40
0.898875235580371
40
0.898875235580371
40
0.980803570703547
40
0.980803570703547
40
1
40
1
40
1
40
1
41
1
10
16.7687957991059
20
5.77695470739218
30
0
41
1
10
16.754485860233
20
5.78114130278939
30
0
41
1
10
16.7408901710358
20
5.7879688839584
30
0
41
1
10
16.7084048091997
20
5.81004913610531
30
0
41
1
10
16.6909384397394
20
5.82815860745936
30
0
41
1
10
16.6641420171367
20
5.86386784276698
30
0
41
1
10
16.6536814357086
20
5.88113776305664
30
0
41
1
10
16.6353774533214
20
5.91707195428589
30
0
41
1
10
16.6274727965135
20
5.93585457427144
30
0
41
1
10
16.6138991669745
20
5.97432106585393
30
0
41
1
10
16.6082010742467
20
5.9940899328825
30
0
41
1
10
16.5988302455284
20
6.03419585911331
30
0
41
1
10
16.5951418745713
20
6.05460264387528
30
0
41
1
10
16.5885298104292
20
6.10436397842275
30
0
41
1
10
16.5865596276182
20
6.13402544668617
30
0
41
1
10
16.5863643722105
20
6.19442257352225
30
0
41
1
10
16.5882926036816
20
6.22534738552309
30
0
41
1
10
16.5962383988404
20
6.28584696888487
30
0
41
1
10
16.602219514595
20
6.31563837650577
30
0
41
1
10
16.6174000571085
20
6.36928585688349
30
0
41
1
10
16.626060857163
20
6.39354578997953
30
0
41
1
10
16.6449423174318
20
6.43505447862228
30
0
41
1
10
16.6545268003239
20
6.45283127154653
30
0
41
1
10
16.6739683184846
20
6.48229679362555
30
0
41
1
10
16.6833128107943
20
6.49452093217411
30
0
41
1
10
16.7098701506763
20
6.52334293025487
30
0
41
1
10
16.729027577232
20
6.53884997327407
30
0
41
1
10
16.75561885475
20
6.55113692427503
30
0
41
1
10
16.760895935799
20
6.55319640724602
30
0
41
1
10
16.766280854558
20
6.55488668182676
30
0
0
SPLINE
5
23F
100
AcDbEntity
8
1
62
256
6
ByLayer
370
-1
48
1
60
0
100
AcDbSpline
70
4
71
3
72
34
73
30
40
0
40
0
40
0
40
0
40
0.0514465755209371
40
0.0514465755209371
40
0.135786144735407
40
0.135786144735407
40
0.203131635218882
40
0.203131635218882
40
0.27031560887511
40
0.27031560887511
40
0.337431278535952
40
0.337431278535952
40
0.404515897625552
40
0.404515897625552
40
0.499929883690937
40
0.499929883690937
40
0.599210771748182
40
0.599210771748182
40
0.697083019894244
40
0.697083019894244
40
0.780957226922772
40
0.780957226922772
40
0.847546414393277
40
0.847546414393277
40
0.898875235580362
40
0.898875235580362
40
0.980803570703566
40
0.980803570703566
40
1
40
1
40
1
40
1
41
1
10
16.3807026397527
20
7.22908006872342
30
0
41
1
10
16.3691956861592
20
7.21974502821558
30
0
41
1
10
16.3557921892741
20
7.21236432496869
30
0
41
1
10
16.3187724929043
20
7.19773225199967
30
0
41
1
10
16.293467417554
20
7.19311261328892
30
0
41
1
10
16.2478132042178
20
7.19010906759038
30
0
41
1
10
16.2271206456915
20
7.19065249006078
30
0
41
1
10
16.1860060819306
20
7.19452086459515
30
0
41
1
10
16.1654480167475
20
7.19785793373467
30
0
41
1
10
16.1248293234811
20
7.20673589435992
30
0
41
1
10
16.1046793669121
20
7.21229718503673
30
0
41
1
10
16.0650565880492
20
7.22527097046168
30
0
41
1
10
16.0455152190771
20
7.23270658047042
30
0
41
1
10
15.9992429021363
20
7.25266199214005
30
0
41
1
10
15.9728025171534
20
7.26606562682102
30
0
41
1
10
15.9211851544071
20
7.29626419023907
30
0
41
1
10
15.8959361735863
20
7.31327077109367
30
0
41
1
10
15.8489563264993
20
7.34973713067171
30
0
41
1
10
15.8270197553327
20
7.36927767211719
30
0
41
1
10
15.7900342967603
20
7.40789160465849
30
0
41
1
10
15.7743342486652
20
7.4267485227397
30
0
41
1
10
15.7497557533907
20
7.4622174433845
30
0
41
1
10
15.7400718618245
20
7.47858944942951
30
0
41
1
10
15.7259975116995
20
7.50856087887706
30
0
41
1
10
15.7208697730947
20
7.52201466716505
30
0
41
1
10
15.7112804591618
20
7.55736527655901
30
0
41
1
10
15.7088117813214
20
7.58029040851687
30
0
41
1
10
15.7131355300095
20
7.60764627479912
30
0
41
1
10
15.714311490057
20
7.61289192450249
30
0
41
1
10
15.7158564952445
20
7.61804605594057
30
0
0
SPLINE
5
240
100
AcDbEntity
8
1
62
256
6
ByLayer
370
-1
48
1
60
0
100
AcDbSpline
70
4
71
3
72
34
73
30
40
0
40
0
40
0
40
0
40
0.0514465755209435
40
0.0514465755209435
40
0.135786144735421
40
0.135786144735421
40
0.203131635218885
40
0.203131635218885
40
0.270315608875118
40
0.270315608875118
40
0.337431278535957
40
0.337431278535957
40
0.404515897625545
40
0.404515897625545
40
0.499929883690931
40
0.499929883690931
40
0.599210771748169
40
0.599210771748169
40
0.697083019894239
40
0.697083019894239
40
0.780957226922747
40
0.780957226922747
40
0.847546414393253
40
0.847546414393253
40
0.898875235580371
40
0.898875235580371
40
0.980803570703547
40
0.980803570703547
40
1
40
1
40
1
40
1
41
1
10
14.9490592102333
20
7.61804605594062
30
0
41
1
10
14.9504800823639
20
7.60437623991967
30
0
41
1
10
14.9492921644292
20
7.5900199901244
30
0
41
1
10
14.9413347392781
20
7.55294066613797
30
0
41
1
10
14.9315211027542
20
7.52999981837971
30
0
41
1
10
14.909514585956
20
7.49094945387421
30
0
41
1
10
14.8980032519884
20
7.47408579271968
30
0
41
1
10
14.8729011948653
20
7.44177430066708
30
0
41
1
10
14.8592278409184
20
7.42621939867772
30
0
41
1
10
14.8304032614238
20
7.39644008098722
30
0
41
1
10
14.8151878765259
20
7.38215064546293
30
0
41
1
10
14.7836695201295
20
7.35488272979279
30
0
41
1
10
14.7673114562693
20
7.34185740555435
30
0
41
1
10
14.7267469572883
20
7.31195453597985
30
0
41
1
10
14.7020093730218
20
7.29566803563461
30
0
41
1
10
14.6505872656832
20
7.26546947221658
30
0
41
1
10
14.623699534456
20
7.25158227712399
30
0
41
1
10
14.5699139418991
20
7.2276712811732
30
0
41
1
10
14.5428421318814
20
7.21751110376502
30
0
41
1
10
14.4927459511323
20
7.20269946700563
30
0
41
1
10
14.4695436327665
20
7.19742066112508
30
0
41
1
10
14.4285107680567
20
7.19164110814739
30
0
41
1
10
14.4104457774319
20
7.19036533932729
30
0
41
1
10
14.3792772079866
20
7.19112290699911
30
0
41
1
10
14.3659055677177
20
7.19247055406001
30
0
41
1
10
14.3327765994237
20
7.19932269965886
30
0
41
1
10
14.3132285210904
20
7.2069635794328
30
0
41
1
10
14.2936276302185
20
7.22231839223417
30
0
41
1
10
14.2900468054315
20
7.22556034134112
30
0
41
1
10
14.286728010273
20
7.22908006872316
30
0
0
SPLINE
5
241
100
AcDbEntity
8
1
62
256
6
ByLayer
370
-1
48
1
60
0
100
AcDbSpline
70
4
71
3
72
8
73
4
40
0
40
0
40
0
40
0
40
1
40
1
40
1
40
1
41
1
10
15.7158564952445
20
7.6180460559406
30
0
41
1
10
15.7178764599647
20
7.62478465057609
30
0
41
1
10
15.7198964286896
20
7.63152320896506
30
0
41
1
10
15.7219164012597
20
7.63826173254262
30
0
0
SPLINE
5
242
100
AcDbEntity
8
1
62
256
6
ByLayer
370
-1
48
1
60
0
100
AcDbSpline
70
4
71
3
72
24
73
20
40
0
40
0
40
0
40
0
40
0.0380198325523588
40
0.0380198325523588
40
0.246834654675397
40
0.246834654675397
40
0.40472650566372
40
0.40472650566372
40
0.526150637963158
40
0.526150637963158
40
0.621531995503924
40
0.621531995503924
40
0.776890538332234
40
0.776890538332234
40
0.873684213898102
40
0.873684213898102
40
0.971746172255095
40
0.971746172255095
40
1
40
1
40
1
40
1
41
1
10
16.7815080437138
20
7.0058319856326
30
0
41
1
10
16.7783692359267
20
7.01132027146286
30
0
41
1
10
16.7751625592126
20
7.01677113269727
30
0
41
1
10
16.7539414456014
20
7.05185053488833
30
0
41
1
10
16.73395386884
20
7.08042244180504
30
0
41
1
10
16.69538449386
20
7.127663812349
30
0
41
1
10
16.6775738732419
20
7.14713430314407
30
0
41
1
10
16.643876367036
20
7.179205051368
30
0
41
1
10
16.6284388981961
20
7.19240452027196
30
0
41
1
10
16.599441531601
20
7.21395362421691
30
0
41
1
10
16.5861396378143
20
7.22277066204254
30
0
41
1
10
16.550001048378
20
7.24325151153496
30
0
41
1
10
16.5258609319754
20
7.2535925424819
30
0
41
1
10
16.4854914242123
20
7.26236021254536
30
0
41
1
10
16.4693843712079
20
7.26378922324639
30
0
41
1
10
16.4381891733123
20
7.26111380489689
30
0
41
1
10
16.4226947378654
20
7.25680651024612
30
0
41
1
10
16.4052105757678
20
7.24769484989085
30
0
41
1
10
16.4013807775268
20
7.24539251782932
30
0
41
1
10
16.3977197976854
20
7.24288524216692
30
0
0
SPLINE
5
243
100
AcDbEntity
8
1
62
256
6
ByLayer
370
-1
48
1
60
0
100
AcDbSpline
70
4
71
3
72
8
73
4
40
0
40
0
40
0
40
0
40
1
40
1
40
1
40
1
41
1
10
14.2806729215141
20
5.08939443052725
30
0
41
1
10
14.2849826089295
20
5.09385003451851
30
0
41
1
10
14.2892923343754
20
5.09830566415545
30
0
41
1
10
14.2936020994202
20
5.1027613204954
30
0
0
SPLINE
5
244
100
AcDbEntity
8
1
62
256
6
ByLayer
370
-1
48
1
60
0
100
AcDbSpline
70
4
71
3
72
24
73
20
40
0
40
0
40
0
40
0
40
0.0380198325525379
40
0.0380198325525379
40
0.246834654675606
40
0.246834654675606
40
0.404726505663897
40
0.404726505663897
40
0.526150637963332
40
0.526150637963332
40
0.621531995504061
40
0.621531995504061
40
0.776890538332361
40
0.776890538332361
40
0.873684213898202
40
0.873684213898202
40
0.971746172255161
40
0.971746172255161
40
1
40
1
40
1
40
1
41
1
10
16.7869266699157
20
5.3297224333057
30
0
41
1
10
16.790029991992
20
5.335210719136
30
0
41
1
10
16.7930656802312
20
5.34073643217775
30
0
41
1
10
16.8122978626474
20
5.37678741964237
30
0
41
1
10
16.8265557164806
20
5.40841843671859
30
0
41
1
10
16.8472472286537
20
5.46532808281967
30
0
41
1
10
16.8547757694604
20
5.49038165710672
30
0
41
1
10
16.8648886267427
20
5.5352643286185
30
0
41
1
10
16.8682279711052
20
5.55503735625464
30
0
41
1
10
16.8716806391161
20
5.59044529980207
30
0
41
1
10
16.8723361220099
20
5.6061172939585
30
0
41
1
10
16.8710897177853
20
5.64682002851848
30
0
41
1
10
16.8673472380548
20
5.67220847808912
30
0
41
1
10
16.8536233071534
20
5.70998353301883
30
0
41
1
10
16.846335294352
20
5.7239181215522
30
0
41
1
10
16.8274406236063
20
5.74788553264395
30
0
41
1
10
16.8154398847425
20
5.75813623998965
30
0
41
1
10
16.798158762553
20
5.76733011994023
30
0
41
1
10
16.7941038774676
20
5.7691729214219
30
0
41
1
10
16.7899581650043
20
5.7707633459714
30
0
0
SPLINE
5
245
100
AcDbEntity
8
1
62
256
6
ByLayer
370
-1
48
1
60
0
100
AcDbSpline
70
4
71
3
72
8
73
4
40
0
40
0
40
0
40
0
40
1
40
1
40
1
40
1
41
1
10
13.8884345541952
20
6.5615163267228
30
0
41
1
10
13.8941259700342
20
6.55930645558612
30
0
41
1
10
13.8998174313661
20
6.55709657409634
30
0
41
1
10
13.9055089400671
20
6.55488668182662
30
0
0
SPLINE
5
246
100
AcDbEntity
8
1
62
256
6
ByLayer
370
-1
48
1
60
0
100
AcDbSpline
70
4
71
3
72
34
73
30
40
0
40
0
40
0
40
0
40
0.0514465755209191
40
0.0514465755209191
40
0.135786144735395
40
0.135786144735395
40
0.203131635218854
40
0.203131635218854
40
0.270315608875082
40
0.270315608875082
40
0.337431278535912
40
0.337431278535912
40
0.404515897625495
40
0.404515897625495
40
0.499929883690919
40
0.499929883690919
40
0.599210771748183
40
0.599210771748183
40
0.697083019894252
40
0.697083019894252
40
0.780957226922767
40
0.780957226922767
40
0.847546414393269
40
0.847546414393269
40
0.898875235580365
40
0.898875235580365
40
0.980803570703554
40
0.980803570703554
40
1
40
1
40
1
40
1
41
1
10
13.905508940067
20
6.55488668182662
30
0
41
1
10
13.9170546526426
20
6.55040372619757
30
0
41
1
10
13.9278901213461
20
6.54328021426991
30
0
41
1
10
13.9535293019473
20
6.520465964382
30
0
41
1
10
13.9670458101398
20
6.50193301764097
30
0
41
1
10
13.9875447806131
20
6.46554861533465
30
0
41
1
10
13.9954466483024
20
6.44800436837443
30
0
41
1
10
14.0091676791909
20
6.41157882642986
30
0
41
1
10
14.0150324448553
20
6.39257750415757
30
0
41
1
10
14.0250470428599
20
6.35372943910858
30
0
41
1
10
14.0292180934743
20
6.33379685373495
30
0
41
1
10
14.0360561096889
20
6.29341937777559
30
0
41
1
10
14.0387343489557
20
6.27290429404326
30
0
41
1
10
14.043537920733
20
6.22294906610247
30
0
41
1
10
14.044973339355
20
6.19323026431348
30
0
41
1
10
14.0451685947627
20
6.13283313747741
30
0
41
1
10
14.0438193254211
20
6.10197039758376
30
0
41
1
10
14.0381536296399
20
6.04171526988787
30
0
41
1
10
14.0338642676924
20
6.0121052398014
30
0
41
1
10
14.0228233658525
20
5.95890158157778
30
0
41
1
10
14.0164796253657
20
5.93489006675028
30
0
41
1
10
14.0024523467638
20
5.89390180814809
30
0
41
1
10
13.9952746315385
20
5.87638305134206
30
0
41
1
10
13.9805277110587
20
5.84742084986971
30
0
41
1
10
13.9733844000404
20
5.83543270596402
30
0
41
1
10
13.9528624312001
20
5.80725777645458
30
0
41
1
10
13.9378610567701
20
5.79219631510594
30
0
41
1
10
13.9166030551681
20
5.78048115914518
30
0
41
1
10
13.912366566548
20
5.77853324092331
30
0
41
1
10
13.908023884615
20
5.77695470739201
30
0
0
SPLINE
5
247
100
AcDbEntity
8
1
62
256
6
ByLayer
370
-1
48
1
60
0
100
AcDbSpline
70
4
71
3
72
24
73
20
40
0
40
0
40
0
40
0
40
0.0380198325522522
40
0.0380198325522522
40
0.246834654675289
40
0.246834654675289
40
0.404726505663637
40
0.404726505663637
40
0.526150637963119
40
0.526150637963119
40
0.621531995503892
40
0.621531995503892
40
0.776890538332238
40
0.776890538332238
40
0.873684213898099
40
0.873684213898099
40
0.971746172255092
40
0.971746172255092
40
1
40
1
40
1
40
1
41
1
10
13.9220104297837
20
7.00583198563277
30
0
41
1
10
13.9189071077074
20
7.0003436998025
30
0
41
1
10
13.915863619043
20
6.99481715045596
30
0
41
1
10
13.8965300513023
20
6.95875529319454
30
0
41
1
10
13.8819561534588
20
6.927090392179
30
0
41
1
10
13.860218240466
20
6.87006855859539
30
0
41
1
10
13.852076695052
20
6.84494926241436
30
0
41
1
10
13.8404860400103
20
6.79990815217889
30
0
41
1
10
13.836370141561
20
6.78005186806357
30
0
41
1
10
13.8312011367626
20
6.74445991137338
30
0
41
1
10
13.8296734941469
20
6.72869441059714
30
0
41
1
10
13.8282328300529
20
6.68770358812245
30
0
41
1
10
13.8298803355608
20
6.66209053065813
30
0
41
1
10
13.8391503831533
20
6.62383796276532
30
0
41
1
10
13.8444286191326
20
6.60968790058368
30
0
41
1
10
13.8587573746136
20
6.58523096527765
30
0
41
1
10
13.8681194945994
20
6.57469736441374
30
0
41
1
10
13.8818666725418
20
6.56512460067304
30
0
41
1
10
13.885107404037
20
6.56319451156696
30
0
41
1
10
13.8884345541952
20
6.56151632672277
30
0
0
SPLINE
5
248
100
AcDbEntity
8
1
62
256
6
ByLayer
370
-1
48
1
60
0
100
AcDbSpline
70
4
71
3
72
8
73
4
40
0
40
0
40
0
40
0
40
1
40
1
40
1
40
1
41
1
10
13.908023884615
20
5.77695470739201
30
0
41
1
10
13.9023461921601
20
5.77489090717395
30
0
41
1
10
13.8966685469966
20
5.77282712020863
30
0
41
1
10
13.8909909472514
20
5.7707633459712
30
0
0
SPLINE
5
249
100
AcDbEntity
8
1
62
256
6
ByLayer
370
-1
48
1
60
0
100
AcDbSpline
70
4
71
3
72
22
73
18
40
0
40
0
40
0
40
0
40
0.0973712659847377
40
0.0973712659847377
40
0.180296832630814
40
0.180296832630814
40
0.307445080803187
40
0.307445080803187
40
0.411978418515046
40
0.411978418515046
40
0.516185210011257
40
0.516185210011257
40
0.620250145292097
40
0.620250145292097
40
0.829289859626272
40
0.829289859626272
40
1
40
1
40
1
40
1
41
1
10
14.2737109889114
20
7.24288524216675
30
0
41
1
10
14.2640502970908
20
7.25135938232282
30
0
41
1
10
14.2521824477558
20
7.2574536516662
30
0
41
1
10
14.2285156767815
20
7.26306706445325
30
0
41
1
10
14.2167155370918
20
7.26354007279366
30
0
41
1
10
14.186919269905
20
7.26034813281274
30
0
41
1
10
14.1684716388892
20
7.25442662052055
30
0
41
1
10
14.1363728695838
20
7.23960233142998
30
0
41
1
10
14.1221832050988
20
7.23130280909629
30
0
41
1
10
14.0949149672997
20
7.21275914823545
30
0
41
1
10
14.0817465225371
20
7.20245936372865
30
0
41
1
10
14.0564290488655
20
7.18048687879005
30
0
41
1
10
14.0442350734697
20
7.16877528514874
30
0
41
1
10
14.0090200453961
20
7.13202329191083
30
0
41
1
10
13.9872833272439
20
7.1052948584304
30
0
41
1
10
13.9510728834788
20
7.05434614118138
30
0
41
1
10
13.9359288090954
20
7.03044691185676
30
0
41
1
10
13.9220104297837
20
7.00583198563277
30
0
0
SPLINE
5
24A
100
AcDbEntity
8
1
62
256
6
ByLayer
370
-1
48
1
60
0
100
AcDbSpline
70
4
71
1
72
5
73
3
40
0
40
0
40
0.75234562270185
40
1
40
1
41
1.06363569285907
10
12.3237934544854
20
-0.554000276032342
30
0
41
1.06363569285907
10
12.7409126860635
20
-0.430678881450218
30
0
41
1.06363569285907
10
12.8782184673939
20
-0.390084396334332
30
0
0
SPLINE
5
24B
100
AcDbEntity
8
1
62
256
6
ByLayer
370
-1
48
1
60
0
100
AcDbSpline
70
4
71
3
72
14
73
10
40
0
40
0
40
0
40
0
40
0.233926408286268
40
0.233926408286268
40
0.467719442169543
40
0.467719442169543
40
0.701444004412115
40
0.701444004412115
40
1
40
1
40
1
40
1
41
1
10
15.5577514734035
20
10.9158089055434
30
0
41
1
10
15.5430941767232
20
10.9156351769736
30
0
41
1
10
15.5277198620162
20
10.9154803481434
30
0
41
1
10
15.4962325466907
20
10.9152143446794
30
0
41
1
10
15.4800096964521
20
10.9151022005025
30
0
41
1
10
15.447284714498
20
10.914923109578
30
0
41
1
10
15.4306733146694
20
10.9148555391937
30
0
41
1
10
15.3930563841546
20
10.914753508319
30
0
41
1
10
15.3719067463472
20
10.9147328477355
30
0
41
1
10
15.3513170096238
20
10.9147482924727
30
0
0
SPLINE
5
24C
100
AcDbEntity
8
1
62
256
6
ByLayer
370
-1
48
1
60
0
100
AcDbSpline
70
4
71
3
72
10
73
6
40
0
40
0
40
0
40
0
40
0.736240194588488
40
0.736240194588488
40
1
40
1
40
1
40
1
41
1
10
20.776551146797
20
7.79022047953177
30
0
41
1
10
20.7784896353008
20
7.80794730528856
30
0
41
1
10
20.7851497504388
20
7.82607219201086
30
0
41
1
10
20.8032016428419
20
7.84696992994432
30
0
41
1
10
20.8089346829086
20
7.85220499319976
30
0
41
1
10
20.8155974118046
20
7.85678411558553
30
0
0
SPLINE
5
24D
100
AcDbEntity
8
1
62
256
6
ByLayer
370
-1
48
1
60
0
100
AcDbSpline
70
4
71
3
72
14
73
10
40
0
40
0
40
0
40
0
40
0.249103078948814
40
0.249103078948814
40
0.498160925944175
40
0.498160925944175
40
0.745586162481413
40
0.745586162481413
40
1
40
1
40
1
40
1
41
1
10
19.6120392675615
20
4.24841113742929
30
0
41
1
10
19.6210094807564
20
4.26404561781141
30
0
41
1
10
19.6302456030808
20
4.2797034813386
30
0
41
1
10
19.6488540524728
20
4.31041079706685
30
0
41
1
10
19.658290858181
20
4.32556691206449
30
0
41
1
10
19.6769836691531
20
4.35477908190745
30
0
41
1
10
19.6863031512497
20
4.36893971603644
30
0
41
1
10
19.7048344536595
20
4.39628113536361
30
0
41
1
10
19.7141013242126
20
4.40951962416418
30
0
41
1
10
19.7230436930951
20
4.42185137583002
30
0
0
SPLINE
5
24E
100
AcDbEntity
8
1
62
256
6
ByLayer
370
-1
48
1
60
0
100
AcDbSpline
70
4
71
3
72
20
73
16
40
0
40
0
40
0
40
0
40
0.314859192648758
40
0.314859192648758
40
0.53155888044106
40
0.53155888044106
40
0.682135903694824
40
0.682135903694824
40
0.839619845966507
40
0.839619845966507
40
0.903112673776006
40
0.903112673776006
40
0.967902128209796
40
0.967902128209796
40
1
40
1
40
1
40
1
41
1
10
12.2461259785225
20
3.20895744596328
30
0
41
1
10
12.3091258181483
20
3.24283137548673
30
0
41
1
10
12.3713363325902
20
3.27834994836621
30
0
41
1
10
12.4735522526068
20
3.34283319398827
30
0
41
1
10
12.5145070007458
20
3.37040962153202
30
0
41
1
10
12.5812630950282
20
3.42072326379147
30
0
41
1
10
12.6079479806647
20
3.44240111252739
30
0
41
1
10
12.6592989436375
20
3.49011972205935
30
0
41
1
10
12.684368544876
20
3.5164340414006
30
0
41
1
10
12.7123054849101
20
3.55844889376968
30
0
41
1
10
12.719523127449
20
3.57128811973618
30
0
41
1
10
12.7303500333373
20
3.59856313922475
30
0
41
1
10
12.7339827345898
20
3.61348554653338
30
0
41
1
10
12.7337857317454
20
3.63572441154716
30
0
41
1
10
12.7327574353828
20
3.64323219057479
30
0
41
1
10
12.7307167197125
20
3.65038216525724
30
0
0
SPLINE
5
24F
100
AcDbEntity
8
1
62
256
6
ByLayer
370
-1
48
1
60
0
100
AcDbSpline
70
4
71
3
72
14
73
10
40
0
40
0
40
0
40
0
40
0.249103078948769
40
0.249103078948769
40
0.498160925944199
40
0.498160925944199
40
0.745586162481372
40
0.745586162481372
40
1
40
1
40
1
40
1
41
1
10
14.7185014292196
20
10.9152229789861
30
0
41
1
10
14.7008685838589
20
10.9152362057051
30
0
41
1
10
14.6835069512632
20
10.9152759298516
30
0
41
1
10
14.6500418046866
20
10.9154057520155
30
0
41
1
10
14.6338218618409
20
10.9154962843662
30
0
41
1
10
14.6031534243056
20
10.9157236447202
30
0
41
1
10
14.5885910787466
20
10.9158609255957
30
0
41
1
10
14.5611071717836
20
10.9161823217752
30
0
41
1
10
14.5481463929905
20
10.9163687869506
30
0
41
1
10
14.5364389385077
20
10.916575010711
30
0
0
SPLINE
5
250
100
AcDbEntity
8
1
62
256
6
ByLayer
370
-1
48
1
60
0
100
AcDbSpline
70
4
71
3
72
8
73
4
40
0
40
0
40
0
40
0
40
1
40
1
40
1
40
1
41
1
10
18.3644608187576
20
4.37134345862529
30
0
41
1
10
18.4162059661412
20
4.26295027759758
30
0
41
1
10
18.4799601413733
20
4.16049876996493
30
0
41
1
10
18.5467492384691
20
4.06091267218949
30
0
0
SPLINE
5
251
100
AcDbEntity
8
1
62
256
6
ByLayer
370
-1
48
1
60
0
100
AcDbSpline
70
4
71
3
72
14
73
10
40
0
40
0
40
0
40
0
40
0.31439236670207
40
0.31439236670207
40
0.632200716155254
40
0.632200716155254
40
0.91251319620206
40
0.91251319620206
40
1
40
1
40
1
40
1
41
1
10
21.8920973304125
20
9.86142190770394
30
0
41
1
10
21.8977984469901
20
9.87104499198807
30
0
41
1
10
21.9022637467031
20
9.88160543099468
30
0
41
1
10
21.9071347831561
20
9.9035148265701
30
0
41
1
10
21.9075021759279
20
9.91517370501978
30
0
41
1
10
21.9040906735866
20
9.93614950295139
30
0
41
1
10
21.9007933243538
20
9.94582124468636
30
0
41
1
10
21.8949364194836
20
9.95758488876214
30
0
41
1
10
21.8934151651755
20
9.96034758075902
30
0
41
1
10
21.8917939798962
20
9.96304714693747
30
0
0
SPLINE
5
252
100
AcDbEntity
8
1
62
256
6
ByLayer
370
-1
48
1
60
0
100
AcDbSpline
70
4
71
3
72
14
73
10
40
0
40
0
40
0
40
0
40
0.314392366702066
40
0.314392366702066
40
0.632200716155242
40
0.632200716155242
40
0.912513196202043
40
0.912513196202043
40
1
40
1
40
1
40
1
41
1
10
8.73429725277143
20
10.1513620722912
30
0
41
1
10
8.72349738272808
20
10.1514622393572
30
0
41
1
10
8.71246010058596
20
10.1500367661027
30
0
41
1
10
8.69155923327597
20
10.1433136579105
30
0
41
1
10
8.68144876619169
20
10.1378289860087
30
0
41
1
10
8.66511082616827
20
10.1244703666379
30
0
41
1
10
8.65836174419078
20
10.1168327045761
30
0
41
1
10
8.65099258775425
20
10.1059603531467
30
0
41
1
10
8.64932822944306
20
10.1032820334103
30
0
41
1
10
8.64776315479284
20
10.1005494526745
30
0
0
SPLINE
5
253
100
AcDbEntity
8
1
62
256
6
ByLayer
370
-1
48
1
60
0
100
AcDbSpline
70
4
71
3
72
8
73
4
40
0
40
0
40
0
40
0
40
1
40
1
40
1
40
1
41
1
10
15.3017573260109
20
9.72901710890909
30
0
41
1
10
15.3682085833107
20
9.82842641132029
30
0
41
1
10
15.4235555466935
20
9.93543947329218
30
0
41
1
10
15.4749328823946
20
10.0436958220738
30
0
0
SPLINE
5
254
100
AcDbEntity
8
1
62
256
6
ByLayer
370
-1
48
1
60
0
100
AcDbSpline
70
4
71
3
72
8
73
4
40
0
40
0
40
0
40
0
40
1
40
1
40
1
40
1
41
1
10
15.3820132562623
20
10.0856667112271
30
0
41
1
10
15.3553469489836
20
10.0165071262066
30
0
41
1
10
15.3274257559866
20
9.94781755443435
30
0
41
1
10
15.2972434471146
20
9.88020187607566
30
0
0
SPLINE
5
255
100
AcDbEntity
8
1
62
256
6
ByLayer
370
-1
48
1
60
0
100
AcDbSpline
70
4
71
3
72
18
73
14
40
0
40
0
40
0
40
0
40
0.0414544517087705
40
0.0414544517087705
40
0.132910922468104
40
0.132910922468104
40
0.263177731540036
40
0.263177731540036
40
0.458562667326522
40
0.458562667326522
40
0.817425847463264
40
0.817425847463264
40
1
40
1
40
1
40
1
41
1
10
18.3199809582651
20
4.68227264206945
30
0
41
1
10
18.3168487364451
20
4.67896921449724
30
0
41
1
10
18.3139943402735
20
4.67537180231727
30
0
41
1
10
18.3059521826708
20
4.66327227140664
30
0
41
1
10
18.3019356413178
20
4.65384573479878
30
0
41
1
10
18.2954755895609
20
4.63047464993073
30
0
41
1
10
18.294190661994
20
4.61597423416134
30
0
41
1
10
18.2945498355201
20
4.58028876999921
30
0
41
1
10
18.29788944596
20
4.55886767936585
30
0
41
1
10
18.3112803091129
20
4.49963427224648
30
0
41
1
10
18.3247204697767
20
4.46237742885546
30
0
41
1
10
18.347586142223
20
4.4076670153062
30
0
41
1
10
18.3558365503676
20
4.389409150369
30
0
41
1
10
18.3644608187355
20
4.37134345861594
30
0
0
SPLINE
5
256
100
AcDbEntity
8
1
62
256
6
ByLayer
370
-1
48
1
60
0
100
AcDbSpline
70
4
71
3
72
14
73
10
40
0
40
0
40
0
40
0
40
0.23392640828628
40
0.23392640828628
40
0.467719442169569
40
0.467719442169569
40
0.701444004412153
40
0.701444004412153
40
1
40
1
40
1
40
1
41
1
10
11.0783736954343
20
4.02994206959053
30
0
41
1
10
11.083103758819
20
4.01842389724186
30
0
41
1
10
11.0884810952848
20
4.00612631461428
30
0
41
1
10
11.1002696840113
20
3.98053757206384
30
0
41
1
10
11.1067214325401
20
3.96715746824401
30
0
41
1
10
11.1204513624186
20
3.93979545330237
30
0
41
1
10
11.1277749983244
20
3.92572238313238
30
0
41
1
10
11.1451334487026
20
3.89345170651754
30
0
41
1
10
11.1554501659749
20
3.87501862181171
30
0
41
1
10
11.1660335117076
20
3.856793249844
30
0
0
SPLINE
5
257
100
AcDbEntity
8
1
62
256
6
ByLayer
370
-1
48
1
60
0
100
AcDbSpline
70
4
71
3
72
22
73
18
40
0
40
0
40
0
40
0
40
0.153101873520365
40
0.153101873520365
40
0.442621285364907
40
0.442621285364907
40
0.707385074439687
40
0.707385074439687
40
0.843532608240159
40
0.843532608240159
40
0.92635266577125
40
0.92635266577125
40
0.96370673695526
40
0.96370673695526
40
0.977863955360661
40
0.977863955360661
40
1
40
1
40
1
40
1
41
1
10
12.1379011832915
20
4.29514800322912
30
0
41
1
10
12.1588968100483
20
4.29700834601545
30
0
41
1
10
12.1799124561008
20
4.29865813135115
30
0
41
1
10
12.2407019387024
20
4.30264719576422
30
0
41
1
10
12.280552484356
20
4.30435078453931
30
0
41
1
10
12.3567946109549
20
4.30427620672296
30
0
41
1
10
12.3933537883596
20
4.30297707229224
30
0
41
1
10
12.447959050965
20
4.29541034115564
30
0
41
1
10
12.4665266686894
20
4.29188515874924
30
0
41
1
10
12.4950466527116
20
4.28224420513502
30
0
41
1
10
12.5057406826522
20
4.2776340574402
30
0
41
1
10
12.5191816978206
20
4.26795137382427
30
0
41
1
10
12.5231153340025
20
4.26443354848581
30
0
41
1
10
12.527567592355
20
4.25881985934203
30
0
41
1
10
12.528700219068
20
4.25718043626051
30
0
41
1
10
12.531257473502
20
4.25280331427814
30
0
41
1
10
12.5325055375342
20
4.24992535731317
30
0
41
1
10
12.5333535324172
20
4.24695427122251
30
0
0
SPLINE
5
258
100
AcDbEntity
8
1
62
256
6
ByLayer
370
-1
48
1
60
0
100
AcDbSpline
70
4
71
3
72
10
73
6
40
0
40
0
40
0
40
0
40
0.638746828356579
40
0.638746828356579
40
1
40
1
40
1
40
1
41
1
10
18.4899283921488
20
4.29514800324523
30
0
41
1
10
18.5975935084275
20
4.22704633760731
30
0
41
1
10
18.7086483266574
20
4.15784006690942
30
0
41
1
10
18.8853906097323
20
4.04881555792085
30
0
41
1
10
18.9499664896553
20
4.00921513155498
30
0
41
1
10
19.0150875950261
20
3.96950494655113
30
0
0
SPLINE
5
259
100
AcDbEntity
8
1
62
256
6
ByLayer
370
-1
48
1
60
0
100
AcDbSpline
70
4
71
3
72
10
73
6
40
0
40
0
40
0
40
0
40
0.736240194588506
40
0.736240194588506
40
1
40
1
40
1
40
1
41
1
10
11.0622363261623
20
10.2004472417737
30
0
41
1
10
11.0391048101081
20
10.1965757417659
30
0
41
1
10
11.0134036721681
20
10.1965918433501
30
0
41
1
10
10.978291726239
20
10.2058529848712
30
0
41
1
10
10.9688497010484
20
10.2092549587177
30
0
41
1
10
10.9596597739147
20
10.2137269798219
30
0
0
SPLINE
5
25A
100
AcDbEntity
8
1
62
256
6
ByLayer
370
-1
48
1
60
0
100
AcDbSpline
70
4
71
3
72
10
73
6
40
0
40
0
40
0
40
0
40
0.388885978133031
40
0.388885978133031
40
1
40
1
40
1
40
1
41
1
10
18.3644608187575
20
4.37134345862535
30
0
41
1
10
18.3815224951182
20
4.36135988027337
30
0
41
1
10
18.3983937618763
20
4.35133857773076
30
0
41
1
10
18.4408221219805
20
4.32578400565845
30
0
41
1
10
18.4660978266219
20
4.31022160609564
30
0
41
1
10
18.4899283921469
20
4.2951480032292
30
0
0
SPLINE
5
25B
100
AcDbEntity
8
1
62
256
6
ByLayer
370
-1
48
1
60
0
100
AcDbSpline
70
4
71
3
72
18
73
14
40
0
40
0
40
0
40
0
40
0.0414544517087771
40
0.0414544517087771
40
0.132910922468127
40
0.132910922468127
40
0.263177731540044
40
0.263177731540044
40
0.45856266732654
40
0.45856266732654
40
0.817425847463264
40
0.817425847463264
40
1
40
1
40
1
40
1
41
1
10
12.5583855767421
20
4.25417196653777
30
0
41
1
10
12.557125635385
20
4.25858637317697
30
0
41
1
10
12.555476740811
20
4.26290426401712
30
0
41
1
10
12.5491557839248
20
4.27605689559408
30
0
41
1
10
12.5431126548875
20
4.28432646995572
30
0
41
1
10
12.5263901352443
20
4.3017533864741
30
0
41
1
10
12.5146603377018
20
4.31017143114698
30
0
41
1
10
12.4840419082913
20
4.32779201698727
30
0
41
1
10
12.4641086271437
20
4.33562241312924
30
0
41
1
10
12.4069221044712
20
4.35362059092037
30
0
41
1
10
12.368457123261
20
4.36052946271565
30
0
41
1
10
12.3104161874547
20
4.36792349609726
30
0
41
1
10
12.290738635187
20
4.36984613215512
30
0
41
1
10
12.2710390582106
20
4.37134345864945
30
0
0
SPLINE
5
25C
100
AcDbEntity
8
1
62
256
6
ByLayer
370
-1
48
1
60
0
100
AcDbSpline
70
4
71
3
72
8
73
4
40
0
40
0
40
0
40
0
40
1
40
1
40
1
40
1
41
1
10
18.6199037594807
20
4.11506895534424
30
0
41
1
10
18.5752209888908
20
4.17403877431241
30
0
41
1
10
18.5315590002877
20
4.23387259697012
30
0
41
1
10
18.4899283921344
20
4.29514800324776
30
0
0
SPLINE
5
25D
100
AcDbEntity
8
1
62
256
6
ByLayer
370
-1
48
1
60
0
100
AcDbSpline
70
4
71
3
72
22
73
18
40
0
40
0
40
0
40
0
40
0.153101873520333
40
0.153101873520333
40
0.442621285364892
40
0.442621285364892
40
0.707385074439683
40
0.707385074439683
40
0.843532608240161
40
0.843532608240161
40
0.926352665771242
40
0.926352665771242
40
0.963706736955256
40
0.963706736955256
40
0.977863955360642
40
0.977863955360642
40
1
40
1
40
1
40
1
41
1
10
18.489928392147
20
4.29514800322931
30
0
41
1
10
18.4781180209053
20
4.31253149408408
30
0
41
1
10
18.4664763684047
20
4.33003769315491
30
0
41
1
10
18.4334658578041
20
4.38106715503832
30
0
41
1
10
18.4125985297298
20
4.41497503614198
30
0
41
1
10
18.3755029275846
20
4.4815132154479
30
0
41
1
10
18.3587865564736
20
4.51405042393313
30
0
41
1
10
18.3385926706162
20
4.56545850272477
30
0
41
1
10
18.3325340328274
20
4.5834145742798
30
0
41
1
10
18.3268143849706
20
4.61310579266475
30
0
41
1
10
18.3255141777621
20
4.62473595451871
30
0
41
1
10
18.3271798446854
20
4.64129530245759
30
0
41
1
10
18.3282478852932
20
4.64648316967711
30
0
41
1
10
18.3308418202328
20
4.65317002681186
30
0
41
1
10
18.3316810549948
20
4.65497665651228
30
0
41
1
10
18.3341492634575
20
4.65939306495207
30
0
41
1
10
18.3359833352774
20
4.66191887435249
30
0
41
1
10
18.3380914556756
20
4.66414222360723
30
0
0
SPLINE
5
25E
100
AcDbEntity
8
1
62
256
6
ByLayer
370
-1
48
1
60
0
100
AcDbSpline
70
4
71
3
72
14
73
10
40
0
40
0
40
0
40
0
40
0.233926408286277
40
0.233926408286277
40
0.467719442169541
40
0.467719442169541
40
0.701444004412127
40
0.701444004412127
40
1
40
1
40
1
40
1
41
1
10
19.2034797209074
20
3.51628619538644
30
0
41
1
10
19.2081420581464
20
3.52745691059556
30
0
41
1
10
19.2134469025687
20
3.53944483556279
30
0
41
1
10
19.2250843149529
20
3.56450157118513
30
0
41
1
10
19.2314568539773
20
3.57765738665117
30
0
41
1
10
19.2450245022396
20
3.60466121974389
30
0
41
1
10
19.2522645255384
20
3.61859914914527
30
0
41
1
10
19.2694309296225
20
3.65066576401057
30
0
41
1
10
19.2796377250209
20
3.66905752754945
30
0
41
1
10
19.2901121733732
20
3.68731378899156
30
0
0
SPLINE
5
25F
100
AcDbEntity
8
1
62
256
6
ByLayer
370
-1
48
1
60
0
100
AcDbSpline
70
4
71
3
72
20
73
16
40
0
40
0
40
0
40
0
40
0.314859192648765
40
0.314859192648765
40
0.531558880441063
40
0.531558880441063
40
0.682135903694815
40
0.682135903694815
40
0.839619845966515
40
0.839619845966515
40
0.903112673775999
40
0.903112673775999
40
0.967902128209787
40
0.967902128209787
40
1
40
1
40
1
40
1
41
1
10
19.3685007624709
20
4.92758074293428
30
0
41
1
10
19.3079409531709
20
4.96612562837896
30
0
41
1
10
19.2463749934301
20
5.00315849024065
30
0
41
1
10
19.1399943995627
20
5.06096000221197
30
0
41
1
10
19.0958867789757
20
5.08325384589762
30
0
41
1
10
19.0194158699514
20
5.11692472913529
30
0
41
1
10
18.9875121345425
20
5.12960552811842
30
0
41
1
10
18.9209977920736
20
5.15102207283519
30
0
41
1
10
18.8859510178996
20
5.1599765578176
30
0
41
1
10
18.836070456993
20
5.16364310639639
30
0
41
1
10
18.8214908024017
20
5.1636033416398
30
0
41
1
10
18.7927832773574
20
5.15955703196428
30
0
41
1
10
18.7782285437276
20
5.15532906520568
30
0
41
1
10
18.7593577577477
20
5.14409478435476
30
0
41
1
10
18.753470451499
20
5.13945646446047
30
0
41
1
10
18.7483972200223
20
5.13410593256887
30
0
0
SPLINE
5
260
100
AcDbEntity
8
1
62
256
6
ByLayer
370
-1
48
1
60
0
100
AcDbSpline
70
4
71
3
72
8
73
4
40
0
40
0
40
0
40
0
40
1
40
1
40
1
40
1
41
1
10
15.2972434471146
20
9.88020187607566
30
0
41
1
10
15.3000851135043
20
9.83175675341252
30
0
41
1
10
15.3016047127856
20
9.78014395621472
30
0
41
1
10
15.3017573260109
20
9.72901710890918
30
0
0
SPLINE
5
261
100
AcDbEntity
8
1
62
256
6
ByLayer
370
-1
48
1
60
0
100
AcDbSpline
70
4
71
3
72
22
73
18
40
0
40
0
40
0
40
0
40
0.0236324717629898
40
0.0236324717629898
40
0.0629814022064281
40
0.0629814022064281
40
0.0762359204463576
40
0.0762359204463576
40
0.134099172814624
40
0.134099172814624
40
0.288877504287527
40
0.288877504287527
40
0.442933094377611
40
0.442933094377611
40
0.668543354429531
40
0.668543354429531
40
1
40
1
40
1
40
1
41
1
10
18.766507717438
20
5.11597551409861
30
0
41
1
10
18.7699457524359
20
5.11960147045127
30
0
41
1
10
18.7742275605236
20
5.12248742735488
30
0
41
1
10
18.7862433964968
20
5.12781669763078
30
0
41
1
10
18.7946335889957
20
5.12904419243466
30
0
41
1
10
18.8055617799437
20
5.12927451204314
30
0
41
1
10
18.8083468925279
20
5.12920976678186
30
0
41
1
10
18.8231774805223
20
5.12834814741225
30
0
41
1
10
18.8351347314797
20
5.12592393303731
30
0
41
1
10
18.8779419379251
20
5.1145135134683
30
0
41
1
10
18.9077783738954
20
5.10138126103189
30
0
41
1
10
18.9657172358596
20
5.07304556225594
30
0
41
1
10
18.9939512899376
20
5.05739924487796
30
0
41
1
10
19.0624390171051
20
5.01708820430537
30
0
41
1
10
19.1022358513631
20
4.99152487624258
30
0
41
1
10
19.1991162542098
20
4.92640723718267
30
0
41
1
10
19.255590480622
20
4.88583418492584
30
0
41
1
10
19.3113325293139
20
4.84429089227558
30
0
0
SPLINE
5
262
100
AcDbEntity
8
1
62
256
6
ByLayer
370
-1
48
1
60
0
100
AcDbSpline
70
4
71
3
72
14
73
10
40
0
40
0
40
0
40
0
40
0.249103078948809
40
0.249103078948809
40
0.498160925944195
40
0.498160925944195
40
0.745586162481402
40
0.745586162481402
40
1
40
1
40
1
40
1
41
1
10
11.4913075141102
20
3.29664527443308
30
0
41
1
10
11.5003709859365
20
3.28103724748902
30
0
41
1
10
11.5097003483002
20
3.26545883225481
30
0
41
1
10
11.5284913448337
20
3.23501116085441
30
0
41
1
10
11.5380180918264
20
3.22003611055817
30
0
41
1
10
11.5568839416418
20
3.1912786614231
30
0
41
1
10
11.5662871429303
20
3.17739258904521
30
0
41
1
10
11.5849797544408
20
3.15069396207707
30
0
41
1
10
11.5943245453636
20
3.1378284036272
30
0
41
1
10
11.6033393034513
20
3.12590909948213
30
0
0
SPLINE
5
263
100
AcDbEntity
8
1
62
256
6
ByLayer
370
-1
48
1
60
0
100
AcDbSpline
70
4
71
3
72
12
73
8
40
0
40
0
40
0
40
0
40
0.19789127210266
40
0.19789127210266
40
0.598376100017388
40
0.598376100017388
40
1
40
1
40
1
40
1
41
1
10
15.2972434471235
20
9.88020187609391
30
0
41
1
10
15.2948068805631
20
9.92174080069145
30
0
41
1
10
15.2924979785404
20
9.96353334966088
30
0
41
1
10
15.2858518359842
20
10.0904713747161
30
0
41
1
10
15.2818516504565
20
10.176238822128
30
0
41
1
10
15.2746068477848
20
10.3490045924211
30
0
41
1
10
15.2713635505205
20
10.4360744914751
30
0
41
1
10
15.2684960364114
20
10.5235232899866
30
0
0
SPLINE
5
264
100
AcDbEntity
8
1
62
256
6
ByLayer
370
-1
48
1
60
0
100
AcDbSpline
70
4
71
3
72
8
73
4
40
0
40
0
40
0
40
0
40
1
40
1
40
1
40
1
41
1
10
11.9165225726914
20
4.26910555514229
30
0
41
1
10
11.9900954329042
20
4.27951545917384
30
0
41
1
10
12.0638932886788
20
4.28859044462621
30
0
41
1
10
12.1379011833138
20
4.29514800323111
30
0
0
SPLINE
5
265
100
AcDbEntity
8
1
62
256
6
ByLayer
370
-1
48
1
60
0
100
AcDbSpline
70
4
71
3
72
8
73
4
40
0
40
0
40
0
40
0
40
1
40
1
40
1
40
1
41
1
10
12.2710390582076
20
4.37134345862538
30
0
41
1
10
12.1528426535242
20
4.38032733724188
30
0
41
1
10
12.0337415149094
20
4.37576578290265
30
0
41
1
10
11.9155750821125
20
4.36709553189644
30
0
0
SPLINE
5
266
100
AcDbEntity
8
1
62
256
6
ByLayer
370
-1
48
1
60
0
100
AcDbSpline
70
4
71
3
72
20
73
16
40
0
40
0
40
0
40
0
40
0.314859192648758
40
0.314859192648758
40
0.531558880441059
40
0.531558880441059
40
0.682135903694814
40
0.682135903694814
40
0.839619845966508
40
0.839619845966508
40
0.903112673775995
40
0.903112673775995
40
0.967902128209786
40
0.967902128209786
40
1
40
1
40
1
40
1
41
1
10
14.3226304619828
20
10.3351658372622
30
0
41
1
10
14.3201904316569
20
10.2627470222941
30
0
41
1
10
14.3195458769559
20
10.1901955875529
30
0
41
1
10
14.3237105508066
20
10.0679108299595
30
0
41
1
10
14.3268634232547
20
10.0180405587301
30
0
41
1
10
14.3365782379965
20
9.93405603323296
30
0
41
1
10
14.3417970877689
20
9.89969738551395
30
0
41
1
10
14.3569604672651
20
9.83056223126519
30
0
41
1
10
14.3669376402006
20
9.79529342694156
30
0
41
1
10
14.3888812610731
20
9.74961202599368
30
0
41
1
10
14.3962432731255
20
9.73681256478375
30
0
41
1
10
14.4141238922815
20
9.71358385497072
30
0
41
1
10
14.4250459246588
20
9.70288941442072
30
0
41
1
10
14.4441137134831
20
9.69188483025783
30
0
41
1
10
14.4510293160944
20
9.6890153711245
30
0
41
1
10
14.4581432632414
20
9.68721592833367
30
0
0
SPLINE
5
267
100
AcDbEntity
8
1
62
256
6
ByLayer
370
-1
48
1
60
0
100
AcDbSpline
70
4
71
3
72
14
73
10
40
0
40
0
40
0
40
0
40
0.314392366702051
40
0.314392366702051
40
0.632200716155282
40
0.632200716155282
40
0.912513196202118
40
0.912513196202118
40
1
40
1
40
1
40
1
41
1
10
15.1004112139908
20
-1.5619130840673
30
0
41
1
10
15.1060282161618
20
-1.57158503263466
30
0
41
1
10
15.1130069240642
20
-1.58067973557766
30
0
41
1
10
15.1294832422306
20
-1.59582182402474
30
0
41
1
10
15.1392626939448
20
-1.60199242947934
30
0
41
1
10
15.1587092382611
20
-1.60963959270308
30
0
41
1
10
15.1684600443444
20
-1.61170293707403
30
0
41
1
10
15.1811595403994
20
-1.61264635577967
30
0
41
1
10
15.1842083055523
20
-1.61274427492569
30
0
41
1
10
15.1872486624857
20
-1.61272570368408
30
0
0
SPLINE
5
268
100
AcDbEntity
8
1
62
256
6
ByLayer
370
-1
48
1
60
0
100
AcDbSpline
70
4
71
3
72
18
73
14
40
0
40
0
40
0
40
0
40
0.041454451708794
40
0.041454451708794
40
0.132910922468128
40
0.132910922468128
40
0.263177731540037
40
0.263177731540037
40
0.458562667326531
40
0.458562667326531
40
0.817425847463269
40
0.817425847463269
40
1
40
1
40
1
40
1
41
1
10
15.0588906679689
20
9.53525941755254
30
0
41
1
10
15.063282831146
20
9.53414843848552
30
0
41
1
10
15.0677861218918
20
9.53342795982536
30
0
41
1
10
15.0821492363805
20
9.53237485915903
30
0
41
1
10
15.0922089067708
20
9.53353182140529
30
0
41
1
10
15.115391478171
20
9.53947598975492
30
0
41
1
10
15.1284062032804
20
9.54555836085143
30
0
41
1
10
15.1586654591647
20
9.56362323917327
30
0
41
1
10
15.1752591298725
20
9.57721393366467
30
0
41
1
10
15.2190547893921
20
9.61844916299293
30
0
41
1
10
15.2440796099384
20
9.64879713458865
30
0
41
1
10
15.2792548732985
20
9.69611351475629
30
0
41
1
10
15.2906820174215
20
9.71244874363563
30
0
41
1
10
15.30175732603
20
9.72901710889437
30
0
0
SPLINE
5
269
100
AcDbEntity
8
1
62
256
6
ByLayer
370
-1
48
1
60
0
100
AcDbSpline
70
4
71
3
72
22
73
18
40
0
40
0
40
0
40
0
40
0.023632471762991
40
0.023632471762991
40
0.0629814022064383
40
0.0629814022064383
40
0.0762359204463802
40
0.0762359204463802
40
0.134099172814625
40
0.134099172814625
40
0.288877504287535
40
0.288877504287535
40
0.442933094377619
40
0.442933094377619
40
0.668543354429525
40
0.668543354429525
40
1
40
1
40
1
40
1
41
1
10
14.4638778378158
20
9.71244654065038
30
0
41
1
10
14.4590568476092
20
9.71366598969766
30
0
41
1
10
14.4544251344382
20
9.71600360711525
30
0
41
1
10
14.4437594009034
20
9.72395498000932
30
0
41
1
10
14.4384117785282
20
9.73076001395091
30
0
41
1
10
14.4325988285852
20
9.7403111113922
30
0
41
1
10
14.4312213080259
20
9.74280728535061
30
0
41
1
10
14.424321280383
20
9.75635897422097
30
0
41
1
10
14.4202143850813
20
9.76815408100643
30
0
41
1
10
14.4078115551139
20
9.81175338564617
30
0
41
1
10
14.4035274745432
20
9.84474431484094
30
0
41
1
10
14.3975938236935
20
9.91023343732465
30
0
41
1
10
14.3962494980284
20
9.943070570722
30
0
41
1
10
14.3949722935401
20
10.023909195461
30
0
41
1
10
14.3960303457697
20
10.0719583477444
30
0
41
1
10
14.401034014617
20
10.1903797955086
30
0
41
1
10
14.406149457051
20
10.2607255231268
30
0
41
1
10
14.4124561313284
20
10.3309120781764
30
0
0
SPLINE
5
26A
100
AcDbEntity
8
1
62
256
6
ByLayer
370
-1
48
1
60
0
100
AcDbSpline
70
4
71
3
72
10
73
6
40
0
40
0
40
0
40
0
40
0.736240194588485
40
0.736240194588485
40
1
40
1
40
1
40
1
41
1
10
13.8889605083818
20
0.460296443875507
30
0
41
1
10
13.896853215546
20
0.445124484931881
30
0
41
1
10
13.9028644750704
20
0.425693646580356
30
0
41
1
10
13.9044000247864
20
0.393997956248143
30
0
41
1
10
13.9041489898478
20
0.384968906494294
30
0
41
1
10
13.9030183547821
20
0.375555664603098
30
0
0
SPLINE
5
26B
100
AcDbEntity
8
1
62
256
6
ByLayer
370
-1
48
1
60
0
100
AcDbSpline
70
4
71
3
72
10
73
6
40
0
40
0
40
0
40
0
40
0.388885978132972
40
0.388885978132972
40
1
40
1
40
1
40
1
41
1
10
12.2710390582077
20
4.37134345862538
30
0
41
1
10
12.2540369836482
20
4.3613598802734
30
0
41
1
10
12.236789416871
20
4.35133857773079
30
0
41
1
10
12.1923854375352
20
4.32578400565848
30
0
41
1
10
12.1649439165325
20
4.31022160609567
30
0
41
1
10
12.1379011832915
20
4.29514800322923
30
0
0
SPLINE
5
26C
100
AcDbEntity
8
1
62
256
6
ByLayer
370
-1
48
1
60
0
100
AcDbSpline
70
4
71
3
72
22
73
18
40
0
40
0
40
0
40
0
40
0.0236324717629843
40
0.0236324717629843
40
0.062981402206422
40
0.062981402206422
40
0.076235920446364
40
0.076235920446364
40
0.13409917281462
40
0.13409917281462
40
0.288877504287528
40
0.288877504287528
40
0.442933094377617
40
0.442933094377617
40
0.668543354429529
40
0.668543354429529
40
1
40
1
40
1
40
1
41
1
10
12.705684675378
20
3.6431644699413
30
0
41
1
10
12.7070676305867
20
3.63831906454138
30
0
41
1
10
12.7073838070847
20
3.63309215134006
30
0
41
1
10
12.7058817279384
20
3.61979646360177
30
0
41
1
10
12.7026814147834
20
3.61174831946474
30
0
41
1
10
12.6973323280492
20
3.60194375342002
30
0
41
1
10
12.6958625790333
20
3.59950617164119
30
0
41
1
10
12.6875903067178
20
3.58678227518729
30
0
41
1
10
12.6794285314461
20
3.57738055454163
30
0
41
1
10
12.6478521974515
20
3.54507565435819
30
0
41
1
10
12.6213747438295
20
3.52512539972858
30
0
41
1
10
12.5675121928507
20
3.48778811313269
30
0
41
1
10
12.5396781894172
20
3.47050382088114
30
0
41
1
10
12.4701256026897
20
3.429744389723
30
0
41
1
10
12.4278630987593
20
3.40711922180267
30
0
41
1
10
12.3224869964183
20
3.35346972793195
30
0
41
1
10
12.2588026440224
20
3.32348969441577
30
0
41
1
10
12.1946509277921
20
3.29463825126172
30
0
0
SPLINE
5
26D
100
AcDbEntity
8
1
62
256
6
ByLayer
370
-1
48
1
60
0
100
AcDbSpline
70
4
71
3
72
10
73
6
40
0
40
0
40
0
40
0
40
0.638746828356575
40
0.638746828356575
40
1
40
1
40
1
40
1
41
1
10
12.1379011833033
20
4.29514800321888
30
0
41
1
10
12.0157236791304
20
4.22704633758093
30
0
41
1
10
11.8927330906365
20
4.15784006690942
30
0
41
1
10
11.7002530358132
20
4.04881555792085
30
0
41
1
10
11.6306087432776
20
4.00921513155501
30
0
41
1
10
11.5610318611876
20
3.96950494655113
30
0
0
SPLINE
5
26E
100
AcDbEntity
8
1
62
256
6
ByLayer
370
-1
48
1
60
0
100
AcDbSpline
70
4
71
3
72
22
73
18
40
0
40
0
40
0
40
0
40
0.153101873520345
40
0.153101873520345
40
0.442621285364904
40
0.442621285364904
40
0.707385074439675
40
0.707385074439675
40
0.843532608240159
40
0.843532608240159
40
0.926352665771228
40
0.926352665771228
40
0.963706736955253
40
0.963706736955253
40
0.977863955360661
40
0.977863955360661
40
1
40
1
40
1
40
1
41
1
10
15.2972434471237
20
9.88020187609601
30
0
41
1
10
15.2886808945089
20
9.86101968542931
30
0
41
1
10
15.2799280442386
20
9.84192518960649
30
0
41
1
10
15.2539381446064
20
9.78708376822175
30
0
41
1
10
15.2361187741944
20
9.75158751059124
30
0
41
1
10
15.1991686598748
20
9.68534133743478
30
0
41
1
10
15.1803674079051
20
9.65420636954292
30
0
41
1
10
15.1474637595473
20
9.61051427582984
30
0
41
1
10
15.1354593224181
20
9.59613333268157
30
0
41
1
10
15.1133989190819
20
9.57615631577983
30
0
41
1
10
15.1042742877118
20
9.56916294957145
30
0
41
1
10
15.0894740190079
20
9.56231661790409
30
0
41
1
10
15.084556402019
20
9.56065489732063
30
0
41
1
10
15.0775919808997
20
9.55958982416905
30
0
41
1
10
15.0756391904923
20
9.55942450544458
30
0
41
1
10
15.070651253402
20
9.55938893376398
30
0
41
1
10
15.0675813578204
20
9.55974229302464
30
0
41
1
10
15.0646252425392
20
9.56049002986057
30
0
0
SPLINE
5
26F
100
AcDbEntity
8
1
62
256
6
ByLayer
370
-1
48
1
60
0
100
AcDbSpline
70
4
71
3
72
8
73
4
40
0
40
0
40
0
40
0
40
1
40
1
40
1
40
1
41
1
10
8.39437887614218
20
11.0130448278163
30
0
41
1
10
8.39454782685405
20
11.0173113259316
30
0
41
1
10
8.3947167762559
20
11.0215779153031
30
0
41
1
10
8.39488572440945
20
11.0258445916272
30
0
0
SPLINE
5
270
100
AcDbEntity
8
1
62
256
6
ByLayer
370
-1
48
1
60
0
100
AcDbSpline
70
4
71
3
72
22
73
18
40
0
40
0
40
0
40
0
40
0.208266363442681
40
0.208266363442681
40
0.317899168105349
40
0.317899168105349
40
0.427584739861609
40
0.427584739861609
40
0.537377253732659
40
0.537377253732659
40
0.647402228730571
40
0.647402228730571
40
0.811583680501995
40
0.811583680501995
40
0.906636022131196
40
0.906636022131196
40
1
40
1
40
1
40
1
41
1
10
9.36462065114793
20
11.0831104880241
30
0
41
1
10
9.34581889883927
20
11.0842796100508
30
0
41
1
10
9.32546004228348
20
11.084784804169
30
0
41
1
10
9.29230549912506
20
11.0843741698793
30
0
41
1
10
9.28045261086558
20
11.0840140647792
30
0
41
1
10
9.25598624652238
20
11.082773042424
30
0
41
1
10
9.2433454180339
20
11.0818912677954
30
0
41
1
10
9.21730999385414
20
11.0794665537003
30
0
41
1
10
9.20387238772653
20
11.0779204039561
30
0
41
1
10
9.17628708016326
20
11.0739399033072
30
0
41
1
10
9.16206097412586
20
11.0714946186102
30
0
41
1
10
9.12624759604964
20
11.0639069548866
30
0
41
1
10
9.10374746384664
20
11.0578865794749
30
0
41
1
10
9.06994635434384
20
11.0451292528536
30
0
41
1
10
9.05765089116747
20
11.0396113333945
30
0
41
1
10
9.03582072036519
20
11.0274957726183
30
0
41
1
10
9.02599507052875
20
11.0207585829579
30
0
41
1
10
9.01805241586021
20
11.0138770272841
30
0
0
SPLINE
5
271
100
AcDbEntity
8
1
62
256
6
ByLayer
370
-1
48
1
60
0
100
AcDbSpline
70
4
71
3
72
20
73
16
40
0
40
0
40
0
40
0
40
0.0608143493770392
40
0.0608143493770392
40
0.214919318484272
40
0.214919318484272
40
0.368560674409102
40
0.368560674409102
40
0.521997076637526
40
0.521997076637526
40
0.675334771696832
40
0.675334771696832
40
0.983339870965562
40
0.983339870965562
40
1
40
1
40
1
40
1
41
1
10
9.48403500022445
20
11.0394242537165
30
0
41
1
10
9.48405863251253
20
11.0413357145593
30
0
41
1
10
9.48382178957942
20
11.0431394366322
30
0
41
1
10
9.48218521621362
20
11.0491776255557
30
0
41
1
10
9.47955834208639
20
11.0529257468127
30
0
41
1
10
9.47228401302627
20
11.0595078302389
30
0
41
1
10
9.46761730015368
20
11.0623636216988
30
0
41
1
10
9.45676639429539
20
11.0674056944698
30
0
41
1
10
9.45056250482301
20
11.0696005366155
30
0
41
1
10
9.43693802515091
20
11.0734664207979
30
0
41
1
10
9.42950070200098
20
11.0751415927103
30
0
41
1
10
9.40560979680939
20
11.0795170081675
30
0
41
1
10
9.38753808169653
20
11.0815837656647
30
0
41
1
10
9.36677219030179
20
11.0829741526945
30
0
41
1
10
9.36569890829472
20
11.0830434403277
30
0
41
1
10
9.36462065114793
20
11.0831104880241
30
0
0
SPLINE
5
272
100
AcDbEntity
8
1
62
256
6
ByLayer
370
-1
48
1
60
0
100
AcDbSpline
70
4
71
3
72
8
73
4
40
0
40
0
40
0
40
0
40
1
40
1
40
1
40
1
41
1
10
9.0180524158595
20
11.0138770272819
30
0
41
1
10
9.01380861426978
20
11.0096886062166
30
0
41
1
10
9.00956478044137
20
11.005500272699
30
0
41
1
10
9.00532091278183
20
11.0013120310622
30
0
0
SPLINE
5
273
100
AcDbEntity
8
1
62
256
6
ByLayer
370
-1
48
1
60
0
100
AcDbSpline
70
4
71
3
72
14
73
10
40
0
40
0
40
0
40
0
40
0.44743172420989
40
0.44743172420989
40
0.682962772091724
40
0.682962772091724
40
0.91860718283877
40
0.91860718283877
40
1
40
1
40
1
40
1
41
1
10
6.96000975288601
20
11.0618444664634
30
0
41
1
10
6.95000243734845
20
11.0604205613204
30
0
41
1
10
6.94180986263618
20
11.0583548968477
30
0
41
1
10
6.93249667210998
20
11.0541186421149
30
0
41
1
10
6.92985925048117
20
11.0524528877844
30
0
41
1
10
6.92590409642233
20
11.0486502283477
30
0
41
1
10
6.92458156053647
20
11.0465095678252
30
0
41
1
10
6.9238522374165
20
11.0432343505462
30
0
41
1
10
6.92375774007877
20
11.042357895727
30
0
41
1
10
6.92376378234221
20
11.0414420362039
30
0
0
SPLINE
5
274
100
AcDbEntity
8
1
62
256
6
ByLayer
370
-1
48
1
60
0
100
AcDbSpline
70
4
71
3
72
8
73
4
40
0
40
0
40
0
40
0
40
1
40
1
40
1
40
1
41
1
10
7.74611584881447
20
11.0201069672271
30
0
41
1
10
7.74859665420186
20
11.0158637249298
30
0
41
1
10
7.75107747849304
20
11.0116205697631
30
0
41
1
10
7.7535583226217
20
11.0073775060398
30
0
0
SPLINE
5
275
100
AcDbEntity
8
1
62
256
6
ByLayer
370
-1
48
1
60
0
100
AcDbSpline
70
4
71
3
72
10
73
6
40
0
40
0
40
0
40
0
40
0.771870081640021
40
0.771870081640021
40
1
40
1
40
1
40
1
41
1
10
9.0053209127818
20
11.0013120310622
30
0
41
1
10
8.99755393889583
20
10.9936468619215
30
0
41
1
10
8.98778153569094
20
10.9860719533659
30
0
41
1
10
8.97390500006006
20
10.9769124318639
30
0
41
1
10
8.97065541816278
20
10.9748623424653
30
0
41
1
10
8.96732333372361
20
10.9728461919838
30
0
0
SPLINE
5
276
100
AcDbEntity
8
1
62
256
6
ByLayer
370
-1
48
1
60
0
100
AcDbSpline
70
4
71
3
72
12
73
8
40
0
40
0
40
0
40
0
40
0.120685773105999
40
0.120685773105999
40
0.824973064444306
40
0.824973064444306
40
1
40
1
40
1
40
1
41
1
10
8.42123307543005
20
10.9643751519172
30
0
41
1
10
8.41926803092719
20
10.9661110660547
30
0
41
1
10
8.41738229837247
20
10.967877693724
30
0
41
1
10
8.40520665188458
20
10.9800384185359
30
0
41
1
10
8.3974902708467
20
10.9917038015943
30
0
41
1
10
8.39451728902046
20
11.0068437600706
30
0
41
1
10
8.39425601758674
20
11.0099422910502
30
0
41
1
10
8.39437887614213
20
11.0130448278163
30
0
0
SPLINE
5
277
100
AcDbEntity
8
1
62
256
6
ByLayer
370
-1
48
1
60
0
100
AcDbSpline
70
4
71
3
72
10
73
6
40
0
40
0
40
0
40
0
40
0.870848930808422
40
0.870848930808422
40
1
40
1
40
1
40
1
41
1
10
7.75355832262167
20
11.0073775060398
30
0
41
1
10
7.75809867427927
20
10.9996120034889
30
0
41
1
10
7.76038932388687
20
10.9918093037482
30
0
41
1
10
7.7609782414134
20
10.9833319045738
30
0
41
1
10
7.76101650421106
20
10.9822478395724
30
0
41
1
10
7.7610187581607
20
10.9811702645098
30
0
0
SPLINE
5
278
100
AcDbEntity
8
1
62
256
6
ByLayer
370
-1
48
1
60
0
100
AcDbSpline
70
4
71
3
72
24
73
20
40
0
40
0
40
0
40
0
40
0.104000448201677
40
0.104000448201677
40
0.192499055460872
40
0.192499055460872
40
0.32850051874649
40
0.32850051874649
40
0.438682575665086
40
0.438682575665086
40
0.548533158171515
40
0.548533158171515
40
0.658237202769567
40
0.658237202769567
40
0.767870673660679
40
0.767870673660679
40
0.988088331633992
40
0.988088331633992
40
1
40
1
40
1
40
1
41
1
10
7.23805744678214
20
10.9981350162073
30
0
41
1
10
7.22672227398442
20
11.0055771769354
30
0
41
1
10
7.21380015456006
20
11.0128138120924
30
0
41
1
10
7.18956665792336
20
11.0244544742474
30
0
41
1
10
7.17803001462303
20
11.029271586984
30
0
41
1
10
7.14984913724933
20
11.0397141450243
30
0
41
1
10
7.13327756274643
20
11.0446259001056
30
0
41
1
10
7.1056298574878
20
11.0515682403223
30
0
41
1
10
7.09387777173387
20
11.0540261139337
30
0
41
1
10
7.07184637170027
20
11.0579774282769
30
0
41
1
10
7.06149307420739
20
11.0594843303922
30
0
41
1
10
7.0420598540112
20
11.0618058588421
30
0
41
1
10
7.0329440432923
20
11.0626240528056
30
0
41
1
10
7.01585629864095
20
11.0637293989098
30
0
41
1
10
7.00786386827284
20
11.0640173344973
30
0
41
1
10
6.98545353417165
20
11.0642290364377
30
0
41
1
10
6.97255720902606
20
11.0635097088376
30
0
41
1
10
6.96116368372455
20
11.0620056442675
30
0
41
1
10
6.96058366000497
20
11.0619261256551
30
0
41
1
10
6.96000975288601
20
11.0618444664634
30
0
0
SPLINE
5
279
100
AcDbEntity
8
1
62
256
6
ByLayer
370
-1
48
1
60
0
100
AcDbSpline
70
4
71
3
72
22
73
18
40
0
40
0
40
0
40
0
40
0.20826636344172
40
0.20826636344172
40
0.31789916810449
40
0.31789916810449
40
0.427584739860905
40
0.427584739860905
40
0.537377253732055
40
0.537377253732055
40
0.647402228730044
40
0.647402228730044
40
0.811583680501808
40
0.811583680501808
40
0.906636022131102
40
0.906636022131102
40
1
40
1
40
1
40
1
41
1
10
8.03997410084713
20
11.1085495768634
30
0
41
1
10
8.01116503300108
20
11.1082947937472
30
0
41
1
10
7.98261378616237
20
11.1073365982128
30
0
41
1
10
7.94014665654501
20
11.1046623592948
30
0
41
1
10
7.92565661522559
20
11.1035135420745
30
0
41
1
10
7.89723577626879
20
11.1006886663788
30
0
41
1
10
7.88327282337511
20
11.0990099685072
30
0
41
1
10
7.85615381557642
20
11.0949925345453
30
0
41
1
10
7.84295273742018
20
11.0926479503873
30
0
41
1
10
7.81778134101788
20
11.0870856077735
30
0
41
1
10
7.80574133802881
20
11.0838524746573
30
0
41
1
10
7.7784610658197
20
11.0743713518376
30
0
41
1
10
7.76400140289846
20
11.0672408995026
30
0
41
1
10
7.74901567544296
20
11.0530158508252
30
0
41
1
10
7.74514330219174
20
11.0470108856894
30
0
41
1
10
7.74220490968509
20
11.0341474214894
30
0
41
1
10
7.74305554018676
20
11.0271380951225
30
0
41
1
10
7.74611584881424
20
11.0201069672294
30
0
0
SPLINE
5
27A
100
AcDbEntity
8
1
62
256
6
ByLayer
370
-1
48
1
60
0
100
AcDbSpline
70
4
71
3
72
24
73
20
40
0
40
0
40
0
40
0
40
0.104000448201593
40
0.104000448201593
40
0.192499055460653
40
0.192499055460653
40
0.328500518746125
40
0.328500518746125
40
0.438682575664588
40
0.438682575664588
40
0.548533158170887
40
0.548533158170887
40
0.658237202768844
40
0.658237202768844
40
0.767870673659835
40
0.767870673659835
40
0.988088331632963
40
0.988088331632963
40
1
40
1
40
1
40
1
41
1
10
8.39488572440942
20
11.0258445916272
30
0
41
1
10
8.39393414981416
20
11.0336519632102
30
0
41
1
10
8.39002483820238
20
11.0413904368344
30
0
41
1
10
8.37812227815741
20
11.0541105934709
30
0
41
1
10
8.37073014667814
20
11.0594938518796
30
0
41
1
10
8.34925574352056
20
11.0714227980463
30
0
41
1
10
8.33343276545213
20
11.0773053318741
30
0
41
1
10
8.30316539834098
20
11.0859844113501
30
0
41
1
10
8.28878553080395
20
11.0892263522296
30
0
41
1
10
8.25947825802561
20
11.0947186713009
30
0
41
1
10
8.24445760648339
20
11.0969875291646
30
0
41
1
10
8.21417239378374
20
11.1008025662744
30
0
41
1
10
8.19885224634385
20
11.1023550608815
30
0
41
1
10
8.16813927820144
20
11.1048972653372
30
0
41
1
10
8.1527092273798
20
11.1058894939304
30
0
41
1
10
8.10640728112176
20
11.1081679355797
30
0
41
1
10
8.07543901225617
20
11.1087688225994
30
0
41
1
10
8.04327957145961
20
11.1085764432042
30
0
41
1
10
8.04162626511302
20
11.1085641883587
30
0
41
1
10
8.03997410084713
20
11.1085495768634
30
0
0
LINE
5
49
100
AcDbEntity
8
1
62
256
6
ByLayer
370
-1
48
1
60
0
100
AcDbLine
10
7.761014
20
10.968613
30
0
11
7.761018
21
10.981399
31
0
39
0
210
0
220
0
230
1
0
LINE
5
4B
100
AcDbEntity
8
1
62
256
6
ByLayer
370
-1
48
1
60
0
100
AcDbLine
10
15.053321
20
8.876107
30
0
11
14.838275
21
8.853051
31
0
39
0
210
0
220
0
230
1
0
LINE
5
4C
100
AcDbEntity
8
1
62
256
6
ByLayer
370
-1
48
1
60
0
100
AcDbLine
10
15.419255
20
3.434107
30
0
11
15.634301
21
3.457162
31
0
39
0
210
0
220
0
230
1
0
LINE
5
4D
100
AcDbEntity
8
1
62
256
6
ByLayer
370
-1
48
1
60
0
100
AcDbLine
10
14.375558
20
5.137383
30
0
11
14.128246
21
5.110868
31
0
39
0
210
0
220
0
230
1
0
LINE
5
4E
100
AcDbEntity
8
1
62
256
6
ByLayer
370
-1
48
1
60
0
100
AcDbLine
10
14.191719
20
7.166651
30
0
11
14.434163
21
7.192644
31
0
39
0
210
0
220
0
230
1
0
LINE
5
4F
100
AcDbEntity
8
1
62
256
6
ByLayer
370
-1
48
1
60
0
100
AcDbLine
10
16.213129
20
5.136301
30
0
11
15.970321
21
5.110269
31
0
39
0
210
0
220
0
230
1
0
LINE
5
50
100
AcDbEntity
8
1
62
256
6
ByLayer
370
-1
48
1
60
0
100
AcDbLine
10
16.033794
20
7.166052
30
0
11
16.281016
21
7.192558
31
0
39
0
210
0
220
0
230
1
0
LINE
5
51
100
AcDbEntity
8
1
62
256
6
ByLayer
370
-1
48
1
60
0
100
AcDbLine
10
8.71705
20
10.276433
30
0
11
8.028317
21
10.208253
31
0
39
0
210
0
220
0
230
1
0
LINE
5
52
100
AcDbEntity
8
1
62
256
6
ByLayer
370
-1
48
1
60
0
100
AcDbLine
10
12.392792
20
10.918088
30
0
11
11.637534
21
10.843323
31
0
39
0
210
0
220
0
230
1
0
LINE
5
53
100
AcDbEntity
8
1
62
256
6
ByLayer
370
-1
48
1
60
0
100
AcDbLine
10
10.462446
20
10.471293
30
0
11
9.795972
21
10.405317
31
0
39
0
210
0
220
0
230
1
0
LINE
5
54
100
AcDbEntity
8
1
62
256
6
ByLayer
370
-1
48
1
60
0
100
AcDbLine
10
14.520229
20
-1.805258
30
0
11
15.208368
21
-1.737137
31
0
39
0
210
0
220
0
230
1
0
LINE
5
55
100
AcDbEntity
8
1
62
256
6
ByLayer
370
-1
48
1
60
0
100
AcDbLine
10
13.954611
20
-0.644153
30
0
11
14.620699
21
-0.578215
31
0
39
0
210
0
220
0
230
1
0
LINE
5
56
100
AcDbEntity
8
80
62
256
6
ByLayer
370
-1
48
1
60
0
100
AcDbLine
10
0
20
0
30
0
11
-5
21
0
31
0
39
0
210
0
220
0
230
1
0
LINE
5
57
100
AcDbEntity
8
81
62
256
6
ByLayer
370
-1
48
1
60
0
100
AcDbLine
10
23.355801
20
10.9125
30
0
11
28.355801
21
10.9125
31
0
39
0
210
0
220
0
230
1
0
LINE
5
58
100
AcDbEntity
8
1
62
256
6
ByLayer
370
-1
48
1
60
0
100
AcDbLine
10
7.221593
20
10.345356
30
0
11
7.044683
21
10.365407
31
0
39
0
210
0
220
0
230
1
0
LINE
5
59
100
AcDbEntity
8
1
62
256
6
ByLayer
370
-1
48
1
60
0
100
AcDbLine
10
12.043437
20
1.071923
30
0
11
12.038104
21
1.07195
31
0
39
0
210
0
220
0
230
1
0
LINE
5
5A
100
AcDbEntity
8
1
62
256
6
ByLayer
370
-1
48
1
60
0
100
AcDbLine
10
3.416817
20
10.365407
30
0
11
3.718325
21
-9.953724
31
0
39
0
210
0
220
0
230
1
0
LINE
5
5B
100
AcDbEntity
8
1
62
256
6
ByLayer
370
-1
48
1
60
0
100
AcDbLine
10
0
20
-9.9375
30
0
11
3.718325
21
-9.953724
31
0
39
0
210
0
220
0
230
1
0
LINE
5
5C
100
AcDbEntity
8
1
62
256
6
ByLayer
370
-1
48
1
60
0
100
AcDbLine
10
11.914872
20
1.852769
30
0
11
7.044683
21
10.365407
31
0
39
0
210
0
220
0
230
1
0
LINE
5
5D
100
AcDbEntity
8
1
62
256
6
ByLayer
370
-1
48
1
60
0
100
AcDbLine
10
3.416817
20
10.365407
30
0
11
7.044683
21
10.365407
31
0
39
0
210
0
220
0
230
1
0
LINE
5
5E
100
AcDbEntity
8
1
62
256
6
ByLayer
370
-1
48
1
60
0
100
AcDbLine
10
0
20
-9.9375
30
0
11
0
21
9.9375
31
0
39
0
210
0
220
0
230
1
0
LINE
5
5F
100
AcDbEntity
8
1
62
256
6
ByLayer
370
-1
48
1
60
0
100
AcDbLine
10
3.718325
20
-9.953724
30
0
11
4.923089
21
-9.952797
31
0
39
0
210
0
220
0
230
1
0
LINE
5
60
100
AcDbEntity
8
1
62
256
6
ByLayer
370
-1
48
1
60
0
100
AcDbLine
10
11.841552
20
1.77811
30
0
11
11.914872
21
1.852769
31
0
39
0
210
0
220
0
230
1
0
LINE
5
61
100
AcDbEntity
8
1
62
256
6
ByLayer
370
-1
48
1
60
0
100
AcDbLine
10
14.865383
20
-3.304451
30
0
11
14.06219
21
-1.900544
31
0
39
0
210
0
220
0
230
1
0
LINE
5
62
100
AcDbEntity
8
1
62
256
6
ByLayer
370
-1
48
1
60
0
100
AcDbLine
10
3.416817
20
10.365407
30
0
11
0.367178
21
10.304678
31
0
39
0
210
0
220
0
230
1
0
LINE
5
63
100
AcDbEntity
8
1
62
256
6
ByLayer
370
-1
48
1
60
0
100
AcDbLine
10
14.132738
20
-1.738958
30
0
11
14.979321
21
-3.21923
31
0
39
0
210
0
220
0
230
1
0
LINE
5
64
100
AcDbEntity
8
1
62
256
6
ByLayer
370
-1
48
1
60
0
100
AcDbLine
10
15.234801
20
-1.732581
30
0
11
14.68511
21
-2.704719
31
0
39
0
210
0
220
0
230
1
0
LINE
5
65
100
AcDbEntity
8
1
62
256
6
ByLayer
370
-1
48
1
60
0
100
AcDbLine
10
7.221593
20
10.345356
30
0
11
11.923878
21
2.12329
31
0
39
0
210
0
220
0
230
1
0
LINE
5
66
100
AcDbEntity
8
1
62
256
6
ByLayer
370
-1
48
1
60
0
100
AcDbLine
10
14.979321
20
-3.21923
30
0
11
14.97971
21
-3.228002
31
0
39
0
210
0
220
0
230
1
0
LINE
5
67
100
AcDbEntity
8
1
62
256
6
ByLayer
370
-1
48
1
60
0
100
AcDbLine
10
4.923089
20
-9.952797
30
0
11
14.865383
21
-3.304451
31
0
39
0
210
0
220
0
230
1
0
LINE
5
68
100
AcDbEntity
8
1
62
256
6
ByLayer
370
-1
48
1
60
0
100
AcDbLine
10
14.865383
20
-3.304451
30
0
11
14.97971
21
-3.228002
31
0
39
0
210
0
220
0
230
1
0
LINE
5
69
100
AcDbEntity
8
1
62
256
6
ByLayer
370
-1
48
1
60
0
100
AcDbLine
10
11.914872
20
1.852769
30
0
11
11.923878
21
2.12329
31
0
39
0
210
0
220
0
230
1
0
LINE
5
6A
100
AcDbEntity
8
1
62
256
6
ByLayer
370
-1
48
1
60
0
100
AcDbLine
10
0.367178
20
10.304678
30
0
11
0
21
9.9375
31
0
39
0
210
0
220
0
230
1
0
LINE
5
6B
100
AcDbEntity
8
1
62
256
6
ByLayer
370
-1
48
1
60
0
100
AcDbLine
10
15.469113
20
4.686335
30
0
11
15.725246
21
4.713795
31
0
39
0
210
0
220
0
230
1
0
LINE
5
6C
100
AcDbEntity
8
1
62
256
6
ByLayer
370
-1
48
1
60
0
100
AcDbLine
10
15.473258
20
4.666338
30
0
11
15.731435
21
4.694018
31
0
39
0
210
0
220
0
230
1
0
LINE
5
6D
100
AcDbEntity
8
1
62
256
6
ByLayer
370
-1
48
1
60
0
100
AcDbLine
10
15.469113
20
4.686335
30
0
11
15.473258
21
4.666338
31
0
39
0
210
0
220
0
230
1
0
LINE
5
6E
100
AcDbEntity
8
1
62
256
6
ByLayer
370
-1
48
1
60
0
100
AcDbLine
10
16.529225
20
6.533837
30
0
11
16.787402
21
6.561516
31
0
39
0
210
0
220
0
230
1
0
LINE
5
6F
100
AcDbEntity
8
1
62
256
6
ByLayer
370
-1
48
1
60
0
100
AcDbLine
10
16.529225
20
6.533837
30
0
11
16.510149
21
6.527426
31
0
39
0
210
0
220
0
230
1
0
LINE
5
70
100
AcDbEntity
8
1
62
256
6
ByLayer
370
-1
48
1
60
0
100
AcDbLine
10
14.115304
20
7.225902
30
0
11
14.273711
21
7.242885
31
0
39
0
210
0
220
0
230
1
0
LINE
5
71
100
AcDbEntity
8
1
62
256
6
ByLayer
370
-1
48
1
60
0
100
AcDbLine
10
16.512663
20
5.749494
30
0
11
16.531782
21
5.743084
31
0
39
0
210
0
220
0
230
1
0
LINE
5
72
100
AcDbEntity
8
1
62
256
6
ByLayer
370
-1
48
1
60
0
100
AcDbLine
10
15.459724
20
7.590585
30
0
11
15.715856
21
7.618046
31
0
39
0
210
0
220
0
230
1
0
LINE
5
73
100
AcDbEntity
8
1
62
256
6
ByLayer
370
-1
48
1
60
0
100
AcDbLine
10
16.510149
20
6.527426
30
0
11
16.766281
21
6.554887
31
0
39
0
210
0
220
0
230
1
0
LINE
5
74
100
AcDbEntity
8
1
62
256
6
ByLayer
370
-1
48
1
60
0
100
AcDbLine
10
14.090483
20
7.20804
30
0
11
14.286728
21
7.22908
31
0
39
0
210
0
220
0
230
1
0
LINE
5
75
100
AcDbEntity
8
1
62
256
6
ByLayer
370
-1
48
1
60
0
100
AcDbLine
10
16.531782
20
5.743084
30
0
11
16.789958
21
5.770763
31
0
39
0
210
0
220
0
230
1
0
LINE
5
76
100
AcDbEntity
8
1
62
256
6
ByLayer
370
-1
48
1
60
0
100
AcDbLine
10
14.184422
20
5.079075
30
0
11
14.280673
21
5.089394
31
0
39
0
210
0
220
0
230
1
0
LINE
5
77
100
AcDbEntity
8
1
62
256
6
ByLayer
370
-1
48
1
60
0
100
AcDbLine
10
16.512663
20
5.749494
30
0
11
16.768796
21
5.776955
31
0
39
0
210
0
220
0
230
1
0
LINE
5
78
100
AcDbEntity
8
1
62
256
6
ByLayer
370
-1
48
1
60
0
100
AcDbLine
10
15.46374
20
7.610582
30
0
11
15.721916
21
7.638262
31
0
39
0
210
0
220
0
230
1
0
LINE
5
79
100
AcDbEntity
8
1
62
256
6
ByLayer
370
-1
48
1
60
0
100
AcDbLine
10
15.46374
20
7.610582
30
0
11
15.459724
21
7.590585
31
0
39
0
210
0
220
0
230
1
0
LINE
5
7A
100
AcDbEntity
8
1
62
256
6
ByLayer
370
-1
48
1
60
0
100
AcDbLine
10
14.162875
20
5.088746
30
0
11
14.293602
21
5.102761
31
0
39
0
210
0
220
0
230
1
0
LINE
5
7B
100
AcDbEntity
8
1
62
256
6
ByLayer
370
-1
48
1
60
0
100
AcDbLine
10
11.419355
20
1.027434
30
0
11
12.323793
21
-0.554
31
0
39
0
210
0
220
0
230
1
0
LINE
5
7C
100
AcDbEntity
8
1
62
256
6
ByLayer
370
-1
48
1
60
0
100
AcDbLine
10
13.752763
20
-0.554
30
0
11
12.323793
21
-0.554
31
0
39
0
210
0
220
0
230
1
0
LINE
5
7D
100
AcDbEntity
8
1
62
256
6
ByLayer
370
-1
48
1
60
0
100
AcDbLine
10
12.036751
20
1.08399
30
0
11
12.878218
21
-0.390084
31
0
39
0
210
0
220
0
230
1
0
LINE
5
7E
100
AcDbEntity
8
1
62
256
6
ByLayer
370
-1
48
1
60
0
100
AcDbLine
10
12.878218
20
-0.390084
30
0
11
13.472651
21
-0.390084
31
0
39
0
210
0
220
0
230
1
0
LINE
5
7F
100
AcDbEntity
8
1
62
256
6
ByLayer
370
-1
48
1
60
0
100
AcDbLine
10
9.702448
20
9.863665
30
0
11
9.510912
21
9.844705
31
0
39
0
210
0
220
0
230
1
0
LINE
5
80
100
AcDbEntity
8
1
62
256
6
ByLayer
370
-1
48
1
60
0
100
AcDbLine
10
11.7382
20
2.935854
30
0
11
12.246126
21
3.208957
31
0
39
0
210
0
220
0
230
1
0
LINE
5
81
100
AcDbEntity
8
1
62
256
6
ByLayer
370
-1
48
1
60
0
100
AcDbLine
10
9.838232
20
10.118046
30
0
11
9.171402
21
10.052035
31
0
39
0
210
0
220
0
230
1
0
LINE
5
82
100
AcDbEntity
8
1
62
256
6
ByLayer
370
-1
48
1
60
0
100
AcDbLine
10
16.574399
20
-0.946702
30
0
11
15.284645
21
-1.712138
31
0
39
0
210
0
220
0
230
1
0
LINE
5
83
100
AcDbEntity
8
1
62
256
6
ByLayer
370
-1
48
1
60
0
100
AcDbLine
10
9.53917
20
9.256655
30
0
11
9.329043
21
8.890436
31
0
39
0
210
0
220
0
230
1
0
LINE
5
84
100
AcDbEntity
8
1
62
256
6
ByLayer
370
-1
48
1
60
0
100
AcDbLine
10
13.969921
20
-0.22486
30
0
11
13.303091
21
-0.290871
31
0
39
0
210
0
220
0
230
1
0
LINE
5
85
100
AcDbEntity
8
1
62
256
6
ByLayer
370
-1
48
1
60
0
100
AcDbLine
10
9.767264
20
9.964136
30
0
11
9.375911
21
9.925395
31
0
39
0
210
0
220
0
230
1
0
LINE
5
86
100
AcDbEntity
8
1
62
256
6
ByLayer
370
-1
48
1
60
0
100
AcDbLine
10
20.563009
20
10.880669
30
0
11
21.92946
21
10.097289
31
0
39
0
210
0
220
0
230
1
0
LINE
5
87
100
AcDbEntity
8
1
62
256
6
ByLayer
370
-1
48
1
60
0
100
AcDbLine
10
18.959891
20
10.908317
30
0
11
18.676177
21
10.917769
31
0
39
0
210
0
220
0
230
1
0
LINE
5
88
100
AcDbEntity
8
1
62
256
6
ByLayer
370
-1
48
1
60
0
100
AcDbLine
10
21.784573
20
10.06465
30
0
11
21.689456
21
10.008775
31
0
39
0
210
0
220
0
230
1
0
LINE
5
89
100
AcDbEntity
8
1
62
256
6
ByLayer
370
-1
48
1
60
0
100
AcDbLine
10
9.06686
20
7.358595
30
0
11
8.843639
21
7.749081
31
0
39
0
210
0
220
0
230
1
0
LINE
5
8A
100
AcDbEntity
8
1
62
256
6
ByLayer
370
-1
48
1
60
0
100
AcDbLine
10
16.991009
20
-0.223221
30
0
11
16.374425
21
0.137571
31
0
39
0
210
0
220
0
230
1
0
LINE
5
8B
100
AcDbEntity
8
1
62
256
6
ByLayer
370
-1
48
1
60
0
100
AcDbLine
10
15.777225
20
10.91841
30
0
11
15.557751
21
10.915809
31
0
39
0
210
0
220
0
230
1
0
LINE
5
8C
100
AcDbEntity
8
1
62
256
6
ByLayer
370
-1
48
1
60
0
100
AcDbLine
10
11.007547
20
4.202411
30
0
11
11.078374
21
4.029942
31
0
39
0
210
0
220
0
230
1
0
LINE
5
8D
100
AcDbEntity
8
1
62
256
6
ByLayer
370
-1
48
1
60
0
100
AcDbLine
10
16.227706
20
-0.588673
30
0
11
16.015397
21
-0.223743
31
0
39
0
210
0
220
0
230
1
0
LINE
5
8E
100
AcDbEntity
8
1
62
256
6
ByLayer
370
-1
48
1
60
0
100
AcDbLine
10
10.736778
20
10.335115
30
0
11
11.558239
21
10.817475
31
0
39
0
210
0
220
0
230
1
0
LINE
5
8F
100
AcDbEntity
8
1
62
256
6
ByLayer
370
-1
48
1
60
0
100
AcDbLine
10
13.903611
20
-0.113353
30
0
11
13.238747
21
-0.179169
31
0
39
0
210
0
220
0
230
1
0
LINE
5
90
100
AcDbEntity
8
1
62
256
6
ByLayer
370
-1
48
1
60
0
100
AcDbLine
10
9.171402
20
10.052035
30
0
11
9.167743
21
10.049802
31
0
39
0
210
0
220
0
230
1
0
LINE
5
91
100
AcDbEntity
8
1
62
256
6
ByLayer
370
-1
48
1
60
0
100
AcDbLine
10
21.225885
20
8.10345
30
0
11
21.009201
21
7.977502
31
0
39
0
210
0
220
0
230
1
0
LINE
5
92
100
AcDbEntity
8
1
62
256
6
ByLayer
370
-1
48
1
60
0
100
AcDbLine
10
20.703218
20
9.446482
30
0
11
21.330571
21
9.811133
31
0
39
0
210
0
220
0
230
1
0
LINE
5
93
100
AcDbEntity
8
1
62
256
6
ByLayer
370
-1
48
1
60
0
100
AcDbLine
10
20.646494
20
9.543707
30
0
11
20.429419
21
9.905838
31
0
39
0
210
0
220
0
230
1
0
LINE
5
94
100
AcDbEntity
8
1
62
256
6
ByLayer
370
-1
48
1
60
0
100
AcDbLine
10
21.132543
20
9.188956
30
0
11
21.132715
21
9.13117
31
0
39
0
210
0
220
0
230
1
0
LINE
5
95
100
AcDbEntity
8
1
62
256
6
ByLayer
370
-1
48
1
60
0
100
AcDbLine
10
14.544958
20
-0.561341
30
0
11
13.878128
21
-0.627352
31
0
39
0
210
0
220
0
230
1
0
LINE
5
96
100
AcDbEntity
8
1
62
256
6
ByLayer
370
-1
48
1
60
0
100
AcDbLine
10
13.169744
20
0.421038
30
0
11
12.025522
21
1.090576
31
0
39
0
210
0
220
0
230
1
0
LINE
5
97
100
AcDbEntity
8
1
62
256
6
ByLayer
370
-1
48
1
60
0
100
AcDbLine
10
8.857808
20
10.006421
30
0
11
8.869979
21
10.110831
31
0
39
0
210
0
220
0
230
1
0
LINE
5
98
100
AcDbEntity
8
1
62
256
6
ByLayer
370
-1
48
1
60
0
100
AcDbLine
10
15.309901
20
-1.470166
30
0
11
15.455714
21
-1.175645
31
0
39
0
210
0
220
0
230
1
0
LINE
5
99
100
AcDbEntity
8
1
62
256
6
ByLayer
370
-1
48
1
60
0
100
AcDbLine
10
21.273847
20
9.908359
30
0
11
20.646494
21
9.543707
31
0
39
0
210
0
220
0
230
1
0
LINE
5
9A
100
AcDbEntity
8
1
62
256
6
ByLayer
370
-1
48
1
60
0
100
AcDbLine
10
15.061671
20
-1.420099
30
0
11
15.022994
21
-0.347163
31
0
39
0
210
0
220
0
230
1
0
LINE
5
9B
100
AcDbEntity
8
1
62
256
6
ByLayer
370
-1
48
1
60
0
100
AcDbLine
10
21.690039
20
9.813313
30
0
11
21.785485
21
9.759181
31
0
39
0
210
0
220
0
230
1
0
LINE
5
9C
100
AcDbEntity
8
1
62
256
6
ByLayer
370
-1
48
1
60
0
100
AcDbLine
10
15.777225
20
10.91841
30
0
11
15.382013
21
10.085667
31
0
39
0
210
0
220
0
230
1
0
LINE
5
9D
100
AcDbEntity
8
1
62
256
6
ByLayer
370
-1
48
1
60
0
100
AcDbLine
10
15.455714
20
-1.175645
30
0
11
16.049899
21
-0.823013
31
0
39
0
210
0
220
0
230
1
0
LINE
5
9E
100
AcDbEntity
8
1
62
256
6
ByLayer
370
-1
48
1
60
0
100
AcDbLine
10
19.723044
20
4.421851
30
0
11
19.802624
21
4.531595
31
0
39
0
210
0
220
0
230
1
0
LINE
5
9F
100
AcDbEntity
8
1
62
256
6
ByLayer
370
-1
48
1
60
0
100
AcDbLine
10
21.009201
20
7.977502
30
0
11
19.754054
21
10.184126
31
0
39
0
210
0
220
0
230
1
0
LINE
5
A0
100
AcDbEntity
8
1
62
256
6
ByLayer
370
-1
48
1
60
0
100
AcDbLine
10
15.39263
20
-1.082155
30
0
11
15.36684
21
-0.366746
31
0
39
0
210
0
220
0
230
1
0
LINE
5
A1
100
AcDbEntity
8
1
62
256
6
ByLayer
370
-1
48
1
60
0
100
AcDbLine
10
20.777853
20
7.747147
30
0
11
20.827168
21
7.439746
31
0
39
0
210
0
220
0
230
1
0
LINE
5
A2
100
AcDbEntity
8
1
62
256
6
ByLayer
370
-1
48
1
60
0
100
AcDbLine
10
15.32269
20
-1.572833
30
0
11
15.309901
21
-1.470166
31
0
39
0
210
0
220
0
230
1
0
LINE
5
A3
100
AcDbEntity
8
1
62
256
6
ByLayer
370
-1
48
1
60
0
100
AcDbLine
10
13.894704
20
0.133744
30
0
11
16.348051
21
0.089538
31
0
39
0
210
0
220
0
230
1
0
LINE
5
A4
100
AcDbEntity
8
1
62
256
6
ByLayer
370
-1
48
1
60
0
100
AcDbLine
10
19.754054
20
10.184126
30
0
11
19.7519
21
10.905709
31
0
39
0
210
0
220
0
230
1
0
LINE
5
A5
100
AcDbEntity
8
1
62
256
6
ByLayer
370
-1
48
1
60
0
100
AcDbLine
10
8.46946
20
8.505031
30
0
11
8.516144
21
10.06606
31
0
39
0
210
0
220
0
230
1
0
LINE
5
A6
100
AcDbEntity
8
1
62
256
6
ByLayer
370
-1
48
1
60
0
100
AcDbLine
10
9.254655
20
7.080343
30
0
11
9.540734
21
6.756383
31
0
39
0
210
0
220
0
230
1
0
LINE
5
A7
100
AcDbEntity
8
1
62
256
6
ByLayer
370
-1
48
1
60
0
100
AcDbLine
10
21.288784
20
8.888738
30
0
11
21.290793
21
8.215776
31
0
39
0
210
0
220
0
230
1
0
LINE
5
A8
100
AcDbEntity
8
1
62
256
6
ByLayer
370
-1
48
1
60
0
100
AcDbLine
10
10.742537
20
10.33167
30
0
11
9.431407
21
8.158072
31
0
39
0
210
0
220
0
230
1
0
LINE
5
A9
100
AcDbEntity
8
1
62
256
6
ByLayer
370
-1
48
1
60
0
100
AcDbLine
10
19.612039
20
4.248411
30
0
11
18.766508
21
5.115976
31
0
39
0
210
0
220
0
230
1
0
LINE
5
AA
100
AcDbEntity
8
1
62
256
6
ByLayer
370
-1
48
1
60
0
100
AcDbLine
10
15.262905
20
-0.362506
30
0
11
15.288695
21
-1.077915
31
0
39
0
210
0
220
0
230
1
0
LINE
5
AB
100
AcDbEntity
8
1
62
256
6
ByLayer
370
-1
48
1
60
0
100
AcDbLine
10
9.431407
20
8.158072
30
0
11
8.816978
21
7.797281
31
0
39
0
210
0
220
0
230
1
0
LINE
5
AC
100
AcDbEntity
8
1
62
256
6
ByLayer
370
-1
48
1
60
0
100
AcDbLine
10
20.827168
20
7.439746
30
0
11
18.676177
21
10.917769
31
0
39
0
210
0
220
0
230
1
0
LINE
5
AD
100
AcDbEntity
8
1
62
256
6
ByLayer
370
-1
48
1
60
0
100
AcDbLine
10
7.927852
20
10.169975
30
0
11
7.949022
21
10.182406
31
0
39
0
210
0
220
0
230
1
0
LINE
5
AE
100
AcDbEntity
8
1
62
256
6
ByLayer
370
-1
48
1
60
0
100
AcDbLine
10
15.557751
20
10.915809
30
0
11
15.382013
21
10.085667
31
0
39
0
210
0
220
0
230
1
0
LINE
5
AF
100
AcDbEntity
8
1
62
256
6
ByLayer
370
-1
48
1
60
0
100
AcDbLine
10
21.188544
20
9.025402
30
0
11
21.232956
21
8.994506
31
0
39
0
210
0
220
0
230
1
0
LINE
5
B0
100
AcDbEntity
8
1
62
256
6
ByLayer
370
-1
48
1
60
0
100
AcDbLine
10
20.460217
20
10.907823
30
0
11
19.7519
21
10.905709
31
0
39
0
210
0
220
0
230
1
0
LINE
5
B1
100
AcDbEntity
8
1
62
256
6
ByLayer
370
-1
48
1
60
0
100
AcDbLine
10
15.474933
20
10.043696
30
0
11
15.890358
21
10.919031
31
0
39
0
210
0
220
0
230
1
0
LINE
5
B2
100
AcDbEntity
8
1
62
256
6
ByLayer
370
-1
48
1
60
0
100
AcDbLine
10
8.941366
20
8.625594
30
0
11
9.349048
21
8.622151
31
0
39
0
210
0
220
0
230
1
0
LINE
5
B3
100
AcDbEntity
8
1
62
256
6
ByLayer
370
-1
48
1
60
0
100
AcDbLine
10
18.959891
20
10.908317
30
0
11
19.496318
21
10.040947
31
0
39
0
210
0
220
0
230
1
0
LINE
5
B4
100
AcDbEntity
8
1
62
256
6
ByLayer
370
-1
48
1
60
0
100
AcDbLine
10
19.696333
20
10.905625
30
0
11
19.698487
21
10.184042
31
0
39
0
210
0
220
0
230
1
0
LINE
5
B5
100
AcDbEntity
8
1
62
256
6
ByLayer
370
-1
48
1
60
0
100
AcDbLine
10
19.015088
20
3.969505
30
0
11
18.338091
21
4.664142
31
0
39
0
210
0
220
0
230
1
0
LINE
5
B6
100
AcDbEntity
8
1
62
256
6
ByLayer
370
-1
48
1
60
0
100
AcDbLine
10
19.723044
20
4.421851
30
0
11
19.311333
21
4.844291
31
0
39
0
210
0
220
0
230
1
0
LINE
5
B7
100
AcDbEntity
8
1
62
256
6
ByLayer
370
-1
48
1
60
0
100
AcDbLine
10
15.070601
20
-1.698746
30
0
11
14.381319
21
-1.76698
31
0
39
0
210
0
220
0
230
1
0
LINE
5
B8
100
AcDbEntity
8
1
62
256
6
ByLayer
370
-1
48
1
60
0
100
AcDbLine
10
15.7929
20
-0.09355
30
0
11
15.385234
21
-0.095704
31
0
39
0
210
0
220
0
230
1
0
LINE
5
B9
100
AcDbEntity
8
1
62
256
6
ByLayer
370
-1
48
1
60
0
100
AcDbLine
10
15.351317
20
10.914748
30
0
11
15.268496
21
10.523523
31
0
39
0
210
0
220
0
230
1
0
LINE
5
BA
100
AcDbEntity
8
1
62
256
6
ByLayer
370
-1
48
1
60
0
100
AcDbLine
10
10.411261
20
10.454527
30
0
11
9.74443
21
10.388516
31
0
39
0
210
0
220
0
230
1
0
LINE
5
BB
100
AcDbEntity
8
1
62
256
6
ByLayer
370
-1
48
1
60
0
100
AcDbLine
10
9.628763
20
6.625952
30
0
11
11.64632
21
10.500475
31
0
39
0
210
0
220
0
230
1
0
LINE
5
BC
100
AcDbEntity
8
1
62
256
6
ByLayer
370
-1
48
1
60
0
100
AcDbLine
10
20.425203
20
10.40083
30
0
11
20.210294
21
10.03741
31
0
39
0
210
0
220
0
230
1
0
LINE
5
BD
100
AcDbEntity
8
1
62
256
6
ByLayer
370
-1
48
1
60
0
100
AcDbLine
10
18.338091
20
4.664142
30
0
11
18.766508
21
5.115976
31
0
39
0
210
0
220
0
230
1
0
LINE
5
BE
100
AcDbEntity
8
1
62
256
6
ByLayer
370
-1
48
1
60
0
100
AcDbLine
10
18.748397
20
5.134106
30
0
11
18.319981
21
4.682273
31
0
39
0
210
0
220
0
230
1
0
LINE
5
BF
100
AcDbEntity
8
1
62
256
6
ByLayer
370
-1
48
1
60
0
100
AcDbLine
10
9.838232
20
10.118046
30
0
11
10.411261
21
10.454527
31
0
39
0
210
0
220
0
230
1
0
LINE
5
C0
100
AcDbEntity
8
1
62
256
6
ByLayer
370
-1
48
1
60
0
100
AcDbLine
10
11.953211
20
1.16377
30
0
11
12.708469
21
1.238535
31
0
39
0
210
0
220
0
230
1
0
LINE
5
C1
100
AcDbEntity
8
1
62
256
6
ByLayer
370
-1
48
1
60
0
100
AcDbLine
10
8.838956
20
9.60981
30
0
11
8.817449
21
8.89065
31
0
39
0
210
0
220
0
230
1
0
LINE
5
C2
100
AcDbEntity
8
1
62
256
6
ByLayer
370
-1
48
1
60
0
100
AcDbLine
10
9.653243
20
9.834772
30
0
11
9.549224
21
9.824475
31
0
39
0
210
0
220
0
230
1
0
LINE
5
C3
100
AcDbEntity
8
1
62
256
6
ByLayer
370
-1
48
1
60
0
100
AcDbLine
10
14.822761
20
-0.550783
30
0
11
14.661363
21
-0.56676
31
0
39
0
210
0
220
0
230
1
0
LINE
5
C4
100
AcDbEntity
8
1
62
256
6
ByLayer
370
-1
48
1
60
0
100
AcDbLine
10
15.36684
20
-0.366746
30
0
11
15.774505
21
-0.364592
31
0
39
0
210
0
220
0
230
1
0
LINE
5
C5
100
AcDbEntity
8
1
62
256
6
ByLayer
370
-1
48
1
60
0
100
AcDbLine
10
9.458068
20
8.109873
30
0
11
9.06686
21
7.358595
31
0
39
0
210
0
220
0
230
1
0
LINE
5
C6
100
AcDbEntity
8
1
62
256
6
ByLayer
370
-1
48
1
60
0
100
AcDbLine
10
13.450296
20
0.773576
30
0
11
12.78078
21
1.165341
31
0
39
0
210
0
220
0
230
1
0
LINE
5
C7
100
AcDbEntity
8
1
62
256
6
ByLayer
370
-1
48
1
60
0
100
AcDbLine
10
9.653243
20
9.834772
30
0
11
9.702448
21
9.863665
31
0
39
0
210
0
220
0
230
1
0
LINE
5
C8
100
AcDbEntity
8
1
62
256
6
ByLayer
370
-1
48
1
60
0
100
AcDbLine
10
21.329988
20
10.006595
30
0
11
20.700469
21
10.367495
31
0
39
0
210
0
220
0
230
1
0
LINE
5
C9
100
AcDbEntity
8
1
62
256
6
ByLayer
370
-1
48
1
60
0
100
AcDbLine
10
11.64632
20
10.500475
30
0
11
12.313497
21
10.89224
31
0
39
0
210
0
220
0
230
1
0
LINE
5
CA
100
AcDbEntity
8
1
62
256
6
ByLayer
370
-1
48
1
60
0
100
AcDbLine
10
14.707138
20
-0.544988
30
0
11
14.660582
21
-0.567135
31
0
39
0
210
0
220
0
230
1
0
LINE
5
CB
100
AcDbEntity
8
1
62
256
6
ByLayer
370
-1
48
1
60
0
100
AcDbLine
10
16.644312
20
-0.873153
30
0
11
16.964635
21
-0.271253
31
0
39
0
210
0
220
0
230
1
0
LINE
5
CC
100
AcDbEntity
8
1
62
256
6
ByLayer
370
-1
48
1
60
0
100
AcDbLine
10
15.774505
20
-0.364592
30
0
11
15.986814
21
-0.729522
31
0
39
0
210
0
220
0
230
1
0
LINE
5
CD
100
AcDbEntity
8
1
62
256
6
ByLayer
370
-1
48
1
60
0
100
AcDbLine
10
14.209991
20
-0.645224
30
0
11
14.171474
21
-0.622685
31
0
39
0
210
0
220
0
230
1
0
LINE
5
CE
100
AcDbEntity
8
1
62
256
6
ByLayer
370
-1
48
1
60
0
100
AcDbLine
10
19.252223
20
10.905625
30
0
11
19.696333
21
10.905625
31
0
39
0
210
0
220
0
230
1
0
LINE
5
CF
100
AcDbEntity
8
1
62
256
6
ByLayer
370
-1
48
1
60
0
100
AcDbLine
10
20.840641
20
7.197653
30
0
11
20.84298
21
6.414123
31
0
39
0
210
0
220
0
230
1
0
LINE
5
D0
100
AcDbEntity
8
1
62
256
6
ByLayer
370
-1
48
1
60
0
100
AcDbLine
10
11.112142
20
10.216651
30
0
11
11.426355
21
10.377536
31
0
39
0
210
0
220
0
230
1
0
LINE
5
D1
100
AcDbEntity
8
1
62
256
6
ByLayer
370
-1
48
1
60
0
100
AcDbLine
10
8.493049
20
8.403409
30
0
11
8.816978
21
7.797281
31
0
39
0
210
0
220
0
230
1
0
LINE
5
D2
100
AcDbEntity
8
1
62
256
6
ByLayer
370
-1
48
1
60
0
100
AcDbLine
10
13.863873
20
0.489752
30
0
11
13.645493
21
0.650636
31
0
39
0
210
0
220
0
230
1
0
LINE
5
D3
100
AcDbEntity
8
1
62
256
6
ByLayer
370
-1
48
1
60
0
100
AcDbLine
10
14.872138
20
-0.579676
30
0
11
14.209991
21
-0.645224
31
0
39
0
210
0
220
0
230
1
0
LINE
5
D4
100
AcDbEntity
8
1
62
256
6
ByLayer
370
-1
48
1
60
0
100
AcDbLine
10
9.764283
20
9.576343
30
0
11
9.601694
21
9.351156
31
0
39
0
210
0
220
0
230
1
0
LINE
5
D5
100
AcDbEntity
8
1
62
256
6
ByLayer
370
-1
48
1
60
0
100
AcDbLine
10
20.844611
20
9.212295
30
0
11
20.703218
21
9.446482
31
0
39
0
210
0
220
0
230
1
0
LINE
5
D6
100
AcDbEntity
8
1
62
256
6
ByLayer
370
-1
48
1
60
0
100
AcDbLine
10
19.856755
20
4.616819
30
0
11
19.368501
21
4.927581
31
0
39
0
210
0
220
0
230
1
0
LINE
5
D7
100
AcDbEntity
8
1
62
256
6
ByLayer
370
-1
48
1
60
0
100
AcDbLine
10
9.767264
20
9.964136
30
0
11
9.773417
21
10.017576
31
0
39
0
210
0
220
0
230
1
0
LINE
5
D8
100
AcDbEntity
8
1
62
256
6
ByLayer
370
-1
48
1
60
0
100
AcDbLine
10
15.142881
20
-1.372435
30
0
11
15.061671
21
-1.420099
31
0
39
0
210
0
220
0
230
1
0
LINE
5
D9
100
AcDbEntity
8
1
62
256
6
ByLayer
370
-1
48
1
60
0
100
AcDbLine
10
9.254655
20
7.080343
30
0
11
9.724902
21
7.983408
31
0
39
0
210
0
220
0
230
1
0
LINE
5
DA
100
AcDbEntity
8
1
62
256
6
ByLayer
370
-1
48
1
60
0
100
AcDbLine
10
19.311333
20
4.844291
30
0
11
19.802624
21
4.531595
31
0
39
0
210
0
220
0
230
1
0
LINE
5
DB
100
AcDbEntity
8
1
62
256
6
ByLayer
370
-1
48
1
60
0
100
AcDbLine
10
11.697813
20
1.610544
30
0
11
11.953211
21
1.16377
31
0
39
0
210
0
220
0
230
1
0
LINE
5
DC
100
AcDbEntity
8
1
62
256
6
ByLayer
370
-1
48
1
60
0
100
AcDbLine
10
8.28456
20
8.486728
30
0
11
8.46946
21
8.505031
31
0
39
0
210
0
220
0
230
1
0
LINE
5
DD
100
AcDbEntity
8
1
62
256
6
ByLayer
370
-1
48
1
60
0
100
AcDbLine
10
14.544958
20
-0.561341
30
0
11
13.969921
21
-0.22486
31
0
39
0
210
0
220
0
230
1
0
LINE
5
DE
100
AcDbEntity
8
1
62
256
6
ByLayer
370
-1
48
1
60
0
100
AcDbLine
10
16.21382
20
-1.043971
30
0
11
15.32269
21
-1.572833
31
0
39
0
210
0
220
0
230
1
0
LINE
5
DF
100
AcDbEntity
8
1
62
256
6
ByLayer
370
-1
48
1
60
0
100
AcDbLine
10
15.091845
20
-1.711177
30
0
11
15.070601
21
-1.698746
31
0
39
0
210
0
220
0
230
1
0
LINE
5
E0
100
AcDbEntity
8
1
62
256
6
ByLayer
370
-1
48
1
60
0
100
AcDbLine
10
11.561032
20
3.969505
30
0
11
12.533354
21
4.246954
31
0
39
0
210
0
220
0
230
1
0
LINE
5
E1
100
AcDbEntity
8
1
62
256
6
ByLayer
370
-1
48
1
60
0
100
AcDbLine
10
14.968585
20
-1.527197
30
0
11
14.938448
21
-0.691183
31
0
39
0
210
0
220
0
230
1
0
LINE
5
E2
100
AcDbEntity
8
1
62
256
6
ByLayer
370
-1
48
1
60
0
100
AcDbLine
10
20.700469
20
10.367495
30
0
11
20.840451
21
10.60591
31
0
39
0
210
0
220
0
230
1
0
LINE
5
E3
100
AcDbEntity
8
1
62
256
6
ByLayer
370
-1
48
1
60
0
100
AcDbLine
10
16.374425
20
0.137571
30
0
11
17.211898
21
0.167266
31
0
39
0
210
0
220
0
230
1
0
LINE
5
E4
100
AcDbEntity
8
1
62
256
6
ByLayer
370
-1
48
1
60
0
100
AcDbLine
10
18.539147
20
10.919031
30
0
11
20.840641
21
7.197653
31
0
39
0
210
0
220
0
230
1
0
LINE
5
E5
100
AcDbEntity
8
1
62
256
6
ByLayer
370
-1
48
1
60
0
100
AcDbLine
10
8.638303
20
10.250639
30
0
11
7.949022
21
10.182406
31
0
39
0
210
0
220
0
230
1
0
LINE
5
E6
100
AcDbEntity
8
1
62
256
6
ByLayer
370
-1
48
1
60
0
100
AcDbLine
10
14.536439
20
10.916575
30
0
11
14.432251
21
10.91841
31
0
39
0
210
0
220
0
230
1
0
LINE
5
E7
100
AcDbEntity
8
1
62
256
6
ByLayer
370
-1
48
1
60
0
100
AcDbLine
10
18.546749
20
4.060913
30
0
11
19.08679
21
3.255683
31
0
39
0
210
0
220
0
230
1
0
LINE
5
E8
100
AcDbEntity
8
1
62
256
6
ByLayer
370
-1
48
1
60
0
100
AcDbLine
10
19.133668
20
3.34902
30
0
11
18.619904
21
4.115069
31
0
39
0
210
0
220
0
230
1
0
LINE
5
E9
100
AcDbEntity
8
1
62
256
6
ByLayer
370
-1
48
1
60
0
100
AcDbLine
10
15.064625
20
9.56049
30
0
11
14.463878
21
9.712447
31
0
39
0
210
0
220
0
230
1
0
LINE
5
EA
100
AcDbEntity
8
1
62
256
6
ByLayer
370
-1
48
1
60
0
100
AcDbLine
10
16.391342
20
0.415207
30
0
11
13.888961
21
0.460296
31
0
39
0
210
0
220
0
230
1
0
LINE
5
EB
100
AcDbEntity
8
1
62
256
6
ByLayer
370
-1
48
1
60
0
100
AcDbLine
10
8.942869
20
9.613039
30
0
11
9.53917
21
9.256655
31
0
39
0
210
0
220
0
230
1
0
LINE
5
EC
100
AcDbEntity
8
1
62
256
6
ByLayer
370
-1
48
1
60
0
100
AcDbLine
10
13.863873
20
0.489752
30
0
11
13.169744
21
0.421038
31
0
39
0
210
0
220
0
230
1
0
LINE
5
ED
100
AcDbEntity
8
1
62
256
6
ByLayer
370
-1
48
1
60
0
100
AcDbLine
10
9.171402
20
10.052035
30
0
11
9.74443
21
10.388516
31
0
39
0
210
0
220
0
230
1
0
LINE
5
EE
100
AcDbEntity
8
1
62
256
6
ByLayer
370
-1
48
1
60
0
100
AcDbLine
10
13.903611
20
-0.113353
30
0
11
13.894704
21
0.133744
31
0
39
0
210
0
220
0
230
1
0
LINE
5
EF
100
AcDbEntity
8
1
62
256
6
ByLayer
370
-1
48
1
60
0
100
AcDbLine
10
14.536439
20
10.916575
30
0
11
14.412456
21
10.330912
31
0
39
0
210
0
220
0
230
1
0
LINE
5
F0
100
AcDbEntity
8
1
62
256
6
ByLayer
370
-1
48
1
60
0
100
AcDbLine
10
15.091845
20
-1.711177
30
0
11
14.402563
21
-1.77941
31
0
39
0
210
0
220
0
230
1
0
LINE
5
F1
100
AcDbEntity
8
1
62
256
6
ByLayer
370
-1
48
1
60
0
100
AcDbLine
10
13.645493
20
0.650636
30
0
11
17.682105
21
0.793766
31
0
39
0
210
0
220
0
230
1
0
LINE
5
F2
100
AcDbEntity
8
1
62
256
6
ByLayer
370
-1
48
1
60
0
100
AcDbLine
10
15.288695
20
-1.077915
30
0
11
15.142881
21
-1.372435
31
0
39
0
210
0
220
0
230
1
0
LINE
5
F3
100
AcDbEntity
8
1
62
256
6
ByLayer
370
-1
48
1
60
0
100
AcDbLine
10
14.402563
20
-1.77941
30
0
11
14.381319
21
-1.76698
31
0
39
0
210
0
220
0
230
1
0
LINE
5
F4
100
AcDbEntity
8
1
62
256
6
ByLayer
370
-1
48
1
60
0
100
AcDbLine
10
20.429419
20
9.905838
30
0
11
20.644328
21
10.269259
31
0
39
0
210
0
220
0
230
1
0
LINE
5
F5
100
AcDbEntity
8
1
62
256
6
ByLayer
370
-1
48
1
60
0
100
AcDbLine
10
8.843639
20
7.749081
30
0
11
9.458068
21
8.109873
31
0
39
0
210
0
220
0
230
1
0
LINE
5
F6
100
AcDbEntity
8
1
62
256
6
ByLayer
370
-1
48
1
60
0
100
AcDbLine
10
11.166034
20
3.856793
30
0
11
11.491308
21
3.296645
31
0
39
0
210
0
220
0
230
1
0
LINE
5
F7
100
AcDbEntity
8
1
62
256
6
ByLayer
370
-1
48
1
60
0
100
AcDbLine
10
12.78078
20
1.165341
30
0
11
12.025522
21
1.090576
31
0
39
0
210
0
220
0
230
1
0
LINE
5
F8
100
AcDbEntity
8
1
62
256
6
ByLayer
370
-1
48
1
60
0
100
AcDbLine
10
12.533354
20
4.246954
30
0
11
12.705685
21
3.643164
31
0
39
0
210
0
220
0
230
1
0
LINE
5
F9
100
AcDbEntity
8
1
62
256
6
ByLayer
370
-1
48
1
60
0
100
AcDbLine
10
17.398016
20
0.450902
30
0
11
17.682105
21
0.793766
31
0
39
0
210
0
220
0
230
1
0
LINE
5
FA
100
AcDbEntity
8
1
62
256
6
ByLayer
370
-1
48
1
60
0
100
AcDbLine
10
14.28233
20
-1.595131
30
0
11
14.274334
21
-0.756926
31
0
39
0
210
0
220
0
230
1
0
LINE
5
FB
100
AcDbEntity
8
1
62
256
6
ByLayer
370
-1
48
1
60
0
100
AcDbLine
10
20.840451
20
10.60591
30
0
11
21.784573
21
10.06465
31
0
39
0
210
0
220
0
230
1
0
LINE
5
FC
100
AcDbEntity
8
1
62
256
6
ByLayer
370
-1
48
1
60
0
100
AcDbLine
10
11.426355
20
10.377536
30
0
11
9.540734
21
6.756383
31
0
39
0
210
0
220
0
230
1
0
LINE
5
FD
100
AcDbEntity
8
1
62
256
6
ByLayer
370
-1
48
1
60
0
100
AcDbLine
10
12.194651
20
3.294638
30
0
11
11.683564
21
3.019836
31
0
39
0
210
0
220
0
230
1
0
LINE
5
FE
100
AcDbEntity
8
1
62
256
6
ByLayer
370
-1
48
1
60
0
100
AcDbLine
10
19.133668
20
3.34902
30
0
11
19.20348
21
3.516286
31
0
39
0
210
0
220
0
230
1
0
LINE
5
FF
100
AcDbEntity
8
1
62
256
6
ByLayer
370
-1
48
1
60
0
100
AcDbLine
10
11.915575
20
4.367096
30
0
11
10.960109
21
4.29699
31
0
39
0
210
0
220
0
230
1
0
LINE
5
100
100
AcDbEntity
8
1
62
256
6
ByLayer
370
-1
48
1
60
0
100
AcDbLine
10
15.351317
20
10.914748
30
0
11
14.718501
21
10.915223
31
0
39
0
210
0
220
0
230
1
0
LINE
5
101
100
AcDbEntity
8
1
62
256
6
ByLayer
370
-1
48
1
60
0
100
AcDbLine
10
17.769347
20
0.926721
30
0
11
19.08679
21
3.255683
31
0
39
0
210
0
220
0
230
1
0
LINE
5
102
100
AcDbEntity
8
1
62
256
6
ByLayer
370
-1
48
1
60
0
100
AcDbLine
10
11.007547
20
4.202411
30
0
11
11.916523
21
4.269106
31
0
39
0
210
0
220
0
230
1
0
LINE
5
103
100
AcDbEntity
8
1
62
256
6
ByLayer
370
-1
48
1
60
0
100
AcDbLine
10
8.516144
20
10.06606
30
0
11
7.829889
21
9.998126
31
0
39
0
210
0
220
0
230
1
0
LINE
5
104
100
AcDbEntity
8
1
62
256
6
ByLayer
370
-1
48
1
60
0
100
AcDbLine
10
20.644328
20
10.269259
30
0
11
21.273847
21
9.908359
31
0
39
0
210
0
220
0
230
1
0
LINE
5
105
100
AcDbEntity
8
1
62
256
6
ByLayer
370
-1
48
1
60
0
100
AcDbLine
10
9.628763
20
6.625952
30
0
11
10.960109
21
4.29699
31
0
39
0
210
0
220
0
230
1
0
LINE
5
106
100
AcDbEntity
8
1
62
256
6
ByLayer
370
-1
48
1
60
0
100
AcDbLine
10
14.718501
20
10.915223
30
0
11
14.463878
21
9.712447
31
0
39
0
210
0
220
0
230
1
0
LINE
5
107
100
AcDbEntity
8
1
62
256
6
ByLayer
370
-1
48
1
60
0
100
AcDbLine
10
22.03035
20
9.925078
30
0
11
22.030424
21
9.900217
31
0
39
0
210
0
220
0
230
1
0
LINE
5
108
100
AcDbEntity
8
1
62
256
6
ByLayer
370
-1
48
1
60
0
100
AcDbLine
10
15.986814
20
-0.729522
30
0
11
15.39263
21
-1.082155
31
0
39
0
210
0
220
0
230
1
0
LINE
5
109
100
AcDbEntity
8
1
62
256
6
ByLayer
370
-1
48
1
60
0
100
AcDbLine
10
8.921362
20
8.893879
30
0
11
8.942869
21
9.613039
31
0
39
0
210
0
220
0
230
1
0
LINE
5
10A
100
AcDbEntity
8
1
62
256
6
ByLayer
370
-1
48
1
60
0
100
AcDbLine
10
16.348051
20
0.089538
30
0
11
16.964635
21
-0.271253
31
0
39
0
210
0
220
0
230
1
0
LINE
5
10B
100
AcDbEntity
8
1
62
256
6
ByLayer
370
-1
48
1
60
0
100
AcDbLine
10
19.496318
20
10.040947
30
0
11
20.776551
21
7.79022
31
0
39
0
210
0
220
0
230
1
0
LINE
5
10C
100
AcDbEntity
8
1
62
256
6
ByLayer
370
-1
48
1
60
0
100
AcDbLine
10
21.330571
20
9.811133
30
0
11
21.690039
21
9.813313
31
0
39
0
210
0
220
0
230
1
0
LINE
5
10D
100
AcDbEntity
8
1
62
256
6
ByLayer
370
-1
48
1
60
0
100
AcDbLine
10
8.617133
20
10.238209
30
0
11
8.638303
21
10.250639
31
0
39
0
210
0
220
0
230
1
0
LINE
5
10E
100
AcDbEntity
8
1
62
256
6
ByLayer
370
-1
48
1
60
0
100
AcDbLine
10
13.903018
20
0.375556
30
0
11
13.234088
21
0.309336
31
0
39
0
210
0
220
0
230
1
0
LINE
5
10F
100
AcDbEntity
8
1
62
256
6
ByLayer
370
-1
48
1
60
0
100
AcDbLine
10
12.313497
20
10.89224
30
0
11
11.558239
21
10.817475
31
0
39
0
210
0
220
0
230
1
0
LINE
5
110
100
AcDbEntity
8
1
62
256
6
ByLayer
370
-1
48
1
60
0
100
AcDbLine
10
13.878128
20
-0.627352
30
0
11
13.303091
21
-0.290871
31
0
39
0
210
0
220
0
230
1
0
LINE
5
111
100
AcDbEntity
8
1
62
256
6
ByLayer
370
-1
48
1
60
0
100
AcDbLine
10
17.211898
20
0.167266
30
0
11
16.991009
21
-0.223221
31
0
39
0
210
0
220
0
230
1
0
LINE
5
112
100
AcDbEntity
8
1
62
256
6
ByLayer
370
-1
48
1
60
0
100
AcDbLine
10
18.539147
20
10.919031
30
0
11
15.890358
21
10.919031
31
0
39
0
210
0
220
0
230
1
0
LINE
5
113
100
AcDbEntity
8
1
62
256
6
ByLayer
370
-1
48
1
60
0
100
AcDbLine
10
19.290112
20
3.687314
30
0
11
19.612039
21
4.248411
31
0
39
0
210
0
220
0
230
1
0
LINE
5
114
100
AcDbEntity
8
1
62
256
6
ByLayer
370
-1
48
1
60
0
100
AcDbLine
10
16.049899
20
-0.823013
30
0
11
16.21382
21
-1.043971
31
0
39
0
210
0
220
0
230
1
0
LINE
5
115
100
AcDbEntity
8
1
62
256
6
ByLayer
370
-1
48
1
60
0
100
AcDbLine
10
9.773417
20
10.017576
30
0
11
9.300074
21
9.970718
31
0
39
0
210
0
220
0
230
1
0
LINE
5
116
100
AcDbEntity
8
1
62
256
6
ByLayer
370
-1
48
1
60
0
100
AcDbLine
10
9.005392
20
9.707541
30
0
11
8.857808
21
10.006421
31
0
39
0
210
0
220
0
230
1
0
LINE
5
117
100
AcDbEntity
8
1
62
256
6
ByLayer
370
-1
48
1
60
0
100
AcDbLine
10
8.609872
20
9.958097
30
0
11
8.691371
21
9.90869
31
0
39
0
210
0
220
0
230
1
0
LINE
5
118
100
AcDbEntity
8
1
62
256
6
ByLayer
370
-1
48
1
60
0
100
AcDbLine
10
21.689456
20
10.008775
30
0
11
21.329988
21
10.006595
31
0
39
0
210
0
220
0
230
1
0
LINE
5
119
100
AcDbEntity
8
1
62
256
6
ByLayer
370
-1
48
1
60
0
100
AcDbLine
10
21.930565
20
9.727407
30
0
11
21.197451
21
9.301282
31
0
39
0
210
0
220
0
230
1
0
LINE
5
11A
100
AcDbEntity
8
1
62
256
6
ByLayer
370
-1
48
1
60
0
100
AcDbLine
10
12.730717
20
3.650382
30
0
11
12.558386
21
4.254172
31
0
39
0
210
0
220
0
230
1
0
LINE
5
11B
100
AcDbEntity
8
1
62
256
6
ByLayer
370
-1
48
1
60
0
100
AcDbLine
10
14.342303
20
10.919031
30
0
11
12.411897
21
10.919031
31
0
39
0
210
0
220
0
230
1
0
LINE
5
11C
100
AcDbEntity
8
1
62
256
6
ByLayer
370
-1
48
1
60
0
100
AcDbLine
10
21.785485
20
9.759181
30
0
11
20.844611
21
9.212295
31
0
39
0
210
0
220
0
230
1
0
LINE
5
11D
100
AcDbEntity
8
1
62
256
6
ByLayer
370
-1
48
1
60
0
100
AcDbLine
10
11.603339
20
3.125909
30
0
11
11.683564
21
3.019836
31
0
39
0
210
0
220
0
230
1
0
LINE
5
11E
100
AcDbEntity
8
1
62
256
6
ByLayer
370
-1
48
1
60
0
100
AcDbLine
10
11.491308
20
3.296645
30
0
11
12.705685
21
3.643164
31
0
39
0
210
0
220
0
230
1
0
LINE
5
11F
100
AcDbEntity
8
1
62
256
6
ByLayer
370
-1
48
1
60
0
100
AcDbLine
10
14.872138
20
-0.579676
30
0
11
14.822761
21
-0.550783
31
0
39
0
210
0
220
0
230
1
0
LINE
5
120
100
AcDbEntity
8
1
62
256
6
ByLayer
370
-1
48
1
60
0
100
AcDbLine
10
11.7382
20
2.935854
30
0
11
12.708469
21
1.238535
31
0
39
0
210
0
220
0
230
1
0
LINE
5
121
100
AcDbEntity
8
1
62
256
6
ByLayer
370
-1
48
1
60
0
100
AcDbLine
10
8.831099
20
10.251001
30
0
11
9.527926
21
9.834537
31
0
39
0
210
0
220
0
230
1
0
LINE
5
122
100
AcDbEntity
8
1
62
256
6
ByLayer
370
-1
48
1
60
0
100
AcDbLine
10
15.022994
20
-0.347163
30
0
11
15.262905
21
-0.362506
31
0
39
0
210
0
220
0
230
1
0
LINE
5
123
100
AcDbEntity
8
1
62
256
6
ByLayer
370
-1
48
1
60
0
100
AcDbLine
10
8.691371
20
9.90869
30
0
11
8.838956
21
9.60981
31
0
39
0
210
0
220
0
230
1
0
LINE
5
124
100
AcDbEntity
8
1
62
256
6
ByLayer
370
-1
48
1
60
0
100
AcDbLine
10
20.211072
20
9.777023
30
0
11
20.428146
21
9.414892
31
0
39
0
210
0
220
0
230
1
0
LINE
5
125
100
AcDbEntity
8
1
62
256
6
ByLayer
370
-1
48
1
60
0
100
AcDbLine
10
9.601694
20
9.351156
30
0
11
9.005392
21
9.707541
31
0
39
0
210
0
220
0
230
1
0
LINE
5
126
100
AcDbEntity
8
1
62
256
6
ByLayer
370
-1
48
1
60
0
100
AcDbLine
10
8.817449
20
8.89065
30
0
11
8.577617
21
8.879536
31
0
39
0
210
0
220
0
230
1
0
LINE
5
127
100
AcDbEntity
8
1
62
256
6
ByLayer
370
-1
48
1
60
0
100
AcDbLine
10
11.112142
20
10.216651
30
0
11
10.985637
21
10.204128
31
0
39
0
210
0
220
0
230
1
0
LINE
5
128
100
AcDbEntity
8
1
62
256
6
ByLayer
370
-1
48
1
60
0
100
AcDbLine
10
11.078374
20
4.029942
30
0
11
11.916523
21
4.269106
31
0
39
0
210
0
220
0
230
1
0
LINE
5
129
100
AcDbEntity
8
1
62
256
6
ByLayer
370
-1
48
1
60
0
100
AcDbLine
10
8.577617
20
8.879536
30
0
11
8.609872
21
9.958097
31
0
39
0
210
0
220
0
230
1
0
LINE
5
12A
100
AcDbEntity
8
1
62
256
6
ByLayer
370
-1
48
1
60
0
100
AcDbLine
10
8.617133
20
10.238209
30
0
11
7.927852
21
10.169975
31
0
39
0
210
0
220
0
230
1
0
LINE
5
12B
100
AcDbEntity
8
1
62
256
6
ByLayer
370
-1
48
1
60
0
100
AcDbLine
10
17.398016
20
0.450902
30
0
11
16.391342
21
0.415207
31
0
39
0
210
0
220
0
230
1
0
LINE
5
12C
100
AcDbEntity
8
1
62
256
6
ByLayer
370
-1
48
1
60
0
100
AcDbLine
10
14.968585
20
-1.527197
30
0
11
14.28233
21
-1.595131
31
0
39
0
210
0
220
0
230
1
0
LINE
5
12D
100
AcDbEntity
8
1
62
256
6
ByLayer
370
-1
48
1
60
0
100
AcDbLine
10
14.458143
20
9.687216
30
0
11
15.058891
21
9.535259
31
0
39
0
210
0
220
0
230
1
0
LINE
5
12E
100
AcDbEntity
8
1
62
256
6
ByLayer
370
-1
48
1
60
0
100
AcDbLine
10
9.724902
20
7.983408
30
0
11
11.062236
21
10.200447
31
0
39
0
210
0
220
0
230
1
0
LINE
5
12F
100
AcDbEntity
8
1
62
256
6
ByLayer
370
-1
48
1
60
0
100
AcDbLine
10
13.238747
20
-0.179169
30
0
11
13.234088
21
0.309336
31
0
39
0
210
0
220
0
230
1
0
LINE
5
130
100
AcDbEntity
8
1
62
256
6
ByLayer
370
-1
48
1
60
0
100
AcDbLine
10
7.827347
20
9.286159
30
0
11
7.829889
21
9.998126
31
0
39
0
210
0
220
0
230
1
0
LINE
5
131
100
AcDbEntity
8
1
62
256
6
ByLayer
370
-1
48
1
60
0
100
AcDbLine
10
14.938448
20
-0.691183
30
0
11
14.274334
21
-0.756926
31
0
39
0
210
0
220
0
230
1
0
LINE
5
132
100
AcDbEntity
8
1
62
256
6
ByLayer
370
-1
48
1
60
0
100
AcDbLine
10
15.268496
20
10.523523
30
0
11
15.064625
21
9.56049
31
0
39
0
210
0
220
0
230
1
0
LINE
5
133
100
AcDbEntity
8
1
62
256
6
ByLayer
370
-1
48
1
60
0
100
AcDbLine
10
11.603339
20
3.125909
30
0
11
12.194651
21
3.294638
31
0
39
0
210
0
220
0
230
1
0
LINE
5
134
100
AcDbEntity
8
1
62
256
6
ByLayer
370
-1
48
1
60
0
100
AcDbLine
10
10.536578
20
10.454762
30
0
11
10.742537
21
10.33167
31
0
39
0
210
0
220
0
230
1
0
LINE
5
135
100
AcDbEntity
8
1
62
256
6
ByLayer
370
-1
48
1
60
0
100
AcDbLine
10
14.342303
20
10.919031
30
0
11
14.32263
21
10.335166
31
0
39
0
210
0
220
0
230
1
0
LINE
5
136
100
AcDbEntity
8
1
62
256
6
ByLayer
370
-1
48
1
60
0
100
AcDbLine
10
14.412456
20
10.330912
30
0
11
14.432251
21
10.91841
31
0
39
0
210
0
220
0
230
1
0
LINE
5
137
100
AcDbEntity
8
1
62
256
6
ByLayer
370
-1
48
1
60
0
100
AcDbLine
10
11.166034
20
3.856793
30
0
11
11.561032
21
3.969505
31
0
39
0
210
0
220
0
230
1
0
LINE
5
138
100
AcDbEntity
8
1
62
256
6
ByLayer
370
-1
48
1
60
0
100
AcDbLine
10
19.20348
20
3.516286
30
0
11
18.619904
21
4.115069
31
0
39
0
210
0
220
0
230
1
0
LINE
5
139
100
AcDbEntity
8
1
62
256
6
ByLayer
370
-1
48
1
60
0
100
AcDbLine
10
8.869979
20
10.110831
30
0
11
9.764283
21
9.576343
31
0
39
0
210
0
220
0
230
1
0
LINE
5
13A
100
AcDbEntity
8
1
62
256
6
ByLayer
370
-1
48
1
60
0
100
AcDbLine
10
19.290112
20
3.687314
30
0
11
19.015088
21
3.969505
31
0
39
0
210
0
220
0
230
1
0
LINE
5
13B
100
AcDbEntity
8
1
62
256
6
ByLayer
370
-1
48
1
60
0
100
AcDbLine
10
9.570767
20
8.752344
30
0
11
9.780894
21
9.118563
31
0
39
0
210
0
220
0
230
1
0
LINE
5
13C
100
AcDbEntity
8
1
62
256
6
ByLayer
370
-1
48
1
60
0
100
AcDbLine
10
17.769347
20
0.926721
30
0
11
13.450296
21
0.773576
31
0
39
0
210
0
220
0
230
1
0
LINE
5
13D
100
AcDbEntity
8
1
62
256
6
ByLayer
370
-1
48
1
60
0
100
AcDbLine
10
19.698487
20
10.184042
30
0
11
19.252223
21
10.905625
31
0
39
0
210
0
220
0
230
1
0
LINE
5
13E
100
AcDbEntity
8
1
62
256
6
ByLayer
370
-1
48
1
60
0
100
AcDbLine
10
19.856755
20
4.616819
30
0
11
20.816891
21
6.314138
31
0
39
0
210
0
220
0
230
1
0
LINE
5
13F
100
AcDbEntity
8
1
62
256
6
ByLayer
370
-1
48
1
60
0
100
AcDbLine
10
8.493049
20
8.403409
30
0
11
8.340828
21
8.38834
31
0
39
0
210
0
220
0
230
1
0
LINE
5
140
100
AcDbEntity
8
1
62
256
6
ByLayer
370
-1
48
1
60
0
100
AcDbLine
10
9.329043
20
8.890436
30
0
11
8.921362
21
8.893879
31
0
39
0
210
0
220
0
230
1
0
LINE
5
141
100
AcDbEntity
8
1
62
256
6
ByLayer
370
-1
48
1
60
0
100
AcDbLine
10
9.005312
20
10.97328
30
0
11
9.005321
21
11.001312
31
0
39
0
210
0
220
0
230
1
0
LINE
5
142
100
AcDbEntity
8
1
62
256
6
ByLayer
370
-1
48
1
60
0
100
AcDbLine
10
7.238054
20
10.987684
30
0
11
7.238057
21
10.998135
31
0
39
0
210
0
220
0
230
1
0
LINE
5
143
100
AcDbEntity
8
1
62
256
6
ByLayer
370
-1
48
1
60
0
100
AcDbLine
10
8.394364
20
10.963398
30
0
11
8.394379
21
11.013045
31
0
39
0
210
0
220
0
230
1
0
LINE
5
144
100
AcDbEntity
8
1
62
256
6
ByLayer
370
-1
48
1
60
0
100
AcDbLine
10
9.01804
20
10.973682
30
0
11
9.018052
21
11.013877
31
0
39
0
210
0
220
0
230
1
0
LINE
5
145
100
AcDbEntity
8
SK1
62
256
6
ByLayer
370
-1
48
1
60
0
100
AcDbLine
10
0
20
9.9375
30
0
11
-102.994199
21
9.9375
31
0
39
0
210
0
220
0
230
1
0
LINE
5
147
100
AcDbEntity
8
SK1
62
256
6
ByLayer
370
-1
48
1
60
0
100
AcDbLine
10
0
20
9.9375
30
0
11
0
21
-9.9375
31
0
39
0
210
0
220
0
230
1
0
LINE
5
148
100
AcDbEntity
8
SK1
62
256
6
ByLayer
370
-1
48
1
60
0
100
AcDbLine
10
-102.994199
20
-9.9375
30
0
11
0
21
-9.9375
31
0
39
0
210
0
220
0
230
1
0
LINE
5
149
100
AcDbEntity
8
SK1
62
256
6
ByLayer
370
-1
48
1
60
0
100
AcDbLine
10
-102.994199
20
9.9375
30
0
11
-102.994199
21
-9.9375
31
0
39
0
210
0
220
0
230
1
0
LINE
5
14A
100
AcDbEntity
8
2
62
256
6
ByLayer
370
-1
48
1
60
0
100
AcDbLine
10
0
20
20.6625
30
0
11
23.355801
21
20.6625
31
0
39
0
210
0
220
0
230
1
0
LINE
5
14B
100
AcDbEntity
8
2
62
256
6
ByLayer
370
-1
48
1
60
0
100
AcDbLine
10
23.355801
20
18.5875
30
0
11
23.355801
21
23.6625
31
0
39
0
210
0
220
0
230
1
0
LINE
5
14C
100
AcDbEntity
8
2
62
256
6
ByLayer
370
-1
48
1
60
0
100
AcDbLine
10
0
20
11.4375
30
0
11
0
21
23.6625
31
0
39
0
210
0
220
0
230
1
0
LINE
5
14D
100
AcDbEntity
8
2
62
256
6
ByLayer
370
-1
48
1
60
0
100
AcDbLine
10
23.355801
20
20.6625
30
0
11
20.355803
21
20.267543
31
0
39
0
210
0
220
0
230
1
0
LINE
5
14E
100
AcDbEntity
8
2
62
256
6
ByLayer
370
-1
48
1
60
0
100
AcDbLine
10
23.355801
20
20.6625
30
0
11
20.3558
21
21.057457
31
0
39
0
210
0
220
0
230
1
0
LINE
5
14F
100
AcDbEntity
8
2
62
256
6
ByLayer
370
-1
48
1
60
0
100
AcDbLine
10
20.355803
20
20.267543
30
0
11
20.3558
21
21.057457
31
0
39
0
210
0
220
0
230
1
0
LINE
5
150
100
AcDbEntity
8
2
62
256
6
ByLayer
370
-1
48
1
60
0
100
AcDbLine
10
0
20
20.6625
30
0
11
2.999999
21
21.057457
31
0
39
0
210
0
220
0
230
1
0
LINE
5
151
100
AcDbEntity
8
2
62
256
6
ByLayer
370
-1
48
1
60
0
100
AcDbLine
10
0
20
20.6625
30
0
11
3.000001
21
20.267543
31
0
39
0
210
0
220
0
230
1
0
LINE
5
152
100
AcDbEntity
8
2
62
256
6
ByLayer
370
-1
48
1
60
0
100
AcDbLine
10
2.999999
20
21.057457
30
0
11
3.000001
21
20.267543
31
0
39
0
210
0
220
0
230
1
0
LINE
5
153
100
AcDbEntity
8
SK2
62
256
6
ByLayer
370
-1
48
1
60
0
100
AcDbLine
10
23.355801
20
30.6625
30
0
11
-102.994199
21
30.6625
31
0
39
0
210
0
220
0
230
1
0
LINE
5
155
100
AcDbEntity
8
SK2
62
256
6
ByLayer
370
-1
48
1
60
0
100
AcDbLine
10
-102.994199
20
11.4375
30
0
11
-102.994199
21
33.6625
31
0
39
0
210
0
220
0
230
1
0
LINE
5
156
100
AcDbEntity
8
SK2
62
256
6
ByLayer
370
-1
48
1
60
0
100
AcDbLine
10
23.355801
20
18.5875
30
0
11
23.355801
21
33.6625
31
0
39
0
210
0
220
0
230
1
0
LINE
5
157
100
AcDbEntity
8
SK2
62
256
6
ByLayer
370
-1
48
1
60
0
100
AcDbLine
10
-102.994199
20
30.6625
30
0
11
-99.9942
21
31.057457
31
0
39
0
210
0
220
0
230
1
0
LINE
5
158
100
AcDbEntity
8
SK2
62
256
6
ByLayer
370
-1
48
1
60
0
100
AcDbLine
10
-102.994199
20
30.6625
30
0
11
-99.994197
21
30.267543
31
0
39
0
210
0
220
0
230
1
0
LINE
5
159
100
AcDbEntity
8
SK2
62
256
6
ByLayer
370
-1
48
1
60
0
100
AcDbLine
10
-99.9942
20
31.057457
30
0
11
-99.994197
21
30.267543
31
0
39
0
210
0
220
0
230
1
0
LINE
5
15A
100
AcDbEntity
8
SK2
62
256
6
ByLayer
370
-1
48
1
60
0
100
AcDbLine
10
23.355801
20
30.6625
30
0
11
20.355803
21
30.267543
31
0
39
0
210
0
220
0
230
1
0
LINE
5
15B
100
AcDbEntity
8
SK2
62
256
6
ByLayer
370
-1
48
1
60
0
100
AcDbLine
10
23.355801
20
30.6625
30
0
11
20.3558
21
31.057457
31
0
39
0
210
0
220
0
230
1
0
LINE
5
15C
100
AcDbEntity
8
SK2
62
256
6
ByLayer
370
-1
48
1
60
0
100
AcDbLine
10
20.355803
20
30.267543
30
0
11
20.3558
21
31.057457
31
0
39
0
210
0
220
0
230
1
0
LINE
5
15D
100
AcDbEntity
8
2
62
256
6
ByLayer
370
-1
48
1
60
0
100
AcDbLine
10
37.605801
20
10.9125
30
0
11
37.605801
21
-9.9375
31
0
39
0
210
0
220
0
230
1
0
LINE
5
15E
100
AcDbEntity
8
2
62
256
6
ByLayer
370
-1
48
1
60
0
100
AcDbLine
10
1.5
20
-9.9375
30
0
11
40.605801
21
-9.9375
31
0
39
0
210
0
220
0
230
1
0
LINE
5
15F
100
AcDbEntity
8
2
62
256
6
ByLayer
370
-1
48
1
60
0
100
AcDbLine
10
31.030801
20
10.9125
30
0
11
40.605801
21
10.9125
31
0
39
0
210
0
220
0
230
1
0
LINE
5
160
100
AcDbEntity
8
2
62
256
6
ByLayer
370
-1
48
1
60
0
100
AcDbLine
10
37.605801
20
-9.9375
30
0
11
37.210844
21
-6.937501
31
0
39
0
210
0
220
0
230
1
0
LINE
5
161
100
AcDbEntity
8
2
62
256
6
ByLayer
370
-1
48
1
60
0
100
AcDbLine
10
37.605801
20
-9.9375
30
0
11
38.000759
21
-6.937499
31
0
39
0
210
0
220
0
230
1
0
LINE
5
162
100
AcDbEntity
8
2
62
256
6
ByLayer
370
-1
48
1
60
0
100
AcDbLine
10
37.210844
20
-6.937501
30
0
11
38.000759
21
-6.937499
31
0
39
0
210
0
220
0
230
1
0
LINE
5
163
100
AcDbEntity
8
2
62
256
6
ByLayer
370
-1
48
1
60
0
100
AcDbLine
10
37.605801
20
10.9125
30
0
11
38.000759
21
7.912501
31
0
39
0
210
0
220
0
230
1
0
LINE
5
164
100
AcDbEntity
8
2
62
256
6
ByLayer
370
-1
48
1
60
0
100
AcDbLine
10
37.605801
20
10.9125
30
0
11
37.210844
21
7.912499
31
0
39
0
210
0
220
0
230
1
0
LINE
5
165
100
AcDbEntity
8
2
62
256
6
ByLayer
370
-1
48
1
60
0
100
AcDbLine
10
38.000759
20
7.912501
30
0
11
37.210844
21
7.912499
31
0
39
0
210
0
220
0
230
1
0
MTEXT
5
27B
100
AcDbEntity
8
SK6
62
256
6
ByLayer
370
-1
48
1
60
0
100
AcDbMText
10
-67.287799
20
-2.277034
30
0
210
0
220
0
230
1
1
\W00.738;\fsimplex.shx,bigfont.shx;266RFA-2020-16 
40
3.5
41
0
44
1.084337
50
0
71
7
72
5
7
DEFAULT
0
MTEXT
5
2A1
100
AcDbEntity
8
2
62
256
6
ByLayer
370
-1
48
1
60
0
100
AcDbMText
10
10.173953
20
21.7875
30
0
210
0
220
0
230
1
1
\W00.656;\fsimplex.shx,bigfont.shx;23 
40
4.5
41
0
44
1.084337
50
0
71
7
72
5
7
DEFAULT
0
MTEXT
5
2A2
100
AcDbEntity
8
SK2
62
256
6
ByLayer
370
-1
48
1
60
0
100
AcDbMText
10
-42.41262
20
31.7875
30
0
210
0
220
0
230
1
1
\W00.604;\fsimplex.shx,bigfont.shx;126 
40
4.5
41
0
44
1.084337
50
0
71
7
72
5
7
DEFAULT
0
MTEXT
5
2A3
100
AcDbEntity
8
2
62
256
6
ByLayer
370
-1
48
1
60
0
100
AcDbMText
10
36.480801
20
-0.453947
30
0
210
0
220
0
230
1
1
\W00.614;\fsimplex.shx,bigfont.shx;21 
40
4.5
41
0
44
1.084337
50
89.9999999999999
71
7
72
5
7
DEFAULT
0
DIMENSION
5
2B1
100
AcDbEntity
8
SK2
62
256
6
ByLayer
370
-3
48
1
60
0
100
AcDbDimension
2
DimnDraft3D1
10
-112.744199
20
-9.9375
30
0
11
-112.744199
21
-2.628947
31
0
70
32
71
5
72
1
41
1
210
0
220
0
230
1
3
Standard
100
AcDbAlignedDimension
13
-104.494199
23
9.9375
33
0
14
-104.494199
24
-9.9375
34
0
50
90
100
AcDbRotatedDimension
1001
ACAD
1000
DSTYLE
1002
{
1070
    74
1070
     0
1070
   279
1070
     0
1070
   172
1070
     1
1070
   173
1070
     1
1070
   340
1005
27C
1070
   271
1070
     3
1070
   272
1070
     3
1070
    77
1070
     1
1070
    73
1070
     0
1070
   171
1070
     4
1070
   274
1070
     4
1070
   177
1070
     2
1070
   176
1070
     2
1070
   178
1070
     7
1070
    78
1070
     8
1070
    41
1041
3.0
1070
   147
1041
2.25
1070
    42
1041
1.5
1070
    44
1041
3.0
1070
   140
1041
4.5
1070
   343
1005
2B2
1070
   344
1005
2B2
1002
}
0
ENDSEC
0
SECTION
2
OBJECTS
0
DICTIONARY
5
2e8
330
0
100
AcDbDictionary
280
0
281
1
3
ACAD_GROUP
350
2e9
3
ACAD_MLINESTYLE
350
2ea
0
DICTIONARY
5
2e9
330
0
100
AcDbDictionary
280
0
281
1
0
DICTIONARY
5
2ea
330
0
100
AcDbDictionary
280
0
281
1
3
Standard
350
18
0
MLINESTYLE
5
18
330
2ea
100
AcDbMlineStyle
2
Standard
70
0
3

62
256
51
90
52
90
71
2
49
-0.5
62
256
6
ByLayer
49
0.5
62
256
6
ByLayer
0
RASTERVARIABLES
5
2d7
330

100
AcDbRasterVariables
90
0
70
1
71
1
72
1
0
ENDSEC
0
EOF
