0
SECTION
2
HEADER
9
$ACADVER
1
AC1015
9
$DWGCODEPAGE
3
ANSI_1252
9
$HANDSEED
5
319
9
$ANGBASE
50
0
9
$ANGDIR
70
0
9
$ATTMODE
70
1
9
$AUNITS
70
0
9
$AUPREC
70
0
9
$CECOLOR
62
256
9
$CELTSCALE
40
1
9
$CELTYPE
6
ByLayer
9
$CELWEIGHT
370
-1
9
$CLAYER
8
0
9
$CMLJUST
70
0
9
$CMLSCALE
40
1
9
$CMLSTYLE
2
Standard
9
$DIMSTYLE
2
Standard
9
$TEXTSIZE
40
0.2
9
$TEXTSTYLE
7
Standard
9
$LUNITS
70
2
9
$LUPREC
70
4
9
$EXTNAMES
290
1
9
$INSUNITS
70
4
9
$LTSCALE
40
1
9
$LWDISPLAY
290
0
9
$PDMODE
70
0
9
$PDSIZE
40
0
9
$PLINEGEN
70
0
0
ENDSEC
0
SECTION
2
CLASSES
0
CLASS
1
RASTERVARIABLES
2
AcDbRasterVariables
3
ISM
90
0
280
0
281
0
0
ENDSEC
0
SECTION
2
TABLES
0
TABLE
2
VPORT
5
30f
100
AcDbSymbolTable
0
VPORT
5
1
100
AcDbSymbolTableRecord
100
AcDbViewportTableRecord
2
*Active
70
0
10
0
20
0
11
1
21
1
12
-1
22
1
13
0
23
0
14
0.5
24
0.5
15
10
25
10
16
0
26
0
36
1
17
0
27
0
37
0
0
ENDTAB
0
TABLE
2
LTYPE
5
310
100
AcDbSymbolTable
0
LTYPE
5
14
100
AcDbSymbolTableRecord
100
AcDbLinetypeTableRecord
70
0
2
ByBlock
3

72
65
73
0
40
0
0
LTYPE
5
15
100
AcDbSymbolTableRecord
100
AcDbLinetypeTableRecord
70
0
2
ByLayer
3

72
65
73
0
40
0
0
LTYPE
5
16
100
AcDbSymbolTableRecord
100
AcDbLinetypeTableRecord
70
0
2
CONTINUOUS
3
Solid line
72
65
73
0
40
0
0
LTYPE
5
3B
100
AcDbSymbolTableRecord
100
AcDbLinetypeTableRecord
70
0
2
DASHED
3
__ __ __ __ __ __ __ __ __
72
65
73
2
40
25.72
49
12.86
74
0
49
-12.86
74
0
0
LTYPE
5
3C
100
AcDbSymbolTableRecord
100
AcDbLinetypeTableRecord
70
0
2
HIDDEN
3
_ _ _ _ _ _ _ _ _ _ _ _ _ _ _
72
65
73
2
40
0.5
49
0.25
74
0
49
-0.25
74
0
0
LTYPE
5
3D
100
AcDbSymbolTableRecord
100
AcDbLinetypeTableRecord
70
0
2
PHANTOM
3
____ _ _ ____ _ _ _____ _ _ ____
72
65
73
6
40
50.5
49
18
74
0
49
-6.5
74
0
49
6.5
74
0
49
-6.5
74
0
49
6.5
74
0
49
-6.5
74
0
0
LTYPE
5
3E
100
AcDbSymbolTableRecord
100
AcDbLinetypeTableRecord
70
0
2
CENTER
3
____ _ ____ _ ____ _ ____
72
65
73
4
40
47.5
49
22
74
0
49
-8.5
74
0
49
8.5
74
0
49
-8.5
74
0
0
LTYPE
5
3F
100
AcDbSymbolTableRecord
100
AcDbLinetypeTableRecord
70
0
2
DOT
3
.........................
72
65
73
2
40
10
49
0
74
0
49
-10
74
0
0
LTYPE
5
40
100
AcDbSymbolTableRecord
100
AcDbLinetypeTableRecord
70
0
2
DASHDOT
3
_._._._._._._._._._._._._._._._.
72
65
73
4
40
70
49
31
74
0
49
-13
74
0
49
13
74
0
49
-13
74
0
0
ENDTAB
0
TABLE
2
LAYER
5
311
100
AcDbSymbolTable
0
LAYER
5
10
100
AcDbSymbolTableRecord
100
AcDbLayerTableRecord
2
0
70
0
62
7
6
CONTINUOUS
290
1
370
-3
390
0
0
LAYER
5
42
100
AcDbSymbolTableRecord
100
AcDbLayerTableRecord
2
80
70
0
62
-6
6
CONTINUOUS
290
1
370
-3
390
0
0
LAYER
5
44
100
AcDbSymbolTableRecord
100
AcDbLayerTableRecord
2
81
70
0
62
-3
6
CONTINUOUS
290
1
370
-3
390
0
0
LAYER
5
46
100
AcDbSymbolTableRecord
100
AcDbLayerTableRecord
2
2
70
0
62
7
6
CONTINUOUS
290
1
370
-3
390
0
0
LAYER
5
4A
100
AcDbSymbolTableRecord
100
AcDbLayerTableRecord
2
1
70
0
62
4
6
CONTINUOUS
290
1
370
-3
390
0
0
LAYER
5
2fc
100
AcDbSymbolTableRecord
100
AcDbLayerTableRecord
2
SK1
70
0
62
4
6
CONTINUOUS
290
1
370
-3
390
0
0
LAYER
5
2fd
100
AcDbSymbolTableRecord
100
AcDbLayerTableRecord
2
SK2
70
0
62
7
6
CONTINUOUS
290
1
370
-3
390
0
0
LAYER
5
2fe
100
AcDbSymbolTableRecord
100
AcDbLayerTableRecord
2
SK6
70
0
62
5
6
CONTINUOUS
290
1
370
-3
390
0
0
ENDTAB
0
TABLE
2
STYLE
5
312
100
AcDbSymbolTable
0
STYLE
5
11
100
AcDbSymbolTableRecord
100
AcDbTextStyleTableRecord
2
Standard
3
txt
70
0
71
0
40
0
41
1
42
0
50
0
0
STYLE
5
2A0
100
AcDbSymbolTableRecord
100
AcDbTextStyleTableRecord
2
DEFAULT
3
simplex.shx
70
0
71
0
40
0
41
1
42
0
50
0
0
STYLE
5
2C3
100
AcDbSymbolTableRecord
100
AcDbTextStyleTableRecord
2
DWGDirectTextStyle
3
SIMPLEX
70
0
71
0
40
0
41
1
42
0
50
0
0
ENDTAB
0
TABLE
2
DIMSTYLE
5
313
100
AcDbSymbolTable
100
AcDbDimStyleTable
0
DIMSTYLE
105
27
100
AcDbSymbolTableRecord
100
AcDbDimStyleTableRecord
2
Standard
70
0
3
<>
41
0.18
42
0.0625
44
0.18
140
0.18
147
0.09
73
0
74
0
77
1
271
2
275
0
278
52
280
0
340
11
0
ENDTAB
0
TABLE
2
VIEW
5
314
100
AcDbSymbolTable
0
ENDTAB
0
TABLE
2
UCS
5
315
100
AcDbSymbolTable
0
ENDTAB
0
TABLE
2
APPID
5
316
100
AcDbSymbolTable
0
APPID
5
12
100
AcDbSymbolTableRecord
100
AcDbRegAppTableRecord
2
ACAD
70
0
0
ENDTAB
0
TABLE
2
BLOCK_RECORD
5
317
100
AcDbSymbolTable
0
BLOCK_RECORD
5
1F
100
AcDbSymbolTableRecord
100
AcDbBlockTableRecord
2
*Model_Space
340
0
70
0
0
BLOCK_RECORD
5
1B
100
AcDbSymbolTableRecord
100
AcDbBlockTableRecord
2
*Paper_Space
340
0
70
0
0
BLOCK_RECORD
5
23
100
AcDbSymbolTableRecord
100
AcDbBlockTableRecord
2
*Paper_Space0
340
0
70
0
0
BLOCK_RECORD
5
2C8
100
AcDbSymbolTableRecord
100
AcDbBlockTableRecord
2
DimnDraft3D1
340
0
70
0
0
BLOCK_RECORD
5
2D6
100
AcDbSymbolTableRecord
100
AcDbBlockTableRecord
2
_CLOSED
340
0
70
0
0
ENDTAB
0
ENDSEC
0
SECTION
2
BLOCKS
0
BLOCK
5
20
100
AcDbEntity
8
0
100
AcDbBlockBegin
2
*Model_Space
70
0
10
0
20
0
30
0
3
*Model_Space
0
ENDBLK
5
21
100
AcDbEntity
8
0
100
AcDbBlockEnd
0
BLOCK
5
1C
100
AcDbEntity
8
0
100
AcDbBlockBegin
2
*Paper_Space
70
0
10
0
20
0
30
0
3
*Paper_Space
0
ENDBLK
5
1D
100
AcDbEntity
8
0
100
AcDbBlockEnd
0
BLOCK
5
24
100
AcDbEntity
8
0
100
AcDbBlockBegin
2
*Paper_Space0
70
0
10
0
20
0
30
0
3
*Paper_Space0
0
ENDBLK
5
25
100
AcDbEntity
8
0
100
AcDbBlockEnd
0
BLOCK
5
2D3
100
AcDbEntity
8
0
100
AcDbBlockBegin
2
DimnDraft3D1
70
0
10
0
20
0
30
0
3
DimnDraft3D1
0
MTEXT
5
2C9
100
AcDbEntity
8
SK2
62
256
6
ByLayer
370
-1
48
1
60
0
100
AcDbMText
10
-114.75984
20
-0.941447
30
0
210
0
220
0
230
1
1
\W01.000;\fsimplex.shx,bigfont.shx;16 
40
4.5
41
0
44
1.084337
50
90
71
7
72
5
7
DEFAULT
0
LINE
5
2CA
100
AcDbEntity
8
SK2
62
256
6
ByLayer
370
-1
48
1
60
0
100
AcDbLine
10
-105.38484
20
7.9375
30
0
11
-116.63484
21
7.9375
31
0
39
0
210
0
220
0
230
1
0
LINE
5
2CB
100
AcDbEntity
8
SK2
62
256
6
ByLayer
370
-1
48
1
60
0
100
AcDbLine
10
-105.38484
20
-7.9375
30
0
11
-116.63484
21
-7.9375
31
0
39
0
210
0
220
0
230
1
0
LINE
5
2CC
100
AcDbEntity
8
SK2
62
256
6
ByLayer
370
-1
48
1
60
0
100
AcDbLine
10
-113.63484
20
7.9375
30
0
11
-113.63484
21
-7.9375
31
0
39
0
210
0
220
0
230
1
0
LINE
5
2CD
100
AcDbEntity
8
SK2
62
256
6
ByLayer
370
-1
48
1
60
0
100
AcDbLine
10
-113.63484
20
7.9375
30
0
11
-113.239882
21
4.937501
31
0
39
0
210
0
220
0
230
1
0
LINE
5
2CE
100
AcDbEntity
8
SK2
62
256
6
ByLayer
370
-1
48
1
60
0
100
AcDbLine
10
-113.63484
20
7.9375
30
0
11
-114.029797
21
4.937499
31
0
39
0
210
0
220
0
230
1
0
LINE
5
2CF
100
AcDbEntity
8
SK2
62
256
6
ByLayer
370
-1
48
1
60
0
100
AcDbLine
10
-113.239882
20
4.937501
30
0
11
-114.029797
21
4.937499
31
0
39
0
210
0
220
0
230
1
0
LINE
5
2D0
100
AcDbEntity
8
SK2
62
256
6
ByLayer
370
-1
48
1
60
0
100
AcDbLine
10
-113.63484
20
-7.9375
30
0
11
-114.029797
21
-4.937501
31
0
39
0
210
0
220
0
230
1
0
LINE
5
2D1
100
AcDbEntity
8
SK2
62
256
6
ByLayer
370
-1
48
1
60
0
100
AcDbLine
10
-113.63484
20
-7.9375
30
0
11
-113.239882
21
-4.937499
31
0
39
0
210
0
220
0
230
1
0
LINE
5
2D2
100
AcDbEntity
8
SK2
62
256
6
ByLayer
370
-1
48
1
60
0
100
AcDbLine
10
-114.029797
20
-4.937501
30
0
11
-113.239882
21
-4.937499
31
0
39
0
210
0
220
0
230
1
0
ENDBLK
5
2D4
100
AcDbEntity
8
0
100
AcDbBlockEnd
0
BLOCK
5
2D7
100
AcDbEntity
8
0
100
AcDbBlockBegin
2
_CLOSED
70
0
10
0
20
0
30
0
3
_CLOSED
0
LINE
5
2D9
100
AcDbEntity
8
0
62
256
6
ByLayer
370
-2
48
1
60
0
100
AcDbLine
10
-1
20
0.166667
30
0
11
0
21
0
31
0
39
0
210
0
220
0
230
1
0
LINE
5
2DA
100
AcDbEntity
8
0
62
256
6
ByLayer
370
-2
48
1
60
0
100
AcDbLine
10
0
20
0
30
0
11
-1
21
-0.166667
31
0
39
0
210
0
220
0
230
1
0
LINE
5
2DB
100
AcDbEntity
8
0
62
256
6
ByLayer
370
-2
48
1
60
0
100
AcDbLine
10
-1
20
0.166667
30
0
11
-1
21
-0.166667
31
0
39
0
210
0
220
0
230
1
0
LINE
5
2DC
100
AcDbEntity
8
0
62
256
6
ByLayer
370
-2
48
1
60
0
100
AcDbLine
10
0
20
0
30
0
11
-1
21
0
31
0
39
0
210
0
220
0
230
1
0
ENDBLK
5
2D8
100
AcDbEntity
8
0
100
AcDbBlockEnd
0
ENDSEC
0
SECTION
2
ENTITIES
0
ELLIPSE
5
17D
100
AcDbEntity
8
1
62
256
6
ByLayer
370
-1
48
1
60
0
100
AcDbEllipse
10
7.330246
20
6.142249
30
0
11
-1.08030563170703
21
2.62885184075837
31
0
210
0
220
0
230
1
40
0.404754
41
1.88187489736465
42
2.1644878994272
0
ELLIPSE
5
17E
100
AcDbEntity
8
1
62
256
6
ByLayer
370
-1
48
1
60
0
100
AcDbEllipse
10
12.017613
20
-4.97921
30
0
11
0.162543294864798
21
-1.64197432297052
31
0
210
0
220
0
230
1
40
0.984662
41
1.03785883986451
42
1.35893418721628
0
ELLIPSE
5
17F
100
AcDbEntity
8
1
62
256
6
ByLayer
370
-1
48
1
60
0
100
AcDbEllipse
10
10.795166
20
0.080967
30
0
11
-1.0803056316212
21
2.62885183960164
31
0
210
0
220
0
230
1
40
0.404754
41
1.5992618949797
42
1.88187489713452
0
ELLIPSE
5
180
100
AcDbEntity
8
1
62
256
6
ByLayer
370
-1
48
1
60
0
100
AcDbEllipse
10
12.591424
20
-4.197931
30
0
11
0.163118636092605
21
-1.64778628540054
31
0
210
0
220
0
230
1
40
0.984662
41
-2.22539590413123
42
-1.09050574269851
0
ELLIPSE
5
181
100
AcDbEntity
8
1
62
256
6
ByLayer
370
-1
48
1
60
0
100
AcDbEllipse
10
11.59571
20
-5.020975
30
0
11
-0.162543294864798
21
1.64197432297052
31
0
210
0
220
0
230
1
40
0.984662
41
-1.8969828910156
42
-1.40825361869235
0
ELLIPSE
5
182
100
AcDbEntity
8
1
62
256
6
ByLayer
370
-1
48
1
60
0
100
AcDbEllipse
10
12.839716
20
-4.897827
30
0
11
-0.162543294864798
21
1.64197432297052
31
0
210
0
220
0
230
1
40
0.984662
41
1.59753142449088
42
-1.67693262933211
0
ELLIPSE
5
183
100
AcDbEntity
8
1
62
256
6
ByLayer
370
-1
48
1
60
0
100
AcDbEllipse
10
11.578348
20
-5.022694
30
0
11
-0.162543294864798
21
1.64197432297052
31
0
210
0
220
0
230
1
40
0.984662
41
-2.74088988484876
42
-1.40826551273559
0
ELLIPSE
5
184
100
AcDbEntity
8
1
62
256
6
ByLayer
370
-1
48
1
60
0
100
AcDbEllipse
10
18.031332
20
-4.383896
30
0
11
-4.6096655353777
21
-1.73358190531629
31
0
210
0
220
0
230
1
40
0.221124
41
-0.773224132266373
42
-0.361365533148763
0
ELLIPSE
5
185
100
AcDbEntity
8
1
62
256
6
ByLayer
370
-1
48
1
60
0
100
AcDbEllipse
10
11.838181
20
-3.771159
30
0
11
-0.208520514880177
21
2.1064254390231
31
0
210
0
220
0
230
1
40
0.984662
41
-2.54289838283157
42
-1.88241829184334
0
ELLIPSE
5
186
100
AcDbEntity
8
1
62
256
6
ByLayer
370
-1
48
1
60
0
100
AcDbEllipse
10
12.260084
20
-3.729394
30
0
11
-0.197022175593694
21
1.99027190663093
31
0
210
0
220
0
230
1
40
0.984662
41
-2.47092466409963
42
-1.815846359516
0
ELLIPSE
5
187
100
AcDbEntity
8
1
62
256
6
ByLayer
370
-1
48
1
60
0
100
AcDbEllipse
10
14.535007
20
-4.7301
30
0
11
-6.17363557543695
21
-2.1777925396713
31
0
210
0
220
0
230
1
40
0.084923
41
1.37129149342852
42
1.38623492297039
0
ELLIPSE
5
188
100
AcDbEntity
8
1
62
256
6
ByLayer
370
-1
48
1
60
0
100
AcDbEllipse
10
6.059659
20
7.159639
30
0
11
0.0180802375823472
21
-0.199181085971951
31
0
210
0
220
0
230
1
40
0.984685
41
3.14158796552845
42
-2.70713969510989
0
ELLIPSE
5
189
100
AcDbEntity
8
1
62
256
6
ByLayer
370
-1
48
1
60
0
100
AcDbEllipse
10
13.148165
20
3.285469
30
0
11
-0.272104028280536
21
2.9976362646461
31
0
210
0
220
0
230
1
40
0.984685
41
-0.0919249144870068
42
-2.99669167047501E-16
0
ELLIPSE
5
18A
100
AcDbEntity
8
1
62
256
6
ByLayer
370
-1
48
1
60
0
100
AcDbEllipse
10
13.148165
20
3.285469
30
0
11
-0.272104028280536
21
2.9976362646461
31
0
210
0
220
0
230
1
40
0.984685
41
0
42
0.378891176427945
0
ELLIPSE
5
18B
100
AcDbEntity
8
1
62
256
6
ByLayer
370
-1
48
1
60
0
100
AcDbEllipse
10
13.148165
20
3.285469
30
0
11
-0.272104028280536
21
2.9976362646461
31
0
210
0
220
0
230
1
40
0.984685
41
2.76257471391442
42
-0.0919249144870185
0
ELLIPSE
5
18C
100
AcDbEntity
8
1
62
256
6
ByLayer
370
-1
48
1
60
0
100
AcDbEllipse
10
9.669033
20
7.794724
30
0
11
0.0180802375823472
21
-0.199181085971951
31
0
210
0
220
0
230
1
40
0.984685
41
-3.14158718612369
42
-2.70713969510994
0
ELLIPSE
5
18D
100
AcDbEntity
8
1
62
256
6
ByLayer
370
-1
48
1
60
0
100
AcDbEllipse
10
7.820484
20
7.426368
30
0
11
-0.0117521544285253
21
0.129467705881769
31
0
210
0
220
0
230
1
40
0.984685
41
-1.01564222118323E-05
42
0.434452958479994
0
ELLIPSE
5
18E
100
AcDbEntity
8
1
62
256
6
ByLayer
370
-1
48
1
60
0
100
AcDbEllipse
10
12.509288
20
-4.456091
30
0
11
0.0180802375823472
21
-0.199181085971951
31
0
210
0
220
0
230
1
40
0.984685
41
-0.612744592716628
42
-1.19043037694558E-05
0
ELLIPSE
5
18F
100
AcDbEntity
8
1
62
256
6
ByLayer
370
-1
48
1
60
0
100
AcDbEllipse
10
11.950836
20
-3.36462
30
0
11
0.0117521544285257
21
-0.129467705881768
31
0
210
0
220
0
230
1
40
0.984685
41
-0.612744592716436
42
-1.07325119502396E-05
0
ELLIPSE
5
190
100
AcDbEntity
8
1
62
256
6
ByLayer
370
-1
48
1
60
0
100
AcDbEllipse
10
13.1045
20
3.281505
30
0
11
-0.264066187850102
21
2.90908732946141
31
0
210
0
220
0
230
1
40
0.984685
41
-0.0919247418532628
42
-3.08790717088645E-16
0
ELLIPSE
5
191
100
AcDbEntity
8
1
62
256
6
ByLayer
370
-1
48
1
60
0
100
AcDbEllipse
10
13.1045
20
3.281505
30
0
11
-0.264066187850102
21
2.90908732946141
31
0
210
0
220
0
230
1
40
0.984685
41
0
42
0.77011756199547
0
ELLIPSE
5
192
100
AcDbEntity
8
1
62
256
6
ByLayer
370
-1
48
1
60
0
100
AcDbEllipse
10
13.1045
20
3.281505
30
0
11
-0.264066187850102
21
2.90908732946141
31
0
210
0
220
0
230
1
40
0.984685
41
2.37134805682969
42
-2.21606450544834
0
ELLIPSE
5
193
100
AcDbEntity
8
1
62
256
6
ByLayer
370
-1
48
1
60
0
100
AcDbEllipse
10
13.1045
20
3.281505
30
0
11
-0.264066187850102
21
2.90908732946141
31
0
210
0
220
0
230
1
40
0.984685
41
-0.880494727721669
42
-0.0919247418532547
0
ELLIPSE
5
194
100
AcDbEntity
8
1
62
256
6
ByLayer
370
-1
48
1
60
0
100
AcDbEllipse
10
13.096127
20
1.801278
30
0
11
-0.388113116813988
21
0.000380450307994226
31
0
210
0
220
0
230
1
40
0.497203
41
2.27217074989544
42
-3.08247600625906
0
ELLIPSE
5
195
100
AcDbEntity
8
1
62
256
6
ByLayer
370
-1
48
1
60
0
100
AcDbEllipse
10
13.139446
20
3.289185
30
0
11
-0.268442714246408
21
2.71174547278464
31
0
210
0
220
0
230
1
40
0.984662
41
0
42
-3.14154120612564
0
ELLIPSE
5
196
100
AcDbEntity
8
1
62
256
6
ByLayer
370
-1
48
1
60
0
100
AcDbEllipse
10
12.357483
20
4.568844
30
0
11
-0.334789202942989
21
-0.198289421907033
31
0
210
0
220
0
230
1
40
0.494673
41
0.152897912345708
42
0.815285064498012
0
ELLIPSE
5
197
100
AcDbEntity
8
1
62
256
6
ByLayer
370
-1
48
1
60
0
100
AcDbEllipse
10
13.087273
20
4.76764
30
0
11
-0.38811311681399
21
0.000380450307994056
31
0
210
0
220
0
230
1
40
0.497203
41
3.08641908149597
42
-1.68583207080395
0
ELLIPSE
5
198
100
AcDbEntity
8
1
62
256
6
ByLayer
370
-1
48
1
60
0
100
AcDbEllipse
10
13.825917
20
2.000073
30
0
11
-0.334789202943179
21
-0.198289421907457
31
0
210
0
220
0
230
1
40
0.494673
41
-2.32630559314556
42
-1.57842127978382
0
ELLIPSE
5
199
100
AcDbEntity
8
1
62
256
6
ByLayer
370
-1
48
1
60
0
100
AcDbEllipse
10
13.818249
20
4.568844
30
0
11
-0.335790509927052
21
0.19859929857254
31
0
210
0
220
0
230
1
40
0.492091
41
1.58029449206736
42
2.55058598128514
0
ELLIPSE
5
19A
100
AcDbEntity
8
1
62
256
6
ByLayer
370
-1
48
1
60
0
100
AcDbEllipse
10
14.359059
20
2.542868
30
0
11
-0.191488483430401
21
-0.342136907191932
31
0
210
0
220
0
230
1
40
0.487198
41
0.934133529178706
42
-3.09379216279869
0
ELLIPSE
5
19B
100
AcDbEntity
8
1
62
256
6
ByLayer
370
-1
48
1
60
0
100
AcDbEllipse
10
14.354632
20
4.026049
30
0
11
-0.19385766987815
21
0.341952608842194
31
0
210
0
220
0
230
1
40
0.484716
41
3.09182378148313
42
-0.897947826113476
0
ELLIPSE
5
19C
100
AcDbEntity
8
1
62
256
6
ByLayer
370
-1
48
1
60
0
100
AcDbEllipse
10
13.0917
20
3.284459
30
0
11
0.127108856584275
21
-1.28402392056298
31
0
210
0
220
0
230
1
40
0.984662
41
-1.36444026834925
42
-0.767325323208028
0
ELLIPSE
5
19D
100
AcDbEntity
8
1
62
256
6
ByLayer
370
-1
48
1
60
0
100
AcDbEllipse
10
13.0917
20
3.284459
30
0
11
-0.127108856584272
21
1.28402392056295
31
0
210
0
220
0
230
1
40
0.984662
41
0.533818252293929
42
1.13559682605489
0
ELLIPSE
5
19E
100
AcDbEntity
8
1
62
256
6
ByLayer
370
-1
48
1
60
0
100
AcDbEllipse
10
13.0917
20
3.284459
30
0
11
-0.127108856584272
21
1.28402392056295
31
0
210
0
220
0
230
1
40
0.984662
41
-0.620766087096183
42
0.107609258492561
0
ELLIPSE
5
19F
100
AcDbEntity
8
1
62
256
6
ByLayer
370
-1
48
1
60
0
100
AcDbEllipse
10
13.0917
20
3.284459
30
0
11
-0.127108856584272
21
1.28402392056295
31
0
210
0
220
0
230
1
40
0.984662
41
2.89058537899358
42
-2.71516118948926
0
ELLIPSE
5
1A0
100
AcDbEntity
8
1
62
256
6
ByLayer
370
-1
48
1
60
0
100
AcDbEllipse
10
6.296204
20
7.096077
30
0
11
-3.09999952421012
21
0.00171752643496663
31
0
210
0
220
0
230
1
40
0.053315
41
1.30969181511992
42
1.42338015756631
0
ELLIPSE
5
1A1
100
AcDbEntity
8
1
62
256
6
ByLayer
370
-1
48
1
60
0
100
AcDbEllipse
10
6.296814
20
8.194513
30
0
11
-1.69999973908298
21
0.000941869335304288
31
0
210
0
220
0
230
1
40
0.053315
41
0
42
6.28318530717959
0
ELLIPSE
5
1A2
100
AcDbEntity
8
1
62
256
6
ByLayer
370
-1
48
1
60
0
100
AcDbEllipse
10
14.552465
20
3.284459
30
0
11
-0.00153284668089484
21
0.394041092523641
31
0
210
0
220
0
230
1
40
0.482349
41
0.15864649680879
42
1.56891995826549
0
ELLIPSE
5
1A3
100
AcDbEntity
8
1
62
256
6
ByLayer
370
-1
48
1
60
0
100
AcDbEllipse
10
13.818249
20
4.568844
30
0
11
-0.335790509928343
21
0.198599298572688
31
0
210
0
220
0
230
1
40
0.492091
41
0.170021030607563
42
1.58029449206462
0
ELLIPSE
5
1A4
100
AcDbEntity
8
1
62
256
6
ByLayer
370
-1
48
1
60
0
100
AcDbEllipse
10
14.552465
20
3.284459
30
0
11
-0.00153284667988785
21
0.394041092523057
31
0
210
0
220
0
230
1
40
0.482349
41
1.5689199582712
42
2.97919341972911
0
ELLIPSE
5
1A5
100
AcDbEntity
8
1
62
256
6
ByLayer
370
-1
48
1
60
0
100
AcDbEllipse
10
6.296814
20
8.194513
30
0
11
1.4096997836383
21
-0.000781031295274676
31
0
210
0
220
0
230
1
40
0.053315
41
0.698069240706475
42
1.74526679190282
0
ELLIPSE
5
1A6
100
AcDbEntity
8
1
62
256
6
ByLayer
370
-1
48
1
60
0
100
AcDbEllipse
10
6.296814
20
8.194513
30
0
11
1.4096997836383
21
-0.000781031295274676
31
0
210
0
220
0
230
1
40
0.053315
41
1.74526679190282
42
2.79246434309959
0
ELLIPSE
5
1A7
100
AcDbEntity
8
1
62
256
6
ByLayer
370
-1
48
1
60
0
100
AcDbEllipse
10
6.296814
20
8.194513
30
0
11
1.4096997836383
21
-0.000781031295274676
31
0
210
0
220
0
230
1
40
0.053315
41
-1.39632586168697
42
-0.349128310490128
0
ELLIPSE
5
1A8
100
AcDbEntity
8
1
62
256
6
ByLayer
370
-1
48
1
60
0
100
AcDbEllipse
10
6.296814
20
8.194513
30
0
11
1.4096997836383
21
-0.000781031295274676
31
0
210
0
220
0
230
1
40
0.053315
41
2.79246434309959
42
-2.44352341288335
0
ELLIPSE
5
1A9
100
AcDbEntity
8
1
62
256
6
ByLayer
370
-1
48
1
60
0
100
AcDbEllipse
10
6.296814
20
8.194513
30
0
11
1.4096997836383
21
-0.000781031295274676
31
0
210
0
220
0
230
1
40
0.053315
41
-2.44352341288335
42
-1.39632586168697
0
ELLIPSE
5
1AA
100
AcDbEntity
8
1
62
256
6
ByLayer
370
-1
48
1
60
0
100
AcDbEllipse
10
6.296814
20
8.194513
30
0
11
1.4096997836383
21
-0.000781031295274676
31
0
210
0
220
0
230
1
40
0.053315
41
-0.349128310490128
42
0.698069240706475
0
ELLIPSE
5
1AB
100
AcDbEntity
8
1
62
256
6
ByLayer
370
-1
48
1
60
0
100
AcDbEllipse
10
15.426521
20
-3.045898
30
0
11
-2.31605436845364
21
-1.37369459280813
31
0
210
0
220
0
230
1
40
0.315635
41
-0.170580784555743
42
-0.00298511000616072
0
ELLIPSE
5
1AC
100
AcDbEntity
8
1
62
256
6
ByLayer
370
-1
48
1
60
0
100
AcDbEllipse
10
18.884718
20
4.888874
30
0
11
-0.0456617359540297
21
0.124163624780931
31
0
210
0
220
0
230
1
40
0.697969
41
0.951900385200392
42
1.29670867613001
0
ELLIPSE
5
1AD
100
AcDbEntity
8
1
62
256
6
ByLayer
370
-1
48
1
60
0
100
AcDbEllipse
10
18.656025
20
7.419646
30
0
11
0.16420228264977
21
0.286247463521696
31
0
210
0
220
0
230
1
40
0.007742
41
-1.5842494626374
42
-1.23518361223889
0
ELLIPSE
5
1AE
100
AcDbEntity
8
1
62
256
6
ByLayer
370
-1
48
1
60
0
100
AcDbEllipse
10
17.763755
20
8.056007
30
0
11
0.319998801299914
21
0.000875880481822916
31
0
210
0
220
0
230
1
40
0.015521
41
-1.74535049498341
42
-1.570817569784
0
ELLIPSE
5
1AF
100
AcDbEntity
8
1
62
256
6
ByLayer
370
-1
48
1
60
0
100
AcDbEllipse
10
11.115304
20
-2.541344
30
0
11
-0.0117521544285254
21
0.129467705881769
31
0
210
0
220
0
230
1
40
0.984685
41
-1.65328798638697
42
-0.612744592716567
0
ELLIPSE
5
1B0
100
AcDbEntity
8
1
62
256
6
ByLayer
370
-1
48
1
60
0
100
AcDbEllipse
10
14.439179
20
-2.7123
30
0
11
0.161632485826136
21
0.276179180108972
31
0
210
0
220
0
230
1
40
0.142623
41
1.67227178372677
42
1.84680470892614
0
ELLIPSE
5
1B1
100
AcDbEntity
8
1
62
256
6
ByLayer
370
-1
48
1
60
0
100
AcDbEllipse
10
13.0917
20
3.284459
30
0
11
-0.127108856584272
21
1.28402392056295
31
0
210
0
220
0
230
1
40
0.984662
41
-2.71516118948937
42
-1.66796363829267
0
ELLIPSE
5
1B2
100
AcDbEntity
8
1
62
256
6
ByLayer
370
-1
48
1
60
0
100
AcDbEllipse
10
13.0917
20
3.284459
30
0
11
-0.127108856584272
21
1.28402392056295
31
0
210
0
220
0
230
1
40
0.984662
41
-1.66796363829278
42
-0.620766087096071
0
ELLIPSE
5
1B3
100
AcDbEntity
8
1
62
256
6
ByLayer
370
-1
48
1
60
0
100
AcDbEllipse
10
13.365156
20
3.311529
30
0
11
0.165143987582638
21
-1.66824591213808
31
0
210
0
220
0
230
1
40
0.984662
41
1.9972277908954
42
3.04442534209194
0
ELLIPSE
5
1B4
100
AcDbEntity
8
1
62
256
6
ByLayer
370
-1
48
1
60
0
100
AcDbEllipse
10
13.365156
20
3.311529
30
0
11
0.165143987582638
21
-1.66824591213808
31
0
210
0
220
0
230
1
40
0.984662
41
-1.1443648626944
42
-0.0971673114978061
0
ELLIPSE
5
1B5
100
AcDbEntity
8
1
62
256
6
ByLayer
370
-1
48
1
60
0
100
AcDbEllipse
10
13.365156
20
3.311529
30
0
11
0.165143987582638
21
-1.66824591213808
31
0
210
0
220
0
230
1
40
0.984662
41
3.04442534209194
42
-2.19156241389098
0
ELLIPSE
5
1B6
100
AcDbEntity
8
1
62
256
6
ByLayer
370
-1
48
1
60
0
100
AcDbEllipse
10
13.365156
20
3.311529
30
0
11
0.165143987582638
21
-1.66824591213808
31
0
210
0
220
0
230
1
40
0.984662
41
-0.0971673114978061
42
0.950030239698779
0
ELLIPSE
5
1B7
100
AcDbEntity
8
1
62
256
6
ByLayer
370
-1
48
1
60
0
100
AcDbEllipse
10
13.365156
20
3.311529
30
0
11
0.165143987582638
21
-1.66824591213808
31
0
210
0
220
0
230
1
40
0.984662
41
-2.19156241389097
42
-1.1443648626944
0
ELLIPSE
5
1B8
100
AcDbEntity
8
1
62
256
6
ByLayer
370
-1
48
1
60
0
100
AcDbEllipse
10
13.365156
20
3.311529
30
0
11
0.165143987582638
21
-1.66824591213808
31
0
210
0
220
0
230
1
40
0.984662
41
0.950030239698779
42
1.9972277908954
0
ELLIPSE
5
1B9
100
AcDbEntity
8
1
62
256
6
ByLayer
370
-1
48
1
60
0
100
AcDbEllipse
10
13.354498
20
3.310474
30
0
11
-0.268442714246408
21
2.71174547278464
31
0
210
0
220
0
230
1
40
0.984662
41
0
42
6.28318530717959
0
ELLIPSE
5
1BA
100
AcDbEntity
8
1
62
256
6
ByLayer
370
-1
48
1
60
0
100
AcDbEllipse
10
13.365156
20
3.311529
30
0
11
-0.177319958034327
21
1.79124471596787
31
0
210
0
220
0
230
1
40
0.984662
41
0
42
6.28318530717959
0
ELLIPSE
5
1BB
100
AcDbEntity
8
1
62
256
6
ByLayer
370
-1
48
1
60
0
100
AcDbEllipse
10
13.825917
20
2.000073
30
0
11
-0.334789202943757
21
-0.198289421907593
31
0
210
0
220
0
230
1
40
0.494673
41
-1.57842127978372
42
-0.168147818324943
0
ELLIPSE
5
1BC
100
AcDbEntity
8
1
62
256
6
ByLayer
370
-1
48
1
60
0
100
AcDbEllipse
10
17.141461
20
0.915262
30
0
11
-3.30643715532042E-16
21
-1.8
31
0
210
0
220
0
230
1
40
0.173648
41
0.527406108412221
42
0.754298911171547
0
ELLIPSE
5
1BD
100
AcDbEntity
8
1
62
256
6
ByLayer
370
-1
48
1
60
0
100
AcDbEllipse
10
17.317183
20
0.724075
30
0
11
-4.59227382683391E-17
21
-0.25
31
0
210
0
220
0
230
1
40
0.173648
41
-1.09015436395412
42
-0.502338150264381
0
ELLIPSE
5
1BE
100
AcDbEntity
8
1
62
256
6
ByLayer
370
-1
48
1
60
0
100
AcDbEllipse
10
17.325125
20
0.083149
30
0
11
-4.59227382683391E-17
21
-0.25
31
0
210
0
220
0
230
1
40
0.173648
41
1.58333030586885
42
2.41236170056626
0
ELLIPSE
5
1BF
100
AcDbEntity
8
1
62
256
6
ByLayer
370
-1
48
1
60
0
100
AcDbEllipse
10
17.145788
20
-1.072666
30
0
11
-3.30643715532042E-16
21
-1.8
31
0
210
0
220
0
230
1
40
0.173648
41
2.41236170056618
42
2.63925450332539
0
ELLIPSE
5
1C0
100
AcDbEntity
8
1
62
256
6
ByLayer
370
-1
48
1
60
0
100
AcDbEllipse
10
17.320623
20
-0.856175
30
0
11
-4.59227382683391E-17
21
-0.25
31
0
210
0
220
0
230
1
40
0.173648
41
-2.6141865451773
42
-2.03075104594593
0
ELLIPSE
5
1C1
100
AcDbEntity
8
1
62
256
6
ByLayer
370
-1
48
1
60
0
100
AcDbEllipse
10
17.325772
20
-0.214304
30
0
11
-4.59227382683391E-17
21
-0.25
31
0
210
0
220
0
230
1
40
0.173648
41
0.754298911171523
42
1.58333030586885
0
ELLIPSE
5
1C2
100
AcDbEntity
8
1
62
256
6
ByLayer
370
-1
48
1
60
0
100
AcDbEllipse
10
14.026522
20
-3.564609
30
0
11
-0.138398498626077
21
0.213648907270896
31
0
210
0
220
0
230
1
40
0.952315
41
-1.92630059604851
42
-1.62136333106752
0
ELLIPSE
5
1C3
100
AcDbEntity
8
1
62
256
6
ByLayer
370
-1
48
1
60
0
100
AcDbEllipse
10
9.027273
20
7.471006
30
0
11
-0.16105756640219
21
0.0288747061213283
31
0
210
0
220
0
230
1
40
0.77681
41
2.00013870563745
42
2.34494699698453
0
ELLIPSE
5
1C4
100
AcDbEntity
8
1
62
256
6
ByLayer
370
-1
48
1
60
0
100
AcDbEllipse
10
18.658011
20
6.694077
30
0
11
-0.165766666325404
21
0.285344374984618
31
0
210
0
220
0
230
1
40
0.007779
41
1.58422822348668
42
1.93329407388587
0
ELLIPSE
5
1C5
100
AcDbEntity
8
1
62
256
6
ByLayer
370
-1
48
1
60
0
100
AcDbEllipse
10
19.169983
20
5.360304
30
0
11
-0.132004968948877
21
-0.000359883241730536
31
0
210
0
220
0
230
1
40
0.984689
41
2.10105994490937
42
-3.14158196862167
0
ELLIPSE
5
1C6
100
AcDbEntity
8
1
62
256
6
ByLayer
370
-1
48
1
60
0
100
AcDbEllipse
10
16.524968
20
8.060893
30
0
11
-0.176125829981714
21
-0.000349642819785794
31
0
210
0
220
0
230
1
40
0.013275
41
-2.75421869631517
42
-1.71923844992235
0
ELLIPSE
5
1C7
100
AcDbEntity
8
1
62
256
6
ByLayer
370
-1
48
1
60
0
100
AcDbEllipse
10
18.472626
20
7.853004
30
0
11
-0.203084567610546
21
-0.000553666737650124
31
0
210
0
220
0
230
1
40
0.984689
41
-2.10103857597687
42
-1.57078564286372
0
ELLIPSE
5
1C8
100
AcDbEntity
8
1
62
256
6
ByLayer
370
-1
48
1
60
0
100
AcDbEllipse
10
13.460536
20
7.185537
30
0
11
0.135500750613122
21
-0.0643393082281792
31
0
210
0
220
0
230
1
40
0.089727
41
1.42014369360352
42
2.12893318312618
0
ELLIPSE
5
1C9
100
AcDbEntity
8
1
62
256
6
ByLayer
370
-1
48
1
60
0
100
AcDbEllipse
10
8.483351
20
7.486538
30
0
11
-0.0393851345052119
21
-0.124684027150137
31
0
210
0
220
0
230
1
40
0.960533
41
2.917846372605
42
-2.32479554091256
0
ELLIPSE
5
1CA
100
AcDbEntity
8
1
62
256
6
ByLayer
370
-1
48
1
60
0
100
AcDbEllipse
10
19.82276
20
7.070159
30
0
11
-1.20875914383449
21
0.275308272496527
31
0
210
0
220
0
230
1
40
0.044146
41
-1.62751893164666
42
-1.45992325505997
0
ELLIPSE
5
1CB
100
AcDbEntity
8
1
62
256
6
ByLayer
370
-1
48
1
60
0
100
AcDbEllipse
10
12.328123
20
8.060893
30
0
11
-0.15010027205055
21
-0.000410293034069655
31
0
210
0
220
0
230
1
40
0.015511
41
-2.45402146309267
42
-1.74523197305508
0
ELLIPSE
5
1CC
100
AcDbEntity
8
1
62
256
6
ByLayer
370
-1
48
1
60
0
100
AcDbEllipse
10
6.963553
20
6.022931
30
0
11
0.118305764501743
21
0.225396863522229
31
0
210
0
220
0
230
1
40
0.956983
41
-2.9891457889723
42
-2.68420852399133
0
ELLIPSE
5
1CD
100
AcDbEntity
8
1
62
256
6
ByLayer
370
-1
48
1
60
0
100
AcDbEllipse
10
10.888234
20
-1.517479
30
0
11
0.0180802375823472
21
-0.199181085971951
31
0
210
0
220
0
230
1
40
0.984685
41
-1.13634336831485
42
-0.612744592716628
0
ELLIPSE
5
1CE
100
AcDbEntity
8
1
62
256
6
ByLayer
370
-1
48
1
60
0
100
AcDbEllipse
10
7.039188
20
6.713634
30
0
11
-0.32985002043205
21
0.00994806619280007
31
0
210
0
220
0
230
1
40
0.131594
41
-1.30688997975219
42
-0.957824129353295
0
ELLIPSE
5
1CF
100
AcDbEntity
8
1
62
256
6
ByLayer
370
-1
48
1
60
0
100
AcDbEllipse
10
19.168141
20
6.033282
30
0
11
-0.13200496894392
21
-0.000359883315171263
31
0
210
0
220
0
230
1
40
0.984689
41
-3.14158196916906
42
-2.18886229224505
0
ELLIPSE
5
1D0
100
AcDbEntity
8
1
62
256
6
ByLayer
370
-1
48
1
60
0
100
AcDbEllipse
10
18.362227
20
6.919823
30
0
11
-0.491325860448362
21
-0.830376881108151
31
0
210
0
220
0
230
1
40
0.342013
41
-3.1369830254778
42
-2.31470180314289
0
ELLIPSE
5
1D1
100
AcDbEntity
8
1
62
256
6
ByLayer
370
-1
48
1
60
0
100
AcDbEllipse
10
13.460415
20
-3.166989
30
0
11
-0.02082150685074
21
-0.329342473502074
31
0
210
0
220
0
230
1
40
0.570502
41
-2.20304709528557
42
-1.38076587295059
0
ELLIPSE
5
1D2
100
AcDbEntity
8
1
62
256
6
ByLayer
370
-1
48
1
60
0
100
AcDbEllipse
10
19.275984
20
6.334268
30
0
11
-0.132004968947658
21
-0.000359883271235276
31
0
210
0
220
0
230
1
40
0.984689
41
-1.04053270890536
42
1.06847486380285E-05
0
ELLIPSE
5
1D3
100
AcDbEntity
8
1
62
256
6
ByLayer
370
-1
48
1
60
0
100
AcDbEllipse
10
14.0803
20
-3.529773
30
0
11
0.168459357975663
21
-0.283763008002149
31
0
210
0
220
0
230
1
40
0.304906
41
-1.55887814206456
42
-1.20981229166562
0
ELLIPSE
5
1D4
100
AcDbEntity
8
1
62
256
6
ByLayer
370
-1
48
1
60
0
100
AcDbEllipse
10
18.656714
20
7.416427
30
0
11
-0.254558441227157
21
3.11733884545897E-17
31
0
210
0
220
0
230
1
40
0.99988
41
-0.839157347883312
42
-0.534219985806946
0
ELLIPSE
5
1D5
100
AcDbEntity
8
1
62
256
6
ByLayer
370
-1
48
1
60
0
100
AcDbEllipse
10
17.76573
20
7.334407
30
0
11
0.272189295186316
21
0.168264635577345
31
0
210
0
220
0
230
1
40
0.078857
41
1.72740842256124
42
2.76238866899413
0
ELLIPSE
5
1D6
100
AcDbEntity
8
1
62
256
6
ByLayer
370
-1
48
1
60
0
100
AcDbEllipse
10
18.361499
20
7.185765
30
0
11
-0.495864210015733
21
0.827675111816465
31
0
210
0
220
0
230
1
40
0.342013
41
2.3147016814182
42
3.13698290375697
0
ELLIPSE
5
1D7
100
AcDbEntity
8
1
62
256
6
ByLayer
370
-1
48
1
60
0
100
AcDbEllipse
10
14.482408
20
-3.628286
30
0
11
-0.0823724034782564
21
0.183198314516302
31
0
210
0
220
0
230
1
40
0.958693
41
-3.03303518587032
42
-2.50278225287696
0
ELLIPSE
5
1D8
100
AcDbEntity
8
1
62
256
6
ByLayer
370
-1
48
1
60
0
100
AcDbEllipse
10
12.613702
20
-3.30445
30
0
11
-0.0535420619743109
21
0.119078904503622
31
0
210
0
220
0
230
1
40
0.958693
41
2.20960672980143
42
-3.12085890047574
0
ELLIPSE
5
1D9
100
AcDbEntity
8
1
62
256
6
ByLayer
370
-1
48
1
60
0
100
AcDbEllipse
10
13.736519
20
-3.065837
30
0
11
-0.485450528826606
21
0.833793599930224
31
0
210
0
220
0
230
1
40
0.325762
41
-3.13882244233732
42
-2.31654122000392
0
ELLIPSE
5
1DA
100
AcDbEntity
8
1
62
256
6
ByLayer
370
-1
48
1
60
0
100
AcDbEllipse
10
7.133402
20
4.508894
30
0
11
-0.18980954911524
21
0.325785750381962
31
0
210
0
220
0
230
1
40
0.134321
41
1.50813151136484
42
2.5431117577832
0
ELLIPSE
5
1DB
100
AcDbEntity
8
1
62
256
6
ByLayer
370
-1
48
1
60
0
100
AcDbEllipse
10
13.963725
20
-3.198809
30
0
11
-0.931731499540659
21
0.000583048784610116
31
0
210
0
220
0
230
1
40
0.349309
41
-0.809560664675889
42
0.0127205576559928
0
ELLIPSE
5
1DC
100
AcDbEntity
8
1
62
256
6
ByLayer
370
-1
48
1
60
0
100
AcDbEllipse
10
7.017503
20
5.994613
30
0
11
0.0155171404431602
21
-0.329634977440907
31
0
210
0
220
0
230
1
40
0.571905
41
-1.72306273859039
42
-0.900781516255324
0
ELLIPSE
5
1DD
100
AcDbEntity
8
1
62
256
6
ByLayer
370
-1
48
1
60
0
100
AcDbEllipse
10
13.044368
20
6.677089
30
0
11
0.0367863585044433
21
0.145419269108267
31
0
210
0
220
0
230
1
40
0.164735
41
-1.5129041051905
42
-1.33837117999121
0
ELLIPSE
5
1DE
100
AcDbEntity
8
1
62
256
6
ByLayer
370
-1
48
1
60
0
100
AcDbEllipse
10
13.409671
20
-4.23129
30
0
11
-0.748650553909755
21
-0.868263557574714
31
0
210
0
220
0
230
1
40
0.006448
41
-1.45645605650423
42
-1.28886028372893
0
ELLIPSE
5
1DF
100
AcDbEntity
8
1
62
256
6
ByLayer
370
-1
48
1
60
0
100
AcDbEllipse
10
13.323103
20
3.301349
30
0
11
-0.27847325063176
21
3.06780285504269
31
0
210
0
220
0
230
1
40
0.984685
41
0
42
6.28318530717959
0
ELLIPSE
5
1E0
100
AcDbEntity
8
1
62
256
6
ByLayer
370
-1
48
1
60
0
100
AcDbEllipse
10
17.460516
20
5.684471
30
0
11
-2.44476098233604
21
-1.42021440826836
31
0
210
0
220
0
230
1
40
0.300609
41
-3.13729904535556
42
-2.96970337032473
0
ELLIPSE
5
1E1
100
AcDbEntity
8
1
62
256
6
ByLayer
370
-1
48
1
60
0
100
AcDbEllipse
10
10.542554
20
1.395877
30
0
11
-0.144249644291542
21
-0.0411344152962392
31
0
210
0
220
0
230
1
40
0.032944
41
1.56840483871179
42
1.74293776391137
0
ELLIPSE
5
1E2
100
AcDbEntity
8
1
62
256
6
ByLayer
370
-1
48
1
60
0
100
AcDbEllipse
10
12.038749
20
-2.967961
30
0
11
-0.0535420620057832
21
0.11907890448111
31
0
210
0
220
0
230
1
40
0.958693
41
1.16906333581868
42
2.2096067295142
0
ELLIPSE
5
1E3
100
AcDbEntity
8
1
62
256
6
ByLayer
370
-1
48
1
60
0
100
AcDbEllipse
10
13.868081
20
-3.164782
30
0
11
-0.285282473313292
21
-0.165873175710392
31
0
210
0
220
0
230
1
40
0.015422
41
1.26110651584092
42
2.14212784185023
0
ELLIPSE
5
1E4
100
AcDbEntity
8
1
62
256
6
ByLayer
370
-1
48
1
60
0
100
AcDbEllipse
10
18.6587
20
6.690859
30
0
11
-0.254558441227157
21
3.11733884545897E-17
31
0
210
0
220
0
230
1
40
0.99988
41
0.539694073108227
42
0.844631240838778
0
ELLIPSE
5
1E5
100
AcDbEntity
8
1
62
256
6
ByLayer
370
-1
48
1
60
0
100
AcDbEllipse
10
16.732784
20
2.275832
30
0
11
0.108836897204719
21
-0.103220781855445
31
0
210
0
220
0
230
1
40
0.131791
41
1.28087309252946
42
1.45540601772895
0
ELLIPSE
5
1E6
100
AcDbEntity
8
1
62
256
6
ByLayer
370
-1
48
1
60
0
100
AcDbEllipse
10
18.658011
20
6.694077
30
0
11
0.28259193885026
21
0.170416537040426
31
0
210
0
220
0
230
1
40
0.354474
41
-2.40615661817254
42
-1.5838753958375
0
ELLIPSE
5
1E7
100
AcDbEntity
8
1
62
256
6
ByLayer
370
-1
48
1
60
0
100
AcDbEllipse
10
18.82554
20
4.339427
30
0
11
-0.000561880953938543
21
0.283036697848682
31
0
210
0
220
0
230
1
40
0.092036
41
-1.56262635417533
42
-0.527646107684043
0
ELLIPSE
5
1E8
100
AcDbEntity
8
1
62
256
6
ByLayer
370
-1
48
1
60
0
100
AcDbEllipse
10
13.092718
20
-1.680051
30
0
11
-0.111418399244147
21
2.78797895122056
31
0
210
0
220
0
230
1
40
0.293981
41
3.13168124239943
42
-2.98390838988188
0
ELLIPSE
5
1E9
100
AcDbEntity
8
1
62
256
6
ByLayer
370
-1
48
1
60
0
100
AcDbEllipse
10
19.644923
20
7.06058
30
0
11
0.00183525231900513
21
-0.329994896701336
31
0
210
0
220
0
230
1
40
0.179002
41
1.25431002652248
42
1.85572942283354
0
ELLIPSE
5
1EA
100
AcDbEntity
8
1
62
256
6
ByLayer
370
-1
48
1
60
0
100
AcDbEllipse
10
6.67459
20
5.648494
30
0
11
-0.060592514351772
21
-0.191821580280768
31
0
210
0
220
0
230
1
40
0.960533
41
-1.28425214864024
42
-0.753999215452898
0
ELLIPSE
5
1EB
100
AcDbEntity
8
1
62
256
6
ByLayer
370
-1
48
1
60
0
100
AcDbEllipse
10
11.375882
20
-3.028131
30
0
11
-0.0117521544285253
21
0.129467705881769
31
0
210
0
220
0
230
1
40
0.984685
41
1.48830466720288
42
2.52884806087321
0
ELLIPSE
5
1EC
100
AcDbEntity
8
1
62
256
6
ByLayer
370
-1
48
1
60
0
100
AcDbEllipse
10
18.656767
20
3.558243
30
0
11
0.0180802375823472
21
-0.199181085971951
31
0
210
0
220
0
230
1
40
0.984685
41
0.95805173407828
42
1.48165050967656
0
ELLIPSE
5
1ED
100
AcDbEntity
8
1
62
256
6
ByLayer
370
-1
48
1
60
0
100
AcDbEllipse
10
12.155286
20
-3.607631
30
0
11
-0.0117521544285253
21
0.129467705881768
31
0
210
0
220
0
230
1
40
0.984685
41
-1.65328798638697
42
-0.612744592716618
0
ELLIPSE
5
1EE
100
AcDbEntity
8
1
62
256
6
ByLayer
370
-1
48
1
60
0
100
AcDbEllipse
10
6.910278
20
4.89939
30
0
11
-0.162018972073839
21
0.275952627615931
31
0
210
0
220
0
230
1
40
0.158144
41
1.32187722636308
42
1.49641015156252
0
ELLIPSE
5
1EF
100
AcDbEntity
8
1
62
256
6
ByLayer
370
-1
48
1
60
0
100
AcDbEllipse
10
14.439179
20
-2.7123
30
0
11
0.0113395985135384
21
-0.319799020488731
31
0
210
0
220
0
230
1
40
0.174084
41
-2.59617841502482
42
-1.56119816859219
0
ELLIPSE
5
1F0
100
AcDbEntity
8
1
62
256
6
ByLayer
370
-1
48
1
60
0
100
AcDbEllipse
10
7.910239
20
7.15005
30
0
11
-0.0393851345569252
21
-0.124684027124678
31
0
210
0
220
0
230
1
40
0.960533
41
-2.32479554049511
42
-1.37207586352483
0
ELLIPSE
5
1F1
100
AcDbEntity
8
1
62
256
6
ByLayer
370
-1
48
1
60
0
100
AcDbEllipse
10
11.433603
20
-2.084801
30
0
11
-0.243081776475979
21
0.140924866128834
31
0
210
0
220
0
230
1
40
0.053924
41
-2.68181905541107
42
-1.64683880909479
0
ELLIPSE
5
1F2
100
AcDbEntity
8
1
62
256
6
ByLayer
370
-1
48
1
60
0
100
AcDbEllipse
10
7.520661
20
6.018299
30
0
11
-0.931737083197526
21
0.00318186459758391
31
0
210
0
220
0
230
1
40
0.351013
41
-0.00938637575900118
42
0.812894846570792
0
ELLIPSE
5
1F3
100
AcDbEntity
8
1
62
256
6
ByLayer
370
-1
48
1
60
0
100
AcDbEllipse
10
14.0803
20
-3.529773
30
0
11
0.265139820720223
21
0.19647105503979
31
0
210
0
220
0
230
1
40
0.340178
41
-1.89623830500417
42
-1.07395708266923
0
ELLIPSE
5
1F4
100
AcDbEntity
8
1
62
256
6
ByLayer
370
-1
48
1
60
0
100
AcDbEllipse
10
17.319644
20
8.056007
30
0
11
-0.375735103943063
21
-0.000745904681976709
31
0
210
0
220
0
230
1
40
0.013275
41
0.387373957276855
42
1.42235420370558
0
ELLIPSE
5
1F5
100
AcDbEntity
8
1
62
256
6
ByLayer
370
-1
48
1
60
0
100
AcDbEllipse
10
7.653711
20
7.121563
30
0
11
-0.0393851345020211
21
-0.12468402715104
31
0
210
0
220
0
230
1
40
0.960533
41
0.816797112663407
42
1.76951678957159
0
ELLIPSE
5
1F6
100
AcDbEntity
8
1
62
256
6
ByLayer
370
-1
48
1
60
0
100
AcDbEllipse
10
16.304256
20
1.823988
30
0
11
0.108836897204719
21
-0.103220781855445
31
0
210
0
220
0
230
1
40
0.131791
41
1.28087309252938
42
1.45540601772895
0
ELLIPSE
5
1F7
100
AcDbEntity
8
1
62
256
6
ByLayer
370
-1
48
1
60
0
100
AcDbEllipse
10
18.658011
20
6.694077
30
0
11
-0.283086776769781
21
-0.169593268787697
31
0
210
0
220
0
230
1
40
0.013326
41
0.68181652592101
42
1.56283785193285
0
ELLIPSE
5
1F8
100
AcDbEntity
8
1
62
256
6
ByLayer
370
-1
48
1
60
0
100
AcDbEllipse
10
7.635401
20
6.357398
30
0
11
0.286191286725687
21
-0.164300174687356
31
0
210
0
220
0
230
1
40
0.011457
41
-1.86495659313831
42
-0.983935267127167
0
ELLIPSE
5
1F9
100
AcDbEntity
8
1
62
256
6
ByLayer
370
-1
48
1
60
0
100
AcDbEllipse
10
7.039188
20
6.713634
30
0
11
-0.295887399852021
21
-0.14611860459507
31
0
210
0
220
0
230
1
40
0.410668
41
-1.69717966239793
42
-1.09576026608711
0
ELLIPSE
5
1FA
100
AcDbEntity
8
1
62
256
6
ByLayer
370
-1
48
1
60
0
100
AcDbEllipse
10
12.821429
20
-3.547163
30
0
11
-0.0535420619987789
21
0.11907890448926
31
0
210
0
220
0
230
1
40
0.958693
41
-1.97252931767842
42
-0.93198592402277
0
ELLIPSE
5
1FB
100
AcDbEntity
8
1
62
256
6
ByLayer
370
-1
48
1
60
0
100
AcDbEllipse
10
9.899772
20
1.508803
30
0
11
-0.0109765333732292
21
0.1495978466259
31
0
210
0
220
0
230
1
40
0.174315
41
-2.27657293682632
42
-1.56778344730411
0
ELLIPSE
5
1FC
100
AcDbEntity
8
1
62
256
6
ByLayer
370
-1
48
1
60
0
100
AcDbEllipse
10
7.613519
20
3.767713
30
0
11
-0.0889732261388579
21
0.152712070471653
31
0
210
0
220
0
230
1
40
0.134321
41
-1.63346114233441
42
-0.598480895805703
0
ELLIPSE
5
1FD
100
AcDbEntity
8
1
62
256
6
ByLayer
370
-1
48
1
60
0
100
AcDbEllipse
10
12.443658
20
6.829049
30
0
11
0.0367863585044433
21
0.145419269108267
31
0
210
0
220
0
230
1
40
0.164735
41
-1.51290410519054
42
-1.33837117999105
0
ELLIPSE
5
1FE
100
AcDbEntity
8
1
62
256
6
ByLayer
370
-1
48
1
60
0
100
AcDbEllipse
10
14.439179
20
-2.7123
30
0
11
0.00572482928562402
21
0.319948787042005
31
0
210
0
220
0
230
1
40
0.256832
41
0.556928889643699
42
1.74207351478787
0
ELLIPSE
5
1FF
100
AcDbEntity
8
1
62
256
6
ByLayer
370
-1
48
1
60
0
100
AcDbEllipse
10
18.441026
20
7.05627
30
0
11
0.283086776769781
21
0.169593268787697
31
0
210
0
220
0
230
1
40
0.013326
41
-2.45977612766901
42
-1.5787548016571
0
ELLIPSE
5
200
100
AcDbEntity
8
1
62
256
6
ByLayer
370
-1
48
1
60
0
100
AcDbEllipse
10
6.96086
20
7.085508
30
0
11
-0.289730892931005
21
1.14560442919931
31
0
210
0
220
0
230
1
40
0.218276
41
1.37589550978636
42
1.54349118601183
0
ELLIPSE
5
201
100
AcDbEntity
8
1
62
256
6
ByLayer
370
-1
48
1
60
0
100
AcDbEllipse
10
7.039188
20
6.713634
30
0
11
-0.169262396137935
21
-0.283284735299389
31
0
210
0
220
0
230
1
40
0.289738
41
-1.90384570816417
42
-1.55477985776534
0
ELLIPSE
5
202
100
AcDbEntity
8
1
62
256
6
ByLayer
370
-1
48
1
60
0
100
AcDbEllipse
10
18.441026
20
7.05627
30
0
11
0.284010899060889
21
-0.168041093827152
31
0
210
0
220
0
230
1
40
0.013348
41
-2.44389568253461
42
-1.56287435652419
0
ELLIPSE
5
203
100
AcDbEntity
8
1
62
256
6
ByLayer
370
-1
48
1
60
0
100
AcDbEllipse
10
13.460415
20
-3.166989
30
0
11
0.329788829487308
21
0.0118037259113883
31
0
210
0
220
0
230
1
40
0.162283
41
-2.18480282662788
42
-1.83573697622902
0
ELLIPSE
5
204
100
AcDbEntity
8
1
62
256
6
ByLayer
370
-1
48
1
60
0
100
AcDbEllipse
10
17.76573
20
7.334407
30
0
11
-0.278191912985564
21
-0.158143161563922
31
0
210
0
220
0
230
1
40
0.013504
41
0.377999582704077
42
1.56314420785058
0
ELLIPSE
5
205
100
AcDbEntity
8
1
62
256
6
ByLayer
370
-1
48
1
60
0
100
AcDbEllipse
10
18.656025
20
7.419646
30
0
11
-0.284491903543768
21
0.167225467013979
31
0
210
0
220
0
230
1
40
0.329409
41
-1.57461717098187
42
-0.75233594864688
0
ELLIPSE
5
206
100
AcDbEntity
8
1
62
256
6
ByLayer
370
-1
48
1
60
0
100
AcDbEllipse
10
7.524797
20
5.26019
30
0
11
0.273970542679929
21
-0.165348546239951
31
0
210
0
220
0
230
1
40
0.018074
41
-1.86463385082731
42
-0.679489225680739
0
ELLIPSE
5
207
100
AcDbEntity
8
1
62
256
6
ByLayer
370
-1
48
1
60
0
100
AcDbEllipse
10
10.714736
20
0.792073
30
0
11
-0.144249644291542
21
-0.0411344152962392
31
0
210
0
220
0
230
1
40
0.032944
41
1.56840483871189
42
1.74293776391133
0
ELLIPSE
5
208
100
AcDbEntity
8
1
62
256
6
ByLayer
370
-1
48
1
60
0
100
AcDbEllipse
10
7.581451
20
6.385715
30
0
11
0.118305764501743
21
0.225396863522229
31
0
210
0
220
0
230
1
40
0.956983
41
-1.61029446388621
42
-1.30535719890518
0
ELLIPSE
5
209
100
AcDbEntity
8
1
62
256
6
ByLayer
370
-1
48
1
60
0
100
AcDbEllipse
10
7.524797
20
5.26019
30
0
11
-0.283797838351282
21
0.147847174295418
31
0
210
0
220
0
230
1
40
0.095227
41
1.42356277204926
42
2.45854301848199
0
ELLIPSE
5
20A
100
AcDbEntity
8
1
62
256
6
ByLayer
370
-1
48
1
60
0
100
AcDbEllipse
10
7.017503
20
5.994613
30
0
11
0.00274347164032986
21
0.329988595808035
31
0
210
0
220
0
230
1
40
0.26032
41
1.43770026579286
42
2.31872159180219
0
ELLIPSE
5
20B
100
AcDbEntity
8
1
62
256
6
ByLayer
370
-1
48
1
60
0
100
AcDbEllipse
10
19.034272
20
5.102897
30
0
11
-0.276792282410015
21
-0.160605130365227
31
0
210
0
220
0
230
1
40
0.074719
41
-1.5638054751142
42
-0.767263538797778
0
ELLIPSE
5
20C
100
AcDbEntity
8
1
62
256
6
ByLayer
370
-1
48
1
60
0
100
AcDbEllipse
10
19.285454
20
7.058581
30
0
11
-0.165766666325404
21
0.285344374984618
31
0
210
0
220
0
230
1
40
0.007779
41
1.58422822348661
42
1.93329407388352
0
ELLIPSE
5
20D
100
AcDbEntity
8
1
62
256
6
ByLayer
370
-1
48
1
60
0
100
AcDbEllipse
10
7.425184
20
5.991224
30
0
11
-0.286191286725687
21
0.164300174687356
31
0
210
0
220
0
230
1
40
0.011457
41
1.27663606045146
42
2.15765738646268
0
ELLIPSE
5
20E
100
AcDbEntity
8
1
62
256
6
ByLayer
370
-1
48
1
60
0
100
AcDbEllipse
10
13.409672
20
-4.231289
30
0
11
-0.289490857478818
21
-1.13451433564364
31
0
210
0
220
0
230
1
40
0.214503
41
-1.51916835047785
42
-1.3515726753008
0
ELLIPSE
5
20F
100
AcDbEntity
8
1
62
256
6
ByLayer
370
-1
48
1
60
0
100
AcDbEllipse
10
15.055673
20
-3.0731
30
0
11
-0.16163248582614
21
-0.276179180108969
31
0
210
0
220
0
230
1
40
0.142623
41
-1.46932086986299
42
-1.29478794466348
0
ELLIPSE
5
210
100
AcDbEntity
8
1
62
256
6
ByLayer
370
-1
48
1
60
0
100
AcDbEllipse
10
13.814304
20
-3.199618
30
0
11
-0.138398498626077
21
0.213648907270896
31
0
210
0
220
0
230
1
40
0.952315
41
-1.62136333106755
42
-0.547449270962451
0
ELLIPSE
5
211
100
AcDbEntity
8
1
62
256
6
ByLayer
370
-1
48
1
60
0
100
AcDbEllipse
10
19.838951
20
7.044406
30
0
11
-0.203084567603688
21
-0.00055366670912082
31
0
210
0
220
0
230
1
40
0.984689
41
2.10105994399345
42
-3.14158196950847
0
ELLIPSE
5
212
100
AcDbEntity
8
1
62
256
6
ByLayer
370
-1
48
1
60
0
100
AcDbEllipse
10
13.868081
20
-3.164782
30
0
11
0.00178662304630283
21
-0.329995163567726
31
0
210
0
220
0
230
1
40
0.260526
41
-2.2865692678319
42
-1.40554794182249
0
ELLIPSE
5
213
100
AcDbEntity
8
1
62
256
6
ByLayer
370
-1
48
1
60
0
100
AcDbEllipse
10
17.453039
20
8.416164
30
0
11
-2.45249889067933
21
1.4068116318158
31
0
210
0
220
0
230
1
40
0.300608
41
2.96970347922248
42
3.13729915433145
0
ELLIPSE
5
214
100
AcDbEntity
8
1
62
256
6
ByLayer
370
-1
48
1
60
0
100
AcDbEllipse
10
12.772059
20
-3.518269
30
0
11
-0.0535420619819746
21
0.119078904498796
31
0
210
0
220
0
230
1
40
0.958693
41
-0.931985923859079
42
0.0207337530487715
0
ELLIPSE
5
215
100
AcDbEntity
8
1
62
256
6
ByLayer
370
-1
48
1
60
0
100
AcDbEllipse
10
17.352836
20
2.069302
30
0
11
-0.0805518628637626
21
-0.126536150522993
31
0
210
0
220
0
230
1
40
0.138793
41
0.968744266590324
42
1.67753375611279
0
ELLIPSE
5
216
100
AcDbEntity
8
1
62
256
6
ByLayer
370
-1
48
1
60
0
100
AcDbEllipse
10
13.171222
20
-4.381646
30
0
11
-0.0823724030751939
21
0.18319831459443
31
0
210
0
220
0
230
1
40
0.958693
41
1.16906333589272
42
2.20960672957151
0
ELLIPSE
5
217
100
AcDbEntity
8
1
62
256
6
ByLayer
370
-1
48
1
60
0
100
AcDbEllipse
10
16.53087
20
1.202613
30
0
11
-0.124592254826947
21
-0.0835270617053963
31
0
210
0
220
0
230
1
40
0.084588
41
1.72439265866657
42
2.4331821481894
0
ELLIPSE
5
218
100
AcDbEntity
8
1
62
256
6
ByLayer
370
-1
48
1
60
0
100
AcDbEllipse
10
7.371234
20
6.019541
30
0
11
0.118305764501743
21
0.225396863522229
31
0
210
0
220
0
230
1
40
0.956983
41
-2.68420852399133
42
-1.61029446388615
0
ELLIPSE
5
219
100
AcDbEntity
8
1
62
256
6
ByLayer
370
-1
48
1
60
0
100
AcDbEllipse
10
8.851041
20
7.45768
30
0
11
-0.279747322486056
21
0.155773091132983
31
0
210
0
220
0
230
1
40
0.099584
41
1.27347863763511
42
2.070020573801
0
ELLIPSE
5
21A
100
AcDbEntity
8
1
62
256
6
ByLayer
370
-1
48
1
60
0
100
AcDbEllipse
10
13.406638
20
-3.201825
30
0
11
-0.138398498626077
21
0.213648907270896
31
0
210
0
220
0
230
1
40
0.952315
41
-0.547449270962397
42
-0.242512005981406
0
ELLIPSE
5
21B
100
AcDbEntity
8
1
62
256
6
ByLayer
370
-1
48
1
60
0
100
AcDbEllipse
10
7.294183
20
5.885328
30
0
11
-0.480039673596602
21
-0.836978963713773
31
0
210
0
220
0
230
1
40
0.327324
41
2.31347030484545
42
3.13575152717831
0
ELLIPSE
5
21C
100
AcDbEntity
8
1
62
256
6
ByLayer
370
-1
48
1
60
0
100
AcDbEllipse
10
15.752692
20
-1.931652
30
0
11
-0.0885856203217215
21
-0.152801635002445
31
0
210
0
220
0
230
1
40
0.121299
41
0.621456720734935
42
1.65643696731766
0
ELLIPSE
5
21D
100
AcDbEntity
8
1
62
256
6
ByLayer
370
-1
48
1
60
0
100
AcDbEllipse
10
12.488048
20
-4.44366
30
0
11
0.0180802375823472
21
-0.199181085971951
31
0
210
0
220
0
230
1
40
0.984685
41
-1.65328798638693
42
-0.612744592716657
0
ELLIPSE
5
21E
100
AcDbEntity
8
1
62
256
6
ByLayer
370
-1
48
1
60
0
100
AcDbEllipse
10
15.276659
20
-2.682604
30
0
11
-0.188982656707123
21
-0.325976821383518
31
0
210
0
220
0
230
1
40
0.121299
41
-2.52013593284782
42
-1.48515568638667
0
ELLIPSE
5
21F
100
AcDbEntity
8
1
62
256
6
ByLayer
370
-1
48
1
60
0
100
AcDbEllipse
10
7.524797
20
5.26019
30
0
11
0.162018972073848
21
-0.275952627615925
31
0
210
0
220
0
230
1
40
0.158144
41
-1.81971542722675
42
-1.64518250202728
0
ELLIPSE
5
220
100
AcDbEntity
8
1
62
256
6
ByLayer
370
-1
48
1
60
0
100
AcDbEllipse
10
13.486027
20
-3.88257
30
0
11
0.329788829487308
21
0.0118037259113883
31
0
210
0
220
0
230
1
40
0.162283
41
-2.18480282662789
42
-1.83573697622906
0
ELLIPSE
5
221
100
AcDbEntity
8
1
62
256
6
ByLayer
370
-1
48
1
60
0
100
AcDbEllipse
10
6.742833
20
7.221653
30
0
11
-0.0605925146383791
21
-0.191821580222224
31
0
210
0
220
0
230
1
40
0.960533
41
2.91784637268359
42
-2.32479554082352
0
ELLIPSE
5
222
100
AcDbEntity
8
1
62
256
6
ByLayer
370
-1
48
1
60
0
100
AcDbEllipse
10
17.070712
20
0.397365
30
0
11
-0.0837187675388466
21
-0.143968152862955
31
0
210
0
220
0
230
1
40
0.128583
41
1.66180577848842
42
2.37059526811054
0
ELLIPSE
5
223
100
AcDbEntity
8
1
62
256
6
ByLayer
370
-1
48
1
60
0
100
AcDbEllipse
10
12.308306
20
7.477014
30
0
11
0.149913678706951
21
-0.0050881171909674
31
0
210
0
220
0
230
1
40
0.021972
41
0.688140091616742
42
1.39692958113923
0
ELLIPSE
5
224
100
AcDbEntity
8
1
62
256
6
ByLayer
370
-1
48
1
60
0
100
AcDbEllipse
10
13.340141
20
-4.177278
30
0
11
-0.295747720360011
21
0.14640111304856
31
0
210
0
220
0
230
1
40
0.435879
41
1.11094647285995
42
1.71236586917076
0
ELLIPSE
5
225
100
AcDbEntity
8
1
62
256
6
ByLayer
370
-1
48
1
60
0
100
AcDbEllipse
10
7.425184
20
5.991224
30
0
11
0.00274347164032986
21
0.329988595808035
31
0
210
0
220
0
230
1
40
0.26032
41
1.43770026579286
42
2.31872159180219
0
ELLIPSE
5
226
100
AcDbEntity
8
1
62
256
6
ByLayer
370
-1
48
1
60
0
100
AcDbEllipse
10
11.77721
20
-2.481261
30
0
11
-0.104613575031483
21
-0.108175544548044
31
0
210
0
220
0
230
1
40
0.746721
41
2.89770941765741
42
-3.04066759863472
0
ELLIPSE
5
227
100
AcDbEntity
8
1
62
256
6
ByLayer
370
-1
48
1
60
0
100
AcDbEllipse
10
6.721661
20
7.209222
30
0
11
-0.0605925146473129
21
-0.191821580217972
31
0
210
0
220
0
230
1
40
0.960533
41
-2.32479554078151
42
-1.28425214709971
0
ELLIPSE
5
228
100
AcDbEntity
8
1
62
256
6
ByLayer
370
-1
48
1
60
0
100
AcDbEllipse
10
13.486027
20
-3.88257
30
0
11
0.168459357975663
21
-0.283763008002149
31
0
210
0
220
0
230
1
40
0.304906
41
-1.5588781420646
42
-1.2098122916656
0
ELLIPSE
5
229
100
AcDbEntity
8
1
62
256
6
ByLayer
370
-1
48
1
60
0
100
AcDbEllipse
10
18.441715
20
7.053052
30
0
11
-0.254558441227157
21
3.11733884545897E-17
31
0
210
0
220
0
230
1
40
0.99988
41
-0.534219985807011
42
0.539694073108252
0
ELLIPSE
5
22A
100
AcDbEntity
8
1
62
256
6
ByLayer
370
-1
48
1
60
0
100
AcDbEllipse
10
8.984308
20
5.860434
30
0
11
-2.32235940209363
21
1.38920876445772
31
0
210
0
220
0
230
1
40
0.314059
41
0.00587611184268056
42
0.173471786623819
0
ELLIPSE
5
22B
100
AcDbEntity
8
1
62
256
6
ByLayer
370
-1
48
1
60
0
100
AcDbEllipse
10
6.038486
20
7.147208
30
0
11
0.0180802375823472
21
-0.199181085971951
31
0
210
0
220
0
230
1
40
0.984685
41
-2.70713969510975
42
-1.66659630143945
0
ELLIPSE
5
22C
100
AcDbEntity
8
1
62
256
6
ByLayer
370
-1
48
1
60
0
100
AcDbEllipse
10
13.486027
20
-3.88257
30
0
11
0.29574772036001
21
-0.14640111304856
31
0
210
0
220
0
230
1
40
0.435879
41
-2.03064618072983
42
-1.42922678441898
0
ELLIPSE
5
22D
100
AcDbEntity
8
1
62
256
6
ByLayer
370
-1
48
1
60
0
100
AcDbEllipse
10
10.424309
20
7.863282
30
0
11
0.0180802375823472
21
-0.199181085971951
31
0
210
0
220
0
230
1
40
0.984685
41
3.0524468364715
42
-2.70713969510988
0
ELLIPSE
5
22E
100
AcDbEntity
8
1
62
256
6
ByLayer
370
-1
48
1
60
0
100
AcDbEllipse
10
19.285454
20
7.058581
30
0
11
-0.00183525231900525
21
0.329994896701336
31
0
210
0
220
0
230
1
40
0.179002
41
-1.88728262706709
42
-1.28586323075641
0
ELLIPSE
5
22F
100
AcDbEntity
8
1
62
256
6
ByLayer
370
-1
48
1
60
0
100
AcDbEllipse
10
17.841013
20
1.758532
30
0
11
-0.075814571169873
21
-0.129549340960453
31
0
210
0
220
0
230
1
40
0.142526
41
0.963409593742442
42
1.67219908302293
0
ELLIPSE
5
230
100
AcDbEntity
8
1
62
256
6
ByLayer
370
-1
48
1
60
0
100
AcDbEllipse
10
13.876178
20
8.060893
30
0
11
-0.166222918676532
21
-0.000370480982611794
31
0
210
0
220
0
230
1
40
0.014047
41
-1.72815699175361
42
-1.01936750165428
0
ELLIPSE
5
231
100
AcDbEntity
8
1
62
256
6
ByLayer
370
-1
48
1
60
0
100
AcDbEllipse
10
9.722042
20
0.077528
30
0
11
-0.0759965875863464
21
0.129443220971753
31
0
210
0
220
0
230
1
40
0.158036
41
-1.64512853837225
42
-0.936339048794845
0
ELLIPSE
5
232
100
AcDbEntity
8
1
62
256
6
ByLayer
370
-1
48
1
60
0
100
AcDbEllipse
10
19.276142
20
6.27648
30
0
11
-0.132004968948103
21
-0.000359883395859836
31
0
210
0
220
0
230
1
40
0.984689
41
1.06838206050701E-05
42
0.952730360725877
0
ELLIPSE
5
233
100
AcDbEntity
8
1
62
256
6
ByLayer
370
-1
48
1
60
0
100
AcDbEllipse
10
19.838883
20
7.069268
30
0
11
-0.20308456760496
21
-0.000553666636472173
31
0
210
0
220
0
230
1
40
0.984689
41
-3.14158196915743
42
-2.10103857548278
0
ELLIPSE
5
234
100
AcDbEntity
8
1
62
256
6
ByLayer
370
-1
48
1
60
0
100
AcDbEllipse
10
14.0803
20
-3.529773
30
0
11
-0.285282473313292
21
-0.165873175710392
31
0
210
0
220
0
230
1
40
0.015422
41
1.26110651584061
42
2.14212784184952
0
ELLIPSE
5
235
100
AcDbEntity
8
1
62
256
6
ByLayer
370
-1
48
1
60
0
100
AcDbEllipse
10
6.96086
20
7.085508
30
0
11
-0.753175279609284
21
0.876144457058847
31
0
210
0
220
0
230
1
40
0.022981
41
1.30829855709727
42
1.4758942258606
0
ELLIPSE
5
236
100
AcDbEntity
8
1
62
256
6
ByLayer
370
-1
48
1
60
0
100
AcDbEllipse
10
17.76573
20
7.334407
30
0
11
-0.319998801299914
21
-0.000875880481828063
31
0
210
0
220
0
230
1
40
0.015521
41
1.39624215860629
42
1.57077508380575
0
ELLIPSE
5
237
100
AcDbEntity
8
1
62
256
6
ByLayer
370
-1
48
1
60
0
100
AcDbEllipse
10
18.656025
20
7.419646
30
0
11
0.284010899060889
21
-0.168041093827152
31
0
210
0
220
0
230
1
40
0.013348
41
-2.44389568253699
42
-1.56287435652415
0
ELLIPSE
5
238
100
AcDbEntity
8
1
62
256
6
ByLayer
370
-1
48
1
60
0
100
AcDbEllipse
10
19.285454
20
7.058581
30
0
11
0.16420228264977
21
0.286247463521696
31
0
210
0
220
0
230
1
40
0.007742
41
-1.58424946263743
42
-1.23518361223697
0
ELLIPSE
5
239
100
AcDbEntity
8
1
62
256
6
ByLayer
370
-1
48
1
60
0
100
AcDbEllipse
10
9.632036
20
7.642327
30
0
11
-0.24236581834077
21
-0.141207362955677
31
0
210
0
220
0
230
1
40
0.0396
41
0.620384819662737
42
1.65536506621068
0
ELLIPSE
5
23A
100
AcDbEntity
8
1
62
256
6
ByLayer
370
-1
48
1
60
0
100
AcDbEllipse
10
13.192463
20
-4.394077
30
0
11
-0.0823724030841449
21
0.183198314589106
31
0
210
0
220
0
230
1
40
0.958693
41
2.20960672951079
42
-3.03303518399099
0
ELLIPSE
5
23B
100
AcDbEntity
8
1
62
256
6
ByLayer
370
-1
48
1
60
0
100
AcDbEllipse
10
8.944289
20
1.438696
30
0
11
-0.0840311247861307
21
0.143872957421042
31
0
210
0
220
0
230
1
40
0.142448
41
-2.34621774089243
42
-1.63742825127913
0
ELLIPSE
5
23C
100
AcDbEntity
8
1
62
256
6
ByLayer
370
-1
48
1
60
0
100
AcDbEllipse
10
6.657982
20
4.494587
30
0
11
-0.0938360332550353
21
-2.801434786237
31
0
210
0
220
0
230
1
40
0.29273
41
2.9811232599325
42
-3.13446637235227
0
ELLIPSE
5
23D
100
AcDbEntity
8
1
62
256
6
ByLayer
370
-1
48
1
60
0
100
AcDbEllipse
10
10.230036
20
0.350638
30
0
11
-0.0710291567746933
21
0.132116838018006
31
0
210
0
220
0
230
1
40
0.160766
41
-1.63918504400251
42
-0.930395554480306
0
ELLIPSE
5
23E
100
AcDbEntity
8
1
62
256
6
ByLayer
370
-1
48
1
60
0
100
AcDbEllipse
10
13.460415
20
-3.166989
30
0
11
-0.00178662304630258
21
0.329995163567726
31
0
210
0
220
0
230
1
40
0.260526
41
0.855023385757793
42
1.73604471176735
0
ELLIPSE
5
23F
100
AcDbEntity
8
1
62
256
6
ByLayer
370
-1
48
1
60
0
100
AcDbEllipse
10
11.958579
20
-2.667915
30
0
11
-0.00204550558648092
21
0.320084952830845
31
0
210
0
220
0
230
1
40
0.17433
41
0.941297790824957
42
1.73783972725609
0
ELLIPSE
5
240
100
AcDbEntity
8
1
62
256
6
ByLayer
370
-1
48
1
60
0
100
AcDbEllipse
10
6.891678
20
7.012341
30
0
11
0.295887399852021
21
0.14611860459507
31
0
210
0
220
0
230
1
40
0.410668
41
1.44441299119172
42
2.04583238750261
0
ELLIPSE
5
241
100
AcDbEntity
8
1
62
256
6
ByLayer
370
-1
48
1
60
0
100
AcDbEllipse
10
7.017503
20
5.994613
30
0
11
-0.32985002043205
21
0.00994806619280007
31
0
210
0
220
0
230
1
40
0.131594
41
-1.30688997975218
42
-0.957824129353265
0
ELLIPSE
5
242
100
AcDbEntity
8
1
62
256
6
ByLayer
370
-1
48
1
60
0
100
AcDbEllipse
10
7.635401
20
6.357398
30
0
11
-0.267449075294889
21
0.19331578343195
31
0
210
0
220
0
230
1
40
0.316515
41
-2.08704564696276
42
-1.26476442462777
0
ELLIPSE
5
243
100
AcDbEntity
8
1
62
256
6
ByLayer
370
-1
48
1
60
0
100
AcDbEllipse
10
7.604499
20
7.092669
30
0
11
-0.0393851345135908
21
-0.12468402714537
31
0
210
0
220
0
230
1
40
0.960533
41
-0.223746280917334
42
0.816797112753192
0
ELLIPSE
5
244
100
AcDbEntity
8
1
62
256
6
ByLayer
370
-1
48
1
60
0
100
AcDbEllipse
10
19.82276
20
7.070159
30
0
11
-1.20713076358384
21
-0.289513299847797
31
0
210
0
220
0
230
1
40
0.065395
41
1.45461119643756
42
1.62220687371889
0
ELLIPSE
5
245
100
AcDbEntity
8
1
62
256
6
ByLayer
370
-1
48
1
60
0
100
AcDbEllipse
10
7.635401
20
6.357398
30
0
11
-0.169262396137935
21
-0.283284735299389
31
0
210
0
220
0
230
1
40
0.289738
41
-1.90384570816413
42
-1.55477985776525
0
POINT
5
41
100
AcDbEntity
8
80
62
256
6
ByLayer
370
-1
48
1
60
0
100
AcDbPoint
10
0
20
0
30
0
39
0
210
0
220
0
230
1
50
360
0
POINT
5
43
100
AcDbEntity
8
81
62
256
6
ByLayer
370
-1
48
1
60
0
100
AcDbPoint
10
21.36516
20
8.0625
30
0
39
0
210
0
220
0
230
1
50
360
0
POINT
5
45
100
AcDbEntity
8
2
62
256
6
ByLayer
370
-1
48
1
60
0
100
AcDbPoint
10
21.36516
20
8.0625
30
0
39
0
210
0
220
0
230
1
50
360
0
POINT
5
47
100
AcDbEntity
8
2
62
256
6
ByLayer
370
-1
48
1
60
0
100
AcDbPoint
10
21.408961
20
8.061017
30
0
39
0
210
0
220
0
230
1
50
360
0
POINT
5
48
100
AcDbEntity
8
2
62
256
6
ByLayer
370
-1
48
1
60
0
100
AcDbPoint
10
20.041993
20
7.057392
30
0
39
0
210
0
220
0
230
1
50
360
0
SPLINE
5
246
100
AcDbEntity
8
1
62
256
6
ByLayer
370
-1
48
1
60
0
100
AcDbSpline
70
4
71
1
72
4
73
2
40
0
40
0
40
1
40
1
41
1
10
16.4638854266242
20
-1.37642082895675
30
0
41
1
10
16.9722279832128
20
-1.21096797215748
30
0
0
SPLINE
5
247
100
AcDbEntity
8
1
62
256
6
ByLayer
370
-1
48
1
60
0
100
AcDbSpline
70
4
71
3
72
11
73
7
40
0
40
0
40
0
40
0
40
0.27232205411043
40
0.57354278956787
40
0.858642139970825
40
1
40
1
40
1
40
1
41
1
10
3.55570038031414
20
7.50207603292387
30
0
41
1
10
3.64179148043328
20
7.58361285688335
30
0
41
1
10
3.82809390904651
20
7.74904641660069
30
0
41
1
10
4.13510613448554
20
7.96245891160311
30
0
41
1
10
4.41074804093955
20
8.11909289308096
30
0
41
1
10
4.58096888878805
20
8.19201711921062
30
0
41
1
10
4.63825367354323
20
8.2144920051208
30
0
0
SPLINE
5
248
100
AcDbEntity
8
1
62
256
6
ByLayer
370
-1
48
1
60
0
100
AcDbSpline
70
4
71
3
72
10
73
6
40
0
40
0
40
0
40
0
40
0.018659977893091
40
0.519020063560083
40
1
40
1
40
1
40
1
41
1
10
8.1901085313454
20
8.10488185517048
30
0
41
1
10
8.19528794230612
20
8.10268735441559
30
0
41
1
10
8.33904707265441
20
8.04109008505694
30
0
41
1
10
8.59152909134423
20
7.87083197218243
30
0
41
1
10
8.82483277708789
20
7.68996579824409
30
0
41
1
10
8.93421678902692
20
7.59468154471372
30
0
0
SPLINE
5
249
100
AcDbEntity
8
1
62
256
6
ByLayer
370
-1
48
1
60
0
100
AcDbSpline
70
4
71
3
72
8
73
4
40
0
40
0
40
0
40
0
40
1
40
1
40
1
40
1
41
1
10
13.179333098188
20
-5.39550655910674
30
0
41
1
10
13.3342038341074
20
-5.31865786485048
30
0
41
1
10
13.4850549418532
20
-5.24278678047722
30
0
41
1
10
13.6324330214538
20
-5.1680134567269
30
0
0
SPLINE
5
24A
100
AcDbEntity
8
1
62
256
6
ByLayer
370
-1
48
1
60
0
100
AcDbSpline
70
4
71
1
72
5
73
3
40
0
40
0
40
0.880667773215202
40
1
40
1
41
1.08358774580744
10
10.9881408835554
20
-4.49191129397776
30
0
41
1.08358774580744
10
11.4521272723333
20
-4.35812129057466
30
0
41
1.08358774580744
10
11.5149983465962
20
-4.33999248024093
30
0
0
SPLINE
5
24B
100
AcDbEntity
8
1
62
256
6
ByLayer
370
-1
48
1
60
0
100
AcDbSpline
70
4
71
2
72
6
73
3
40
0
40
0
40
0
40
1
40
1
40
1
41
0.973497289157287
10
16.4643773856672
20
-1.37624614951447
30
0
41
1.01271682324434
10
16.385886429252
20
-1.40399369396753
30
0
41
1.08358774580744
10
16.3026952634499
20
-1.40399369396755
30
0
0
SPLINE
5
24C
100
AcDbEntity
8
1
62
256
6
ByLayer
370
-1
48
1
60
0
100
AcDbSpline
70
4
71
3
72
14
73
10
40
0
40
0
40
0
40
0
40
0.447435525517118
40
0.447435525517118
40
0.6829685744325
40
0.6829685744325
40
0.918614987176234
40
0.918614987176234
40
1
40
1
40
1
40
1
41
1
10
4.97191129761518
20
8.22095673863524
30
0
41
1
10
4.96190362477921
20
8.21949673814592
30
0
41
1
10
4.95371053356777
20
8.21739352091137
30
0
41
1
10
4.94439628606219
20
8.21309845123864
30
0
41
1
10
4.94175844912439
20
8.21141207243315
30
0
41
1
10
4.93780234764574
20
8.2075677085933
30
0
41
1
10
4.93647927871265
20
8.20540592126616
30
0
41
1
10
4.93574916004815
20
8.20210217791455
30
0
41
1
10
4.9356544448365
20
8.20121844963859
30
0
41
1
10
4.93566023765484
20
8.20029530907877
30
0
0
SPLINE
5
24D
100
AcDbEntity
8
1
62
256
6
ByLayer
370
-1
48
1
60
0
100
AcDbSpline
70
4
71
3
72
20
73
16
40
0
40
0
40
0
40
0
40
0.0608157493572202
40
0.0608157493572202
40
0.214920488750535
40
0.214920488750535
40
0.368561615652536
40
0.368561615652536
40
0.521997789163619
40
0.521997789163619
40
0.675335255652725
40
0.675335255652725
40
0.983339895798956
40
0.983339895798956
40
1
40
1
40
1
40
1
41
1
10
7.49593093747384
20
8.1981307988587
30
0
41
1
10
7.49595505776958
20
8.20005045713998
30
0
41
1
10
7.4957186624971
20
8.20186247864265
30
0
41
1
10
7.49408357767544
20
8.20793009209015
30
0
41
1
10
7.49145763496398
20
8.21169981852293
30
0
41
1
10
7.4841849421951
20
8.21832492855515
30
0
41
1
10
7.4795189396242
20
8.22120228047103
30
0
41
1
10
7.46866928842192
20
8.22628706306844
30
0
41
1
10
7.46246594543487
20
8.22850313315047
30
0
41
1
10
7.44884242887633
20
8.23241094296162
30
0
41
1
10
7.4414055233843
20
8.23410686330692
30
0
41
1
10
7.41751570997729
20
8.23854369969152
30
0
41
1
10
7.39944451193298
20
8.24065041938246
30
0
41
1
10
7.37867897006782
20
8.24208123277813
30
0
41
1
10
7.37760570548645
20
8.2421525956529
30
0
41
1
10
7.37652746520979
20
8.24222171409136
30
0
0
SPLINE
5
24E
100
AcDbEntity
8
1
62
256
6
ByLayer
370
-1
48
1
60
0
100
AcDbSpline
70
4
71
3
72
10
73
6
40
0
40
0
40
0
40
0
40
0.870856746086536
40
0.870856746086536
40
1
40
1
40
1
40
1
41
1
10
5.76544646169896
20
8.16722105454349
30
0
41
1
10
5.76998488707062
20
8.15943869491809
30
0
41
1
10
5.77227360106747
20
8.15161826748488
30
0
41
1
10
5.77286041027713
20
8.14312095513395
30
0
41
1
10
5.77289840410137
20
8.14203439470836
30
0
41
1
10
5.77290039558829
20
8.14095432447834
30
0
0
SPLINE
5
24F
100
AcDbEntity
8
1
62
256
6
ByLayer
370
-1
48
1
60
0
100
AcDbSpline
70
4
71
3
72
10
73
6
40
0
40
0
40
0
40
0
40
0.680481829738654
40
0.680481829738654
40
1
40
1
40
1
40
1
41
1
10
7.01720749144891
20
8.16069180365361
30
0
41
1
10
7.00943861683965
20
8.15301543745528
30
0
41
1
10
6.99966433558876
20
8.14543184826346
30
0
41
1
10
6.98392873190468
20
8.13503756583222
30
0
41
1
10
6.97867553163002
20
8.13180754298466
30
0
41
1
10
6.97323419997207
20
8.12866723694404
30
0
0
SPLINE
5
250
100
AcDbEntity
8
1
62
256
6
ByLayer
370
-1
48
1
60
0
100
AcDbSpline
70
4
71
3
72
12
73
8
40
0
40
0
40
0
40
0
40
0.190335113103145
40
0.190335113103145
40
0.838836721110178
40
0.838836721110178
40
1
40
1
40
1
40
1
41
1
10
6.43742955066833
20
8.12042790324762
30
0
41
1
10
6.43387790401502
20
8.12333290367084
30
0
41
1
10
6.43054218441557
20
8.12633048228253
30
0
41
1
10
6.41708800725814
20
8.1398060220055
30
0
41
1
10
6.40937452025014
20
8.15149956903269
30
0
41
1
10
6.40640529413182
20
8.16667350605593
30
0
41
1
10
6.40614479132233
20
8.16977886372561
30
0
41
1
10
6.40626841947841
20
8.17288809753666
30
0
0
SPLINE
5
251
100
AcDbEntity
8
1
62
256
6
ByLayer
370
-1
48
1
60
0
100
AcDbSpline
70
4
71
3
72
8
73
4
40
0
40
0
40
0
40
0
40
1
40
1
40
1
40
1
41
1
10
6.40626841947852
20
8.17288809753666
30
0
41
1
10
6.4064384285179
20
8.17716380518976
30
0
41
1
10
6.40660843626989
20
8.18143960401633
30
0
41
1
10
6.40677844279509
20
8.1857154897165
30
0
0
SPLINE
5
252
100
AcDbEntity
8
1
62
256
6
ByLayer
370
-1
48
1
60
0
100
AcDbSpline
70
4
71
3
72
22
73
18
40
0
40
0
40
0
40
0
40
0.208266363442293
40
0.208266363442293
40
0.317899168105004
40
0.317899168105004
40
0.427584739861326
40
0.427584739861326
40
0.537377253732426
40
0.537377253732426
40
0.647402228730403
40
0.647402228730403
40
0.811583680502018
40
0.811583680502018
40
0.906636022131232
40
0.906636022131232
40
1
40
1
40
1
40
1
41
1
10
7.37652746520979
20
8.24222171409136
30
0
41
1
10
7.35772600706898
20
8.24342694399758
30
0
41
1
10
7.33736728001298
20
8.24396699688893
30
0
41
1
10
7.30421264133784
20
8.2436066752536
30
0
41
1
10
7.29235966593978
20
8.24326344826963
30
0
41
1
10
7.26789299810747
20
8.24205488245164
30
0
41
1
10
7.25525195306054
20
8.24118872311072
30
0
41
1
10
7.2292159317262
20
8.23879355170735
30
0
41
1
10
7.21577794421302
20
8.23726137847498
30
0
41
1
10
7.18819165350382
20
8.23330649567347
30
0
41
1
10
7.17396494300544
20
8.23087292207629
30
0
41
1
10
7.13814968785391
20
8.22330992321221
30
0
41
1
10
7.11564806526678
20
8.21730078257323
30
0
41
1
10
7.08184379542195
20
8.20454966187336
30
0
41
1
10
7.06954696494188
20
8.19903149929306
30
0
41
1
10
7.04771379122573
20
8.18690928120992
30
0
41
1
10
7.03788647119839
20
8.18016565881987
30
0
41
1
10
7.02994211025498
20
8.17327515389107
30
0
0
SPLINE
5
253
100
AcDbEntity
8
1
62
256
6
ByLayer
370
-1
48
1
60
0
100
AcDbSpline
70
4
71
3
72
22
73
18
40
0
40
0
40
0
40
0
40
0.208266363443234
40
0.208266363443234
40
0.317899168105936
40
0.317899168105936
40
0.427584739862254
40
0.427584739862254
40
0.537377253733354
40
0.537377253733354
40
0.647402228731277
40
0.647402228731277
40
0.811583680502361
40
0.811583680502361
40
0.906636022131509
40
0.906636022131509
40
1
40
1
40
1
40
1
41
1
10
6.05188734291534
20
8.26866575894306
30
0
41
1
10
6.02307821193841
20
8.26841098835996
30
0
41
1
10
5.99452672733094
20
8.26745005418249
30
0
41
1
10
5.95205893399788
20
8.26476716672079
30
0
41
1
10
5.93756860754326
20
8.26361453811501
30
0
41
1
10
5.90914706745036
20
8.26078025004463
30
0
41
1
10
5.89518369790048
20
8.25909594102743
30
0
41
1
10
5.8680636929883
20
8.25506525355254
30
0
41
1
10
5.85486203292299
20
8.25271300530989
30
0
41
1
10
5.82968925604399
20
8.2471329407164
30
0
41
1
10
5.81764845067113
20
8.24388969733138
30
0
41
1
10
5.79036582561579
20
8.2343800100449
30
0
41
1
10
5.77590439329043
20
8.22722885818828
30
0
41
1
10
5.76091513633517
20
8.21296583228315
30
0
41
1
10
5.75704127321512
20
8.20694544039142
30
0
41
1
10
5.75409968940772
20
8.19405057617575
30
0
41
1
10
5.75494858105805
20
8.18702490338285
30
0
41
1
10
5.75800714552105
20
8.17997814756041
30
0
0
SPLINE
5
254
100
AcDbEntity
8
1
62
256
6
ByLayer
370
-1
48
1
60
0
100
AcDbSpline
70
4
71
3
72
24
73
20
40
0
40
0
40
0
40
0
40
0.104000448201711
40
0.104000448201711
40
0.192499055460888
40
0.192499055460888
40
0.32850051874657
40
0.32850051874657
40
0.438682575665244
40
0.438682575665244
40
0.548533158171768
40
0.548533158171768
40
0.658237202769877
40
0.658237202769877
40
0.767870673661053
40
0.767870673661053
40
0.988088331634541
40
0.988088331634541
40
1
40
1
40
1
40
1
41
1
10
6.40677844279503
20
8.1857154897165
30
0
41
1
10
6.4058288049157
20
8.19354016559964
30
0
41
1
10
6.40192141306099
20
8.20129685711106
30
0
41
1
10
6.39002200884607
20
8.21404872987731
30
0
41
1
10
6.38263121302907
20
8.21944616232008
30
0
41
1
10
6.36115976978149
20
8.23140789230683
30
0
41
1
10
6.34533825150893
20
8.23730798394774
30
0
41
1
10
6.31507303833746
20
8.24601425599843
30
0
41
1
10
6.30069397544429
20
8.24926693351574
30
0
41
1
10
6.27138806593069
20
8.25477809687058
30
0
41
1
10
6.25636797759665
20
8.25705512857706
30
0
41
1
10
6.22608371197552
20
8.26088435996033
30
0
41
1
10
6.21076394997414
20
8.26244290145843
30
0
41
1
10
6.18005161302733
20
8.26499534158128
30
0
41
1
10
6.16462180858835
20
8.26599177104691
30
0
41
1
10
6.11832042815203
20
8.26828031413217
30
0
41
1
10
6.08735230860322
20
8.26888462555706
30
0
41
1
10
6.05519282018321
20
8.2686926147266
30
0
41
1
10
6.05353951080144
20
8.26868036971962
30
0
41
1
10
6.05188734291534
20
8.26866575894306
30
0
0
SPLINE
5
255
100
AcDbEntity
8
1
62
256
6
ByLayer
370
-1
48
1
60
0
100
AcDbSpline
70
4
71
3
72
8
73
4
40
0
40
0
40
0
40
0
40
1
40
1
40
1
40
1
41
1
10
5.26734924135903
20
8.14521711241539
30
0
41
1
10
5.26154719545701
20
8.14932262292817
30
0
41
1
10
5.25574519592942
20
8.15342822597273
30
0
41
1
10
5.24994324059341
20
8.15753391718525
30
0
0
SPLINE
5
256
100
AcDbEntity
8
1
62
256
6
ByLayer
370
-1
48
1
60
0
100
AcDbSpline
70
4
71
3
72
30
73
26
40
0
40
0
40
0
40
0
40
0.0511772287529104
40
0.0511772287529104
40
0.135075241067819
40
0.135075241067819
40
0.271834780652475
40
0.271834780652475
40
0.469061266910959
40
0.469061266910959
40
0.50063606195972
40
0.50063606195972
40
0.599800502489117
40
0.599800502489117
40
0.697557955314456
40
0.697557955314456
40
0.781333785463066
40
0.781333785463066
40
0.847844869822056
40
0.847844869822056
40
0.899113486931118
40
0.899113486931118
40
0.939077913069142
40
0.939077913069142
40
1
40
1
40
1
40
1
41
1
10
14.3979997962141
20
2.24662798183203
30
0
41
1
10
14.3864356840797
20
2.25567825446996
30
0
41
1
10
14.3729871792968
20
2.2627745529372
30
0
41
1
10
14.3358786962796
20
2.27670112220707
30
0
41
1
10
14.3105461624655
20
2.28091362733903
30
0
41
1
10
14.24410654159
20
2.28433857293967
30
0
41
1
10
14.2015824281285
20
2.27903527850432
30
0
41
1
10
14.101604906613
20
2.2559302368247
30
0
41
1
10
14.043642668211
20
2.23310797240319
30
0
41
1
10
13.9820034252708
20
2.20011148283993
30
0
41
1
10
13.9735091942255
20
2.19534650153054
30
0
41
1
10
13.9389137671993
20
2.1750321478246
30
0
41
1
10
13.9137703464789
20
2.15808482654705
30
0
41
1
10
13.8670165136896
20
2.1218526256431
30
0
41
1
10
13.8452009019047
20
2.1024860137502
30
0
41
1
10
13.8084542150129
20
2.06429791356598
30
0
41
1
10
13.7928706751396
20
2.04567941483265
30
0
41
1
10
13.7685111670467
20
2.01071007985127
30
0
41
1
10
13.7589283039441
20
1.99458580601984
30
0
41
1
10
13.7450388091537
20
1.96509764873164
30
0
41
1
10
13.7399940196464
20
1.95187047016822
30
0
41
1
10
13.733524458103
20
1.92789519091778
30
0
41
1
10
13.7315344771924
20
1.91718100306792
30
0
41
1
10
13.7293546932789
20
1.89016287503307
30
0
41
1
10
13.7306429775897
20
1.87342968354355
30
0
41
1
10
13.7355722139653
20
1.85765205734955
30
0
0
SPLINE
5
257
100
AcDbEntity
8
1
62
256
6
ByLayer
370
-1
48
1
60
0
100
AcDbSpline
70
4
71
3
72
30
73
26
40
0
40
0
40
0
40
0
40
0.0515194889309553
40
0.0515194889309553
40
0.0928771460762976
40
0.0928771460762976
40
0.148185150442169
40
0.148185150442169
40
0.203338923043239
40
0.203338923043239
40
0.287955708682643
40
0.287955708682643
40
0.372427214532576
40
0.372427214532576
40
0.435367147735116
40
0.435367147735116
40
0.498971020782808
40
0.498971020782808
40
0.701334348038852
40
0.701334348038852
40
0.838887327921178
40
0.838887327921178
40
0.92500666459694
40
0.92500666459694
40
1
40
1
40
1
40
1
41
1
10
12.9687749289541
20
1.85765205734958
30
0
41
1
10
12.9701116892247
20
1.87103721624504
30
0
41
1
10
12.9688353899504
20
1.88510923947126
30
0
41
1
10
12.9632132969538
20
1.91009159242975
30
0
41
1
10
12.9594976464148
20
1.92124428344249
30
0
41
1
10
12.9488323252821
20
1.9467893681813
30
0
41
1
10
12.9411690930951
20
1.96114508195774
30
0
41
1
10
12.923856999679
20
1.98891683988614
30
0
41
1
10
12.9141524791906
20
2.00242894144913
30
0
41
1
10
12.8877770913139
20
2.03552456065827
30
0
41
1
10
12.8700354297599
20
2.05466518199199
30
0
41
1
10
12.8324707470449
20
2.09089290355499
30
0
41
1
10
12.8125195006895
20
2.10810021327356
30
0
41
1
10
12.7764353916978
20
2.13637566379495
30
0
41
1
10
12.7605647911302
20
2.14793344792736
30
0
41
1
10
12.7280477100556
20
2.17000395007523
30
0
41
1
10
12.7113514454315
20
2.18053350245216
30
0
41
1
10
12.6412719369035
20
2.22154027397164
30
0
41
1
10
12.5850014443238
20
2.24704647734774
30
0
41
1
10
12.4917762983172
20
2.27473199435522
30
0
41
1
10
12.453499565852
20
2.28202870764605
30
0
41
1
10
12.3942114085325
20
2.28301397042517
30
0
41
1
10
12.3716620982559
20
2.28072644380887
30
0
41
1
10
12.3334268711701
20
2.26874931382798
30
0
41
1
10
12.3167193535215
20
2.25976534791317
30
0
41
1
10
12.3040251667343
20
2.24662798183192
30
0
0
SPLINE
5
258
100
AcDbEntity
8
1
62
256
6
ByLayer
370
-1
48
1
60
0
100
AcDbSpline
70
4
71
3
72
24
73
20
40
0
40
0
40
0
40
0
40
0.0974021566269829
40
0.0974021566269829
40
0.180354031075306
40
0.180354031075306
40
0.307542616517147
40
0.307542616517147
40
0.412109117009505
40
0.412109117009505
40
0.516348967690752
40
0.516348967690752
40
0.620446917153306
40
0.620446917153306
40
0.724476829459884
40
0.724476829459884
40
0.933310901386081
40
0.933310901386081
40
1
40
1
40
1
40
1
41
1
10
13.7417565092016
20
1.83785735665535
30
0
41
1
10
13.7447747183004
20
1.82414445375934
30
0
41
1
10
13.7446535871957
20
1.80968136332342
30
0
41
1
10
13.738616996954
20
1.78443779023479
30
0
41
1
10
13.7335465586698
20
1.77313068024228
30
0
41
1
10
13.7168658292419
20
1.74697644698091
30
0
41
1
10
13.7030514917337
20
1.73293844910825
30
0
41
1
10
13.6750379162901
20
1.71094814519904
30
0
41
1
10
13.6611178743724
20
1.70216829383716
30
0
41
1
10
13.6320943322147
20
1.68667842871716
30
0
41
1
10
13.6168998595423
20
1.67991464206418
30
0
41
1
10
13.5857919833043
20
1.66805547400233
30
0
41
1
10
13.5698233836392
20
1.66293910233617
30
0
41
1
10
13.537430474443
20
1.65412487156198
30
0
41
1
10
13.5209693553579
20
1.65041747989767
30
0
41
1
10
13.4710837748264
20
1.64117624066873
30
0
41
1
10
13.4370799010974
20
1.63750103747893
30
0
41
1
10
13.392042992167
20
1.6356052646862
30
0
41
1
10
13.3811059306452
20
1.63537636139571
30
0
41
1
10
13.3701588021929
20
1.63537636139571
30
0
0
SPLINE
5
259
100
AcDbEntity
8
1
62
256
6
ByLayer
370
-1
48
1
60
0
100
AcDbSpline
70
4
71
3
72
8
73
4
40
0
40
0
40
0
40
0
40
1
40
1
40
1
40
1
41
1
10
12.9667981002228
20
1.83785735665535
30
0
41
1
10
12.9674570245675
20
1.84445555261419
30
0
41
1
10
12.968115967226
20
1.85105378566914
30
0
41
1
10
12.9687749289541
20
1.85765205734961
30
0
0
SPLINE
5
25A
100
AcDbEntity
8
1
62
256
6
ByLayer
370
-1
48
1
60
0
100
AcDbSpline
70
4
71
3
72
22
73
18
40
0
40
0
40
0
40
0
40
0.14205760873918
40
0.14205760873918
40
0.351004812992799
40
0.351004812992799
40
0.487763342941925
40
0.487763342941925
40
0.591529353509439
40
0.591529353509439
40
0.758694969227144
40
0.758694969227144
40
0.858776631808924
40
0.858776631808924
40
0.960359919517405
40
0.960359919517405
40
1
40
1
40
1
40
1
41
1
10
13.3701588021929
20
1.63537636139571
30
0
41
1
10
13.3468658053429
20
1.63537636139569
30
0
41
1
10
13.323489635683
20
1.63640950460072
30
0
41
1
10
13.2659179351374
20
1.64158957681036
30
0
41
1
10
13.2316256960164
20
1.6469693250059
30
0
41
1
10
13.1758824508137
20
1.66031125268734
30
0
41
1
10
13.1539892135202
20
1.66677042489977
30
0
41
1
10
13.1163973917134
20
1.68059293425483
30
0
41
1
10
13.1004174184147
20
1.68738708113165
30
0
41
1
10
13.0602742443162
20
1.70756288926807
30
0
41
1
10
13.0364114149544
20
1.72270582411304
30
0
41
1
10
13.0042107685234
20
1.75205419367447
30
0
41
1
10
12.9933097067207
20
1.76446714947176
30
0
41
1
10
12.9765149933846
20
1.79124440051629
30
0
41
1
10
12.9705498124862
20
1.80606230840056
30
0
41
1
10
12.967167298239
20
1.82638153551616
30
0
41
1
10
12.9667280577192
20
1.83216935997527
30
0
41
1
10
12.9667981002228
20
1.83785735665535
30
0
0
SPLINE
5
25B
100
AcDbEntity
8
1
62
256
6
ByLayer
370
-1
48
1
60
0
100
AcDbSpline
70
4
71
3
72
22
73
18
40
0
40
0
40
0
40
0
40
0.0973712659846626
40
0.0973712659846626
40
0.18029683263066
40
0.18029683263066
40
0.30744508080294
40
0.30744508080294
40
0.41197841851476
40
0.41197841851476
40
0.51618521001093
40
0.51618521001093
40
0.620250145291733
40
0.620250145291733
40
0.829289859625839
40
0.829289859625839
40
1
40
1
40
1
40
1
41
1
10
14.7981863036076
20
3.70540345389321
30
0
41
1
10
14.8121637547051
20
3.7110641901464
30
0
41
1
10
14.8251951440878
20
3.71985199478658
30
0
41
1
10
14.8449329071682
20
3.74017206748934
30
0
41
1
10
14.8525526994908
20
3.75129862111393
30
0
41
1
10
14.8676337457333
20
3.78129253939892
30
0
41
1
10
14.8732320648796
20
3.80157204313815
30
0
41
1
10
14.8787534880082
20
3.83886457660833
30
0
41
1
10
14.8795636338365
20
3.85612460483182
30
0
41
1
10
14.8787288507358
20
3.89046654797934
30
0
41
1
10
14.8770858385482
20
3.90765889856826
30
0
41
1
10
14.8719487140941
20
3.94171056754769
30
0
41
1
10
14.8684453465235
20
3.95863010936279
30
0
41
1
10
14.8556813709771
20
4.00885717787932
30
0
41
1
10
14.8441529615143
20
4.04174532681722
30
0
41
1
10
14.8192167671369
20
4.09957619864272
30
0
41
1
10
14.806474090396
20
4.12498936642726
30
0
41
1
10
14.7924026572606
20
4.14960492151107
30
0
0
SPLINE
5
25C
100
AcDbEntity
8
1
62
256
6
ByLayer
370
-1
48
1
60
0
100
AcDbSpline
70
4
71
3
72
8
73
4
40
0
40
0
40
0
40
0
40
1
40
1
40
1
40
1
41
1
10
13.7269028275912
20
4.76197697752613
30
0
41
1
10
13.728924461381
20
4.76871014364653
30
0
41
1
10
13.7309460991664
20
4.77544327342474
30
0
41
1
10
13.7329677407884
20
4.78217636829956
30
0
0
SPLINE
5
25D
100
AcDbEntity
8
1
62
256
6
ByLayer
370
-1
48
1
60
0
100
AcDbSpline
70
4
71
3
72
24
73
20
40
0
40
0
40
0
40
0
40
0.0380198325517409
40
0.0380198325517409
40
0.246834654674893
40
0.246834654674893
40
0.4047265056633
40
0.4047265056633
40
0.52615063796289
40
0.52615063796289
40
0.621531995503695
40
0.621531995503695
40
0.776890538332117
40
0.776890538332117
40
0.873684213898032
40
0.873684213898032
40
0.971746172255093
40
0.971746172255093
40
1
40
1
40
1
40
1
41
1
10
14.7924026572606
20
4.14960492151107
30
0
41
1
10
14.7892652094217
20
4.15509334755544
30
0
41
1
10
14.7860598833861
20
4.16054438010889
30
0
41
1
10
14.7648474621884
20
4.195625095216
30
0
41
1
10
14.7448669654505
20
4.22419903107991
30
0
41
1
10
14.706309296992
20
4.27144590942802
30
0
41
1
10
14.6885035012993
20
4.29091941720705
30
0
41
1
10
14.6548139426901
20
4.32299705877276
30
0
41
1
10
14.6393797449558
20
4.33620005666549
30
0
41
1
10
14.6103877189098
20
4.35775676558242
30
0
41
1
10
14.5970880103502
20
4.36657761339043
30
0
41
1
10
14.5609544972533
20
4.38707003043572
30
0
41
1
10
14.5368169443324
20
4.39741993627649
30
0
41
1
10
14.4964496113874
20
4.40620613655727
30
0
41
1
10
14.4803429135025
20
4.40764344429283
30
0
41
1
10
14.4491470549872
20
4.40498672428424
30
0
41
1
10
14.433651553575
20
4.40069016476576
30
0
41
1
10
14.4161651354891
20
4.39159279674163
30
0
41
1
10
14.4123347671655
20
4.38929375217077
30
0
41
1
10
14.4086731664604
20
4.38678977688375
30
0
0
SPLINE
5
25E
100
AcDbEntity
8
1
62
256
6
ByLayer
370
-1
48
1
60
0
100
AcDbSpline
70
4
71
3
72
34
73
30
40
0
40
0
40
0
40
0
40
0.0514465755209427
40
0.0514465755209427
40
0.135786144735401
40
0.135786144735401
40
0.203131635218859
40
0.203131635218859
40
0.270315608875081
40
0.270315608875081
40
0.337431278535917
40
0.337431278535917
40
0.404515897625504
40
0.404515897625504
40
0.499929883690949
40
0.499929883690949
40
0.599210771748183
40
0.599210771748183
40
0.697083019894255
40
0.697083019894255
40
0.780957226922778
40
0.780957226922778
40
0.847546414393282
40
0.847546414393282
40
0.898875235580385
40
0.898875235580385
40
0.980803570703569
40
0.980803570703569
40
1
40
1
40
1
40
1
41
1
10
14.3916525898111
20
4.37300105304377
30
0
41
1
10
14.3801433244857
20
4.36367713548785
30
0
41
1
10
14.366738000134
20
4.3563075886575
30
0
41
1
10
14.3297146815539
20
4.34170328084488
30
0
41
1
10
14.3044084635098
20
4.33709975871707
30
0
41
1
10
14.2587535091287
20
4.33412201988898
30
0
41
1
10
14.2380610865607
20
4.33467597299355
30
0
41
1
10
14.196947483682
20
4.33856328307084
30
0
41
1
10
14.1763902464335
20
4.34190882176679
30
0
41
1
10
14.1357737548586
20
4.35080163743331
30
0
41
1
10
14.1156251771052
20
4.35636934659354
30
0
41
1
10
14.07600561432
20
4.36935387376386
30
0
41
1
10
14.0564660883398
20
4.37679382555072
30
0
41
1
10
14.0101987170923
20
4.39675718025205
30
0
41
1
10
13.9837616536823
20
4.41016335534002
30
0
41
1
10
13.9321517738696
20
4.44036269026802
30
0
41
1
10
13.9069070068324
20
4.45736732597186
30
0
41
1
10
13.8599361946218
20
4.49382524559067
30
0
41
1
10
13.8380044645649
20
4.51335933285867
30
0
41
1
10
13.8010285720711
20
4.55195723727414
30
0
41
1
10
13.7853331953715
20
4.57080511359914
30
0
41
1
10
13.7607634865061
20
4.60625498888402
30
0
41
1
10
13.7510836505508
20
4.62261752097294
30
0
41
1
10
13.737016724687
20
4.65257042052866
30
0
41
1
10
13.7318923186895
20
4.66601550530137
30
0
41
1
10
13.7223117612477
20
4.70134221142257
30
0
41
1
10
13.7198487619333
20
4.72425084698477
30
0
41
1
10
13.7241792864443
20
4.75158549147633
30
0
41
1
10
13.7253565457869
20
4.75682699818231
30
0
41
1
10
13.7269028275912
20
4.7619769775261
30
0
0
SPLINE
5
25F
100
AcDbEntity
8
1
62
256
6
ByLayer
370
-1
48
1
60
0
100
AcDbSpline
70
4
71
3
72
34
73
30
40
0
40
0
40
0
40
0
40
0.0514465755209358
40
0.0514465755209358
40
0.135786144735401
40
0.135786144735401
40
0.20313163521885
40
0.20313163521885
40
0.270315608875074
40
0.270315608875074
40
0.337431278535909
40
0.337431278535909
40
0.404515897625488
40
0.404515897625488
40
0.499929883690904
40
0.499929883690904
40
0.599210771748179
40
0.599210771748179
40
0.697083019894261
40
0.697083019894261
40
0.780957226922779
40
0.780957226922779
40
0.847546414393284
40
0.847546414393284
40
0.898875235580351
40
0.898875235580351
40
0.98080357070352
40
0.98080357070352
40
1
40
1
40
1
40
1
41
1
10
12.9601055425801
20
4.76197697752619
30
0
41
1
10
12.9615230288603
20
4.74831817371273
30
0
41
1
10
12.960331554981
20
4.73397290212347
30
0
41
1
10
12.9523649453918
20
4.69692076981323
30
0
41
1
10
12.9425456263425
20
4.67399557056945
30
0
41
1
10
12.9205294364206
20
4.63497009201379
30
0
41
1
10
12.9090139250917
20
4.61811651677894
30
0
41
1
10
12.883903863804
20
4.58582303594957
30
0
41
1
10
12.8702266565304
20
4.57027612086637
30
0
41
1
10
12.8413946997999
20
4.54051067060476
30
0
41
1
10
12.8261757748855
20
4.5262271464195
30
0
41
1
10
12.7946506630335
20
4.49896894440366
30
0
41
1
10
12.778289372129
20
4.48594743920941
30
0
41
1
10
12.7377174644056
20
4.45605123889209
30
0
41
1
10
12.7129758447625
20
4.43976652043315
30
0
41
1
10
12.6615462544903
20
4.40956718550518
30
0
41
1
10
12.6346550818457
20
4.39567725599062
30
0
41
1
10
12.5808635631971
20
4.37175627756585
30
0
41
1
10
12.5537892347169
20
4.3615888871891
30
0
41
1
10
12.5036893816688
20
4.34675985739264
30
0
41
1
10
12.4804857540823
20
4.34147139313876
30
0
41
1
10
12.4394514547791
20
4.3356717409892
30
0
41
1
10
12.4213861468046
20
4.33438604734934
30
0
41
1
10
12.3902177626873
20
4.3351243387765
30
0
41
1
10
12.3768464552323
20
4.33646297303554
30
0
41
1
10
12.3437191817653
20
4.34329048728566
30
0
41
1
10
12.3241729946572
20
4.35091448018335
30
0
41
1
10
12.3045759058546
20
4.36624776459232
30
0
41
1
10
12.3009958838636
20
4.3694855195115
30
0
41
1
10
12.2976779603313
20
4.37300105304371
30
0
0
SPLINE
5
260
100
AcDbEntity
8
1
62
256
6
ByLayer
370
-1
48
1
60
0
100
AcDbSpline
70
4
71
3
72
8
73
4
40
0
40
0
40
0
40
0
40
1
40
1
40
1
40
1
41
1
10
11.8992190858547
20
3.70540345389327
30
0
41
1
10
11.9049099548014
20
3.70319912715689
30
0
41
1
10
11.9106008692383
20
3.70099478997608
30
0
41
1
10
11.9162918310416
20
3.69879044192029
30
0
0
SPLINE
5
261
100
AcDbEntity
8
1
62
256
6
ByLayer
370
-1
48
1
60
0
100
AcDbSpline
70
4
71
3
72
34
73
30
40
0
40
0
40
0
40
0
40
0.0514465755209147
40
0.0514465755209147
40
0.135786144735351
40
0.135786144735351
40
0.203131635218775
40
0.203131635218775
40
0.270315608874987
40
0.270315608874987
40
0.3374312785358
40
0.3374312785358
40
0.404515897625367
40
0.404515897625367
40
0.499929883690913
40
0.499929883690913
40
0.599210771748168
40
0.599210771748168
40
0.697083019894253
40
0.697083019894253
40
0.780957226922772
40
0.780957226922772
40
0.847546414393262
40
0.847546414393262
40
0.898875235580356
40
0.898875235580356
40
0.980803570703527
40
0.980803570703527
40
1
40
1
40
1
40
1
41
1
10
11.9162918310416
20
3.69879044192029
30
0
41
1
10
11.9278364341885
20
3.69431873320374
30
0
41
1
10
11.9386701391551
20
3.68720638426333
30
0
41
1
10
11.9643036700758
20
3.66441969049438
30
0
41
1
10
11.9778155879814
20
3.64590250488044
30
0
41
1
10
11.9983055459324
20
3.60954305663373
30
0
41
1
10
12.0062030676173
20
3.59200887820566
30
0
41
1
10
12.0199150749165
20
3.55560124237897
30
0
41
1
10
12.0257751332622
20
3.53660781896409
30
0
41
1
10
12.0357801068765
20
3.49777338965652
30
0
41
1
10
12.0399462191524
20
3.47784657145127
30
0
41
1
10
12.0467742314798
20
3.43747847422443
30
0
41
1
10
12.049447387807
20
3.41696701818864
30
0
41
1
10
12.0542385820471
20
3.36701794720932
30
0
41
1
10
12.0556666368884
20
3.33730058413948
30
0
41
1
10
12.055846926429
20
3.27690191428346
30
0
41
1
10
12.054490009282
20
3.24603600627822
30
0
41
1
10
12.0488093816586
20
3.18576996759202
30
0
41
1
10
12.0445126817493
20
3.15615222763404
30
0
41
1
10
12.0334585944113
20
3.10293019553774
30
0
41
1
10
12.0271089029063
20
3.07890854375549
30
0
41
1
10
12.0130714653091
20
3.03789928647285
30
0
41
1
10
12.0058894078672
20
3.02037018987281
30
0
41
1
10
11.9911353084226
20
2.991387952878
30
0
41
1
10
11.9839890257287
20
2.979390455469
30
0
41
1
10
11.9634600723198
20
2.95118999974253
30
0
41
1
10
11.9484549636782
20
2.93611107152046
30
0
41
1
10
11.9271940564497
20
2.92437369558635
30
0
41
1
10
11.9229570846229
20
2.92242145058648
30
0
41
1
10
11.9186140110127
20
2.92083859295545
30
0
0
SPLINE
5
262
100
AcDbEntity
8
1
62
256
6
ByLayer
370
-1
48
1
60
0
100
AcDbSpline
70
4
71
3
72
24
73
20
40
0
40
0
40
0
40
0
40
0.0380198325517901
40
0.0380198325517901
40
0.246834654674989
40
0.246834654674989
40
0.404726505663417
40
0.404726505663417
40
0.526150637962953
40
0.526150637962953
40
0.621531995503772
40
0.621531995503772
40
0.7768905383322
40
0.7768905383322
40
0.873684213898097
40
0.873684213898097
40
0.971746172255122
40
0.971746172255122
40
1
40
1
40
1
40
1
41
1
10
11.9329050433304
20
4.14960492151096
30
0
41
1
10
11.9298003613061
20
4.14411649546659
30
0
41
1
10
11.9267555032164
20
4.13858983698944
30
0
41
1
10
11.907412999722
20
4.10252747513428
30
0
41
1
10
11.8928312557605
20
4.07086306414186
30
0
41
1
10
11.8710792138008
20
4.01384407465622
30
0
41
1
10
11.8629314443623
20
3.9887266562836
30
0
41
1
10
11.8513296292893
20
3.94369046934364
30
0
41
1
10
11.8472088110262
20
3.92383686971195
30
0
41
1
10
11.8420309877336
20
3.88825105815954
30
0
41
1
10
11.8404994390122
20
3.87248873933339
30
0
41
1
10
11.8390486191278
20
3.83150791393928
30
0
41
1
10
11.8406897790162
20
3.80590281281724
30
0
41
1
10
11.849950350233
20
3.7676675738733
30
0
41
1
10
11.855225080977
20
3.75352541071356
30
0
41
1
10
11.8695477785735
20
3.72908661727638
30
0
41
1
10
11.878907289771
20
3.71856359247567
30
0
41
1
10
11.8926520974679
20
3.70900510928593
30
0
41
1
10
11.8958923511189
20
3.70707831718056
30
0
41
1
10
11.8992190858547
20
3.70540345389327
30
0
0
SPLINE
5
263
100
AcDbEntity
8
1
62
256
6
ByLayer
370
-1
48
1
60
0
100
AcDbSpline
70
4
71
3
72
8
73
4
40
0
40
0
40
0
40
0
40
1
40
1
40
1
40
1
41
1
10
12.2910926745507
20
2.23324394807116
30
0
41
1
10
12.2954034667188
20
2.23770526675162
30
0
41
1
10
12.2997142969237
20
2.24216661098734
30
0
41
1
10
12.3040251667342
20
2.24662798183198
30
0
0
SPLINE
5
264
100
AcDbEntity
8
1
62
256
6
ByLayer
370
-1
48
1
60
0
100
AcDbSpline
70
4
71
3
72
34
73
30
40
0
40
0
40
0
40
0
40
0.0514465755209512
40
0.0514465755209512
40
0.13578614473542
40
0.13578614473542
40
0.203131635218864
40
0.203131635218864
40
0.270315608875098
40
0.270315608875098
40
0.33743127853593
40
0.33743127853593
40
0.404515897625519
40
0.404515897625519
40
0.499929883690879
40
0.499929883690879
40
0.599210771748173
40
0.599210771748173
40
0.69708301989425
40
0.69708301989425
40
0.78095722692277
40
0.78095722692277
40
0.847546414393278
40
0.847546414393278
40
0.898875235580359
40
0.898875235580359
40
0.980803570703554
40
0.980803570703554
40
1
40
1
40
1
40
1
41
1
10
14.7793859255038
20
2.92083859295545
30
0
41
1
10
14.7650770254393
20
2.92503665675397
30
0
41
1
10
14.7514830294612
20
2.93187575733143
30
0
41
1
10
14.7190031424
20
2.95398471255766
30
0
41
1
10
14.701541262316
20
2.97211088117572
30
0
41
1
10
14.6747536913488
20
3.00784691238414
30
0
41
1
10
14.6642973905553
20
3.02512779063488
30
0
41
1
10
14.6460023146726
20
3.06108173662142
30
0
41
1
10
14.6381023130685
20
3.07987322076485
30
0
41
1
10
14.624538216994
20
3.11835532331349
30
0
41
1
10
14.618845023592
20
3.13813097179928
30
0
41
1
10
14.6094841340528
20
3.17824833294472
30
0
41
1
10
14.6058008202286
20
3.19865979087118
30
0
41
1
10
14.5992010874205
20
3.24842982992917
30
0
41
1
10
14.5972382547281
20
3.27809425395313
30
0
41
1
10
14.5970579651876
20
3.3384929238091
30
0
41
1
10
14.5989938592553
20
3.36941614624067
30
0
41
1
10
14.606954644508
20
3.42990790364166
30
0
41
1
10
14.6129431414452
20
3.45969311897321
30
0
41
1
10
14.6281369752159
20
3.51332495530073
30
0
41
1
10
14.6368037854847
20
3.53757598467627
30
0
41
1
10
14.6556955287629
20
3.57906578226252
30
0
41
1
10
14.6652844153594
20
3.59683313712
30
0
41
1
10
14.684733232422
20
3.62628011638236
30
0
41
1
10
14.694080752643
20
3.63849552000065
30
0
41
1
10
14.7206452312846
20
3.6672934480163
30
0
41
1
10
14.7398064982304
20
3.68278380512328
30
0
41
1
10
14.766400817629
20
3.69504914935436
30
0
41
1
10
14.7716784084695
20
3.69710440792809
30
0
41
1
10
14.7770637455326
20
3.69879044192027
30
0
0
SPLINE
5
265
100
AcDbEntity
8
1
62
256
6
ByLayer
370
-1
48
1
60
0
100
AcDbSpline
70
4
71
3
72
8
73
4
40
0
40
0
40
0
40
0
40
1
40
1
40
1
40
1
41
1
10
11.9186140110127
20
2.92083859295548
30
0
41
1
10
11.9129358064728
20
2.91876913933967
30
0
41
1
10
11.9072576492275
20
2.91669969888207
30
0
41
1
10
11.9015795374036
20
2.9146302710617
30
0
0
SPLINE
5
266
100
AcDbEntity
8
1
62
256
6
ByLayer
370
-1
48
1
60
0
100
AcDbSpline
70
4
71
3
72
22
73
18
40
0
40
0
40
0
40
0
40
0.0973712659846743
40
0.0973712659846743
40
0.180296832630681
40
0.180296832630681
40
0.307445080802935
40
0.307445080802935
40
0.411978418514759
40
0.411978418514759
40
0.516185210010947
40
0.516185210010947
40
0.620250145291738
40
0.620250145291738
40
0.82928985962587
40
0.82928985962587
40
1
40
1
40
1
40
1
41
1
10
12.2846643576863
20
4.3867897768838
30
0
41
1
10
12.275005764273
20
4.39525276236554
30
0
41
1
10
12.2631394236447
20
4.40133589840258
30
0
41
1
10
12.2394740413212
20
4.40693086879241
30
0
41
1
10
12.2276740178628
20
4.40739601205604
30
0
41
1
10
12.1978769575807
20
4.40418654650475
30
0
41
1
10
12.1794278581999
20
4.39825626836998
30
0
41
1
10
12.1473254139747
20
4.38341873800934
30
0
41
1
10
12.1331336923403
20
4.37511414364272
30
0
41
1
10
12.1058608585605
20
4.35656171495154
30
0
41
1
10
12.0926898611747
20
4.34625820587792
30
0
41
1
10
12.0673669421858
20
4.32427924884681
30
0
41
1
10
12.0551700644574
20
4.31256489755651
30
0
41
1
10
12.0199459287963
20
4.27580572836286
30
0
41
1
10
11.9982025872465
20
4.24907394012607
30
0
41
1
10
11.9619795184777
20
4.1981209520826
30
0
41
1
10
11.9468295220005
20
4.17422047659477
30
0
41
1
10
11.9329050433304
20
4.14960492151096
30
0
0
SPLINE
5
267
100
AcDbEntity
8
1
62
256
6
ByLayer
370
-1
48
1
60
0
100
AcDbSpline
70
4
71
3
72
24
73
20
40
0
40
0
40
0
40
0
40
0.0380198325517979
40
0.0380198325517979
40
0.246834654674916
40
0.246834654674916
40
0.404726505663364
40
0.404726505663364
40
0.526150637962939
40
0.526150637962939
40
0.621531995503753
40
0.621531995503753
40
0.776890538332178
40
0.776890538332178
40
0.873684213898065
40
0.873684213898065
40
0.971746172255075
40
0.971746172255075
40
1
40
1
40
1
40
1
41
1
10
11.9379083445954
20
2.4734525481008
30
0
41
1
10
11.9410457924343
20
2.46796412205643
30
0
41
1
10
11.9442433178453
20
2.46251231729889
30
0
41
1
10
11.9653543511284
20
2.42742156553928
30
0
41
1
10
11.9850187957817
20
2.39881634286019
30
0
41
1
10
12.0225300366871
20
2.35146587593584
30
0
41
1
10
12.0397228121115
20
2.33193168369127
30
0
41
1
10
12.0719345352067
20
2.29970774735691
30
0
41
1
10
12.086592159015
20
2.28642787439804
30
0
41
1
10
12.1138678044247
20
2.26470125651238
30
0
41
1
10
12.1262953309805
20
2.25579406914679
30
0
41
1
10
12.15974170711
20
2.235035645447
30
0
41
1
10
12.181784232286
20
2.22447834737866
30
0
41
1
10
12.2176975681346
20
2.21525123437883
30
0
41
1
10
12.2317944378519
20
2.21361496854269
30
0
41
1
10
12.2584242644529
20
2.21581968521517
30
0
41
1
10
12.2712810795758
20
2.21985503433737
30
0
41
1
10
12.2852334631299
20
2.22860255912161
30
0
41
1
10
12.2882496570634
20
2.23082100645894
30
0
41
1
10
12.2910926745508
20
2.23324394807116
30
0
0
SPLINE
5
268
100
AcDbEntity
8
1
62
256
6
ByLayer
370
-1
48
1
60
0
100
AcDbSpline
70
4
71
3
72
22
73
18
40
0
40
0
40
0
40
0
40
0.0973712659846608
40
0.0973712659846608
40
0.180296832630676
40
0.180296832630676
40
0.307445080802955
40
0.307445080802955
40
0.411978418514794
40
0.411978418514794
40
0.516185210010969
40
0.516185210010969
40
0.620250145291782
40
0.620250145291782
40
0.829289859625889
40
0.829289859625889
40
1
40
1
40
1
40
1
41
1
10
11.9015795374036
20
2.9146302710617
30
0
41
1
10
11.8903687501477
20
2.90924341403445
30
0
41
1
10
11.8800840325542
20
2.90072750955511
30
0
41
1
10
11.8648682913598
20
2.88085508352168
30
0
41
1
10
11.859165052514
20
2.86991825449422
30
0
41
1
10
11.8483282260128
20
2.84034448252407
30
0
41
1
10
11.8448258733372
20
2.82027246393935
30
0
41
1
10
11.8424339719172
20
2.78328972993603
30
0
41
1
10
11.8428062882695
20
2.76614675670919
30
0
41
1
10
11.8456590630139
20
2.73200457978589
30
0
41
1
10
11.8481442585098
20
2.71489559910594
30
0
41
1
10
11.8547194965391
20
2.68098629271748
30
0
41
1
10
11.8588210156522
20
2.66412596347422
30
0
41
1
10
11.873102489822
20
2.61404911608034
30
0
41
1
10
11.8852809864132
20
2.58122532095257
30
0
41
1
10
11.9109395929283
20
2.52346596257735
30
0
41
1
10
11.92383691146
20
2.49806810318458
30
0
41
1
10
11.9379083445954
20
2.4734525481008
30
0
0
SPLINE
5
269
100
AcDbEntity
8
1
62
256
6
ByLayer
370
-1
48
1
60
0
100
AcDbSpline
70
4
71
3
72
24
73
20
40
0
40
0
40
0
40
0
40
0.0380198325520359
40
0.0380198325520359
40
0.246834654675178
40
0.246834654675178
40
0.404726505663545
40
0.404726505663545
40
0.526150637963074
40
0.526150637963074
40
0.621531995503865
40
0.621531995503865
40
0.776890538332268
40
0.776890538332268
40
0.87368421389812
40
0.87368421389812
40
0.971746172255098
40
0.971746172255098
40
1
40
1
40
1
40
1
41
1
10
13.3601521996632
20
4.98768110821612
30
0
41
1
10
13.3539100697998
20
4.98768110821612
30
0
41
1
10
13.3476637859868
20
4.98760586839447
30
0
41
1
10
13.307159555252
20
4.9866292399727
30
0
41
1
10
13.2727553405949
20
4.98355440825176
30
0
41
1
10
13.2129688439532
20
4.97383409140238
30
0
41
1
10
13.1873217889561
20
4.96822052304154
30
0
41
1
10
13.1427693330311
20
4.95533512505159
30
0
41
1
10
13.1236026039967
20
4.94872296084571
30
0
41
1
10
13.0902909449761
20
4.93477881269456
30
0
41
1
10
13.075895778697
20
4.92788051145521
30
0
41
1
10
13.0396550141994
20
4.90752510643364
30
0
41
1
10
13.0182061350394
20
4.89237360726617
30
0
41
1
10
12.9893263718594
20
4.86314502496254
30
0
41
1
10
12.9794993188023
20
4.85053964858864
30
0
41
1
10
12.9649091738407
20
4.82367013681093
30
0
41
1
10
12.9600925267706
20
4.80898115768989
30
0
41
1
10
12.9581179336475
20
4.79050022809594
30
0
41
1
10
12.9579349061699
20
4.78631469003648
30
0
41
1
10
12.9580093318095
20
4.78217636829956
30
0
0
SPLINE
5
26A
100
AcDbEntity
8
1
62
256
6
ByLayer
370
-1
48
1
60
0
100
AcDbSpline
70
4
71
3
72
22
73
18
40
0
40
0
40
0
40
0
40
0.0973712659846948
40
0.0973712659846948
40
0.180296832630731
40
0.180296832630731
40
0.307445080803033
40
0.307445080803033
40
0.411978418514872
40
0.411978418514872
40
0.516185210011053
40
0.516185210011053
40
0.6202501452919
40
0.6202501452919
40
0.829289859626066
40
0.829289859626066
40
1
40
1
40
1
40
1
41
1
10
13.7329677407884
20
4.78217636829956
30
0
41
1
10
13.7359032665517
20
4.79616315042151
30
0
41
1
10
13.7356949794115
20
4.8108981410183
30
0
41
1
10
13.7295063492254
20
4.83658936077623
30
0
41
1
10
13.7243678413512
20
4.84808619536588
30
0
41
1
10
13.7075297174409
20
4.87466057494217
30
0
41
1
10
13.6936309539711
20
4.88890605796936
30
0
41
1
10
13.6654851720202
20
4.91120616134549
30
0
41
1
10
13.6515123651238
20
4.92010306770402
30
0
41
1
10
13.6223957524215
20
4.93579269904825
30
0
41
1
10
13.6071606511939
20
4.94263985560909
30
0
41
1
10
13.5759815509633
20
4.9546413862619
30
0
41
1
10
13.559982229893
20
4.95981697050081
30
0
41
1
10
13.5112353693738
20
4.97320975926238
30
0
41
1
10
13.4776385747971
20
4.97933394305841
30
0
41
1
10
13.416118105582
20
4.98617607011531
30
0
41
1
10
13.3881481114685
20
4.98768110821612
30
0
41
1
10
13.3601521996632
20
4.98768110821612
30
0
0
SPLINE
5
26B
100
AcDbEntity
8
1
62
256
6
ByLayer
370
-1
48
1
60
0
100
AcDbSpline
70
4
71
3
72
24
73
20
40
0
40
0
40
0
40
0
40
0.0380198325519982
40
0.0380198325519982
40
0.246834654675153
40
0.246834654675153
40
0.404726505663527
40
0.404726505663527
40
0.52615063796303
40
0.52615063796303
40
0.621531995503822
40
0.621531995503822
40
0.776890538332214
40
0.776890538332214
40
0.873684213898094
40
0.873684213898094
40
0.971746172255111
40
0.971746172255111
40
1
40
1
40
1
40
1
41
1
10
14.7974059585255
20
2.47345254810082
30
0
41
1
10
14.8005106405499
20
2.47894097414522
30
0
41
1
10
14.8035476980151
20
2.48446686041834
30
0
41
1
10
14.8227888135948
20
2.52051918562103
30
0
41
1
10
14.8370545054717
20
2.55215230979826
30
0
41
1
10
14.8577601198783
20
2.60906771070768
30
0
41
1
10
14.8652948690485
20
2.63412444461474
30
0
41
1
10
14.8754188486074
20
2.67901433678605
30
0
41
1
10
14.8787630929445
20
2.69879106135161
30
0
41
1
10
14.8822245356008
20
2.73420696393532
30
0
41
1
10
14.8828839023185
20
2.74988294320389
30
0
41
1
10
14.8816475852354
20
2.79059776194347
30
0
41
1
10
14.8779113976021
20
2.81599547083792
30
0
41
1
10
14.864196829289
20
2.8537897970628
30
0
41
1
10
14.8569122703773
20
2.86773300212195
30
0
41
1
10
14.8380235408666
20
2.89171979222303
30
0
41
1
10
14.8260253433799
20
2.90198160662746
30
0
41
1
10
14.8087465011511
20
2.91119024657735
30
0
41
1
10
14.8046920731099
20
2.91303644144915
30
0
41
1
10
14.8005467551564
20
2.91463027106167
30
0
0
SPLINE
5
26C
100
AcDbEntity
8
1
62
256
6
ByLayer
370
-1
48
1
60
0
100
AcDbSpline
70
4
71
3
72
24
73
20
40
0
40
0
40
0
40
0
40
0.104000448201629
40
0.104000448201629
40
0.192499055460782
40
0.192499055460782
40
0.328500518746361
40
0.328500518746361
40
0.438682575664973
40
0.438682575664973
40
0.548533158171413
40
0.548533158171413
40
0.658237202769456
40
0.658237202769456
40
0.767870673660584
40
0.767870673660584
40
0.988088331633957
40
0.988088331633957
40
1
40
1
40
1
40
1
41
1
10
5.24994324059338
20
8.15753391718525
30
0
41
1
10
5.23860991310173
20
8.16498599649822
30
0
41
1
10
5.22568958767164
20
8.17222944207836
30
0
41
1
10
5.2014589761298
20
8.1838755919425
30
0
41
1
10
5.18992352643457
20
8.18869256684022
30
0
41
1
10
5.16174523588265
20
8.19912933367937
30
0
41
1
10
5.14517487739931
20
8.20403258296807
30
0
41
1
10
5.11752888984302
20
8.21095453934012
30
0
41
1
10
5.1057774117466
20
8.21340132464977
30
0
41
1
10
5.08374698775845
20
8.21732808291011
30
0
41
1
10
5.07339406197988
20
8.21882144316905
30
0
41
1
10
5.05396141346478
20
8.22111419296496
30
0
41
1
10
5.04484580359019
20
8.2219170975942
30
0
41
1
10
5.02775832888167
20
8.22299057364168
30
0
41
1
10
5.01976596780148
20
8.22326188968484
30
0
41
1
10
4.99735567977808
20
8.22342210096184
30
0
41
1
10
4.98445917185813
20
8.22266618022218
30
0
41
1
10
4.97306526890401
20
8.22112205201583
30
0
41
1
10
4.97248522522477
20
8.22104046785026
30
0
41
1
10
4.97191129761518
20
8.22095673863524
30
0
0
SPLINE
5
26D
100
AcDbEntity
8
1
62
256
6
ByLayer
370
-1
48
1
60
0
100
AcDbSpline
70
4
71
3
72
8
73
4
40
0
40
0
40
0
40
0
40
1
40
1
40
1
40
1
41
1
10
5.7580071455213
20
8.1799781475581
30
0
41
1
10
5.76048689834357
20
8.17572569473185
30
0
41
1
10
5.76296667009117
20
8.17147332895743
30
0
41
1
10
5.76544646169896
20
8.16722105454349
30
0
0
SPLINE
5
26E
100
AcDbEntity
8
1
62
256
6
ByLayer
370
-1
48
1
60
0
100
AcDbSpline
70
4
71
3
72
8
73
4
40
0
40
0
40
0
40
0
40
1
40
1
40
1
40
1
41
1
10
7.0299421102543
20
8.1732751538888
30
0
41
1
10
7.02569727006662
20
8.16908061487467
30
0
41
1
10
7.0214523976619
20
8.16488616335278
30
0
41
1
10
7.01720749144886
20
8.16069180365361
30
0
0
SPLINE
5
26F
100
AcDbEntity
8
1
62
256
6
ByLayer
370
-1
48
1
60
0
100
AcDbSpline
70
4
71
3
72
10
73
6
40
0
40
0
40
0
40
0
40
0.388885978133008
40
0.388885978133008
40
1
40
1
40
1
40
1
41
1
10
10.2812809144905
20
1.51541553624301
30
0
41
1
10
10.2642763660922
20
1.50543172316657
30
0
41
1
10
10.2470263163505
20
1.49541197694813
30
0
41
1
10
10.2026160059103
20
1.46986554821214
30
0
41
1
10
10.1751706298381
20
1.45431206328451
30
0
41
1
10
10.148124163178
20
1.4392516737484
30
0
0
SPLINE
5
270
100
AcDbEntity
8
1
62
256
6
ByLayer
370
-1
48
1
60
0
100
AcDbSpline
70
4
71
3
72
14
73
10
40
0
40
0
40
0
40
0
40
0.314392366702094
40
0.314392366702094
40
0.632200716155289
40
0.632200716155289
40
0.912513196202104
40
0.912513196202104
40
1
40
1
40
1
40
1
41
1
10
19.9036996490258
20
7.00619969422595
30
0
41
1
10
19.9094031499392
20
7.01582158477098
30
0
41
1
10
19.9138710662936
20
7.02638115764742
30
0
41
1
10
19.9187475315416
20
7.04828984497226
30
0
41
1
10
19.9191178132637
20
7.05994889786132
30
0
41
1
10
19.9157115086348
20
7.08092601888882
30
0
41
1
10
19.912416556071
20
7.09059879802177
30
0
41
1
10
19.9065625663022
20
7.10236416144832
30
0
41
1
10
19.9050419966102
20
7.1051272933575
30
0
41
1
10
19.9034214803081
20
7.10782732277599
30
0
0
SPLINE
5
271
100
AcDbEntity
8
1
62
256
6
ByLayer
370
-1
48
1
60
0
100
AcDbSpline
70
4
71
3
72
8
73
4
40
0
40
0
40
0
40
0
40
1
40
1
40
1
40
1
41
1
10
12.9580093318096
20
4.78217636829956
30
0
41
1
10
12.9587080499495
20
4.77544327342477
30
0
41
1
10
12.9594067866181
20
4.76871014364659
30
0
41
1
10
12.9601055425801
20
4.76197697752619
30
0
0
SPLINE
5
272
100
AcDbEntity
8
1
62
256
6
ByLayer
370
-1
48
1
60
0
100
AcDbSpline
70
4
71
3
72
8
73
4
40
0
40
0
40
0
40
0
40
1
40
1
40
1
40
1
41
1
10
12.2976779603313
20
4.37300105304374
30
0
41
1
10
12.2933400535502
20
4.37759731832836
30
0
41
1
10
12.2890021865269
20
4.38219355928734
30
0
41
1
10
12.2846643576863
20
4.38678977688377
30
0
0
SPLINE
5
273
100
AcDbEntity
8
1
62
256
6
ByLayer
370
-1
48
1
60
0
100
AcDbSpline
70
4
71
3
72
8
73
4
40
0
40
0
40
0
40
0
40
1
40
1
40
1
40
1
41
1
10
14.4086731664604
20
4.38678977688375
30
0
41
1
10
14.402999657015
20
4.38219355928732
30
0
41
1
10
14.3973261316833
20
4.37759731832836
30
0
41
1
10
14.3916525898111
20
4.37300105304377
30
0
0
SPLINE
5
274
100
AcDbEntity
8
1
62
256
6
ByLayer
370
-1
48
1
60
0
100
AcDbSpline
70
4
71
3
72
22
73
18
40
0
40
0
40
0
40
0
40
0.0973712659846846
40
0.0973712659846846
40
0.180296832630725
40
0.180296832630725
40
0.307445080803012
40
0.307445080803012
40
0.411978418514868
40
0.411978418514868
40
0.516185210011074
40
0.516185210011074
40
0.620250145291888
40
0.620250145291888
40
0.829289859626046
40
0.829289859626046
40
1
40
1
40
1
40
1
41
1
10
14.4151014833249
20
2.23324394807111
30
0
41
1
10
14.4275267405799
20
2.22505484181531
30
0
41
1
10
14.4421397529973
20
2.21924360593911
30
0
41
1
10
14.4703271572068
20
2.21409628221861
30
0
41
1
10
14.484043734142
20
2.21382086355209
30
0
41
1
10
14.5180850141654
20
2.21745047541825
30
0
41
1
10
14.5386300800169
20
2.22358823870752
30
0
41
1
10
14.5738620459508
20
2.23873556853505
30
0
41
1
10
14.5892362297658
20
2.24715721789832
30
0
41
1
10
14.6185270551892
20
2.26590941281373
30
0
41
1
10
14.6325402358833
20
2.27629629179628
30
0
41
1
10
14.6593012684475
20
2.29841761141839
30
0
41
1
10
14.6720962977184
20
2.31019117528049
30
0
41
1
10
14.7088379320029
20
2.34710056559683
30
0
41
1
10
14.731231360681
20
2.37389670764375
30
0
41
1
10
14.7681768415875
20
2.42492120913744
30
0
41
1
10
14.7834814798555
20
2.44883699301704
30
0
41
1
10
14.7974059585255
20
2.47345254810082
30
0
0
SPLINE
5
275
100
AcDbEntity
8
1
62
256
6
ByLayer
370
-1
48
1
60
0
100
AcDbSpline
70
4
71
3
72
8
73
4
40
0
40
0
40
0
40
0
40
1
40
1
40
1
40
1
41
1
10
14.7770637455326
20
3.69879044192024
30
0
41
1
10
14.7841046221343
20
3.70099478997602
30
0
41
1
10
14.7911454745064
20
3.70319912715686
30
0
41
1
10
14.7981863036076
20
3.70540345389321
30
0
0
SPLINE
5
276
100
AcDbEntity
8
1
62
256
6
ByLayer
370
-1
48
1
60
0
100
AcDbSpline
70
4
71
3
72
8
73
4
40
0
40
0
40
0
40
0
40
1
40
1
40
1
40
1
41
1
10
14.8005467551565
20
2.91463027106164
30
0
41
1
10
14.7934931689325
20
2.91669969888201
30
0
41
1
10
14.7864395593688
20
2.91876913933962
30
0
41
1
10
14.7793859255037
20
2.92083859295542
30
0
0
SPLINE
5
277
100
AcDbEntity
8
1
62
256
6
ByLayer
370
-1
48
1
60
0
100
AcDbSpline
70
4
71
3
72
8
73
4
40
0
40
0
40
0
40
0
40
1
40
1
40
1
40
1
41
1
10
14.3979997962141
20
2.24662798183198
30
0
41
1
10
14.4037003750568
20
2.24216661098734
30
0
41
1
10
14.409400937207
20
2.23770526675159
30
0
41
1
10
14.4151014833249
20
2.23324394807111
30
0
0
SPLINE
5
278
100
AcDbEntity
8
1
62
256
6
ByLayer
370
-1
48
1
60
0
100
AcDbSpline
70
4
71
3
72
12
73
8
40
0
40
0
40
0
40
0
40
0.40464407390137
40
0.40464407390137
40
0.809285947755723
40
0.809285947755723
40
1
40
1
40
1
40
1
41
1
10
16.8076746647728
20
-1.23963546054645
30
0
41
1
10
16.8627784222348
20
-1.23963546054645
30
0
41
1
10
16.9186210589993
20
-1.22997512641013
30
0
41
1
10
17.0225349171118
20
-1.19293503283527
30
0
41
1
10
17.0720390744032
20
-1.16504471262468
30
0
41
1
10
17.1354627794824
20
-1.11343847329951
30
0
41
1
10
17.1546738724504
20
-1.0950530823107
30
0
41
1
10
17.1722589419892
20
-1.0752897861006
30
0
0
SPLINE
5
279
100
AcDbEntity
8
1
62
256
6
ByLayer
370
-1
48
1
60
0
100
AcDbSpline
70
4
71
3
72
8
73
4
40
0
40
0
40
0
40
0
40
1
40
1
40
1
40
1
41
1
10
17.2817223441296
20
-0.745198104198778
30
0
41
1
10
17.28169420399
20
-0.745525223899534
30
0
41
1
10
17.2816658899938
20
-0.745852699454275
30
0
41
1
10
17.2816374003871
20
-0.746180525465689
30
0
0
SPLINE
5
27A
100
AcDbEntity
8
1
62
256
6
ByLayer
370
-1
48
1
60
0
100
AcDbSpline
70
4
71
3
72
10
73
6
40
0
40
0
40
0
40
0
40
0.638091248905415
40
0.638091248905415
40
1
40
1
40
1
40
1
41
1
10
17.2287037102828
20
-0.971762111854304
30
0
41
1
10
17.2168038134285
20
-0.999813796697538
30
0
41
1
10
17.2036832507516
20
-1.02460208494148
30
0
41
1
10
17.1846921522368
20
-1.05637842221975
30
0
41
1
10
17.1780363144277
20
-1.06662715438068
30
0
41
1
10
17.1722589419872
20
-1.07528978610247
30
0
0
SPLINE
5
27B
100
AcDbEntity
8
1
62
256
6
ByLayer
370
-1
48
1
60
0
100
AcDbSpline
70
4
71
3
72
10
73
6
40
0
40
0
40
0
40
0
40
0.722254617258797
40
0.722254617258797
40
1
40
1
40
1
40
1
41
1
10
17.2287037102828
20
-0.971762111854304
30
0
41
1
10
17.2535665789831
20
-0.921856718391155
30
0
41
1
10
17.2702761784585
20
-0.866885327168035
30
0
41
1
10
17.2802420075643
20
-0.789802782217578
30
0
41
1
10
17.2816438775811
20
-0.76796983049536
30
0
41
1
10
17.2816374003871
20
-0.74618052546677
30
0
0
SPLINE
5
27C
100
AcDbEntity
8
1
62
256
6
ByLayer
370
-1
48
1
60
0
100
AcDbSpline
70
4
71
3
72
8
73
4
40
0
40
0
40
0
40
0
40
1
40
1
40
1
40
1
41
1
10
13.7355722139653
20
1.85765205734955
30
0
41
1
10
13.7376336419889
20
1.85105378566911
30
0
41
1
10
13.7396950737844
20
1.84445555261416
30
0
41
1
10
13.7417565092016
20
1.83785735665535
30
0
0
SPLINE
5
27D
100
AcDbEntity
8
1
62
256
6
ByLayer
370
-1
48
1
60
0
100
AcDbSpline
70
4
71
3
72
22
73
18
40
0
40
0
40
0
40
0
40
0.153101873520372
40
0.153101873520372
40
0.442621285364939
40
0.442621285364939
40
0.707385074439682
40
0.707385074439682
40
0.843532608240173
40
0.843532608240173
40
0.926352665771241
40
0.926352665771241
40
0.963706736955261
40
0.963706736955261
40
0.977863955360661
40
0.977863955360661
40
1
40
1
40
1
40
1
41
1
10
10.1481241631781
20
1.43925167374829
30
0
41
1
10
10.1691202506993
20
1.44111035408349
30
0
41
1
10
10.1901363053426
20
1.44275847629098
30
0
41
1
10
10.2509267757903
20
1.44674273247949
30
0
41
1
10
10.2907777431824
20
1.44844317239679
30
0
41
1
10
10.3670198505561
20
1.44836257472048
30
0
41
1
10
10.4035787056936
20
1.44706055591402
30
0
41
1
10
10.4581820928209
20
1.43948951573907
30
0
41
1
10
10.4767488368662
20
1.43596286801775
30
0
41
1
10
10.5052664316978
20
1.42631966033787
30
0
41
1
10
10.5159593191948
20
1.42170866667627
30
0
41
1
10
10.5293979349793
20
1.41202491584556
30
0
41
1
10
10.533330699448
20
1.40850677747764
30
0
41
1
10
10.5377815667522
20
1.40289273229649
30
0
41
1
10
10.5389137872248
20
1.40125321841617
30
0
41
1
10
10.5414699570355
20
1.39687589070334
30
0
41
1
10
10.5427173079324
20
1.39399783253654
30
0
41
1
10
10.5435645666075
20
1.3910266765925
30
0
0
SPLINE
5
27E
100
AcDbEntity
8
1
62
256
6
ByLayer
370
-1
48
1
60
0
100
AcDbSpline
70
4
71
3
72
8
73
4
40
0
40
0
40
0
40
0
40
1
40
1
40
1
40
1
41
1
10
10.2812809144904
20
1.51541553624301
30
0
41
1
10
10.1630867359294
20
1.52439962607997
30
0
41
1
10
10.0439844670034
20
1.51983796449377
30
0
41
1
10
9.9258158857981
20
1.51116750964084
30
0
0
SPLINE
5
27F
100
AcDbEntity
8
1
62
256
6
ByLayer
370
-1
48
1
60
0
100
AcDbSpline
70
4
71
3
72
22
73
18
40
0
40
0
40
0
40
0
40
0.0236324717629811
40
0.0236324717629811
40
0.0629814022064276
40
0.0629814022064276
40
0.0762359204463851
40
0.0762359204463851
40
0.134099172814637
40
0.134099172814637
40
0.288877504287534
40
0.288877504287534
40
0.442933094377623
40
0.442933094377623
40
0.668543354429525
40
0.668543354429525
40
1
40
1
40
1
40
1
41
1
10
16.7769340870908
20
2.26006835107432
30
0
41
1
10
16.7803730205673
20
2.26369439267702
30
0
41
1
10
16.78465554378
20
2.26658050984798
30
0
41
1
10
16.7966727003488
20
2.27191032183288
30
0
41
1
10
16.8050631970633
20
2.27313827770826
30
0
41
1
10
16.8159914451617
20
2.27336924346298
30
0
41
1
10
16.8187765417238
20
2.27330466698802
30
0
41
1
10
16.8336069163328
20
2.27244396364273
30
0
41
1
10
16.8455635666979
20
2.27002054555359
30
0
41
1
10
16.8883679461442
20
2.25861306884664
30
0
41
1
10
16.9182011283774
20
2.24548304240216
30
0
41
1
10
16.9761329696467
20
2.21715176648695
30
0
41
1
10
17.0043631470319
20
2.20150766853649
30
0
41
1
10
17.0728408862898
20
2.16120209740336
30
0
41
1
10
17.1126313866683
20
2.13564202515491
30
0
41
1
10
17.2094956551491
20
2.07053242318366
30
0
41
1
10
17.2659598286436
20
2.02996415638995
30
0
41
1
10
17.321691584004
20
1.98842564915984
30
0
0
SPLINE
5
280
100
AcDbEntity
8
1
62
256
6
ByLayer
370
-1
48
1
60
0
100
AcDbSpline
70
4
71
3
72
18
73
14
40
0
40
0
40
0
40
0
40
0.0414544517087609
40
0.0414544517087609
40
0.132910922468118
40
0.132910922468118
40
0.263177731540047
40
0.263177731540047
40
0.458562667326533
40
0.458562667326533
40
0.81742584746327
40
0.81742584746327
40
1
40
1
40
1
40
1
41
1
10
16.3302998599366
20
1.82635202996002
30
0
41
1
10
16.3271668195577
20
1.82304852472078
30
0
41
1
10
16.3243115319804
20
1.81945102796183
30
0
41
1
10
16.3162663762254
20
1.80735121257848
30
0
41
1
10
16.3122474990635
20
1.79792445434279
30
0
41
1
10
16.3057816561669
20
1.7745528199959
30
0
41
1
10
16.3044931355304
20
1.76005206330646
30
0
41
1
10
16.3048434665271
20
1.72436576014144
30
0
41
1
10
16.308177769018
20
1.70294416587564
30
0
41
1
10
16.321553954678
20
1.64370936611641
30
0
41
1
10
16.3349848834391
20
1.60645164677771
30
0
41
1
10
16.3578369991486
20
1.55173994692893
30
0
41
1
10
16.3660828831624
20
1.5334816527301
30
0
41
1
10
16.3747026750183
20
1.51541553623358
30
0
0
SPLINE
5
281
100
AcDbEntity
8
1
62
256
6
ByLayer
370
-1
48
1
60
0
100
AcDbSpline
70
4
71
3
72
18
73
14
40
0
40
0
40
0
40
0
40
0.0414544517087559
40
0.0414544517087559
40
0.132910922468098
40
0.132910922468098
40
0.263177731540052
40
0.263177731540052
40
0.458562667326529
40
0.458562667326529
40
0.817425847463283
40
0.817425847463283
40
1
40
1
40
1
40
1
41
1
10
13.0704120950792
20
6.67945290427923
30
0
41
1
10
13.0748039829659
20
6.67834189909195
30
0
41
1
10
13.0793070951837
20
6.67762140349257
30
0
41
1
10
13.0936699487238
20
6.67656827806675
30
0
41
1
10
13.1037299057986
20
6.67772526751438
30
0
41
1
10
13.126913950109
20
6.6836695756177
30
0
41
1
10
13.139930182374
20
6.68975208971716
30
0
41
1
10
13.1701939145689
20
6.70781739276333
30
0
41
1
10
13.1867909529256
20
6.72140840678628
30
0
41
1
10
13.2305968301553
20
6.76264460559827
30
0
41
1
10
13.2556291706496
20
6.79299329070679
30
0
41
1
10
13.290816158573
20
6.84031078333243
30
0
41
1
10
13.3022473504153
20
6.85664639627024
30
0
41
1
10
13.3133267645122
20
6.87321515106871
30
0
0
SPLINE
5
282
100
AcDbEntity
8
1
62
256
6
ByLayer
370
-1
48
1
60
0
100
AcDbSpline
70
4
71
3
72
8
73
4
40
0
40
0
40
0
40
0
40
1
40
1
40
1
40
1
41
1
10
13.3088503519262
20
7.02443685710028
30
0
41
1
10
13.3116800113146
20
6.97596843238347
30
0
41
1
10
13.3131868200298
20
6.92434320043515
30
0
41
1
10
13.3133267644931
20
6.87321515108351
30
0
0
SPLINE
5
283
100
AcDbEntity
8
1
62
256
6
ByLayer
370
-1
48
1
60
0
100
AcDbSpline
70
4
71
3
72
22
73
18
40
0
40
0
40
0
40
0
40
0.0236324717629811
40
0.0236324717629811
40
0.0629814022064201
40
0.0629814022064201
40
0.0762359204463604
40
0.0762359204463604
40
0.134099172814616
40
0.134099172814616
40
0.288877504287522
40
0.288877504287522
40
0.442933094377609
40
0.442933094377609
40
0.668543354429517
40
0.668543354429517
40
1
40
1
40
1
40
1
41
1
10
10.715746096015
20
0.787222679576445
30
0
41
1
10
10.717127850577
20
0.782377160255919
30
0
41
1
10
10.7174427319054
20
0.777150216579798
30
0
41
1
10
10.7159373582616
20
0.763854632658109
30
0
41
1
10
10.7127350509042
20
0.755806731512507
30
0
41
1
10
10.7073835347682
20
0.74600257568332
30
0
41
1
10
10.705913181763
20
0.743565106902906
30
0
41
1
10
10.6976377566992
20
0.73084184757866
30
0
41
1
10
10.6894736518734
20
0.721440759170292
30
0
41
1
10
10.6578893134198
20
0.689138310597656
30
0
41
1
10
10.6314069166224
20
0.669190121661558
30
0
41
1
10
10.5775351144384
20
0.631857046289554
30
0
41
1
10
10.5496968284369
20
0.614574934955016
30
0
41
1
10
10.4801341426927
20
0.573820962694185
30
0
41
1
10
10.4378660329319
20
0.551199119667444
30
0
41
1
10
10.3324766379257
20
0.497557932513558
30
0
41
1
10
10.2687848574646
20
0.467582933513597
30
0
41
1
10
10.2046259928262
20
0.438736574178421
30
0
0
SPLINE
5
284
100
AcDbEntity
8
1
62
256
6
ByLayer
370
-1
48
1
60
0
100
AcDbSpline
70
4
71
3
72
20
73
16
40
0
40
0
40
0
40
0
40
0.314859192648756
40
0.314859192648756
40
0.531558880441058
40
0.531558880441058
40
0.682135903694816
40
0.682135903694816
40
0.839619845966502
40
0.839619845966502
40
0.903112673776004
40
0.903112673776004
40
0.9679021282098
40
0.9679021282098
40
1
40
1
40
1
40
1
41
1
10
12.3343500985387
20
7.47937813063226
30
0
41
1
10
12.3318921234972
20
7.40695761302146
30
0
41
1
10
12.3312295912187
20
7.33440447251951
30
0
41
1
10
12.3353639640325
20
7.21211683988258
30
0
41
1
10
12.3385044790866
20
7.16224539615052
30
0
41
1
10
12.3481984832362
20
7.07825889608861
30
0
41
1
10
12.353408819252
20
7.04389944056155
30
0
41
1
10
12.3685550676936
20
6.97476266087241
30
0
41
1
10
12.3785235013441
20
6.939493027342
30
0
41
1
10
12.4004558027861
20
6.89381055237624
30
0
41
1
10
12.4078146432498
20
6.8810107902375
30
0
41
1
10
12.4256895065454
20
6.857781534293
30
0
41
1
10
12.4366088889388
20
6.8470868423054
30
0
41
1
10
12.4556739509285
20
6.83608199941312
30
0
41
1
10
12.4625888425142
20
6.83321247281577
30
0
41
1
10
12.4697023437759
20
6.83141298771815
30
0
0
SPLINE
5
285
100
AcDbEntity
8
1
62
256
6
ByLayer
370
-1
48
1
60
0
100
AcDbSpline
70
4
71
3
72
10
73
6
40
0
40
0
40
0
40
0
40
0.736240194588515
40
0.736240194588515
40
1
40
1
40
1
40
1
41
1
10
9.07392265181193
20
7.3452304175787
30
0
41
1
10
9.05079018095074
20
7.34139526907936
30
0
41
1
10
9.02508905142372
20
7.34144707225414
30
0
41
1
10
8.9899794055903
20
7.35075096825057
30
0
41
1
10
8.98053822472178
20
7.35416387243293
30
0
41
1
10
8.9713494069554
20
7.35864602104704
30
0
0
SPLINE
5
286
100
AcDbEntity
8
1
62
256
6
ByLayer
370
-1
48
1
60
0
100
AcDbSpline
70
4
71
3
72
14
73
10
40
0
40
0
40
0
40
0
40
0.233926408286283
40
0.233926408286283
40
0.467719442169557
40
0.467719442169557
40
0.70144400441214
40
0.70144400441214
40
1
40
1
40
1
40
1
41
1
10
9.08853098874599
20
1.1742736852967
30
0
41
1
10
9.09325819982084
20
1.16276966782175
30
0
41
1
10
9.09863249065177
20
1.15048465238948
30
0
41
1
10
9.11041474146006
20
1.12491739601174
30
0
41
1
10
9.11686317567592
20
1.11154628958482
30
0
41
1
10
9.13058632734152
20
1.08419850227844
30
0
41
1
10
9.13790647676521
20
1.07013071199174
30
0
41
1
10
9.15525693181658
20
1.03786774886711
30
0
41
1
10
9.16556908175281
20
1.01943594634656
30
0
41
1
10
9.1761479112472
20
1.0012088634162
30
0
0
SPLINE
5
287
100
AcDbEntity
8
1
62
256
6
ByLayer
370
-1
48
1
60
0
100
AcDbSpline
70
4
71
3
72
8
73
4
40
0
40
0
40
0
40
0
40
1
40
1
40
1
40
1
41
1
10
9.92673910175097
20
1.41322678881283
30
0
41
1
10
10.0003145406872
20
1.42363084448647
30
0
41
1
10
10.0741146444078
20
1.43269997515176
30
0
41
1
10
10.1481241632004
20
1.43925167375028
30
0
0
SPLINE
5
288
100
AcDbEntity
8
1
62
256
6
ByLayer
370
-1
48
1
60
0
100
AcDbSpline
70
4
71
3
72
10
73
6
40
0
40
0
40
0
40
0
40
0.736240194588498
40
0.736240194588498
40
1
40
1
40
1
40
1
41
1
10
18.7876402404473
20
4.9349469883642
30
0
41
1
10
18.7895831260103
20
4.95271067342887
30
0
41
1
10
18.7962477367515
20
4.97087168749843
30
0
41
1
10
18.8143048126917
20
4.9918124534959
30
0
41
1
10
18.8200391513031
20
4.99705849018503
30
0
41
1
10
18.8267030161052
20
5.00164774259878
30
0
0
SPLINE
5
289
100
AcDbEntity
8
1
62
256
6
ByLayer
370
-1
48
1
60
0
100
AcDbSpline
70
4
71
3
72
14
73
10
40
0
40
0
40
0
40
0
40
0.249103078948817
40
0.249103078948817
40
0.498160925944205
40
0.498160925944205
40
0.745586162481426
40
0.745586162481426
40
1
40
1
40
1
40
1
41
1
10
17.6222507015244
20
1.39279654241122
30
0
41
1
10
17.6312247886635
20
1.40843029208625
30
0
41
1
10
17.6404647904536
20
1.42408522522294
30
0
41
1
10
17.6590808475002
20
1.45478248303479
30
0
41
1
10
17.6685214078228
20
1.46993143694911
30
0
41
1
10
17.6872214549626
20
1.49912541456874
30
0
41
1
10
17.6965444445217
20
1.51327498241184
30
0
41
1
10
17.715082518577
20
1.54059035719922
30
0
41
1
10
17.7243526675874
20
1.55381367397922
30
0
41
1
10
17.7332980900429
20
1.56612859163766
30
0
0
SPLINE
5
28A
100
AcDbEntity
8
1
62
256
6
ByLayer
370
-1
48
1
60
0
100
AcDbSpline
70
4
71
3
72
8
73
4
40
0
40
0
40
0
40
0
40
1
40
1
40
1
40
1
41
1
10
13.3133267644931
20
6.8732151510834
30
0
41
1
10
13.3798026545027
20
6.97262679071213
30
0
41
1
10
13.4351761347369
20
7.07964236867394
30
0
41
1
10
13.4865802953645
20
7.18790126267649
30
0
0
SPLINE
5
28B
100
AcDbEntity
8
1
62
256
6
ByLayer
370
-1
48
1
60
0
100
AcDbSpline
70
4
71
3
72
8
73
4
40
0
40
0
40
0
40
0
40
1
40
1
40
1
40
1
41
1
10
13.39367107562
20
7.22992469838346
30
0
41
1
10
13.3669876304781
20
7.16075739424247
30
0
41
1
10
13.3390494160858
20
7.09206013935636
30
0
41
1
10
13.3088503519262
20
7.02443685710028
30
0
0
SPLINE
5
28C
100
AcDbEntity
8
1
62
256
6
ByLayer
370
-1
48
1
60
0
100
AcDbSpline
70
4
71
3
72
8
73
4
40
0
40
0
40
0
40
0
40
1
40
1
40
1
40
1
41
1
10
16.6300821196892
20
1.25918656745188
30
0
41
1
10
16.5854139605225
20
1.31815167975697
30
0
41
1
10
16.5417667974379
20
1.37798084102138
30
0
41
1
10
16.500151372021
20
1.43925167376693
30
0
0
SPLINE
5
28D
100
AcDbEntity
8
1
62
256
6
ByLayer
370
-1
48
1
60
0
100
AcDbSpline
70
4
71
3
72
22
73
18
40
0
40
0
40
0
40
0
40
0.0236324717630047
40
0.0236324717630047
40
0.0629814022064391
40
0.0629814022064391
40
0.0762359204463837
40
0.0762359204463837
40
0.134099172814631
40
0.134099172814631
40
0.288877504287536
40
0.288877504287536
40
0.442933094377625
40
0.442933094377625
40
0.668543354429528
40
0.668543354429528
40
1
40
1
40
1
40
1
41
1
10
12.4754431706667
20
6.8566474455065
30
0
41
1
10
12.4706224826283
20
6.85786692322432
30
0
41
1
10
12.4659913487088
20
6.86020468801721
30
0
41
1
10
12.4553275855026
20
6.86815666426867
30
0
41
1
10
12.4499816494057
20
6.87496229041554
30
0
41
1
10
12.4441710662161
20
6.8845142531444
30
0
41
1
10
12.4427941642068
20
6.88701065609905
30
0
41
1
10
12.4358974946637
20
6.90056359986579
30
0
41
1
10
12.4317935221866
20
6.91235983724829
30
0
41
1
10
12.4194014961232
20
6.95596337808672
30
0
41
1
10
12.415125590715
20
6.98895761767807
30
0
41
1
10
12.4092081680974
20
7.05445336894294
30
0
41
1
10
12.4078719794922
20
7.0872938616649
30
0
41
1
10
12.4066148068658
20
7.16814080419974
30
0
41
1
10
12.4076847657107
20
7.21619494300444
30
0
41
1
10
12.4127177794878
20
7.33462874305479
30
0
41
1
10
12.4178506536566
20
7.40498186395359
30
0
41
1
10
12.4241747202299
20
7.47517583130991
30
0
0
SPLINE
5
28E
100
AcDbEntity
8
1
62
256
6
ByLayer
370
-1
48
1
60
0
100
AcDbSpline
70
4
71
3
72
14
73
10
40
0
40
0
40
0
40
0
40
0.23392640828629
40
0.23392640828629
40
0.46771944216955
40
0.46771944216955
40
0.701444004412128
40
0.701444004412128
40
1
40
1
40
1
40
1
41
1
10
13.5696150211151
20
8.06030241523939
30
0
41
1
10
13.5549576831737
20
8.06014310826316
30
0
41
1
10
13.5395833316944
20
8.06000113211724
30
0
41
1
10
13.5080959531922
20
8.05975721019018
30
0
41
1
10
13.491873076319
20
8.05965437534994
30
0
41
1
10
13.4591480518302
20
8.05949015115993
30
0
41
1
10
13.4425366359534
20
8.05942818994296
30
0
41
1
10
13.404919681206
20
8.05933462887722
30
0
41
1
10
13.3837700384916
20
8.05931568337456
30
0
41
1
10
13.3631803054364
20
8.05932984600989
30
0
0
SPLINE
5
28F
100
AcDbEntity
8
1
62
256
6
ByLayer
370
-1
48
1
60
0
100
AcDbSpline
70
4
71
3
72
18
73
14
40
0
40
0
40
0
40
0
40
0.0414544517087688
40
0.0414544517087688
40
0.132910922468121
40
0.132910922468121
40
0.263177731540041
40
0.263177731540041
40
0.458562667326533
40
0.458562667326533
40
0.817425847463273
40
0.817425847463273
40
1
40
1
40
1
40
1
41
1
10
10.568598399008
20
1.39824128933009
30
0
41
1
10
10.5673395515002
20
1.40265579975664
30
0
41
1
10
10.5656917268597
20
1.40697379211497
30
0
41
1
10
10.5593740290746
20
1.42012673292416
30
0
41
1
10
10.5533329491617
20
1.4283965017122
30
0
41
1
10
10.536614747748
20
1.44582382795576
30
0
41
1
10
10.5248870361194
20
1.45424207054575
30
0
41
1
10
10.4942729729279
20
1.4718630706646
30
0
41
1
10
10.4743416320803
20
1.47969365090742
30
0
41
1
10
10.4171595691905
20
1.49769225185469
30
0
41
1
10
10.3786962999351
20
1.50460128608484
30
0
41
1
10
10.3206571963022
20
1.51199549330798
30
0
41
1
10
10.3009801204461
20
1.51391817456903
30
0
41
1
10
10.2812809144934
20
1.51541553626708
30
0
0
SPLINE
5
290
100
AcDbEntity
8
1
62
256
6
ByLayer
370
-1
48
1
60
0
100
AcDbSpline
70
4
71
3
72
14
73
10
40
0
40
0
40
0
40
0
40
0.314392366702028
40
0.314392366702028
40
0.632200716155269
40
0.632200716155269
40
0.912513196202143
40
0.912513196202143
40
1
40
1
40
1
40
1
41
1
10
6.74597141588788
20
7.29614667561219
30
0
41
1
10
6.73517157048909
20
7.2962454250453
30
0
41
1
10
6.72413393498977
20
7.29481880385913
30
0
41
1
10
6.70323140160389
20
7.28809431423605
30
0
41
1
10
6.69311957545608
20
7.28260941371073
30
0
41
1
10
6.6767783253926
20
7.26925131019735
30
0
41
1
10
6.67002735097313
20
7.2616142785713
30
0
41
1
10
6.66265550064674
20
7.25074311429648
30
0
41
1
10
6.66099047871907
20
7.24806510654849
30
0
41
1
10
6.65942472701005
20
7.2453328613372
30
0
0
SPLINE
5
291
100
AcDbEntity
8
1
62
256
6
ByLayer
370
-1
48
1
60
0
100
AcDbSpline
70
4
71
3
72
22
73
18
40
0
40
0
40
0
40
0
40
0.153101873520338
40
0.153101873520338
40
0.442621285364891
40
0.442621285364891
40
0.707385074439672
40
0.707385074439672
40
0.843532608240156
40
0.843532608240156
40
0.926352665771236
40
0.926352665771236
40
0.963706736955251
40
0.963706736955251
40
0.977863955360657
40
0.977863955360657
40
1
40
1
40
1
40
1
41
1
10
16.5001513720335
20
1.43925167374849
30
0
41
1
10
16.4883453080495
20
1.45663386711775
30
0
41
1
10
16.476707993213
20
1.47413877586135
30
0
41
1
10
16.4437101266358
20
1.52516453548949
30
0
41
1
10
16.4228512002272
20
1.55907002489226
30
0
41
1
10
16.3857720848845
20
1.62560375047437
30
0
41
1
10
16.3690637758406
20
1.65813887011194
30
0
41
1
10
16.34888262792
20
1.70954402642522
30
0
41
1
10
16.3428284393091
20
1.72749913771227
30
0
41
1
10
16.3371161484117
20
1.75718902677238
30
0
41
1
10
16.3358188229588
20
1.76881872448641
30
0
41
1
10
16.337488593032
20
1.78537762218832
30
0
41
1
10
16.338557919117
20
1.7905653810584
30
0
41
1
10
16.3411535109705
20
1.79725217135456
30
0
41
1
10
16.3419931933922
20
1.79905879127651
30
0
41
1
10
16.3444624961875
20
1.80347520073102
30
0
41
1
10
16.3462971938756
20
1.80600103597786
30
0
41
1
10
16.3484058651993
20
1.80822443750588
30
0
0
SPLINE
5
292
100
AcDbEntity
8
1
62
256
6
ByLayer
370
-1
48
1
60
0
100
AcDbSpline
70
4
71
3
72
14
73
10
40
0
40
0
40
0
40
0
40
0.233926408286278
40
0.233926408286278
40
0.467719442169561
40
0.467719442169561
40
0.701444004412143
40
0.701444004412143
40
1
40
1
40
1
40
1
41
1
10
17.213509735023
20
0.660605734501388
30
0
41
1
10
17.2181748420496
20
0.671791138023906
30
0
41
1
10
17.2234826585621
20
0.683792201164351
30
0
41
1
10
17.2351262825112
20
0.708871613687961
30
0
41
1
10
17.2415020825793
20
0.72203705043438
30
0
41
1
10
17.2550764239853
20
0.749056389360788
30
0
41
1
10
17.2623199016697
20
0.763000257213548
30
0
41
1
10
17.2794942526154
20
0.795076098206636
30
0
41
1
10
17.289705605536
20
0.813470009721868
30
0
41
1
10
17.3001845774629
20
0.831725417922939
30
0
0
SPLINE
5
293
100
AcDbEntity
8
1
62
256
6
ByLayer
370
-1
48
1
60
0
100
AcDbSpline
70
4
71
3
72
20
73
16
40
0
40
0
40
0
40
0
40
0.314859192648752
40
0.314859192648752
40
0.531558880441063
40
0.531558880441063
40
0.682135903694827
40
0.682135903694827
40
0.839619845966506
40
0.839619845966506
40
0.903112673775996
40
0.903112673775996
40
0.967902128209798
40
0.967902128209798
40
1
40
1
40
1
40
1
41
1
10
17.3788804492311
20
2.07166589827699
30
0
41
1
10
17.3183301909988
20
2.11021168995254
30
0
41
1
10
17.2567734076602
20
2.14724542249587
30
0
41
1
10
17.1504071364753
20
2.20504829344168
30
0
41
1
10
17.1063050400974
20
2.2273426612791
30
0
41
1
10
17.029842474408
20
2.26101433615474
30
0
41
1
10
16.9979418811844
20
2.27369543327683
30
0
41
1
10
16.931432845538
20
2.29511248151917
30
0
41
1
10
16.8963882902029
20
2.30406717703096
30
0
41
1
10
16.8465086378333
20
2.30773381181416
30
0
41
1
10
16.8319289733887
20
2.30769404612266
30
0
41
1
10
16.8032204457061
20
2.30364764131414
30
0
41
1
10
16.788664664425
20
2.29941957515158
30
0
41
1
10
16.7697910946938
20
2.28818503017086
30
0
41
1
10
16.7639026391122
20
2.28354660122477
30
0
41
1
10
16.7588280818229
20
2.27819594353653
30
0
0
SPLINE
5
294
100
AcDbEntity
8
1
62
256
6
ByLayer
370
-1
48
1
60
0
100
AcDbSpline
70
4
71
3
72
14
73
10
40
0
40
0
40
0
40
0
40
0.249103078948814
40
0.249103078948814
40
0.498160925944166
40
0.498160925944166
40
0.74558616248139
40
0.74558616248139
40
1
40
1
40
1
40
1
41
1
10
12.7303648377718
20
8.05976512774396
30
0
41
1
10
12.7127319955524
20
8.05977725648373
30
0
41
1
10
12.6953703723914
20
8.0598136830408
30
0
41
1
10
12.6619052566479
20
8.05993272837921
30
0
41
1
10
12.6456853353039
20
8.06001574543888
30
0
41
1
10
12.6150169517675
20
8.06022423210604
30
0
41
1
10
12.6004546388131
20
8.06035011699188
30
0
41
1
10
12.5729708081827
20
8.06064483336237
30
0
41
1
10
12.5600100736756
20
8.06081581965032
30
0
41
1
10
12.5483026681717
20
8.06100492431938
30
0
0
SPLINE
5
295
100
AcDbEntity
8
1
62
256
6
ByLayer
370
-1
48
1
60
0
100
AcDbSpline
70
4
71
3
72
8
73
4
40
0
40
0
40
0
40
0
40
1
40
1
40
1
40
1
41
1
10
16.3747026750403
20
1.51541553624293
30
0
41
1
10
16.4264209635917
20
1.40701980677724
30
0
41
1
10
16.4901497522835
20
1.30456589040162
30
0
41
1
10
16.5569141728613
20
1.20497745125201
30
0
0
SPLINE
5
296
100
AcDbEntity
8
1
62
256
6
ByLayer
370
-1
48
1
60
0
100
AcDbSpline
70
4
71
3
72
10
73
6
40
0
40
0
40
0
40
0
40
0.638746828356578
40
0.638746828356578
40
1
40
1
40
1
40
1
41
1
10
10.1481241631899
20
1.43925167373806
30
0
41
1
10
10.0259297916458
20
1.37120970516207
30
0
41
1
10
9.90292206076145
20
1.30205254600753
30
0
41
1
10
9.71041499901128
20
1.1930928105364
30
0
41
1
10
9.64076089655504
20
1.15351324931194
30
0
41
1
10
9.57117417703569
20
1.1138214123954
30
0
0
SPLINE
5
297
100
AcDbEntity
8
1
62
256
6
ByLayer
370
-1
48
1
60
0
100
AcDbSpline
70
4
71
3
72
10
73
6
40
0
40
0
40
0
40
0
40
0.388885978132985
40
0.388885978132985
40
1
40
1
40
1
40
1
41
1
10
16.3747026750403
20
1.51541553624301
30
0
41
1
10
16.3917618775621
20
1.50543172316657
30
0
41
1
10
16.4086306613558
20
1.49541197694813
30
0
41
1
10
16.4510526903556
20
1.46986554821214
30
0
41
1
10
16.4763245399275
20
1.45431206328448
30
0
41
1
10
16.5001513720335
20
1.43925167374837
30
0
0
SPLINE
5
298
100
AcDbEntity
8
1
62
256
6
ByLayer
370
-1
48
1
60
0
100
AcDbSpline
70
4
71
3
72
10
73
6
40
0
40
0
40
0
40
0
40
0.638746828356587
40
0.638746828356587
40
1
40
1
40
1
40
1
41
1
10
16.5001513720354
20
1.4392516737644
30
0
41
1
10
16.6077996209429
20
1.37120970518845
30
0
41
1
10
16.7188372967823
20
1.30205254600753
30
0
41
1
10
16.8955525729304
20
1.1930928105364
30
0
41
1
10
16.9601186429327
20
1.15351324931191
30
0
41
1
10
17.0252299108742
20
1.1138214123954
30
0
0
SPLINE
5
299
100
AcDbEntity
8
1
62
256
6
ByLayer
370
-1
48
1
60
0
100
AcDbSpline
70
4
71
3
72
20
73
16
40
0
40
0
40
0
40
0
40
0.31485919264876
40
0.31485919264876
40
0.53155888044106
40
0.53155888044106
40
0.682135903694828
40
0.682135903694828
40
0.839619845966508
40
0.839619845966508
40
0.903112673776004
40
0.903112673776004
40
0.967902128209799
40
0.967902128209799
40
1
40
1
40
1
40
1
41
1
10
10.256079806254
20
0.353002194660121
30
0
41
1
10
10.3190880395277
20
0.38687692059537
30
0
41
1
10
10.3813073551449
20
0.422396328553958
30
0
41
1
10
10.4835392535161
20
0.486881090245106
30
0
41
1
10
10.5245008348398
20
0.514458166139747
30
0
41
1
10
10.5912693963796
20
0.564772991326009
30
0
41
1
10
10.6179596535874
20
0.586451349730993
30
0
41
1
10
10.6693224407922
20
0.634171081177783
30
0
41
1
10
10.6943985624767
20
0.660486019196412
30
0
41
1
10
10.7223459134044
20
0.70250185937897
30
0
41
1
10
10.7295667373853
20
0.715341387209236
30
0
41
1
10
10.7404004017723
20
0.742617047962256
30
0
41
1
10
10.74403680066
20
0.757539806112391
30
0
41
1
10
10.7438453084015
20
0.779779193985348
30
0
41
1
10
10.7428188723974
20
0.787287149528794
30
0
41
1
10
10.7407799284251
20
0.794437292314683
30
0
0
SPLINE
5
29A
100
AcDbEntity
8
1
62
256
6
ByLayer
370
-1
48
1
60
0
100
AcDbSpline
70
4
71
3
72
12
73
8
40
0
40
0
40
0
40
0
40
0.197891272102657
40
0.197891272102657
40
0.598376100017383
40
0.598376100017383
40
1
40
1
40
1
40
1
41
1
10
13.308850351935
20
7.02443685711856
30
0
41
1
10
13.3064240806921
20
7.06599576189569
30
0
41
1
10
13.3041255367019
20
7.10780724170399
30
0
41
1
10
13.2975108546002
20
7.23479975215824
30
0
41
1
10
13.2935319252682
20
7.32059998374981
30
0
41
1
10
13.2863299392145
20
7.4934251122705
30
0
41
1
10
13.2831082201069
20
7.58052157445366
30
0
41
1
10
13.2802623776585
20
7.66799384771272
30
0
0
SPLINE
5
29B
100
AcDbEntity
8
1
62
256
6
ByLayer
370
-1
48
1
60
0
100
AcDbSpline
70
4
71
3
72
22
73
18
40
0
40
0
40
0
40
0
40
0.153101873520356
40
0.153101873520356
40
0.442621285364908
40
0.442621285364908
40
0.707385074439695
40
0.707385074439695
40
0.843532608240162
40
0.843532608240162
40
0.926352665771245
40
0.926352665771245
40
0.963706736955239
40
0.963706736955239
40
0.977863955360654
40
0.977863955360654
40
1
40
1
40
1
40
1
41
1
10
13.3088503519353
20
7.02443685712066
30
0
41
1
10
13.3002830459389
20
7.00525250927069
30
0
41
1
10
13.2915254640174
20
6.98615586259973
30
0
41
1
10
13.2655219745787
20
6.93130824982364
30
0
41
1
10
13.2476938081258
20
6.89580796872778
30
0
41
1
10
13.2107272778688
20
6.82955421994737
30
0
41
1
10
13.1919183105872
20
6.79841566620786
30
0
41
1
10
13.159003835219
20
6.75471841411107
30
0
41
1
10
13.1469958344533
20
6.74033575041753
30
0
41
1
10
13.124930480745
20
6.72035623643833
30
0
41
1
10
13.1158041163918
20
6.71336196823125
30
0
41
1
10
13.1010021511259
20
6.70651463603468
30
0
41
1
10
13.0960841223494
20
6.70485264606077
30
0
41
1
10
13.089119437287
20
6.70378732381457
30
0
41
1
10
13.0871666059088
20
6.70362194894906
30
0
41
1
10
13.0821786599913
20
6.70358627361239
30
0
41
1
10
13.0791088519647
20
6.70393960764287
30
0
41
1
10
13.0761529219659
20
6.70468736205888
30
0
0
SPLINE
5
29C
100
AcDbEntity
8
1
62
256
6
ByLayer
370
-1
48
1
60
0
100
AcDbSpline
70
4
71
3
72
14
73
10
40
0
40
0
40
0
40
0
40
0.314392366702071
40
0.314392366702071
40
0.632200716155178
40
0.632200716155178
40
0.912513196202063
40
0.912513196202063
40
1
40
1
40
1
40
1
41
1
10
13.1091829353742
20
-4.41740387219582
30
0
41
1
10
13.1147975407494
20
-4.42707746814881
30
0
41
1
10
13.1217739949302
20
-4.4361734993351
30
0
41
1
10
13.1382465608749
20
-4.45131716715224
30
0
41
1
10
13.1480244835575
20
-4.45748801735743
30
0
41
1
10
13.1674691330801
20
-4.46513453044128
30
0
41
1
10
13.1772194279859
20
-4.46719711331846
30
0
41
1
10
13.1899186904493
20
-4.46813911142982
30
0
41
1
10
13.1929674313851
20
-4.4682366579195
30
0
41
1
10
13.1960077929698
20
-4.46821768647087
30
0
0
SPLINE
5
29D
100
AcDbEntity
8
1
62
256
6
ByLayer
370
-1
48
1
60
0
100
AcDbSpline
70
4
71
3
72
14
73
10
40
0
40
0
40
0
40
0
40
0.249103078948811
40
0.249103078948811
40
0.498160925944194
40
0.498160925944194
40
0.745586162481385
40
0.745586162481385
40
1
40
1
40
1
40
1
41
1
10
9.50128310925572
20
0.441008302396
30
0
41
1
10
9.51034271342061
20
0.425398810200562
30
0
41
1
10
9.51966821518772
20
0.409816730177994
30
0
41
1
10
9.53845166573302
20
0.379357563042987
30
0
41
1
10
9.54797470111481
20
0.36437464324797
30
0
41
1
10
9.56683342276011
20
0.335597638962696
30
0
41
1
10
9.57623318179543
20
0.321699840891284
30
0
41
1
10
9.59491917432558
20
0.294973898844859
30
0
41
1
10
9.60426077536312
20
0.282092554640769
30
0
41
1
10
9.61327257783557
20
0.270155846320421
30
0
0
SPLINE
5
29E
100
AcDbEntity
8
1
62
256
6
ByLayer
370
-1
48
1
60
0
100
AcDbSpline
70
4
71
3
72
10
73
6
40
0
40
0
40
0
40
0
40
0.736240194588492
40
0.736240194588492
40
1
40
1
40
1
40
1
41
1
10
11.8982333143467
20
-2.39514938153485
30
0
41
1
10
11.9061222665543
20
-2.41028525465575
30
0
41
1
10
11.912128715719
20
-2.42968084863469
30
0
41
1
10
11.9136564168049
20
-2.46133474742987
30
0
41
1
10
11.9134031458951
20
-2.47035315911435
30
0
41
1
10
11.9122701795565
20
-2.47975659995282
30
0
0
LINE
5
49
100
AcDbEntity
8
1
62
256
6
ByLayer
370
-1
48
1
60
0
100
AcDbLine
10
6.730307
20
7.421338
30
0
11
6.041579
21
7.35882
31
0
39
0
210
0
220
0
230
1
0
LINE
5
4B
100
AcDbEntity
8
1
62
256
6
ByLayer
370
-1
48
1
60
0
100
AcDbLine
10
10.406229
20
8.062463
30
0
11
9.650953
21
7.993905
31
0
39
0
210
0
220
0
230
1
0
LINE
5
4C
100
AcDbEntity
8
1
62
256
6
ByLayer
370
-1
48
1
60
0
100
AcDbLine
10
8.475209
20
7.616334
30
0
11
7.808732
21
7.555836
31
0
39
0
210
0
220
0
230
1
0
LINE
5
4D
100
AcDbEntity
8
1
62
256
6
ByLayer
370
-1
48
1
60
0
100
AcDbLine
10
12.527369
20
-4.655272
30
0
11
13.215552
21
-4.592804
31
0
39
0
210
0
220
0
230
1
0
LINE
5
4E
100
AcDbEntity
8
1
62
256
6
ByLayer
370
-1
48
1
60
0
100
AcDbLine
10
11.962588
20
-3.494088
30
0
11
12.62871
21
-3.433622
31
0
39
0
210
0
220
0
230
1
0
LINE
5
4F
100
AcDbEntity
8
1
62
256
6
ByLayer
370
-1
48
1
60
0
100
AcDbLine
10
5.772891
20
8.125017
30
0
11
5.7729
21
8.141182
31
0
39
0
210
0
220
0
230
1
0
LINE
5
50
100
AcDbEntity
8
1
62
256
6
ByLayer
370
-1
48
1
60
0
100
AcDbLine
10
13.086055
20
6.022219
30
0
11
12.871004
21
6.000931
31
0
39
0
210
0
220
0
230
1
0
LINE
5
51
100
AcDbEntity
8
1
62
256
6
ByLayer
370
-1
48
1
60
0
100
AcDbLine
10
13.407889
20
0.57744
30
0
11
13.62294
21
0.598728
31
0
39
0
210
0
220
0
230
1
0
LINE
5
52
100
AcDbEntity
8
1
62
256
6
ByLayer
370
-1
48
1
60
0
100
AcDbLine
10
12.387923
20
2.281523
30
0
11
12.140769
21
2.257057
31
0
39
0
210
0
220
0
230
1
0
LINE
5
53
100
AcDbEntity
8
1
62
256
6
ByLayer
370
-1
48
1
60
0
100
AcDbLine
10
12.199327
20
4.312333
30
0
11
12.441987
21
4.336354
31
0
39
0
210
0
220
0
230
1
0
LINE
5
54
100
AcDbEntity
8
1
62
256
6
ByLayer
370
-1
48
1
60
0
100
AcDbLine
10
14.227084
20
2.280641
30
0
11
13.984073
21
2.256585
31
0
39
0
210
0
220
0
230
1
0
LINE
5
55
100
AcDbEntity
8
1
62
256
6
ByLayer
370
-1
48
1
60
0
100
AcDbLine
10
14.042631
20
4.311861
30
0
11
14.289683
21
4.336317
31
0
39
0
210
0
220
0
230
1
0
LINE
5
56
100
AcDbEntity
8
80
62
256
6
ByLayer
370
-1
48
1
60
0
100
AcDbLine
10
0
20
0
30
0
11
-5
21
0
31
0
39
0
210
0
220
0
230
1
0
LINE
5
57
100
AcDbEntity
8
81
62
256
6
ByLayer
370
-1
48
1
60
0
100
AcDbLine
10
21.36516
20
8.0625
30
0
11
26.36516
21
8.0625
31
0
39
0
210
0
220
0
230
1
0
LINE
5
58
100
AcDbEntity
8
1
62
256
6
ByLayer
370
-1
48
1
60
0
100
AcDbLine
10
1.367322
20
-10.22704
30
0
11
14.307594
21
-10.22704
31
0
39
0
210
0
220
0
230
1
0
LINE
5
59
100
AcDbEntity
8
1
62
256
6
ByLayer
370
-1
48
1
60
0
100
AcDbLine
10
11.204985
20
-3.322106
30
0
11
11.232005
21
-3.292592
31
0
39
0
210
0
220
0
230
1
0
LINE
5
5A
100
AcDbEntity
8
1
62
256
6
ByLayer
370
-1
48
1
60
0
100
AcDbLine
10
5.062246
20
7.500341
30
0
11
1.288151
21
7.500341
31
0
39
0
210
0
220
0
230
1
0
LINE
5
5B
100
AcDbEntity
8
1
62
256
6
ByLayer
370
-1
48
1
60
0
100
AcDbLine
10
13.520928
20
-5.666173
30
0
11
14.571622
21
-3.808766
31
0
39
0
210
0
220
0
230
1
0
LINE
5
5C
100
AcDbEntity
8
1
62
256
6
ByLayer
370
-1
48
1
60
0
100
AcDbLine
10
0.5
20
7.448194
30
0
11
1.288151
21
7.500341
31
0
39
0
210
0
220
0
230
1
0
LINE
5
5D
100
AcDbEntity
8
1
62
256
6
ByLayer
370
-1
48
1
60
0
100
AcDbLine
10
16.004842
20
-1.529719
30
0
11
16.336599
21
-1.529719
31
0
39
0
210
0
220
0
230
1
0
LINE
5
5E
100
AcDbEntity
8
1
62
256
6
ByLayer
370
-1
48
1
60
0
100
AcDbLine
10
14.464627
20
-4.912624
30
0
11
16.392319
21
-1.50487
31
0
39
0
210
0
220
0
230
1
0
LINE
5
5F
100
AcDbEntity
8
1
62
256
6
ByLayer
370
-1
48
1
60
0
100
AcDbLine
10
11.583272
20
-3.372968
30
0
11
11.578348
21
-3.372945
31
0
39
0
210
0
220
0
230
1
0
LINE
5
60
100
AcDbEntity
8
1
62
256
6
ByLayer
370
-1
48
1
60
0
100
AcDbLine
10
17.852107
20
-1.50487
30
0
11
17.871997
21
-8.168301
31
0
39
0
210
0
220
0
230
1
0
LINE
5
61
100
AcDbEntity
8
1
62
256
6
ByLayer
370
-1
48
1
60
0
100
AcDbLine
10
15.892801
20
-1.727732
30
0
11
16.392319
21
-1.50487
31
0
39
0
210
0
220
0
230
1
0
LINE
5
62
100
AcDbEntity
8
1
62
256
6
ByLayer
370
-1
48
1
60
0
100
AcDbLine
10
11.232005
20
-3.292592
30
0
11
11.233762
21
-3.100779
31
0
39
0
210
0
220
0
230
1
0
LINE
5
63
100
AcDbEntity
8
1
62
256
6
ByLayer
370
-1
48
1
60
0
100
AcDbLine
10
1.288151
20
7.500341
30
0
11
1.367322
21
-10.22704
31
0
39
0
210
0
220
0
230
1
0
LINE
5
64
100
AcDbEntity
8
1
62
256
6
ByLayer
370
-1
48
1
60
0
100
AcDbLine
10
16.607734
20
-1.504858
30
0
11
16.607211
21
-1.329729
31
0
39
0
210
0
220
0
230
1
0
LINE
5
65
100
AcDbEntity
8
1
62
256
6
ByLayer
370
-1
48
1
60
0
100
AcDbLine
10
0
20
-7.9375
30
0
11
0
21
7.438237
31
0
39
0
210
0
220
0
230
1
0
LINE
5
66
100
AcDbEntity
8
1
62
256
6
ByLayer
370
-1
48
1
60
0
100
AcDbLine
10
0
20
-7.9375
30
0
11
0.5
21
-8.439686
31
0
39
0
210
0
220
0
230
1
0
LINE
5
67
100
AcDbEntity
8
1
62
256
6
ByLayer
370
-1
48
1
60
0
100
AcDbLine
10
5.062246
20
7.500341
30
0
11
5.181327
21
7.486916
31
0
39
0
210
0
220
0
230
1
0
LINE
5
68
100
AcDbEntity
8
1
62
256
6
ByLayer
370
-1
48
1
60
0
100
AcDbLine
10
11.232005
20
-3.292592
30
0
11
5.062246
21
7.500341
31
0
39
0
210
0
220
0
230
1
0
LINE
5
69
100
AcDbEntity
8
1
62
256
6
ByLayer
370
-1
48
1
60
0
100
AcDbLine
10
1.367322
20
-10.22704
30
0
11
0.976835
21
-10.22704
31
0
39
0
210
0
220
0
230
1
0
LINE
5
6A
100
AcDbEntity
8
1
62
256
6
ByLayer
370
-1
48
1
60
0
100
AcDbLine
10
0.5
20
-8.439686
30
0
11
0.976835
21
-10.22704
31
0
39
0
210
0
220
0
230
1
0
LINE
5
6B
100
AcDbEntity
8
1
62
256
6
ByLayer
370
-1
48
1
60
0
100
AcDbLine
10
16.392319
20
-1.50487
30
0
11
17.852107
21
-1.50487
31
0
39
0
210
0
220
0
230
1
0
LINE
5
6C
100
AcDbEntity
8
1
62
256
6
ByLayer
370
-1
48
1
60
0
100
AcDbLine
10
0.5
20
7.448194
30
0
11
0
21
7.438237
31
0
39
0
210
0
220
0
230
1
0
LINE
5
6D
100
AcDbEntity
8
1
62
256
6
ByLayer
370
-1
48
1
60
0
100
AcDbLine
10
0.5
20
7.448194
30
0
11
0.5
21
-8.439686
31
0
39
0
210
0
220
0
230
1
0
LINE
5
6E
100
AcDbEntity
8
1
62
256
6
ByLayer
370
-1
48
1
60
0
100
AcDbLine
10
14.307594
20
-10.22704
30
0
11
17.871997
21
-8.168301
31
0
39
0
210
0
220
0
230
1
0
LINE
5
6F
100
AcDbEntity
8
1
62
256
6
ByLayer
370
-1
48
1
60
0
100
AcDbLine
10
6.647943
20
4.921324
30
0
11
5.181327
21
7.486916
31
0
39
0
210
0
220
0
230
1
0
LINE
5
70
100
AcDbEntity
8
1
62
256
6
ByLayer
370
-1
48
1
60
0
100
AcDbLine
10
7.052634
20
4.309169
30
0
11
9.762306
21
-0.430936
31
0
39
0
210
0
220
0
230
1
0
LINE
5
71
100
AcDbEntity
8
1
62
256
6
ByLayer
370
-1
48
1
60
0
100
AcDbLine
10
10.112863
20
-1.139958
30
0
11
11.233762
21
-3.100779
31
0
39
0
210
0
220
0
230
1
0
LINE
5
72
100
AcDbEntity
8
1
62
256
6
ByLayer
370
-1
48
1
60
0
100
AcDbLine
10
10.402205
20
-1.646126
30
0
11
10.717934
21
-1.617467
31
0
39
0
210
0
220
0
230
1
0
LINE
5
73
100
AcDbEntity
8
1
62
256
6
ByLayer
370
-1
48
1
60
0
100
AcDbLine
10
6.50429
20
5.548507
30
0
11
6.300009
21
5.529963
31
0
39
0
210
0
220
0
230
1
0
LINE
5
74
100
AcDbEntity
8
1
62
256
6
ByLayer
370
-1
48
1
60
0
100
AcDbLine
10
5.83843
20
6.337442
30
0
11
5.841525
21
7.148539
31
0
39
0
210
0
220
0
230
1
0
LINE
5
75
100
AcDbEntity
8
1
62
256
6
ByLayer
370
-1
48
1
60
0
100
AcDbLine
10
6.243636
20
5.628585
30
0
11
6.480726
21
5.650106
31
0
39
0
210
0
220
0
230
1
0
LINE
5
76
100
AcDbEntity
8
1
62
256
6
ByLayer
370
-1
48
1
60
0
100
AcDbLine
10
9.123832
20
7.361363
30
0
11
8.995448
21
7.349709
31
0
39
0
210
0
220
0
230
1
0
LINE
5
77
100
AcDbEntity
8
1
62
256
6
ByLayer
370
-1
48
1
60
0
100
AcDbLine
10
8.743937
20
7.482858
30
0
11
9.570079
21
7.967907
31
0
39
0
210
0
220
0
230
1
0
LINE
5
78
100
AcDbEntity
8
1
62
256
6
ByLayer
370
-1
48
1
60
0
100
AcDbLine
10
10.790228
20
-1.690663
30
0
11
10.44555
21
-1.72195
31
0
39
0
210
0
220
0
230
1
0
LINE
5
79
100
AcDbEntity
8
1
62
256
6
ByLayer
370
-1
48
1
60
0
100
AcDbLine
10
11.179008
20
-2.428774
30
0
11
10.683989
21
-2.139067
31
0
39
0
210
0
220
0
230
1
0
LINE
5
7A
100
AcDbEntity
8
1
62
256
6
ByLayer
370
-1
48
1
60
0
100
AcDbLine
10
7.664839
20
6.979738
30
0
11
7.558924
21
6.970124
31
0
39
0
210
0
220
0
230
1
0
LINE
5
7B
100
AcDbEntity
8
1
62
256
6
ByLayer
370
-1
48
1
60
0
100
AcDbLine
10
7.714051
20
7.008632
30
0
11
7.520193
21
6.991035
31
0
39
0
210
0
220
0
230
1
0
LINE
5
7C
100
AcDbEntity
8
1
62
256
6
ByLayer
370
-1
48
1
60
0
100
AcDbLine
10
7.183052
20
7.202449
30
0
11
7.174986
21
7.197295
31
0
39
0
210
0
220
0
230
1
0
LINE
5
7D
100
AcDbEntity
8
1
62
256
6
ByLayer
370
-1
48
1
60
0
100
AcDbLine
10
7.785058
20
7.162521
30
0
11
7.305978
21
7.119034
31
0
39
0
210
0
220
0
230
1
0
LINE
5
7E
100
AcDbEntity
8
1
62
256
6
ByLayer
370
-1
48
1
60
0
100
AcDbLine
10
7.778892
20
7.109091
30
0
11
7.382789
21
7.073136
31
0
39
0
210
0
220
0
230
1
0
LINE
5
7F
100
AcDbEntity
8
1
62
256
6
ByLayer
370
-1
48
1
60
0
100
AcDbLine
10
12.831783
20
-3.406061
30
0
11
12.673888
21
-3.420394
31
0
39
0
210
0
220
0
230
1
0
LINE
5
80
100
AcDbEntity
8
1
62
256
6
ByLayer
370
-1
48
1
60
0
100
AcDbLine
10
12.218991
20
-3.495062
30
0
11
12.183122
21
-3.474069
31
0
39
0
210
0
220
0
230
1
0
LINE
5
81
100
AcDbEntity
8
1
62
256
6
ByLayer
370
-1
48
1
60
0
100
AcDbLine
10
11.07861
20
-3.575185
30
0
11
11.514998
21
-4.339992
31
0
39
0
210
0
220
0
230
1
0
LINE
5
82
100
AcDbEntity
8
1
62
256
6
ByLayer
370
-1
48
1
60
0
100
AcDbLine
10
17.369181
20
-0.21117
30
0
11
16.750945
21
-0.21117
31
0
39
0
210
0
220
0
230
1
0
LINE
5
83
100
AcDbEntity
8
1
62
256
6
ByLayer
370
-1
48
1
60
0
100
AcDbLine
10
17.368533
20
0.086282
30
0
11
16.919364
21
0.086282
31
0
39
0
210
0
220
0
230
1
0
LINE
5
84
100
AcDbEntity
8
1
62
256
6
ByLayer
370
-1
48
1
60
0
100
AcDbLine
10
17.3555
20
-0.396492
30
0
11
16.646137
21
-0.396492
31
0
39
0
210
0
220
0
230
1
0
LINE
5
85
100
AcDbEntity
8
1
62
256
6
ByLayer
370
-1
48
1
60
0
100
AcDbLine
10
17.298774
20
-0.640146
30
0
11
16.508178
21
-0.640146
31
0
39
0
210
0
220
0
230
1
0
LINE
5
86
100
AcDbEntity
8
1
62
256
6
ByLayer
370
-1
48
1
60
0
100
AcDbLine
10
17.281638
20
-0.746181
30
0
11
16.448267
21
-0.746181
31
0
39
0
210
0
220
0
230
1
0
LINE
5
87
100
AcDbEntity
8
1
62
256
6
ByLayer
370
-1
48
1
60
0
100
AcDbLine
10
16.169007
20
-1.239635
30
0
11
16.807675
21
-1.239635
31
0
39
0
210
0
220
0
230
1
0
LINE
5
88
100
AcDbEntity
8
1
62
256
6
ByLayer
370
-1
48
1
60
0
100
AcDbLine
10
11.514998
20
-4.339992
30
0
11
12.290136
21
-4.339992
31
0
39
0
210
0
220
0
230
1
0
LINE
5
89
100
AcDbEntity
8
1
62
256
6
ByLayer
370
-1
48
1
60
0
100
AcDbLine
10
17.172259
20
-1.07529
30
0
11
16.26198
21
-1.07529
31
0
39
0
210
0
220
0
230
1
0
LINE
5
8A
100
AcDbEntity
8
1
62
256
6
ByLayer
370
-1
48
1
60
0
100
AcDbLine
10
17.228704
20
-0.971762
30
0
11
16.320587
21
-0.971762
31
0
39
0
210
0
220
0
230
1
0
LINE
5
8B
100
AcDbEntity
8
1
62
256
6
ByLayer
370
-1
48
1
60
0
100
AcDbLine
10
17.35405
20
0.26957
30
0
11
17.023082
21
0.26957
31
0
39
0
210
0
220
0
230
1
0
LINE
5
8C
100
AcDbEntity
8
1
62
256
6
ByLayer
370
-1
48
1
60
0
100
AcDbLine
10
12.300273
20
-4.503536
30
0
11
10.98969
21
-4.503536
31
0
39
0
210
0
220
0
230
1
0
LINE
5
8D
100
AcDbEntity
8
1
62
256
6
ByLayer
370
-1
48
1
60
0
100
AcDbLine
10
17.296281
20
0.50496
30
0
11
17.148553
21
0.50496
31
0
39
0
210
0
220
0
230
1
0
LINE
5
8E
100
AcDbEntity
8
1
62
256
6
ByLayer
370
-1
48
1
60
0
100
AcDbLine
10
17.27869
20
0.608488
30
0
11
17.191764
21
0.608488
31
0
39
0
210
0
220
0
230
1
0
LINE
5
8F
100
AcDbEntity
8
1
62
256
6
ByLayer
370
-1
48
1
60
0
100
AcDbLine
10
16.302695
20
-1.403994
30
0
11
16.075997
21
-1.403994
31
0
39
0
210
0
220
0
230
1
0
LINE
5
90
100
AcDbEntity
8
1
62
256
6
ByLayer
370
-1
48
1
60
0
100
AcDbLine
10
17.27869
20
0.608488
30
0
11
17.27829
21
0.79227
31
0
39
0
210
0
220
0
230
1
0
LINE
5
91
100
AcDbEntity
8
1
62
256
6
ByLayer
370
-1
48
1
60
0
100
AcDbLine
10
12.193266
20
2.22356
30
0
11
12.291093
21
2.233244
31
0
39
0
210
0
220
0
230
1
0
LINE
5
92
100
AcDbEntity
8
1
62
256
6
ByLayer
370
-1
48
1
60
0
100
AcDbLine
10
12.129198
20
4.3714
30
0
11
12.284664
21
4.38679
31
0
39
0
210
0
220
0
230
1
0
LINE
5
93
100
AcDbEntity
8
1
62
256
6
ByLayer
370
-1
48
1
60
0
100
AcDbLine
10
12.171157
20
2.233475
30
0
11
12.304025
21
2.246628
31
0
39
0
210
0
220
0
230
1
0
LINE
5
94
100
AcDbEntity
8
1
62
256
6
ByLayer
370
-1
48
1
60
0
100
AcDbLine
10
12.103993
20
4.353828
30
0
11
12.297678
21
4.373001
31
0
39
0
210
0
220
0
230
1
0
LINE
5
95
100
AcDbEntity
8
1
62
256
6
ByLayer
370
-1
48
1
60
0
100
AcDbLine
10
6.406239
20
8.119505
30
0
11
6.406268
21
8.172888
31
0
39
0
210
0
220
0
230
1
0
LINE
5
96
100
AcDbEntity
8
1
62
256
6
ByLayer
370
-1
48
1
60
0
100
AcDbLine
10
5.249936
20
8.144739
30
0
11
5.249943
21
8.157534
31
0
39
0
210
0
220
0
230
1
0
LINE
5
97
100
AcDbEntity
8
1
62
256
6
ByLayer
370
-1
48
1
60
0
100
AcDbLine
10
7.029918
20
8.129904
30
0
11
7.029942
21
8.173275
31
0
39
0
210
0
220
0
230
1
0
LINE
5
98
100
AcDbEntity
8
1
62
256
6
ByLayer
370
-1
48
1
60
0
100
AcDbLine
10
5.267348
20
8.143721
30
0
11
5.267349
21
8.145217
31
0
39
0
210
0
220
0
230
1
0
LINE
5
99
100
AcDbEntity
8
1
62
256
6
ByLayer
370
-1
48
1
60
0
100
AcDbLine
10
7.01719
20
8.129512
30
0
11
7.017207
21
8.160692
31
0
39
0
210
0
220
0
230
1
0
LINE
5
9A
100
AcDbEntity
8
1
62
256
6
ByLayer
370
-1
48
1
60
0
100
AcDbLine
10
14.520925
20
3.673435
30
0
11
14.777064
21
3.69879
31
0
39
0
210
0
220
0
230
1
0
LINE
5
9B
100
AcDbEntity
8
1
62
256
6
ByLayer
370
-1
48
1
60
0
100
AcDbLine
10
13.474785
20
4.756618
30
0
11
13.470764
21
4.736621
31
0
39
0
210
0
220
0
230
1
0
LINE
5
9C
100
AcDbEntity
8
1
62
256
6
ByLayer
370
-1
48
1
60
0
100
AcDbLine
10
14.542364
20
2.889072
30
0
11
14.800547
21
2.91463
31
0
39
0
210
0
220
0
230
1
0
LINE
5
9D
100
AcDbEntity
8
1
62
256
6
ByLayer
370
-1
48
1
60
0
100
AcDbLine
10
14.523247
20
2.895483
30
0
11
14.779386
21
2.920839
31
0
39
0
210
0
220
0
230
1
0
LINE
5
9E
100
AcDbEntity
8
1
62
256
6
ByLayer
370
-1
48
1
60
0
100
AcDbLine
10
14.540003
20
3.679845
30
0
11
14.798186
21
3.705403
31
0
39
0
210
0
220
0
230
1
0
LINE
5
9F
100
AcDbEntity
8
1
62
256
6
ByLayer
370
-1
48
1
60
0
100
AcDbLine
10
14.540003
20
3.679845
30
0
11
14.520925
21
3.673435
31
0
39
0
210
0
220
0
230
1
0
LINE
5
A0
100
AcDbEntity
8
1
62
256
6
ByLayer
370
-1
48
1
60
0
100
AcDbLine
10
13.474785
20
4.756618
30
0
11
13.732968
21
4.782176
31
0
39
0
210
0
220
0
230
1
0
LINE
5
A1
100
AcDbEntity
8
1
62
256
6
ByLayer
370
-1
48
1
60
0
100
AcDbLine
10
7.849898
20
7.26298
30
0
11
8.42301
21
7.599469
31
0
39
0
210
0
220
0
230
1
0
LINE
5
A2
100
AcDbEntity
8
1
62
256
6
ByLayer
370
-1
48
1
60
0
100
AcDbLine
10
9.088531
20
1.174274
30
0
11
9.926739
21
1.413227
31
0
39
0
210
0
220
0
230
1
0
LINE
5
A3
100
AcDbEntity
8
1
62
256
6
ByLayer
370
-1
48
1
60
0
100
AcDbLine
10
6.588976
20
6.02455
30
0
11
6.621498
21
7.102903
31
0
39
0
210
0
220
0
230
1
0
LINE
5
A4
100
AcDbEntity
8
1
62
256
6
ByLayer
370
-1
48
1
60
0
100
AcDbLine
10
19.796226
20
7.209459
30
0
11
19.701095
21
7.153655
31
0
39
0
210
0
220
0
230
1
0
LINE
5
A5
100
AcDbEntity
8
1
62
256
6
ByLayer
370
-1
48
1
60
0
100
AcDbLine
10
12.291094
20
-4.444991
30
0
11
12.283306
21
-3.606766
31
0
39
0
210
0
220
0
230
1
0
LINE
5
A6
100
AcDbEntity
8
1
62
256
6
ByLayer
370
-1
48
1
60
0
100
AcDbLine
10
6.952662
20
5.770705
30
0
11
7.360343
21
5.767316
31
0
39
0
210
0
220
0
230
1
0
LINE
5
A7
100
AcDbEntity
8
1
62
256
6
ByLayer
370
-1
48
1
60
0
100
AcDbLine
10
19.143979
20
6.333907
30
0
11
19.144137
21
6.276119
31
0
39
0
210
0
220
0
230
1
0
LINE
5
A8
100
AcDbEntity
8
1
62
256
6
ByLayer
370
-1
48
1
60
0
100
AcDbLine
10
17.710169
20
7.329364
30
0
11
17.264084
21
8.050964
31
0
39
0
210
0
220
0
230
1
0
LINE
5
A9
100
AcDbEntity
8
1
62
256
6
ByLayer
370
-1
48
1
60
0
100
AcDbLine
10
17.867057
20
1.760896
30
0
11
18.827614
21
3.458256
31
0
39
0
210
0
220
0
230
1
0
LINE
5
AA
100
AcDbEntity
8
1
62
256
6
ByLayer
370
-1
48
1
60
0
100
AcDbLine
10
14.523247
20
2.895483
30
0
11
14.542364
21
2.889072
31
0
39
0
210
0
220
0
230
1
0
LINE
5
AB
100
AcDbEntity
8
1
62
256
6
ByLayer
370
-1
48
1
60
0
100
AcDbLine
10
13.470764
20
4.736621
30
0
11
13.726903
21
4.761977
31
0
39
0
210
0
220
0
230
1
0
LINE
5
AC
100
AcDbEntity
8
1
62
256
6
ByLayer
370
-1
48
1
60
0
100
AcDbLine
10
13.479433
20
1.832296
30
0
11
13.735572
21
1.857652
31
0
39
0
210
0
220
0
230
1
0
LINE
5
AD
100
AcDbEntity
8
1
62
256
6
ByLayer
370
-1
48
1
60
0
100
AcDbLine
10
13.483574
20
1.812299
30
0
11
13.741757
21
1.837857
31
0
39
0
210
0
220
0
230
1
0
LINE
5
AE
100
AcDbEntity
8
1
62
256
6
ByLayer
370
-1
48
1
60
0
100
AcDbLine
10
13.479433
20
1.832296
30
0
11
13.483574
21
1.812299
31
0
39
0
210
0
220
0
230
1
0
LINE
5
AF
100
AcDbEntity
8
1
62
256
6
ByLayer
370
-1
48
1
60
0
100
AcDbLine
10
16.302695
20
-1.403994
30
0
11
16.807675
21
-1.239635
31
0
39
0
210
0
220
0
230
1
0
LINE
5
B0
100
AcDbEntity
8
1
62
256
6
ByLayer
370
-1
48
1
60
0
100
AcDbLine
10
17.368533
20
0.086282
30
0
11
17.369181
21
-0.21117
31
0
39
0
210
0
220
0
230
1
0
LINE
5
B1
100
AcDbEntity
8
1
62
256
6
ByLayer
370
-1
48
1
60
0
100
AcDbLine
10
19.300146
20
6.033643
30
0
11
19.301988
21
5.360665
31
0
39
0
210
0
220
0
230
1
0
LINE
5
B2
100
AcDbEntity
8
1
62
256
6
ByLayer
370
-1
48
1
60
0
100
AcDbLine
10
13.36318
20
8.05933
30
0
11
12.730365
21
8.059765
31
0
39
0
210
0
220
0
230
1
0
LINE
5
B3
100
AcDbEntity
8
1
62
256
6
ByLayer
370
-1
48
1
60
0
100
AcDbLine
10
16.971753
20
8.053432
30
0
11
16.688041
21
8.0621
31
0
39
0
210
0
220
0
230
1
0
LINE
5
B4
100
AcDbEntity
8
1
62
256
6
ByLayer
370
-1
48
1
60
0
100
AcDbLine
10
11.873153
20
-2.365765
30
0
11
11.179008
21
-2.428774
31
0
39
0
210
0
220
0
230
1
0
LINE
5
B5
100
AcDbEntity
8
1
62
256
6
ByLayer
370
-1
48
1
60
0
100
AcDbLine
10
7.183052
20
7.202449
30
0
11
7.756164
21
7.538937
31
0
39
0
210
0
220
0
230
1
0
LINE
5
B6
100
AcDbEntity
8
1
62
256
6
ByLayer
370
-1
48
1
60
0
100
AcDbLine
10
14.400603
20
-2.439924
30
0
11
11.898233
21
-2.395149
31
0
39
0
210
0
220
0
230
1
0
LINE
5
B7
100
AcDbEntity
8
1
62
256
6
ByLayer
370
-1
48
1
60
0
100
AcDbLine
10
16.551012
20
8.063257
30
0
11
13.902222
21
8.063257
31
0
39
0
210
0
220
0
230
1
0
LINE
5
B8
100
AcDbEntity
8
1
62
256
6
ByLayer
370
-1
48
1
60
0
100
AcDbLine
10
9.017747
20
1.346531
30
0
11
9.926739
21
1.413227
31
0
39
0
210
0
220
0
230
1
0
LINE
5
B9
100
AcDbEntity
8
1
62
256
6
ByLayer
370
-1
48
1
60
0
100
AcDbLine
10
11.903896
20
-2.721486
30
0
11
14.357232
21
-2.765384
31
0
39
0
210
0
220
0
230
1
0
LINE
5
BA
100
AcDbEntity
8
1
62
256
6
ByLayer
370
-1
48
1
60
0
100
AcDbLine
10
17.765737
20
7.329441
30
0
11
17.763762
21
8.051041
31
0
39
0
210
0
220
0
230
1
0
LINE
5
BB
100
AcDbEntity
8
1
62
256
6
ByLayer
370
-1
48
1
60
0
100
AcDbLine
10
8.754255
20
7.476679
30
0
11
7.442587
21
5.30334
31
0
39
0
210
0
220
0
230
1
0
LINE
5
BC
100
AcDbEntity
8
1
62
256
6
ByLayer
370
-1
48
1
60
0
100
AcDbLine
10
17.622251
20
1.392797
30
0
11
16.776934
21
2.260068
31
0
39
0
210
0
220
0
230
1
0
LINE
5
BD
100
AcDbEntity
8
1
62
256
6
ByLayer
370
-1
48
1
60
0
100
AcDbLine
10
13.271974
20
-3.217533
30
0
11
13.297586
21
-3.933114
31
0
39
0
210
0
220
0
230
1
0
LINE
5
BE
100
AcDbEntity
8
1
62
256
6
ByLayer
370
-1
48
1
60
0
100
AcDbLine
10
11.912742
20
-2.968643
30
0
11
11.903896
21
-2.721486
31
0
39
0
210
0
220
0
230
1
0
LINE
5
BF
100
AcDbEntity
8
1
62
256
6
ByLayer
370
-1
48
1
60
0
100
AcDbLine
10
12.881153
20
-3.434955
30
0
11
12.831783
21
-3.406061
31
0
39
0
210
0
220
0
230
1
0
LINE
5
C0
100
AcDbEntity
8
1
62
256
6
ByLayer
370
-1
48
1
60
0
100
AcDbLine
10
9.748086
20
0.079893
30
0
11
10.717934
21
-1.617467
31
0
39
0
210
0
220
0
230
1
0
LINE
5
C1
100
AcDbEntity
8
1
62
256
6
ByLayer
370
-1
48
1
60
0
100
AcDbLine
10
7.265568
20
4.225368
30
0
11
7.551567
21
3.900616
31
0
39
0
210
0
220
0
230
1
0
LINE
5
C2
100
AcDbEntity
8
1
62
256
6
ByLayer
370
-1
48
1
60
0
100
AcDbLine
10
12.469702
20
6.831413
30
0
11
13.070412
21
6.679453
31
0
39
0
210
0
220
0
230
1
0
LINE
5
C3
100
AcDbEntity
8
1
62
256
6
ByLayer
370
-1
48
1
60
0
100
AcDbLine
10
7.736039
20
5.128454
30
0
11
9.073923
21
7.34523
31
0
39
0
210
0
220
0
230
1
0
LINE
5
C4
100
AcDbEntity
8
1
62
256
6
ByLayer
370
-1
48
1
60
0
100
AcDbLine
10
11.247863
20
-3.028996
30
0
11
11.243324
21
-2.540479
31
0
39
0
210
0
220
0
230
1
0
LINE
5
C5
100
AcDbEntity
8
1
62
256
6
ByLayer
370
-1
48
1
60
0
100
AcDbLine
10
19.797062
20
6.903983
30
0
11
18.856053
21
6.357317
31
0
39
0
210
0
220
0
230
1
0
LINE
5
C6
100
AcDbEntity
8
1
62
256
6
ByLayer
370
-1
48
1
60
0
100
AcDbLine
10
19.341626
20
7.151656
30
0
11
18.712197
21
7.51272
31
0
39
0
210
0
220
0
230
1
0
LINE
5
C7
100
AcDbEntity
8
1
62
256
6
ByLayer
370
-1
48
1
60
0
100
AcDbLine
10
14.357232
20
-2.765384
30
0
11
14.973726
21
-3.126184
31
0
39
0
210
0
220
0
230
1
0
LINE
5
C8
100
AcDbEntity
8
1
62
256
6
ByLayer
370
-1
48
1
60
0
100
AcDbLine
10
13.331459
20
-4.428298
30
0
11
13.318695
21
-4.325555
31
0
39
0
210
0
220
0
230
1
0
LINE
5
C9
100
AcDbEntity
8
1
62
256
6
ByLayer
370
-1
48
1
60
0
100
AcDbLine
10
11.912742
20
-2.968643
30
0
11
11.247863
21
-3.028996
31
0
39
0
210
0
220
0
230
1
0
LINE
5
CA
100
AcDbEntity
8
1
62
256
6
ByLayer
370
-1
48
1
60
0
100
AcDbLine
10
9.438085
20
7.521854
30
0
11
7.551567
21
3.900616
31
0
39
0
210
0
220
0
230
1
0
LINE
5
CB
100
AcDbEntity
8
1
62
256
6
ByLayer
370
-1
48
1
60
0
100
AcDbLine
10
13.079339
20
-4.554274
30
0
11
12.390041
21
-4.616844
31
0
39
0
210
0
220
0
230
1
0
LINE
5
CC
100
AcDbEntity
8
1
62
256
6
ByLayer
370
-1
48
1
60
0
100
AcDbLine
10
17.867057
20
1.760896
30
0
11
17.37888
21
2.071666
31
0
39
0
210
0
220
0
230
1
0
LINE
5
CD
100
AcDbEntity
8
1
62
256
6
ByLayer
370
-1
48
1
60
0
100
AcDbLine
10
17.321692
20
1.988426
30
0
11
17.812906
21
1.675723
31
0
39
0
210
0
220
0
230
1
0
LINE
5
CE
100
AcDbEntity
8
1
62
256
6
ByLayer
370
-1
48
1
60
0
100
AcDbLine
10
13.569615
20
8.060302
30
0
11
13.393671
21
7.229925
31
0
39
0
210
0
220
0
230
1
0
LINE
5
CF
100
AcDbEntity
8
1
62
256
6
ByLayer
370
-1
48
1
60
0
100
AcDbLine
10
19.285461
20
7.053459
30
0
11
18.658018
21
6.688955
31
0
39
0
210
0
220
0
230
1
0
LINE
5
D0
100
AcDbEntity
8
1
62
256
6
ByLayer
370
-1
48
1
60
0
100
AcDbLine
10
17.264084
20
8.050964
30
0
11
17.708194
21
8.050964
31
0
39
0
210
0
220
0
230
1
0
LINE
5
D1
100
AcDbEntity
8
1
62
256
6
ByLayer
370
-1
48
1
60
0
100
AcDbLine
10
13.100579
20
-4.566705
30
0
11
13.079339
21
-4.554274
31
0
39
0
210
0
220
0
230
1
0
LINE
5
D2
100
AcDbEntity
8
1
62
256
6
ByLayer
370
-1
48
1
60
0
100
AcDbLine
10
7.582095
20
5.897513
30
0
11
7.792312
21
6.263686
31
0
39
0
210
0
220
0
230
1
0
LINE
5
D3
100
AcDbEntity
8
1
62
256
6
ByLayer
370
-1
48
1
60
0
100
AcDbLine
10
8.42301
20
7.599469
30
0
11
7.756164
21
7.538937
31
0
39
0
210
0
220
0
230
1
0
LINE
5
D4
100
AcDbEntity
8
1
62
256
6
ByLayer
370
-1
48
1
60
0
100
AcDbLine
10
7.639563
20
3.770077
30
0
11
9.65808
21
7.644692
31
0
39
0
210
0
220
0
230
1
0
LINE
5
D5
100
AcDbEntity
8
1
62
256
6
ByLayer
370
-1
48
1
60
0
100
AcDbLine
10
11.887132
20
-3.477189
30
0
11
11.312178
21
-3.140701
31
0
39
0
210
0
220
0
230
1
0
LINE
5
D6
100
AcDbEntity
8
1
62
256
6
ByLayer
370
-1
48
1
60
0
100
AcDbLine
10
17.143656
20
0.493119
30
0
11
17.21351
21
0.660606
31
0
39
0
210
0
220
0
230
1
0
LINE
5
D7
100
AcDbEntity
8
1
62
256
6
ByLayer
370
-1
48
1
60
0
100
AcDbLine
10
19.701095
20
7.153655
30
0
11
19.341626
21
7.151656
31
0
39
0
210
0
220
0
230
1
0
LINE
5
D8
100
AcDbEntity
8
1
62
256
6
ByLayer
370
-1
48
1
60
0
100
AcDbLine
10
19.942134
20
6.872172
30
0
11
19.208915
21
6.44622
31
0
39
0
210
0
220
0
230
1
0
LINE
5
D9
100
AcDbEntity
8
1
62
256
6
ByLayer
370
-1
48
1
60
0
100
AcDbLine
10
10.74078
20
0.794437
30
0
11
10.568598
21
1.398241
31
0
39
0
210
0
220
0
230
1
0
LINE
5
DA
100
AcDbEntity
8
1
62
256
6
ByLayer
370
-1
48
1
60
0
100
AcDbLine
10
15.778736
20
-1.929288
30
0
11
17.096756
21
0.399729
31
0
39
0
210
0
220
0
230
1
0
LINE
5
DB
100
AcDbEntity
8
1
62
256
6
ByLayer
370
-1
48
1
60
0
100
AcDbLine
10
9.613273
20
0.270156
30
0
11
9.693471
21
0.163928
31
0
39
0
210
0
220
0
230
1
0
LINE
5
DC
100
AcDbEntity
8
1
62
256
6
ByLayer
370
-1
48
1
60
0
100
AcDbLine
10
9.925816
20
1.511168
30
0
11
8.970333
21
1.44106
31
0
39
0
210
0
220
0
230
1
0
LINE
5
DD
100
AcDbEntity
8
1
62
256
6
ByLayer
370
-1
48
1
60
0
100
AcDbLine
10
6.621498
20
7.102903
30
0
11
6.702985
21
7.053568
31
0
39
0
210
0
220
0
230
1
0
LINE
5
DE
100
AcDbEntity
8
1
62
256
6
ByLayer
370
-1
48
1
60
0
100
AcDbLine
10
13.48658
20
7.187901
30
0
11
13.902222
21
8.063257
31
0
39
0
210
0
220
0
230
1
0
LINE
5
DF
100
AcDbEntity
8
1
62
256
6
ByLayer
370
-1
48
1
60
0
100
AcDbLine
10
13.789089
20
8.062688
30
0
11
13.393671
21
7.229925
31
0
39
0
210
0
220
0
230
1
0
LINE
5
E0
100
AcDbEntity
8
1
62
256
6
ByLayer
370
-1
48
1
60
0
100
AcDbLine
10
17.708194
20
8.050964
30
0
11
17.710169
21
7.329364
31
0
39
0
210
0
220
0
230
1
0
LINE
5
E1
100
AcDbEntity
8
1
62
256
6
ByLayer
370
-1
48
1
60
0
100
AcDbLine
10
17.02523
20
1.113821
30
0
11
16.348406
21
1.808224
31
0
39
0
210
0
220
0
230
1
0
LINE
5
E2
100
AcDbEntity
8
1
62
256
6
ByLayer
370
-1
48
1
60
0
100
AcDbLine
10
9.571174
20
1.113821
30
0
11
10.543565
21
1.391027
31
0
39
0
210
0
220
0
230
1
0
LINE
5
E3
100
AcDbEntity
8
1
62
256
6
ByLayer
370
-1
48
1
60
0
100
AcDbLine
10
12.977366
20
-4.382696
30
0
11
12.947436
21
-3.546481
31
0
39
0
210
0
220
0
230
1
0
LINE
5
E4
100
AcDbEntity
8
1
62
256
6
ByLayer
370
-1
48
1
60
0
100
AcDbLine
10
6.480726
20
5.650106
30
0
11
6.527797
21
7.210833
31
0
39
0
210
0
220
0
230
1
0
LINE
5
E5
100
AcDbEntity
8
1
62
256
6
ByLayer
370
-1
48
1
60
0
100
AcDbLine
10
7.265568
20
4.225368
30
0
11
7.736039
21
5.128454
31
0
39
0
210
0
220
0
230
1
0
LINE
5
E6
100
AcDbEntity
8
1
62
256
6
ByLayer
370
-1
48
1
60
0
100
AcDbLine
10
17.300185
20
0.831725
30
0
11
17.02523
21
1.113821
31
0
39
0
210
0
220
0
230
1
0
LINE
5
E7
100
AcDbEntity
8
1
62
256
6
ByLayer
370
-1
48
1
60
0
100
AcDbLine
10
12.548303
20
8.061005
30
0
11
12.424175
21
7.475176
31
0
39
0
210
0
220
0
230
1
0
LINE
5
E8
100
AcDbEntity
8
1
62
256
6
ByLayer
370
-1
48
1
60
0
100
AcDbLine
10
13.100579
20
-4.566705
30
0
11
12.411282
21
-4.629275
31
0
39
0
210
0
220
0
230
1
0
LINE
5
E9
100
AcDbEntity
8
1
62
256
6
ByLayer
370
-1
48
1
60
0
100
AcDbLine
10
7.340405
20
6.035723
30
0
11
6.932724
21
6.039112
31
0
39
0
210
0
220
0
230
1
0
LINE
5
EA
100
AcDbEntity
8
1
62
256
6
ByLayer
370
-1
48
1
60
0
100
AcDbLine
10
12.553978
20
-3.416658
30
0
11
11.887132
21
-3.477189
31
0
39
0
210
0
220
0
230
1
0
LINE
5
EB
100
AcDbEntity
8
1
62
256
6
ByLayer
370
-1
48
1
60
0
100
AcDbLine
10
6.628829
20
7.382961
30
0
11
6.650002
21
7.395392
31
0
39
0
210
0
220
0
230
1
0
LINE
5
EC
100
AcDbEntity
8
1
62
256
6
ByLayer
370
-1
48
1
60
0
100
AcDbLine
10
6.95441
20
6.758133
30
0
11
7.550623
21
6.401896
31
0
39
0
210
0
220
0
230
1
0
LINE
5
ED
100
AcDbEntity
8
1
62
256
6
ByLayer
370
-1
48
1
60
0
100
AcDbLine
10
13.032067
20
-3.202366
30
0
11
13.271974
21
-3.217533
31
0
39
0
210
0
220
0
230
1
0
LINE
5
EE
100
AcDbEntity
8
1
62
256
6
ByLayer
370
-1
48
1
60
0
100
AcDbLine
10
6.850496
20
6.754861
30
0
11
6.828811
21
6.03584
31
0
39
0
210
0
220
0
230
1
0
LINE
5
EF
100
AcDbEntity
8
1
62
256
6
ByLayer
370
-1
48
1
60
0
100
AcDbLine
10
18.712197
20
7.51272
30
0
11
18.852238
21
7.750966
31
0
39
0
210
0
220
0
230
1
0
LINE
5
F0
100
AcDbEntity
8
1
62
256
6
ByLayer
370
-1
48
1
60
0
100
AcDbLine
10
18.222653
20
6.922216
30
0
11
18.439638
21
6.560023
31
0
39
0
210
0
220
0
230
1
0
LINE
5
F1
100
AcDbEntity
8
1
62
256
6
ByLayer
370
-1
48
1
60
0
100
AcDbLine
10
7.61317
20
6.496358
30
0
11
7.016956
21
6.852595
31
0
39
0
210
0
220
0
230
1
0
LINE
5
F2
100
AcDbEntity
8
1
62
256
6
ByLayer
370
-1
48
1
60
0
100
AcDbLine
10
19.020337
20
5.122455
30
0
11
17.765737
21
7.329441
31
0
39
0
210
0
220
0
230
1
0
LINE
5
F3
100
AcDbEntity
8
1
62
256
6
ByLayer
370
-1
48
1
60
0
100
AcDbLine
10
17.733298
20
1.566129
30
0
11
17.321692
21
1.988426
31
0
39
0
210
0
220
0
230
1
0
LINE
5
F4
100
AcDbEntity
8
1
62
256
6
ByLayer
370
-1
48
1
60
0
100
AcDbLine
10
18.788932
20
4.891801
30
0
11
18.83817
21
4.583995
31
0
39
0
210
0
220
0
230
1
0
LINE
5
F5
100
AcDbEntity
8
1
62
256
6
ByLayer
370
-1
48
1
60
0
100
AcDbLine
10
19.342161
20
6.956189
30
0
11
19.70163
21
6.958189
31
0
39
0
210
0
220
0
230
1
0
LINE
5
F6
100
AcDbEntity
8
1
62
256
6
ByLayer
370
-1
48
1
60
0
100
AcDbLine
10
15.221099
20
-2.687648
30
0
11
15.000112
21
-3.078144
31
0
39
0
210
0
220
0
230
1
0
LINE
5
F7
100
AcDbEntity
8
1
62
256
6
ByLayer
370
-1
48
1
60
0
100
AcDbLine
10
17.21351
20
0.660606
30
0
11
16.630082
21
1.259187
31
0
39
0
210
0
220
0
230
1
0
LINE
5
F8
100
AcDbEntity
8
1
62
256
6
ByLayer
370
-1
48
1
60
0
100
AcDbLine
10
6.881643
20
7.255641
30
0
11
7.775815
21
6.721375
31
0
39
0
210
0
220
0
230
1
0
LINE
5
F9
100
AcDbEntity
8
1
62
256
6
ByLayer
370
-1
48
1
60
0
100
AcDbLine
10
12.730365
20
8.059765
30
0
11
12.475443
21
6.856647
31
0
39
0
210
0
220
0
230
1
0
LINE
5
FA
100
AcDbEntity
8
1
62
256
6
ByLayer
370
-1
48
1
60
0
100
AcDbLine
10
20.041968
20
7.069823
30
0
11
20.042036
21
7.044961
31
0
39
0
210
0
220
0
230
1
0
LINE
5
FB
100
AcDbEntity
8
1
62
256
6
ByLayer
370
-1
48
1
60
0
100
AcDbLine
10
13.995793
20
-3.584515
30
0
11
13.40152
21
-3.937312
31
0
39
0
210
0
220
0
230
1
0
LINE
5
FC
100
AcDbEntity
8
1
62
256
6
ByLayer
370
-1
48
1
60
0
100
AcDbLine
10
19.237051
20
5.248352
30
0
11
19.020337
21
5.122455
31
0
39
0
210
0
220
0
230
1
0
LINE
5
FD
100
AcDbEntity
8
1
62
256
6
ByLayer
370
-1
48
1
60
0
100
AcDbLine
10
13.318695
20
-4.325555
30
0
11
13.464582
21
-4.030847
31
0
39
0
210
0
220
0
230
1
0
LINE
5
FE
100
AcDbEntity
8
1
62
256
6
ByLayer
370
-1
48
1
60
0
100
AcDbLine
10
6.527797
20
7.210833
30
0
11
5.841525
21
7.148539
31
0
39
0
210
0
220
0
230
1
0
LINE
5
FF
100
AcDbEntity
8
1
62
256
6
ByLayer
370
-1
48
1
60
0
100
AcDbLine
10
11.979024
20
-3.080169
30
0
11
11.312178
21
-3.140701
31
0
39
0
210
0
220
0
230
1
0
LINE
5
100
100
AcDbEntity
8
1
62
256
6
ByLayer
370
-1
48
1
60
0
100
AcDbLine
10
17.300185
20
0.831725
30
0
11
17.622251
21
1.392797
31
0
39
0
210
0
220
0
230
1
0
LINE
5
101
100
AcDbEntity
8
1
62
256
6
ByLayer
370
-1
48
1
60
0
100
AcDbLine
10
18.574864
20
8.025799
30
0
11
19.941121
21
7.242063
31
0
39
0
210
0
220
0
230
1
0
LINE
5
102
100
AcDbEntity
8
1
62
256
6
ByLayer
370
-1
48
1
60
0
100
AcDbLine
10
18.658018
20
6.688955
30
0
11
18.441033
21
7.051148
31
0
39
0
210
0
220
0
230
1
0
LINE
5
103
100
AcDbEntity
8
1
62
256
6
ByLayer
370
-1
48
1
60
0
100
AcDbLine
10
11.91227
20
-2.479757
30
0
11
11.243324
21
-2.540479
31
0
39
0
210
0
220
0
230
1
0
LINE
5
104
100
AcDbEntity
8
1
62
256
6
ByLayer
370
-1
48
1
60
0
100
AcDbLine
10
6.628829
20
7.382961
30
0
11
5.939531
21
7.320391
31
0
39
0
210
0
220
0
230
1
0
LINE
5
105
100
AcDbEntity
8
1
62
256
6
ByLayer
370
-1
48
1
60
0
100
AcDbLine
10
13.464582
20
-4.030847
30
0
11
14.058854
21
-3.67805
31
0
39
0
210
0
220
0
230
1
0
LINE
5
106
100
AcDbEntity
8
1
62
256
6
ByLayer
370
-1
48
1
60
0
100
AcDbLine
10
17.733298
20
1.566129
30
0
11
17.812906
21
1.675723
31
0
39
0
210
0
220
0
230
1
0
LINE
5
107
100
AcDbEntity
8
1
62
256
6
ByLayer
370
-1
48
1
60
0
100
AcDbLine
10
13.789089
20
8.062688
30
0
11
13.569615
21
8.060302
31
0
39
0
210
0
220
0
230
1
0
LINE
5
108
100
AcDbEntity
8
1
62
256
6
ByLayer
370
-1
48
1
60
0
100
AcDbLine
10
15.407287
20
-2.404229
30
0
11
15.69146
21
-2.062141
31
0
39
0
210
0
220
0
230
1
0
LINE
5
109
100
AcDbEntity
8
1
62
256
6
ByLayer
370
-1
48
1
60
0
100
AcDbLine
10
19.199939
20
6.170335
30
0
11
19.244344
21
6.139427
31
0
39
0
210
0
220
0
230
1
0
LINE
5
10A
100
AcDbEntity
8
1
62
256
6
ByLayer
370
-1
48
1
60
0
100
AcDbLine
10
18.472079
20
8.052979
30
0
11
17.763762
21
8.051041
31
0
39
0
210
0
220
0
230
1
0
LINE
5
10B
100
AcDbEntity
8
1
62
256
6
ByLayer
370
-1
48
1
60
0
100
AcDbLine
10
14.058854
20
-3.67805
30
0
11
14.22272
21
-3.89919
31
0
39
0
210
0
220
0
230
1
0
LINE
5
10C
100
AcDbEntity
8
1
62
256
6
ByLayer
370
-1
48
1
60
0
100
AcDbLine
10
19.70163
20
6.958189
30
0
11
19.797062
21
6.903983
31
0
39
0
210
0
220
0
230
1
0
LINE
5
10D
100
AcDbEntity
8
1
62
256
6
ByLayer
370
-1
48
1
60
0
100
AcDbLine
10
16.971753
20
8.053432
30
0
11
17.507965
21
7.186042
31
0
39
0
210
0
220
0
230
1
0
LINE
5
10E
100
AcDbEntity
8
1
62
256
6
ByLayer
370
-1
48
1
60
0
100
AcDbLine
10
13.36318
20
8.05933
30
0
11
13.280262
21
7.667994
31
0
39
0
210
0
220
0
230
1
0
LINE
5
10F
100
AcDbEntity
8
1
62
256
6
ByLayer
370
-1
48
1
60
0
100
AcDbLine
10
9.65808
20
7.644692
30
0
11
10.325354
21
8.036466
31
0
39
0
210
0
220
0
230
1
0
LINE
5
110
100
AcDbEntity
8
1
62
256
6
ByLayer
370
-1
48
1
60
0
100
AcDbLine
10
12.716161
20
-3.40028
30
0
11
12.6696
21
-3.422439
31
0
39
0
210
0
220
0
230
1
0
LINE
5
111
100
AcDbEntity
8
1
62
256
6
ByLayer
370
-1
48
1
60
0
100
AcDbLine
10
14.653255
20
-3.728274
30
0
11
14.973726
21
-3.126184
31
0
39
0
210
0
220
0
230
1
0
LINE
5
112
100
AcDbEntity
8
1
62
256
6
ByLayer
370
-1
48
1
60
0
100
AcDbLine
10
9.017747
20
1.346531
30
0
11
9.088531
21
1.174274
31
0
39
0
210
0
220
0
230
1
0
LINE
5
113
100
AcDbEntity
8
1
62
256
6
ByLayer
370
-1
48
1
60
0
100
AcDbLine
10
9.613273
20
0.270156
30
0
11
10.204626
21
0.438737
31
0
39
0
210
0
220
0
230
1
0
LINE
5
114
100
AcDbEntity
8
1
62
256
6
ByLayer
370
-1
48
1
60
0
100
AcDbLine
10
8.548328
20
7.59972
30
0
11
8.754255
21
7.476679
31
0
39
0
210
0
220
0
230
1
0
LINE
5
115
100
AcDbEntity
8
1
62
256
6
ByLayer
370
-1
48
1
60
0
100
AcDbLine
10
12.354167
20
8.063257
30
0
11
12.33435
21
7.479378
31
0
39
0
210
0
220
0
230
1
0
LINE
5
116
100
AcDbEntity
8
1
62
256
6
ByLayer
370
-1
48
1
60
0
100
AcDbLine
10
12.424175
20
7.475176
30
0
11
12.444115
21
8.062688
31
0
39
0
210
0
220
0
230
1
0
LINE
5
117
100
AcDbEntity
8
1
62
256
6
ByLayer
370
-1
48
1
60
0
100
AcDbLine
10
9.176148
20
1.001209
30
0
11
9.571174
21
1.113821
31
0
39
0
210
0
220
0
230
1
0
LINE
5
118
100
AcDbEntity
8
1
62
256
6
ByLayer
370
-1
48
1
60
0
100
AcDbLine
10
6.854718
20
4.894346
30
0
11
7.469236
21
5.255146
31
0
39
0
210
0
220
0
230
1
0
LINE
5
119
100
AcDbEntity
8
1
62
256
6
ByLayer
370
-1
48
1
60
0
100
AcDbLine
10
9.176148
20
1.001209
30
0
11
9.501283
21
0.441008
31
0
39
0
210
0
220
0
230
1
0
LINE
5
11A
100
AcDbEntity
8
1
62
256
6
ByLayer
370
-1
48
1
60
0
100
AcDbLine
10
11.873153
20
-2.365765
30
0
11
11.654813
21
-2.205274
31
0
39
0
210
0
220
0
230
1
0
LINE
5
11B
100
AcDbEntity
8
1
62
256
6
ByLayer
370
-1
48
1
60
0
100
AcDbLine
10
12.881153
20
-3.434955
30
0
11
12.218991
21
-3.495062
31
0
39
0
210
0
220
0
230
1
0
LINE
5
11C
100
AcDbEntity
8
1
62
256
6
ByLayer
370
-1
48
1
60
0
100
AcDbLine
10
11.459647
20
-2.082437
30
0
11
10.790228
21
-1.690663
31
0
39
0
210
0
220
0
230
1
0
LINE
5
11D
100
AcDbEntity
8
1
62
256
6
ByLayer
370
-1
48
1
60
0
100
AcDbLine
10
7.664839
20
6.979738
30
0
11
7.714051
21
7.008632
31
0
39
0
210
0
220
0
230
1
0
LINE
5
11E
100
AcDbEntity
8
1
62
256
6
ByLayer
370
-1
48
1
60
0
100
AcDbLine
10
12.354167
20
8.063257
30
0
11
10.423762
21
8.063257
31
0
39
0
210
0
220
0
230
1
0
LINE
5
11F
100
AcDbEntity
8
1
62
256
6
ByLayer
370
-1
48
1
60
0
100
AcDbLine
10
18.852238
20
7.750966
30
0
11
19.796226
21
7.209459
31
0
39
0
210
0
220
0
230
1
0
LINE
5
120
100
AcDbEntity
8
1
62
256
6
ByLayer
370
-1
48
1
60
0
100
AcDbLine
10
9.501283
20
0.441008
30
0
11
10.715746
21
0.787223
31
0
39
0
210
0
220
0
230
1
0
LINE
5
121
100
AcDbEntity
8
1
62
256
6
ByLayer
370
-1
48
1
60
0
100
AcDbLine
10
6.932724
20
6.039112
30
0
11
6.95441
21
6.758133
31
0
39
0
210
0
220
0
230
1
0
LINE
5
122
100
AcDbEntity
8
1
62
256
6
ByLayer
370
-1
48
1
60
0
100
AcDbLine
10
7.469236
20
5.255146
30
0
11
7.077842
21
4.50385
31
0
39
0
210
0
220
0
230
1
0
LINE
5
123
100
AcDbEntity
8
1
62
256
6
ByLayer
370
-1
48
1
60
0
100
AcDbLine
10
16.551012
20
8.063257
30
0
11
18.851584
21
4.341791
31
0
39
0
210
0
220
0
230
1
0
LINE
5
124
100
AcDbEntity
8
1
62
256
6
ByLayer
370
-1
48
1
60
0
100
AcDbLine
10
7.442587
20
5.30334
30
0
11
6.828068
21
4.94254
31
0
39
0
210
0
220
0
230
1
0
LINE
5
125
100
AcDbEntity
8
1
62
256
6
ByLayer
370
-1
48
1
60
0
100
AcDbLine
10
18.83817
20
4.583995
30
0
11
16.688041
21
8.0621
31
0
39
0
210
0
220
0
230
1
0
LINE
5
126
100
AcDbEntity
8
1
62
256
6
ByLayer
370
-1
48
1
60
0
100
AcDbLine
10
18.714718
20
6.591685
30
0
11
19.342161
21
6.956189
31
0
39
0
210
0
220
0
230
1
0
LINE
5
127
100
AcDbEntity
8
1
62
256
6
ByLayer
370
-1
48
1
60
0
100
AcDbLine
10
9.123832
20
7.361363
30
0
11
9.438085
21
7.521854
31
0
39
0
210
0
220
0
230
1
0
LINE
5
128
100
AcDbEntity
8
1
62
256
6
ByLayer
370
-1
48
1
60
0
100
AcDbLine
10
6.50429
20
5.548507
30
0
11
6.828068
21
4.94254
31
0
39
0
210
0
220
0
230
1
0
LINE
5
129
100
AcDbEntity
8
1
62
256
6
ByLayer
370
-1
48
1
60
0
100
AcDbLine
10
12.553978
20
-3.416658
30
0
11
11.979024
21
-3.080169
31
0
39
0
210
0
220
0
230
1
0
LINE
5
12A
100
AcDbEntity
8
1
62
256
6
ByLayer
370
-1
48
1
60
0
100
AcDbLine
10
14.22272
20
-3.89919
30
0
11
13.331459
21
-4.428298
31
0
39
0
210
0
220
0
230
1
0
LINE
5
12B
100
AcDbEntity
8
1
62
256
6
ByLayer
370
-1
48
1
60
0
100
AcDbLine
10
7.077842
20
4.50385
30
0
11
6.854718
21
4.894346
31
0
39
0
210
0
220
0
230
1
0
LINE
5
12C
100
AcDbEntity
8
1
62
256
6
ByLayer
370
-1
48
1
60
0
100
AcDbLine
10
15.000112
20
-3.078144
30
0
11
14.383618
21
-2.717344
31
0
39
0
210
0
220
0
230
1
0
LINE
5
12D
100
AcDbEntity
8
1
62
256
6
ByLayer
370
-1
48
1
60
0
100
AcDbLine
10
13.40152
20
-3.937312
30
0
11
13.375908
21
-3.221731
31
0
39
0
210
0
220
0
230
1
0
LINE
5
12E
100
AcDbEntity
8
1
62
256
6
ByLayer
370
-1
48
1
60
0
100
AcDbLine
10
12.947436
20
-3.546481
30
0
11
12.283306
21
-3.606766
31
0
39
0
210
0
220
0
230
1
0
LINE
5
12F
100
AcDbEntity
8
1
62
256
6
ByLayer
370
-1
48
1
60
0
100
AcDbLine
10
13.280262
20
7.667994
30
0
11
13.076153
21
6.704687
31
0
39
0
210
0
220
0
230
1
0
LINE
5
130
100
AcDbEntity
8
1
62
256
6
ByLayer
370
-1
48
1
60
0
100
AcDbLine
10
7.775815
20
6.721375
30
0
11
7.61317
21
6.496358
31
0
39
0
210
0
220
0
230
1
0
LINE
5
131
100
AcDbEntity
8
1
62
256
6
ByLayer
370
-1
48
1
60
0
100
AcDbLine
10
18.856053
20
6.357317
30
0
11
18.714718
21
6.591685
31
0
39
0
210
0
220
0
230
1
0
LINE
5
132
100
AcDbEntity
8
1
62
256
6
ByLayer
370
-1
48
1
60
0
100
AcDbLine
10
12.977366
20
-4.382696
30
0
11
12.291094
21
-4.444991
31
0
39
0
210
0
220
0
230
1
0
LINE
5
133
100
AcDbEntity
8
1
62
256
6
ByLayer
370
-1
48
1
60
0
100
AcDbLine
10
10.204626
20
0.438737
30
0
11
9.693471
21
0.163928
31
0
39
0
210
0
220
0
230
1
0
LINE
5
134
100
AcDbEntity
8
1
62
256
6
ByLayer
370
-1
48
1
60
0
100
AcDbLine
10
7.778892
20
7.109091
30
0
11
7.785058
21
7.162521
31
0
39
0
210
0
220
0
230
1
0
LINE
5
135
100
AcDbEntity
8
1
62
256
6
ByLayer
370
-1
48
1
60
0
100
AcDbLine
10
13.070478
20
-4.27556
30
0
11
13.032067
21
-3.202366
31
0
39
0
210
0
220
0
230
1
0
LINE
5
136
100
AcDbEntity
8
1
62
256
6
ByLayer
370
-1
48
1
60
0
100
AcDbLine
10
6.869446
20
7.151301
30
0
11
6.881643
21
7.255641
31
0
39
0
210
0
220
0
230
1
0
LINE
5
137
100
AcDbEntity
8
1
62
256
6
ByLayer
370
-1
48
1
60
0
100
AcDbLine
10
13.802035
20
-2.94859
30
0
11
13.39437
21
-2.950797
31
0
39
0
210
0
220
0
230
1
0
LINE
5
138
100
AcDbEntity
8
1
62
256
6
ByLayer
370
-1
48
1
60
0
100
AcDbLine
10
10.543565
20
1.391027
30
0
11
10.715746
21
0.787223
31
0
39
0
210
0
220
0
230
1
0
LINE
5
139
100
AcDbEntity
8
1
62
256
6
ByLayer
370
-1
48
1
60
0
100
AcDbLine
10
9.748086
20
0.079893
30
0
11
10.25608
21
0.353002
31
0
39
0
210
0
220
0
230
1
0
LINE
5
13A
100
AcDbEntity
8
1
62
256
6
ByLayer
370
-1
48
1
60
0
100
AcDbLine
10
14.236719
20
-3.443777
30
0
11
14.0245
21
-3.078786
31
0
39
0
210
0
220
0
230
1
0
LINE
5
13B
100
AcDbEntity
8
1
62
256
6
ByLayer
370
-1
48
1
60
0
100
AcDbLine
10
13.297586
20
-3.933114
30
0
11
13.1517
21
-4.227822
31
0
39
0
210
0
220
0
230
1
0
LINE
5
13C
100
AcDbEntity
8
1
62
256
6
ByLayer
370
-1
48
1
60
0
100
AcDbLine
10
12.411282
20
-4.629275
30
0
11
12.390041
21
-4.616844
31
0
39
0
210
0
220
0
230
1
0
LINE
5
13D
100
AcDbEntity
8
1
62
256
6
ByLayer
370
-1
48
1
60
0
100
AcDbLine
10
18.441033
20
7.051148
30
0
11
18.656032
21
7.414524
31
0
39
0
210
0
220
0
230
1
0
LINE
5
13E
100
AcDbEntity
8
1
62
256
6
ByLayer
370
-1
48
1
60
0
100
AcDbLine
10
7.016956
20
6.852595
30
0
11
6.869446
21
7.151301
31
0
39
0
210
0
220
0
230
1
0
LINE
5
13F
100
AcDbEntity
8
1
62
256
6
ByLayer
370
-1
48
1
60
0
100
AcDbLine
10
13.783574
20
-3.219524
30
0
11
13.995793
21
-3.584515
31
0
39
0
210
0
220
0
230
1
0
LINE
5
140
100
AcDbEntity
8
1
62
256
6
ByLayer
370
-1
48
1
60
0
100
AcDbLine
10
13.1517
20
-4.227822
30
0
11
13.070478
21
-4.27556
31
0
39
0
210
0
220
0
230
1
0
LINE
5
141
100
AcDbEntity
8
1
62
256
6
ByLayer
370
-1
48
1
60
0
100
AcDbLine
10
6.702985
20
7.053568
30
0
11
6.850496
21
6.754861
31
0
39
0
210
0
220
0
230
1
0
LINE
5
142
100
AcDbEntity
8
1
62
256
6
ByLayer
370
-1
48
1
60
0
100
AcDbLine
10
18.851584
20
4.341791
30
0
11
18.853728
21
3.558243
31
0
39
0
210
0
220
0
230
1
0
LINE
5
143
100
AcDbEntity
8
1
62
256
6
ByLayer
370
-1
48
1
60
0
100
AcDbLine
10
6.842798
20
7.395779
30
0
11
7.539522
21
6.979487
31
0
39
0
210
0
220
0
230
1
0
LINE
5
144
100
AcDbEntity
8
1
62
256
6
ByLayer
370
-1
48
1
60
0
100
AcDbLine
10
5.939531
20
7.320391
30
0
11
5.960704
21
7.332822
31
0
39
0
210
0
220
0
230
1
0
LINE
5
145
100
AcDbEntity
8
1
62
256
6
ByLayer
370
-1
48
1
60
0
100
AcDbLine
10
6.650002
20
7.395392
30
0
11
5.960704
21
7.332822
31
0
39
0
210
0
220
0
230
1
0
LINE
5
146
100
AcDbEntity
8
1
62
256
6
ByLayer
370
-1
48
1
60
0
100
AcDbLine
10
7.849898
20
7.26298
30
0
11
7.183052
21
7.202449
31
0
39
0
210
0
220
0
230
1
0
LINE
5
147
100
AcDbEntity
8
1
62
256
6
ByLayer
370
-1
48
1
60
0
100
AcDbLine
10
13.375908
20
-3.221731
30
0
11
13.783574
21
-3.219524
31
0
39
0
210
0
220
0
230
1
0
LINE
5
148
100
AcDbEntity
8
1
62
256
6
ByLayer
370
-1
48
1
60
0
100
AcDbLine
10
18.436939
20
7.545984
30
0
11
18.22194
21
7.182609
31
0
39
0
210
0
220
0
230
1
0
LINE
5
149
100
AcDbEntity
8
1
62
256
6
ByLayer
370
-1
48
1
60
0
100
AcDbLine
10
16.348406
20
1.808224
30
0
11
16.776934
21
2.260068
31
0
39
0
210
0
220
0
230
1
0
LINE
5
14A
100
AcDbEntity
8
1
62
256
6
ByLayer
370
-1
48
1
60
0
100
AcDbLine
10
16.758828
20
2.278196
30
0
11
16.3303
21
1.826352
31
0
39
0
210
0
220
0
230
1
0
LINE
5
14B
100
AcDbEntity
8
1
62
256
6
ByLayer
370
-1
48
1
60
0
100
AcDbLine
10
17.507965
20
7.186042
30
0
11
18.78764
21
4.934947
31
0
39
0
210
0
220
0
230
1
0
LINE
5
14C
100
AcDbEntity
8
1
62
256
6
ByLayer
370
-1
48
1
60
0
100
AcDbLine
10
12.548303
20
8.061005
30
0
11
12.444115
21
8.062688
31
0
39
0
210
0
220
0
230
1
0
LINE
5
14D
100
AcDbEntity
8
1
62
256
6
ByLayer
370
-1
48
1
60
0
100
AcDbLine
10
16.556914
20
1.204977
30
0
11
17.096756
21
0.399729
31
0
39
0
210
0
220
0
230
1
0
LINE
5
14E
100
AcDbEntity
8
1
62
256
6
ByLayer
370
-1
48
1
60
0
100
AcDbLine
10
17.143656
20
0.493119
30
0
11
16.630082
21
1.259187
31
0
39
0
210
0
220
0
230
1
0
LINE
5
14F
100
AcDbEntity
8
1
62
256
6
ByLayer
370
-1
48
1
60
0
100
AcDbLine
10
14.383618
20
-2.717344
30
0
11
15.221099
21
-2.687648
31
0
39
0
210
0
220
0
230
1
0
LINE
5
150
100
AcDbEntity
8
1
62
256
6
ByLayer
370
-1
48
1
60
0
100
AcDbLine
10
14.583324
20
-3.80185
30
0
11
13.293379
21
-4.567641
31
0
39
0
210
0
220
0
230
1
0
LINE
5
151
100
AcDbEntity
8
1
62
256
6
ByLayer
370
-1
48
1
60
0
100
AcDbLine
10
7.550623
20
6.401896
30
0
11
7.340405
21
6.035723
31
0
39
0
210
0
220
0
230
1
0
LINE
5
152
100
AcDbEntity
8
1
62
256
6
ByLayer
370
-1
48
1
60
0
100
AcDbLine
10
15.778736
20
-1.929288
30
0
11
11.459647
21
-2.082437
31
0
39
0
210
0
220
0
230
1
0
LINE
5
153
100
AcDbEntity
8
1
62
256
6
ByLayer
370
-1
48
1
60
0
100
AcDbLine
10
13.076153
20
6.704687
30
0
11
12.475443
21
6.856647
31
0
39
0
210
0
220
0
230
1
0
LINE
5
154
100
AcDbEntity
8
1
62
256
6
ByLayer
370
-1
48
1
60
0
100
AcDbLine
10
10.325354
20
8.036466
30
0
11
9.570079
21
7.967907
31
0
39
0
210
0
220
0
230
1
0
LINE
5
155
100
AcDbEntity
8
1
62
256
6
ByLayer
370
-1
48
1
60
0
100
AcDbLine
10
15.407287
20
-2.404229
30
0
11
14.400603
21
-2.439924
31
0
39
0
210
0
220
0
230
1
0
LINE
5
156
100
AcDbEntity
8
1
62
256
6
ByLayer
370
-1
48
1
60
0
100
AcDbLine
10
18.656032
20
7.414524
30
0
11
19.285461
21
7.053459
31
0
39
0
210
0
220
0
230
1
0
LINE
5
157
100
AcDbEntity
8
1
62
256
6
ByLayer
370
-1
48
1
60
0
100
AcDbLine
10
7.639563
20
3.770077
30
0
11
8.970333
21
1.44106
31
0
39
0
210
0
220
0
230
1
0
LINE
5
158
100
AcDbEntity
8
1
62
256
6
ByLayer
370
-1
48
1
60
0
100
AcDbLine
10
11.654813
20
-2.205274
30
0
11
15.69146
21
-2.062141
31
0
39
0
210
0
220
0
230
1
0
LINE
5
159
100
AcDbEntity
8
1
62
256
6
ByLayer
370
-1
48
1
60
0
100
AcDbLine
10
6.828811
20
6.03584
30
0
11
6.588976
21
6.02455
31
0
39
0
210
0
220
0
230
1
0
LINE
5
15A
100
AcDbEntity
8
SK1
62
256
6
ByLayer
370
-1
48
1
60
0
100
AcDbLine
10
-2.338625
20
7.9375
30
0
11
-103.88484
21
7.9375
31
0
39
0
210
0
220
0
230
1
0
LINE
5
15C
100
AcDbEntity
8
SK1
62
256
6
ByLayer
370
-1
48
1
60
0
100
AcDbLine
10
-2.338625
20
7.431256
30
0
11
-2.338625
21
7.9375
31
0
39
0
210
0
220
0
230
1
0
LINE
5
15D
100
AcDbEntity
8
SK1
62
256
6
ByLayer
370
-1
48
1
60
0
100
AcDbLine
10
-103.88484
20
7.9375
30
0
11
-103.88484
21
-7.9375
31
0
39
0
210
0
220
0
230
1
0
LINE
5
15E
100
AcDbEntity
8
SK1
62
256
6
ByLayer
370
-1
48
1
60
0
100
AcDbLine
10
-103.88484
20
-7.9375
30
0
11
0
21
-7.9375
31
0
39
0
210
0
220
0
230
1
0
LINE
5
15F
100
AcDbEntity
8
SK1
62
256
6
ByLayer
370
-1
48
1
60
0
100
AcDbLine
10
-2.338625
20
7.431256
30
0
11
0
21
7.438237
31
0
39
0
210
0
220
0
230
1
0
LINE
5
160
100
AcDbEntity
8
SK1
62
256
6
ByLayer
370
-1
48
1
60
0
100
AcDbLine
10
0
20
7.438237
30
0
11
0
21
-7.9375
31
0
39
0
210
0
220
0
230
1
0
LINE
5
161
100
AcDbEntity
8
2
62
256
6
ByLayer
370
-1
48
1
60
0
100
AcDbLine
10
0
20
17.8125
30
0
11
21.36516
21
17.8125
31
0
39
0
210
0
220
0
230
1
0
LINE
5
162
100
AcDbEntity
8
2
62
256
6
ByLayer
370
-1
48
1
60
0
100
AcDbLine
10
21.36516
20
15.7375
30
0
11
21.36516
21
20.8125
31
0
39
0
210
0
220
0
230
1
0
LINE
5
163
100
AcDbEntity
8
2
62
256
6
ByLayer
370
-1
48
1
60
0
100
AcDbLine
10
0
20
9.4375
30
0
11
0
21
20.8125
31
0
39
0
210
0
220
0
230
1
0
LINE
5
164
100
AcDbEntity
8
2
62
256
6
ByLayer
370
-1
48
1
60
0
100
AcDbLine
10
21.36516
20
17.8125
30
0
11
18.365162
21
17.417543
31
0
39
0
210
0
220
0
230
1
0
LINE
5
165
100
AcDbEntity
8
2
62
256
6
ByLayer
370
-1
48
1
60
0
100
AcDbLine
10
21.36516
20
17.8125
30
0
11
18.365159
21
18.207457
31
0
39
0
210
0
220
0
230
1
0
LINE
5
166
100
AcDbEntity
8
2
62
256
6
ByLayer
370
-1
48
1
60
0
100
AcDbLine
10
18.365162
20
17.417543
30
0
11
18.365159
21
18.207457
31
0
39
0
210
0
220
0
230
1
0
LINE
5
167
100
AcDbEntity
8
2
62
256
6
ByLayer
370
-1
48
1
60
0
100
AcDbLine
10
0
20
17.8125
30
0
11
2.999999
21
18.207457
31
0
39
0
210
0
220
0
230
1
0
LINE
5
168
100
AcDbEntity
8
2
62
256
6
ByLayer
370
-1
48
1
60
0
100
AcDbLine
10
0
20
17.8125
30
0
11
3.000001
21
17.417543
31
0
39
0
210
0
220
0
230
1
0
LINE
5
169
100
AcDbEntity
8
2
62
256
6
ByLayer
370
-1
48
1
60
0
100
AcDbLine
10
2.999999
20
18.207457
30
0
11
3.000001
21
17.417543
31
0
39
0
210
0
220
0
230
1
0
LINE
5
16A
100
AcDbEntity
8
SK2
62
256
6
ByLayer
370
-1
48
1
60
0
100
AcDbLine
10
21.36516
20
27.8125
30
0
11
-103.88484
21
27.8125
31
0
39
0
210
0
220
0
230
1
0
LINE
5
16C
100
AcDbEntity
8
SK2
62
256
6
ByLayer
370
-1
48
1
60
0
100
AcDbLine
10
-103.88484
20
9.4375
30
0
11
-103.88484
21
30.8125
31
0
39
0
210
0
220
0
230
1
0
LINE
5
16D
100
AcDbEntity
8
SK2
62
256
6
ByLayer
370
-1
48
1
60
0
100
AcDbLine
10
21.36516
20
15.7375
30
0
11
21.36516
21
30.8125
31
0
39
0
210
0
220
0
230
1
0
LINE
5
16E
100
AcDbEntity
8
SK2
62
256
6
ByLayer
370
-1
48
1
60
0
100
AcDbLine
10
-103.88484
20
27.8125
30
0
11
-100.884841
21
28.207457
31
0
39
0
210
0
220
0
230
1
0
LINE
5
16F
100
AcDbEntity
8
SK2
62
256
6
ByLayer
370
-1
48
1
60
0
100
AcDbLine
10
-103.88484
20
27.8125
30
0
11
-100.884838
21
27.417543
31
0
39
0
210
0
220
0
230
1
0
LINE
5
170
100
AcDbEntity
8
SK2
62
256
6
ByLayer
370
-1
48
1
60
0
100
AcDbLine
10
-100.884841
20
28.207457
30
0
11
-100.884838
21
27.417543
31
0
39
0
210
0
220
0
230
1
0
LINE
5
171
100
AcDbEntity
8
SK2
62
256
6
ByLayer
370
-1
48
1
60
0
100
AcDbLine
10
21.36516
20
27.8125
30
0
11
18.365162
21
27.417543
31
0
39
0
210
0
220
0
230
1
0
LINE
5
172
100
AcDbEntity
8
SK2
62
256
6
ByLayer
370
-1
48
1
60
0
100
AcDbLine
10
21.36516
20
27.8125
30
0
11
18.365159
21
28.207457
31
0
39
0
210
0
220
0
230
1
0
LINE
5
173
100
AcDbEntity
8
SK2
62
256
6
ByLayer
370
-1
48
1
60
0
100
AcDbLine
10
18.365162
20
27.417543
30
0
11
18.365159
21
28.207457
31
0
39
0
210
0
220
0
230
1
0
LINE
5
174
100
AcDbEntity
8
2
62
256
6
ByLayer
370
-1
48
1
60
0
100
AcDbLine
10
35.61516
20
8.0625
30
0
11
35.61516
21
-7.9375
31
0
39
0
210
0
220
0
230
1
0
LINE
5
175
100
AcDbEntity
8
2
62
256
6
ByLayer
370
-1
48
1
60
0
100
AcDbLine
10
1.5
20
-7.9375
30
0
11
38.61516
21
-7.9375
31
0
39
0
210
0
220
0
230
1
0
LINE
5
176
100
AcDbEntity
8
2
62
256
6
ByLayer
370
-1
48
1
60
0
100
AcDbLine
10
29.04016
20
8.0625
30
0
11
38.61516
21
8.0625
31
0
39
0
210
0
220
0
230
1
0
LINE
5
177
100
AcDbEntity
8
2
62
256
6
ByLayer
370
-1
48
1
60
0
100
AcDbLine
10
35.61516
20
-7.9375
30
0
11
35.220203
21
-4.937501
31
0
39
0
210
0
220
0
230
1
0
LINE
5
178
100
AcDbEntity
8
2
62
256
6
ByLayer
370
-1
48
1
60
0
100
AcDbLine
10
35.61516
20
-7.9375
30
0
11
36.010118
21
-4.937499
31
0
39
0
210
0
220
0
230
1
0
LINE
5
179
100
AcDbEntity
8
2
62
256
6
ByLayer
370
-1
48
1
60
0
100
AcDbLine
10
35.220203
20
-4.937501
30
0
11
36.010118
21
-4.937499
31
0
39
0
210
0
220
0
230
1
0
LINE
5
17A
100
AcDbEntity
8
2
62
256
6
ByLayer
370
-1
48
1
60
0
100
AcDbLine
10
35.61516
20
8.0625
30
0
11
36.010118
21
5.062501
31
0
39
0
210
0
220
0
230
1
0
LINE
5
17B
100
AcDbEntity
8
2
62
256
6
ByLayer
370
-1
48
1
60
0
100
AcDbLine
10
35.61516
20
8.0625
30
0
11
35.220203
21
5.062499
31
0
39
0
210
0
220
0
230
1
0
LINE
5
17C
100
AcDbEntity
8
2
62
256
6
ByLayer
370
-1
48
1
60
0
100
AcDbLine
10
36.010118
20
5.062501
30
0
11
35.220203
21
5.062499
31
0
39
0
210
0
220
0
230
1
0
MTEXT
5
29F
100
AcDbEntity
8
SK6
62
256
6
ByLayer
370
-1
48
1
60
0
100
AcDbMText
10
-67.88156
20
-3.408443
30
0
210
0
220
0
230
1
1
\W00.704;\fsimplex.shx,bigfont.shx;266RFA-1616-16-S 
40
3.5
41
0
44
1.084337
50
0
71
7
72
5
7
DEFAULT
0
MTEXT
5
2C5
100
AcDbEntity
8
2
62
256
6
ByLayer
370
-1
48
1
60
0
100
AcDbMText
10
9.741133
20
18.9375
30
0
210
0
220
0
230
1
1
\W00.614;\fsimplex.shx,bigfont.shx;21 
40
4.5
41
0
44
1.084337
50
0
71
7
72
5
7
DEFAULT
0
MTEXT
5
2C6
100
AcDbEntity
8
SK2
62
256
6
ByLayer
370
-1
48
1
60
0
100
AcDbMText
10
-43.853261
20
28.9375
30
0
210
0
220
0
230
1
1
\W00.604;\fsimplex.shx,bigfont.shx;125 
40
4.5
41
0
44
1.084337
50
0
71
7
72
5
7
DEFAULT
0
MTEXT
5
2C7
100
AcDbEntity
8
2
62
256
6
ByLayer
370
-1
48
1
60
0
100
AcDbMText
10
34.49016
20
-0.878947
30
0
210
0
220
0
230
1
1
\W00.514;\fsimplex.shx,bigfont.shx;16 
40
4.5
41
0
44
1.084337
50
89.9999999999999
71
7
72
5
7
DEFAULT
0
DIMENSION
5
2D5
100
AcDbEntity
8
SK2
62
256
6
ByLayer
370
-3
48
1
60
0
100
AcDbDimension
2
DimnDraft3D1
10
-113.63484
20
-7.9375
30
0
11
-113.63484
21
-2.066447
31
0
70
32
71
5
72
1
41
1
210
0
220
0
230
1
3
Standard
100
AcDbAlignedDimension
13
-105.38484
23
7.9375
33
0
14
-105.38484
24
-7.9375
34
0
50
90
100
AcDbRotatedDimension
1001
ACAD
1000
DSTYLE
1002
{
1070
    74
1070
     0
1070
   279
1070
     0
1070
   172
1070
     1
1070
   173
1070
     1
1070
   340
1005
2A0
1070
   271
1070
     3
1070
   272
1070
     3
1070
    77
1070
     1
1070
    73
1070
     0
1070
   171
1070
     4
1070
   274
1070
     4
1070
   177
1070
     2
1070
   176
1070
     2
1070
   178
1070
     7
1070
    78
1070
     8
1070
    41
1041
3.0
1070
   147
1041
2.25
1070
    42
1041
1.5
1070
    44
1041
3.0
1070
   140
1041
4.5
1070
   343
1005
2D6
1070
   344
1005
2D6
1002
}
0
ENDSEC
0
SECTION
2
OBJECTS
0
DICTIONARY
5
30c
330
0
100
AcDbDictionary
280
0
281
1
3
ACAD_GROUP
350
30d
3
ACAD_MLINESTYLE
350
30e
0
DICTIONARY
5
30d
330
0
100
AcDbDictionary
280
0
281
1
0
DICTIONARY
5
30e
330
0
100
AcDbDictionary
280
0
281
1
3
Standard
350
18
0
MLINESTYLE
5
18
330
30e
100
AcDbMlineStyle
2
Standard
70
0
3

62
256
51
90
52
90
71
2
49
-0.5
62
256
6
ByLayer
49
0.5
62
256
6
ByLayer
0
RASTERVARIABLES
5
2fb
330

100
AcDbRasterVariables
90
0
70
1
71
1
72
1
0
ENDSEC
0
EOF
