0
SECTION
2
HEADER
9
$ACADVER
1
AC1015
9
$DWGCODEPAGE
3
ANSI_1252
9
$HANDSEED
5
380
9
$ANGBASE
50
0
9
$ANGDIR
70
0
9
$ATTMODE
70
1
9
$AUNITS
70
0
9
$AUPREC
70
0
9
$CECOLOR
62
256
9
$CELTSCALE
40
1
9
$CELTYPE
6
ByLayer
9
$CELWEIGHT
370
-1
9
$CLAYER
8
0
9
$CMLJUST
70
0
9
$CMLSCALE
40
1
9
$CMLSTYLE
2
Standard
9
$DIMSTYLE
2
Standard
9
$TEXTSIZE
40
0.2
9
$TEXTSTYLE
7
Standard
9
$LUNITS
70
2
9
$LUPREC
70
4
9
$EXTNAMES
290
1
9
$INSUNITS
70
4
9
$LTSCALE
40
1
9
$LWDISPLAY
290
0
9
$PDMODE
70
0
9
$PDSIZE
40
0
9
$PLINEGEN
70
0
0
ENDSEC
0
SECTION
2
CLASSES
0
CLASS
1
RASTERVARIABLES
2
AcDbRasterVariables
3
ISM
90
0
280
0
281
0
0
ENDSEC
0
SECTION
2
TABLES
0
TABLE
2
VPORT
5
376
100
AcDbSymbolTable
0
VPORT
5
1
100
AcDbSymbolTableRecord
100
AcDbViewportTableRecord
2
*Active
70
0
10
0
20
0
11
1
21
1
12
-1
22
1
13
0
23
0
14
0.5
24
0.5
15
10
25
10
16
0
26
0
36
1
17
0
27
0
37
0
0
ENDTAB
0
TABLE
2
LTYPE
5
377
100
AcDbSymbolTable
0
LTYPE
5
14
100
AcDbSymbolTableRecord
100
AcDbLinetypeTableRecord
70
0
2
ByBlock
3

72
65
73
0
40
0
0
LTYPE
5
15
100
AcDbSymbolTableRecord
100
AcDbLinetypeTableRecord
70
0
2
ByLayer
3

72
65
73
0
40
0
0
LTYPE
5
16
100
AcDbSymbolTableRecord
100
AcDbLinetypeTableRecord
70
0
2
CONTINUOUS
3
Solid line
72
65
73
0
40
0
0
LTYPE
5
3B
100
AcDbSymbolTableRecord
100
AcDbLinetypeTableRecord
70
0
2
DASHED
3
__ __ __ __ __ __ __ __ __
72
65
73
2
40
25.72
49
12.86
74
0
49
-12.86
74
0
0
LTYPE
5
3C
100
AcDbSymbolTableRecord
100
AcDbLinetypeTableRecord
70
0
2
HIDDEN
3
_ _ _ _ _ _ _ _ _ _ _ _ _ _ _
72
65
73
2
40
0.5
49
0.25
74
0
49
-0.25
74
0
0
LTYPE
5
3D
100
AcDbSymbolTableRecord
100
AcDbLinetypeTableRecord
70
0
2
PHANTOM
3
____ _ _ ____ _ _ _____ _ _ ____
72
65
73
6
40
50.5
49
18
74
0
49
-6.5
74
0
49
6.5
74
0
49
-6.5
74
0
49
6.5
74
0
49
-6.5
74
0
0
LTYPE
5
3E
100
AcDbSymbolTableRecord
100
AcDbLinetypeTableRecord
70
0
2
CENTER
3
____ _ ____ _ ____ _ ____
72
65
73
4
40
47.5
49
22
74
0
49
-8.5
74
0
49
8.5
74
0
49
-8.5
74
0
0
LTYPE
5
3F
100
AcDbSymbolTableRecord
100
AcDbLinetypeTableRecord
70
0
2
DOT
3
.........................
72
65
73
2
40
10
49
0
74
0
49
-10
74
0
0
LTYPE
5
40
100
AcDbSymbolTableRecord
100
AcDbLinetypeTableRecord
70
0
2
DASHDOT
3
_._._._._._._._._._._._._._._._.
72
65
73
4
40
70
49
31
74
0
49
-13
74
0
49
13
74
0
49
-13
74
0
0
ENDTAB
0
TABLE
2
LAYER
5
378
100
AcDbSymbolTable
0
LAYER
5
10
100
AcDbSymbolTableRecord
100
AcDbLayerTableRecord
2
0
70
0
62
7
6
CONTINUOUS
290
1
370
-3
390
0
0
LAYER
5
42
100
AcDbSymbolTableRecord
100
AcDbLayerTableRecord
2
2
70
0
62
7
6
CONTINUOUS
290
1
370
-3
390
0
0
LAYER
5
44
100
AcDbSymbolTableRecord
100
AcDbLayerTableRecord
2
1
70
0
62
4
6
CONTINUOUS
290
1
370
-3
390
0
0
LAYER
5
46
100
AcDbSymbolTableRecord
100
AcDbLayerTableRecord
2
80
70
0
62
-6
6
CONTINUOUS
290
1
370
-3
390
0
0
LAYER
5
48
100
AcDbSymbolTableRecord
100
AcDbLayerTableRecord
2
81
70
0
62
-3
6
CONTINUOUS
290
1
370
-3
390
0
0
LAYER
5
362
100
AcDbSymbolTableRecord
100
AcDbLayerTableRecord
2
SK1
70
0
62
4
6
CONTINUOUS
290
1
370
-3
390
0
0
LAYER
5
363
100
AcDbSymbolTableRecord
100
AcDbLayerTableRecord
2
SK4
70
0
62
2
6
CENTER
290
1
370
-3
390
0
0
LAYER
5
364
100
AcDbSymbolTableRecord
100
AcDbLayerTableRecord
2
SK6
70
0
62
5
6
CONTINUOUS
290
1
370
-3
390
0
0
LAYER
5
365
100
AcDbSymbolTableRecord
100
AcDbLayerTableRecord
2
SK2
70
0
62
7
6
CONTINUOUS
290
1
370
-3
390
0
0
ENDTAB
0
TABLE
2
STYLE
5
379
100
AcDbSymbolTable
0
STYLE
5
11
100
AcDbSymbolTableRecord
100
AcDbTextStyleTableRecord
2
Standard
3
txt
70
0
71
0
40
0
41
1
42
0
50
0
0
STYLE
5
2DE
100
AcDbSymbolTableRecord
100
AcDbTextStyleTableRecord
2
DEFAULT
3
simplex.shx
70
0
71
0
40
0
41
1
42
0
50
0
0
STYLE
5
301
100
AcDbSymbolTableRecord
100
AcDbTextStyleTableRecord
2
DWGDirectTextStyle
3
SIMPLEX
70
0
71
0
40
0
41
1
42
0
50
0
0
ENDTAB
0
TABLE
2
DIMSTYLE
5
37a
100
AcDbSymbolTable
100
AcDbDimStyleTable
0
DIMSTYLE
105
27
100
AcDbSymbolTableRecord
100
AcDbDimStyleTableRecord
2
Standard
70
0
3
<>
41
0.18
42
0.0625
44
0.18
140
0.18
147
0.09
73
0
74
0
77
1
271
2
275
0
278
52
280
0
340
11
0
ENDTAB
0
TABLE
2
VIEW
5
37b
100
AcDbSymbolTable
0
ENDTAB
0
TABLE
2
UCS
5
37c
100
AcDbSymbolTable
0
ENDTAB
0
TABLE
2
APPID
5
37d
100
AcDbSymbolTable
0
APPID
5
12
100
AcDbSymbolTableRecord
100
AcDbRegAppTableRecord
2
ACAD
70
0
0
ENDTAB
0
TABLE
2
BLOCK_RECORD
5
37e
100
AcDbSymbolTable
0
BLOCK_RECORD
5
1F
100
AcDbSymbolTableRecord
100
AcDbBlockTableRecord
2
*Model_Space
340
0
70
0
0
BLOCK_RECORD
5
1B
100
AcDbSymbolTableRecord
100
AcDbBlockTableRecord
2
*Paper_Space
340
0
70
0
0
BLOCK_RECORD
5
23
100
AcDbSymbolTableRecord
100
AcDbBlockTableRecord
2
*Paper_Space0
340
0
70
0
0
BLOCK_RECORD
5
303
100
AcDbSymbolTableRecord
100
AcDbBlockTableRecord
2
DimnDraft3D1
340
0
70
0
0
BLOCK_RECORD
5
311
100
AcDbSymbolTableRecord
100
AcDbBlockTableRecord
2
_CLOSED
340
0
70
0
0
BLOCK_RECORD
5
318
100
AcDbSymbolTableRecord
100
AcDbBlockTableRecord
2
DimnDraft3D2
340
0
70
0
0
BLOCK_RECORD
5
327
100
AcDbSymbolTableRecord
100
AcDbBlockTableRecord
2
DimnDraft3D3
340
0
70
0
0
BLOCK_RECORD
5
335
100
AcDbSymbolTableRecord
100
AcDbBlockTableRecord
2
DimnDraft3D4
340
0
70
0
0
ENDTAB
0
ENDSEC
0
SECTION
2
BLOCKS
0
BLOCK
5
20
100
AcDbEntity
8
0
100
AcDbBlockBegin
2
*Model_Space
70
0
10
0
20
0
30
0
3
*Model_Space
0
ENDBLK
5
21
100
AcDbEntity
8
0
100
AcDbBlockEnd
0
BLOCK
5
1C
100
AcDbEntity
8
0
100
AcDbBlockBegin
2
*Paper_Space
70
0
10
0
20
0
30
0
3
*Paper_Space
0
ENDBLK
5
1D
100
AcDbEntity
8
0
100
AcDbBlockEnd
0
BLOCK
5
24
100
AcDbEntity
8
0
100
AcDbBlockBegin
2
*Paper_Space0
70
0
10
0
20
0
30
0
3
*Paper_Space0
0
ENDBLK
5
25
100
AcDbEntity
8
0
100
AcDbBlockEnd
0
BLOCK
5
30E
100
AcDbEntity
8
0
100
AcDbBlockBegin
2
DimnDraft3D1
70
0
10
0
20
0
30
0
3
DimnDraft3D1
0
MTEXT
5
304
100
AcDbEntity
8
2
62
256
6
ByLayer
370
-1
48
1
60
0
100
AcDbMText
10
139.293816
20
-40
30
0
210
0
220
0
230
1
1
\W01.000;\fsimplex.shx,bigfont.shx;38 
40
4.5
41
0
44
1.084337
50
0
71
7
72
5
7
DEFAULT
0
LINE
5
305
100
AcDbEntity
8
2
62
256
6
ByLayer
370
-1
48
1
60
0
100
AcDbLine
10
121.681527
20
-28.375
30
0
11
121.681527
21
-44.125
31
0
39
0
210
0
220
0
230
1
0
LINE
5
306
100
AcDbEntity
8
2
62
256
6
ByLayer
370
-1
48
1
60
0
100
AcDbLine
10
159.914
20
-28.375
30
0
11
159.914
21
-44.125
31
0
39
0
210
0
220
0
230
1
0
LINE
5
307
100
AcDbEntity
8
2
62
256
6
ByLayer
370
-1
48
1
60
0
100
AcDbLine
10
121.681527
20
-41.125
30
0
11
159.914
21
-41.125
31
0
39
0
210
0
220
0
230
1
0
LINE
5
308
100
AcDbEntity
8
2
62
256
6
ByLayer
370
-1
48
1
60
0
100
AcDbLine
10
121.681527
20
-41.125
30
0
11
124.681525
21
-40.730043
31
0
39
0
210
0
220
0
230
1
0
LINE
5
309
100
AcDbEntity
8
2
62
256
6
ByLayer
370
-1
48
1
60
0
100
AcDbLine
10
121.681527
20
-41.125
30
0
11
124.681528
21
-41.519957
31
0
39
0
210
0
220
0
230
1
0
LINE
5
30A
100
AcDbEntity
8
2
62
256
6
ByLayer
370
-1
48
1
60
0
100
AcDbLine
10
124.681525
20
-40.730043
30
0
11
124.681528
21
-41.519957
31
0
39
0
210
0
220
0
230
1
0
LINE
5
30B
100
AcDbEntity
8
2
62
256
6
ByLayer
370
-1
48
1
60
0
100
AcDbLine
10
159.914
20
-41.125
30
0
11
156.914001
21
-41.519957
31
0
39
0
210
0
220
0
230
1
0
LINE
5
30C
100
AcDbEntity
8
2
62
256
6
ByLayer
370
-1
48
1
60
0
100
AcDbLine
10
159.914
20
-41.125
30
0
11
156.913999
21
-40.730043
31
0
39
0
210
0
220
0
230
1
0
LINE
5
30D
100
AcDbEntity
8
2
62
256
6
ByLayer
370
-1
48
1
60
0
100
AcDbLine
10
156.914001
20
-41.519957
30
0
11
156.913999
21
-40.730043
31
0
39
0
210
0
220
0
230
1
0
ENDBLK
5
30F
100
AcDbEntity
8
0
100
AcDbBlockEnd
0
BLOCK
5
312
100
AcDbEntity
8
0
100
AcDbBlockBegin
2
_CLOSED
70
0
10
0
20
0
30
0
3
_CLOSED
0
LINE
5
314
100
AcDbEntity
8
0
62
256
6
ByLayer
370
-2
48
1
60
0
100
AcDbLine
10
-1
20
0.166667
30
0
11
0
21
0
31
0
39
0
210
0
220
0
230
1
0
LINE
5
315
100
AcDbEntity
8
0
62
256
6
ByLayer
370
-2
48
1
60
0
100
AcDbLine
10
0
20
0
30
0
11
-1
21
-0.166667
31
0
39
0
210
0
220
0
230
1
0
LINE
5
316
100
AcDbEntity
8
0
62
256
6
ByLayer
370
-2
48
1
60
0
100
AcDbLine
10
-1
20
0.166667
30
0
11
-1
21
-0.166667
31
0
39
0
210
0
220
0
230
1
0
LINE
5
317
100
AcDbEntity
8
0
62
256
6
ByLayer
370
-2
48
1
60
0
100
AcDbLine
10
0
20
0
30
0
11
-1
21
0
31
0
39
0
210
0
220
0
230
1
0
ENDBLK
5
313
100
AcDbEntity
8
0
100
AcDbBlockEnd
0
BLOCK
5
324
100
AcDbEntity
8
0
100
AcDbBlockBegin
2
DimnDraft3D2
70
0
10
0
20
0
30
0
3
DimnDraft3D2
0
MTEXT
5
319
100
AcDbEntity
8
SK2
62
256
6
ByLayer
370
-1
48
1
60
0
100
AcDbMText
10
6.695579
20
-50
30
0
210
0
220
0
230
1
1
\W01.000;\fsimplex.shx,bigfont.shx;301 
40
4.5
41
0
44
1.084337
50
0
71
7
72
5
7
DEFAULT
0
LINE
5
31B
100
AcDbEntity
8
SK2
62
256
6
ByLayer
370
-1
48
1
60
0
100
AcDbLine
10
159.914
20
-28.375
30
0
11
159.914
21
-54.125
31
0
39
0
210
0
220
0
230
1
0
LINE
5
31C
100
AcDbEntity
8
SK2
62
256
6
ByLayer
370
-1
48
1
60
0
100
AcDbLine
10
-141.336
20
-1.5
30
0
11
-141.336
21
-54.125
31
0
39
0
210
0
220
0
230
1
0
LINE
5
31D
100
AcDbEntity
8
SK2
62
256
6
ByLayer
370
-1
48
1
60
0
100
AcDbLine
10
159.914
20
-51.125
30
0
11
-141.336
21
-51.125
31
0
39
0
210
0
220
0
230
1
0
LINE
5
31E
100
AcDbEntity
8
SK2
62
256
6
ByLayer
370
-1
48
1
60
0
100
AcDbLine
10
159.914
20
-51.125
30
0
11
156.914001
21
-51.519957
31
0
39
0
210
0
220
0
230
1
0
LINE
5
31F
100
AcDbEntity
8
SK2
62
256
6
ByLayer
370
-1
48
1
60
0
100
AcDbLine
10
159.914
20
-51.125
30
0
11
156.913999
21
-50.730043
31
0
39
0
210
0
220
0
230
1
0
LINE
5
320
100
AcDbEntity
8
SK2
62
256
6
ByLayer
370
-1
48
1
60
0
100
AcDbLine
10
156.914001
20
-51.519957
30
0
11
156.913999
21
-50.730043
31
0
39
0
210
0
220
0
230
1
0
LINE
5
321
100
AcDbEntity
8
SK2
62
256
6
ByLayer
370
-1
48
1
60
0
100
AcDbLine
10
-141.336
20
-51.125
30
0
11
-138.336001
21
-50.730043
31
0
39
0
210
0
220
0
230
1
0
LINE
5
322
100
AcDbEntity
8
SK2
62
256
6
ByLayer
370
-1
48
1
60
0
100
AcDbLine
10
-141.336
20
-51.125
30
0
11
-138.335999
21
-51.519957
31
0
39
0
210
0
220
0
230
1
0
LINE
5
323
100
AcDbEntity
8
SK2
62
256
6
ByLayer
370
-1
48
1
60
0
100
AcDbLine
10
-138.336001
20
-50.730043
30
0
11
-138.335999
21
-51.519957
31
0
39
0
210
0
220
0
230
1
0
ENDBLK
5
325
100
AcDbEntity
8
0
100
AcDbBlockEnd
0
BLOCK
5
332
100
AcDbEntity
8
0
100
AcDbBlockBegin
2
DimnDraft3D3
70
0
10
0
20
0
30
0
3
DimnDraft3D3
0
MTEXT
5
328
100
AcDbEntity
8
2
62
256
6
ByLayer
370
-1
48
1
60
0
100
AcDbMText
10
173.039
20
-14.941447
30
0
210
0
220
0
230
1
1
\W01.000;\fsimplex.shx,bigfont.shx;27 
40
4.5
41
0
44
1.084337
50
90
71
7
72
5
7
DEFAULT
0
LINE
5
329
100
AcDbEntity
8
2
62
256
6
ByLayer
370
-1
48
1
60
0
100
AcDbLine
10
166.414
20
0
30
0
11
177.164
21
0
31
0
39
0
210
0
220
0
230
1
0
LINE
5
32A
100
AcDbEntity
8
2
62
256
6
ByLayer
370
-1
48
1
60
0
100
AcDbLine
10
161.414
20
-26.875
30
0
11
177.164
21
-26.875
31
0
39
0
210
0
220
0
230
1
0
LINE
5
32B
100
AcDbEntity
8
2
62
256
6
ByLayer
370
-1
48
1
60
0
100
AcDbLine
10
174.164
20
0
30
0
11
174.164
21
-26.875
31
0
39
0
210
0
220
0
230
1
0
LINE
5
32C
100
AcDbEntity
8
2
62
256
6
ByLayer
370
-1
48
1
60
0
100
AcDbLine
10
174.164
20
0
30
0
11
174.558957
21
-2.999999
31
0
39
0
210
0
220
0
230
1
0
LINE
5
32D
100
AcDbEntity
8
2
62
256
6
ByLayer
370
-1
48
1
60
0
100
AcDbLine
10
174.164
20
0
30
0
11
173.769043
21
-3.000001
31
0
39
0
210
0
220
0
230
1
0
LINE
5
32E
100
AcDbEntity
8
2
62
256
6
ByLayer
370
-1
48
1
60
0
100
AcDbLine
10
174.558957
20
-2.999999
30
0
11
173.769043
21
-3.000001
31
0
39
0
210
0
220
0
230
1
0
LINE
5
32F
100
AcDbEntity
8
2
62
256
6
ByLayer
370
-1
48
1
60
0
100
AcDbLine
10
174.164
20
-26.875
30
0
11
173.769043
21
-23.875001
31
0
39
0
210
0
220
0
230
1
0
LINE
5
330
100
AcDbEntity
8
2
62
256
6
ByLayer
370
-1
48
1
60
0
100
AcDbLine
10
174.164
20
-26.875
30
0
11
174.558957
21
-23.874999
31
0
39
0
210
0
220
0
230
1
0
LINE
5
331
100
AcDbEntity
8
2
62
256
6
ByLayer
370
-1
48
1
60
0
100
AcDbLine
10
173.769043
20
-23.875001
30
0
11
174.558957
21
-23.874999
31
0
39
0
210
0
220
0
230
1
0
ENDBLK
5
333
100
AcDbEntity
8
0
100
AcDbBlockEnd
0
BLOCK
5
340
100
AcDbEntity
8
0
100
AcDbBlockBegin
2
DimnDraft3D4
70
0
10
0
20
0
30
0
3
DimnDraft3D4
0
MTEXT
5
336
100
AcDbEntity
8
SK2
62
256
6
ByLayer
370
-1
48
1
60
0
100
AcDbMText
10
-152.211
20
-3.896053
30
0
210
0
220
0
230
1
1
\W01.000;\fsimplex.shx,bigfont.shx;%%c40 
40
4.5
41
0
44
1.084337
50
90
71
7
72
5
7
DEFAULT
0
LINE
5
337
100
AcDbEntity
8
SK2
62
256
6
ByLayer
370
-1
48
1
60
0
100
AcDbLine
10
-142.836
20
-19.98925
30
0
11
-154.086
21
-19.98925
31
0
39
0
210
0
220
0
230
1
0
LINE
5
338
100
AcDbEntity
8
SK2
62
256
6
ByLayer
370
-1
48
1
60
0
100
AcDbLine
10
-142.836
20
19.98925
30
0
11
-154.086
21
19.98925
31
0
39
0
210
0
220
0
230
1
0
LINE
5
339
100
AcDbEntity
8
SK2
62
256
6
ByLayer
370
-1
48
1
60
0
100
AcDbLine
10
-151.086
20
-19.98925
30
0
11
-151.086
21
19.98925
31
0
39
0
210
0
220
0
230
1
0
LINE
5
33A
100
AcDbEntity
8
SK2
62
256
6
ByLayer
370
-1
48
1
60
0
100
AcDbLine
10
-151.086
20
-19.98925
30
0
11
-151.480957
21
-16.989251
31
0
39
0
210
0
220
0
230
1
0
LINE
5
33B
100
AcDbEntity
8
SK2
62
256
6
ByLayer
370
-1
48
1
60
0
100
AcDbLine
10
-151.086
20
-19.98925
30
0
11
-150.691043
21
-16.989249
31
0
39
0
210
0
220
0
230
1
0
LINE
5
33C
100
AcDbEntity
8
SK2
62
256
6
ByLayer
370
-1
48
1
60
0
100
AcDbLine
10
-151.480957
20
-16.989251
30
0
11
-150.691043
21
-16.989249
31
0
39
0
210
0
220
0
230
1
0
LINE
5
33D
100
AcDbEntity
8
SK2
62
256
6
ByLayer
370
-1
48
1
60
0
100
AcDbLine
10
-151.086
20
19.98925
30
0
11
-150.691043
21
16.989251
31
0
39
0
210
0
220
0
230
1
0
LINE
5
33E
100
AcDbEntity
8
SK2
62
256
6
ByLayer
370
-1
48
1
60
0
100
AcDbLine
10
-151.086
20
19.98925
30
0
11
-151.480957
21
16.989249
31
0
39
0
210
0
220
0
230
1
0
LINE
5
33F
100
AcDbEntity
8
SK2
62
256
6
ByLayer
370
-1
48
1
60
0
100
AcDbLine
10
-150.691043
20
16.989251
30
0
11
-151.480957
21
16.989249
31
0
39
0
210
0
220
0
230
1
0
ENDBLK
5
341
100
AcDbEntity
8
0
100
AcDbBlockEnd
0
ENDSEC
0
SECTION
2
ENTITIES
0
ARC
5
15E
100
AcDbEntity
8
1
62
256
6
ByLayer
370
-1
48
1
60
0
100
AcDbCircle
39
0
10
154.179386
20
-6.161852
30
0
40
5.97633063734988
210
0
220
0
230
1
100
AcDbArc
50
20.568234
51
32.597381
0
ARC
5
15F
100
AcDbEntity
8
1
62
256
6
ByLayer
370
-1
48
1
60
0
100
AcDbCircle
39
0
10
154.179386
20
-6.161852
30
0
40
5.97633063734988
210
0
220
0
230
1
100
AcDbArc
50
338.308555
51
338.82463
0
ARC
5
160
100
AcDbEntity
8
1
62
256
6
ByLayer
370
-1
48
1
60
0
100
AcDbCircle
39
0
10
-121.895886
20
20.475
30
0
40
0.799999999999999
210
0
220
0
230
-1
100
AcDbArc
50
270
51
300
0
ARC
5
161
100
AcDbEntity
8
1
62
256
6
ByLayer
370
-1
48
1
60
0
100
AcDbCircle
39
0
10
-134.913153
20
-20.475
30
0
40
0.8
210
0
220
0
230
-1
100
AcDbArc
50
90
51
140
0
ARC
5
162
100
AcDbEntity
8
1
62
256
6
ByLayer
370
-1
48
1
60
0
100
AcDbCircle
39
0
10
-134.913153
20
20.475
30
0
40
0.8
210
0
220
0
230
-1
100
AcDbArc
50
260.931278
51
270
0
ELLIPSE
5
163
100
AcDbEntity
8
1
62
256
6
ByLayer
370
-1
48
1
60
0
100
AcDbEllipse
10
143.779938
20
-14.746242
30
0
11
-2.01743155678874
21
-0.131421880008337
31
0
210
0
220
0
230
1
40
0.965789
41
-2.41447814359778
42
-0.47879638071945
0
ELLIPSE
5
164
100
AcDbEntity
8
1
62
256
6
ByLayer
370
-1
48
1
60
0
100
AcDbEllipse
10
143.175752
20
-25.35884
30
0
11
-2.01463944172171
21
9.59997119983336
31
0
210
0
220
0
230
1
40
0.161916
41
-0.719081586122358
42
-0.333598209868166
0
ELLIPSE
5
165
100
AcDbEntity
8
1
62
256
6
ByLayer
370
-1
48
1
60
0
100
AcDbEllipse
10
143.859227
20
-13.962841
30
0
11
-2.74429158007635
21
-0.177098061881121
31
0
210
0
220
0
230
1
40
0.965791
41
0.997958148048615
42
1.44138434209983
0
ELLIPSE
5
166
100
AcDbEntity
8
1
62
256
6
ByLayer
370
-1
48
1
60
0
100
AcDbEllipse
10
157.00812
20
-7.362968
30
0
11
-2.86372375400389
21
-1.39436802374581
31
0
210
0
220
0
230
1
40
0.135136
41
-1.15902849500097
42
-0.794968493075131
0
ELLIPSE
5
167
100
AcDbEntity
8
1
62
256
6
ByLayer
370
-1
48
1
60
0
100
AcDbEllipse
10
142.393791
20
-13.241653
30
0
11
-2.0956408429674
21
-0.135238519981947
31
0
210
0
220
0
230
1
40
0.965791
41
0.71520091945938
42
1.50855145881803
0
ELLIPSE
5
168
100
AcDbEntity
8
1
62
256
6
ByLayer
370
-1
48
1
60
0
100
AcDbEllipse
10
142.393791
20
-13.241653
30
0
11
-2.0956408429674
21
-0.135238519981947
31
0
210
0
220
0
230
1
40
0.965791
41
1.50855098256558
42
1.91391449442553
0
ELLIPSE
5
169
100
AcDbEntity
8
1
62
256
6
ByLayer
370
-1
48
1
60
0
100
AcDbEllipse
10
143.798605
20
-13.023459
30
0
11
-2.9182910460632
21
-0.18832681338054
31
0
210
0
220
0
230
1
40
0.965791
41
0.887451145561665
42
1.3256859259484
0
ELLIPSE
5
16A
100
AcDbEntity
8
1
62
256
6
ByLayer
370
-1
48
1
60
0
100
AcDbEllipse
10
154.209129
20
0
30
0
11
-23.5439433365629
21
-16.8812206828312
31
0
210
0
220
0
230
1
40
0.430064
41
-1.55702863908208
42
-1.37926848859215
0
ELLIPSE
5
16B
100
AcDbEntity
8
1
62
256
6
ByLayer
370
-1
48
1
60
0
100
AcDbEllipse
10
154.209129
20
0
30
0
11
-23.5319829980241
21
-16.8726450103082
31
0
210
0
220
0
230
1
40
0.430064
41
-0.683176489415255
42
0.371278308374989
0
ELLIPSE
5
16C
100
AcDbEntity
8
1
62
256
6
ByLayer
370
-1
48
1
60
0
100
AcDbEllipse
10
148.089302
20
-12.376041
30
0
11
-2.86372375137959
21
-1.3943680227861
31
0
210
0
220
0
230
1
40
0.135136
41
-1.52308849765096
42
-1.15902849548681
0
ELLIPSE
5
16D
100
AcDbEntity
8
1
62
256
6
ByLayer
370
-1
48
1
60
0
100
AcDbEllipse
10
138.56399
20
-12.188897
30
0
11
-1.5430567658919
21
-1.35040345545445
31
0
210
0
220
0
230
1
40
0.694577
41
-3.1307448130248
42
0.864762688453113
0
ELLIPSE
5
16E
100
AcDbEntity
8
1
62
256
6
ByLayer
370
-1
48
1
60
0
100
AcDbEllipse
10
142.398801
20
-13.319288
30
0
11
2.09564084296737
21
0.135238519981947
31
0
210
0
220
0
230
1
40
0.965791
41
-1.77724258172547
42
-1.22772364803414
0
ELLIPSE
5
16F
100
AcDbEntity
8
1
62
256
6
ByLayer
370
-1
48
1
60
0
100
AcDbEllipse
10
142.565095
20
-15.896166
30
0
11
-2.09555834388447
21
-0.136511306424073
31
0
210
0
220
0
230
1
40
0.965789
41
-1.32679060812612
42
1.56451927756967
0
ELLIPSE
5
170
100
AcDbEntity
8
1
62
256
6
ByLayer
370
-1
48
1
60
0
100
AcDbEllipse
10
200.736969
20
-6.408529
30
0
11
-61.7714717205752
21
-0.788848470623923
31
0
210
0
220
0
230
1
40
0.067231
41
0.827665170002806
42
0.829088656998292
0
ELLIPSE
5
171
100
AcDbEntity
8
1
62
256
6
ByLayer
370
-1
48
1
60
0
100
AcDbEllipse
10
142.459422
20
-14.25867
30
0
11
2.09564084296737
21
0.135238519981947
31
0
210
0
220
0
230
1
40
0.965791
41
-1.96197017029467
42
-1.60632901256735
0
ELLIPSE
5
172
100
AcDbEntity
8
1
62
256
6
ByLayer
370
-1
48
1
60
0
100
AcDbEllipse
10
153.548672
20
-16.029794
30
0
11
3.56743855977145
21
0.232394324921811
31
0
210
0
220
0
230
1
40
0.965789
41
1.50796445533222
42
3.14159265199918
0
ELLIPSE
5
173
100
AcDbEntity
8
1
62
256
6
ByLayer
370
-1
48
1
60
0
100
AcDbEllipse
10
153.548672
20
-16.029794
30
0
11
3.56743855977145
21
0.232394324921811
31
0
210
0
220
0
230
1
40
0.965789
41
0
42
1.50796445840502
0
ELLIPSE
5
174
100
AcDbEntity
8
1
62
256
6
ByLayer
370
-1
48
1
60
0
100
AcDbEllipse
10
154.955225
20
-15.119672
30
0
11
-0.329302020901979
21
-0.0214517838389392
31
0
210
0
220
0
230
1
40
0.965789
41
2.27948774064032
42
2.43080906131454
0
ELLIPSE
5
175
100
AcDbEntity
8
1
62
256
6
ByLayer
370
-1
48
1
60
0
100
AcDbEllipse
10
152.128632
20
-16.73289
30
0
11
-0.329302020901979
21
-0.0214517838389392
31
0
210
0
220
0
230
1
40
0.965789
41
0.668496510570152
42
1.76955942090254
0
ELLIPSE
5
176
100
AcDbEntity
8
1
62
256
6
ByLayer
370
-1
48
1
60
0
100
AcDbEllipse
10
154.955225
20
-16.720555
30
0
11
-0.329302020901979
21
-0.0214517838389392
31
0
210
0
220
0
230
1
40
0.965789
41
1.24636976589271
42
2.5316913863705
0
ELLIPSE
5
177
100
AcDbEntity
8
1
62
256
6
ByLayer
370
-1
48
1
60
0
100
AcDbEllipse
10
153.541928
20
-15.926281
30
0
11
1.41300503514304
21
0.0920476542907088
31
0
210
0
220
0
230
1
40
0.965789
41
-0.170910165329213
42
-0.0452488351008706
0
ELLIPSE
5
178
100
AcDbEntity
8
1
62
256
6
ByLayer
370
-1
48
1
60
0
100
AcDbEllipse
10
153.541928
20
-15.926281
30
0
11
-1.41300503514304
21
-0.0920476542907211
31
0
210
0
220
0
230
1
40
0.965789
41
-1.87864282902302
42
-1.43595812099174
0
ELLIPSE
5
179
100
AcDbEntity
8
1
62
256
6
ByLayer
370
-1
48
1
60
0
100
AcDbEllipse
10
153.541928
20
-15.926281
30
0
11
-1.41300503514304
21
-0.0920476542907211
31
0
210
0
220
0
230
1
40
0.965789
41
-3.09634595505507
42
-2.63476761154224
0
ELLIPSE
5
17A
100
AcDbEntity
8
1
62
256
6
ByLayer
370
-1
48
1
60
0
100
AcDbEllipse
10
153.541928
20
-15.926281
30
0
11
-1.41300503514304
21
-0.0920476542907211
31
0
210
0
220
0
230
1
40
0.965789
41
0.266324125398078
42
0.987694353595827
0
ELLIPSE
5
17B
100
AcDbEntity
8
1
62
256
6
ByLayer
370
-1
48
1
60
0
100
AcDbEllipse
10
153.541928
20
-15.926281
30
0
11
1.41300503514304
21
0.0920476542907088
31
0
210
0
220
0
230
1
40
0.965789
41
2.51487648792437
42
2.97068248826057
0
ELLIPSE
5
17C
100
AcDbEntity
8
1
62
256
6
ByLayer
370
-1
48
1
60
0
100
AcDbEllipse
10
158.449431
20
-6.184476
30
0
11
-0.0221201605147681
21
-4.17494140060658
31
0
210
0
220
0
230
1
40
0.05338
41
-1.5811164133926
42
-1.38771217541822
0
ELLIPSE
5
17D
100
AcDbEntity
8
1
62
256
6
ByLayer
370
-1
48
1
60
0
100
AcDbEllipse
10
159.747559
20
-6.191354
30
0
11
-0.0113912203848505
21
-2.14996982306684
31
0
210
0
220
0
230
1
40
0.05338
41
0
42
1.57107895180017
0
ELLIPSE
5
17E
100
AcDbEntity
8
1
62
256
6
ByLayer
370
-1
48
1
60
0
100
AcDbEllipse
10
159.747559
20
-6.191354
30
0
11
-0.0113912203848505
21
-2.14996982306684
31
0
210
0
220
0
230
1
40
0.05338
41
1.57107914946868
42
-1.09790028680779
0
ELLIPSE
5
17F
100
AcDbEntity
8
1
62
256
6
ByLayer
370
-1
48
1
60
0
100
AcDbEllipse
10
159.747559
20
-6.191354
30
0
11
0.0104295894546879
21
1.96847237056146
31
0
210
0
220
0
230
1
40
0.05338
41
2.93840992361046
42
-2.37439939979969
0
ELLIPSE
5
180
100
AcDbEntity
8
1
62
256
6
ByLayer
370
-1
48
1
60
0
100
AcDbEllipse
10
159.747559
20
-6.191354
30
0
11
0.0104295894546879
21
1.96847237056146
31
0
210
0
220
0
230
1
40
0.05338
41
1.8143908049868
42
2.10866977759693
0
ELLIPSE
5
181
100
AcDbEntity
8
1
62
256
6
ByLayer
370
-1
48
1
60
0
100
AcDbEllipse
10
159.479016
20
-7.248162
30
0
11
-0.179619284128352
21
-0.0117009730030577
31
0
210
0
220
0
230
1
40
0.965789
41
3.14157579533118
42
-2.68082561138885
0
ELLIPSE
5
182
100
AcDbEntity
8
1
62
256
6
ByLayer
370
-1
48
1
60
0
100
AcDbEllipse
10
153.558698
20
-16.183702
30
0
11
4.29766409115084
21
0.279963544843137
31
0
210
0
220
0
230
1
40
0.965789
41
-0.112368281331552
42
1.50573063487913
0
ELLIPSE
5
183
100
AcDbEntity
8
1
62
256
6
ByLayer
370
-1
48
1
60
0
100
AcDbEllipse
10
143.613876
20
-13.758569
30
0
11
-0.179619284128352
21
-0.0117009730030577
31
0
210
0
220
0
230
1
40
0.965789
41
-0.586430508995758
42
-1.24127542703388E-05
0
ELLIPSE
5
184
100
AcDbEntity
8
1
62
256
6
ByLayer
370
-1
48
1
60
0
100
AcDbEllipse
10
159.570306
20
-11.129419
30
0
11
0.249471227956045
21
0.0162513513931336
31
0
210
0
220
0
230
1
40
0.965789
41
1.31917307461279E-06
42
0.460767042201058
0
ELLIPSE
5
185
100
AcDbEntity
8
1
62
256
6
ByLayer
370
-1
48
1
60
0
100
AcDbEllipse
10
144.507793
20
-17.422819
30
0
11
-0.833221102859258
21
6.7780238306221
31
0
210
0
220
0
230
1
40
0.134752
41
0.815538972880972
42
0.958757458254433
0
ELLIPSE
5
186
100
AcDbEntity
8
1
62
256
6
ByLayer
370
-1
48
1
60
0
100
AcDbEllipse
10
149.327482
20
-20.939506
30
0
11
0.599999999999999
21
0
31
0
210
0
220
0
230
1
40
0.258819
41
-1.55642255054293
42
-1.06489851047465
0
ELLIPSE
5
187
100
AcDbEntity
8
1
62
256
6
ByLayer
370
-1
48
1
60
0
100
AcDbEllipse
10
144.20189
20
-14.763857
30
0
11
-0.997924210936855
21
-0.0643992952294985
31
0
210
0
220
0
230
1
40
0.965791
41
-0.0622451290076201
42
2.21689888852932E-05
0
ELLIPSE
5
188
100
AcDbEntity
8
1
62
256
6
ByLayer
370
-1
48
1
60
0
100
AcDbEllipse
10
144.271107
20
-13.755166
30
0
11
-0.9984640699016
21
-0.0554504829254954
31
0
210
0
220
0
230
1
40
0.965823
41
-0.197321500404688
42
-0.0535864120262874
0
ELLIPSE
5
189
100
AcDbEntity
8
1
62
256
6
ByLayer
370
-1
48
1
60
0
100
AcDbEllipse
10
144.271107
20
-15.836447
30
0
11
-0.99846414929485
21
-0.0554503604567652
31
0
210
0
220
0
230
1
40
0.965823
41
-0.0535862877553106
42
1.51721003904056
0
ELLIPSE
5
18A
100
AcDbEntity
8
1
62
256
6
ByLayer
370
-1
48
1
60
0
100
AcDbEllipse
10
148.327897
20
-20.961623
30
0
11
0.15
21
0
31
0
210
0
220
0
230
1
40
0.258819
41
0.58160578314985
42
2.5887344229435
0
ELLIPSE
5
18B
100
AcDbEntity
8
1
62
256
6
ByLayer
370
-1
48
1
60
0
100
AcDbEllipse
10
150.959979
20
-20.513735
30
0
11
3
21
0
31
0
210
0
220
0
230
1
40
0.258819
41
-2.55998687043973
42
-2.38545394524029
0
ELLIPSE
5
18C
100
AcDbEntity
8
1
62
256
6
ByLayer
370
-1
48
1
60
0
100
AcDbEllipse
10
149.214001
20
-20.939928
30
0
11
0.599999999999999
21
0
31
0
210
0
220
0
230
1
40
0.258819
41
-2.38545394524031
42
-1.55642255054302
0
ELLIPSE
5
18D
100
AcDbEntity
8
1
62
256
6
ByLayer
370
-1
48
1
60
0
100
AcDbEllipse
10
147.670765
20
-20.36365
30
0
11
-0.599078489577131
21
-0.0332702162807331
31
0
210
0
220
0
230
1
40
0.965823
41
-0.053586287765977
42
1.51721003902891
0
ELLIPSE
5
18E
100
AcDbEntity
8
1
62
256
6
ByLayer
370
-1
48
1
60
0
100
AcDbEllipse
10
145.959674
20
-13.151745
30
0
11
0.27940777531077
21
0.0182015135603097
31
0
210
0
220
0
230
1
40
0.965789
41
-1.61848771655716
42
-0.586430508995562
0
ELLIPSE
5
18F
100
AcDbEntity
8
1
62
256
6
ByLayer
370
-1
48
1
60
0
100
AcDbEllipse
10
143.684957
20
-13.639321
30
0
11
-0.179619284128352
21
-0.0117009730030577
31
0
210
0
220
0
230
1
40
0.965789
41
-1.61848771655713
42
-0.586430508995449
0
ELLIPSE
5
190
100
AcDbEntity
8
1
62
256
6
ByLayer
370
-1
48
1
60
0
100
AcDbEllipse
10
146.40794
20
-13.849417
30
0
11
-0.258780387422911
21
-0.114436926641687
31
0
210
0
220
0
230
1
40
0.908072
41
2.23387201349967
42
-3.10576497507043
0
ELLIPSE
5
191
100
AcDbEntity
8
1
62
256
6
ByLayer
370
-1
48
1
60
0
100
AcDbEllipse
10
146.044808
20
-14.45862
30
0
11
-0.258780387434274
21
-0.114436926633853
31
0
210
0
220
0
230
1
40
0.908072
41
1.2018148059953
42
2.23387201352931
0
ELLIPSE
5
192
100
AcDbEntity
8
1
62
256
6
ByLayer
370
-1
48
1
60
0
100
AcDbEllipse
10
143.777874
20
-15.06567
30
0
11
-0.166358820490495
21
-0.073566595698933
31
0
210
0
220
0
230
1
40
0.908072
41
-1.93977784763458
42
-0.907720640098983
0
ELLIPSE
5
193
100
AcDbEntity
8
1
62
256
6
ByLayer
370
-1
48
1
60
0
100
AcDbEllipse
10
143.706793
20
-15.184917
30
0
11
-0.166358820509231
21
-0.0735665956792957
31
0
210
0
220
0
230
1
40
0.908072
41
-0.907720639920766
42
0.124336567599654
0
ELLIPSE
5
194
100
AcDbEntity
8
1
62
256
6
ByLayer
370
-1
48
1
60
0
100
AcDbEllipse
10
150.119116
20
-11.009993
30
0
11
-0.864006716718068
21
-0.493338541126777
31
0
210
0
220
0
230
1
40
0.117329
41
-1.5181579091695
42
-1.36615656428166
0
ELLIPSE
5
195
100
AcDbEntity
8
1
62
256
6
ByLayer
370
-1
48
1
60
0
100
AcDbEllipse
10
146.72673
20
-13.509661
30
0
11
0.149682736773628
21
0.00975081083588026
31
0
210
0
220
0
230
1
40
0.965789
41
2.55516214459386
42
-2.78447484397473
0
ELLIPSE
5
196
100
AcDbEntity
8
1
62
256
6
ByLayer
370
-1
48
1
60
0
100
AcDbEllipse
10
144.750077
20
-15.098298
30
0
11
-1.065041624228
21
-0.093112296023956
31
0
210
0
220
0
230
1
40
0.283884
41
-0.201913854328199
42
0.141795648290876
0
ELLIPSE
5
197
100
AcDbEntity
8
1
62
256
6
ByLayer
370
-1
48
1
60
0
100
AcDbEllipse
10
144.279687
20
-15.88744
30
0
11
-0.51619864451322
21
0.836897355836586
31
0
210
0
220
0
230
1
40
0.335597
41
-0.170497865128156
42
0.173211637385392
0
ELLIPSE
5
198
100
AcDbEntity
8
1
62
256
6
ByLayer
370
-1
48
1
60
0
100
AcDbEllipse
10
153.569623
20
-16.351408
30
0
11
-4.54751380776243
21
-0.296239552194393
31
0
210
0
220
0
230
1
40
0.965789
41
-1.01049832003023
42
0.396142662677315
0
ELLIPSE
5
199
100
AcDbEntity
8
1
62
256
6
ByLayer
370
-1
48
1
60
0
100
AcDbEllipse
10
153.568373
20
-16.332228
30
0
11
4.45112552696292
21
0.289960512185264
31
0
210
0
220
0
230
1
40
0.965789
41
2.13109433355958
42
-2.74544999091249
0
ELLIPSE
5
19A
100
AcDbEntity
8
1
62
256
6
ByLayer
370
-1
48
1
60
0
100
AcDbEllipse
10
152.890494
20
-15.605145
30
0
11
-4.13294892800647
21
-1.69160886070559
31
0
210
0
220
0
230
1
40
0.774057
41
0.377254654248626
42
0.53175476878491
0
ELLIPSE
5
19B
100
AcDbEntity
8
1
62
256
6
ByLayer
370
-1
48
1
60
0
100
AcDbEllipse
10
148.14834
20
-14.231549
30
0
11
0.189498421256491
21
-0.0782006927162252
31
0
210
0
220
0
230
1
40
0.234319
41
0.761546811930118
42
1.68534667150383
0
ELLIPSE
5
19C
100
AcDbEntity
8
1
62
256
6
ByLayer
370
-1
48
1
60
0
100
AcDbEllipse
10
150.908854
20
-12.762567
30
0
11
0.0547579975359994
21
-0.0836753351104583
31
0
210
0
220
0
230
1
40
0.55269
41
0.0453385113548769
42
1.19631940404451
0
ELLIPSE
5
19D
100
AcDbEntity
8
1
62
256
6
ByLayer
370
-1
48
1
60
0
100
AcDbEllipse
10
150.088987
20
-18.6605
30
0
11
0.000551485817536908
21
-0.0999984793054027
31
0
210
0
220
0
230
1
40
0.607562
41
0.889068455515187
42
1.80967421593337
0
ELLIPSE
5
19E
100
AcDbEntity
8
1
62
256
6
ByLayer
370
-1
48
1
60
0
100
AcDbEllipse
10
150.908854
20
-12.762567
30
0
11
-0.0958560929374886
21
-0.0284887600074056
31
0
210
0
220
0
230
1
40
0.253281
41
1.51319995526294
42
2.21133165606124
0
ELLIPSE
5
19F
100
AcDbEntity
8
1
62
256
6
ByLayer
370
-1
48
1
60
0
100
AcDbEllipse
10
150.908854
20
-12.762567
30
0
11
0.0572702673836858
21
-0.0819763165420424
31
0
210
0
220
0
230
1
40
0.137818
41
-1.347141662894
42
-0.0381447239010828
0
ELLIPSE
5
1A0
100
AcDbEntity
8
1
62
256
6
ByLayer
370
-1
48
1
60
0
100
AcDbEllipse
10
149.944632
20
-18.622534
30
0
11
-0.050763271568303
21
-0.0861573575481673
31
0
210
0
220
0
230
1
40
0.763003
41
1.26671619433891
42
2.51341054349676
0
ELLIPSE
5
1A1
100
AcDbEntity
8
1
62
256
6
ByLayer
370
-1
48
1
60
0
100
AcDbEllipse
10
150.715585
20
-12.112277
30
0
11
0.0978077096975357
21
-0.0208243108822978
31
0
210
0
220
0
230
1
40
0.137251
41
0.899542811258711
42
2.39665373048537
0
ELLIPSE
5
1A2
100
AcDbEntity
8
1
62
256
6
ByLayer
370
-1
48
1
60
0
100
AcDbEllipse
10
150.715585
20
-12.112277
30
0
11
-0.0958560929374886
21
-0.0284887600074056
31
0
210
0
220
0
230
1
40
0.253281
41
1.51319995526294
42
2.21133165606124
0
ELLIPSE
5
1A3
100
AcDbEntity
8
1
62
256
6
ByLayer
370
-1
48
1
60
0
100
AcDbEllipse
10
149.482997
20
-18.293512
30
0
11
0.0889869578936351
21
0.0456215006859312
31
0
210
0
220
0
230
1
40
0.239247
41
-1.67403865761636
42
-0.365041718619498
0
ELLIPSE
5
1A4
100
AcDbEntity
8
1
62
256
6
ByLayer
370
-1
48
1
60
0
100
AcDbEllipse
10
149.482997
20
-18.293512
30
0
11
-0.0651215289258286
21
-0.0758893040577028
31
0
210
0
220
0
230
1
40
0.780226
41
1.40326756140895
42
2.55424845409696
0
ELLIPSE
5
1A5
100
AcDbEntity
8
1
62
256
6
ByLayer
370
-1
48
1
60
0
100
AcDbEllipse
10
150.715585
20
-12.112277
30
0
11
0.085897694909892
21
-0.0512014258509186
31
0
210
0
220
0
230
1
40
0.216002
41
-2.38321166708905
42
-1.42328114305129
0
ELLIPSE
5
1A6
100
AcDbEntity
8
1
62
256
6
ByLayer
370
-1
48
1
60
0
100
AcDbEllipse
10
149.482997
20
-18.293512
30
0
11
0.0708780682604581
21
-0.0705428907804737
31
0
210
0
220
0
230
1
40
0.174867
41
-1.37504757025767
42
-0.676915869459396
0
ELLIPSE
5
1A7
100
AcDbEntity
8
1
62
256
6
ByLayer
370
-1
48
1
60
0
100
AcDbEllipse
10
148.822863
20
-18.956782
30
0
11
0.0999993939957406
21
-0.000348138599753444
31
0
210
0
220
0
230
1
40
0.258763
41
-2.21539790335888
42
-1.55303667234301
0
ELLIPSE
5
1A8
100
AcDbEntity
8
1
62
256
6
ByLayer
370
-1
48
1
60
0
100
AcDbEllipse
10
148.822863
20
-18.956782
30
0
11
0.0708780682604581
21
-0.0705428907804737
31
0
210
0
220
0
230
1
40
0.174867
41
-1.37504757025915
42
-0.676915869460722
0
ELLIPSE
5
1A9
100
AcDbEntity
8
1
62
256
6
ByLayer
370
-1
48
1
60
0
100
AcDbEllipse
10
148.822863
20
-18.956782
30
0
11
0.0899600627285797
21
-0.0436713534696373
31
0
210
0
220
0
230
1
40
0.500954
41
-2.03955717236957
42
-0.793203073845123
0
ELLIPSE
5
1AA
100
AcDbEntity
8
1
62
256
6
ByLayer
370
-1
48
1
60
0
100
AcDbEllipse
10
151.088039
20
-19.588172
30
0
11
0.0979149386742302
21
0.020314152318562
31
0
210
0
220
0
230
1
40
0.345321
41
1.0541884886902
42
1.97479424910701
0
ELLIPSE
5
1AB
100
AcDbEntity
8
1
62
256
6
ByLayer
370
-1
48
1
60
0
100
AcDbEllipse
10
151.170792
20
-19.761087
30
0
11
0.0786977922275772
21
0.0616981158424234
31
0
210
0
220
0
230
1
40
0.469689
41
0.536821323432127
42
1.78351567259006
0
ELLIPSE
5
1AC
100
AcDbEntity
8
1
62
256
6
ByLayer
370
-1
48
1
60
0
100
AcDbEllipse
10
146.245883
20
-16.316473
30
0
11
0.399549493414206
21
0.256827183749018
31
0
210
0
220
0
230
1
40
0.895737
41
-1.58705851477454
42
-1.40190448775775
0
ELLIPSE
5
1AD
100
AcDbEntity
8
1
62
256
6
ByLayer
370
-1
48
1
60
0
100
AcDbEllipse
10
146.245883
20
-16.316473
30
0
11
0.399549493414206
21
0.256827183749018
31
0
210
0
220
0
230
1
40
0.895737
41
-0.725014990594928
42
-0.539860963578109
0
ELLIPSE
5
1AE
100
AcDbEntity
8
1
62
256
6
ByLayer
370
-1
48
1
60
0
100
AcDbEllipse
10
144.283235
20
-15.43717
30
0
11
-0.126714333577772
21
-0.304702277093462
31
0
210
0
220
0
230
1
40
0.542683
41
-2.13159296005064
42
-1.53017356373986
0
ELLIPSE
5
1AF
100
AcDbEntity
8
1
62
256
6
ByLayer
370
-1
48
1
60
0
100
AcDbEllipse
10
143.908192
20
-15.281203
30
0
11
-0.126714333577772
21
-0.304702277093462
31
0
210
0
220
0
230
1
40
0.542683
41
-2.13159296005054
42
-1.53017356373994
0
ELLIPSE
5
1B0
100
AcDbEntity
8
1
62
256
6
ByLayer
370
-1
48
1
60
0
100
AcDbEllipse
10
144.283235
20
-15.43717
30
0
11
-0.280790684040502
21
-0.173368370114237
31
0
210
0
220
0
230
1
40
0.444526
41
-1.5627253711059
42
-1.21365952070694
0
ELLIPSE
5
1B1
100
AcDbEntity
8
1
62
256
6
ByLayer
370
-1
48
1
60
0
100
AcDbEllipse
10
144.283235
20
-15.43717
30
0
11
0.0259338634078546
21
-0.328979383440274
31
0
210
0
220
0
230
1
40
0.228524
41
-2.32236450500772
42
-1.9732986546087
0
ELLIPSE
5
1B2
100
AcDbEntity
8
1
62
256
6
ByLayer
370
-1
48
1
60
0
100
AcDbEllipse
10
143.908192
20
-15.281203
30
0
11
-0.0700603995359115
21
0.322477193638354
31
0
210
0
220
0
230
1
40
0.487235
41
0.947015793608228
42
1.29072529624606
0
ELLIPSE
5
1B3
100
AcDbEntity
8
1
62
256
6
ByLayer
370
-1
48
1
60
0
100
AcDbEllipse
10
143.908192
20
-15.281203
30
0
11
0.281372755724307
21
0.172422076127478
31
0
210
0
220
0
230
1
40
0.693246
41
1.4089730929631
42
1.75268259560072
0
ELLIPSE
5
1B4
100
AcDbEntity
8
1
62
256
6
ByLayer
370
-1
48
1
60
0
100
AcDbEllipse
10
146.457431
20
-16.645581
30
0
11
0.999832204393133
21
-0.0183183803424029
31
0
210
0
220
0
230
1
40
0.381356
41
1.3256578834982
42
1.8205920098392
0
ELLIPSE
5
1B5
100
AcDbEntity
8
1
62
256
6
ByLayer
370
-1
48
1
60
0
100
AcDbEllipse
10
146.457431
20
-16.645581
30
0
11
-0.528408112215569
21
0.848990498736457
31
0
210
0
220
0
230
1
40
0.00723
41
1.11013798640371
42
1.6050721127406
0
ELLIPSE
5
1B6
100
AcDbEntity
8
1
62
256
6
ByLayer
370
-1
48
1
60
0
100
AcDbEllipse
10
146.509089
20
-13.826017
30
0
11
-0.583057170071366
21
-1.27541913789737
31
0
210
0
220
0
230
1
40
0.64451
41
0.344102230156904
42
0.839036356477197
0
ELLIPSE
5
1B7
100
AcDbEntity
8
1
62
256
6
ByLayer
370
-1
48
1
60
0
100
AcDbEllipse
10
146.436454
20
-13.605725
30
0
11
-0.265039761365729
21
-1.44723866120816
31
0
210
0
220
0
230
1
40
0.431256
41
0.114131128132804
42
0.667803726090291
0
ELLIPSE
5
1B8
100
AcDbEntity
8
1
62
256
6
ByLayer
370
-1
48
1
60
0
100
AcDbEllipse
10
143.86759
20
-18.257487
30
0
11
-1.24219702101446
21
-1.44122019200978
31
0
210
0
220
0
230
1
40
0.453474
41
2.50422054661317
42
2.99915467292032
0
ELLIPSE
5
1B9
100
AcDbEntity
8
1
62
256
6
ByLayer
370
-1
48
1
60
0
100
AcDbEllipse
10
143.697223
20
-18.201152
30
0
11
-1.3808328455628
21
-1.2510740182362
31
0
210
0
220
0
230
1
40
0.317264
41
2.52927139229309
42
3.08294399024909
0
ELLIPSE
5
1BA
100
AcDbEntity
8
1
62
256
6
ByLayer
370
-1
48
1
60
0
100
AcDbEllipse
10
146.316852
20
-15.276857
30
0
11
-0.0259338634078548
21
0.328979383440274
31
0
210
0
220
0
230
1
40
0.228524
41
0.819228148582069
42
1.1682939989811
0
ELLIPSE
5
1BB
100
AcDbEntity
8
1
62
256
6
ByLayer
370
-1
48
1
60
0
100
AcDbEllipse
10
145.269314
20
-17.034243
30
0
11
0.280790684040502
21
0.173368370114237
31
0
210
0
220
0
230
1
40
0.444526
41
1.57886728248372
42
1.92793313288276
0
ELLIPSE
5
1BC
100
AcDbEntity
8
1
62
256
6
ByLayer
370
-1
48
1
60
0
100
AcDbEllipse
10
159.266778
20
-10.429674
30
0
11
-0.149682736773628
21
-0.0097508108358816
31
0
210
0
220
0
230
1
40
0.965789
41
-2.68082561138883
42
-1.7372772927783
0
ELLIPSE
5
1BD
100
AcDbEntity
8
1
62
256
6
ByLayer
370
-1
48
1
60
0
100
AcDbEllipse
10
159.132978
20
-9.999223
30
0
11
0.27940777531077
21
0.0182015135603097
31
0
210
0
220
0
230
1
40
0.965789
41
-2.68082561138875
42
-1.73727729277844
0
ELLIPSE
5
1BE
100
AcDbEntity
8
1
62
256
6
ByLayer
370
-1
48
1
60
0
100
AcDbEllipse
10
154.572714
20
-21.537953
30
0
11
-0.0292331445442328
21
0.202904961151905
31
0
210
0
220
0
230
1
40
0.020928
41
-1.30928422556565
42
-0.385484366003565
0
ELLIPSE
5
1BF
100
AcDbEntity
8
1
62
256
6
ByLayer
370
-1
48
1
60
0
100
AcDbEllipse
10
151.693066
20
-20.345677
30
0
11
0.070074740876052
21
0.0713409468058434
31
0
210
0
220
0
230
1
40
0.488042
41
0.570471710089695
42
1.72145260277972
0
ELLIPSE
5
1C0
100
AcDbEntity
8
1
62
256
6
ByLayer
370
-1
48
1
60
0
100
AcDbEllipse
10
157.533044
20
-17.77469
30
0
11
0.09545464558378
21
0.0298062180840668
31
0
210
0
220
0
230
1
40
0.35045
41
1.28552064299786
42
2.206126403416
0
ELLIPSE
5
1C1
100
AcDbEntity
8
1
62
256
6
ByLayer
370
-1
48
1
60
0
100
AcDbEllipse
10
151.693066
20
-20.345677
30
0
11
0.0708780682604581
21
-0.0705428907804737
31
0
210
0
220
0
230
1
40
0.174867
41
-2.07317927105514
42
-1.37504757025795
0
ELLIPSE
5
1C2
100
AcDbEntity
8
1
62
256
6
ByLayer
370
-1
48
1
60
0
100
AcDbEllipse
10
151.693066
20
-20.345677
30
0
11
0.0396403037948459
21
0.0918076593485115
31
0
210
0
220
0
230
1
40
0.121338
41
-1.80379830520154
42
-0.494801366205004
0
ELLIPSE
5
1C3
100
AcDbEntity
8
1
62
256
6
ByLayer
370
-1
48
1
60
0
100
AcDbEllipse
10
157.54323
20
-17.968024
30
0
11
0.0985972254288735
21
-0.016690929804175
31
0
210
0
220
0
230
1
40
0.429396
41
1.47218115170396
42
2.71887550086213
0
ELLIPSE
5
1C4
100
AcDbEntity
8
1
62
256
6
ByLayer
370
-1
48
1
60
0
100
AcDbEllipse
10
151.205993
20
-20.835064
30
0
11
-0.0179120008964657
21
0.0983827231981562
31
0
210
0
220
0
230
1
40
0.4212
41
1.25790871730607
42
2.75501963653092
0
ELLIPSE
5
1C5
100
AcDbEntity
8
1
62
256
6
ByLayer
370
-1
48
1
60
0
100
AcDbEllipse
10
151.205993
20
-20.835064
30
0
11
0.0708780682604581
21
-0.0705428907804737
31
0
210
0
220
0
230
1
40
0.174867
41
-2.07317927105539
42
-1.37504757025767
0
ELLIPSE
5
1C6
100
AcDbEntity
8
1
62
256
6
ByLayer
370
-1
48
1
60
0
100
AcDbEllipse
10
157.358621
20
-18.751515
30
0
11
-0.0823717996792956
21
0.0566999701727787
31
0
210
0
220
0
230
1
40
0.206283
41
0.423113731739059
42
1.73211067073636
0
ELLIPSE
5
1C7
100
AcDbEntity
8
1
62
256
6
ByLayer
370
-1
48
1
60
0
100
AcDbEllipse
10
157.358621
20
-18.751515
30
0
11
0.0956639397167047
21
-0.0291274893850928
31
0
210
0
220
0
230
1
40
0.436783
41
1.52762042945587
42
2.67860132214453
0
ELLIPSE
5
1C8
100
AcDbEntity
8
1
62
256
6
ByLayer
370
-1
48
1
60
0
100
AcDbEllipse
10
151.205949
20
-20.834444
30
0
11
-0.000436584477036679
21
0.0999990469654307
31
0
210
0
220
0
230
1
40
0.016283
41
-2.79266553852187
42
-1.83263127995392
0
ELLIPSE
5
1C9
100
AcDbEntity
8
1
62
256
6
ByLayer
370
-1
48
1
60
0
100
AcDbEllipse
10
157.358621
20
-18.751515
30
0
11
0.0230153731571277
21
0.0973154283679529
31
0
210
0
220
0
230
1
40
0.078414
41
-1.82136525560609
42
-1.12323355481076
0
ELLIPSE
5
1CA
100
AcDbEntity
8
1
62
256
6
ByLayer
370
-1
48
1
60
0
100
AcDbEllipse
10
158.280693
20
-18.969587
30
0
11
-0.0487137874010317
21
0.0873325077908971
31
0
210
0
220
0
230
1
40
0.114526
41
1.80720546909257
42
2.46956670010872
0
ELLIPSE
5
1CB
100
AcDbEntity
8
1
62
256
6
ByLayer
370
-1
48
1
60
0
100
AcDbEllipse
10
158.280693
20
-18.969587
30
0
11
0.0230153731571277
21
0.0973154283679529
31
0
210
0
220
0
230
1
40
0.078414
41
-1.82136525560786
42
-1.12323355480446
0
ELLIPSE
5
1CC
100
AcDbEntity
8
1
62
256
6
ByLayer
370
-1
48
1
60
0
100
AcDbEllipse
10
158.280693
20
-18.969587
30
0
11
-0.019961588619441
21
0.0979874225591642
31
0
210
0
220
0
230
1
40
0.263837
41
-2.44553736421646
42
-1.19918326569166
0
ELLIPSE
5
1CD
100
AcDbEntity
8
1
62
256
6
ByLayer
370
-1
48
1
60
0
100
AcDbEllipse
10
157.869036
20
-16.471367
30
0
11
-0.0539255459961699
21
0.0842142237927476
31
0
210
0
220
0
230
1
40
0.688948
41
1.29116634538655
42
2.2117721058044
0
ELLIPSE
5
1CE
100
AcDbEntity
8
1
62
256
6
ByLayer
370
-1
48
1
60
0
100
AcDbEllipse
10
157.955601
20
-16.368424
30
0
11
-0.0927844659137603
21
0.0372966873207026
31
0
210
0
220
0
230
1
40
0.808002
41
0.491481623317547
42
1.73817597247573
0
ELLIPSE
5
1CF
100
AcDbEntity
8
1
62
256
6
ByLayer
370
-1
48
1
60
0
100
AcDbEllipse
10
157.400426
20
-22.050165
30
0
11
2.90827895344942E-17
21
0.474973683481517
31
0
210
0
220
0
230
1
40
0.999867
41
-0.519235180069304
42
-0.334081072646001
0
ELLIPSE
5
1D0
100
AcDbEntity
8
1
62
256
6
ByLayer
370
-1
48
1
60
0
100
AcDbEllipse
10
157.400426
20
-22.050165
30
0
11
2.90827895344942E-17
21
0.474973683481517
31
0
210
0
220
0
230
1
40
0.999867
41
0.342808422144809
42
0.527962367847773
0
ELLIPSE
5
1D1
100
AcDbEntity
8
1
62
256
6
ByLayer
370
-1
48
1
60
0
100
AcDbEllipse
10
157.41439
20
-24.469491
30
0
11
0.329991143274648
21
0.00241771799247005
31
0
210
0
220
0
230
1
40
0.178986
41
-1.88805753063029
42
-1.28663813431952
0
ELLIPSE
5
1D2
100
AcDbEntity
8
1
62
256
6
ByLayer
370
-1
48
1
60
0
100
AcDbEllipse
10
157.417876
20
-24.945253
30
0
11
0.329991143274648
21
0.00241771799247005
31
0
210
0
220
0
230
1
40
0.178986
41
-1.88805753063048
42
-1.28663813431971
0
ELLIPSE
5
1D3
100
AcDbEntity
8
1
62
256
6
ByLayer
370
-1
48
1
60
0
100
AcDbEllipse
10
157.41439
20
-24.469491
30
0
11
0.286515006649988
21
-0.163735002257787
31
0
210
0
220
0
230
1
40
0.008111
41
-1.58491693352996
42
-1.23585108313325
0
ELLIPSE
5
1D4
100
AcDbEntity
8
1
62
256
6
ByLayer
370
-1
48
1
60
0
100
AcDbEllipse
10
157.41439
20
-24.469491
30
0
11
0.285075263893947
21
0.166229040530819
31
0
210
0
220
0
230
1
40
0.008173
41
1.58488140975343
42
1.93394726015757
0
ELLIPSE
5
1D5
100
AcDbEntity
8
1
62
256
6
ByLayer
370
-1
48
1
60
0
100
AcDbEllipse
10
157.417876
20
-24.945253
30
0
11
-0.284336360926132
21
-0.167489802242657
31
0
210
0
220
0
230
1
40
0.292792
41
1.38421138453952
42
1.72792088717711
0
ELLIPSE
5
1D6
100
AcDbEntity
8
1
62
256
6
ByLayer
370
-1
48
1
60
0
100
AcDbEllipse
10
157.417876
20
-24.945253
30
0
11
-0.28724278594637
21
0.162454861182323
31
0
210
0
220
0
230
1
40
0.308322
41
1.38409824498981
42
1.72780774762708
0
ELLIPSE
5
1D7
100
AcDbEntity
8
1
62
256
6
ByLayer
370
-1
48
1
60
0
100
AcDbEllipse
10
157.414743
20
-22.049961
30
0
11
-0.503823808310172
21
0.863806442543603
31
0
210
0
220
0
230
1
40
0.014084
41
1.06768879073295
42
1.56262291707331
0
ELLIPSE
5
1D8
100
AcDbEntity
8
1
62
256
6
ByLayer
370
-1
48
1
60
0
100
AcDbEllipse
10
157.414743
20
-22.049961
30
0
11
-0.496266116573675
21
-0.868170456500844
31
0
210
0
220
0
230
1
40
0.01412
41
-2.05761858055914
42
-1.56268445421821
0
ELLIPSE
5
1D9
100
AcDbEntity
8
1
62
256
6
ByLayer
370
-1
48
1
60
0
100
AcDbEllipse
10
154.779899
20
-23.58676
30
0
11
-1.57184475922212
21
-0.9304098550298
31
0
210
0
220
0
230
1
40
0.547448
41
3.13800457779081
42
-2.65024660301126
0
ELLIPSE
5
1DA
100
AcDbEntity
8
1
62
256
6
ByLayer
370
-1
48
1
60
0
100
AcDbEllipse
10
154.677364
20
-23.643631
30
0
11
-1.57859169567555
21
-0.928086496290626
31
0
210
0
220
0
230
1
40
0.365866
41
3.14028082429636
42
-2.58923188494972
0
ELLIPSE
5
1DB
100
AcDbEntity
8
1
62
256
6
ByLayer
370
-1
48
1
60
0
100
AcDbEllipse
10
160.062898
20
-23.563706
30
0
11
-1.6158584940783
21
0.910589831358345
31
0
210
0
220
0
230
1
40
0.539126
41
-0.498171127595994
42
-0.00323700126918456
0
ELLIPSE
5
1DC
100
AcDbEntity
8
1
62
256
6
ByLayer
370
-1
48
1
60
0
100
AcDbEllipse
10
160.155826
20
-23.619724
30
0
11
-1.60927738873576
21
0.912731624621166
31
0
210
0
220
0
230
1
40
0.36213
41
-0.554849230547339
42
-0.00117663263131188
0
ELLIPSE
5
1DD
100
AcDbEntity
8
1
62
256
6
ByLayer
370
-1
48
1
60
0
100
AcDbEllipse
10
156.358934
20
-22.659432
30
0
11
-0.285075263893947
21
-0.166229040530819
31
0
210
0
220
0
230
1
40
0.008173
41
-1.55671124383627
42
-1.20764539343943
0
ELLIPSE
5
1DE
100
AcDbEntity
8
1
62
256
6
ByLayer
370
-1
48
1
60
0
100
AcDbEllipse
10
158.45401
20
-22.65029
30
0
11
-0.286515006649988
21
0.163735002257787
31
0
210
0
220
0
230
1
40
0.008111
41
1.55667572005975
42
1.90574157046137
0
ELLIPSE
5
1DF
100
AcDbEntity
8
1
62
256
6
ByLayer
370
-1
48
1
60
0
100
AcDbEllipse
10
152.147916
20
-9.933945
30
0
11
-0.265376290399705
21
-0.158404081855697
31
0
210
0
220
0
230
1
40
0.225571
41
-2.3838790215918
42
-1.68574732066855
0
ELLIPSE
5
1E0
100
AcDbEntity
8
1
62
256
6
ByLayer
370
-1
48
1
60
0
100
AcDbEllipse
10
151.367224
20
-10.372788
30
0
11
-0.265376290374911
21
-0.158404081862705
31
0
210
0
220
0
230
1
40
0.225571
41
-1.68574732095372
42
-0.987615619968481
0
ELLIPSE
5
1E1
100
AcDbEntity
8
1
62
256
6
ByLayer
370
-1
48
1
60
0
100
AcDbEllipse
10
151.063285
20
-10.479206
30
0
11
-0.117543477843776
21
-0.0792885167283443
31
0
210
0
220
0
230
1
40
0.171608
41
0.568942070796785
42
2.0660542590911
0
ELLIPSE
5
1E2
100
AcDbEntity
8
1
62
256
6
ByLayer
370
-1
48
1
60
0
100
AcDbEllipse
10
155.349137
20
-8.232896
30
0
11
-0.582417293160339
21
0.00825595439941883
31
0
210
0
220
0
230
1
40
0.221947
41
-1.81497676412786
42
-1.5531773762155
0
ELLIPSE
5
1E3
100
AcDbEntity
8
1
62
256
6
ByLayer
370
-1
48
1
60
0
100
AcDbEllipse
10
159.654729
20
-12.425392
30
0
11
-0.249471227956045
21
-0.0162513513931359
31
0
210
0
220
0
230
1
40
0.965789
41
3.07876092019254
42
-2.68082561138874
0
ELLIPSE
5
1E4
100
AcDbEntity
8
1
62
256
6
ByLayer
370
-1
48
1
60
0
100
AcDbEllipse
10
155.121492
20
-8.342764
30
0
11
-0.249471227956045
21
-0.0162513513931359
31
0
210
0
220
0
230
1
40
0.965789
41
-1.64876840382766
42
-1.11002928459413
0
ELLIPSE
5
1E5
100
AcDbEntity
8
1
62
256
6
ByLayer
370
-1
48
1
60
0
100
AcDbEllipse
10
159.407935
20
-7.129535
30
0
11
-0.179619284128352
21
-0.0117009730030577
31
0
210
0
220
0
230
1
40
0.965789
41
-2.68082561138877
42
-1.64876840382767
0
ELLIPSE
5
1E6
100
AcDbEntity
8
1
62
256
6
ByLayer
370
-1
48
1
60
0
100
AcDbEllipse
10
159.218112
20
-11.306098
30
0
11
-0.268102916054532
21
0.0925725610920415
31
0
210
0
220
0
230
1
40
0.911082
41
0.826132218276317
42
1.76968053689643
0
ELLIPSE
5
1E7
100
AcDbEntity
8
1
62
256
6
ByLayer
370
-1
48
1
60
0
100
AcDbEllipse
10
158.85498
20
-10.700065
30
0
11
-0.268102916041835
21
0.0925725611052969
31
0
210
0
220
0
230
1
40
0.911082
41
-0.205924989229262
42
0.826132218352087
0
ELLIPSE
5
1E8
100
AcDbEntity
8
1
62
256
6
ByLayer
370
-1
48
1
60
0
100
AcDbEllipse
10
159.571933
20
-8.67451
30
0
11
-0.172351874619793
21
0.0595109321206607
31
0
210
0
220
0
230
1
40
0.911082
41
2.93566766424663
42
-2.31546043539461
0
ELLIPSE
5
1E9
100
AcDbEntity
8
1
62
256
6
ByLayer
370
-1
48
1
60
0
100
AcDbEllipse
10
159.500852
20
-8.555883
30
0
11
-0.172351874605882
21
0.0595109321326445
31
0
210
0
220
0
230
1
40
0.911082
41
-2.31546043529973
42
-1.28340322772886
0
ELLIPSE
5
1EA
100
AcDbEntity
8
1
62
256
6
ByLayer
370
-1
48
1
60
0
100
AcDbEllipse
10
159.906245
20
-15.838285
30
0
11
-0.00111919765332789
21
0.97455478139627
31
0
210
0
220
0
230
1
40
0.008572
41
1.17582403122896
42
1.32782522371248
0
ELLIPSE
5
1EB
100
AcDbEntity
8
1
62
256
6
ByLayer
370
-1
48
1
60
0
100
AcDbEllipse
10
159.351202
20
-11.725647
30
0
11
0.149682736773628
21
0.00975081083588026
31
0
210
0
220
0
230
1
40
0.965789
41
0.460767042200944
42
1.40431536081111
0
ELLIPSE
5
1EC
100
AcDbEntity
8
1
62
256
6
ByLayer
370
-1
48
1
60
0
100
AcDbEllipse
10
158.990936
20
-9.382068
30
0
11
-0.525897331321185
21
-0.840574244728083
31
0
210
0
220
0
230
1
40
0.332731
41
2.97338126453147
42
-2.96609454027002
0
ELLIPSE
5
1ED
100
AcDbEntity
8
1
62
256
6
ByLayer
370
-1
48
1
60
0
100
AcDbEllipse
10
158.520546
20
-8.597031
30
0
11
-1.07340656151575
21
0.0824096345269322
31
0
210
0
220
0
230
1
40
0.282244
41
2.99526730022392
42
-2.94420850491866
0
ELLIPSE
5
1EE
100
AcDbEntity
8
1
62
256
6
ByLayer
370
-1
48
1
60
0
100
AcDbEllipse
10
153.569623
20
-16.351408
30
0
11
-4.54751380776243
21
-0.296239552194393
31
0
210
0
220
0
230
1
40
0.965789
41
-3.10489342242342
42
-1.69825243971588
0
ELLIPSE
5
1EF
100
AcDbEntity
8
1
62
256
6
ByLayer
370
-1
48
1
60
0
100
AcDbEllipse
10
153.568373
20
-16.332228
30
0
11
4.45112552696292
21
0.289960512185264
31
0
210
0
220
0
230
1
40
0.965789
41
0.0366992311663738
42
1.44334021387393
0
ELLIPSE
5
1F0
100
AcDbEntity
8
1
62
256
6
ByLayer
370
-1
48
1
60
0
100
AcDbEllipse
10
152.664792
20
-16.480648
30
0
11
-3.13488376772343
21
-3.80381730767363
31
0
210
0
220
0
230
1
40
0.79904
41
-2.09709288401504
42
-1.94259277030316
0
ELLIPSE
5
1F1
100
AcDbEntity
8
1
62
256
6
ByLayer
370
-1
48
1
60
0
100
AcDbEllipse
10
154.458414
20
-15.975963
30
0
11
-4.05844635115193
21
2.43156035387632
31
0
210
0
220
0
230
1
40
0.787277
41
-0.983178370981339
42
-0.828678257314369
0
ELLIPSE
5
1F2
100
AcDbEntity
8
1
62
256
6
ByLayer
370
-1
48
1
60
0
100
AcDbEllipse
10
153.556136
20
-16.144382
30
0
11
4.10006811551183
21
0.267091512824501
31
0
210
0
220
0
230
1
40
0.965789
41
1.89387637555854
42
-2.50823203291142
0
ELLIPSE
5
1F3
100
AcDbEntity
8
1
62
256
6
ByLayer
370
-1
48
1
60
0
100
AcDbEllipse
10
153.558698
20
-16.183702
30
0
11
4.29766409115084
21
0.279963544843137
31
0
210
0
220
0
230
1
40
0.965789
41
1.98202682106163
42
-2.59638247841456
0
ELLIPSE
5
1F4
100
AcDbEntity
8
1
62
256
6
ByLayer
370
-1
48
1
60
0
100
AcDbEllipse
10
157.93547
20
-12.481203
30
0
11
-0.158650194184105
21
-0.129827254016042
31
0
210
0
220
0
230
1
40
0.21339
41
-1.72221565606964
42
-0.798415796495645
0
ELLIPSE
5
1F5
100
AcDbEntity
8
1
62
256
6
ByLayer
370
-1
48
1
60
0
100
AcDbEllipse
10
158.101891
20
-15.868345
30
0
11
-0.0982881971808917
21
0.0184236341401515
31
0
210
0
220
0
230
1
40
0.813931
41
0.427327124544697
42
1.57830801723386
0
ELLIPSE
5
1F6
100
AcDbEntity
8
1
62
256
6
ByLayer
370
-1
48
1
60
0
100
AcDbEllipse
10
153.046053
20
-11.992974
30
0
11
-0.0639266674587902
21
0.0768985122587769
31
0
210
0
220
0
230
1
40
0.706584
41
1.47006217915483
42
2.39066793957227
0
ELLIPSE
5
1F7
100
AcDbEntity
8
1
62
256
6
ByLayer
370
-1
48
1
60
0
100
AcDbEllipse
10
158.101891
20
-15.868345
30
0
11
0.0230153731571277
21
0.0973154283679529
31
0
210
0
220
0
230
1
40
0.078414
41
-2.51949695640614
42
-1.82136525560609
0
ELLIPSE
5
1F8
100
AcDbEntity
8
1
62
256
6
ByLayer
370
-1
48
1
60
0
100
AcDbEllipse
10
158.101891
20
-15.868345
30
0
11
-0.0994695119347516
21
-0.0102866999306049
31
0
210
0
220
0
230
1
40
0.259156
41
0.251947546211837
42
1.56094448520798
0
ELLIPSE
5
1F9
100
AcDbEntity
8
1
62
256
6
ByLayer
370
-1
48
1
60
0
100
AcDbEllipse
10
153.186922
20
-11.940455
30
0
11
-0.00853973049229789
21
0.0996346977870607
31
0
210
0
220
0
230
1
40
0.669438
41
1.89553276833781
42
-3.14095818968381
0
ELLIPSE
5
1FA
100
AcDbEntity
8
1
62
256
6
ByLayer
370
-1
48
1
60
0
100
AcDbEllipse
10
158.782232
20
-16.029248
30
0
11
-0.0608646153200691
21
-0.0793441781225315
31
0
210
0
220
0
230
1
40
0.541944
41
0.763231835582851
42
2.26034275481008
0
ELLIPSE
5
1FB
100
AcDbEntity
8
1
62
256
6
ByLayer
370
-1
48
1
60
0
100
AcDbEllipse
10
158.782232
20
-16.029248
30
0
11
0.0230153731571277
21
0.0973154283679529
31
0
210
0
220
0
230
1
40
0.078414
41
-2.51949695639994
42
-1.82136525560609
0
ELLIPSE
5
1FC
100
AcDbEntity
8
1
62
256
6
ByLayer
370
-1
48
1
60
0
100
AcDbEllipse
10
153.862193
20
-11.931563
30
0
11
-0.00580564298290405
21
-0.0998313303004376
31
0
210
0
220
0
230
1
40
0.032964
41
0.0015028943662189
42
1.31049983336801
0
ELLIPSE
5
1FD
100
AcDbEntity
8
1
62
256
6
ByLayer
370
-1
48
1
60
0
100
AcDbEllipse
10
153.862193
20
-11.931563
30
0
11
0.00567656357083237
21
0.0998387531273618
31
0
210
0
220
0
230
1
40
0.637655
41
1.98866182668716
42
3.13964271937565
0
ELLIPSE
5
1FE
100
AcDbEntity
8
1
62
256
6
ByLayer
370
-1
48
1
60
0
100
AcDbEllipse
10
158.782232
20
-16.029248
30
0
11
-0.0857796381939009
21
-0.0513989656639457
31
0
210
0
220
0
230
1
40
0.232285
41
1.45196610424315
42
2.41189662828127
0
ELLIPSE
5
1FF
100
AcDbEntity
8
1
62
256
6
ByLayer
370
-1
48
1
60
0
100
AcDbEllipse
10
153.862193
20
-11.931563
30
0
11
-0.0958560929374886
21
-0.0284887600074056
31
0
210
0
220
0
230
1
40
0.253281
41
0.815068254466335
42
1.51319995526237
0
ELLIPSE
5
200
100
AcDbEntity
8
1
62
256
6
ByLayer
370
-1
48
1
60
0
100
AcDbEllipse
10
153.600255
20
-11.05022
30
0
11
-0.0487095877782353
21
-0.0873348501943777
31
0
210
0
220
0
230
1
40
0.144237
41
1.35124095550294
42
2.01360218651925
0
ELLIPSE
5
201
100
AcDbEntity
8
1
62
256
6
ByLayer
370
-1
48
1
60
0
100
AcDbEllipse
10
153.600255
20
-11.05022
30
0
11
-0.0958560929374886
21
-0.0284887600074056
31
0
210
0
220
0
230
1
40
0.253281
41
0.815068254465935
42
1.51319995526294
0
ELLIPSE
5
202
100
AcDbEntity
8
1
62
256
6
ByLayer
370
-1
48
1
60
0
100
AcDbEllipse
10
153.600255
20
-11.05022
30
0
11
-0.081226249290641
21
-0.0583292073165292
31
0
210
0
220
0
230
1
40
0.07169
41
-2.02998769594772
42
-0.783633597426642
0
ELLIPSE
5
203
100
AcDbEntity
8
1
62
256
6
ByLayer
370
-1
48
1
60
0
100
AcDbEllipse
10
151.71101
20
-12.368626
30
0
11
-0.0105665165218436
21
-0.099440176631951
31
0
210
0
220
0
230
1
40
0.630327
41
0.692580649783442
42
1.61318641020147
0
ELLIPSE
5
204
100
AcDbEntity
8
1
62
256
6
ByLayer
370
-1
48
1
60
0
100
AcDbEllipse
10
151.548392
20
-12.401502
30
0
11
0.0432175552695969
21
-0.0901789494090464
31
0
210
0
220
0
230
1
40
0.584145
41
0.0250799454968577
42
1.27177429465429
0
ELLIPSE
5
205
100
AcDbEntity
8
1
62
256
6
ByLayer
370
-1
48
1
60
0
100
AcDbEllipse
10
157.006586
20
-9.82834
30
0
11
0.415683519992529
21
-0.229798196700106
31
0
210
0
220
0
230
1
40
0.903036
41
-2.66572011399417
42
-2.48056608697736
0
ELLIPSE
5
206
100
AcDbEntity
8
1
62
256
6
ByLayer
370
-1
48
1
60
0
100
AcDbEllipse
10
157.006586
20
-9.82834
30
0
11
0.415683519992529
21
-0.229798196700106
31
0
210
0
220
0
230
1
40
0.903036
41
-1.80367658981459
42
-1.61852256279765
0
ELLIPSE
5
207
100
AcDbEntity
8
1
62
256
6
ByLayer
370
-1
48
1
60
0
100
AcDbEllipse
10
158.997187
20
-8.931786
30
0
11
-0.126989212138554
21
0.304587819849102
31
0
210
0
220
0
230
1
40
0.517188
41
-1.59665632219371
42
-0.995236925882839
0
ELLIPSE
5
208
100
AcDbEntity
8
1
62
256
6
ByLayer
370
-1
48
1
60
0
100
AcDbEllipse
10
159.379201
20
-8.772516
30
0
11
-0.126989212138554
21
0.304587819849102
31
0
210
0
220
0
230
1
40
0.517188
41
-1.59665632219388
42
-0.99523692588304
0
ELLIPSE
5
209
100
AcDbEntity
8
1
62
256
6
ByLayer
370
-1
48
1
60
0
100
AcDbEllipse
10
158.997187
20
-8.931786
30
0
11
0.0228891020462423
21
0.329205238426603
31
0
210
0
220
0
230
1
40
0.196789
41
-1.17075955002657
42
-0.821693699627937
0
ELLIPSE
5
20A
100
AcDbEntity
8
1
62
256
6
ByLayer
370
-1
48
1
60
0
100
AcDbEllipse
10
158.997187
20
-8.931786
30
0
11
-0.2799708470016
21
0.174689223563467
31
0
210
0
220
0
230
1
40
0.429075
41
-1.89717185571804
42
-1.54810600531932
0
ELLIPSE
5
20B
100
AcDbEntity
8
1
62
256
6
ByLayer
370
-1
48
1
60
0
100
AcDbEllipse
10
159.379201
20
-8.772516
30
0
11
0.278332210312974
21
-0.177288411077246
31
0
210
0
220
0
230
1
40
0.680704
41
1.42692072446891
42
1.77063022710639
0
ELLIPSE
5
20C
100
AcDbEntity
8
1
62
256
6
ByLayer
370
-1
48
1
60
0
100
AcDbEllipse
10
159.379201
20
-8.772516
30
0
11
-0.066076801149982
21
-0.32331695957649
31
0
210
0
220
0
230
1
40
0.459163
41
1.84324162674705
42
2.18695112938488
0
ELLIPSE
5
20D
100
AcDbEntity
8
1
62
256
6
ByLayer
370
-1
48
1
60
0
100
AcDbEllipse
10
156.823697
20
-10.159169
30
0
11
-0.521075299741963
21
-0.853510709949691
31
0
210
0
220
0
230
1
40
0.020494
41
-2.01436467948777
42
-1.51943055314568
0
ELLIPSE
5
20E
100
AcDbEntity
8
1
62
256
6
ByLayer
370
-1
48
1
60
0
100
AcDbEllipse
10
156.823697
20
-10.159169
30
0
11
0.999907495776651
21
0.0136014664528107
31
0
210
0
220
0
230
1
40
0.381837
41
1.35623106751354
42
1.85116519385445
0
ELLIPSE
5
20F
100
AcDbEntity
8
1
62
256
6
ByLayer
370
-1
48
1
60
0
100
AcDbEllipse
10
159.426848
20
-11.748414
30
0
11
-1.29043711991636
21
1.42217758518782
31
0
210
0
220
0
230
1
40
0.456317
41
0.128567379105525
42
0.623501505428326
0
ELLIPSE
5
210
100
AcDbEntity
8
1
62
256
6
ByLayer
370
-1
48
1
60
0
100
AcDbEllipse
10
159.587608
20
-11.690635
30
0
11
-1.41314667299949
21
1.2357510523427
31
0
210
0
220
0
230
1
40
0.318653
41
0.0516008018681556
42
0.605273399768449
0
ELLIPSE
5
211
100
AcDbEntity
8
1
62
256
6
ByLayer
370
-1
48
1
60
0
100
AcDbEllipse
10
156.785348
20
-7.339998
30
0
11
-0.527063859927286
21
1.27928803843087
31
0
210
0
220
0
230
1
40
0.668877
41
2.32648662405752
42
2.82142075038579
0
ELLIPSE
5
212
100
AcDbEntity
8
1
62
256
6
ByLayer
370
-1
48
1
60
0
100
AcDbEllipse
10
156.848377
20
-7.119114
30
0
11
-0.227220612849071
21
1.44656572760516
31
0
210
0
220
0
230
1
40
0.43949
41
2.48756828732358
42
3.0412408853284
0
ELLIPSE
5
213
100
AcDbEntity
8
1
62
256
6
ByLayer
370
-1
48
1
60
0
100
AcDbEllipse
10
157.995272
20
-10.537534
30
0
11
0.2799708470016
21
-0.174689223563467
31
0
210
0
220
0
230
1
40
0.429075
41
1.24442079787166
42
1.59348664827048
0
ELLIPSE
5
214
100
AcDbEntity
8
1
62
256
6
ByLayer
370
-1
48
1
60
0
100
AcDbEllipse
10
156.947734
20
-8.789291
30
0
11
-0.0228891020462422
21
-0.329205238426603
31
0
210
0
220
0
230
1
40
0.196789
41
1.97083310356359
42
2.31989895396186
0
ELLIPSE
5
215
100
AcDbEntity
8
1
62
256
6
ByLayer
370
-1
48
1
60
0
100
AcDbEllipse
10
148.625374
20
-20.573073
30
0
11
-0.265718234458489
21
0.157696200539785
31
0
210
0
220
0
230
1
40
0.209851
41
-1.42800592966508
42
-0.729874228815635
0
ELLIPSE
5
216
100
AcDbEntity
8
1
62
256
6
ByLayer
370
-1
48
1
60
0
100
AcDbEllipse
10
149.406066
20
-21.005103
30
0
11
-0.265718234364779
21
0.157696200502655
31
0
210
0
220
0
230
1
40
0.209851
41
-2.1261376304487
42
-1.42800592936804
0
ELLIPSE
5
217
100
AcDbEntity
8
1
62
256
6
ByLayer
370
-1
48
1
60
0
100
AcDbEllipse
10
149.701907
20
-21.108904
30
0
11
-0.118987856678158
21
0.0786309206427597
31
0
210
0
220
0
230
1
40
0.157713
41
1.09477489718421
42
2.59188708540986
0
ELLIPSE
5
218
100
AcDbEntity
8
1
62
256
6
ByLayer
370
-1
48
1
60
0
100
AcDbEllipse
10
145.562008
20
-18.655153
30
0
11
-0.279352524908345
21
0.506301921204536
31
0
210
0
220
0
230
1
40
0.097362
41
-1.36641652560469
42
-1.10461713586583
0
ELLIPSE
5
219
100
AcDbEntity
8
1
62
256
6
ByLayer
370
-1
48
1
60
0
100
AcDbEllipse
10
147.203439
20
-12.903105
30
0
11
-0.249471227956045
21
-0.0162513513931359
31
0
210
0
220
0
230
1
40
0.965789
41
-1.11002928459362
42
-0.586430508995457
0
ELLIPSE
5
21A
100
AcDbEntity
8
1
62
256
6
ByLayer
370
-1
48
1
60
0
100
AcDbEllipse
10
145.876813
20
-18.588605
30
0
11
-0.249471227956045
21
-0.0162513513931359
31
0
210
0
220
0
230
1
40
0.965789
41
0.445626698565804
42
0.984365817799658
0
ELLIPSE
5
21B
100
AcDbEntity
8
1
62
256
6
ByLayer
370
-1
48
1
60
0
100
AcDbEllipse
10
159.747559
20
-6.191354
30
0
11
0.0104295894546879
21
1.96847237056146
31
0
210
0
220
0
230
1
40
0.05338
41
-2.37439939979969
42
-1.32720184860286
0
ELLIPSE
5
21C
100
AcDbEntity
8
1
62
256
6
ByLayer
370
-1
48
1
60
0
100
AcDbEllipse
10
159.747559
20
-6.191354
30
0
11
0.0104295894546879
21
1.96847237056146
31
0
210
0
220
0
230
1
40
0.05338
41
-1.32720184860286
42
-0.280004297406108
0
ELLIPSE
5
21D
100
AcDbEntity
8
1
62
256
6
ByLayer
370
-1
48
1
60
0
100
AcDbEllipse
10
159.747559
20
-6.191354
30
0
11
0.0104295894546879
21
1.96847237056146
31
0
210
0
220
0
230
1
40
0.05338
41
-0.280004297406108
42
0.767193253790103
0
ELLIPSE
5
21E
100
AcDbEntity
8
1
62
256
6
ByLayer
370
-1
48
1
60
0
100
AcDbEllipse
10
159.747559
20
-6.191354
30
0
11
0.0104295894546879
21
1.96847237056146
31
0
210
0
220
0
230
1
40
0.05338
41
0.767193253790103
42
1.8143908049868
0
ELLIPSE
5
21F
100
AcDbEntity
8
1
62
256
6
ByLayer
370
-1
48
1
60
0
100
AcDbEllipse
10
153.541928
20
-15.926281
30
0
11
-1.41300503514304
21
-0.0920476542907211
31
0
210
0
220
0
230
1
40
0.965789
41
2.02823483319946
42
2.97068248826057
0
ELLIPSE
5
220
100
AcDbEntity
8
1
62
256
6
ByLayer
370
-1
48
1
60
0
100
AcDbEllipse
10
153.541928
20
-15.926281
30
0
11
-1.41300503514304
21
-0.0920476542907211
31
0
210
0
220
0
230
1
40
0.965789
41
0.987694353595827
42
2.02823483319946
0
ELLIPSE
5
221
100
AcDbEntity
8
1
62
256
6
ByLayer
370
-1
48
1
60
0
100
AcDbEllipse
10
151.322751
20
-15.935965
30
0
11
-0.824252937166772
21
-0.0536944650029205
31
0
210
0
220
0
230
1
40
0.965789
41
-3.01843716494194
42
-2.40515120743502
0
ELLIPSE
5
222
100
AcDbEntity
8
1
62
256
6
ByLayer
370
-1
48
1
60
0
100
AcDbEllipse
10
153.563524
20
-16.257785
30
0
11
1.41300503514304
21
0.0920476542907089
31
0
210
0
220
0
230
1
40
0.965789
41
2.97068248826056
42
-3.09634595505506
0
ELLIPSE
5
223
100
AcDbEntity
8
1
62
256
6
ByLayer
370
-1
48
1
60
0
100
AcDbEllipse
10
153.563524
20
-16.257785
30
0
11
1.41300503514304
21
0.0920476542907089
31
0
210
0
220
0
230
1
40
0.965789
41
-0.170910165329215
42
0.0452466985347499
0
ELLIPSE
5
224
100
AcDbEntity
8
1
62
256
6
ByLayer
370
-1
48
1
60
0
100
AcDbEllipse
10
153.568901
20
-16.340333
30
0
11
1.9643364489259
21
0.127963140869534
31
0
210
0
220
0
230
1
40
0.965789
41
1.50796459339765
42
2.54850507300131
0
ELLIPSE
5
225
100
AcDbEntity
8
1
62
256
6
ByLayer
370
-1
48
1
60
0
100
AcDbEllipse
10
153.568901
20
-16.340333
30
0
11
1.9643364489259
21
0.127963140869534
31
0
210
0
220
0
230
1
40
0.965789
41
2.54850507300131
42
-2.67416853979573
0
ELLIPSE
5
226
100
AcDbEntity
8
1
62
256
6
ByLayer
370
-1
48
1
60
0
100
AcDbEllipse
10
153.568901
20
-16.340333
30
0
11
1.9643364489259
21
0.127963140869534
31
0
210
0
220
0
230
1
40
0.965789
41
-2.67416853979573
42
-1.63362806019214
0
ELLIPSE
5
227
100
AcDbEntity
8
1
62
256
6
ByLayer
370
-1
48
1
60
0
100
AcDbEllipse
10
153.568901
20
-16.340333
30
0
11
1.9643364489259
21
0.127963140869534
31
0
210
0
220
0
230
1
40
0.965789
41
-1.63362806019214
42
-0.59308758058851
0
ELLIPSE
5
228
100
AcDbEntity
8
1
62
256
6
ByLayer
370
-1
48
1
60
0
100
AcDbEllipse
10
153.568901
20
-16.340333
30
0
11
1.9643364489259
21
0.127963140869534
31
0
210
0
220
0
230
1
40
0.965789
41
-0.59308758058851
42
0.46742411379406
0
ELLIPSE
5
229
100
AcDbEntity
8
1
62
256
6
ByLayer
370
-1
48
1
60
0
100
AcDbEllipse
10
153.568901
20
-16.340333
30
0
11
1.9643364489259
21
0.127963140869534
31
0
210
0
220
0
230
1
40
0.965789
41
0.46742411379406
42
1.50796459339768
0
ELLIPSE
5
22A
100
AcDbEntity
8
1
62
256
6
ByLayer
370
-1
48
1
60
0
100
AcDbEllipse
10
155.761106
20
-15.916597
30
0
11
-0.824252937166772
21
-0.0536944650029205
31
0
210
0
220
0
230
1
40
0.965789
41
-0.862104912949462
42
-0.248818955442386
0
ELLIPSE
5
22B
100
AcDbEntity
8
1
62
256
6
ByLayer
370
-1
48
1
60
0
100
AcDbEllipse
10
152.427556
20
-17.810207
30
0
11
-0.824252937166772
21
-0.0536944650029205
31
0
210
0
220
0
230
1
40
0.965789
41
-2.153898299994
42
-1.37203323268717
0
ELLIPSE
5
22C
100
AcDbEntity
8
1
62
256
6
ByLayer
370
-1
48
1
60
0
100
AcDbEllipse
10
152.427556
20
-17.810207
30
0
11
-0.824252937166772
21
-0.0536944650029205
31
0
210
0
220
0
230
1
40
0.965789
41
-2.93576336730081
42
-2.153898299994
0
ELLIPSE
5
22D
100
AcDbEntity
8
1
62
256
6
ByLayer
370
-1
48
1
60
0
100
AcDbEllipse
10
153.541928
20
-17.508951
30
0
11
-0.329302020901979
21
-0.0214517838389392
31
0
210
0
220
0
230
1
40
0.965789
41
0.205829286288972
42
2.81009990050635
0
ELLIPSE
5
22E
100
AcDbEntity
8
1
62
256
6
ByLayer
370
-1
48
1
60
0
100
AcDbEllipse
10
154.656301
20
-17.800482
30
0
11
-0.824252937166772
21
-0.0536944650029205
31
0
210
0
220
0
230
1
40
0.965789
41
-1.11335782039036
42
-0.331492753083408
0
ELLIPSE
5
22F
100
AcDbEntity
8
1
62
256
6
ByLayer
370
-1
48
1
60
0
100
AcDbEllipse
10
154.656301
20
-17.800482
30
0
11
-0.824252937166772
21
-0.0536944650029205
31
0
210
0
220
0
230
1
40
0.965789
41
-1.89522288769719
42
-1.11335782039036
0
ELLIPSE
5
230
100
AcDbEntity
8
1
62
256
6
ByLayer
370
-1
48
1
60
0
100
AcDbEllipse
10
153.560898
20
-16.217478
30
0
11
3.56743855977144
21
0.232394324921811
31
0
210
0
220
0
230
1
40
0.965789
41
0
42
6.28318530717959
0
ELLIPSE
5
231
100
AcDbEntity
8
1
62
256
6
ByLayer
370
-1
48
1
60
0
100
AcDbEllipse
10
153.568901
20
-16.340333
30
0
11
2.39492378837803
21
0.156012973374083
31
0
210
0
220
0
230
1
40
0.965789
41
0
42
6.28318530717959
0
ELLIPSE
5
232
100
AcDbEntity
8
1
62
256
6
ByLayer
370
-1
48
1
60
0
100
AcDbEllipse
10
153.551736
20
-16.076836
30
0
11
-3.88256335396387
21
-0.252922558999452
31
0
210
0
220
0
230
1
40
0.965789
41
0
42
6.28318530717959
0
ELLIPSE
5
233
100
AcDbEntity
8
1
62
256
6
ByLayer
370
-1
48
1
60
0
100
AcDbEllipse
10
155.042867
20
-23.285468
30
0
11
-0.00126245045709588
21
0.289874581261491
31
0
210
0
220
0
230
1
40
0.965798
41
8.31080300546424E-06
42
0.943556629407364
0
ELLIPSE
5
234
100
AcDbEntity
8
1
62
256
6
ByLayer
370
-1
48
1
60
0
100
AcDbEllipse
10
155.769131
20
-23.282299
30
0
11
-0.00126245038251824
21
0.289874581266147
31
0
210
0
220
0
230
1
40
0.965798
41
-1.032048896495
42
8.31105063687704E-06
0
ELLIPSE
5
235
100
AcDbEntity
8
1
62
256
6
ByLayer
370
-1
48
1
60
0
100
AcDbEllipse
10
157.342461
20
-25.059223
30
0
11
-0.000811575321606978
21
0.186347945089589
31
0
210
0
220
0
230
1
40
0.965798
41
2.10954375667262
42
-3.14158434293073
0
ELLIPSE
5
236
100
AcDbEntity
8
1
62
256
6
ByLayer
370
-1
48
1
60
0
100
AcDbEllipse
10
157.484623
20
-25.058603
30
0
11
-0.000811575188473808
21
0.186347945081301
31
0
210
0
220
0
230
1
40
0.965798
41
-3.14158434224333
42
-2.10952713463813
0
ELLIPSE
5
237
100
AcDbEntity
8
1
62
256
6
ByLayer
370
-1
48
1
60
0
100
AcDbEllipse
10
150.646082
20
-21.63145
30
0
11
-0.864291975831425
21
0.487203834748152
31
0
210
0
220
0
230
1
40
0.109716
41
-1.76109310674118
42
-1.60909175458311
0
ELLIPSE
5
238
100
AcDbEntity
8
1
62
256
6
ByLayer
370
-1
48
1
60
0
100
AcDbEllipse
10
154.588857
20
-23.172968
30
0
11
0.149682736773628
21
0.00975081083588026
31
0
210
0
220
0
230
1
40
0.965789
41
-1.63362806019237
42
-0.690079741581741
0
ELLIPSE
5
239
100
AcDbEntity
8
1
62
256
6
ByLayer
370
-1
48
1
60
0
100
AcDbEllipse
10
156.939101
20
-24.132469
30
0
11
-0.55291262049614
21
0.948244982752359
31
0
210
0
220
0
230
1
40
0.300607
41
2.96977594527019
42
-2.96969985925228
0
ELLIPSE
5
23A
100
AcDbEntity
8
1
62
256
6
ByLayer
370
-1
48
1
60
0
100
AcDbEllipse
10
157.879881
20
-24.128363
30
0
11
-0.544617036449919
21
-0.953034313445957
31
0
210
0
220
0
230
1
40
0.300606
41
-0.171892603146575
42
0.171816899621031
0
ELLIPSE
5
23B
100
AcDbEntity
8
1
62
256
6
ByLayer
370
-1
48
1
60
0
100
AcDbEllipse
10
153.569623
20
-16.351408
30
0
11
-4.54751380776243
21
-0.296239552194393
31
0
210
0
220
0
230
1
40
0.965789
41
1.08389678236298
42
2.49053776507051
0
ELLIPSE
5
23C
100
AcDbEntity
8
1
62
256
6
ByLayer
370
-1
48
1
60
0
100
AcDbEllipse
10
153.568373
20
-16.332228
30
0
11
4.45112552696292
21
0.289960512185264
31
0
210
0
220
0
230
1
40
0.965789
41
-2.05769587122683
42
-0.651054888519291
0
ELLIPSE
5
23D
100
AcDbEntity
8
1
62
256
6
ByLayer
370
-1
48
1
60
0
100
AcDbEllipse
10
154.232713
20
-16.851466
30
0
11
-2.43799138258819
21
4.53481699133755
31
0
210
0
220
0
230
1
40
0.8148
41
1.78038710680022
42
1.9348872205861
0
ELLIPSE
5
23E
100
AcDbEntity
8
1
62
256
6
ByLayer
370
-1
48
1
60
0
100
AcDbEllipse
10
153.787305
20
-15.352802
30
0
11
-4.33849570835815
21
0.296375921408728
31
0
210
0
220
0
230
1
40
0.768938
41
2.8968909953117
42
3.05139110992819
0
ELLIPSE
5
23F
100
AcDbEntity
8
1
62
256
6
ByLayer
370
-1
48
1
60
0
100
AcDbEllipse
10
153.335902
20
-17.103809
30
0
11
-0.604154177409387
21
-5.19685807554526
31
0
210
0
220
0
230
1
40
0.821814
41
1.35309761416783
42
1.5075977274008
0
ELLIPSE
5
240
100
AcDbEntity
8
1
62
256
6
ByLayer
370
-1
48
1
60
0
100
AcDbEllipse
10
153.556136
20
-16.144382
30
0
11
4.10006811551183
21
0.267091512824501
31
0
210
0
220
0
230
1
40
0.965789
41
-2.29491382922786
42
-0.413836930518247
0
ELLIPSE
5
241
100
AcDbEntity
8
1
62
256
6
ByLayer
370
-1
48
1
60
0
100
AcDbEllipse
10
153.556136
20
-16.144382
30
0
11
4.10006811551183
21
0.267091512824501
31
0
210
0
220
0
230
1
40
0.965789
41
-0.200518726834669
42
1.68055817187496
0
ELLIPSE
5
242
100
AcDbEntity
8
1
62
256
6
ByLayer
370
-1
48
1
60
0
100
AcDbEllipse
10
153.558698
20
-16.183702
30
0
11
4.29766409115084
21
0.279963544843137
31
0
210
0
220
0
230
1
40
0.965789
41
-2.20676338372472
42
-0.50198737602136
0
ELLIPSE
5
243
100
AcDbEntity
8
1
62
256
6
ByLayer
370
-1
48
1
60
0
100
AcDbEllipse
10
159.647852
20
-21.160185
30
0
11
-0.249471227956045
21
-0.0162513513931359
31
0
210
0
220
0
230
1
40
0.965789
41
2.54002180095895
42
3.0787609201925
0
ELLIPSE
5
244
100
AcDbEntity
8
1
62
256
6
ByLayer
370
-1
48
1
60
0
100
AcDbEllipse
10
159.760298
20
-21.591678
30
0
11
-0.292057872285152
21
-0.499869033697186
31
0
210
0
220
0
230
1
40
0.127536
41
-1.75750885613638
42
-1.4957094653418
0
ELLIPSE
5
245
100
AcDbEntity
8
1
62
256
6
ByLayer
370
-1
48
1
60
0
100
AcDbEllipse
10
153.556136
20
-16.144382
30
0
11
4.00027962432942
21
0.260590972267248
31
0
210
0
220
0
230
1
40
0.965789
41
0
42
6.28318530717959
0
ELLIPSE
5
246
100
AcDbEntity
8
1
62
256
6
ByLayer
370
-1
48
1
60
0
100
AcDbEllipse
10
153.808621
20
-23.07978
30
0
11
-0.249471227956045
21
-0.0162513513931359
31
0
210
0
220
0
230
1
40
0.965789
41
0.984365817799252
42
1.50796459339757
0
ELLIPSE
5
247
100
AcDbEntity
8
1
62
256
6
ByLayer
370
-1
48
1
60
0
100
AcDbEllipse
10
159.910291
20
-17.28816
30
0
11
-0.00127271041222888
21
0.308574635355901
31
0
210
0
220
0
230
1
40
0.015862
41
0.618275159910443
42
1.31640686318329
0
ELLIPSE
5
248
100
AcDbEntity
8
1
62
256
6
ByLayer
370
-1
48
1
60
0
100
AcDbEllipse
10
159.906242
20
-16.891472
30
0
11
-0.000230712323352374
21
-0.125847657321769
31
0
210
0
220
0
230
1
40
0.01527
41
0.751563437982696
42
2.24867562552026
0
ELLIPSE
5
249
100
AcDbEntity
8
1
62
256
6
ByLayer
370
-1
48
1
60
0
100
AcDbEllipse
10
159.910291
20
-18.159032
30
0
11
-0.00127271043179107
21
0.308574635394597
31
0
210
0
220
0
230
1
40
0.015862
41
1.31640685854448
42
2.01453856250995
0
POINT
5
41
100
AcDbEntity
8
2
62
256
6
ByLayer
370
-1
48
1
60
0
100
AcDbPoint
10
159.914
20
26.875
30
0
39
0
210
0
220
0
230
1
50
360
0
POINT
5
43
100
AcDbEntity
8
1
62
256
6
ByLayer
370
-1
48
1
60
0
100
AcDbPoint
10
159.921672
20
26.992776
30
0
39
0
210
0
220
0
230
1
50
360
0
POINT
5
45
100
AcDbEntity
8
80
62
256
6
ByLayer
370
-1
48
1
60
0
100
AcDbPoint
10
0
20
0
30
0
39
0
210
0
220
0
230
1
50
360
0
POINT
5
47
100
AcDbEntity
8
81
62
256
6
ByLayer
370
-1
48
1
60
0
100
AcDbPoint
10
159.914
20
-26.875
30
0
39
0
210
0
220
0
230
1
50
360
0
SPLINE
5
24A
100
AcDbEntity
8
1
62
256
6
ByLayer
370
-1
48
1
60
0
100
AcDbSpline
70
4
71
3
72
8
73
4
40
0
40
0
40
0
40
0
40
1
40
1
40
1
40
1
41
1
10
135.7302870411
20
-20.1260713961624
30
0
41
1
10
136.281220031226
20
-20.8020254151073
30
0
41
1
10
136.834521157614
20
-21.4761774468841
30
0
41
1
10
137.389573681315
20
-22.1489720678214
30
0
0
SPLINE
5
24B
100
AcDbEntity
8
1
62
256
6
ByLayer
370
-1
48
1
60
0
100
AcDbSpline
70
4
71
3
72
8
73
4
40
0
40
0
40
0
40
0
40
1
40
1
40
1
40
1
41
1
10
121.137229970113
20
-17.51075
30
0
41
1
10
121.258022423247
20
-17.51075
30
0
41
1
10
121.377606402406
20
-17.51075
30
0
41
1
10
121.49588629492
20
-17.51075
30
0
0
SPLINE
5
24C
100
AcDbEntity
8
1
62
256
6
ByLayer
370
-1
48
1
60
0
100
AcDbSpline
70
4
71
3
72
10
73
6
40
0
40
0
40
0
40
0
40
0.5
40
0.5
40
1
40
1
40
1
40
1
41
1
10
121.495886294921
20
7.00604258659399
30
0
41
1
10
121.541691909129
20
6.9313703000835
30
0
41
1
10
121.594267847107
20
6.86001159917708
30
0
41
1
10
121.725593623002
20
6.74253200928078
30
0
41
1
10
121.808480548739
20
6.69743421020371
30
0
41
1
10
121.895886292869
20
6.69743421020354
30
0
0
SPLINE
5
24D
100
AcDbEntity
8
1
62
256
6
ByLayer
370
-1
48
1
60
0
100
AcDbSpline
70
4
71
3
72
8
73
4
40
0
40
0
40
0
40
0
40
1
40
1
40
1
40
1
41
1
10
134.979371888737
20
-19.4120867083277
30
0
41
1
10
134.964241752889
20
-19.4210173422584
30
0
41
1
10
134.953363635279
20
-19.4305386628168
30
0
41
1
10
134.947510709829
20
-19.4401684749959
30
0
0
SPLINE
5
24E
100
AcDbEntity
8
1
62
256
6
ByLayer
370
-1
48
1
60
0
100
AcDbSpline
70
4
71
3
72
14
73
10
40
0
40
0
40
0
40
0
40
0.326983044796173
40
0.326983044796173
40
0.624081619986402
40
0.624081619986402
40
0.951782500123201
40
0.951782500123201
40
1
40
1
40
1
40
1
41
1
10
134.944436010943
20
-19.4659650685172
30
0
41
1
10
134.95248098635
20
-19.4860896823965
30
0
41
1
10
134.987842200868
20
-19.505019139782
30
0
41
1
10
135.095043851295
20
-19.5524182398141
30
0
41
1
10
135.163948822572
20
-19.5813446157211
30
0
41
1
10
135.320456934169
20
-19.6722385248316
30
0
41
1
10
135.411978780778
20
-19.7396732418101
30
0
41
1
10
135.50302429743
20
-19.8426002859087
30
0
41
1
10
135.514668718485
20
-19.8565452916789
30
0
41
1
10
135.525988907678
20
-19.8709683003935
30
0
0
SPLINE
5
24F
100
AcDbEntity
8
1
62
256
6
ByLayer
370
-1
48
1
60
0
100
AcDbSpline
70
4
71
3
72
8
73
4
40
0
40
0
40
0
40
0
40
1
40
1
40
1
40
1
41
1
10
140.096780966353
20
-10.8269464648124
30
0
41
1
10
140.081682871161
20
-10.8343543243869
30
0
41
1
10
140.06906827657
20
-10.8476373196096
30
0
41
1
10
140.058483938608
20
-10.8660124343647
30
0
0
SPLINE
5
250
100
AcDbEntity
8
1
62
256
6
ByLayer
370
-1
48
1
60
0
100
AcDbSpline
70
4
71
3
72
22
73
18
40
0
40
0
40
0
40
0
40
0.131486252072965
40
0.131486252072965
40
0.309825857174171
40
0.309825857174171
40
0.410937871512179
40
0.410937871512179
40
0.513821813717464
40
0.513821813717464
40
0.642912482480231
40
0.642912482480231
40
0.817649604505221
40
0.817649604505221
40
0.928315152441687
40
0.928315152441687
40
1
40
1
40
1
40
1
41
1
10
140.028524981682
20
-10.9520823096437
30
0
41
1
10
140.011029415503
20
-11.0325897878452
30
0
41
1
10
140.003839008191
20
-11.1458641243589
30
0
41
1
10
139.988700158029
20
-11.4515111026717
30
0
41
1
10
139.983372939522
20
-11.6636058925675
30
0
41
1
10
139.92574331307
20
-12.0119235758881
30
0
41
1
10
139.892961483233
20
-12.144419003132
30
0
41
1
10
139.781185008854
20
-12.3990200097017
30
0
41
1
10
139.697964296926
20
-12.5226509904833
30
0
41
1
10
139.476439830089
20
-12.7662238835341
30
0
41
1
10
139.329890454129
20
-12.8843838244084
30
0
41
1
10
138.9931049485
20
-13.1439370773545
30
0
41
1
10
138.796999784049
20
-13.2850085800872
30
0
41
1
10
138.531449546775
20
-13.5168446239485
30
0
41
1
10
138.439697587131
20
-13.608847498043
30
0
41
1
10
138.329529609173
20
-13.7603142467648
30
0
41
1
10
138.296147842465
20
-13.8208182701574
30
0
41
1
10
138.276553992561
20
-13.8806214022692
30
0
0
SPLINE
5
251
100
AcDbEntity
8
1
62
256
6
ByLayer
370
-1
48
1
60
0
100
AcDbSpline
70
4
71
3
72
12
73
8
40
0
40
0
40
0
40
0
40
0.349744209823226
40
0.349744209823226
40
0.74400470988774
40
0.74400470988774
40
1
40
1
40
1
40
1
41
1
10
121.49588629492
20
-17.51075
30
0
41
1
10
121.530901536131
20
-17.51075
30
0
41
1
10
121.569732920533
20
-17.51075
30
0
41
1
10
121.661120267691
20
-17.51075
30
0
41
1
10
121.716289462002
20
-17.51075
30
0
41
1
10
121.814124904651
20
-17.51075
30
0
41
1
10
121.855226682507
20
-17.51075
30
0
41
1
10
121.895886292869
20
-17.51075
30
0
0
SPLINE
5
252
100
AcDbEntity
8
1
62
256
6
ByLayer
370
-1
48
1
60
0
100
AcDbSpline
70
4
71
3
72
8
73
4
40
0
40
0
40
0
40
0
40
1
40
1
40
1
40
1
41
1
10
121.49588629492
20
-7.00604258659402
30
0
41
1
10
121.379351714307
20
-7.19601719434476
30
0
41
1
10
121.259717064297
20
-7.38429273455225
30
0
41
1
10
121.137229970194
20
-7.57100492421583
30
0
0
SPLINE
5
253
100
AcDbEntity
8
1
62
256
6
ByLayer
370
-1
48
1
60
0
100
AcDbSpline
70
4
71
3
72
8
73
4
40
0
40
0
40
0
40
0
40
1
40
1
40
1
40
1
41
1
10
121.137229970194
20
7.57100492421577
30
0
41
1
10
121.259445268996
20
7.38470704347381
30
0
41
1
10
121.379084653253
20
7.19645255712558
30
0
41
1
10
121.495886294921
20
7.00604258659396
30
0
0
SPLINE
5
254
100
AcDbEntity
8
1
62
256
6
ByLayer
370
-1
48
1
60
0
100
AcDbSpline
70
4
71
3
72
8
73
4
40
0
40
0
40
0
40
0
40
1
40
1
40
1
40
1
41
1
10
134.913153353183
20
-19.3947131921494
30
0
41
1
10
134.93575466459
20
-19.3996017284972
30
0
41
1
10
134.957819453565
20
-19.4054410175708
30
0
41
1
10
134.979371888736
20
-19.4120867083278
30
0
0
SPLINE
5
255
100
AcDbEntity
8
1
62
256
6
ByLayer
370
-1
48
1
60
0
100
AcDbSpline
70
4
71
3
72
8
73
4
40
0
40
0
40
0
40
0
40
1
40
1
40
1
40
1
41
1
10
137.091102607872
20
-21.8248427515827
30
0
41
1
10
137.181623281145
20
-21.9334261125361
30
0
41
1
10
137.281273363867
20
-22.0415229201905
30
0
41
1
10
137.389573681943
20
-22.1489720685999
30
0
0
SPLINE
5
256
100
AcDbEntity
8
1
62
256
6
ByLayer
370
-1
48
1
60
0
100
AcDbSpline
70
4
71
3
72
10
73
6
40
0
40
0
40
0
40
0
40
0.5
40
0.5
40
1
40
1
40
1
40
1
41
1
10
135.039248555312
20
6.72675441799385
30
0
41
1
10
135.019718694089
20
6.71763219940703
30
0
41
1
10
134.998928729892
20
6.7101392890589
30
0
41
1
10
134.956570673984
20
6.70006901547484
30
0
41
1
10
134.935049692194
20
6.69743421020317
30
0
41
1
10
134.913153353183
20
6.69743421020317
30
0
0
SPLINE
5
257
100
AcDbEntity
8
1
62
256
6
ByLayer
370
-1
48
1
60
0
100
AcDbSpline
70
4
71
3
72
8
73
4
40
0
40
0
40
0
40
0
40
1
40
1
40
1
40
1
41
1
10
142.097068817718
20
-15.3279837408785
30
0
41
1
10
142.242474985134
20
-15.6579490394937
30
0
41
1
10
142.381734530542
20
-15.9762964425544
30
0
41
1
10
142.515503729749
20
-16.2861485778836
30
0
0
SPLINE
5
258
100
AcDbEntity
8
1
62
256
6
ByLayer
370
-1
48
1
60
0
100
AcDbSpline
70
4
71
3
72
8
73
4
40
0
40
0
40
0
40
0
40
1
40
1
40
1
40
1
41
1
10
135.525988907678
20
-19.8709683003935
30
0
41
1
10
135.589828849733
20
-19.9523065205304
30
0
41
1
10
135.658960019789
20
-20.0385584180352
30
0
41
1
10
135.7302870411
20
-20.1260713961623
30
0
0
SPLINE
5
259
100
AcDbEntity
8
1
62
256
6
ByLayer
370
-1
48
1
60
0
100
AcDbSpline
70
4
71
3
72
14
73
10
40
0
40
0
40
0
40
0
40
0.159016419641652
40
0.159016419641652
40
0.387137756816085
40
0.387137756816085
40
0.768502935581398
40
0.768502935581398
40
1
40
1
40
1
40
1
41
1
10
121.895886292869
20
-6.69743421020331
30
0
41
1
10
121.8679745596
20
-6.69743421020331
30
0
41
1
10
121.839802037272
20
-6.7018939676411
30
0
41
1
10
121.774831055396
20
-6.72171754508634
30
0
41
1
10
121.738620452061
20
-6.74109297510086
30
0
41
1
10
121.651654545152
20
-6.80296666037984
30
0
41
1
10
121.605088393137
20
-6.85286176106905
30
0
41
1
10
121.539776487464
20
-6.93787540802947
30
0
41
1
10
121.517058279371
20
-6.97152802944601
30
0
41
1
10
121.495886294917
20
-7.00604258659212
30
0
0
SPLINE
5
25A
100
AcDbEntity
8
1
62
256
6
ByLayer
370
-1
48
1
60
0
100
AcDbSpline
70
4
71
3
72
12
73
8
40
0
40
0
40
0
40
0
40
0.223567502682357
40
0.223567502682357
40
0.662745605049162
40
0.662745605049162
40
1
40
1
40
1
40
1
41
1
10
159.76401596204
20
-4.26331066976468
30
0
41
1
10
159.766630934245
20
-4.26331085637929
30
0
41
1
10
159.768971921335
20
-4.26404463437851
30
0
41
1
10
159.775283850163
20
-4.26803058310935
30
0
41
1
10
159.778654955548
20
-4.27306735664254
30
0
41
1
10
159.78350357079
20
-4.28545847865024
30
0
41
1
10
159.785239498626
20
-4.29202653605859
30
0
41
1
10
159.786621688097
20
-4.29969873081367
30
0
0
SPLINE
5
25B
100
AcDbEntity
8
1
62
256
6
ByLayer
370
-1
48
1
60
0
100
AcDbSpline
70
4
71
3
72
10
73
6
40
0
40
0
40
0
40
0
40
0.642808717243244
40
0.642808717243244
40
1
40
1
40
1
40
1
41
1
10
159.684741488958
20
-5.34396124459917
30
0
41
1
10
159.692924813554
20
-5.34395716590774
30
0
41
1
10
159.70146964204
20
-5.34238054828253
30
0
41
1
10
159.715132362388
20
-5.33667227670696
30
0
41
1
10
159.720158044001
20
-5.33392795608415
30
0
41
1
10
159.725171563137
20
-5.33044163150382
30
0
0
SPLINE
5
25C
100
AcDbEntity
8
1
62
256
6
ByLayer
370
-1
48
1
60
0
100
AcDbSpline
70
4
71
3
72
12
73
8
40
0
40
0
40
0
40
0
40
0.271738474608448
40
0.271738474608448
40
0.723175444775589
40
0.723175444775589
40
1
40
1
40
1
40
1
41
1
10
159.732288962867
20
-6.22373178914785
30
0
41
1
10
159.722863639539
20
-6.22417728952649
30
0
41
1
10
159.713425992113
20
-6.22759873128379
30
0
41
1
10
159.689751140733
20
-6.2419116810317
30
0
41
1
10
159.675962715169
20
-6.25630205446595
30
0
41
1
10
159.65608263157
20
-6.28354718271518
30
0
41
1
10
159.648965747138
20
-6.29501347690473
30
0
41
1
10
159.642335599411
20
-6.30721797423894
30
0
0
SPLINE
5
25D
100
AcDbEntity
8
1
62
256
6
ByLayer
370
-1
48
1
60
0
100
AcDbSpline
70
4
71
3
72
12
73
8
40
0
40
0
40
0
40
0
40
0.127109530502348
40
0.127109530502348
40
0.796270839439244
40
0.796270839439244
40
1
40
1
40
1
40
1
41
1
10
159.649803940373
20
-7.00964907255931
30
0
41
1
10
159.652117411861
20
-7.01466254367531
30
0
41
1
10
159.654484992045
20
-7.01961272498565
30
0
41
1
10
159.669511035979
20
-7.04986457854602
30
0
41
1
10
159.683964043453
20
-7.07393198720135
30
0
41
1
10
159.704181595067
20
-7.09813322099765
30
0
41
1
10
159.70909042963
20
-7.10335250153705
30
0
41
1
10
159.714031939774
20
-7.10785471897904
30
0
0
SPLINE
5
25E
100
AcDbEntity
8
SK1
62
256
6
ByLayer
370
-1
48
1
60
0
100
AcDbSpline
70
4
71
3
72
8
73
4
40
0
40
0
40
0
40
0
40
1
40
1
40
1
40
1
41
1
10
-141.314489232022
20
-17.51075
30
0
41
1
10
-141.318179551448
20
-17.51075
30
0
41
1
10
-140.288134111385
20
-17.51075
30
0
41
1
10
-138.836
20
-17.51075
30
0
0
SPLINE
5
25F
100
AcDbEntity
8
1
62
256
6
ByLayer
370
-1
48
1
60
0
100
AcDbSpline
70
4
71
3
72
8
73
4
40
0
40
0
40
0
40
0
40
1
40
1
40
1
40
1
41
1
10
150.347025511477
20
-10.7716776771711
30
0
41
1
10
150.356707620765
20
-10.76834768671
30
0
41
1
10
150.366389728565
20
-10.765017697748
30
0
41
1
10
150.376071834889
20
-10.7616877102747
30
0
0
SPLINE
5
260
100
AcDbEntity
8
1
62
256
6
ByLayer
370
-1
48
1
60
0
100
AcDbSpline
70
4
71
3
72
16
73
12
40
0
40
0
40
0
40
0
40
0.164710736630211
40
0.164710736630211
40
0.331370362656699
40
0.331370362656699
40
0.476446336500474
40
0.476446336500474
40
0.702801041235903
40
0.702801041235903
40
1
40
1
40
1
40
1
41
1
10
145.05531872251
20
-17.4291780490584
30
0
41
1
10
145.06133228964
20
-17.4389177358695
30
0
41
1
10
145.068909369991
20
-17.4479045128881
30
0
41
1
10
145.087163823883
20
-17.4622603440855
30
0
41
1
10
145.09816264142
20
-17.4677191254974
30
0
41
1
10
145.12007862383
20
-17.4735497114139
30
0
41
1
10
145.131049211439
20
-17.4746000866685
30
0
41
1
10
145.158941797326
20
-17.4737626589494
30
0
41
1
10
145.176243711794
20
-17.4700116596077
30
0
41
1
10
145.214391752223
20
-17.4571552506451
30
0
41
1
10
145.235267190359
20
-17.446614857888
30
0
41
1
10
145.254818245169
20
-17.4344463636827
30
0
0
SPLINE
5
261
100
AcDbEntity
8
1
62
256
6
ByLayer
370
-1
48
1
60
0
100
AcDbSpline
70
4
71
3
72
16
73
12
40
0
40
0
40
0
40
0
40
0.343443954228583
40
0.343443954228583
40
0.535083245610786
40
0.535083245610786
40
0.693553557835223
40
0.693553557835223
40
0.853171508912882
40
0.853171508912882
40
1
40
1
40
1
40
1
41
1
10
146.731084667876
20
-14.957811394013
30
0
41
1
10
146.731533785435
20
-14.9332981897315
30
0
41
1
10
146.729017368955
20
-14.9085787390931
30
0
41
1
10
146.717441211525
20
-14.873096800315
30
0
41
1
10
146.711615785063
20
-14.8607789861655
30
0
41
1
10
146.697217753187
20
-14.8411420664117
30
0
41
1
10
146.689107383105
20
-14.8331768990498
30
0
41
1
10
146.670256562901
20
-14.8209738727962
30
0
41
1
10
146.659231094969
20
-14.8166453346351
30
0
41
1
10
146.63714950085
20
-14.8123580570769
30
0
41
1
10
146.625942441183
20
-14.8119802931786
30
0
41
1
10
146.614850244449
20
-14.8128547051615
30
0
0
SPLINE
5
262
100
AcDbEntity
8
1
62
256
6
ByLayer
370
-1
48
1
60
0
100
AcDbSpline
70
4
71
3
72
12
73
8
40
0
40
0
40
0
40
0
40
0.261466805566834
40
0.261466805566834
40
0.727154521522422
40
0.727154521522422
40
1
40
1
40
1
40
1
41
1
10
146.53981946319
20
-16.6261014966895
30
0
41
1
10
146.5607930124
20
-16.60759996594
30
0
41
1
10
146.580659717493
20
-16.5877980261921
30
0
41
1
10
146.630377984175
20
-16.5291404461576
30
0
41
1
10
146.656174762636
20
-16.486292902936
30
0
41
1
10
146.684019318366
20
-16.4155435823984
30
0
41
1
10
146.691786792351
20
-16.3885510774974
30
0
41
1
10
146.697498038262
20
-16.3615745339524
30
0
0
SPLINE
5
263
100
AcDbEntity
8
1
62
256
6
ByLayer
370
-1
48
1
60
0
100
AcDbSpline
70
4
71
3
72
14
73
10
40
0
40
0
40
0
40
0
40
0.25
40
0.25
40
0.500000000000001
40
0.500000000000001
40
0.75
40
0.75
40
1
40
1
40
1
40
1
41
1
10
150.717271102606
20
-12.1381556805177
30
0
41
1
10
150.401773701943
20
-12.6674475706672
30
0
41
1
10
150.086268443396
20
-13.1967351148809
30
0
41
1
10
149.455274511885
20
-14.2553193762455
30
0
41
1
10
149.092507415686
20
-14.7651303587807
30
0
41
1
10
148.776850745561
20
-15.9573377872831
30
0
41
1
10
148.835018391696
20
-16.5669273408236
30
0
41
1
10
148.829087930197
20
-17.7747793876759
30
0
41
1
10
148.826651164784
20
-18.3787163338221
30
0
41
1
10
148.824548590367
20
-18.9826601872798
30
0
0
SPLINE
5
264
100
AcDbEntity
8
1
62
256
6
ByLayer
370
-1
48
1
60
0
100
AcDbSpline
70
4
71
3
72
10
73
6
40
0
40
0
40
0
40
0
40
0.226375763220904
40
0.226375763220904
40
1
40
1
40
1
40
1
41
1
10
149.570016576425
20
-18.2584963830816
30
0
41
1
10
149.601569507638
20
-18.2850540770193
30
0
41
1
10
149.633767041702
20
-18.3110298227104
30
0
41
1
10
149.77865698807
20
-18.4230814800153
30
0
41
1
10
149.898152933552
20
-18.50295172986
30
0
41
1
10
150.024337550962
20
-18.575586134784
30
0
0
SPLINE
5
265
100
AcDbEntity
8
1
62
256
6
ByLayer
370
-1
48
1
60
0
100
AcDbSpline
70
4
71
3
72
8
73
4
40
0
40
0
40
0
40
0
40
1
40
1
40
1
40
1
41
1
10
150.850456962773
20
-11.7774867805055
30
0
41
1
10
150.826523459932
20
-11.8898971067889
30
0
41
1
10
150.802590006647
20
-12.0023074494055
30
0
41
1
10
150.778656632944
20
-12.1147178182503
30
0
0
SPLINE
5
266
100
AcDbEntity
8
1
62
256
6
ByLayer
370
-1
48
1
60
0
100
AcDbSpline
70
4
71
3
72
12
73
8
40
0
40
0
40
0
40
0
40
0.452209010901494
40
0.452209010901494
40
0.985658768919492
40
0.985658768919492
40
1
40
1
40
1
40
1
41
1
10
150.147887100789
20
-18.6365138079534
30
0
41
1
10
150.182100187747
20
-18.6440296921252
30
0
41
1
10
150.220054071171
20
-18.6531092266552
30
0
41
1
10
150.304620526328
20
-18.6748333971842
30
0
41
1
10
150.352458290783
20
-18.6880303382612
30
0
41
1
10
150.401414106152
20
-18.7025419696611
30
0
41
1
10
150.402695377106
20
-18.7029222144929
30
0
41
1
10
150.403976628831
20
-18.7033037013606
30
0
0
SPLINE
5
267
100
AcDbEntity
8
1
62
256
6
ByLayer
370
-1
48
1
60
0
100
AcDbSpline
70
4
71
3
72
10
73
6
40
0
40
0
40
0
40
0
40
0.274190864391789
40
0.274190864391789
40
1
40
1
40
1
40
1
41
1
10
150.024337550962
20
-18.575586134784
30
0
41
1
10
150.033945679346
20
-18.5832200013577
30
0
41
1
10
150.044007255369
20
-18.5904180647244
30
0
41
1
10
150.08214106013
20
-18.6146009224723
30
0
41
1
10
150.113307568954
20
-18.6289174236722
30
0
41
1
10
150.147887100789
20
-18.6365138079534
30
0
0
SPLINE
5
268
100
AcDbEntity
8
1
62
256
6
ByLayer
370
-1
48
1
60
0
100
AcDbSpline
70
4
71
3
72
8
73
4
40
0
40
0
40
0
40
0
40
1
40
1
40
1
40
1
41
1
10
150.705113559602
20
-20.8949689875932
30
0
41
1
10
150.75356136104
20
-20.8861484606972
30
0
41
1
10
150.802009162201
20
-20.8773279275938
30
0
41
1
10
150.850456962773
20
-20.8685073813293
30
0
0
SPLINE
5
269
100
AcDbEntity
8
1
62
256
6
ByLayer
370
-1
48
1
60
0
100
AcDbSpline
70
4
71
3
72
10
73
6
40
0
40
0
40
0
40
0
40
0.726371168591109
40
0.726371168591109
40
1
40
1
40
1
40
1
41
1
10
151.125851455787
20
-19.7379823919546
30
0
41
1
10
151.097888194271
20
-19.702314415473
30
0
41
1
10
151.074180109414
20
-19.6616764901937
30
0
41
1
10
151.051896670186
20
-19.6005021797254
30
0
41
1
10
151.046821433491
20
-19.5830117220271
30
0
41
1
10
151.04309853484
20
-19.5650672177518
30
0
0
SPLINE
5
26A
100
AcDbEntity
8
1
62
256
6
ByLayer
370
-1
48
1
60
0
100
AcDbSpline
70
4
71
3
72
12
73
8
40
0
40
0
40
0
40
0
40
0.454187976028952
40
0.454187976028952
40
0.987490284578521
40
0.987490284578521
40
1
40
1
40
1
40
1
41
1
10
151.04309853484
20
-19.5650672177518
30
0
41
1
10
151.039672068281
20
-19.5246810068658
30
0
41
1
10
151.037430757005
20
-19.4816840523569
30
0
41
1
10
151.034162642938
20
-19.3894306182546
30
0
41
1
10
151.033391653336
20
-19.3391778663649
30
0
41
1
10
151.033182999584
20
-19.2898060753278
30
0
41
1
10
151.033178786109
20
-19.2886760351738
30
0
41
1
10
151.033174373743
20
-19.2875468612465
30
0
0
SPLINE
5
26B
100
AcDbEntity
8
1
62
256
6
ByLayer
370
-1
48
1
60
0
100
AcDbSpline
70
4
71
3
72
12
73
8
40
0
40
0
40
0
40
0
40
0.0125097154214662
40
0.0125097154214662
40
0.545812023971046
40
0.545812023971046
40
1
40
1
40
1
40
1
41
1
10
150.403976628831
20
-18.7033037013606
30
0
41
1
10
150.4028083262
20
-18.7033439478066
30
0
41
1
10
150.401640082742
20
-18.7033853001063
30
0
41
1
10
150.350639599616
20
-18.705206717374
30
0
41
1
10
150.300422104645
20
-18.7081139827528
30
0
41
1
10
150.211824717068
20
-18.7150654725952
30
0
41
1
10
150.171957269294
20
-18.7189622322215
30
0
41
1
10
150.136510587446
20
-18.7232526826833
30
0
0
SPLINE
5
26C
100
AcDbEntity
8
1
62
256
6
ByLayer
370
-1
48
1
60
0
100
AcDbSpline
70
4
71
3
72
10
73
6
40
0
40
0
40
0
40
0
40
0.517866865973618
40
0.517866865973618
40
1
40
1
40
1
40
1
41
1
10
148.870385890794
20
-19.0195343949009
30
0
41
1
10
148.759511394486
20
-19.2479284301305
30
0
41
1
10
148.646663204292
20
-19.4763399784208
30
0
41
1
10
148.42571908378
20
-19.9173547850768
30
0
41
1
10
148.317824562003
20
-20.1299708834063
30
0
41
1
10
148.208795185842
20
-20.3425594996966
30
0
0
SPLINE
5
26D
100
AcDbEntity
8
1
62
256
6
ByLayer
370
-1
48
1
60
0
100
AcDbSpline
70
4
71
3
72
10
73
6
40
0
40
0
40
0
40
0
40
0.732128243131924
40
0.732128243131924
40
1
40
1
40
1
40
1
41
1
10
150.136510587446
20
-18.7232526826833
30
0
41
1
10
150.095459962413
20
-18.7234790745012
30
0
41
1
10
150.058135177464
20
-18.7153517821021
30
0
41
1
10
150.014096036127
20
-18.6972047269118
30
0
41
1
10
150.002808358635
20
-18.6915627168273
30
0
41
1
10
149.992155475511
20
-18.6852861176558
30
0
0
SPLINE
5
26E
100
AcDbEntity
8
1
62
256
6
ByLayer
370
-1
48
1
60
0
100
AcDbSpline
70
4
71
3
72
10
73
6
40
0
40
0
40
0
40
0
40
0.478255409340391
40
0.478255409340391
40
1
40
1
40
1
40
1
41
1
10
148.10454724548
20
-20.2859442527683
30
0
41
1
10
148.212066482836
20
-20.0773202839405
30
0
41
1
10
148.318503553821
20
-19.8686826796861
30
0
41
1
10
148.538332414618
20
-19.4324426973222
30
0
41
1
10
148.651485693063
20
-19.2048302348864
30
0
41
1
10
148.762703154487
20
-18.9772565729076
30
0
0
SPLINE
5
26F
100
AcDbEntity
8
1
62
256
6
ByLayer
370
-1
48
1
60
0
100
AcDbSpline
70
4
71
3
72
10
73
6
40
0
40
0
40
0
40
0
40
0.39141226430015
40
0.39141226430015
40
1
40
1
40
1
40
1
41
1
10
150.645621613878
20
-12.0878682918321
30
0
41
1
10
150.659373102188
20
-12.0232802296332
30
0
41
1
10
150.673124619289
20
-11.9586921760496
30
0
41
1
10
150.708257756629
20
-11.7936793436605
30
0
41
1
10
150.72963941104
20
-11.6932545752667
30
0
41
1
10
150.751021085446
20
-11.5928298131028
30
0
0
SPLINE
5
270
100
AcDbEntity
8
1
62
256
6
ByLayer
370
-1
48
1
60
0
100
AcDbSpline
70
4
71
3
72
14
73
10
40
0
40
0
40
0
40
0
40
0.25
40
0.25
40
0.5
40
0.5
40
0.75
40
0.75
40
1
40
1
40
1
40
1
41
1
10
148.762703154487
20
-18.9772565729076
30
0
41
1
10
148.761772934239
20
-18.3687972493777
30
0
41
1
10
148.760858490883
20
-17.7602115216724
30
0
41
1
10
148.759556392802
20
-16.5426440933074
30
0
41
1
10
148.694324880779
20
-15.9259679146005
30
0
41
1
10
149.007473487904
20
-14.7229348410503
30
0
41
1
10
149.377008597983
20
-14.2161336639412
30
0
41
1
10
150.011309015876
20
-13.1519971133137
30
0
41
1
10
150.328470077452
20
-12.6199356077056
30
0
41
1
10
150.645621613878
20
-12.0878682918321
30
0
0
SPLINE
5
271
100
AcDbEntity
8
1
62
256
6
ByLayer
370
-1
48
1
60
0
100
AcDbSpline
70
4
71
3
72
12
73
8
40
0
40
0
40
0
40
0
40
0.0143412310806363
40
0.0143412310806363
40
0.547790989098493
40
0.547790989098493
40
1
40
1
40
1
40
1
41
1
10
151.033174373743
20
-19.2875468612465
30
0
41
1
10
151.033619520339
20
-19.2887684259125
30
0
41
1
10
151.034064484243
20
-19.2899910808303
30
0
41
1
10
151.051090553718
20
-19.3367470957458
30
0
41
1
10
151.068226541035
20
-19.3838816964634
30
0
41
1
10
151.100271427403
20
-19.4704372825003
30
0
41
1
10
151.115348747988
20
-19.5106000067882
30
0
41
1
10
151.130302851053
20
-19.5487384414599
30
0
0
SPLINE
5
272
100
AcDbEntity
8
1
62
256
6
ByLayer
370
-1
48
1
60
0
100
AcDbSpline
70
4
71
3
72
10
73
6
40
0
40
0
40
0
40
0
40
0.266814892217353
40
0.266814892217353
40
1
40
1
40
1
40
1
41
1
10
151.130302851053
20
-19.5487384414599
30
0
41
1
10
151.135903658237
20
-19.5630225491721
30
0
41
1
10
151.142523667827
20
-19.5768503409317
30
0
41
1
10
151.169892705034
20
-19.6265166266058
30
0
41
1
10
151.195403780484
20
-19.6595638477541
30
0
41
1
10
151.223599802781
20
-19.6891641366123
30
0
0
SPLINE
5
273
100
AcDbEntity
8
1
62
256
6
ByLayer
370
-1
48
1
60
0
100
AcDbSpline
70
4
71
3
72
12
73
8
40
0
40
0
40
0
40
0
40
0.133148321068528
40
0.133148321068528
40
0.702614877346734
40
0.702614877346734
40
1
40
1
40
1
40
1
41
1
10
150.347025511477
20
-10.7716776771562
30
0
41
1
10
150.255072257759
20
-10.9259413114506
30
0
41
1
10
150.163118573368
20
-11.0802047169156
30
0
41
1
10
149.677884528692
20
-11.8942422290098
30
0
41
1
10
149.284613135599
20
-12.5540210887366
30
0
41
1
10
148.686017828376
20
-13.5582624975874
30
0
41
1
10
148.452938307287
20
-13.890277473597
30
0
41
1
10
148.298137854086
20
-14.2575084451853
30
0
0
SPLINE
5
274
100
AcDbEntity
8
1
62
256
6
ByLayer
370
-1
48
1
60
0
100
AcDbSpline
70
4
71
3
72
12
73
8
40
0
40
0
40
0
40
0
40
0.25
40
0.25
40
0.499999999999998
40
0.499999999999998
40
1
40
1
40
1
40
1
41
1
10
148.298137854086
20
-14.2575084451852
30
0
41
1
10
148.115928085019
20
-14.689762157263
30
0
41
1
10
148.077817007066
20
-15.156331118217
30
0
41
1
10
147.943355675984
20
-16.0746270828129
30
0
41
1
10
147.876220373095
20
-16.5318194121936
30
0
41
1
10
147.67714030319
20
-17.9029856342659
30
0
41
1
10
147.543520970499
20
-18.8173731653669
30
0
41
1
10
147.409533511143
20
-19.731995187242
30
0
0
SPLINE
5
275
100
AcDbEntity
8
1
62
256
6
ByLayer
370
-1
48
1
60
0
100
AcDbSpline
70
4
71
3
72
12
73
8
40
0
40
0
40
0
40
0
40
0.5
40
0.5
40
0.750000000000001
40
0.750000000000001
40
1
40
1
40
1
40
1
41
1
10
147.267785726503
20
-19.6371980818315
30
0
41
1
10
147.395656532075
20
-18.7227176337199
30
0
41
1
10
147.522820819024
20
-17.8081482729106
30
0
41
1
10
147.712077948812
20
-16.4361068088389
30
0
41
1
10
147.777322223071
20
-15.979190420144
30
0
41
1
10
147.917801523629
20
-15.0679448256709
30
0
41
1
10
147.967945313851
20
-14.6072635847095
30
0
41
1
10
148.14488455574
20
-14.1784987511554
30
0
0
SPLINE
5
276
100
AcDbEntity
8
1
62
256
6
ByLayer
370
-1
48
1
60
0
100
AcDbSpline
70
4
71
3
72
12
73
8
40
0
40
0
40
0
40
0
40
0.327536934741047
40
0.327536934741047
40
0.689545574034036
40
0.689545574034036
40
1
40
1
40
1
40
1
41
1
10
148.144884555739
20
-14.1784987511557
30
0
41
1
10
148.261905783942
20
-13.7895649112904
30
0
41
1
10
148.515661061168
20
-13.4515250672791
30
0
41
1
10
148.956661785018
20
-12.7116711748804
30
0
41
1
10
149.188281165255
20
-12.3230701817405
30
0
41
1
10
149.618558638158
20
-11.6012219786236
30
0
41
1
10
149.817207321235
20
-11.267969861048
30
0
41
1
10
150.015854155584
20
-10.9347167792424
30
0
0
SPLINE
5
277
100
AcDbEntity
8
1
62
256
6
ByLayer
370
-1
48
1
60
0
100
AcDbSpline
70
4
71
3
72
8
73
4
40
0
40
0
40
0
40
0
40
1
40
1
40
1
40
1
41
1
10
150.705113845714
20
-20.8949689355029
30
0
41
1
10
150.707253230161
20
-20.942840746517
30
0
41
1
10
150.728497571358
20
-20.9970176955017
30
0
41
1
10
150.751021085446
20
-21.0120407788695
30
0
0
SPLINE
5
278
100
AcDbEntity
8
1
62
256
6
ByLayer
370
-1
48
1
60
0
100
AcDbSpline
70
4
71
3
72
8
73
4
40
0
40
0
40
0
40
0
40
1
40
1
40
1
40
1
41
1
10
159.108700190789
20
-16.3707527114956
30
0
41
1
10
159.145202520145
20
-16.3552765420649
30
0
41
1
10
159.185071876814
20
-16.3066099932324
30
0
41
1
10
159.194854527024
20
-16.2655883807446
30
0
0
SPLINE
5
279
100
AcDbEntity
8
1
62
256
6
ByLayer
370
-1
48
1
60
0
100
AcDbSpline
70
4
71
3
72
14
73
10
40
0
40
0
40
0
40
0
40
0.230106848183424
40
0.230106848183424
40
0.557861158783384
40
0.557861158783384
40
0.896229002650354
40
0.896229002650354
40
1
40
1
40
1
40
1
41
1
10
150.850456962773
20
-20.8685073813293
30
0
41
1
10
150.842211271726
20
-20.8833083966222
30
0
41
1
10
150.833492860353
20
-20.8979006243223
30
0
41
1
10
150.813080700317
20
-20.9305349018061
30
0
41
1
10
150.801223329224
20
-20.948186555219
30
0
41
1
10
150.778955539756
20
-20.9792745650804
30
0
41
1
10
150.768260492461
20
-20.9930339282862
30
0
41
1
10
150.756254533615
20
-21.0066220214906
30
0
41
1
10
150.753546778026
20
-21.0095254953143
30
0
41
1
10
150.751021085446
20
-21.0120407788695
30
0
0
SPLINE
5
27A
100
AcDbEntity
8
1
62
256
6
ByLayer
370
-1
48
1
60
0
100
AcDbSpline
70
4
71
3
72
12
73
8
40
0
40
0
40
0
40
0
40
0.330584430932508
40
0.330584430932508
40
0.914285519682802
40
0.914285519682802
40
1
40
1
40
1
40
1
41
1
10
159.899320023648
20
-15.9939362789333
30
0
41
1
10
159.898892164132
20
-15.9530363306371
30
0
41
1
10
159.89859252636
20
-15.9087028010515
30
0
41
1
10
159.897986137544
20
-15.7883469574877
30
0
41
1
10
159.897830575017
20
-15.7104428375438
30
0
41
1
10
159.8978500682
20
-15.6255691180864
30
0
41
1
10
159.897856594764
20
-15.6146600634499
30
0
41
1
10
159.897867171034
20
-15.6038283590311
30
0
0
SPLINE
5
27B
100
AcDbEntity
8
1
62
256
6
ByLayer
370
-1
48
1
60
0
100
AcDbSpline
70
4
71
3
72
12
73
8
40
0
40
0
40
0
40
0
40
0.467747243448073
40
0.467747243448073
40
0.91407407358086
40
0.91407407358086
40
1
40
1
40
1
40
1
41
1
10
153.48055419275
20
-8.98632995512068
30
0
41
1
10
153.456448316403
20
-8.9998803638758
30
0
41
1
10
153.432049912171
20
-9.01493206582805
30
0
41
1
10
153.388176952574
20
-9.04465580924148
30
0
41
1
10
153.36788000679
20
-9.05975892821911
30
0
41
1
10
153.347387498738
20
-9.07684043890748
30
0
41
1
10
153.344141621139
20
-9.0796137042237
30
0
41
1
10
153.341016913046
20
-9.08235452277955
30
0
0
SPLINE
5
27C
100
AcDbEntity
8
1
62
256
6
ByLayer
370
-1
48
1
60
0
100
AcDbSpline
70
4
71
3
72
10
73
6
40
0
40
0
40
0
40
0
40
0.41098429190408
40
0.41098429190408
40
1
40
1
40
1
40
1
41
1
10
152.668890069904
20
-9.64226947020802
30
0
41
1
10
152.767071311014
20
-9.5644104690912
30
0
41
1
10
152.862876556313
20
-9.48687968193141
30
0
41
1
10
153.089628924279
20
-9.29958731330279
30
0
41
1
10
153.218024225362
20
-9.19023680511941
30
0
41
1
10
153.341016913043
20
-9.08235452278208
30
0
0
SPLINE
5
27D
100
AcDbEntity
8
1
62
256
6
ByLayer
370
-1
48
1
60
0
100
AcDbSpline
70
4
71
3
72
14
73
10
40
0
40
0
40
0
40
0
40
0.264919990892676
40
0.264919990892676
40
0.530416812891576
40
0.530416812891576
40
0.787654584874352
40
0.787654584874352
40
1
40
1
40
1
40
1
41
1
10
152.564496855892
20
-9.69979517836239
30
0
41
1
10
152.572276509917
20
-9.69735374280154
30
0
41
1
10
152.581182678569
20
-9.69390987114957
30
0
41
1
10
152.599882040151
20
-9.68549646082855
30
0
41
1
10
152.609942890799
20
-9.68040203718991
30
0
41
1
10
152.6294161015
20
-9.66946303153244
30
0
41
1
10
152.639111580261
20
-9.66349223001785
30
0
41
1
10
152.655491862385
20
-9.65244306462941
30
0
41
1
10
152.662574940575
20
-9.64727744990037
30
0
41
1
10
152.668890069904
20
-9.6422694702093
30
0
0
SPLINE
5
27E
100
AcDbEntity
8
1
62
256
6
ByLayer
370
-1
48
1
60
0
100
AcDbSpline
70
4
71
3
72
8
73
4
40
0
40
0
40
0
40
0
40
1
40
1
40
1
40
1
41
1
10
159.899320023638
20
-15.9939362789316
30
0
41
1
10
159.899452778803
20
-16.0066266110861
30
0
41
1
10
159.899585534009
20
-16.0193169421751
30
0
41
1
10
159.899718289257
20
-16.0320072722061
30
0
0
SPLINE
5
27F
100
AcDbEntity
8
1
62
256
6
ByLayer
370
-1
48
1
60
0
100
AcDbSpline
70
4
71
3
72
16
73
12
40
0
40
0
40
0
40
0
40
0.164710736630274
40
0.164710736630274
40
0.331370362656729
40
0.331370362656729
40
0.476446336500432
40
0.476446336500432
40
0.702801041235945
40
0.702801041235945
40
1
40
1
40
1
40
1
41
1
10
156.641926880999
20
-8.32792334795047
30
0
41
1
10
156.629428374138
20
-8.32705434720086
30
0
41
1
10
156.616747421932
20
-8.32776619567008
30
0
41
1
10
156.593007482543
20
-8.33349313966593
30
0
41
1
10
156.581682698566
20
-8.33869876370977
30
0
41
1
10
156.563828677198
20
-8.35184679908073
30
0
41
1
10
156.556635659931
20
-8.35945587862892
30
0
41
1
10
156.541622637928
20
-8.38073118710108
30
0
41
1
10
156.535327015679
20
-8.39570564226884
30
0
41
1
10
156.525727764521
20
-8.43124421025342
30
0
41
1
10
156.523747267347
20
-8.45261940489348
30
0
41
1
10
156.52403676457
20
-8.4739017015601
30
0
0
SPLINE
5
280
100
AcDbEntity
8
1
62
256
6
ByLayer
370
-1
48
1
60
0
100
AcDbSpline
70
4
71
3
72
16
73
12
40
0
40
0
40
0
40
0
40
0.343443954228551
40
0.343443954228551
40
0.535083245610814
40
0.535083245610814
40
0.693553557835082
40
0.693553557835082
40
0.85317150891296
40
0.85317150891296
40
1
40
1
40
1
40
1
41
1
10
158.000303187277
20
-10.9376525081
30
0
41
1
10
158.022934907137
20
-10.9514693589871
30
0
41
1
10
158.047438489461
20
-10.9631866214524
30
0
41
1
10
158.087120458283
20
-10.9740622055513
30
0
41
1
10
158.101919419841
20
-10.9764895163364
30
0
41
1
10
158.128406100985
20
-10.9765448907154
30
0
41
1
10
158.140435245317
20
-10.9748732148781
30
0
41
1
10
158.162502987754
20
-10.9675172414539
30
0
41
1
10
158.172787644274
20
-10.9616701218567
30
0
41
1
10
158.189294582159
20
-10.9475497152411
30
0
41
1
10
158.195993543414
20
-10.9393942484908
30
0
41
1
10
158.20145840294
20
-10.9306358298602
30
0
0
SPLINE
5
281
100
AcDbEntity
8
1
62
256
6
ByLayer
370
-1
48
1
60
0
100
AcDbSpline
70
4
71
3
72
12
73
8
40
0
40
0
40
0
40
0
40
0.261466805566845
40
0.261466805566845
40
0.727154521522404
40
0.727154521522404
40
1
40
1
40
1
40
1
41
1
10
156.551061038754
20
-9.87740034968425
30
0
41
1
10
156.556457669849
20
-9.90322720213976
30
0
41
1
10
156.563766391842
20
-9.92904652306316
30
0
41
1
10
156.590539127464
20
-9.99864518139404
30
0
41
1
10
156.615940147523
20
-10.0414693775985
30
0
41
1
10
156.666062864681
20
-10.1009229510873
30
0
41
1
10
156.68678787804
20
-10.1214526922492
30
0
41
1
10
156.708739613825
20
-10.1405511675385
30
0
0
SPLINE
5
282
100
AcDbEntity
8
1
62
256
6
ByLayer
370
-1
48
1
60
0
100
AcDbSpline
70
4
71
3
72
14
73
10
40
0
40
0
40
0
40
0
40
0.327529474127751
40
0.327529474127751
40
0.665666599581801
40
0.665666599581801
40
0.915673055310689
40
0.915673055310689
40
1
40
1
40
1
40
1
41
1
10
150.751021085446
20
-11.5928298131028
30
0
41
1
10
150.758899796467
20
-11.610294385803
30
0
41
1
10
150.768561824652
20
-11.630118743639
30
0
41
1
10
150.789649079141
20
-11.6713567455694
30
0
41
1
10
150.8014496225
20
-11.6934413177987
30
0
41
1
10
150.822579570632
20
-11.7311938618001
30
0
41
1
10
150.83197299797
20
-11.7474253539618
30
0
41
1
10
150.844278845053
20
-11.7676405692033
30
0
41
1
10
150.847399927779
20
-11.7726731539362
30
0
41
1
10
150.850456962773
20
-11.7774867805055
30
0
0
SPLINE
5
283
100
AcDbEntity
8
1
62
256
6
ByLayer
370
-1
48
1
60
0
100
AcDbSpline
70
4
71
3
72
14
73
10
40
0
40
0
40
0
40
0
40
0.25
40
0.25
40
0.5
40
0.5
40
0.75
40
0.75
40
1
40
1
40
1
40
1
41
1
10
158.783918245345
20
-16.0551259952733
30
0
41
1
10
158.468418446135
20
-15.5285889672039
30
0
41
1
10
158.152926502511
20
-15.0020475207841
30
0
41
1
10
157.52192603453
20
-13.9489739537266
30
0
41
1
10
157.247709618857
20
-13.3925528745131
30
0
41
1
10
156.338020725983
20
-12.5370180766397
30
0
41
1
10
155.762243981942
20
-12.2832740398493
30
0
41
1
10
154.682455782117
20
-11.6791112664788
30
0
41
1
10
154.142285590588
20
-11.3774666028814
30
0
41
1
10
153.601940804196
20
-11.0760981143032
30
0
0
SPLINE
5
284
100
AcDbEntity
8
1
62
256
6
ByLayer
370
-1
48
1
60
0
100
AcDbSpline
70
4
71
3
72
10
73
6
40
0
40
0
40
0
40
0
40
0.226375763220932
40
0.226375763220932
40
1
40
1
40
1
40
1
41
1
10
153.856392486075
20
-12.0313943810154
30
0
41
1
10
153.805570754383
20
-12.0285061799129
30
0
41
1
10
153.754931311165
20
-12.026424855981
30
0
41
1
10
153.532305259917
20
-12.0207852703057
30
0
41
1
10
153.362310657961
20
-12.0257909349701
30
0
41
1
10
153.195503923194
20
-12.0400864092104
30
0
0
SPLINE
5
285
100
AcDbEntity
8
1
62
256
6
ByLayer
370
-1
48
1
60
0
100
AcDbSpline
70
4
71
3
72
8
73
4
40
0
40
0
40
0
40
0
40
1
40
1
40
1
40
1
41
1
10
159.000084786834
20
-16.2874340102149
30
0
41
1
10
158.922715121278
20
-16.2280838855349
30
0
41
1
10
158.845345407267
20
-16.1687337813986
30
0
41
1
10
158.767975615446
20
-16.1093837102525
30
0
0
SPLINE
5
286
100
AcDbEntity
8
1
62
256
6
ByLayer
370
-1
48
1
60
0
100
AcDbSpline
70
4
71
3
72
12
73
8
40
0
40
0
40
0
40
0
40
0.452209010901455
40
0.452209010901455
40
0.98565876891945
40
0.98565876891945
40
1
40
1
40
1
40
1
41
1
10
153.05571333495
20
-12.0800109835516
30
0
41
1
10
153.026475085051
20
-12.0972812009939
30
0
41
1
10
152.995431324626
20
-12.1190527959762
30
0
41
1
10
152.927714581192
20
-12.1708694586481
30
0
41
1
10
152.890336194804
20
-12.2022557567305
30
0
41
1
10
152.852581821423
20
-12.2359054806581
30
0
41
1
10
152.851594310294
20
-12.2367873833912
30
0
41
1
10
152.850606689151
20
-12.2376700944479
30
0
0
SPLINE
5
287
100
AcDbEntity
8
1
62
256
6
ByLayer
370
-1
48
1
60
0
100
AcDbSpline
70
4
71
3
72
10
73
6
40
0
40
0
40
0
40
0
40
0.274190864391849
40
0.274190864391849
40
1
40
1
40
1
40
1
41
1
10
153.195503923194
20
-12.0400864092104
30
0
41
1
10
153.181703338104
20
-12.0412711047681
30
0
41
1
10
153.168055916457
20
-12.0430383079376
30
0
41
1
10
153.119465547665
20
-12.0517900461593
30
0
41
1
10
153.085264745917
20
-12.0625557906146
30
0
41
1
10
153.05571333495
20
-12.0800109835516
30
0
0
SPLINE
5
288
100
AcDbEntity
8
1
62
256
6
ByLayer
370
-1
48
1
60
0
100
AcDbSpline
70
4
71
3
72
8
73
4
40
0
40
0
40
0
40
0
40
1
40
1
40
1
40
1
41
1
10
150.884056109599
20
-11.6196792071328
30
0
41
1
10
150.872856387342
20
-11.6722817293991
30
0
41
1
10
150.861656669926
20
-11.724884253261
30
0
41
1
10
150.850456962773
20
-11.7774867805055
30
0
0
SPLINE
5
289
100
AcDbEntity
8
1
62
256
6
ByLayer
370
-1
48
1
60
0
100
AcDbSpline
70
4
71
3
72
10
73
6
40
0
40
0
40
0
40
0
40
0.726371168591183
40
0.726371168591183
40
1
40
1
40
1
40
1
41
1
10
151.611462914322
20
-12.403941940819
30
0
41
1
10
151.649038977045
20
-12.3859339070353
30
0
41
1
10
151.68883363487
20
-12.3738174546134
30
0
41
1
10
151.743776595841
20
-12.3693933840926
30
0
41
1
10
151.75900578563
20
-12.3694639754619
30
0
41
1
10
151.774080997874
20
-12.3710658680233
30
0
0
SPLINE
5
28A
100
AcDbEntity
8
1
62
256
6
ByLayer
370
-1
48
1
60
0
100
AcDbSpline
70
4
71
3
72
12
73
8
40
0
40
0
40
0
40
0
40
0.454187976028979
40
0.454187976028979
40
0.987490284578581
40
0.987490284578581
40
1
40
1
40
1
40
1
41
1
10
151.774080997874
20
-12.3710658680233
30
0
41
1
10
151.806176461722
20
-12.3797748969495
30
0
41
1
10
151.841609002078
20
-12.3930812818329
30
0
41
1
10
151.91967018549
20
-12.4270000573227
30
0
41
1
10
151.963484352913
20
-12.4489314996795
30
0
41
1
10
152.007774054479
20
-12.473141413872
30
0
41
1
10
152.00878834522
20
-12.4736972489749
30
0
41
1
10
152.009802814445
20
-12.4742537271187
30
0
0
SPLINE
5
28B
100
AcDbEntity
8
1
62
256
6
ByLayer
370
-1
48
1
60
0
100
AcDbSpline
70
4
71
3
72
12
73
8
40
0
40
0
40
0
40
0
40
0.0125097154214446
40
0.0125097154214446
40
0.545812023971058
40
0.545812023971058
40
1
40
1
40
1
40
1
41
1
10
152.850606689151
20
-12.2376700944479
30
0
41
1
10
152.85115933189
20
-12.2366726656231
30
0
41
1
10
152.851711808258
20
-12.2356759768738
30
0
41
1
10
152.875853440174
20
-12.1922109974386
30
0
41
1
10
152.900175746127
20
-12.1511074569583
30
0
41
1
10
152.944875444104
20
-12.0826464818631
30
0
41
1
10
152.96571330213
20
-12.0535068501766
30
0
41
1
10
152.985564454536
20
-12.0301811912041
30
0
0
SPLINE
5
28C
100
AcDbEntity
8
1
62
256
6
ByLayer
370
-1
48
1
60
0
100
AcDbSpline
70
4
71
3
72
10
73
6
40
0
40
0
40
0
40
0
40
0.517866865973611
40
0.517866865973611
40
1
40
1
40
1
40
1
41
1
10
153.539766473883
20
-11.0874272667519
30
0
41
1
10
153.369100065383
20
-10.8497660181237
30
0
41
1
10
153.199778679306
20
-10.6109755918164
30
0
41
1
10
152.874967864437
20
-10.1481926536362
30
0
41
1
10
152.719325343567
20
-9.92430416394987
30
0
41
1
10
152.564496855891
20
-9.69979517836182
30
0
0
SPLINE
5
28D
100
AcDbEntity
8
1
62
256
6
ByLayer
370
-1
48
1
60
0
100
AcDbSpline
70
4
71
3
72
10
73
6
40
0
40
0
40
0
40
0
40
0.732128243132123
40
0.732128243132123
40
1
40
1
40
1
40
1
41
1
10
152.985564454536
20
-12.0301811912041
30
0
41
1
10
153.013688682224
20
-12.0068011790535
30
0
41
1
10
153.048282859148
20
-11.9919275471791
30
0
41
1
10
153.098365935976
20
-11.9809347402724
30
0
41
1
10
153.112275438198
20
-11.9788762168023
30
0
41
1
10
153.126433336042
20
-11.9776627376166
30
0
0
SPLINE
5
28E
100
AcDbEntity
8
1
62
256
6
ByLayer
370
-1
48
1
60
0
100
AcDbSpline
70
4
71
3
72
10
73
6
40
0
40
0
40
0
40
0
40
0.478255409340374
40
0.478255409340374
40
1
40
1
40
1
40
1
41
1
10
152.668890069905
20
-9.64226947020933
30
0
41
1
10
152.820688264546
20
-9.86320436092052
30
0
41
1
10
152.973257526478
20
-10.0835501650482
30
0
41
1
10
153.294165214943
20
-10.5427634757946
30
0
41
1
10
153.462681282366
20
-10.7815066160352
30
0
41
1
10
153.632507911842
20
-11.0191470852006
30
0
0
SPLINE
5
28F
100
AcDbEntity
8
1
62
256
6
ByLayer
370
-1
48
1
60
0
100
AcDbSpline
70
4
71
3
72
10
73
6
40
0
40
0
40
0
40
0
40
0.391412264300147
40
0.391412264300147
40
1
40
1
40
1
40
1
41
1
10
158.854129834548
20
-16.0042192572399
30
0
41
1
10
158.89858449708
20
-16.0383202542571
30
0
41
1
10
158.943039133721
20
-16.0724212657802
30
0
41
1
10
159.056614049597
20
-16.1595442975534
30
0
41
1
10
159.125734297621
20
-16.2125663344746
30
0
41
1
10
159.194854527024
20
-16.2655883807446
30
0
0
SPLINE
5
290
100
AcDbEntity
8
1
62
256
6
ByLayer
370
-1
48
1
60
0
100
AcDbSpline
70
4
71
3
72
14
73
10
40
0
40
0
40
0
40
0
40
0.25
40
0.25
40
0.5
40
0.5
40
0.75
40
0.75
40
1
40
1
40
1
40
1
41
1
10
153.632507911842
20
-11.0191470852006
30
0
41
1
10
154.177825285609
20
-11.3193432847575
30
0
41
1
10
154.723118285069
20
-11.6194273119712
30
0
41
1
10
155.813380194263
20
-12.2196329501637
30
0
41
1
10
156.396174077624
20
-12.4667854426666
30
0
41
1
10
157.314227189312
20
-13.3218170089335
30
0
41
1
10
157.585519787114
20
-13.887024368236
30
0
41
1
10
158.21983083406
20
-14.9456178952954
30
0
41
1
10
158.536975608168
20
-15.4749215228166
30
0
41
1
10
158.854129834548
20
-16.0042192572399
30
0
0
SPLINE
5
291
100
AcDbEntity
8
1
62
256
6
ByLayer
370
-1
48
1
60
0
100
AcDbSpline
70
4
71
3
72
10
73
6
40
0
40
0
40
0
40
0
40
0.226375575408397
40
0.226375575408397
40
1
40
1
40
1
40
1
41
1
10
151.592916570852
20
-12.4910190807821
30
0
41
1
10
151.544498955192
20
-12.5142023943601
30
0
41
1
10
151.496294380373
20
-12.5381973347265
30
0
41
1
10
151.284548958189
20
-12.647647478198
30
0
41
1
10
151.123327896851
20
-12.7417312161896
30
0
41
1
10
150.965651461627
20
-12.844785033994
30
0
0
SPLINE
5
292
100
AcDbEntity
8
1
62
256
6
ByLayer
370
-1
48
1
60
0
100
AcDbSpline
70
4
71
3
72
12
73
8
40
0
40
0
40
0
40
0
40
0.014341231080616
40
0.014341231080616
40
0.547790989098403
40
0.547790989098403
40
1
40
1
40
1
40
1
41
1
10
152.009802814445
20
-12.4742537271187
30
0
41
1
10
152.008483430502
20
-12.4740201563194
30
0
41
1
10
152.007164154984
20
-12.4737873323802
30
0
41
1
10
151.95674620911
20
-12.4649473509121
30
0
41
1
10
151.907299455571
20
-12.457991728792
30
0
41
1
10
151.819187179303
20
-12.4500219092019
30
0
41
1
10
151.779364757877
20
-12.4481904919947
30
0
41
1
10
151.742900350362
20
-12.44940755064
30
0
0
SPLINE
5
293
100
AcDbEntity
8
1
62
256
6
ByLayer
370
-1
48
1
60
0
100
AcDbSpline
70
4
71
3
72
10
73
6
40
0
40
0
40
0
40
0
40
0.266814892217342
40
0.266814892217342
40
1
40
1
40
1
40
1
41
1
10
151.742900350362
20
-12.44940755064
30
0
41
1
10
151.729243221298
20
-12.4498633794367
30
0
41
1
10
151.715529974751
20
-12.45146847399
30
0
41
1
10
151.664799092009
20
-12.4607222707262
30
0
41
1
10
151.628043607242
20
-12.473971197613
30
0
41
1
10
151.592916570852
20
-12.4910190807821
30
0
0
SPLINE
5
294
100
AcDbEntity
8
1
62
256
6
ByLayer
370
-1
48
1
60
0
100
AcDbSpline
70
4
71
3
72
12
73
8
40
0
40
0
40
0
40
0
40
0.133148321068523
40
0.133148321068523
40
0.702614877346732
40
0.702614877346732
40
1
40
1
40
1
40
1
41
1
10
159.899320023649
20
-15.9939362789355
30
0
41
1
10
159.807367003011
20
-15.8404749942294
30
0
41
1
10
159.715414414331
20
-15.6870134769305
30
0
41
1
10
159.230187232636
20
-14.8772069348863
30
0
41
1
10
158.836903644122
20
-14.2208667415962
30
0
41
1
10
158.238293207601
20
-13.2218591805323
30
0
41
1
10
158.057007124935
20
-12.8605443535387
30
0
41
1
10
157.804914234533
20
-12.5475535540113
30
0
0
SPLINE
5
295
100
AcDbEntity
8
1
62
256
6
ByLayer
370
-1
48
1
60
0
100
AcDbSpline
70
4
71
3
72
12
73
8
40
0
40
0
40
0
40
0
40
0.25
40
0.25
40
0.5
40
0.5
40
1
40
1
40
1
40
1
41
1
10
157.804914234533
20
-12.5475535540112
30
0
41
1
10
157.508185210853
20
-12.1791439006617
30
0
41
1
10
157.111463427863
20
-11.9191743472734
30
0
41
1
10
156.358319610908
20
-11.3544615515627
30
0
41
1
10
155.981434948415
20
-11.0702298946937
30
0
41
1
10
154.849212750589
20
-10.2185764509513
30
0
41
1
10
154.094989001288
20
-9.65047732666721
30
0
41
1
10
153.341016913032
20
-9.08235452276898
30
0
0
SPLINE
5
296
100
AcDbEntity
8
1
62
256
6
ByLayer
370
-1
48
1
60
0
100
AcDbSpline
70
4
71
3
72
12
73
8
40
0
40
0
40
0
40
0
40
0.499999999999989
40
0.499999999999989
40
0.749999999999994
40
0.749999999999994
40
1
40
1
40
1
40
1
41
1
10
153.48055419275
20
-8.98632995512062
30
0
41
1
10
154.235902801411
20
-9.54697623142096
30
0
41
1
10
154.991687138822
20
-10.1070755058495
30
0
41
1
10
156.126282136097
20
-10.9460713689913
30
0
41
1
10
156.503006582945
20
-11.2273289265515
30
0
41
1
10
157.249101742787
20
-11.7969193562985
30
0
41
1
10
157.636810497613
20
-12.0674107581467
30
0
41
1
10
157.93201411512
20
-12.4281525114573
30
0
0
SPLINE
5
297
100
AcDbEntity
8
1
62
256
6
ByLayer
370
-1
48
1
60
0
100
AcDbSpline
70
4
71
3
72
12
73
8
40
0
40
0
40
0
40
0
40
0.327536934741043
40
0.327536934741043
40
0.689545574034039
40
0.689545574034039
40
1
40
1
40
1
40
1
41
1
10
157.93201411512
20
-12.4281525114573
30
0
41
1
10
158.221704714928
20
-12.7190040405773
30
0
41
1
10
158.397643894839
20
-13.1001290261873
30
0
41
1
10
158.83865921577
20
-13.8361263460734
30
0
41
1
10
159.070304488563
20
-14.2226921721147
30
0
41
1
10
159.500581979061
20
-14.9407851053083
30
0
41
1
10
159.699223646704
20
-15.2723072223531
30
0
41
1
10
159.897867171034
20
-15.6038283590081
30
0
0
SPLINE
5
298
100
AcDbEntity
8
1
62
256
6
ByLayer
370
-1
48
1
60
0
100
AcDbSpline
70
4
71
1
72
4
73
2
40
0
40
0
40
1
40
1
41
1
10
150.376071834889
20
-10.7616877102747
30
0
41
1
10
150.751021085446
20
-11.5928298131028
30
0
0
SPLINE
5
299
100
AcDbEntity
8
1
62
256
6
ByLayer
370
-1
48
1
60
0
100
AcDbSpline
70
4
71
3
72
8
73
4
40
0
40
0
40
0
40
0
40
1
40
1
40
1
40
1
41
1
10
150.884056043458
20
-11.6196795177809
30
0
41
1
10
150.846723149938
20
-11.6073753132364
30
0
41
1
10
150.78515900329
20
-11.594950164381
30
0
41
1
10
150.751021085446
20
-11.5928298131028
30
0
0
SPLINE
5
29A
100
AcDbEntity
8
1
62
256
6
ByLayer
370
-1
48
1
60
0
100
AcDbSpline
70
4
71
3
72
12
73
8
40
0
40
0
40
0
40
0
40
0.330584430932557
40
0.330584430932557
40
0.91428551968291
40
0.91428551968291
40
1
40
1
40
1
40
1
41
1
10
150.347025511476
20
-10.7716776771584
30
0
41
1
10
150.315820830271
20
-10.7824099760478
30
0
41
1
10
150.279901859089
20
-10.7978326567315
30
0
41
1
10
150.179747341377
20
-10.844482154071
30
0
41
1
10
150.111895507407
20
-10.8801476111313
30
0
41
1
10
150.035561869568
20
-10.9233665119658
30
0
41
1
10
150.025699181894
20
-10.9290143881991
30
0
41
1
10
150.015854155605
20
-10.9347167792309
30
0
0
SPLINE
5
29B
100
AcDbEntity
8
1
62
256
6
ByLayer
370
-1
48
1
60
0
100
AcDbSpline
70
4
71
3
72
12
73
8
40
0
40
0
40
0
40
0
40
0.467747243448097
40
0.467747243448097
40
0.914074073580846
40
0.914074073580846
40
1
40
1
40
1
40
1
41
1
10
147.267785726503
20
-19.6371980818314
30
0
41
1
10
147.291891602849
20
-19.6505381057682
30
0
41
1
10
147.316458028702
20
-19.6653761366484
30
0
41
1
10
147.360967182142
20
-19.6947142011814
30
0
41
1
10
147.381728378173
20
-19.7096381520262
30
0
41
1
10
147.402919972341
20
-19.7265377630369
30
0
41
1
10
147.40628508523
20
-19.7292821795361
30
0
41
1
10
147.409533511146
20
-19.731995187225
30
0
0
SPLINE
5
29C
100
AcDbEntity
8
1
62
256
6
ByLayer
370
-1
48
1
60
0
100
AcDbSpline
70
4
71
3
72
10
73
6
40
0
40
0
40
0
40
0
40
0.410984291904105
40
0.410984291904105
40
1
40
1
40
1
40
1
41
1
10
148.104547245479
20
-20.2859442527696
30
0
41
1
10
148.003516834337
20
-20.2089545647339
30
0
41
1
10
147.90473580715
20
-20.1322729065766
30
0
41
1
10
147.670463737963
20
-19.946992340819
30
0
41
1
10
147.537395897769
20
-19.8387827966624
30
0
41
1
10
147.409533511149
20
-19.7319951872275
30
0
0
SPLINE
5
29D
100
AcDbEntity
8
1
62
256
6
ByLayer
370
-1
48
1
60
0
100
AcDbSpline
70
4
71
3
72
14
73
10
40
0
40
0
40
0
40
0
40
0.264919990892453
40
0.264919990892453
40
0.530416812891365
40
0.530416812891365
40
0.787654584874464
40
0.787654584874464
40
1
40
1
40
1
40
1
41
1
10
148.208795185842
20
-20.3425594996961
30
0
41
1
10
148.201258311645
20
-20.3401849018838
30
0
41
1
10
148.192548520391
20
-20.3368179021641
30
0
41
1
10
148.17411282951
20
-20.328566540531
30
0
41
1
10
148.164122486022
20
-20.3235596156162
30
0
41
1
10
148.144650191115
20
-20.312790559041
30
0
41
1
10
148.134889259432
20
-20.3069046607533
30
0
41
1
10
148.118277533669
20
-20.2959994647748
30
0
41
1
10
148.111045636673
20
-20.2908963172511
30
0
41
1
10
148.10454724548
20
-20.2859442527682
30
0
0
SPLINE
5
29E
100
AcDbEntity
8
1
62
256
6
ByLayer
370
-1
48
1
60
0
100
AcDbSpline
70
4
71
3
72
8
73
4
40
0
40
0
40
0
40
0
40
1
40
1
40
1
40
1
41
1
10
159.714031939774
20
-7.10785471898001
30
0
41
1
10
159.718238558224
20
-7.11168737547635
30
0
41
1
10
159.722445220289
20
-7.11552001778355
30
0
41
1
10
159.726651924498
20
-7.1193526463795
30
0
0
SPLINE
5
29F
100
AcDbEntity
8
1
62
256
6
ByLayer
370
-1
48
1
60
0
100
AcDbSpline
70
4
71
3
72
22
73
18
40
0
40
0
40
0
40
0
40
0.0904884159775348
40
0.0904884159775348
40
0.167615335034227
40
0.167615335034227
40
0.286482716023217
40
0.286482716023217
40
0.385988194080781
40
0.385988194080781
40
0.485170893004477
40
0.485170893004477
40
0.671495106350061
40
0.671495106350061
40
0.857309270890858
40
0.857309270890858
40
1
40
1
40
1
40
1
41
1
10
159.726651924498
20
-7.1193526463795
30
0
41
1
10
159.735867637279
20
-7.12888084663868
30
0
41
1
10
159.744920198404
20
-7.14139257895636
30
0
41
1
10
159.759632154264
20
-7.16762086306162
30
0
41
1
10
159.765783345462
20
-7.18115507906379
30
0
41
1
10
159.779248474299
20
-7.21630708119343
30
0
41
1
10
159.785698386948
20
-7.23890322299837
30
0
41
1
10
159.795127335547
20
-7.27951482601614
30
0
41
1
10
159.798581921304
20
-7.29802022865724
30
0
41
1
10
159.804261293775
20
-7.33417432045076
30
0
41
1
10
159.806504717681
20
-7.35193995513944
30
0
41
1
10
159.811718120567
20
-7.40182263262182
30
0
41
1
10
159.813654117508
20
-7.43313900689159
30
0
41
1
10
159.815738894755
20
-7.49282827061123
30
0
41
1
10
159.815881000341
20
-7.52138663072097
30
0
41
1
10
159.814955879837
20
-7.5694216707827
30
0
41
1
10
159.814154827449
20
-7.58952269843854
30
0
41
1
10
159.812987106006
20
-7.60876794344569
30
0
0
SPLINE
5
2A0
100
AcDbEntity
8
1
62
256
6
ByLayer
370
-1
48
1
60
0
100
AcDbSpline
70
4
71
3
72
24
73
20
40
0
40
0
40
0
40
0
40
0.0429952269741423
40
0.0429952269741423
40
0.228745926456608
40
0.228745926456608
40
0.414699745398257
40
0.414699745398257
40
0.538335079667164
40
0.538335079667164
40
0.632242005366586
40
0.632242005366586
40
0.783656353752242
40
0.783656353752242
40
0.875145603239794
40
0.875145603239794
40
0.967942630467913
40
0.967942630467913
40
1
40
1
40
1
40
1
41
1
10
159.812987106006
20
-7.60876794344569
30
0
41
1
10
159.81263505586
20
-7.61457009032165
30
0
41
1
10
159.81224921355
20
-7.62029643557213
30
0
41
1
10
159.810018399491
20
-7.6503163450403
30
0
41
1
10
159.807584958364
20
-7.67328386268244
30
0
41
1
10
159.801282194455
20
-7.71564046832071
30
0
41
1
10
159.797405659512
20
-7.73513578695599
30
0
41
1
10
159.789241337238
20
-7.76347525345724
30
0
41
1
10
159.78551029447
20
-7.77373871130686
30
0
41
1
10
159.777804925133
20
-7.78913054635507
30
0
41
1
10
159.774091726919
20
-7.79492210539055
30
0
41
1
10
159.763112686586
20
-7.80686547592163
30
0
41
1
10
159.754935030747
20
-7.81131667033659
30
0
41
1
10
159.738477824762
20
-7.80961723557508
30
0
41
1
10
159.731354597177
20
-7.80685630872111
30
0
41
1
10
159.715502139863
20
-7.79586499156181
30
0
41
1
10
159.706488451251
20
-7.78729859755228
30
0
41
1
10
159.694081287602
20
-7.77250929842054
30
0
41
1
10
159.690808819561
20
-7.76835332579546
30
0
41
1
10
159.687539714829
20
-7.76396190880999
30
0
0
SPLINE
5
2A1
100
AcDbEntity
8
1
62
256
6
ByLayer
370
-1
48
1
60
0
100
AcDbSpline
70
4
71
3
72
8
73
4
40
0
40
0
40
0
40
0
40
1
40
1
40
1
40
1
41
1
10
159.745158939756
20
-6.22312348194365
30
0
41
1
10
159.740868905133
20
-6.22332624995326
30
0
41
1
10
159.73657891235
20
-6.22352901900919
30
0
41
1
10
159.732288962867
20
-6.22373178914793
30
0
0
SPLINE
5
2A2
100
AcDbEntity
8
1
62
256
6
ByLayer
370
-1
48
1
60
0
100
AcDbSpline
70
4
71
3
72
22
73
18
40
0
40
0
40
0
40
0
40
0.0904884159774579
40
0.0904884159774579
40
0.167615335034147
40
0.167615335034147
40
0.286482716023112
40
0.286482716023112
40
0.385988194080631
40
0.385988194080631
40
0.485170893004268
40
0.485170893004268
40
0.671495106349796
40
0.671495106349796
40
0.857309270890545
40
0.857309270890545
40
1
40
1
40
1
40
1
41
1
10
159.73797544704
20
-5.32153813007076
30
0
41
1
10
159.747394139717
20
-5.31612644245138
30
0
41
1
10
159.756837287655
20
-5.3138427141792
30
0
41
1
10
159.772545030299
20
-5.31593753808195
30
0
41
1
10
159.7792700297
20
-5.31935017132949
30
0
41
1
10
159.794334758896
20
-5.33246374696
30
0
41
1
10
159.801909324463
20
-5.34464344224943
30
0
41
1
10
159.813465175322
20
-5.37064403310202
30
0
41
1
10
159.81792985841
20
-5.38408520576252
30
0
41
1
10
159.825640908963
20
-5.41261429128411
30
0
41
1
10
159.828912380301
20
-5.42779037122855
30
0
41
1
10
159.837078712277
20
-5.47298877472301
30
0
41
1
10
159.840950766335
20
-5.50456895930327
30
0
41
1
10
159.846847720727
20
-5.56952317251893
30
0
41
1
10
159.84887808745
20
-5.6031104495838
30
0
41
1
10
159.851229525193
20
-5.66352828239792
30
0
41
1
10
159.851835064348
20
-5.69019562253428
30
0
41
1
10
159.852049532376
20
-5.71711306229659
30
0
0
SPLINE
5
2A3
100
AcDbEntity
8
1
62
256
6
ByLayer
370
-1
48
1
60
0
100
AcDbSpline
70
4
71
3
72
24
73
20
40
0
40
0
40
0
40
0
40
0.042995226973796
40
0.042995226973796
40
0.228745926456273
40
0.228745926456273
40
0.414699745397947
40
0.414699745397947
40
0.538335079666908
40
0.538335079666908
40
0.632242005366423
40
0.632242005366423
40
0.783656353752147
40
0.783656353752147
40
0.875145603239779
40
0.875145603239779
40
0.967942630468036
40
0.967942630468036
40
1
40
1
40
1
40
1
41
1
10
159.852049532376
20
-5.71711306229659
30
0
41
1
10
159.852114191205
20
-5.72522825849003
30
0
41
1
10
159.852142995649
20
-5.7333694787859
30
0
41
1
10
159.852104210179
20
-5.77676275929284
30
0
41
1
10
159.851412279922
20
-5.81247813627564
30
0
41
1
10
159.848471327541
20
-5.88420449536011
30
0
41
1
10
159.846223227662
20
-5.92038383650791
30
0
41
1
10
159.840612320739
20
-5.98024229038623
30
0
41
1
10
159.837862969415
20
-6.00414242848566
30
0
41
1
10
159.831773407498
20
-6.04558521824936
30
0
41
1
10
159.828723577655
20
-6.06333907833698
30
0
41
1
10
159.819328567536
20
-6.10837494582265
30
0
41
1
10
159.812008307525
20
-6.13557260746717
30
0
41
1
10
159.796461193788
20
-6.17343400192669
30
0
41
1
10
159.789576503984
20
-6.18659856618024
30
0
41
1
10
159.773870274338
20
-6.20768155601911
30
0
41
1
10
159.764755417393
20
-6.21572470269865
30
0
41
1
10
159.751964249351
20
-6.22144672712747
30
0
41
1
10
159.748569674751
20
-6.22250105165196
30
0
41
1
10
159.745158939756
20
-6.22312348194365
30
0
0
SPLINE
5
2A4
100
AcDbEntity
8
1
62
256
6
ByLayer
370
-1
48
1
60
0
100
AcDbSpline
70
4
71
3
72
8
73
4
40
0
40
0
40
0
40
0
40
1
40
1
40
1
40
1
41
1
10
159.706977011336
20
-4.64999488260875
30
0
41
1
10
159.7028485824
20
-4.65598642211035
30
0
41
1
10
159.698720195894
20
-4.66197798382797
30
0
41
1
10
159.694591853301
20
-4.66796956853602
30
0
0
SPLINE
5
2A5
100
AcDbEntity
8
1
62
256
6
ByLayer
370
-1
48
1
60
0
100
AcDbSpline
70
4
71
3
72
8
73
4
40
0
40
0
40
0
40
0
40
1
40
1
40
1
40
1
41
1
10
159.725171563137
20
-5.33044163150308
30
0
41
1
10
159.729439481543
20
-5.32747378627482
30
0
41
1
10
159.733707443332
20
-5.32450595259368
30
0
41
1
10
159.73797544704
20
-5.32153813007079
30
0
0
SPLINE
5
2A6
100
AcDbEntity
8
1
62
256
6
ByLayer
370
-1
48
1
60
0
100
AcDbSpline
70
4
71
3
72
24
73
20
40
0
40
0
40
0
40
0
40
0.0429952269741069
40
0.0429952269741069
40
0.228745926456576
40
0.228745926456576
40
0.414699745398238
40
0.414699745398238
40
0.538335079667128
40
0.538335079667128
40
0.63224200536657
40
0.63224200536657
40
0.783656353752218
40
0.783656353752218
40
0.875145603239754
40
0.875145603239754
40
0.967942630467965
40
0.967942630467965
40
1
40
1
40
1
40
1
41
1
10
159.786621688097
20
-4.29969873081367
30
0
41
1
10
159.787038397072
20
-4.30201178013121
30
0
41
1
10
159.787422797274
20
-4.30442649492088
30
0
41
1
10
159.789292210446
20
-4.31779815664118
30
0
41
1
10
159.790215404969
20
-4.33054168028292
30
0
41
1
10
159.790614557516
20
-4.35989573662442
30
0
41
1
10
159.790099102508
20
-4.37656840012897
30
0
41
1
10
159.787455145147
20
-4.40805985018093
30
0
41
1
10
159.785917375982
20
-4.42168318153125
30
0
41
1
10
159.781990334484
20
-4.44770476847941
30
0
41
1
10
159.779887477122
20
-4.45965241319237
30
0
41
1
10
159.772965091863
20
-4.49269984046626
30
0
41
1
10
159.767208880166
20
-4.51541126671057
30
0
41
1
10
159.754041615903
20
-4.55489750964261
30
0
41
1
10
159.748040081984
20
-4.57078993887586
30
0
41
1
10
159.733916808041
20
-4.60278864153955
30
0
41
1
10
159.725518070332
20
-4.61935421908058
30
0
41
1
10
159.713459506121
20
-4.63980368712933
30
0
41
1
10
159.710236641939
20
-4.64499755548397
30
0
41
1
10
159.706977011336
20
-4.64999488260875
30
0
0
SPLINE
5
2A7
100
AcDbEntity
8
1
62
256
6
ByLayer
370
-1
48
1
60
0
100
AcDbSpline
70
4
71
3
72
12
73
8
40
0
40
0
40
0
40
0
40
0.537499189677463
40
0.537499189677463
40
0.978204604845646
40
0.978204604845646
40
1
40
1
40
1
40
1
41
1
10
155.210094211818
20
-16.8720076649964
30
0
41
1
10
155.147840711862
20
-16.8028217962109
30
0
41
1
10
155.09309105648
20
-16.7229263928145
30
0
41
1
10
155.016145194438
20
-16.5656335469016
30
0
41
1
10
154.989169666878
20
-16.48857253859
30
0
41
1
10
154.972564751568
20
-16.4069747103931
30
0
41
1
10
154.971799513206
20
-16.4030783650873
30
0
41
1
10
154.971061556344
20
-16.399179401738
30
0
0
SPLINE
5
2A8
100
AcDbEntity
8
1
62
256
6
ByLayer
370
-1
48
1
60
0
100
AcDbSpline
70
4
71
3
72
16
73
12
40
0
40
0
40
0
40
0
40
0.0113197000004147
40
0.0113197000004147
40
0.325952031184586
40
0.325952031184586
40
0.611565060295826
40
0.611565060295826
40
0.862469040564406
40
0.862469040564406
40
1
40
1
40
1
40
1
41
1
10
155.210094211818
20
-16.8720076649964
30
0
41
1
10
155.211222566727
20
-16.8732616702287
30
0
41
1
10
155.21234396347
20
-16.8745235229993
30
0
41
1
10
155.243946469424
20
-16.9105307583576
30
0
41
1
10
155.269523295146
20
-16.9519151240469
30
0
41
1
10
155.302205016272
20
-17.0367339714763
30
0
41
1
10
155.311226469945
20
-17.0810087913523
30
0
41
1
10
155.312224431097
20
-17.1630836200925
30
0
41
1
10
155.306085619716
20
-17.2022444354166
30
0
41
1
10
155.286515403318
20
-17.2578427106946
30
0
41
1
10
155.277547315933
20
-17.276887486706
30
0
41
1
10
155.266840840257
20
-17.294576751621
30
0
0
SPLINE
5
2A9
100
AcDbEntity
8
1
62
256
6
ByLayer
370
-1
48
1
60
0
100
AcDbSpline
70
4
71
3
72
16
73
12
40
0
40
0
40
0
40
0
40
0.0911679433712822
40
0.0911679433712822
40
0.313820406051248
40
0.313820406051248
40
0.540930752401731
40
0.540930752401731
40
0.784041924828067
40
0.784041924828067
40
1
40
1
40
1
40
1
41
1
10
155.266840840257
20
-17.294576751621
30
0
41
1
10
155.259902323167
20
-17.3060405862802
30
0
41
1
10
155.252198094489
20
-17.3170073949826
30
0
41
1
10
155.223516574673
20
-17.352415523674
30
0
41
1
10
155.198861427051
20
-17.3740267190278
30
0
41
1
10
155.144600624475
20
-17.4075996748451
30
0
41
1
10
155.114234620164
20
-17.4198097349738
30
0
41
1
10
155.050182973344
20
-17.434298478332
30
0
41
1
10
155.015624798643
20
-17.4360344077604
30
0
41
1
10
154.952294295888
20
-17.429290976685
30
0
41
1
10
154.922769488049
20
-17.4219294845905
30
0
41
1
10
154.894788409926
20
-17.4110176468355
30
0
0
SPLINE
5
2AA
100
AcDbEntity
8
1
62
256
6
ByLayer
370
-1
48
1
60
0
100
AcDbSpline
70
4
71
3
72
18
73
14
40
0
40
0
40
0
40
0
40
0.194707229508583
40
0.194707229508583
40
0.37213267447679
40
0.37213267447679
40
0.551484410835842
40
0.551484410835842
40
0.704942958574588
40
0.704942958574588
40
0.905288500750579
40
0.905288500750579
40
1
40
1
40
1
40
1
41
1
10
153.884941565701
20
-17.9743519589272
30
0
41
1
10
153.904981910564
20
-17.8910410151039
30
0
41
1
10
153.936463323317
20
-17.8089800102686
30
0
41
1
10
154.018635879048
20
-17.6644683018787
30
0
41
1
10
154.068514079964
20
-17.59939859286
30
0
41
1
10
154.185908372677
20
-17.4891602482539
30
0
41
1
10
154.255596949839
20
-17.4428236709247
30
0
41
1
10
154.391647541859
20
-17.3839382393481
30
0
41
1
10
154.458620988046
20
-17.3666445416907
30
0
41
1
10
154.610679521201
20
-17.3496034880408
30
0
41
1
10
154.69759801485
20
-17.3561494773313
30
0
41
1
10
154.818884461749
20
-17.3843958387522
30
0
41
1
10
154.857381573955
20
-17.3964300271852
30
0
41
1
10
154.894788409926
20
-17.4110176468349
30
0
0
SPLINE
5
2AB
100
AcDbEntity
8
1
62
256
6
ByLayer
370
-1
48
1
60
0
100
AcDbSpline
70
4
71
3
72
14
73
10
40
0
40
0
40
0
40
0
40
0.264811550888374
40
0.264811550888374
40
0.554702973213783
40
0.554702973213783
40
0.816600830646688
40
0.816600830646688
40
1
40
1
40
1
40
1
41
1
10
153.884941565701
20
-17.9743519589274
30
0
41
1
10
153.875900598998
20
-18.0119367147898
30
0
41
1
10
153.861029781057
20
-18.0487778926836
30
0
41
1
10
153.818687614526
20
-18.118473076027
30
0
41
1
10
153.789402275412
20
-18.1516794492211
30
0
41
1
10
153.724243688798
20
-18.2011718403478
30
0
41
1
10
153.688248931317
20
-18.2194717260162
30
0
41
1
10
153.624196864343
20
-18.2376741608378
30
0
41
1
10
153.596436522346
20
-18.2416375649109
30
0
41
1
10
153.568901101136
20
-18.2417577230522
30
0
0
SPLINE
5
2AC
100
AcDbEntity
8
1
62
256
6
ByLayer
370
-1
48
1
60
0
100
AcDbSpline
70
4
71
3
72
16
73
12
40
0
40
0
40
0
40
0
40
0.0516479771282006
40
0.0516479771282006
40
0.275008977543269
40
0.275008977543269
40
0.500552414413389
40
0.500552414413389
40
0.740268823694383
40
0.740268823694383
40
1
40
1
40
1
40
1
41
1
10
153.568901101136
20
-18.2417577230522
30
0
41
1
10
153.561105040584
20
-18.241791743238
30
0
41
1
10
153.553300732896
20
-18.2415239481716
30
0
41
1
10
153.512156496098
20
-18.238519341029
30
0
41
1
10
153.478772107295
20
-18.2303537482091
30
0
41
1
10
153.4169395182
20
-18.2041776956269
30
0
41
1
10
153.387745866052
20
-18.1857643306222
30
0
41
1
10
153.335349474394
20
-18.1404786685478
30
0
41
1
10
153.311960187548
20
-18.1126102783098
30
0
41
1
10
153.273211950303
20
-18.0498844418977
30
0
41
1
10
153.258175962168
20
-18.0138927546855
30
0
41
1
10
153.248708051121
20
-17.9771283332541
30
0
0
SPLINE
5
2AD
100
AcDbEntity
8
1
62
256
6
ByLayer
370
-1
48
1
60
0
100
AcDbSpline
70
4
71
3
72
18
73
14
40
0
40
0
40
0
40
0
40
0.196921775003747
40
0.196921775003747
40
0.373930047834627
40
0.373930047834627
40
0.552838497307393
40
0.552838497307393
40
0.706187346680746
40
0.706187346680746
40
0.906901818514534
40
0.906901818514534
40
1
40
1
40
1
40
1
41
1
10
152.238861206894
20
-17.4226074922786
30
0
41
1
10
152.314447350423
20
-17.3919257064907
30
0
41
1
10
152.395295774821
20
-17.3718897619626
30
0
41
1
10
152.551773673962
20
-17.3603550456884
30
0
41
1
10
152.628920311163
20
-17.3662984014574
30
0
41
1
10
152.778756723067
20
-17.4050674758263
30
0
41
1
10
152.853607775099
20
-17.4391238860801
30
0
41
1
10
152.976797399599
20
-17.523990063945
30
0
41
1
10
153.028919792461
20
-17.5726021383487
30
0
41
1
10
153.130750767707
20
-17.6958929758522
30
0
41
1
10
153.176711542592
20
-17.7758111432902
30
0
41
1
10
153.225429989202
20
-17.8972572885054
30
0
41
1
10
153.238366167051
20
-17.9369702263133
30
0
41
1
10
153.248708051121
20
-17.977128333254
30
0
0
SPLINE
5
2AE
100
AcDbEntity
8
1
62
256
6
ByLayer
370
-1
48
1
60
0
100
AcDbSpline
70
4
71
3
72
14
73
10
40
0
40
0
40
0
40
0
40
0.280234602389476
40
0.280234602389476
40
0.5681754902749
40
0.5681754902749
40
0.828479444262553
40
0.828479444262553
40
1
40
1
40
1
40
1
41
1
10
152.238861206894
20
-17.422607492279
30
0
41
1
10
152.203188266439
20
-17.4370877854432
30
0
41
1
10
152.164723263312
20
-17.4455964534986
30
0
41
1
10
152.087096342687
20
-17.4479777569395
30
0
41
1
10
152.046737485985
20
-17.4414014236762
30
0
41
1
10
151.976079277516
20
-17.4135541298282
30
0
41
1
10
151.944147581522
20
-17.3932672410401
30
0
41
1
10
151.89975101311
20
-17.3504942039968
30
0
41
1
10
151.883989093048
20
-17.330806324483
30
0
41
1
10
151.870961362014
20
-17.3093955758164
30
0
0
SPLINE
5
2AF
100
AcDbEntity
8
1
62
256
6
ByLayer
370
-1
48
1
60
0
100
AcDbSpline
70
4
71
3
72
18
73
14
40
0
40
0
40
0
40
0
40
0.0612573774480415
40
0.0612573774480415
40
0.27948395246964
40
0.27948395246964
40
0.500470610100591
40
0.500470610100591
40
0.735822942069659
40
0.735822942069659
40
0.994575323592256
40
0.994575323592256
40
1
40
1
40
1
40
1
41
1
10
151.870961362014
20
-17.3093955758164
30
0
41
1
10
151.866184601144
20
-17.3015450893305
30
0
41
1
10
151.861749941832
20
-17.2934349776223
30
0
41
1
10
151.843307415507
20
-17.255699198157
30
0
41
1
10
151.833468073699
20
-17.22315164262
30
0
41
1
10
151.823943885377
20
-17.1567383662649
30
0
41
1
10
151.824241161493
20
-17.1220224157709
30
0
41
1
10
151.834413736777
20
-17.0528946583054
30
0
41
1
10
151.845001782886
20
-17.0177810738915
30
0
41
1
10
151.875761782662
20
-16.9499041499594
30
0
41
1
10
151.897132371725
20
-16.9168514308161
30
0
41
1
10
151.922344971791
20
-16.8875603338022
30
0
41
1
10
151.922869734737
20
-16.8869543019647
30
0
41
1
10
151.923396076709
20
-16.8863500473334
30
0
0
SPLINE
5
2B0
100
AcDbEntity
8
1
62
256
6
ByLayer
370
-1
48
1
60
0
100
AcDbSpline
70
4
71
3
72
12
73
8
40
0
40
0
40
0
40
0
40
0.210744611346385
40
0.210744611346385
40
0.708714990416141
40
0.708714990416141
40
1
40
1
40
1
40
1
41
1
10
152.155985775615
20
-16.4114637343706
30
0
41
1
10
152.149132303444
20
-16.4488566003002
30
0
41
1
10
152.13981252938
20
-16.4861321762162
30
0
41
1
10
152.101475228465
20
-16.6080702670455
30
0
41
1
10
152.06222688308
20
-16.6903135813828
30
0
41
1
10
151.987322901454
20
-16.8073302367571
30
0
41
1
10
151.956517408629
20
-16.8483258743443
30
0
41
1
10
151.923396076709
20
-16.8863500473335
30
0
0
SPLINE
5
2B1
100
AcDbEntity
8
1
62
256
6
ByLayer
370
-1
48
1
60
0
100
AcDbSpline
70
4
71
3
72
12
73
8
40
0
40
0
40
0
40
0
40
0.238644736246834
40
0.238644736246834
40
0.744856633731451
40
0.744856633731451
40
1
40
1
40
1
40
1
41
1
10
154.971061556344
20
-16.1041058817119
30
0
41
1
10
154.979056329697
20
-16.0654859209301
30
0
41
1
10
154.99031207162
20
-16.0284615364557
30
0
41
1
10
155.033830267233
20
-15.9204620010117
30
0
41
1
10
155.076220711557
20
-15.8559811170069
30
0
41
1
10
155.15231933442
20
-15.7751073982202
30
0
41
1
10
155.180299126439
20
-15.7503192361438
30
0
41
1
10
155.210094211818
20
-15.7281240996803
30
0
0
SPLINE
5
2B2
100
AcDbEntity
8
1
62
256
6
ByLayer
370
-1
48
1
60
0
100
AcDbSpline
70
4
71
3
72
18
73
14
40
0
40
0
40
0
40
0
40
0.0249234866862229
40
0.0249234866862229
40
0.2440168490227
40
0.2440168490227
40
0.463732500095473
40
0.463732500095473
40
0.696086204296044
40
0.696086204296044
40
0.950572766561289
40
0.950572766561289
40
1
40
1
40
1
40
1
41
1
10
155.266840840257
20
-15.371269892188
30
0
41
1
10
155.268791891044
20
-15.3744763951417
30
0
41
1
10
155.270684372074
20
-15.3777084113459
30
0
41
1
10
155.288443155489
20
-15.4092537539744
30
0
41
1
10
155.299871540676
20
-15.4396712890793
30
0
41
1
10
155.312238514999
20
-15.4997846448443
30
0
41
1
10
155.313329844886
20
-15.5302432234919
30
0
41
1
10
155.305758440809
20
-15.5890121069794
30
0
41
1
10
155.296471496398
20
-15.6178400940924
30
0
41
1
10
155.2681908083
20
-15.6714884855527
30
0
41
1
10
155.248039055058
20
-15.6963561240529
30
0
41
1
10
155.219768651876
20
-15.7206540489882
30
0
41
1
10
155.214996385345
20
-15.7244723427208
30
0
41
1
10
155.210094211818
20
-15.7281240996803
30
0
0
SPLINE
5
2B3
100
AcDbEntity
8
1
62
256
6
ByLayer
370
-1
48
1
60
0
100
AcDbSpline
70
4
71
3
72
12
73
8
40
0
40
0
40
0
40
0
40
0.488382226294696
40
0.488382226294696
40
0.938326634806833
40
0.938326634806833
40
1
40
1
40
1
40
1
41
1
10
151.92339607671
20
-15.7424664820167
30
0
41
1
10
151.978586318881
20
-15.7841210505437
30
0
41
1
10
152.027578000402
20
-15.8354890115494
30
0
41
1
10
152.103054523117
20
-15.9512891547188
30
0
41
1
10
152.131712520941
20
-16.0158828734351
30
0
41
1
10
152.151734984423
20
-16.0964245899075
30
0
41
1
10
152.153966104378
20
-16.1063494517199
30
0
41
1
10
152.155985775615
20
-16.1163902143446
30
0
0
SPLINE
5
2B4
100
AcDbEntity
8
1
62
256
6
ByLayer
370
-1
48
1
60
0
100
AcDbSpline
70
4
71
3
72
16
73
12
40
0
40
0
40
0
40
0
40
0.115967195728967
40
0.115967195728967
40
0.41887467824961
40
0.41887467824961
40
0.693205641512858
40
0.693205641512858
40
0.935091184694315
40
0.935091184694315
40
1
40
1
40
1
40
1
41
1
10
151.923396076706
20
-15.7424664820215
30
0
41
1
10
151.912210983144
20
-15.7340245867166
30
0
41
1
10
151.901717283672
20
-15.7246513914843
30
0
41
1
10
151.867142683547
20
-15.6879770609246
30
0
41
1
10
151.847586652689
20
-15.6550618144274
30
0
41
1
10
151.826288899246
20
-15.5854920364975
30
0
41
1
10
151.822793205156
20
-15.5483629142297
30
0
41
1
10
151.831017629386
20
-15.4779740208553
30
0
41
1
10
151.841159682874
20
-15.4437455452966
30
0
41
1
10
151.861190944095
20
-15.4030463200929
30
0
41
1
10
151.865882937117
20
-15.3944793022378
30
0
41
1
10
151.870961362014
20
-15.3860887163833
30
0
0
SPLINE
5
2B5
100
AcDbEntity
8
1
62
256
6
ByLayer
370
-1
48
1
60
0
100
AcDbSpline
70
4
71
3
72
16
73
12
40
0
40
0
40
0
40
0
40
0.16121436513004
40
0.16121436513004
40
0.384054669027334
40
0.384054669027334
40
0.615221100576692
40
0.615221100576692
40
0.865480028758232
40
0.865480028758232
40
1
40
1
40
1
40
1
41
1
10
151.870961362014
20
-15.3860887163833
30
0
41
1
10
151.883173805844
20
-15.3659112872556
30
0
41
1
10
151.897778223549
20
-15.3465620545554
30
0
41
1
10
151.936672128039
20
-15.3043932223677
30
0
41
1
10
151.963068625175
20
-15.2825661645146
30
0
41
1
10
152.020129593105
20
-15.2463842043608
30
0
41
1
10
152.051619556295
20
-15.2318586469208
30
0
41
1
10
152.117266482922
20
-15.2109253160822
30
0
41
1
10
152.152241627132
20
-15.2049905064374
30
0
41
1
10
152.203774413232
20
-15.203172017757
30
0
41
1
10
152.22160592881
20
-15.2038988998734
30
0
41
1
10
152.238861206894
20
-15.2059023167955
30
0
0
SPLINE
5
2B6
100
AcDbEntity
8
1
62
256
6
ByLayer
370
-1
48
1
60
0
100
AcDbSpline
70
4
71
3
72
18
73
14
40
0
40
0
40
0
40
0
40
0.207993339910972
40
0.207993339910972
40
0.382966373997829
40
0.382966373997829
40
0.559708257177336
40
0.559708257177336
40
0.712573028514991
40
0.712573028514991
40
0.915188960742891
40
0.915188960742891
40
1
40
1
40
1
40
1
41
1
10
153.248708051119
20
-14.6425680047077
30
0
41
1
10
153.2258372557
20
-14.7091342229618
30
0
41
1
10
153.189934281418
20
-14.7755882938675
30
0
41
1
10
153.100105020917
20
-14.8909860765842
30
0
41
1
10
153.048759731567
20
-14.9423044889926
30
0
41
1
10
152.929919697268
20
-15.0347277000031
30
0
41
1
10
152.860336675229
20
-15.0770345752817
30
0
41
1
10
152.725256082065
20
-15.1398421957957
30
0
41
1
10
152.658906679886
20
-15.1633072449663
30
0
41
1
10
152.507670660088
20
-15.2016823180121
30
0
41
1
10
152.421195973378
20
-15.2121653972129
30
0
41
1
10
152.305497072499
20
-15.2117352706437
30
0
41
1
10
152.271738719621
20
-15.2097195468069
30
0
41
1
10
152.238861206894
20
-15.2059023167956
30
0
0
SPLINE
5
2B7
100
AcDbEntity
8
1
62
256
6
ByLayer
370
-1
48
1
60
0
100
AcDbSpline
70
4
71
3
72
14
73
10
40
0
40
0
40
0
40
0
40
0.227747390964352
40
0.227747390964352
40
0.52229741010995
40
0.52229741010995
40
0.788141840541969
40
0.788141840541969
40
1
40
1
40
1
40
1
41
1
10
154.894788409926
20
-15.1943124713516
30
0
41
1
10
154.924333003869
20
-15.1906883390705
30
0
41
1
10
154.955617508976
20
-15.1906808052174
30
0
41
1
10
155.027694931252
20
-15.1998295254922
30
0
41
1
10
155.069810862396
20
-15.2119373773162
30
0
41
1
10
155.144331303176
20
-15.2477377639439
30
0
41
1
10
155.178393268617
20
-15.2707986425578
30
0
41
1
10
155.230373858221
20
-15.3198490936027
30
0
41
1
10
155.250763929768
20
-15.3448478936897
30
0
41
1
10
155.266840840257
20
-15.371269892188
30
0
0
SPLINE
5
2B8
100
AcDbEntity
8
1
62
256
6
ByLayer
370
-1
48
1
60
0
100
AcDbSpline
70
4
71
3
72
14
73
10
40
0
40
0
40
0
40
0
40
0.197061049816516
40
0.197061049816516
40
0.495409650609849
40
0.495409650609849
40
0.76463211727714
40
0.76463211727714
40
1
40
1
40
1
40
1
41
1
10
153.248708051117
20
-14.6425680047065
30
0
41
1
10
153.255903802251
20
-14.6216245293374
30
0
41
1
10
153.266269286343
20
-14.6009107390202
30
0
41
1
10
153.299813519872
20
-14.5517468442018
30
0
41
1
10
153.327566709604
20
-14.5239465903045
30
0
41
1
10
153.390999195565
20
-14.4810173543891
30
0
41
1
10
153.426668372701
20
-14.4643103933465
30
0
41
1
10
153.497739029112
20
-14.4441618598324
30
0
41
1
10
153.533602715011
20
-14.4390617788576
30
0
41
1
10
153.568901101136
20
-14.4389077449522
30
0
0
SPLINE
5
2B9
100
AcDbEntity
8
1
62
256
6
ByLayer
370
-1
48
1
60
0
100
AcDbSpline
70
4
71
3
72
18
73
14
40
0
40
0
40
0
40
0
40
0.0040520837744869
40
0.0040520837744869
40
0.228770169170007
40
0.228770169170007
40
0.45283328015019
40
0.45283328015019
40
0.688771690735169
40
0.688771690735169
40
0.946553144987503
40
0.946553144987503
40
1
40
1
40
1
40
1
41
1
10
153.568901101136
20
-14.4389077449522
30
0
41
1
10
153.569516123674
20
-14.4389050611376
30
0
41
1
10
153.570131135239
20
-14.4389038246659
30
0
41
1
10
153.604381069732
20
-14.4389155696549
30
0
41
1
10
153.63838694262
20
-14.4434020742351
30
0
41
1
10
153.701499426427
20
-14.4602717171461
30
0
41
1
10
153.731435994055
20
-14.4728279044227
30
0
41
1
10
153.785443143674
20
-14.5045014237892
30
0
41
1
10
153.809816032622
20
-14.5243030905118
30
0
41
1
10
153.851116877952
20
-14.5695160010297
30
0
41
1
10
153.867696439924
20
-14.5958215050576
30
0
41
1
10
153.881023060475
20
-14.6283940898251
30
0
41
1
10
153.88309903839
20
-14.6340794298593
30
0
41
1
10
153.884941565701
20
-14.639791630377
30
0
0
SPLINE
5
2BA
100
AcDbEntity
8
1
62
256
6
ByLayer
370
-1
48
1
60
0
100
AcDbSpline
70
4
71
3
72
18
73
14
40
0
40
0
40
0
40
0
40
0.211689539235242
40
0.211689539235242
40
0.385932342887353
40
0.385932342887353
40
0.56189848986689
40
0.56189848986689
40
0.714573453315006
40
0.714573453315006
40
0.917791207619115
40
0.917791207619115
40
1
40
1
40
1
40
1
41
1
10
154.894788409926
20
-15.1943124713523
30
0
41
1
10
154.812013631562
20
-15.2044661646775
30
0
41
1
10
154.723111737417
20
-15.2035704215141
30
0
41
1
10
154.558868979952
20
-15.1796218797147
30
0
41
1
10
154.482070947388
20
-15.1601196642197
30
0
41
1
10
154.334195049957
20
-15.1047680657579
30
0
41
1
10
154.261065468544
20
-15.0678213892486
30
0
41
1
10
154.141031055811
20
-14.9886367246192
30
0
41
1
10
154.090442114486
20
-14.9468376371781
30
0
41
1
10
153.991492014061
20
-14.8451536526272
30
0
41
1
10
153.947451411017
20
-14.7821697479388
30
0
41
1
10
153.903990267781
20
-14.6924651089995
30
0
41
1
10
153.893456622694
20
-14.6661899978094
30
0
41
1
10
153.884941565701
20
-14.639791630377
30
0
0
SPLINE
5
2BB
100
AcDbEntity
8
1
62
256
6
ByLayer
370
-1
48
1
60
0
100
AcDbSpline
70
4
71
3
72
8
73
4
40
0
40
0
40
0
40
0
40
1
40
1
40
1
40
1
41
1
10
150.404321627063
20
-21.3951847077869
30
0
41
1
10
150.394905028105
20
-21.3919380596238
30
0
41
1
10
150.385488430717
20
-21.3886914129466
30
0
41
1
10
150.376071834889
20
-21.3854447677448
30
0
0
SPLINE
5
2BC
100
AcDbEntity
8
1
62
256
6
ByLayer
370
-1
48
1
60
0
100
AcDbSpline
70
4
71
3
72
16
73
12
40
0
40
0
40
0
40
0
40
0.164710736630195
40
0.164710736630195
40
0.331370362656703
40
0.331370362656703
40
0.476446336500429
40
0.476446336500429
40
0.70280104123597
40
0.70280104123597
40
1
40
1
40
1
40
1
41
1
10
158.962099431011
20
-22.5369095405455
30
0
41
1
10
158.968439515772
20
-22.5258152149444
30
0
41
1
10
158.973384870719
20
-22.5136832282778
30
0
41
1
10
158.978541754642
20
-22.4885561564061
30
0
41
1
10
158.978693041323
20
-22.4752102770638
30
0
41
1
10
158.974319884314
20
-22.4514545490656
30
0
41
1
10
158.970400185734
20
-22.4406133122537
30
0
41
1
10
158.957184890122
20
-22.4150216812388
30
0
41
1
10
158.945993949738
20
-22.4009637285483
30
0
41
1
10
158.917071543089
20
-22.3725462442713
30
0
41
1
10
158.897997756912
20
-22.3589660254516
30
0
41
1
10
158.878006485279
20
-22.3475385567276
30
0
0
SPLINE
5
2BD
100
AcDbEntity
8
1
62
256
6
ByLayer
370
-1
48
1
60
0
100
AcDbSpline
70
4
71
3
72
16
73
12
40
0
40
0
40
0
40
0
40
0.343443954228631
40
0.343443954228631
40
0.535083245610725
40
0.535083245610725
40
0.693553557835135
40
0.693553557835135
40
0.853171508912902
40
0.853171508912902
40
1
40
1
40
1
40
1
41
1
10
155.925473639866
20
-22.3604227198574
30
0
41
1
10
155.902566378903
20
-22.3737836105475
30
0
41
1
10
155.88079064162
20
-22.3900313960389
30
0
41
1
10
155.853085919506
20
-22.4207947915939
30
0
41
1
10
155.844273768009
20
-22.4331626621461
30
0
41
1
10
155.832505037186
20
-22.4576552112518
30
0
41
1
10
155.828743852453
20
-22.4697111794278
30
0
41
1
10
155.825847113533
20
-22.4941852487968
30
0
41
1
10
155.826754674358
20
-22.5069206432624
30
0
41
1
10
155.83263128167
20
-22.5299635177225
30
0
41
1
10
155.837279492754
20
-22.5406475898239
30
0
41
1
10
155.843036387132
20
-22.5505204025328
30
0
0
SPLINE
5
2BE
100
AcDbEntity
8
1
62
256
6
ByLayer
370
-1
48
1
60
0
100
AcDbSpline
70
4
71
3
72
12
73
8
40
0
40
0
40
0
40
0
40
0.261466805566818
40
0.261466805566818
40
0.727154521522211
40
0.727154521522211
40
1
40
1
40
1
40
1
41
1
10
157.556137459929
20
-21.601278677294
30
0
41
1
10
157.52964539193
20
-21.5920822820906
30
0
41
1
10
157.50238514008
20
-21.5847627730306
30
0
41
1
10
157.425745344948
20
-21.5715376059395
30
0
41
1
10
157.374545527361
20
-21.5715299586713
30
0
41
1
10
157.29672188172
20
-21.5850304987146
30
0
41
1
10
157.268316211411
20
-21.5928259732876
30
0
41
1
10
157.240780309786
20
-21.6026548221769
30
0
0
SPLINE
5
2BF
100
AcDbEntity
8
1
62
256
6
ByLayer
370
-1
48
1
60
0
100
AcDbSpline
70
4
71
3
72
14
73
10
40
0
40
0
40
0
40
0
40
0.327529474127665
40
0.327529474127665
40
0.665666599581689
40
0.665666599581689
40
0.915673055310673
40
0.915673055310673
40
1
40
1
40
1
40
1
41
1
10
159.194854527024
20
-16.2655883807446
30
0
41
1
10
159.180043408231
20
-16.2704965597884
30
0
41
1
10
159.161530497337
20
-16.2747291027349
30
0
41
1
10
159.120681538179
20
-16.2816920357682
30
0
41
1
10
159.097604626166
20
-16.2844756673131
30
0
41
1
10
159.055890407417
20
-16.2874506874268
30
0
41
1
10
159.037225189226
20
-16.2881547207393
30
0
41
1
10
159.012542870085
20
-16.2879009426233
30
0
41
1
10
159.006262067239
20
-16.2877305894184
30
0
41
1
10
159.000084786834
20
-16.2874340102149
30
0
0
SPLINE
5
2C0
100
AcDbEntity
8
1
62
256
6
ByLayer
370
-1
48
1
60
0
100
AcDbSpline
70
4
71
3
72
14
73
10
40
0
40
0
40
0
40
0
40
0.25
40
0.25
40
0.5
40
0.5
40
0.75
40
0.75
40
1
40
1
40
1
40
1
41
1
10
151.207678381067
20
-20.8609421886308
30
0
41
1
10
151.838675580941
20
-20.858187326551
30
0
41
1
10
152.469672783111
20
-20.855441228757
30
0
41
1
10
153.731667182604
20
-20.8499305344501
30
0
41
1
10
154.368650694475
20
-20.8965406311284
30
0
41
1
10
155.593996257474
20
-20.5598680004994
30
0
41
1
10
156.111605355381
20
-20.2040224837489
30
0
41
1
10
157.197324016704
20
-19.6003332102672
30
0
41
1
10
157.739930973647
20
-19.2980409277184
30
0
41
1
10
158.282378334455
20
-18.9954655628389
30
0
0
SPLINE
5
2C1
100
AcDbEntity
8
1
62
256
6
ByLayer
370
-1
48
1
60
0
100
AcDbSpline
70
4
71
3
72
10
73
6
40
0
40
0
40
0
40
0
40
0.226375575408428
40
0.226375575408428
40
1
40
1
40
1
40
1
41
1
10
151.223599802781
20
-19.6891641366123
30
0
41
1
10
151.259434269583
20
-19.7354816113599
30
0
41
1
10
151.295887512307
20
-19.7812179388398
30
0
41
1
10
151.459454406075
20
-19.9804492185842
30
0
41
1
10
151.593127760809
20
-20.127703104493
30
0
41
1
10
151.733241305074
20
-20.2671641846246
30
0
0
SPLINE
5
2C2
100
AcDbEntity
8
1
62
256
6
ByLayer
370
-1
48
1
60
0
100
AcDbSpline
70
4
71
3
72
10
73
6
40
0
40
0
40
0
40
0
40
0.22637576322092
40
0.22637576322092
40
1
40
1
40
1
40
1
41
1
10
157.278710239728
20
-18.7067917542745
30
0
41
1
10
157.295794795715
20
-18.6495923633831
30
0
41
1
10
157.312049596029
20
-18.592124073516
30
0
41
1
10
157.380123312675
20
-18.3373866227117
30
0
41
1
10
157.423118652058
20
-18.1373287960505
30
0
41
1
10
157.456251564769
20
-17.9354336420448
30
0
0
SPLINE
5
2C3
100
AcDbEntity
8
1
62
256
6
ByLayer
370
-1
48
1
60
0
100
AcDbSpline
70
4
71
3
72
8
73
4
40
0
40
0
40
0
40
0
40
1
40
1
40
1
40
1
41
1
10
150.850456962773
20
-20.8685073813293
30
0
41
1
10
150.953988738818
20
-20.8496580876635
30
0
41
1
10
151.057520512023
20
-20.8308087304506
30
0
41
1
10
151.161052280667
20
-20.8119592711911
30
0
0
SPLINE
5
2C4
100
AcDbEntity
8
1
62
256
6
ByLayer
370
-1
48
1
60
0
100
AcDbSpline
70
4
71
3
72
12
73
8
40
0
40
0
40
0
40
0
40
0.45220901090153
40
0.45220901090153
40
0.985658768919409
40
0.985658768919409
40
1
40
1
40
1
40
1
41
1
10
157.467989390457
20
-17.7654534812846
30
0
41
1
10
157.461980770441
20
-17.7247979853348
30
0
41
1
10
157.454327970089
20
-17.682546165099
30
0
41
1
10
157.436372184696
20
-17.5920262173481
30
0
41
1
10
157.425629416034
20
-17.5430927061599
30
0
41
1
10
157.414413031722
20
-17.4947019742054
30
0
41
1
10
157.414119076605
20
-17.4934368287517
30
0
41
1
10
157.413825446022
20
-17.4921726308272
30
0
0
SPLINE
5
2C5
100
AcDbEntity
8
1
62
256
6
ByLayer
370
-1
48
1
60
0
100
AcDbSpline
70
4
71
3
72
10
73
6
40
0
40
0
40
0
40
0
40
0.274190864391886
40
0.274190864391886
40
1
40
1
40
1
40
1
41
1
10
157.456251564769
20
-17.9354336420448
30
0
41
1
10
157.4600282556
20
-17.9202327415405
30
0
41
1
10
157.463196563887
20
-17.9048579433053
30
0
41
1
10
157.472140734518
20
-17.848706900308
30
0
41
1
10
157.474062366783
20
-17.8065444245875
30
0
41
1
10
157.467989390457
20
-17.7654534812846
30
0
0
SPLINE
5
2C6
100
AcDbEntity
8
1
62
256
6
ByLayer
370
-1
48
1
60
0
100
AcDbSpline
70
4
71
3
72
8
73
4
40
0
40
0
40
0
40
0
40
1
40
1
40
1
40
1
41
1
10
159.108700404602
20
-16.3707528755108
30
0
41
1
10
159.07249520518
20
-16.3429799176561
30
0
41
1
10
159.036290001025
20
-16.3152069618081
30
0
41
1
10
159.000084786834
20
-16.2874340102149
30
0
0
SPLINE
5
2C7
100
AcDbEntity
8
1
62
256
6
ByLayer
370
-1
48
1
60
0
100
AcDbSpline
70
4
71
3
72
10
73
6
40
0
40
0
40
0
40
0
40
0.726371168591023
40
0.726371168591023
40
1
40
1
40
1
40
1
41
1
10
157.941343895644
20
-16.448560134588
30
0
41
1
10
157.930062692179
20
-16.4766248372082
30
0
41
1
10
157.912289543786
20
-16.5034889346482
30
0
41
1
10
157.877443560717
20
-16.5355233874018
30
0
41
1
10
157.866698540133
20
-16.5438698955122
30
0
41
1
10
157.854778831175
20
-16.5515025350444
30
0
0
SPLINE
5
2C8
100
AcDbEntity
8
1
62
256
6
ByLayer
370
-1
48
1
60
0
100
AcDbSpline
70
4
71
3
72
12
73
8
40
0
40
0
40
0
40
0
40
0.454187976028931
40
0.454187976028931
40
0.987490284578427
40
0.987490284578427
40
1
40
1
40
1
40
1
41
1
10
157.854778831175
20
-16.5515025350444
30
0
41
1
10
157.824963039225
20
-16.5655755027265
30
0
41
1
10
157.790938258173
20
-16.582470383633
30
0
41
1
10
157.714909808485
20
-16.6218409669676
30
0
41
1
10
157.671547603939
20
-16.6452649613776
30
0
41
1
10
157.62745187793
20
-16.670201516197
30
0
41
1
10
157.626441632676
20
-16.670773142487
30
0
41
1
10
157.625431575816
20
-16.6713458382706
30
0
0
SPLINE
5
2C9
100
AcDbEntity
8
1
62
256
6
ByLayer
370
-1
48
1
60
0
100
AcDbSpline
70
4
71
3
72
12
73
8
40
0
40
0
40
0
40
0
40
0.0125097154214447
40
0.0125097154214447
40
0.545812023970992
40
0.545812023970992
40
1
40
1
40
1
40
1
41
1
10
157.413825446022
20
-17.4921726308272
30
0
41
1
10
157.414441105915
20
-17.493129813206
30
0
41
1
10
157.415057040994
20
-17.4940877284166
30
0
41
1
10
157.441930570399
20
-17.535956612609
30
0
41
1
10
157.468144786143
20
-17.5790502028339
30
0
41
1
10
157.513277856085
20
-17.6595237633645
30
0
41
1
10
157.533140997803
20
-17.6975623241436
30
0
41
1
10
157.549883321906
20
-17.7342017469321
30
0
0
SPLINE
5
2CA
100
AcDbEntity
8
1
62
256
6
ByLayer
370
-1
48
1
60
0
100
AcDbSpline
70
4
71
3
72
10
73
6
40
0
40
0
40
0
40
0
40
0.5178668659736
40
0.5178668659736
40
1
40
1
40
1
40
1
41
1
10
158.297532164381
20
-18.9290991380411
30
0
41
1
10
158.574789968621
20
-18.8726173357319
30
0
41
1
10
158.852748403371
20
-18.8183518268987
30
0
41
1
10
159.390484990012
20
-18.717031898979
30
0
41
1
10
159.650206946773
20
-18.6697396739167
30
0
41
1
10
159.910292475235
20
-18.6237516812845
30
0
0
SPLINE
5
2CB
100
AcDbEntity
8
1
62
256
6
ByLayer
370
-1
48
1
60
0
100
AcDbSpline
70
4
71
3
72
10
73
6
40
0
40
0
40
0
40
0
40
0.732128243131977
40
0.732128243131977
40
1
40
1
40
1
40
1
41
1
10
157.549883321906
20
-17.7342017469321
30
0
41
1
10
157.564311433987
20
-17.7804078882535
30
0
41
1
10
157.568712533887
20
-17.8290521974524
30
0
41
1
10
157.56495289386
20
-17.8932578199519
30
0
41
1
10
157.562952827994
20
-17.9105028488324
30
0
41
1
10
157.560069454201
20
-17.9275356120892
30
0
0
SPLINE
5
2CC
100
AcDbEntity
8
1
62
256
6
ByLayer
370
-1
48
1
60
0
100
AcDbSpline
70
4
71
3
72
10
73
6
40
0
40
0
40
0
40
0
40
0.478255409340393
40
0.478255409340393
40
1
40
1
40
1
40
1
41
1
10
159.91036511206
20
-18.7412377362833
30
0
41
1
10
159.654773405335
20
-18.7861196740022
30
0
41
1
10
159.3995347615
20
-18.8322485117528
30
0
41
1
10
158.866780255228
20
-18.9318059205489
30
0
41
1
10
158.589334777536
20
-18.9855149939111
30
0
41
1
10
158.31258724283
20
-19.0414037570558
30
0
0
SPLINE
5
2CD
100
AcDbEntity
8
1
62
256
6
ByLayer
370
-1
48
1
60
0
100
AcDbSpline
70
4
71
3
72
10
73
6
40
0
40
0
40
0
40
0
40
0.391412264300151
40
0.391412264300151
40
1
40
1
40
1
40
1
41
1
10
151.206959700926
20
-20.9290310944624
30
0
41
1
10
151.147473052769
20
-20.9398615028192
30
0
41
1
10
151.087986400995
20
-20.9506918770084
30
0
41
1
10
150.936006864531
20
-20.9783617960168
30
0
41
1
10
150.843513975967
20
-20.9952012996959
30
0
41
1
10
150.751021085446
20
-21.0120407788695
30
0
0
SPLINE
5
2CE
100
AcDbEntity
8
1
62
256
6
ByLayer
370
-1
48
1
60
0
100
AcDbSpline
70
4
71
3
72
14
73
10
40
0
40
0
40
0
40
0
40
0.25
40
0.25
40
0.5
40
0.5
40
0.75
40
0.75
40
1
40
1
40
1
40
1
41
1
10
158.31258724283
20
-19.0414037570558
30
0
41
1
10
157.76808147402
20
-19.3478460415515
30
0
41
1
10
157.223558805472
20
-19.654135500869
30
0
41
1
10
156.13422948529
20
-20.2658250316327
30
0
41
1
10
155.616098126461
20
-20.6266143052431
30
0
41
1
10
154.384384602649
20
-20.966759196885
30
0
41
1
10
153.744182792628
20
-20.9179610469195
30
0
41
1
10
152.475571213372
20
-20.9235023140834
30
0
41
1
10
151.84126547536
20
-20.9262616915241
30
0
41
1
10
151.206959700926
20
-20.9290310944624
30
0
0
SPLINE
5
2CF
100
AcDbEntity
8
1
62
256
6
ByLayer
370
-1
48
1
60
0
100
AcDbSpline
70
4
71
3
72
10
73
6
40
0
40
0
40
0
40
0
40
0.226375575408414
40
0.226375575408414
40
1
40
1
40
1
40
1
41
1
10
157.859576665291
20
-16.3709229686448
30
0
41
1
10
157.874353249733
20
-16.3350931689832
30
0
41
1
10
157.888298780141
20
-16.2990445982875
30
0
41
1
10
157.946161822212
20
-16.1390281971511
30
0
41
1
10
157.981205839569
20
-16.0127649325069
30
0
41
1
10
158.006226535526
20
-15.8847332997528
30
0
0
SPLINE
5
2D0
100
AcDbEntity
8
1
62
256
6
ByLayer
370
-1
48
1
60
0
100
AcDbSpline
70
4
71
3
72
12
73
8
40
0
40
0
40
0
40
0
40
0.0143412310806504
40
0.0143412310806504
40
0.54779098909851
40
0.54779098909851
40
1
40
1
40
1
40
1
41
1
10
157.625431575816
20
-16.6713458382706
30
0
41
1
10
157.626305813163
20
-16.6703578444038
30
0
41
1
10
157.62718032007
20
-16.6693710113141
30
0
41
1
10
157.660587138792
20
-16.631684354494
30
0
41
1
10
157.693181295609
20
-16.595855647925
30
0
41
1
10
157.75035475918
20
-16.5342489960282
30
0
41
1
10
157.775842537373
20
-16.5073183796709
30
0
41
1
10
157.798386624781
20
-16.4838322806896
30
0
0
SPLINE
5
2D1
100
AcDbEntity
8
1
62
256
6
ByLayer
370
-1
48
1
60
0
100
AcDbSpline
70
4
71
3
72
10
73
6
40
0
40
0
40
0
40
0
40
0.266814892217268
40
0.266814892217268
40
1
40
1
40
1
40
1
41
1
10
157.798386624781
20
-16.4838322806896
30
0
41
1
10
157.806830132638
20
-16.4750359582796
30
0
41
1
10
157.814320068872
20
-16.4656927228113
30
0
41
1
10
157.839172361884
20
-16.4296521999724
30
0
41
1
10
157.851541879723
20
-16.4006273666702
30
0
41
1
10
157.859576665291
20
-16.3709229686448
30
0
0
SPLINE
5
2D2
100
AcDbEntity
8
1
62
256
6
ByLayer
370
-1
48
1
60
0
100
AcDbSpline
70
4
71
3
72
12
73
8
40
0
40
0
40
0
40
0
40
0.133148321068525
40
0.133148321068525
40
0.702614877346734
40
0.702614877346734
40
1
40
1
40
1
40
1
41
1
10
150.404321627052
20
-21.3951847077907
30
0
41
1
10
150.58822789707
20
-21.3943822916219
30
0
41
1
10
150.77213416773
20
-21.3935803664487
30
0
41
1
10
151.742595387459
20
-21.3893492944206
30
0
41
1
10
152.529150322399
20
-21.3859099116213
30
0
41
1
10
153.72635617197
20
-21.3806776883533
30
0
41
1
10
154.140504919993
20
-21.4066486305962
30
0
41
1
10
154.547222335791
20
-21.3497078261729
30
0
0
SPLINE
5
2D3
100
AcDbEntity
8
1
62
256
6
ByLayer
370
-1
48
1
60
0
100
AcDbSpline
70
4
71
3
72
12
73
8
40
0
40
0
40
0
40
0
40
0.25
40
0.25
40
0.5
40
0.5
40
1
40
1
40
1
40
1
41
1
10
154.547222335791
20
-21.349707826173
30
0
41
1
10
155.025954050561
20
-21.2826849550512
30
0
41
1
10
155.461244510782
20
-21.0831100619855
30
0
41
1
10
156.349302487626
20
-20.7364781771163
30
0
41
1
10
156.793152307915
20
-20.5609056414738
30
0
41
1
10
158.123793910883
20
-20.0312511311555
30
0
41
1
10
159.011272399187
20
-19.6793659199664
30
0
41
1
10
159.898921666481
20
-19.3281036512146
30
0
0
SPLINE
5
2D4
100
AcDbEntity
8
1
62
256
6
ByLayer
370
-1
48
1
60
0
100
AcDbSpline
70
4
71
3
72
12
73
8
40
0
40
0
40
0
40
0
40
0.500000000000014
40
0.500000000000014
40
0.750000000000007
40
0.750000000000007
40
1
40
1
40
1
40
1
41
1
10
159.897816413994
20
-19.4680257989013
30
0
41
1
10
159.014596999761
20
-19.8218599707125
30
0
41
1
10
158.1316483754
20
-20.1763300570936
30
0
41
1
10
156.80779624834
20
-20.7093756580239
30
0
41
1
10
156.365827527231
20
-20.8850344891578
30
0
41
1
10
155.479253066831
20
-21.2266896538838
30
0
41
1
10
155.041400521783
20
-21.4168794929967
30
0
41
1
10
154.569257662388
20
-21.4849025732403
30
0
0
SPLINE
5
2D5
100
AcDbEntity
8
1
62
256
6
ByLayer
370
-1
48
1
60
0
100
AcDbSpline
70
4
71
3
72
12
73
8
40
0
40
0
40
0
40
0
40
0.327536934741048
40
0.327536934741048
40
0.689545574034056
40
0.689545574034056
40
1
40
1
40
1
40
1
41
1
10
154.569257662388
20
-21.4849025732403
30
0
41
1
10
154.162545834379
20
-21.5829848839856
30
0
41
1
10
153.733003551207
20
-21.5422357343497
30
0
41
1
10
152.850987553408
20
-21.5460930280696
30
0
41
1
10
152.387722983734
20
-21.5481294747541
30
0
41
1
10
151.527168020389
20
-21.5518847455471
30
0
41
1
10
151.129877647083
20
-21.5536143993473
30
0
41
1
10
150.732587277747
20
-21.5553461809171
30
0
0
SPLINE
5
2D6
100
AcDbEntity
8
1
62
256
6
ByLayer
370
-1
48
1
60
0
100
AcDbSpline
70
4
71
3
72
8
73
4
40
0
40
0
40
0
40
0
40
1
40
1
40
1
40
1
41
1
10
150.751021085446
20
-21.0120407788695
30
0
41
1
10
150.626038001927
20
-21.1365087751613
30
0
41
1
10
150.501054918408
20
-21.260976771453
30
0
41
1
10
150.376071834889
20
-21.3854447677448
30
0
0
SPLINE
5
2D7
100
AcDbEntity
8
1
62
256
6
ByLayer
370
-1
48
1
60
0
100
AcDbSpline
70
4
71
1
72
4
73
2
40
0
40
0
40
1
40
1
41
1
10
159.899718289257
20
-16.0320072722061
30
0
41
1
10
159.194854527024
20
-16.2655883807446
30
0
0
SPLINE
5
2D8
100
AcDbEntity
8
SK1
62
256
6
ByLayer
370
-1
48
1
60
0
100
AcDbSpline
70
4
71
3
72
10
73
6
40
0
40
0
40
0
40
0
40
0.5
40
0.5
40
1
40
1
40
1
40
1
41
1
10
-138.836
20
-7.57100492421583
30
0
41
1
10
-139.751720015059
20
-5.15328673564838
30
0
41
1
10
-140.323815900012
20
-2.61766499305557
30
0
41
1
10
-140.326678525705
20
2.597354971751
30
0
41
1
10
-139.748549752422
20
5.1616569814806
30
0
41
1
10
-138.836
20
7.57100492421586
30
0
0
SPLINE
5
2D9
100
AcDbEntity
8
1
62
256
6
ByLayer
370
-1
48
1
60
0
100
AcDbSpline
70
4
71
3
72
12
73
8
40
0
40
0
40
0
40
0
40
0.467747243448217
40
0.467747243448217
40
0.914074073580955
40
0.914074073580955
40
1
40
1
40
1
40
1
41
1
10
159.897816413994
20
-19.4680257989013
30
0
41
1
10
159.897816413994
20
-19.4411353662094
30
0
41
1
10
159.897900424805
20
-19.4151145325385
30
0
41
1
10
159.898218521726
20
-19.370701850279
30
0
41
1
10
159.89845064685
20
-19.3513646987727
30
0
41
1
10
159.898800189908
20
-19.3334808727004
30
0
41
1
10
159.898859807552
20
-19.3307087263024
30
0
41
1
10
159.898921666464
20
-19.3281036512211
30
0
0
SPLINE
5
2DA
100
AcDbEntity
8
1
62
256
6
ByLayer
370
-1
48
1
60
0
100
AcDbSpline
70
4
71
3
72
10
73
6
40
0
40
0
40
0
40
0
40
0.410984291904104
40
0.410984291904104
40
1
40
1
40
1
40
1
41
1
10
159.910365112062
20
-18.7412377362831
30
0
41
1
10
159.908940527046
20
-18.8304808709151
30
0
41
1
10
159.9074526361
20
-18.9161723719675
30
0
41
1
10
159.903692785489
20
-19.1155951739084
30
0
41
1
10
159.901356515934
20
-19.2255644135041
30
0
41
1
10
159.898921666464
20
-19.3281036512187
30
0
0
SPLINE
5
2DB
100
AcDbEntity
8
1
62
256
6
ByLayer
370
-1
48
1
60
0
100
AcDbSpline
70
4
71
3
72
14
73
10
40
0
40
0
40
0
40
0
40
0.264919990892503
40
0.264919990892503
40
0.530416812891253
40
0.530416812891253
40
0.787654584874264
40
0.787654584874264
40
1
40
1
40
1
40
1
41
1
10
159.910292475234
20
-18.6237516812846
30
0
41
1
10
159.910413865148
20
-18.6341580111497
30
0
41
1
10
159.910512053848
20
-18.6454907074863
30
0
41
1
10
159.910643889199
20
-18.6682268133075
30
0
41
1
10
159.910679142779
20
-18.6799516737149
30
0
41
1
10
159.910679600676
20
-18.7016808232151
30
0
41
1
10
159.910646874215
20
-18.7120303910284
30
0
41
1
10
159.910531152395
20
-18.7286554852434
30
0
41
1
10
159.910456742992
20
-18.7354975161496
30
0
41
1
10
159.91036511206
20
-18.7412377362833
30
0
0
SPLINE
5
2DC
100
AcDbEntity
8
1
62
256
6
ByLayer
370
-1
48
1
60
0
100
AcDbSpline
70
4
71
3
72
12
73
8
40
0
40
0
40
0
40
0
40
0.330584430932526
40
0.330584430932526
40
0.914285519682712
40
0.914285519682712
40
1
40
1
40
1
40
1
41
1
10
150.404321627054
20
-21.3951847077907
30
0
41
1
10
150.434670589227
20
-21.4056484009696
30
0
41
1
10
150.469990284895
20
-21.420760212748
30
0
41
1
10
150.568932024974
20
-21.4665409005608
30
0
41
1
10
150.636472733891
20
-21.5016155362144
30
0
41
1
10
150.712845358095
20
-21.5441680626192
30
0
41
1
10
150.722721098898
20
-21.5497298049648
30
0
41
1
10
150.732587277726
20
-21.5553461809053
30
0
0
LINE
5
49
100
AcDbEntity
8
1
62
256
6
ByLayer
370
-1
48
1
60
0
100
AcDbLine
10
146.524812
20
-12.717549
30
0
11
146.577048
21
-13.519412
31
0
39
0
210
0
220
0
230
1
0
LINE
5
4A
100
AcDbEntity
8
1
62
256
6
ByLayer
370
-1
48
1
60
0
100
AcDbLine
10
147.013558
20
-19.496515
30
0
11
147.071988
21
-20.401929
31
0
39
0
210
0
220
0
230
1
0
LINE
5
4B
100
AcDbEntity
8
1
62
256
6
ByLayer
370
-1
48
1
60
0
100
AcDbLine
10
159.657184
20
-5.343817
30
0
11
159.685491
21
-5.343967
31
0
39
0
210
0
220
0
230
1
0
LINE
5
4C
100
AcDbEntity
8
1
62
256
6
ByLayer
370
-1
48
1
60
0
100
AcDbLine
10
130.845777
20
-19.675
30
0
11
134.913153
21
-19.675
31
0
39
0
210
0
220
0
230
1
0
LINE
5
4D
100
AcDbEntity
8
1
62
256
6
ByLayer
370
-1
48
1
60
0
100
AcDbLine
10
134.913153
20
19.675
30
0
11
121.895886
21
19.675
31
0
39
0
210
0
220
0
230
1
0
LINE
5
4E
100
AcDbEntity
8
1
62
256
6
ByLayer
370
-1
48
1
60
0
100
AcDbLine
10
121.495886
20
19.78218
30
0
11
121.13723
21
19.98925
31
0
39
0
210
0
220
0
230
1
0
LINE
5
4F
100
AcDbEntity
8
1
62
256
6
ByLayer
370
-1
48
1
60
0
100
AcDbLine
10
121.13723
20
19.98925
30
0
11
0
21
19.98925
31
0
39
0
210
0
220
0
230
1
0
LINE
5
50
100
AcDbEntity
8
1
62
256
6
ByLayer
370
-1
48
1
60
0
100
AcDbLine
10
135.289921
20
19.685
30
0
11
135.039249
21
19.685
31
0
39
0
210
0
220
0
230
1
0
LINE
5
51
100
AcDbEntity
8
1
62
256
6
ByLayer
370
-1
48
1
60
0
100
AcDbLine
10
135.525989
20
-19.96077
30
0
11
137.100717
21
-21.837458
31
0
39
0
210
0
220
0
230
1
0
LINE
5
52
100
AcDbEntity
8
1
62
256
6
ByLayer
370
-1
48
1
60
0
100
AcDbLine
10
159.75228
20
-8.673989
30
0
11
159.658635
21
-7.236461
31
0
39
0
210
0
220
0
230
1
0
LINE
5
53
100
AcDbEntity
8
1
62
256
6
ByLayer
370
-1
48
1
60
0
100
AcDbLine
10
143.434257
20
-13.77027
30
0
11
143.527851
21
-15.207014
31
0
39
0
210
0
220
0
230
1
0
LINE
5
54
100
AcDbEntity
8
1
62
256
6
ByLayer
370
-1
48
1
60
0
100
AcDbLine
10
159.904201
20
-12.40914
30
0
11
159.819777
21
-11.113168
31
0
39
0
210
0
220
0
230
1
0
LINE
5
55
100
AcDbEntity
8
1
62
256
6
ByLayer
370
-1
48
1
60
0
100
AcDbLine
10
143.203965
20
-14.828257
30
0
11
143.273144
21
-15.900245
31
0
39
0
210
0
220
0
230
1
0
LINE
5
56
100
AcDbEntity
8
SK1
62
256
6
ByLayer
370
-1
48
1
60
0
100
AcDbLine
10
-138.836
20
19.98925
30
0
11
-141.336
21
17.48925
31
0
39
0
210
0
220
0
230
1
0
LINE
5
58
100
AcDbEntity
8
SK1
62
256
6
ByLayer
370
-1
48
1
60
0
100
AcDbLine
10
-141.336
20
-17.48925
30
0
11
-141.3145
21
-17.51075
31
0
39
0
210
0
220
0
230
1
0
LINE
5
59
100
AcDbEntity
8
SK1
62
256
6
ByLayer
370
-1
48
1
60
0
100
AcDbLine
10
0
20
19.98925
30
0
11
-138.836
21
19.98925
31
0
39
0
210
0
220
0
230
1
0
LINE
5
5A
100
AcDbEntity
8
1
62
256
6
ByLayer
370
-1
48
1
60
0
100
AcDbLine
10
149.981233
20
-16.262188
30
0
11
149.993459
21
-16.449872
31
0
39
0
210
0
220
0
230
1
0
LINE
5
5B
100
AcDbEntity
8
1
62
256
6
ByLayer
370
-1
48
1
60
0
100
AcDbLine
10
157.128337
20
-15.985084
30
0
11
157.11611
21
-15.7974
31
0
39
0
210
0
220
0
230
1
0
LINE
5
5C
100
AcDbEntity
8
SK4
62
256
6
ByLayer
370
-1
48
0.05
60
0
100
AcDbLine
10
-146.336
20
0
30
0
11
164.914
21
0
31
0
39
0
210
0
220
0
230
1
0
LINE
5
5E
100
AcDbEntity
8
80
62
256
6
ByLayer
370
-1
48
1
60
0
100
AcDbLine
10
0
20
0
30
0
11
-5
21
0
31
0
39
0
210
0
220
0
230
1
0
LINE
5
5F
100
AcDbEntity
8
81
62
256
6
ByLayer
370
-1
48
1
60
0
100
AcDbLine
10
159.914
20
-26.875
30
0
11
164.914
21
-26.875
31
0
39
0
210
0
220
0
230
1
0
LINE
5
60
100
AcDbEntity
8
1
62
256
6
ByLayer
370
-1
48
1
60
0
100
AcDbLine
10
137.389574
20
-22.148972
30
0
11
146.686897
21
-22.108401
31
0
39
0
210
0
220
0
230
1
0
LINE
5
61
100
AcDbEntity
8
1
62
256
6
ByLayer
370
-1
48
1
60
0
100
AcDbLine
10
155.689292
20
-7.566389
30
0
11
159.200433
21
-5.592853
31
0
39
0
210
0
220
0
230
1
0
LINE
5
62
100
AcDbEntity
8
1
62
256
6
ByLayer
370
-1
48
1
60
0
100
AcDbLine
10
146.686893
20
-20.470617
30
0
11
146.858808
21
-20.469874
31
0
39
0
210
0
220
0
230
1
0
LINE
5
63
100
AcDbEntity
8
1
62
256
6
ByLayer
370
-1
48
1
60
0
100
AcDbLine
10
142.68378
20
-17.920849
30
0
11
146.686897
21
-20.13618
31
0
39
0
210
0
220
0
230
1
0
LINE
5
64
100
AcDbEntity
8
1
62
256
6
ByLayer
370
-1
48
1
60
0
100
AcDbLine
10
159.046479
20
-10.003479
30
0
11
159.046479
21
-10.256834
31
0
39
0
210
0
220
0
230
1
0
LINE
5
65
100
AcDbEntity
8
1
62
256
6
ByLayer
370
-1
48
1
60
0
100
AcDbLine
10
121.13723
20
-7.571005
30
0
11
121.13723
21
-17.51075
31
0
39
0
210
0
220
0
230
1
0
LINE
5
66
100
AcDbEntity
8
1
62
256
6
ByLayer
370
-1
48
1
60
0
100
AcDbLine
10
121.495886
20
-7.006043
30
0
11
121.495886
21
-17.51075
31
0
39
0
210
0
220
0
230
1
0
LINE
5
67
100
AcDbEntity
8
1
62
256
6
ByLayer
370
-1
48
1
60
0
100
AcDbLine
10
146.415917
20
-19.165795
30
0
11
146.686897
21
-20.13618
31
0
39
0
210
0
220
0
230
1
0
LINE
5
68
100
AcDbEntity
8
1
62
256
6
ByLayer
370
-1
48
1
60
0
100
AcDbLine
10
145.202782
20
-13.352915
30
0
11
145.245512
21
-13.394008
31
0
39
0
210
0
220
0
230
1
0
LINE
5
69
100
AcDbEntity
8
1
62
256
6
ByLayer
370
-1
48
1
60
0
100
AcDbLine
10
145.44036
20
-13.327091
30
0
11
146.770474
21
-12.579463
31
0
39
0
210
0
220
0
230
1
0
LINE
5
6A
100
AcDbEntity
8
1
62
256
6
ByLayer
370
-1
48
1
60
0
100
AcDbLine
10
134.913153
20
-19.675
30
0
11
134.913153
21
-19.394713
31
0
39
0
210
0
220
0
230
1
0
LINE
5
6B
100
AcDbEntity
8
1
62
256
6
ByLayer
370
-1
48
1
60
0
100
AcDbLine
10
134.913153
20
6.697434
30
0
11
134.913153
21
19.675
31
0
39
0
210
0
220
0
230
1
0
LINE
5
6C
100
AcDbEntity
8
1
62
256
6
ByLayer
370
-1
48
1
60
0
100
AcDbLine
10
131.377777
20
-6.697434
30
0
11
142.60008
21
6.726754
31
0
39
0
210
0
220
0
230
1
0
LINE
5
6D
100
AcDbEntity
8
1
62
256
6
ByLayer
370
-1
48
1
60
0
100
AcDbLine
10
0
20
-17.51075
30
0
11
121.13723
21
-17.51075
31
0
39
0
210
0
220
0
230
1
0
LINE
5
6E
100
AcDbEntity
8
1
62
256
6
ByLayer
370
-1
48
1
60
0
100
AcDbLine
10
146.858808
20
-20.469874
30
0
11
146.858808
21
-19.410833
31
0
39
0
210
0
220
0
230
1
0
LINE
5
6F
100
AcDbEntity
8
1
62
256
6
ByLayer
370
-1
48
1
60
0
100
AcDbLine
10
121.895886
20
-6.697434
30
0
11
121.895886
21
-17.51075
31
0
39
0
210
0
220
0
230
1
0
LINE
5
70
100
AcDbEntity
8
1
62
256
6
ByLayer
370
-1
48
1
60
0
100
AcDbLine
10
138.276554
20
-13.880621
30
0
11
134.979372
21
-19.412087
31
0
39
0
210
0
220
0
230
1
0
LINE
5
71
100
AcDbEntity
8
1
62
256
6
ByLayer
370
-1
48
1
60
0
100
AcDbLine
10
159.2143
20
-0.983291
30
0
11
151.244785
21
5.90158
31
0
39
0
210
0
220
0
230
1
0
LINE
5
72
100
AcDbEntity
8
1
62
256
6
ByLayer
370
-1
48
1
60
0
100
AcDbLine
10
121.13723
20
-7.571005
30
0
11
0
21
-7.571005
31
0
39
0
210
0
220
0
230
1
0
LINE
5
73
100
AcDbEntity
8
1
62
256
6
ByLayer
370
-1
48
1
60
0
100
AcDbLine
10
128.681527
20
-17.51075
30
0
11
121.895886
21
-17.51075
31
0
39
0
210
0
220
0
230
1
0
LINE
5
74
100
AcDbEntity
8
1
62
256
6
ByLayer
370
-1
48
1
60
0
100
AcDbLine
10
145.44036
20
-13.327091
30
0
11
145.245512
21
-13.394008
31
0
39
0
210
0
220
0
230
1
0
LINE
5
75
100
AcDbEntity
8
1
62
256
6
ByLayer
370
-1
48
1
60
0
100
AcDbLine
10
135.525989
20
-19.96077
30
0
11
135.525989
21
-19.870968
31
0
39
0
210
0
220
0
230
1
0
LINE
5
76
100
AcDbEntity
8
1
62
256
6
ByLayer
370
-1
48
1
60
0
100
AcDbLine
10
150.468189
20
6.572482
30
0
11
140.096781
21
-10.826946
31
0
39
0
210
0
220
0
230
1
0
LINE
5
77
100
AcDbEntity
8
1
62
256
6
ByLayer
370
-1
48
1
60
0
100
AcDbLine
10
151.244785
20
5.90158
30
0
11
150.46819
21
6.572481
31
0
39
0
210
0
220
0
230
1
0
LINE
5
78
100
AcDbEntity
8
1
62
256
6
ByLayer
370
-1
48
1
60
0
100
AcDbLine
10
147.764517
20
-12.055985
30
0
11
154.868124
21
-8.063202
31
0
39
0
210
0
220
0
230
1
0
LINE
5
79
100
AcDbEntity
8
1
62
256
6
ByLayer
370
-1
48
1
60
0
100
AcDbLine
10
0
20
7.571005
30
0
11
0
21
19.98925
31
0
39
0
210
0
220
0
230
1
0
LINE
5
7A
100
AcDbEntity
8
1
62
256
6
ByLayer
370
-1
48
1
60
0
100
AcDbLine
10
159.2143
20
-0.983291
30
0
11
159.2143
21
-5.542571
31
0
39
0
210
0
220
0
230
1
0
LINE
5
7B
100
AcDbEntity
8
1
62
256
6
ByLayer
370
-1
48
1
60
0
100
AcDbLine
10
146.686897
20
-20.13618
30
0
11
146.686897
21
-22.108401
31
0
39
0
210
0
220
0
230
1
0
LINE
5
7C
100
AcDbEntity
8
1
62
256
6
ByLayer
370
-1
48
1
60
0
100
AcDbLine
10
121.895886
20
-6.697434
30
0
11
131.377777
21
-6.697434
31
0
39
0
210
0
220
0
230
1
0
LINE
5
7D
100
AcDbEntity
8
1
62
256
6
ByLayer
370
-1
48
1
60
0
100
AcDbLine
10
121.13723
20
19.98925
30
0
11
121.13723
21
7.571005
31
0
39
0
210
0
220
0
230
1
0
LINE
5
7E
100
AcDbEntity
8
1
62
256
6
ByLayer
370
-1
48
1
60
0
100
AcDbLine
10
150.468189
20
6.572482
30
0
11
146.625682
21
9.892027
31
0
39
0
210
0
220
0
230
1
0
LINE
5
7F
100
AcDbEntity
8
1
62
256
6
ByLayer
370
-1
48
1
60
0
100
AcDbLine
10
146.625682
20
9.892027
30
0
11
135.289921
21
19.685
31
0
39
0
210
0
220
0
230
1
0
LINE
5
80
100
AcDbEntity
8
1
62
256
6
ByLayer
370
-1
48
1
60
0
100
AcDbLine
10
151.244785
20
5.90158
30
0
11
135.730287
21
-20.126071
31
0
39
0
210
0
220
0
230
1
0
LINE
5
81
100
AcDbEntity
8
1
62
256
6
ByLayer
370
-1
48
1
60
0
100
AcDbLine
10
142.60008
20
6.726754
30
0
11
135.039249
21
6.726754
31
0
39
0
210
0
220
0
230
1
0
LINE
5
82
100
AcDbEntity
8
1
62
256
6
ByLayer
370
-1
48
1
60
0
100
AcDbLine
10
159.2143
20
-5.542571
30
0
11
159.200433
21
-5.592853
31
0
39
0
210
0
220
0
230
1
0
LINE
5
83
100
AcDbEntity
8
1
62
256
6
ByLayer
370
-1
48
1
60
0
100
AcDbLine
10
146.858826
20
-19.53023
30
0
11
147.015847
21
-19.529551
31
0
39
0
210
0
220
0
230
1
0
LINE
5
84
100
AcDbEntity
8
1
62
256
6
ByLayer
370
-1
48
1
60
0
100
AcDbLine
10
0
20
-7.571005
30
0
11
0
21
7.571005
31
0
39
0
210
0
220
0
230
1
0
LINE
5
85
100
AcDbEntity
8
1
62
256
6
ByLayer
370
-1
48
1
60
0
100
AcDbLine
10
134.913153
20
6.697434
30
0
11
121.895886
21
6.697434
31
0
39
0
210
0
220
0
230
1
0
LINE
5
86
100
AcDbEntity
8
1
62
256
6
ByLayer
370
-1
48
1
60
0
100
AcDbLine
10
145.316654
20
-18.137959
30
0
11
141.781155
21
-16.1813
31
0
39
0
210
0
220
0
230
1
0
LINE
5
87
100
AcDbEntity
8
1
62
256
6
ByLayer
370
-1
48
1
60
0
100
AcDbLine
10
145.245512
20
-13.394008
30
0
11
159.2143
21
-5.542571
31
0
39
0
210
0
220
0
230
1
0
LINE
5
88
100
AcDbEntity
8
1
62
256
6
ByLayer
370
-1
48
1
60
0
100
AcDbLine
10
0
20
-7.571005
30
0
11
0
21
-17.51075
31
0
39
0
210
0
220
0
230
1
0
LINE
5
89
100
AcDbEntity
8
1
62
256
6
ByLayer
370
-1
48
1
60
0
100
AcDbLine
10
121.895886
20
6.697434
30
0
11
121.895886
21
19.675
31
0
39
0
210
0
220
0
230
1
0
LINE
5
8A
100
AcDbEntity
8
1
62
256
6
ByLayer
370
-1
48
1
60
0
100
AcDbLine
10
130.845777
20
-19.675
30
0
11
128.681527
21
-17.51075
31
0
39
0
210
0
220
0
230
1
0
LINE
5
8B
100
AcDbEntity
8
1
62
256
6
ByLayer
370
-1
48
1
60
0
100
AcDbLine
10
135.039249
20
19.685
30
0
11
135.039249
21
6.726754
31
0
39
0
210
0
220
0
230
1
0
LINE
5
8C
100
AcDbEntity
8
1
62
256
6
ByLayer
370
-1
48
1
60
0
100
AcDbLine
10
121.495886
20
19.78218
30
0
11
121.495886
21
7.006043
31
0
39
0
210
0
220
0
230
1
0
LINE
5
8D
100
AcDbEntity
8
1
62
256
6
ByLayer
370
-1
48
1
60
0
100
AcDbLine
10
0
20
7.571005
30
0
11
121.13723
21
7.571005
31
0
39
0
210
0
220
0
230
1
0
LINE
5
8E
100
AcDbEntity
8
1
62
256
6
ByLayer
370
-1
48
1
60
0
100
AcDbLine
10
152.147944
20
-16.28801
30
0
11
152.155986
21
-16.411464
31
0
39
0
210
0
220
0
230
1
0
LINE
5
8F
100
AcDbEntity
8
1
62
256
6
ByLayer
370
-1
48
1
60
0
100
AcDbLine
10
159.730426
20
-8.338587
30
0
11
159.736168
21
-8.341323
31
0
39
0
210
0
220
0
230
1
0
LINE
5
90
100
AcDbEntity
8
1
62
256
6
ByLayer
370
-1
48
1
60
0
100
AcDbLine
10
159.690342
20
-4.649907
30
0
11
159.706977
21
-4.649995
31
0
39
0
210
0
220
0
230
1
0
LINE
5
91
100
AcDbEntity
8
1
62
256
6
ByLayer
370
-1
48
1
60
0
100
AcDbLine
10
159.649967
20
-7.118946
30
0
11
159.726652
21
-7.119353
31
0
39
0
210
0
220
0
230
1
0
LINE
5
92
100
AcDbEntity
8
1
62
256
6
ByLayer
370
-1
48
1
60
0
100
AcDbLine
10
159.649711
20
-7.107514
30
0
11
159.714032
21
-7.107855
31
0
39
0
210
0
220
0
230
1
0
LINE
5
93
100
AcDbEntity
8
1
62
256
6
ByLayer
370
-1
48
1
60
0
100
AcDbLine
10
159.642305
20
-6.223255
30
0
11
159.732289
21
-6.223732
31
0
39
0
210
0
220
0
230
1
0
LINE
5
94
100
AcDbEntity
8
1
62
256
6
ByLayer
370
-1
48
1
60
0
100
AcDbLine
10
159.642326
20
-6.222579
30
0
11
159.745159
21
-6.223123
31
0
39
0
210
0
220
0
230
1
0
LINE
5
95
100
AcDbEntity
8
1
62
256
6
ByLayer
370
-1
48
1
60
0
100
AcDbLine
10
155.125276
20
-8.101294
30
0
11
155.112584
21
-7.906459
31
0
39
0
210
0
220
0
230
1
0
LINE
5
96
100
AcDbEntity
8
1
62
256
6
ByLayer
370
-1
48
1
60
0
100
AcDbLine
10
156.823101
20
-6.929118
30
0
11
159.41066
21
-6.955676
31
0
39
0
210
0
220
0
230
1
0
LINE
5
97
100
AcDbEntity
8
1
62
256
6
ByLayer
370
-1
48
1
60
0
100
AcDbLine
10
147.078456
20
-12.694521
30
0
11
147.060555
21
-12.419714
31
0
39
0
210
0
220
0
230
1
0
LINE
5
98
100
AcDbEntity
8
1
62
256
6
ByLayer
370
-1
48
1
60
0
100
AcDbLine
10
154.986848
20
-7.985864
30
0
11
154.996509
21
-8.13418
31
0
39
0
210
0
220
0
230
1
0
LINE
5
99
100
AcDbEntity
8
1
62
256
6
ByLayer
370
-1
48
1
60
0
100
AcDbLine
10
158.611263
20
-10.816937
30
0
11
158.59613
21
-10.584631
31
0
39
0
210
0
220
0
230
1
0
LINE
5
9A
100
AcDbEntity
8
1
62
256
6
ByLayer
370
-1
48
1
60
0
100
AcDbLine
10
158.882593
20
-10.122273
30
0
11
158.890526
21
-10.135511
31
0
39
0
210
0
220
0
230
1
0
LINE
5
9B
100
AcDbEntity
8
1
62
256
6
ByLayer
370
-1
48
1
60
0
100
AcDbLine
10
146.966602
20
-12.470756
30
0
11
146.986963
21
-12.783308
31
0
39
0
210
0
220
0
230
1
0
LINE
5
9C
100
AcDbEntity
8
1
62
256
6
ByLayer
370
-1
48
1
60
0
100
AcDbLine
10
146.596845
20
-13.437784
30
0
11
146.54904
21
-12.703939
31
0
39
0
210
0
220
0
230
1
0
LINE
5
9D
100
AcDbEntity
8
1
62
256
6
ByLayer
370
-1
48
1
60
0
100
AcDbLine
10
146.649128
20
-13.964173
30
0
11
146.62891
21
-13.653815
31
0
39
0
210
0
220
0
230
1
0
LINE
5
9E
100
AcDbEntity
8
1
62
256
6
ByLayer
370
-1
48
1
60
0
100
AcDbLine
10
146.202127
20
-13.285916
30
0
11
146.526398
21
-12.741908
31
0
39
0
210
0
220
0
230
1
0
LINE
5
9F
100
AcDbEntity
8
1
62
256
6
ByLayer
370
-1
48
1
60
0
100
AcDbLine
10
144.5195
20
-12.925559
30
0
11
143.281519
21
-13.620488
31
0
39
0
210
0
220
0
230
1
0
LINE
5
A0
100
AcDbEntity
8
1
62
256
6
ByLayer
370
-1
48
1
60
0
100
AcDbLine
10
157.2698
20
-6.678086
30
0
11
157.2698
21
-6.933765
31
0
39
0
210
0
220
0
230
1
0
LINE
5
A1
100
AcDbEntity
8
1
62
256
6
ByLayer
370
-1
48
1
60
0
100
AcDbLine
10
149.336106
20
-20.891511
30
0
11
149.336106
21
-21.094781
31
0
39
0
210
0
220
0
230
1
0
LINE
5
A2
100
AcDbEntity
8
1
62
256
6
ByLayer
370
-1
48
1
60
0
100
AcDbLine
10
149.222625
20
-20.828628
30
0
11
149.222625
21
-21.095203
31
0
39
0
210
0
220
0
230
1
0
LINE
5
A3
100
AcDbEntity
8
1
62
256
6
ByLayer
370
-1
48
1
60
0
100
AcDbLine
10
148.777506
20
-20.582311
30
0
11
148.777506
21
-21.046476
31
0
39
0
210
0
220
0
230
1
0
LINE
5
A4
100
AcDbEntity
8
1
62
256
6
ByLayer
370
-1
48
1
60
0
100
AcDbLine
10
148.453234
20
-20.419566
30
0
11
148.453234
21
-20.940295
31
0
39
0
210
0
220
0
230
1
0
LINE
5
A5
100
AcDbEntity
8
1
62
256
6
ByLayer
370
-1
48
1
60
0
100
AcDbLine
10
148.200243
20
-20.339162
30
0
11
148.200243
21
-20.941236
31
0
39
0
210
0
220
0
230
1
0
LINE
5
A6
100
AcDbEntity
8
1
62
256
6
ByLayer
370
-1
48
1
60
0
100
AcDbLine
10
147.070826
20
-20.365882
30
0
11
147.070826
21
-19.528198
31
0
39
0
210
0
220
0
230
1
0
LINE
5
A7
100
AcDbEntity
8
1
62
256
6
ByLayer
370
-1
48
1
60
0
100
AcDbLine
10
144.491552
20
-16.801553
30
0
11
144.271107
21
-16.802373
31
0
39
0
210
0
220
0
230
1
0
LINE
5
A8
100
AcDbEntity
8
1
62
256
6
ByLayer
370
-1
48
1
60
0
100
AcDbLine
10
143.214101
20
-12.87396
30
0
11
143.271208
21
-13.758886
31
0
39
0
210
0
220
0
230
1
0
LINE
5
A9
100
AcDbEntity
8
1
62
256
6
ByLayer
370
-1
48
1
60
0
100
AcDbLine
10
143.202029
20
-14.76818
30
0
11
143.202029
21
-12.877466
31
0
39
0
210
0
220
0
230
1
0
LINE
5
AA
100
AcDbEntity
8
1
62
256
6
ByLayer
370
-1
48
1
60
0
100
AcDbLine
10
147.014766
20
-19.497179
30
0
11
147.070826
21
-20.365882
31
0
39
0
210
0
220
0
230
1
0
LINE
5
AB
100
AcDbEntity
8
SK1
62
256
6
ByLayer
370
-1
48
1
60
0
100
AcDbLine
10
-141.336
20
0
30
0
11
-141.336
21
-17.48925
31
0
39
0
210
0
220
0
230
1
0
LINE
5
AC
100
AcDbEntity
8
SK1
62
256
6
ByLayer
370
-1
48
1
60
0
100
AcDbLine
10
-141.336
20
17.48925
30
0
11
-141.336
21
0
31
0
39
0
210
0
220
0
230
1
0
LINE
5
AD
100
AcDbEntity
8
SK1
62
256
6
ByLayer
370
-1
48
1
60
0
100
AcDbLine
10
-138.836
20
19.98925
30
0
11
-138.836
21
7.571005
31
0
39
0
210
0
220
0
230
1
0
LINE
5
AE
100
AcDbEntity
8
SK1
62
256
6
ByLayer
370
-1
48
1
60
0
100
AcDbLine
10
0
20
19.98925
30
0
11
0
21
7.571005
31
0
39
0
210
0
220
0
230
1
0
LINE
5
AF
100
AcDbEntity
8
SK1
62
256
6
ByLayer
370
-1
48
1
60
0
100
AcDbLine
10
-138.836
20
-7.571005
30
0
11
-138.836
21
-17.51075
31
0
39
0
210
0
220
0
230
1
0
LINE
5
B0
100
AcDbEntity
8
1
62
256
6
ByLayer
370
-1
48
1
60
0
100
AcDbLine
10
143.202029
20
-14.76818
30
0
11
143.271208
21
-15.840167
31
0
39
0
210
0
220
0
230
1
0
LINE
5
B1
100
AcDbEntity
8
1
62
256
6
ByLayer
370
-1
48
1
60
0
100
AcDbLine
10
143.271208
20
-15.840167
30
0
11
143.271208
21
-13.758886
31
0
39
0
210
0
220
0
230
1
0
LINE
5
B2
100
AcDbEntity
8
1
62
256
6
ByLayer
370
-1
48
1
60
0
100
AcDbLine
10
148.200243
20
-20.941236
30
0
11
147.670765
21
-20.943206
31
0
39
0
210
0
220
0
230
1
0
LINE
5
B3
100
AcDbEntity
8
1
62
256
6
ByLayer
370
-1
48
1
60
0
100
AcDbLine
10
149.222625
20
-21.095203
30
0
11
149.336106
21
-21.094781
31
0
39
0
210
0
220
0
230
1
0
LINE
5
B4
100
AcDbEntity
8
1
62
256
6
ByLayer
370
-1
48
1
60
0
100
AcDbLine
10
143.682232
20
-13.465487
30
0
11
145.963912
21
-13.422154
31
0
39
0
210
0
220
0
230
1
0
LINE
5
B5
100
AcDbEntity
8
1
62
256
6
ByLayer
370
-1
48
1
60
0
100
AcDbLine
10
143.458014
20
-13.672316
30
0
11
143.529095
21
-13.553068
31
0
39
0
210
0
220
0
230
1
0
LINE
5
B6
100
AcDbEntity
8
1
62
256
6
ByLayer
370
-1
48
1
60
0
100
AcDbLine
10
149.886862
20
-11.010989
30
0
11
147.366813
21
-12.53243
31
0
39
0
210
0
220
0
230
1
0
LINE
5
B7
100
AcDbEntity
8
1
62
256
6
ByLayer
370
-1
48
1
60
0
100
AcDbLine
10
146.659285
20
-13.719402
30
0
11
146.662832
21
-13.726636
31
0
39
0
210
0
220
0
230
1
0
LINE
5
B8
100
AcDbEntity
8
1
62
256
6
ByLayer
370
-1
48
1
60
0
100
AcDbLine
10
146.649128
20
-13.964173
30
0
11
146.285996
21
-14.573376
31
0
39
0
210
0
220
0
230
1
0
LINE
5
B9
100
AcDbEntity
8
1
62
256
6
ByLayer
370
-1
48
1
60
0
100
AcDbLine
10
146.048398
20
-14.719068
30
0
11
143.775566
21
-14.898238
31
0
39
0
210
0
220
0
230
1
0
LINE
5
BA
100
AcDbEntity
8
1
62
256
6
ByLayer
370
-1
48
1
60
0
100
AcDbLine
10
143.622825
20
-14.991898
30
0
11
143.551744
21
-15.111145
31
0
39
0
210
0
220
0
230
1
0
LINE
5
BB
100
AcDbEntity
8
1
62
256
6
ByLayer
370
-1
48
1
60
0
100
AcDbLine
10
148.620317
20
-20.495439
30
0
11
149.401008
21
-20.927468
31
0
39
0
210
0
220
0
230
1
0
LINE
5
BC
100
AcDbEntity
8
1
62
256
6
ByLayer
370
-1
48
1
60
0
100
AcDbLine
10
147.366813
20
-12.53243
30
0
11
147.078456
21
-12.694521
31
0
39
0
210
0
220
0
230
1
0
LINE
5
BD
100
AcDbEntity
8
1
62
256
6
ByLayer
370
-1
48
1
60
0
100
AcDbLine
10
146.589783
20
-13.569332
30
0
11
146.659285
21
-13.719402
31
0
39
0
210
0
220
0
230
1
0
LINE
5
BE
100
AcDbEntity
8
1
62
256
6
ByLayer
370
-1
48
1
60
0
100
AcDbLine
10
146.986963
20
-12.783308
30
0
11
146.596845
21
-13.437784
31
0
39
0
210
0
220
0
230
1
0
LINE
5
BF
100
AcDbEntity
8
1
62
256
6
ByLayer
370
-1
48
1
60
0
100
AcDbLine
10
145.751831
20
-18.798279
30
0
11
147.267786
21
-19.637198
31
0
39
0
210
0
220
0
230
1
0
LINE
5
C0
100
AcDbEntity
8
1
62
256
6
ByLayer
370
-1
48
1
60
0
100
AcDbLine
10
145.553579
20
-18.525762
30
0
11
145.65847
21
-18.707118
31
0
39
0
210
0
220
0
230
1
0
LINE
5
C1
100
AcDbEntity
8
1
62
256
6
ByLayer
370
-1
48
1
60
0
100
AcDbLine
10
145.254818
20
-17.434446
30
0
11
146.469405
21
-16.678493
31
0
39
0
210
0
220
0
230
1
0
LINE
5
C2
100
AcDbEntity
8
1
62
256
6
ByLayer
370
-1
48
1
60
0
100
AcDbLine
10
143.69946
20
-15.233204
30
0
11
145.055319
21
-17.429178
31
0
39
0
210
0
220
0
230
1
0
LINE
5
C3
100
AcDbEntity
8
1
62
256
6
ByLayer
370
-1
48
1
60
0
100
AcDbLine
10
143.701371
20
-15.128884
30
0
11
143.722807
21
-15.092923
31
0
39
0
210
0
220
0
230
1
0
LINE
5
C4
100
AcDbEntity
8
1
62
256
6
ByLayer
370
-1
48
1
60
0
100
AcDbLine
10
143.818627
20
-15.033285
30
0
11
146.61485
21
-14.812855
31
0
39
0
210
0
220
0
230
1
0
LINE
5
C5
100
AcDbEntity
8
1
62
256
6
ByLayer
370
-1
48
1
60
0
100
AcDbLine
10
146.706858
20
-16.280133
30
0
11
146.731085
21
-14.957811
31
0
39
0
210
0
220
0
230
1
0
LINE
5
C6
100
AcDbEntity
8
1
62
256
6
ByLayer
370
-1
48
1
60
0
100
AcDbLine
10
150.910539
20
-12.788446
30
0
11
150.717271
21
-12.138156
31
0
39
0
210
0
220
0
230
1
0
LINE
5
C7
100
AcDbEntity
8
1
62
256
6
ByLayer
370
-1
48
1
60
0
100
AcDbLine
10
148.824549
20
-18.98266
30
0
11
149.484682
21
-18.31939
31
0
39
0
210
0
220
0
230
1
0
LINE
5
C8
100
AcDbEntity
8
1
62
256
6
ByLayer
370
-1
48
1
60
0
100
AcDbLine
10
150.778657
20
-12.114718
30
0
11
150.971925
21
-12.765008
31
0
39
0
210
0
220
0
230
1
0
LINE
5
C9
100
AcDbEntity
8
1
62
256
6
ByLayer
370
-1
48
1
60
0
100
AcDbLine
10
149.636359
20
-21.089551
30
0
11
150.705114
21
-20.894969
31
0
39
0
210
0
220
0
230
1
0
LINE
5
CA
100
AcDbEntity
8
1
62
256
6
ByLayer
370
-1
48
1
60
0
100
AcDbLine
10
150.751021
20
-21.012041
30
0
11
149.796887
21
-21.185755
31
0
39
0
210
0
220
0
230
1
0
LINE
5
CB
100
AcDbEntity
8
1
62
256
6
ByLayer
370
-1
48
1
60
0
100
AcDbLine
10
149.53052
20
-18.356264
30
0
11
148.870386
21
-19.019534
31
0
39
0
210
0
220
0
230
1
0
LINE
5
CC
100
AcDbEntity
8
1
62
256
6
ByLayer
370
-1
48
1
60
0
100
AcDbLine
10
145.48048
20
-18.403286
30
0
11
146.539819
21
-16.626101
31
0
39
0
210
0
220
0
230
1
0
LINE
5
CD
100
AcDbEntity
8
1
62
256
6
ByLayer
370
-1
48
1
60
0
100
AcDbLine
10
146.697498
20
-16.361575
30
0
11
149.886862
21
-11.010989
31
0
39
0
210
0
220
0
230
1
0
LINE
5
CE
100
AcDbEntity
8
1
62
256
6
ByLayer
370
-1
48
1
60
0
100
AcDbLine
10
148.144885
20
-14.178499
30
0
11
145.553579
21
-18.525762
31
0
39
0
210
0
220
0
230
1
0
LINE
5
CF
100
AcDbEntity
8
1
62
256
6
ByLayer
370
-1
48
1
60
0
100
AcDbLine
10
151.043099
20
-19.565067
30
0
11
149.574281
21
-21.040864
31
0
39
0
210
0
220
0
230
1
0
LINE
5
D0
100
AcDbEntity
8
1
62
256
6
ByLayer
370
-1
48
1
60
0
100
AcDbLine
10
150.403977
20
-18.703304
30
0
11
148.620317
21
-20.495439
31
0
39
0
210
0
220
0
230
1
0
LINE
5
D1
100
AcDbEntity
8
1
62
256
6
ByLayer
370
-1
48
1
60
0
100
AcDbLine
10
149.401008
20
-20.927468
30
0
11
151.033174
21
-19.287547
31
0
39
0
210
0
220
0
230
1
0
LINE
5
D2
100
AcDbEntity
8
1
62
256
6
ByLayer
370
-1
48
1
60
0
100
AcDbLine
10
148.449411
20
-20.418369
30
0
11
150.136511
21
-18.723253
31
0
39
0
210
0
220
0
230
1
0
LINE
5
D3
100
AcDbEntity
8
1
62
256
6
ByLayer
370
-1
48
1
60
0
100
AcDbLine
10
146.659285
20
-13.719402
30
0
11
147.366813
21
-12.53243
31
0
39
0
210
0
220
0
230
1
0
LINE
5
D4
100
AcDbEntity
8
1
62
256
6
ByLayer
370
-1
48
1
60
0
100
AcDbLine
10
144.112868
20
-15.380835
30
0
11
143.737825
21
-15.224869
31
0
39
0
210
0
220
0
230
1
0
LINE
5
D5
100
AcDbEntity
8
1
62
256
6
ByLayer
370
-1
48
1
60
0
100
AcDbLine
10
143.835557
20
-15.060911
30
0
11
144.2106
21
-15.216877
31
0
39
0
210
0
220
0
230
1
0
LINE
5
D6
100
AcDbEntity
8
1
62
256
6
ByLayer
370
-1
48
1
60
0
100
AcDbLine
10
143.818627
20
-15.033285
30
0
11
143.835557
21
-15.060911
31
0
39
0
210
0
220
0
230
1
0
LINE
5
D7
100
AcDbEntity
8
1
62
256
6
ByLayer
370
-1
48
1
60
0
100
AcDbLine
10
143.737825
20
-15.224869
30
0
11
143.69946
21
-15.233204
31
0
39
0
210
0
220
0
230
1
0
LINE
5
D8
100
AcDbEntity
8
1
62
256
6
ByLayer
370
-1
48
1
60
0
100
AcDbLine
10
143.701371
20
-15.128884
30
0
11
143.739736
21
-15.120549
31
0
39
0
210
0
220
0
230
1
0
LINE
5
D9
100
AcDbEntity
8
1
62
256
6
ByLayer
370
-1
48
1
60
0
100
AcDbLine
10
143.739736
20
-15.120549
30
0
11
143.722807
21
-15.092923
31
0
39
0
210
0
220
0
230
1
0
LINE
5
DA
100
AcDbEntity
8
1
62
256
6
ByLayer
370
-1
48
1
60
0
100
AcDbLine
10
144.2106
20
-15.216877
30
0
11
146.244217
21
-15.056565
31
0
39
0
210
0
220
0
230
1
0
LINE
5
DB
100
AcDbEntity
8
1
62
256
6
ByLayer
370
-1
48
1
60
0
100
AcDbLine
10
144.203904
20
-15.313754
30
0
11
145.189984
21
-16.910827
31
0
39
0
210
0
220
0
230
1
0
LINE
5
DC
100
AcDbEntity
8
1
62
256
6
ByLayer
370
-1
48
1
60
0
100
AcDbLine
10
146.237522
20
-15.153442
30
0
11
144.203904
21
-15.313754
31
0
39
0
210
0
220
0
230
1
0
LINE
5
DD
100
AcDbEntity
8
1
62
256
6
ByLayer
370
-1
48
1
60
0
100
AcDbLine
10
145.098948
20
-16.977908
30
0
11
144.112868
21
-15.380835
31
0
39
0
210
0
220
0
230
1
0
LINE
5
DE
100
AcDbEntity
8
1
62
256
6
ByLayer
370
-1
48
1
60
0
100
AcDbLine
10
145.189984
20
-16.910827
30
0
11
146.217035
21
-16.271594
31
0
39
0
210
0
220
0
230
1
0
LINE
5
DF
100
AcDbEntity
8
1
62
256
6
ByLayer
370
-1
48
1
60
0
100
AcDbLine
10
146.217035
20
-16.271594
30
0
11
146.237522
21
-15.153442
31
0
39
0
210
0
220
0
230
1
0
LINE
5
E0
100
AcDbEntity
8
1
62
256
6
ByLayer
370
-1
48
1
60
0
100
AcDbLine
10
158.974395
20
-11.422971
30
0
11
158.890526
21
-10.135511
31
0
39
0
210
0
220
0
230
1
0
LINE
5
E1
100
AcDbEntity
8
1
62
256
6
ByLayer
370
-1
48
1
60
0
100
AcDbLine
10
159.188404
20
-11.563837
30
0
11
159.104013
21
-10.268358
31
0
39
0
210
0
220
0
230
1
0
LINE
5
E2
100
AcDbEntity
8
1
62
256
6
ByLayer
370
-1
48
1
60
0
100
AcDbLine
10
159.366719
20
-11.581468
30
0
11
159.282295
21
-10.285495
31
0
39
0
210
0
220
0
230
1
0
LINE
5
E3
100
AcDbEntity
8
1
62
256
6
ByLayer
370
-1
48
1
60
0
100
AcDbLine
10
159.481087
20
-11.652636
30
0
11
159.396663
21
-10.356663
31
0
39
0
210
0
220
0
230
1
0
LINE
5
E4
100
AcDbEntity
8
1
62
256
6
ByLayer
370
-1
48
1
60
0
100
AcDbLine
10
159.396663
20
-10.356663
30
0
11
159.786781
21
-11.007734
31
0
39
0
210
0
220
0
230
1
0
LINE
5
E5
100
AcDbEntity
8
1
62
256
6
ByLayer
370
-1
48
1
60
0
100
AcDbLine
10
159.104013
20
-10.268358
30
0
11
159.282295
21
-10.285495
31
0
39
0
210
0
220
0
230
1
0
LINE
5
E6
100
AcDbEntity
8
1
62
256
6
ByLayer
370
-1
48
1
60
0
100
AcDbLine
10
154.810337
20
-23.123705
30
0
11
153.395282
21
-23.12988
31
0
39
0
210
0
220
0
230
1
0
LINE
5
E7
100
AcDbEntity
8
1
62
256
6
ByLayer
370
-1
48
1
60
0
100
AcDbLine
10
157.507318
20
-24.525508
30
0
11
157.510804
21
-25.001271
31
0
39
0
210
0
220
0
230
1
0
LINE
5
E8
100
AcDbEntity
8
1
62
256
6
ByLayer
370
-1
48
1
60
0
100
AcDbLine
10
157.315341
20
-25.002124
30
0
11
157.311855
21
-24.526361
31
0
39
0
210
0
220
0
230
1
0
LINE
5
E9
100
AcDbEntity
8
1
62
256
6
ByLayer
370
-1
48
1
60
0
100
AcDbLine
10
157.294287
20
-25.03935
30
0
11
157.315341
21
-25.002124
31
0
39
0
210
0
220
0
230
1
0
LINE
5
EA
100
AcDbEntity
8
1
62
256
6
ByLayer
370
-1
48
1
60
0
100
AcDbLine
10
157.510804
20
-25.001271
30
0
11
157.532622
21
-25.03831
31
0
39
0
210
0
220
0
230
1
0
LINE
5
EB
100
AcDbEntity
8
1
62
256
6
ByLayer
370
-1
48
1
60
0
100
AcDbLine
10
157.435137
20
-25.095169
30
0
11
157.413319
21
-25.05813
31
0
39
0
210
0
220
0
230
1
0
LINE
5
EC
100
AcDbEntity
8
1
62
256
6
ByLayer
370
-1
48
1
60
0
100
AcDbLine
10
157.413319
20
-25.05813
30
0
11
157.392265
21
-25.095356
31
0
39
0
210
0
220
0
230
1
0
LINE
5
ED
100
AcDbEntity
8
1
62
256
6
ByLayer
370
-1
48
1
60
0
100
AcDbLine
10
157.311855
20
-24.526361
30
0
11
156.2564
21
-22.716302
31
0
39
0
210
0
220
0
230
1
0
LINE
5
EE
100
AcDbEntity
8
1
62
256
6
ByLayer
370
-1
48
1
60
0
100
AcDbLine
10
157.409016
20
-24.469502
30
0
11
158.448637
21
-22.650302
31
0
39
0
210
0
220
0
230
1
0
LINE
5
EF
100
AcDbEntity
8
1
62
256
6
ByLayer
370
-1
48
1
60
0
100
AcDbLine
10
156.353561
20
-22.659444
30
0
11
157.409016
21
-24.469502
31
0
39
0
210
0
220
0
230
1
0
LINE
5
F0
100
AcDbEntity
8
1
62
256
6
ByLayer
370
-1
48
1
60
0
100
AcDbLine
10
158.546939
20
-22.706307
30
0
11
157.507318
21
-24.525508
31
0
39
0
210
0
220
0
230
1
0
LINE
5
F1
100
AcDbEntity
8
1
62
256
6
ByLayer
370
-1
48
1
60
0
100
AcDbLine
10
158.448637
20
-22.650302
30
0
11
157.39846
21
-22.049996
31
0
39
0
210
0
220
0
230
1
0
LINE
5
F2
100
AcDbEntity
8
1
62
256
6
ByLayer
370
-1
48
1
60
0
100
AcDbLine
10
157.39846
20
-22.049996
30
0
11
156.353561
21
-22.659444
31
0
39
0
210
0
220
0
230
1
0
LINE
5
F3
100
AcDbEntity
8
1
62
256
6
ByLayer
370
-1
48
1
60
0
100
AcDbLine
10
152.564497
20
-9.699795
30
0
11
152.316131
21
-9.777738
31
0
39
0
210
0
220
0
230
1
0
LINE
5
F4
100
AcDbEntity
8
1
62
256
6
ByLayer
370
-1
48
1
60
0
100
AcDbLine
10
150.971588
20
-10.556871
30
0
11
150.376072
21
-10.761688
31
0
39
0
210
0
220
0
230
1
0
LINE
5
F5
100
AcDbEntity
8
1
62
256
6
ByLayer
370
-1
48
1
60
0
100
AcDbLine
10
151.191261
20
-10.410051
30
0
11
151.13112
21
-10.459271
31
0
39
0
210
0
220
0
230
1
0
LINE
5
F6
100
AcDbEntity
8
1
62
256
6
ByLayer
370
-1
48
1
60
0
100
AcDbLine
10
159.503994
20
-8.388428
30
0
11
155.491721
21
-8.109461
31
0
39
0
210
0
220
0
230
1
0
LINE
5
F7
100
AcDbEntity
8
1
62
256
6
ByLayer
370
-1
48
1
60
0
100
AcDbLine
10
159.786781
20
-11.007734
30
0
11
159.871205
21
-12.303706
31
0
39
0
210
0
220
0
230
1
0
LINE
5
F8
100
AcDbEntity
8
1
62
256
6
ByLayer
370
-1
48
1
60
0
100
AcDbLine
10
143.551744
20
-15.111145
30
0
11
143.458014
21
-13.672316
31
0
39
0
210
0
220
0
230
1
0
LINE
5
F9
100
AcDbEntity
8
1
62
256
6
ByLayer
370
-1
48
1
60
0
100
AcDbLine
10
143.622825
20
-14.991898
30
0
11
143.529095
21
-13.553068
31
0
39
0
210
0
220
0
230
1
0
LINE
5
FA
100
AcDbEntity
8
1
62
256
6
ByLayer
370
-1
48
1
60
0
100
AcDbLine
10
143.775566
20
-14.898238
30
0
11
143.682232
21
-13.465487
31
0
39
0
210
0
220
0
230
1
0
LINE
5
FB
100
AcDbEntity
8
1
62
256
6
ByLayer
370
-1
48
1
60
0
100
AcDbLine
10
146.048398
20
-14.719068
30
0
11
145.963912
21
-13.422154
31
0
39
0
210
0
220
0
230
1
0
LINE
5
FC
100
AcDbEntity
8
1
62
256
6
ByLayer
370
-1
48
1
60
0
100
AcDbLine
10
146.285996
20
-14.573376
30
0
11
146.202127
21
-13.285916
31
0
39
0
210
0
220
0
230
1
0
LINE
5
FD
100
AcDbEntity
8
1
62
256
6
ByLayer
370
-1
48
1
60
0
100
AcDbLine
10
159.563797
20
-7.041921
30
0
11
159.634878
21
-7.160548
31
0
39
0
210
0
220
0
230
1
0
LINE
5
FE
100
AcDbEntity
8
1
62
256
6
ByLayer
370
-1
48
1
60
0
100
AcDbLine
10
159.898104
20
-15.463302
30
0
11
159.904694
21
-12.745967
31
0
39
0
210
0
220
0
230
1
0
LINE
5
FF
100
AcDbEntity
8
1
62
256
6
ByLayer
370
-1
48
1
60
0
100
AcDbLine
10
159.197166
20
-11.565169
30
0
11
159.188404
21
-11.563837
31
0
39
0
210
0
220
0
230
1
0
LINE
5
100
100
AcDbEntity
8
1
62
256
6
ByLayer
370
-1
48
1
60
0
100
AcDbLine
10
158.974395
20
-11.422971
30
0
11
158.611263
21
-10.816937
31
0
39
0
210
0
220
0
230
1
0
LINE
5
101
100
AcDbEntity
8
1
62
256
6
ByLayer
370
-1
48
1
60
0
100
AcDbLine
10
158.609787
20
-10.559503
30
0
11
159.729557
21
-8.764871
31
0
39
0
210
0
220
0
230
1
0
LINE
5
102
100
AcDbEntity
8
1
62
256
6
ByLayer
370
-1
48
1
60
0
100
AcDbLine
10
159.728608
20
-8.599378
30
0
11
159.657527
21
-8.48075
31
0
39
0
210
0
220
0
230
1
0
LINE
5
103
100
AcDbEntity
8
1
62
256
6
ByLayer
370
-1
48
1
60
0
100
AcDbLine
10
152.142858
20
-9.85631
30
0
11
151.362167
21
-10.295153
31
0
39
0
210
0
220
0
230
1
0
LINE
5
104
100
AcDbEntity
8
1
62
256
6
ByLayer
370
-1
48
1
60
0
100
AcDbLine
10
159.904694
20
-12.745967
30
0
11
159.904694
21
-12.424301
31
0
39
0
210
0
220
0
230
1
0
LINE
5
105
100
AcDbEntity
8
1
62
256
6
ByLayer
370
-1
48
1
60
0
100
AcDbLine
10
159.366719
20
-11.581468
30
0
11
159.197166
21
-11.565169
31
0
39
0
210
0
220
0
230
1
0
LINE
5
106
100
AcDbEntity
8
1
62
256
6
ByLayer
370
-1
48
1
60
0
100
AcDbLine
10
159.871205
20
-12.303706
30
0
11
159.481087
21
-11.652636
31
0
39
0
210
0
220
0
230
1
0
LINE
5
107
100
AcDbEntity
8
1
62
256
6
ByLayer
370
-1
48
1
60
0
100
AcDbLine
10
154.996509
20
-8.13418
30
0
11
153.480554
21
-8.98633
31
0
39
0
210
0
220
0
230
1
0
LINE
5
108
100
AcDbEntity
8
1
62
256
6
ByLayer
370
-1
48
1
60
0
100
AcDbLine
10
155.340708
20
-8.103505
30
0
11
155.125276
21
-8.101294
31
0
39
0
210
0
220
0
230
1
0
LINE
5
109
100
AcDbEntity
8
1
62
256
6
ByLayer
370
-1
48
1
60
0
100
AcDbLine
10
156.524037
20
-8.473902
30
0
11
156.542021
21
-9.79604
31
0
39
0
210
0
220
0
230
1
0
LINE
5
10A
100
AcDbEntity
8
1
62
256
6
ByLayer
370
-1
48
1
60
0
100
AcDbLine
10
159.459923
20
-8.523854
30
0
11
156.641927
21
-8.327923
31
0
39
0
210
0
220
0
230
1
0
LINE
5
10B
100
AcDbEntity
8
1
62
256
6
ByLayer
370
-1
48
1
60
0
100
AcDbLine
10
159.556236
20
-8.582654
30
0
11
159.577672
21
-8.618428
31
0
39
0
210
0
220
0
230
1
0
LINE
5
10C
100
AcDbEntity
8
1
62
256
6
ByLayer
370
-1
48
1
60
0
100
AcDbLine
10
159.57909
20
-8.722733
30
0
11
158.201458
21
-10.930636
31
0
39
0
210
0
220
0
230
1
0
LINE
5
10D
100
AcDbEntity
8
1
62
256
6
ByLayer
370
-1
48
1
60
0
100
AcDbLine
10
156.779475
20
-10.192327
30
0
11
158.000303
21
-10.937653
31
0
39
0
210
0
220
0
230
1
0
LINE
5
10E
100
AcDbEntity
8
1
62
256
6
ByLayer
370
-1
48
1
60
0
100
AcDbLine
10
158.103577
20
-15.894223
30
0
11
158.783918
21
-16.055126
31
0
39
0
210
0
220
0
230
1
0
LINE
5
10F
100
AcDbEntity
8
1
62
256
6
ByLayer
370
-1
48
1
60
0
100
AcDbLine
10
153.601941
20
-11.076098
30
0
11
153.863879
21
-11.957441
31
0
39
0
210
0
220
0
230
1
0
LINE
5
110
100
AcDbEntity
8
1
62
256
6
ByLayer
370
-1
48
1
60
0
100
AcDbLine
10
158.767976
20
-16.109384
30
0
11
158.087634
21
-15.948481
31
0
39
0
210
0
220
0
230
1
0
LINE
5
111
100
AcDbEntity
8
1
62
256
6
ByLayer
370
-1
48
1
60
0
100
AcDbLine
10
151.13112
20
-10.459271
30
0
11
150.884056
21
-11.619679
31
0
39
0
210
0
220
0
230
1
0
LINE
5
112
100
AcDbEntity
8
1
62
256
6
ByLayer
370
-1
48
1
60
0
100
AcDbLine
10
150.751021
20
-11.59283
30
0
11
150.971588
21
-10.556871
31
0
39
0
210
0
220
0
230
1
0
LINE
5
113
100
AcDbEntity
8
1
62
256
6
ByLayer
370
-1
48
1
60
0
100
AcDbLine
10
153.801705
20
-11.96877
30
0
11
153.539766
21
-11.087427
31
0
39
0
210
0
220
0
230
1
0
LINE
5
114
100
AcDbEntity
8
1
62
256
6
ByLayer
370
-1
48
1
60
0
100
AcDbLine
10
155.491721
20
-8.109461
30
0
11
156.551061
21
-9.8774
31
0
39
0
210
0
220
0
230
1
0
LINE
5
115
100
AcDbEntity
8
1
62
256
6
ByLayer
370
-1
48
1
60
0
100
AcDbLine
10
156.70874
20
-10.140551
30
0
11
159.898104
21
-15.463302
31
0
39
0
210
0
220
0
230
1
0
LINE
5
116
100
AcDbEntity
8
1
62
256
6
ByLayer
370
-1
48
1
60
0
100
AcDbLine
10
157.932014
20
-12.428153
30
0
11
155.340708
21
-8.103505
31
0
39
0
210
0
220
0
230
1
0
LINE
5
117
100
AcDbEntity
8
1
62
256
6
ByLayer
370
-1
48
1
60
0
100
AcDbLine
10
151.774081
20
-12.371066
30
0
11
151.191261
21
-10.410051
31
0
39
0
210
0
220
0
230
1
0
LINE
5
118
100
AcDbEntity
8
1
62
256
6
ByLayer
370
-1
48
1
60
0
100
AcDbLine
10
152.850607
20
-12.23767
30
0
11
152.142858
21
-9.85631
31
0
39
0
210
0
220
0
230
1
0
LINE
5
119
100
AcDbEntity
8
1
62
256
6
ByLayer
370
-1
48
1
60
0
100
AcDbLine
10
151.362167
20
-10.295153
30
0
11
152.009803
21
-12.474254
31
0
39
0
210
0
220
0
230
1
0
LINE
5
11A
100
AcDbEntity
8
1
62
256
6
ByLayer
370
-1
48
1
60
0
100
AcDbLine
10
152.316131
20
-9.777738
30
0
11
152.985564
21
-12.030181
31
0
39
0
210
0
220
0
230
1
0
LINE
5
11B
100
AcDbEntity
8
1
62
256
6
ByLayer
370
-1
48
1
60
0
100
AcDbLine
10
159.197166
20
-11.565169
30
0
11
159.904694
21
-12.745967
31
0
39
0
210
0
220
0
230
1
0
LINE
5
11C
100
AcDbEntity
8
1
62
256
6
ByLayer
370
-1
48
1
60
0
100
AcDbLine
10
159.060215
20
-8.710902
30
0
11
159.44223
21
-8.551632
31
0
39
0
210
0
220
0
230
1
0
LINE
5
11D
100
AcDbEntity
8
1
62
256
6
ByLayer
370
-1
48
1
60
0
100
AcDbLine
10
159.539961
20
-8.714736
30
0
11
159.157946
21
-8.874006
31
0
39
0
210
0
220
0
230
1
0
LINE
5
11E
100
AcDbEntity
8
1
62
256
6
ByLayer
370
-1
48
1
60
0
100
AcDbLine
10
159.57909
20
-8.722733
30
0
11
159.539961
21
-8.714736
31
0
39
0
210
0
220
0
230
1
0
LINE
5
11F
100
AcDbEntity
8
1
62
256
6
ByLayer
370
-1
48
1
60
0
100
AcDbLine
10
159.44223
20
-8.551632
30
0
11
159.459923
21
-8.523854
31
0
39
0
210
0
220
0
230
1
0
LINE
5
120
100
AcDbEntity
8
1
62
256
6
ByLayer
370
-1
48
1
60
0
100
AcDbLine
10
159.556236
20
-8.582654
30
0
11
159.538542
21
-8.610431
31
0
39
0
210
0
220
0
230
1
0
LINE
5
121
100
AcDbEntity
8
1
62
256
6
ByLayer
370
-1
48
1
60
0
100
AcDbLine
10
159.538542
20
-8.610431
30
0
11
159.577672
21
-8.618428
31
0
39
0
210
0
220
0
230
1
0
LINE
5
122
100
AcDbEntity
8
1
62
256
6
ByLayer
370
-1
48
1
60
0
100
AcDbLine
10
159.157946
20
-8.874006
30
0
11
158.156032
21
-10.479754
31
0
39
0
210
0
220
0
230
1
0
LINE
5
123
100
AcDbEntity
8
1
62
256
6
ByLayer
370
-1
48
1
60
0
100
AcDbLine
10
159.06577
20
-8.807725
30
0
11
157.016317
21
-8.66523
31
0
39
0
210
0
220
0
230
1
0
LINE
5
124
100
AcDbEntity
8
1
62
256
6
ByLayer
370
-1
48
1
60
0
100
AcDbLine
10
158.063855
20
-10.413473
30
0
11
159.06577
21
-8.807725
31
0
39
0
210
0
220
0
230
1
0
LINE
5
125
100
AcDbEntity
8
1
62
256
6
ByLayer
370
-1
48
1
60
0
100
AcDbLine
10
157.010763
20
-8.568407
30
0
11
159.060215
21
-8.710902
31
0
39
0
210
0
220
0
230
1
0
LINE
5
126
100
AcDbEntity
8
1
62
256
6
ByLayer
370
-1
48
1
60
0
100
AcDbLine
10
157.016317
20
-8.66523
30
0
11
157.031525
21
-9.783227
31
0
39
0
210
0
220
0
230
1
0
LINE
5
127
100
AcDbEntity
8
1
62
256
6
ByLayer
370
-1
48
1
60
0
100
AcDbLine
10
157.031525
20
-9.783227
30
0
11
158.063855
21
-10.413473
31
0
39
0
210
0
220
0
230
1
0
LINE
5
128
100
AcDbEntity
8
1
62
256
6
ByLayer
370
-1
48
1
60
0
100
AcDbLine
10
148.208795
20
-20.342559
30
0
11
148.449411
21
-20.418369
31
0
39
0
210
0
220
0
230
1
0
LINE
5
129
100
AcDbEntity
8
1
62
256
6
ByLayer
370
-1
48
1
60
0
100
AcDbLine
10
149.796887
20
-21.185755
30
0
11
150.376072
21
-21.385445
31
0
39
0
210
0
220
0
230
1
0
LINE
5
12A
100
AcDbEntity
8
1
62
256
6
ByLayer
370
-1
48
1
60
0
100
AcDbLine
10
149.574281
20
-21.040864
30
0
11
149.636359
21
-21.089551
31
0
39
0
210
0
220
0
230
1
0
LINE
5
12B
100
AcDbEntity
8
1
62
256
6
ByLayer
370
-1
48
1
60
0
100
AcDbLine
10
143.550003
20
-15.276651
30
0
11
145.48048
21
-18.403286
31
0
39
0
210
0
220
0
230
1
0
LINE
5
12C
100
AcDbEntity
8
1
62
256
6
ByLayer
370
-1
48
1
60
0
100
AcDbLine
10
159.503994
20
-8.388428
30
0
11
159.41066
21
-6.955676
31
0
39
0
210
0
220
0
230
1
0
LINE
5
12D
100
AcDbEntity
8
1
62
256
6
ByLayer
370
-1
48
1
60
0
100
AcDbLine
10
159.657527
20
-8.48075
30
0
11
159.563797
21
-7.041921
31
0
39
0
210
0
220
0
230
1
0
LINE
5
12E
100
AcDbEntity
8
1
62
256
6
ByLayer
370
-1
48
1
60
0
100
AcDbLine
10
159.728608
20
-8.599378
30
0
11
159.634878
21
-7.160548
31
0
39
0
210
0
220
0
230
1
0
LINE
5
12F
100
AcDbEntity
8
1
62
256
6
ByLayer
370
-1
48
1
60
0
100
AcDbLine
10
155.185278
20
-15.347168
30
0
11
155.210094
21
-15.728124
31
0
39
0
210
0
220
0
230
1
0
LINE
5
130
100
AcDbEntity
8
1
62
256
6
ByLayer
370
-1
48
1
60
0
100
AcDbLine
10
154.869892
20
-17.028839
30
0
11
154.894788
21
-17.411018
31
0
39
0
210
0
220
0
230
1
0
LINE
5
131
100
AcDbEntity
8
1
62
256
6
ByLayer
370
-1
48
1
60
0
100
AcDbLine
10
153.860045
20
-17.592173
30
0
11
153.884942
21
-17.974352
31
0
39
0
210
0
220
0
230
1
0
LINE
5
132
100
AcDbEntity
8
1
62
256
6
ByLayer
370
-1
48
1
60
0
100
AcDbLine
10
153.223812
20
-17.594949
30
0
11
153.248708
21
-17.977128
31
0
39
0
210
0
220
0
230
1
0
LINE
5
133
100
AcDbEntity
8
1
62
256
6
ByLayer
370
-1
48
1
60
0
100
AcDbLine
10
152.213965
20
-17.040429
30
0
11
152.238861
21
-17.422607
31
0
39
0
210
0
220
0
230
1
0
LINE
5
134
100
AcDbEntity
8
1
62
256
6
ByLayer
370
-1
48
1
60
0
100
AcDbLine
10
151.898579
20
-15.361511
30
0
11
151.923396
21
-15.742466
31
0
39
0
210
0
220
0
230
1
0
LINE
5
135
100
AcDbEntity
8
1
62
256
6
ByLayer
370
-1
48
1
60
0
100
AcDbLine
10
152.155986
20
-16.11639
30
0
11
152.134391
21
-15.784887
31
0
39
0
210
0
220
0
230
1
0
LINE
5
136
100
AcDbEntity
8
1
62
256
6
ByLayer
370
-1
48
1
60
0
100
AcDbLine
10
154.949466
20
-15.772602
30
0
11
154.971062
21
-16.104106
31
0
39
0
210
0
220
0
230
1
0
LINE
5
137
100
AcDbEntity
8
1
62
256
6
ByLayer
370
-1
48
1
60
0
100
AcDbLine
10
154.971062
20
-16.399179
30
0
11
154.949466
21
-16.067676
31
0
39
0
210
0
220
0
230
1
0
LINE
5
138
100
AcDbEntity
8
SK1
62
256
6
ByLayer
370
-1
48
1
60
0
100
AcDbLine
10
0
20
-7.571005
30
0
11
0
21
-17.51075
31
0
39
0
210
0
220
0
230
1
0
LINE
5
139
100
AcDbEntity
8
1
62
256
6
ByLayer
370
-1
48
1
60
0
100
AcDbLine
10
150.862052
20
-21.63049
30
0
11
153.395282
21
-23.12988
31
0
39
0
210
0
220
0
230
1
0
LINE
5
13A
100
AcDbEntity
8
1
62
256
6
ByLayer
370
-1
48
1
60
0
100
AcDbLine
10
154.810337
20
-23.123705
30
0
11
154.815456
21
-23.116324
31
0
39
0
210
0
220
0
230
1
0
LINE
5
13B
100
AcDbEntity
8
1
62
256
6
ByLayer
370
-1
48
1
60
0
100
AcDbLine
10
155.041602
20
-22.995594
30
0
11
155.767866
21
-22.992424
31
0
39
0
210
0
220
0
230
1
0
LINE
5
13C
100
AcDbEntity
8
1
62
256
6
ByLayer
370
-1
48
1
60
0
100
AcDbLine
10
156.008788
20
-23.132529
30
0
11
157.188396
21
-25.155504
31
0
39
0
210
0
220
0
230
1
0
LINE
5
13D
100
AcDbEntity
8
1
62
256
6
ByLayer
370
-1
48
1
60
0
100
AcDbLine
10
157.343274
20
-25.245571
30
0
11
157.485436
21
-25.244951
31
0
39
0
210
0
220
0
230
1
0
LINE
5
13E
100
AcDbEntity
8
1
62
256
6
ByLayer
370
-1
48
1
60
0
100
AcDbLine
10
159.905234
20
-18.081398
30
0
11
159.905234
21
-17.210526
31
0
39
0
210
0
220
0
230
1
0
LINE
5
13F
100
AcDbEntity
8
1
62
256
6
ByLayer
370
-1
48
1
60
0
100
AcDbLine
10
153.395282
20
-23.12988
30
0
11
153.683638
21
-23.289454
31
0
39
0
210
0
220
0
230
1
0
LINE
5
140
100
AcDbEntity
8
1
62
256
6
ByLayer
370
-1
48
1
60
0
100
AcDbLine
10
154.710286
20
-23.257476
30
0
11
154.810337
21
-23.123705
31
0
39
0
210
0
220
0
230
1
0
LINE
5
141
100
AcDbEntity
8
1
62
256
6
ByLayer
370
-1
48
1
60
0
100
AcDbLine
10
153.808621
20
-23.321261
30
0
11
154.588857
21
-23.317857
31
0
39
0
210
0
220
0
230
1
0
LINE
5
142
100
AcDbEntity
8
1
62
256
6
ByLayer
370
-1
48
1
60
0
100
AcDbLine
10
159.897816
20
-21.159094
30
0
11
159.897816
21
-19.468026
31
0
39
0
210
0
220
0
230
1
0
LINE
5
143
100
AcDbEntity
8
1
62
256
6
ByLayer
370
-1
48
1
60
0
100
AcDbLine
10
159.751869
20
-21.462287
30
0
11
159.862411
21
-21.283142
31
0
39
0
210
0
220
0
230
1
0
LINE
5
144
100
AcDbEntity
8
1
62
256
6
ByLayer
370
-1
48
1
60
0
100
AcDbLine
10
158.878006
20
-22.347539
30
0
11
157.636072
21
-21.63762
31
0
39
0
210
0
220
0
230
1
0
LINE
5
145
100
AcDbEntity
8
1
62
256
6
ByLayer
370
-1
48
1
60
0
100
AcDbLine
10
157.532622
20
-25.03831
30
0
11
158.962099
21
-22.53691
31
0
39
0
210
0
220
0
230
1
0
LINE
5
146
100
AcDbEntity
8
1
62
256
6
ByLayer
370
-1
48
1
60
0
100
AcDbLine
10
157.435137
20
-25.095169
30
0
11
157.392265
21
-25.095356
31
0
39
0
210
0
220
0
230
1
0
LINE
5
147
100
AcDbEntity
8
1
62
256
6
ByLayer
370
-1
48
1
60
0
100
AcDbLine
10
157.294287
20
-25.03935
30
0
11
155.843036
21
-22.55052
31
0
39
0
210
0
220
0
230
1
0
LINE
5
148
100
AcDbEntity
8
1
62
256
6
ByLayer
370
-1
48
1
60
0
100
AcDbLine
10
157.161166
20
-21.639693
30
0
11
155.925474
21
-22.360423
31
0
39
0
210
0
220
0
230
1
0
LINE
5
149
100
AcDbEntity
8
1
62
256
6
ByLayer
370
-1
48
1
60
0
100
AcDbLine
10
151.694751
20
-20.371555
30
0
11
151.207678
21
-20.860942
31
0
39
0
210
0
220
0
230
1
0
LINE
5
14A
100
AcDbEntity
8
1
62
256
6
ByLayer
370
-1
48
1
60
0
100
AcDbLine
10
158.282378
20
-18.995466
30
0
11
157.360306
21
-18.777393
31
0
39
0
210
0
220
0
230
1
0
LINE
5
14B
100
AcDbEntity
8
1
62
256
6
ByLayer
370
-1
48
1
60
0
100
AcDbLine
10
151.161052
20
-20.811959
30
0
11
151.648125
21
-20.322572
31
0
39
0
210
0
220
0
230
1
0
LINE
5
14C
100
AcDbEntity
8
1
62
256
6
ByLayer
370
-1
48
1
60
0
100
AcDbLine
10
159.907386
20
-16.983422
30
0
11
159.1087
21
-16.370753
31
0
39
0
210
0
220
0
230
1
0
LINE
5
14D
100
AcDbEntity
8
1
62
256
6
ByLayer
370
-1
48
1
60
0
100
AcDbLine
10
159.194855
20
-16.265588
30
0
11
159.907884
21
-16.81255
31
0
39
0
210
0
220
0
230
1
0
LINE
5
14E
100
AcDbEntity
8
1
62
256
6
ByLayer
370
-1
48
1
60
0
100
AcDbLine
10
157.37546
20
-18.711027
30
0
11
158.297532
21
-18.929099
31
0
39
0
210
0
220
0
230
1
0
LINE
5
14F
100
AcDbEntity
8
1
62
256
6
ByLayer
370
-1
48
1
60
0
100
AcDbLine
10
159.674817
20
-21.592033
30
0
11
157.556137
21
-21.601279
31
0
39
0
210
0
220
0
230
1
0
LINE
5
150
100
AcDbEntity
8
1
62
256
6
ByLayer
370
-1
48
1
60
0
100
AcDbLine
10
157.24078
20
-21.602655
30
0
11
150.862052
21
-21.63049
31
0
39
0
210
0
220
0
230
1
0
LINE
5
151
100
AcDbEntity
8
1
62
256
6
ByLayer
370
-1
48
1
60
0
100
AcDbLine
10
154.569258
20
-21.484903
30
0
11
159.751869
21
-21.462287
31
0
39
0
210
0
220
0
230
1
0
LINE
5
152
100
AcDbEntity
8
1
62
256
6
ByLayer
370
-1
48
1
60
0
100
AcDbLine
10
157.854779
20
-16.551503
30
0
11
159.906417
21
-17.036721
31
0
39
0
210
0
220
0
230
1
0
LINE
5
153
100
AcDbEntity
8
1
62
256
6
ByLayer
370
-1
48
1
60
0
100
AcDbLine
10
157.413825
20
-17.492173
30
0
11
159.905234
21
-18.081398
31
0
39
0
210
0
220
0
230
1
0
LINE
5
154
100
AcDbEntity
8
1
62
256
6
ByLayer
370
-1
48
1
60
0
100
AcDbLine
10
159.905234
20
-17.210526
30
0
11
157.625432
21
-16.671346
31
0
39
0
210
0
220
0
230
1
0
LINE
5
155
100
AcDbEntity
8
1
62
256
6
ByLayer
370
-1
48
1
60
0
100
AcDbLine
10
159.906417
20
-18.291529
30
0
11
157.549883
21
-17.734202
31
0
39
0
210
0
220
0
230
1
0
LINE
5
156
100
AcDbEntity
8
SK1
62
256
6
ByLayer
370
-1
48
1
60
0
100
AcDbLine
10
0
20
-7.571005
30
0
11
-138.836
21
-7.571005
31
0
39
0
210
0
220
0
230
1
0
LINE
5
157
100
AcDbEntity
8
SK1
62
256
6
ByLayer
370
-1
48
1
60
0
100
AcDbLine
10
-138.836
20
7.571005
30
0
11
0
21
7.571005
31
0
39
0
210
0
220
0
230
1
0
LINE
5
158
100
AcDbEntity
8
SK1
62
256
6
ByLayer
370
-1
48
1
60
0
100
AcDbLine
10
0
20
-7.571005
30
0
11
0
21
7.571005
31
0
39
0
210
0
220
0
230
1
0
LINE
5
159
100
AcDbEntity
8
SK1
62
256
6
ByLayer
370
-1
48
1
60
0
100
AcDbLine
10
-138.836
20
-17.51075
30
0
11
0
21
-17.51075
31
0
39
0
210
0
220
0
230
1
0
LINE
5
15A
100
AcDbEntity
8
1
62
256
6
ByLayer
370
-1
48
1
60
0
100
AcDbLine
10
159.910292
20
-18.623752
30
0
11
159.906417
21
-18.291529
31
0
39
0
210
0
220
0
230
1
0
LINE
5
15B
100
AcDbEntity
8
1
62
256
6
ByLayer
370
-1
48
1
60
0
100
AcDbLine
10
159.906417
20
-17.036721
30
0
11
159.907386
21
-16.983422
31
0
39
0
210
0
220
0
230
1
0
LINE
5
15C
100
AcDbEntity
8
1
62
256
6
ByLayer
370
-1
48
1
60
0
100
AcDbLine
10
157.639522
20
-25.153535
30
0
11
159.674817
21
-21.592033
31
0
39
0
210
0
220
0
230
1
0
LINE
5
15D
100
AcDbEntity
8
1
62
256
6
ByLayer
370
-1
48
1
60
0
100
AcDbLine
10
159.907884
20
-16.81255
30
0
11
159.899718
21
-16.032007
31
0
39
0
210
0
220
0
230
1
0
MTEXT
5
2DD
100
AcDbEntity
8
SK6
62
256
6
ByLayer
370
-1
48
1
60
0
100
AcDbMText
10
10.164
20
36.058888
30
0
210
0
220
0
230
1
1
\W00.747;\fsimplex.shx,bigfont.shx;266LKF-40-22 
40
3.5
41
0
44
1.084337
50
0
71
7
72
5
7
DEFAULT
0
DIMENSION
5
310
100
AcDbEntity
8
2
62
256
6
ByLayer
370
-3
48
1
60
0
100
AcDbDimension
2
DimnDraft3D1
10
159.914
20
-41.125
30
0
11
138.168816
21
-41.125
31
0
70
32
71
5
72
1
41
1
210
0
220
0
230
1
3
Standard
100
AcDbAlignedDimension
13
121.681527
23
-28.375
33
0
14
159.914
24
-28.375
34
0
50
0
100
AcDbRotatedDimension
1001
ACAD
1000
DSTYLE
1002
{
1070
   279
1070
     0
1070
   172
1070
     1
1070
   173
1070
     1
1070
   340
1005
2DE
1070
   271
1070
     3
1070
   272
1070
     3
1070
    77
1070
     1
1070
    73
1070
     0
1070
   171
1070
     4
1070
   274
1070
     4
1070
   177
1070
     2
1070
   176
1070
     2
1070
   178
1070
     7
1070
    78
1070
     8
1070
    41
1041
3.0
1070
   147
1041
2.25
1070
    42
1041
1.5
1070
    44
1041
3.0
1070
   140
1041
4.5
1070
   343
1005
311
1070
   344
1005
311
1002
}
0
DIMENSION
5
326
100
AcDbEntity
8
SK2
62
256
6
ByLayer
370
-3
48
1
60
0
100
AcDbDimension
2
DimnDraft3D2
10
-141.336
20
-51.125
30
0
11
5.570579
21
-51.125
31
0
70
32
71
5
72
1
41
1
210
0
220
0
230
1
3
Standard
100
AcDbAlignedDimension
13
159.914
23
-28.375
33
0
14
-141.336
24
-1.5
34
0
50
0
100
AcDbRotatedDimension
1001
ACAD
1000
DSTYLE
1002
{
1070
   279
1070
     0
1070
   172
1070
     1
1070
   173
1070
     1
1070
   340
1005
2DE
1070
   271
1070
     3
1070
   272
1070
     3
1070
    77
1070
     1
1070
    73
1070
     0
1070
   171
1070
     4
1070
   274
1070
     4
1070
   177
1070
     2
1070
   176
1070
     2
1070
   178
1070
     7
1070
    78
1070
     8
1070
    41
1041
3.0
1070
   147
1041
2.25
1070
    42
1041
1.5
1070
    44
1041
3.0
1070
   140
1041
4.5
1070
   343
1005
311
1070
   344
1005
311
1002
}
0
DIMENSION
5
334
100
AcDbEntity
8
2
62
256
6
ByLayer
370
-3
48
1
60
0
100
AcDbDimension
2
DimnDraft3D3
10
174.164
20
-26.875
30
0
11
174.164
21
-16.066447
31
0
70
32
71
5
72
1
41
1
210
0
220
0
230
1
3
Standard
100
AcDbAlignedDimension
13
166.414
23
0
33
0
14
161.414
24
-26.875
34
0
50
90
100
AcDbRotatedDimension
1001
ACAD
1000
DSTYLE
1002
{
1070
    74
1070
     0
1070
   279
1070
     0
1070
   172
1070
     1
1070
   173
1070
     1
1070
   340
1005
2DE
1070
   271
1070
     3
1070
   272
1070
     3
1070
    77
1070
     1
1070
    73
1070
     0
1070
   171
1070
     4
1070
   274
1070
     4
1070
   177
1070
     2
1070
   176
1070
     2
1070
   178
1070
     7
1070
    78
1070
     8
1070
    41
1041
3.0
1070
   147
1041
2.25
1070
    42
1041
1.5
1070
    44
1041
3.0
1070
   140
1041
4.5
1070
   343
1005
311
1070
   344
1005
311
1002
}
0
DIMENSION
5
342
100
AcDbEntity
8
SK2
62
256
6
ByLayer
370
-3
48
1
60
0
100
AcDbDimension
2
DimnDraft3D4
10
-151.086
20
19.98925
30
0
11
-151.086
21
-5.021053
31
0
70
32
71
5
72
1
41
1
210
0
220
0
230
1
3
Standard
100
AcDbAlignedDimension
13
-142.836
23
-19.98925
33
0
14
-142.836
24
19.98925
34
0
50
90
100
AcDbRotatedDimension
1001
ACAD
1000
DSTYLE
1002
{
1070
    74
1070
     0
1070
   279
1070
     0
1070
   172
1070
     1
1070
   173
1070
     1
1070
   340
1005
2DE
1070
   271
1070
     3
1070
   272
1070
     3
1070
    77
1070
     1
1070
    73
1070
     0
1070
   171
1070
     4
1070
   274
1070
     4
1070
   177
1070
     2
1070
   176
1070
     2
1070
   178
1070
     7
1070
    78
1070
     8
1070
    41
1041
3.0
1070
   147
1041
2.25
1070
    42
1041
1.5
1070
    44
1041
3.0
1070
   140
1041
4.5
1070
   343
1005
311
1070
   344
1005
311
1002
}
0
ENDSEC
0
SECTION
2
OBJECTS
0
DICTIONARY
5
373
330
0
100
AcDbDictionary
280
0
281
1
3
ACAD_GROUP
350
374
3
ACAD_MLINESTYLE
350
375
0
DICTIONARY
5
374
330
0
100
AcDbDictionary
280
0
281
1
0
DICTIONARY
5
375
330
0
100
AcDbDictionary
280
0
281
1
3
Standard
350
18
0
MLINESTYLE
5
18
330
375
100
AcDbMlineStyle
2
Standard
70
0
3

62
256
51
90
52
90
71
2
49
-0.5
62
256
6
ByLayer
49
0.5
62
256
6
ByLayer
0
RASTERVARIABLES
5
361
330

100
AcDbRasterVariables
90
0
70
1
71
1
72
1
0
ENDSEC
0
EOF
