0
SECTION
2
HEADER
9
$ACADVER
1
AC1015
9
$DWGCODEPAGE
3
ANSI_1252
9
$HANDSEED
5
37e
9
$ANGBASE
50
0
9
$ANGDIR
70
0
9
$ATTMODE
70
1
9
$AUNITS
70
0
9
$AUPREC
70
0
9
$CECOLOR
62
256
9
$CELTSCALE
40
1
9
$CELTYPE
6
ByLayer
9
$CELWEIGHT
370
-1
9
$CLAYER
8
0
9
$CMLJUST
70
0
9
$CMLSCALE
40
1
9
$CMLSTYLE
2
Standard
9
$DIMSTYLE
2
Standard
9
$TEXTSIZE
40
0.2
9
$TEXTSTYLE
7
Standard
9
$LUNITS
70
2
9
$LUPREC
70
4
9
$EXTNAMES
290
1
9
$INSUNITS
70
4
9
$LTSCALE
40
1
9
$LWDISPLAY
290
0
9
$PDMODE
70
0
9
$PDSIZE
40
0
9
$PLINEGEN
70
0
0
ENDSEC
0
SECTION
2
CLASSES
0
CLASS
1
RASTERVARIABLES
2
AcDbRasterVariables
3
ISM
90
0
280
0
281
0
0
ENDSEC
0
SECTION
2
TABLES
0
TABLE
2
VPORT
5
374
100
AcDbSymbolTable
0
VPORT
5
1
100
AcDbSymbolTableRecord
100
AcDbViewportTableRecord
2
*Active
70
0
10
0
20
0
11
1
21
1
12
-1
22
1
13
0
23
0
14
0.5
24
0.5
15
10
25
10
16
0
26
0
36
1
17
0
27
0
37
0
0
ENDTAB
0
TABLE
2
LTYPE
5
375
100
AcDbSymbolTable
0
LTYPE
5
14
100
AcDbSymbolTableRecord
100
AcDbLinetypeTableRecord
70
0
2
ByBlock
3

72
65
73
0
40
0
0
LTYPE
5
15
100
AcDbSymbolTableRecord
100
AcDbLinetypeTableRecord
70
0
2
ByLayer
3

72
65
73
0
40
0
0
LTYPE
5
16
100
AcDbSymbolTableRecord
100
AcDbLinetypeTableRecord
70
0
2
CONTINUOUS
3
Solid line
72
65
73
0
40
0
0
LTYPE
5
3B
100
AcDbSymbolTableRecord
100
AcDbLinetypeTableRecord
70
0
2
DASHED
3
__ __ __ __ __ __ __ __ __
72
65
73
2
40
25.72
49
12.86
74
0
49
-12.86
74
0
0
LTYPE
5
3C
100
AcDbSymbolTableRecord
100
AcDbLinetypeTableRecord
70
0
2
HIDDEN
3
_ _ _ _ _ _ _ _ _ _ _ _ _ _ _
72
65
73
2
40
0.5
49
0.25
74
0
49
-0.25
74
0
0
LTYPE
5
3D
100
AcDbSymbolTableRecord
100
AcDbLinetypeTableRecord
70
0
2
PHANTOM
3
____ _ _ ____ _ _ _____ _ _ ____
72
65
73
6
40
50.5
49
18
74
0
49
-6.5
74
0
49
6.5
74
0
49
-6.5
74
0
49
6.5
74
0
49
-6.5
74
0
0
LTYPE
5
3E
100
AcDbSymbolTableRecord
100
AcDbLinetypeTableRecord
70
0
2
CENTER
3
____ _ ____ _ ____ _ ____
72
65
73
4
40
47.5
49
22
74
0
49
-8.5
74
0
49
8.5
74
0
49
-8.5
74
0
0
LTYPE
5
3F
100
AcDbSymbolTableRecord
100
AcDbLinetypeTableRecord
70
0
2
DOT
3
.........................
72
65
73
2
40
10
49
0
74
0
49
-10
74
0
0
LTYPE
5
40
100
AcDbSymbolTableRecord
100
AcDbLinetypeTableRecord
70
0
2
DASHDOT
3
_._._._._._._._._._._._._._._._.
72
65
73
4
40
70
49
31
74
0
49
-13
74
0
49
13
74
0
49
-13
74
0
0
ENDTAB
0
TABLE
2
LAYER
5
376
100
AcDbSymbolTable
0
LAYER
5
10
100
AcDbSymbolTableRecord
100
AcDbLayerTableRecord
2
0
70
0
62
7
6
CONTINUOUS
290
1
370
-3
390
0
0
LAYER
5
42
100
AcDbSymbolTableRecord
100
AcDbLayerTableRecord
2
2
70
0
62
7
6
CONTINUOUS
290
1
370
-3
390
0
0
LAYER
5
44
100
AcDbSymbolTableRecord
100
AcDbLayerTableRecord
2
1
70
0
62
4
6
CONTINUOUS
290
1
370
-3
390
0
0
LAYER
5
46
100
AcDbSymbolTableRecord
100
AcDbLayerTableRecord
2
80
70
0
62
-6
6
CONTINUOUS
290
1
370
-3
390
0
0
LAYER
5
48
100
AcDbSymbolTableRecord
100
AcDbLayerTableRecord
2
81
70
0
62
-3
6
CONTINUOUS
290
1
370
-3
390
0
0
LAYER
5
360
100
AcDbSymbolTableRecord
100
AcDbLayerTableRecord
2
SK1
70
0
62
4
6
CONTINUOUS
290
1
370
-3
390
0
0
LAYER
5
361
100
AcDbSymbolTableRecord
100
AcDbLayerTableRecord
2
SK4
70
0
62
2
6
CENTER
290
1
370
-3
390
0
0
LAYER
5
362
100
AcDbSymbolTableRecord
100
AcDbLayerTableRecord
2
SK6
70
0
62
5
6
CONTINUOUS
290
1
370
-3
390
0
0
LAYER
5
363
100
AcDbSymbolTableRecord
100
AcDbLayerTableRecord
2
SK2
70
0
62
7
6
CONTINUOUS
290
1
370
-3
390
0
0
ENDTAB
0
TABLE
2
STYLE
5
377
100
AcDbSymbolTable
0
STYLE
5
11
100
AcDbSymbolTableRecord
100
AcDbTextStyleTableRecord
2
Standard
3
txt
70
0
71
0
40
0
41
1
42
0
50
0
0
STYLE
5
2DC
100
AcDbSymbolTableRecord
100
AcDbTextStyleTableRecord
2
DEFAULT
3
simplex.shx
70
0
71
0
40
0
41
1
42
0
50
0
0
STYLE
5
2FF
100
AcDbSymbolTableRecord
100
AcDbTextStyleTableRecord
2
DWGDirectTextStyle
3
SIMPLEX
70
0
71
0
40
0
41
1
42
0
50
0
0
ENDTAB
0
TABLE
2
DIMSTYLE
5
378
100
AcDbSymbolTable
100
AcDbDimStyleTable
0
DIMSTYLE
105
27
100
AcDbSymbolTableRecord
100
AcDbDimStyleTableRecord
2
Standard
70
0
3
<>
41
0.18
42
0.0625
44
0.18
140
0.18
147
0.09
73
0
74
0
77
1
271
2
275
0
278
52
280
0
340
11
0
ENDTAB
0
TABLE
2
VIEW
5
379
100
AcDbSymbolTable
0
ENDTAB
0
TABLE
2
UCS
5
37a
100
AcDbSymbolTable
0
ENDTAB
0
TABLE
2
APPID
5
37b
100
AcDbSymbolTable
0
APPID
5
12
100
AcDbSymbolTableRecord
100
AcDbRegAppTableRecord
2
ACAD
70
0
0
ENDTAB
0
TABLE
2
BLOCK_RECORD
5
37c
100
AcDbSymbolTable
0
BLOCK_RECORD
5
1F
100
AcDbSymbolTableRecord
100
AcDbBlockTableRecord
2
*Model_Space
340
0
70
0
0
BLOCK_RECORD
5
1B
100
AcDbSymbolTableRecord
100
AcDbBlockTableRecord
2
*Paper_Space
340
0
70
0
0
BLOCK_RECORD
5
23
100
AcDbSymbolTableRecord
100
AcDbBlockTableRecord
2
*Paper_Space0
340
0
70
0
0
BLOCK_RECORD
5
301
100
AcDbSymbolTableRecord
100
AcDbBlockTableRecord
2
DimnDraft3D1
340
0
70
0
0
BLOCK_RECORD
5
30F
100
AcDbSymbolTableRecord
100
AcDbBlockTableRecord
2
_CLOSED
340
0
70
0
0
BLOCK_RECORD
5
316
100
AcDbSymbolTableRecord
100
AcDbBlockTableRecord
2
DimnDraft3D2
340
0
70
0
0
BLOCK_RECORD
5
325
100
AcDbSymbolTableRecord
100
AcDbBlockTableRecord
2
DimnDraft3D3
340
0
70
0
0
BLOCK_RECORD
5
333
100
AcDbSymbolTableRecord
100
AcDbBlockTableRecord
2
DimnDraft3D4
340
0
70
0
0
ENDTAB
0
ENDSEC
0
SECTION
2
BLOCKS
0
BLOCK
5
20
100
AcDbEntity
8
0
100
AcDbBlockBegin
2
*Model_Space
70
0
10
0
20
0
30
0
3
*Model_Space
0
ENDBLK
5
21
100
AcDbEntity
8
0
100
AcDbBlockEnd
0
BLOCK
5
1C
100
AcDbEntity
8
0
100
AcDbBlockBegin
2
*Paper_Space
70
0
10
0
20
0
30
0
3
*Paper_Space
0
ENDBLK
5
1D
100
AcDbEntity
8
0
100
AcDbBlockEnd
0
BLOCK
5
24
100
AcDbEntity
8
0
100
AcDbBlockBegin
2
*Paper_Space0
70
0
10
0
20
0
30
0
3
*Paper_Space0
0
ENDBLK
5
25
100
AcDbEntity
8
0
100
AcDbBlockEnd
0
BLOCK
5
30C
100
AcDbEntity
8
0
100
AcDbBlockBegin
2
DimnDraft3D1
70
0
10
0
20
0
30
0
3
DimnDraft3D1
0
MTEXT
5
302
100
AcDbEntity
8
2
62
256
6
ByLayer
370
-1
48
1
60
0
100
AcDbMText
10
80.838632
20
-32
30
0
210
0
220
0
230
1
1
\W01.000;\fsimplex.shx,bigfont.shx;35 
40
4.5
41
0
44
1.084337
50
0
71
7
72
5
7
DEFAULT
0
LINE
5
303
100
AcDbEntity
8
2
62
256
6
ByLayer
370
-1
48
1
60
0
100
AcDbLine
10
64.755159
20
-20.375
30
0
11
64.755159
21
-36.125
31
0
39
0
210
0
220
0
230
1
0
LINE
5
304
100
AcDbEntity
8
2
62
256
6
ByLayer
370
-1
48
1
60
0
100
AcDbLine
10
99.93
20
-20.375
30
0
11
99.93
21
-36.125
31
0
39
0
210
0
220
0
230
1
0
LINE
5
305
100
AcDbEntity
8
2
62
256
6
ByLayer
370
-1
48
1
60
0
100
AcDbLine
10
64.755159
20
-33.125
30
0
11
99.93
21
-33.125
31
0
39
0
210
0
220
0
230
1
0
LINE
5
306
100
AcDbEntity
8
2
62
256
6
ByLayer
370
-1
48
1
60
0
100
AcDbLine
10
64.755159
20
-33.125
30
0
11
67.755158
21
-32.730043
31
0
39
0
210
0
220
0
230
1
0
LINE
5
307
100
AcDbEntity
8
2
62
256
6
ByLayer
370
-1
48
1
60
0
100
AcDbLine
10
64.755159
20
-33.125
30
0
11
67.75516
21
-33.519957
31
0
39
0
210
0
220
0
230
1
0
LINE
5
308
100
AcDbEntity
8
2
62
256
6
ByLayer
370
-1
48
1
60
0
100
AcDbLine
10
67.755158
20
-32.730043
30
0
11
67.75516
21
-33.519957
31
0
39
0
210
0
220
0
230
1
0
LINE
5
309
100
AcDbEntity
8
2
62
256
6
ByLayer
370
-1
48
1
60
0
100
AcDbLine
10
99.93
20
-33.125
30
0
11
96.930001
21
-33.519957
31
0
39
0
210
0
220
0
230
1
0
LINE
5
30A
100
AcDbEntity
8
2
62
256
6
ByLayer
370
-1
48
1
60
0
100
AcDbLine
10
99.93
20
-33.125
30
0
11
96.929999
21
-32.730043
31
0
39
0
210
0
220
0
230
1
0
LINE
5
30B
100
AcDbEntity
8
2
62
256
6
ByLayer
370
-1
48
1
60
0
100
AcDbLine
10
96.930001
20
-33.519957
30
0
11
96.929999
21
-32.730043
31
0
39
0
210
0
220
0
230
1
0
ENDBLK
5
30D
100
AcDbEntity
8
0
100
AcDbBlockEnd
0
BLOCK
5
310
100
AcDbEntity
8
0
100
AcDbBlockBegin
2
_CLOSED
70
0
10
0
20
0
30
0
3
_CLOSED
0
LINE
5
312
100
AcDbEntity
8
0
62
256
6
ByLayer
370
-2
48
1
60
0
100
AcDbLine
10
-1
20
0.166667
30
0
11
0
21
0
31
0
39
0
210
0
220
0
230
1
0
LINE
5
313
100
AcDbEntity
8
0
62
256
6
ByLayer
370
-2
48
1
60
0
100
AcDbLine
10
0
20
0
30
0
11
-1
21
-0.166667
31
0
39
0
210
0
220
0
230
1
0
LINE
5
314
100
AcDbEntity
8
0
62
256
6
ByLayer
370
-2
48
1
60
0
100
AcDbLine
10
-1
20
0.166667
30
0
11
-1
21
-0.166667
31
0
39
0
210
0
220
0
230
1
0
LINE
5
315
100
AcDbEntity
8
0
62
256
6
ByLayer
370
-2
48
1
60
0
100
AcDbLine
10
0
20
0
30
0
11
-1
21
0
31
0
39
0
210
0
220
0
230
1
0
ENDBLK
5
311
100
AcDbEntity
8
0
100
AcDbBlockEnd
0
BLOCK
5
322
100
AcDbEntity
8
0
100
AcDbBlockBegin
2
DimnDraft3D2
70
0
10
0
20
0
30
0
3
DimnDraft3D2
0
MTEXT
5
317
100
AcDbEntity
8
SK2
62
256
6
ByLayer
370
-1
48
1
60
0
100
AcDbMText
10
-53.288421
20
-42
30
0
210
0
220
0
230
1
1
\W01.000;\fsimplex.shx,bigfont.shx;301 
40
4.5
41
0
44
1.084337
50
0
71
7
72
5
7
DEFAULT
0
LINE
5
319
100
AcDbEntity
8
SK2
62
256
6
ByLayer
370
-1
48
1
60
0
100
AcDbLine
10
99.93
20
-20.375
30
0
11
99.93
21
-46.125
31
0
39
0
210
0
220
0
230
1
0
LINE
5
31A
100
AcDbEntity
8
SK2
62
256
6
ByLayer
370
-1
48
1
60
0
100
AcDbLine
10
-201.32
20
-1.5
30
0
11
-201.32
21
-46.125
31
0
39
0
210
0
220
0
230
1
0
LINE
5
31B
100
AcDbEntity
8
SK2
62
256
6
ByLayer
370
-1
48
1
60
0
100
AcDbLine
10
99.93
20
-43.125
30
0
11
-201.32
21
-43.125
31
0
39
0
210
0
220
0
230
1
0
LINE
5
31C
100
AcDbEntity
8
SK2
62
256
6
ByLayer
370
-1
48
1
60
0
100
AcDbLine
10
99.93
20
-43.125
30
0
11
96.930001
21
-43.519957
31
0
39
0
210
0
220
0
230
1
0
LINE
5
31D
100
AcDbEntity
8
SK2
62
256
6
ByLayer
370
-1
48
1
60
0
100
AcDbLine
10
99.93
20
-43.125
30
0
11
96.929999
21
-42.730043
31
0
39
0
210
0
220
0
230
1
0
LINE
5
31E
100
AcDbEntity
8
SK2
62
256
6
ByLayer
370
-1
48
1
60
0
100
AcDbLine
10
96.930001
20
-43.519957
30
0
11
96.929999
21
-42.730043
31
0
39
0
210
0
220
0
230
1
0
LINE
5
31F
100
AcDbEntity
8
SK2
62
256
6
ByLayer
370
-1
48
1
60
0
100
AcDbLine
10
-201.32
20
-43.125
30
0
11
-198.320001
21
-42.730043
31
0
39
0
210
0
220
0
230
1
0
LINE
5
320
100
AcDbEntity
8
SK2
62
256
6
ByLayer
370
-1
48
1
60
0
100
AcDbLine
10
-201.32
20
-43.125
30
0
11
-198.319999
21
-43.519957
31
0
39
0
210
0
220
0
230
1
0
LINE
5
321
100
AcDbEntity
8
SK2
62
256
6
ByLayer
370
-1
48
1
60
0
100
AcDbLine
10
-198.320001
20
-42.730043
30
0
11
-198.319999
21
-43.519957
31
0
39
0
210
0
220
0
230
1
0
ENDBLK
5
323
100
AcDbEntity
8
0
100
AcDbBlockEnd
0
BLOCK
5
330
100
AcDbEntity
8
0
100
AcDbBlockBegin
2
DimnDraft3D3
70
0
10
0
20
0
30
0
3
DimnDraft3D3
0
MTEXT
5
326
100
AcDbEntity
8
2
62
256
6
ByLayer
370
-1
48
1
60
0
100
AcDbMText
10
113.055
20
-10.378947
30
0
210
0
220
0
230
1
1
\W01.000;\fsimplex.shx,bigfont.shx;19 
40
4.5
41
0
44
1.084337
50
90
71
7
72
5
7
DEFAULT
0
LINE
5
327
100
AcDbEntity
8
2
62
256
6
ByLayer
370
-1
48
1
60
0
100
AcDbLine
10
106.43
20
0
30
0
11
117.18
21
0
31
0
39
0
210
0
220
0
230
1
0
LINE
5
328
100
AcDbEntity
8
2
62
256
6
ByLayer
370
-1
48
1
60
0
100
AcDbLine
10
101.43
20
-18.875
30
0
11
117.18
21
-18.875
31
0
39
0
210
0
220
0
230
1
0
LINE
5
329
100
AcDbEntity
8
2
62
256
6
ByLayer
370
-1
48
1
60
0
100
AcDbLine
10
114.18
20
0
30
0
11
114.18
21
-18.875
31
0
39
0
210
0
220
0
230
1
0
LINE
5
32A
100
AcDbEntity
8
2
62
256
6
ByLayer
370
-1
48
1
60
0
100
AcDbLine
10
114.18
20
0
30
0
11
114.574957
21
-2.999999
31
0
39
0
210
0
220
0
230
1
0
LINE
5
32B
100
AcDbEntity
8
2
62
256
6
ByLayer
370
-1
48
1
60
0
100
AcDbLine
10
114.18
20
0
30
0
11
113.785043
21
-3.000001
31
0
39
0
210
0
220
0
230
1
0
LINE
5
32C
100
AcDbEntity
8
2
62
256
6
ByLayer
370
-1
48
1
60
0
100
AcDbLine
10
114.574957
20
-2.999999
30
0
11
113.785043
21
-3.000001
31
0
39
0
210
0
220
0
230
1
0
LINE
5
32D
100
AcDbEntity
8
2
62
256
6
ByLayer
370
-1
48
1
60
0
100
AcDbLine
10
114.18
20
-18.875
30
0
11
113.785043
21
-15.875001
31
0
39
0
210
0
220
0
230
1
0
LINE
5
32E
100
AcDbEntity
8
2
62
256
6
ByLayer
370
-1
48
1
60
0
100
AcDbLine
10
114.18
20
-18.875
30
0
11
114.574957
21
-15.874999
31
0
39
0
210
0
220
0
230
1
0
LINE
5
32F
100
AcDbEntity
8
2
62
256
6
ByLayer
370
-1
48
1
60
0
100
AcDbLine
10
113.785043
20
-15.875001
30
0
11
114.574957
21
-15.874999
31
0
39
0
210
0
220
0
230
1
0
ENDBLK
5
331
100
AcDbEntity
8
0
100
AcDbBlockEnd
0
BLOCK
5
33E
100
AcDbEntity
8
0
100
AcDbBlockBegin
2
DimnDraft3D4
70
0
10
0
20
0
30
0
3
DimnDraft3D4
0
MTEXT
5
334
100
AcDbEntity
8
SK2
62
256
6
ByLayer
370
-1
48
1
60
0
100
AcDbMText
10
-212.195
20
-3.659211
30
0
210
0
220
0
230
1
1
\W01.000;\fsimplex.shx,bigfont.shx;%%c25 
40
4.5
41
0
44
1.084337
50
90
71
7
72
5
7
DEFAULT
0
LINE
5
335
100
AcDbEntity
8
SK2
62
256
6
ByLayer
370
-1
48
1
60
0
100
AcDbLine
10
-202.82
20
-12.49125
30
0
11
-214.07
21
-12.49125
31
0
39
0
210
0
220
0
230
1
0
LINE
5
336
100
AcDbEntity
8
SK2
62
256
6
ByLayer
370
-1
48
1
60
0
100
AcDbLine
10
-202.82
20
12.49125
30
0
11
-214.07
21
12.49125
31
0
39
0
210
0
220
0
230
1
0
LINE
5
337
100
AcDbEntity
8
SK2
62
256
6
ByLayer
370
-1
48
1
60
0
100
AcDbLine
10
-211.07
20
-12.49125
30
0
11
-211.07
21
12.49125
31
0
39
0
210
0
220
0
230
1
0
LINE
5
338
100
AcDbEntity
8
SK2
62
256
6
ByLayer
370
-1
48
1
60
0
100
AcDbLine
10
-211.07
20
-12.49125
30
0
11
-211.464957
21
-9.491251
31
0
39
0
210
0
220
0
230
1
0
LINE
5
339
100
AcDbEntity
8
SK2
62
256
6
ByLayer
370
-1
48
1
60
0
100
AcDbLine
10
-211.07
20
-12.49125
30
0
11
-210.675043
21
-9.491249
31
0
39
0
210
0
220
0
230
1
0
LINE
5
33A
100
AcDbEntity
8
SK2
62
256
6
ByLayer
370
-1
48
1
60
0
100
AcDbLine
10
-211.464957
20
-9.491251
30
0
11
-210.675043
21
-9.491249
31
0
39
0
210
0
220
0
230
1
0
LINE
5
33B
100
AcDbEntity
8
SK2
62
256
6
ByLayer
370
-1
48
1
60
0
100
AcDbLine
10
-211.07
20
12.49125
30
0
11
-210.675043
21
9.491251
31
0
39
0
210
0
220
0
230
1
0
LINE
5
33C
100
AcDbEntity
8
SK2
62
256
6
ByLayer
370
-1
48
1
60
0
100
AcDbLine
10
-211.07
20
12.49125
30
0
11
-211.464957
21
9.491249
31
0
39
0
210
0
220
0
230
1
0
LINE
5
33D
100
AcDbEntity
8
SK2
62
256
6
ByLayer
370
-1
48
1
60
0
100
AcDbLine
10
-210.675043
20
9.491251
30
0
11
-211.464957
21
9.491249
31
0
39
0
210
0
220
0
230
1
0
ENDBLK
5
33F
100
AcDbEntity
8
0
100
AcDbBlockEnd
0
ENDSEC
0
SECTION
2
ENTITIES
0
ARC
5
15B
100
AcDbEntity
8
1
62
256
6
ByLayer
370
-1
48
1
60
0
100
AcDbCircle
39
0
10
94.195386
20
1.838148
30
0
40
5.97633063734988
210
0
220
0
230
1
100
AcDbArc
50
20.568234
51
32.597381
0
ARC
5
15C
100
AcDbEntity
8
1
62
256
6
ByLayer
370
-1
48
1
60
0
100
AcDbCircle
39
0
10
94.195386
20
1.838148
30
0
40
5.97633063734988
210
0
220
0
230
1
100
AcDbArc
50
338.308555
51
338.82463
0
ARC
5
15D
100
AcDbEntity
8
1
62
256
6
ByLayer
370
-1
48
1
60
0
100
AcDbCircle
39
0
10
-75.244899
20
-12.975
30
0
40
0.8
210
0
220
0
230
-1
100
AcDbArc
50
90
51
140
0
ARC
5
15E
100
AcDbEntity
8
1
62
256
6
ByLayer
370
-1
48
1
60
0
100
AcDbCircle
39
0
10
-75.244899
20
12.975
30
0
40
0.8
210
0
220
0
230
-1
100
AcDbArc
50
260.931278
51
270
0
ARC
5
15F
100
AcDbEntity
8
1
62
256
6
ByLayer
370
-1
48
1
60
0
100
AcDbCircle
39
0
10
-64.969518
20
12.975
30
0
40
0.799999999999974
210
0
220
0
230
-1
100
AcDbArc
50
270
51
300
0
ELLIPSE
5
160
100
AcDbEntity
8
1
62
256
6
ByLayer
370
-1
48
1
60
0
100
AcDbEllipse
10
78.612956
20
-4.375006
30
0
11
-1.43947440699161
21
-1.42723399759445
31
0
210
0
220
0
230
1
40
0.667826
41
-3.13395682040214
42
0.728704501944321
0
ELLIPSE
5
161
100
AcDbEntity
8
1
62
256
6
ByLayer
370
-1
48
1
60
0
100
AcDbEllipse
10
88.105302
20
-4.376041
30
0
11
-2.86372375213746
21
-1.3943680230966
31
0
210
0
220
0
230
1
40
0.135136
41
-1.52308849753812
42
-1.15902849546274
0
ELLIPSE
5
162
100
AcDbEntity
8
1
62
256
6
ByLayer
370
-1
48
1
60
0
100
AcDbEllipse
10
82.414801
20
-5.319288
30
0
11
2.09564084296737
21
0.135238519981947
31
0
210
0
220
0
230
1
40
0.965791
41
-1.77724258172539
42
-1.22772364803405
0
ELLIPSE
5
163
100
AcDbEntity
8
1
62
256
6
ByLayer
370
-1
48
1
60
0
100
AcDbEllipse
10
83.814605
20
-5.023459
30
0
11
-2.9182910460632
21
-0.18832681338054
31
0
210
0
220
0
230
1
40
0.965791
41
0.887451145561704
42
1.32568592594844
0
ELLIPSE
5
164
100
AcDbEntity
8
1
62
256
6
ByLayer
370
-1
48
1
60
0
100
AcDbEllipse
10
82.581095
20
-7.896166
30
0
11
-2.09555834388458
21
-0.136511306425347
31
0
210
0
220
0
230
1
40
0.965789
41
-1.32679060812662
42
1.56451927756903
0
ELLIPSE
5
165
100
AcDbEntity
8
1
62
256
6
ByLayer
370
-1
48
1
60
0
100
AcDbEllipse
10
87.537319
20
0
30
0
11
-14.5736829902789
21
-10.4494627421943
31
0
210
0
220
0
230
1
40
0.430064
41
-1.83751365363544
42
-1.36742405633072
0
ELLIPSE
5
166
100
AcDbEntity
8
1
62
256
6
ByLayer
370
-1
48
1
60
0
100
AcDbEllipse
10
83.795938
20
-6.746242
30
0
11
-2.0174315567892
21
-0.131421880007543
31
0
210
0
220
0
230
1
40
0.965789
41
-2.41447814359609
42
-0.47879638071933
0
ELLIPSE
5
167
100
AcDbEntity
8
1
62
256
6
ByLayer
370
-1
48
1
60
0
100
AcDbEllipse
10
87.537319
20
0
30
0
11
-14.5617226429981
21
-10.44088706483
31
0
210
0
220
0
230
1
40
0.430064
41
-0.69597333065499
42
0.280141387340062
0
ELLIPSE
5
168
100
AcDbEntity
8
1
62
256
6
ByLayer
370
-1
48
1
60
0
100
AcDbEllipse
10
82.475422
20
-6.25867
30
0
11
2.09564084296737
21
0.135238519981947
31
0
210
0
220
0
230
1
40
0.965791
41
-1.9619701702947
42
-1.60632901256735
0
ELLIPSE
5
169
100
AcDbEntity
8
1
62
256
6
ByLayer
370
-1
48
1
60
0
100
AcDbEllipse
10
83.875227
20
-5.962841
30
0
11
-2.74429158007635
21
-0.177098061881121
31
0
210
0
220
0
230
1
40
0.965791
41
0.997958148048577
42
1.44138434209979
0
ELLIPSE
5
16A
100
AcDbEntity
8
1
62
256
6
ByLayer
370
-1
48
1
60
0
100
AcDbEllipse
10
140.75297
20
1.591471
30
0
11
-61.771473553937
21
-0.788848577745347
31
0
210
0
220
0
230
1
40
0.067231
41
0.827665159449084
42
0.829088646415981
0
ELLIPSE
5
16B
100
AcDbEntity
8
1
62
256
6
ByLayer
370
-1
48
1
60
0
100
AcDbEllipse
10
83.191752
20
-17.35884
30
0
11
-2.01463944196861
21
9.59997120186297
31
0
210
0
220
0
230
1
40
0.161916
41
-0.719081586044695
42
-0.333598209836929
0
ELLIPSE
5
16C
100
AcDbEntity
8
1
62
256
6
ByLayer
370
-1
48
1
60
0
100
AcDbEllipse
10
82.409791
20
-5.241653
30
0
11
-2.0956408429674
21
-0.135238519981947
31
0
210
0
220
0
230
1
40
0.965791
41
0.715200919459378
42
1.50855145881803
0
ELLIPSE
5
16D
100
AcDbEntity
8
1
62
256
6
ByLayer
370
-1
48
1
60
0
100
AcDbEllipse
10
82.409791
20
-5.241653
30
0
11
-2.0956408429674
21
-0.135238519981947
31
0
210
0
220
0
230
1
40
0.965791
41
1.50855098256558
42
1.91391449442553
0
ELLIPSE
5
16E
100
AcDbEntity
8
1
62
256
6
ByLayer
370
-1
48
1
60
0
100
AcDbEllipse
10
97.02412
20
0.637032
30
0
11
-2.86372375242584
21
-1.39436802316102
31
0
210
0
220
0
230
1
40
0.135136
41
-1.15902849527224
42
-0.794968493200365
0
ELLIPSE
5
16F
100
AcDbEntity
8
1
62
256
6
ByLayer
370
-1
48
1
60
0
100
AcDbEllipse
10
93.564672
20
-8.029794
30
0
11
3.56743855977144
21
0.232394324921811
31
0
210
0
220
0
230
1
40
0.965789
41
1.50796445533221
42
3.14159265199917
0
ELLIPSE
5
170
100
AcDbEntity
8
1
62
256
6
ByLayer
370
-1
48
1
60
0
100
AcDbEllipse
10
93.564672
20
-8.029794
30
0
11
3.56743855977144
21
0.232394324921811
31
0
210
0
220
0
230
1
40
0.965789
41
0
42
1.50796445840502
0
ELLIPSE
5
171
100
AcDbEntity
8
1
62
256
6
ByLayer
370
-1
48
1
60
0
100
AcDbEllipse
10
94.971225
20
-7.119672
30
0
11
-0.329302020901979
21
-0.0214517838389401
31
0
210
0
220
0
230
1
40
0.965789
41
2.27948774064037
42
2.4308090613145
0
ELLIPSE
5
172
100
AcDbEntity
8
1
62
256
6
ByLayer
370
-1
48
1
60
0
100
AcDbEllipse
10
92.144632
20
-8.73289
30
0
11
-0.329302020901979
21
-0.0214517838389401
31
0
210
0
220
0
230
1
40
0.965789
41
0.668496510570456
42
1.76955942090289
0
ELLIPSE
5
173
100
AcDbEntity
8
1
62
256
6
ByLayer
370
-1
48
1
60
0
100
AcDbEllipse
10
94.971225
20
-8.720555
30
0
11
-0.329302020901979
21
-0.0214517838389401
31
0
210
0
220
0
230
1
40
0.965789
41
1.24636976589289
42
2.53169138637071
0
ELLIPSE
5
174
100
AcDbEntity
8
1
62
256
6
ByLayer
370
-1
48
1
60
0
100
AcDbEllipse
10
93.557928
20
-7.926281
30
0
11
1.41300503514304
21
0.0920476542907089
31
0
210
0
220
0
230
1
40
0.965789
41
-0.170910165329348
42
-0.0452488351010073
0
ELLIPSE
5
175
100
AcDbEntity
8
1
62
256
6
ByLayer
370
-1
48
1
60
0
100
AcDbEllipse
10
93.557928
20
-7.926281
30
0
11
-1.41300503514304
21
-0.0920476542907249
31
0
210
0
220
0
230
1
40
0.965789
41
-3.09634595505493
42
-2.63476761154209
0
ELLIPSE
5
176
100
AcDbEntity
8
1
62
256
6
ByLayer
370
-1
48
1
60
0
100
AcDbEllipse
10
93.557928
20
-7.926281
30
0
11
-1.41300503514304
21
-0.0920476542907249
31
0
210
0
220
0
230
1
40
0.965789
41
0.26632412539814
42
0.987694353595898
0
ELLIPSE
5
177
100
AcDbEntity
8
1
62
256
6
ByLayer
370
-1
48
1
60
0
100
AcDbEllipse
10
93.557928
20
-7.926281
30
0
11
1.41300503514304
21
0.0920476542907089
31
0
210
0
220
0
230
1
40
0.965789
41
2.51487648792436
42
2.97068248826055
0
ELLIPSE
5
178
100
AcDbEntity
8
1
62
256
6
ByLayer
370
-1
48
1
60
0
100
AcDbEllipse
10
98.465431
20
1.815524
30
0
11
-0.0221201605147681
21
-4.17494140060658
31
0
210
0
220
0
230
1
40
0.05338
41
-1.5811164133926
42
-1.38771217541822
0
ELLIPSE
5
179
100
AcDbEntity
8
1
62
256
6
ByLayer
370
-1
48
1
60
0
100
AcDbEllipse
10
93.557928
20
-7.926281
30
0
11
-1.41300503514304
21
-0.0920476542907249
31
0
210
0
220
0
230
1
40
0.965789
41
-1.8786428290231
42
-1.43595812099183
0
ELLIPSE
5
17A
100
AcDbEntity
8
1
62
256
6
ByLayer
370
-1
48
1
60
0
100
AcDbEllipse
10
99.763559
20
1.808646
30
0
11
-0.0113912203848506
21
-2.14996982306685
31
0
210
0
220
0
230
1
40
0.05338
41
0
42
1.57107895180017
0
ELLIPSE
5
17B
100
AcDbEntity
8
1
62
256
6
ByLayer
370
-1
48
1
60
0
100
AcDbEllipse
10
99.763559
20
1.808646
30
0
11
-0.0113912203848506
21
-2.14996982306685
31
0
210
0
220
0
230
1
40
0.05338
41
1.57107914946869
42
-1.09790028680779
0
ELLIPSE
5
17C
100
AcDbEntity
8
1
62
256
6
ByLayer
370
-1
48
1
60
0
100
AcDbEllipse
10
99.763559
20
1.808646
30
0
11
0.0104295894546877
21
1.96847237056159
31
0
210
0
220
0
230
1
40
0.05338
41
2.93840992361078
42
-2.37439939979962
0
ELLIPSE
5
17D
100
AcDbEntity
8
1
62
256
6
ByLayer
370
-1
48
1
60
0
100
AcDbEllipse
10
99.763559
20
1.808646
30
0
11
0.0104295894546877
21
1.96847237056159
31
0
210
0
220
0
230
1
40
0.05338
41
1.81439080498675
42
2.10866977759684
0
ELLIPSE
5
17E
100
AcDbEntity
8
1
62
256
6
ByLayer
370
-1
48
1
60
0
100
AcDbEllipse
10
99.495016
20
0.751838
30
0
11
-0.179619284128352
21
-0.0117009730030583
31
0
210
0
220
0
230
1
40
0.965789
41
3.14157579533133
42
-2.68082561138869
0
ELLIPSE
5
17F
100
AcDbEntity
8
1
62
256
6
ByLayer
370
-1
48
1
60
0
100
AcDbEllipse
10
93.574698
20
-8.183702
30
0
11
4.29766409115084
21
0.279963544843137
31
0
210
0
220
0
230
1
40
0.965789
41
-0.112368281331553
42
1.50573063487912
0
ELLIPSE
5
180
100
AcDbEntity
8
1
62
256
6
ByLayer
370
-1
48
1
60
0
100
AcDbEllipse
10
83.629876
20
-5.758569
30
0
11
-0.179619284128352
21
-0.0117009730030583
31
0
210
0
220
0
230
1
40
0.965789
41
-0.586430508995578
42
-1.24127540353197E-05
0
ELLIPSE
5
181
100
AcDbEntity
8
1
62
256
6
ByLayer
370
-1
48
1
60
0
100
AcDbEllipse
10
99.586306
20
-3.129419
30
0
11
0.249471227956045
21
0.0162513513931336
31
0
210
0
220
0
230
1
40
0.965789
41
1.31917297897013E-06
42
0.46076704220095
0
ELLIPSE
5
182
100
AcDbEntity
8
1
62
256
6
ByLayer
370
-1
48
1
60
0
100
AcDbEllipse
10
84.523793
20
-9.422819
30
0
11
-0.833221093412855
21
6.7780237876143
31
0
210
0
220
0
230
1
40
0.134752
41
0.815538975135318
42
0.958757461138948
0
ELLIPSE
5
183
100
AcDbEntity
8
1
62
256
6
ByLayer
370
-1
48
1
60
0
100
AcDbEllipse
10
89.343482
20
-12.939506
30
0
11
0.599999999999999
21
0
31
0
210
0
220
0
230
1
40
0.258819
41
-1.55642255054302
42
-1.06489851047474
0
ELLIPSE
5
184
100
AcDbEntity
8
1
62
256
6
ByLayer
370
-1
48
1
60
0
100
AcDbEllipse
10
84.21789
20
-6.763857
30
0
11
-0.997924210936855
21
-0.0643992952294985
31
0
210
0
220
0
230
1
40
0.965791
41
-0.0622451290076201
42
2.21689888862129E-05
0
ELLIPSE
5
185
100
AcDbEntity
8
1
62
256
6
ByLayer
370
-1
48
1
60
0
100
AcDbEllipse
10
84.287107
20
-5.755166
30
0
11
-0.998464168688067
21
-0.0554503261318529
31
0
210
0
220
0
230
1
40
0.965823
41
-0.197321335019754
42
-0.053586253159021
0
ELLIPSE
5
186
100
AcDbEntity
8
1
62
256
6
ByLayer
370
-1
48
1
60
0
100
AcDbEllipse
10
84.287107
20
-7.836447
30
0
11
-0.998464149295753
21
-0.0554503604881208
31
0
210
0
220
0
230
1
40
0.965823
41
-0.0535862877849524
42
1.51721003900784
0
ELLIPSE
5
187
100
AcDbEntity
8
1
62
256
6
ByLayer
370
-1
48
1
60
0
100
AcDbEllipse
10
88.343897
20
-12.961623
30
0
11
0.15
21
0
31
0
210
0
220
0
230
1
40
0.258819
41
0.581605783150145
42
2.58873442294361
0
ELLIPSE
5
188
100
AcDbEntity
8
1
62
256
6
ByLayer
370
-1
48
1
60
0
100
AcDbEllipse
10
90.975979
20
-12.513735
30
0
11
3
21
0
31
0
210
0
220
0
230
1
40
0.258819
41
-2.55998687043973
42
-2.38545394524031
0
ELLIPSE
5
189
100
AcDbEntity
8
1
62
256
6
ByLayer
370
-1
48
1
60
0
100
AcDbEllipse
10
89.230001
20
-12.939928
30
0
11
0.599999999999999
21
0
31
0
210
0
220
0
230
1
40
0.258819
41
-2.38545394524031
42
-1.55642255054302
0
ELLIPSE
5
18A
100
AcDbEntity
8
1
62
256
6
ByLayer
370
-1
48
1
60
0
100
AcDbEllipse
10
87.686765
20
-12.36365
30
0
11
-0.59907848957773
21
-0.0332702163048862
31
0
210
0
220
0
230
1
40
0.965823
41
-0.0535862878039336
42
1.51721003898706
0
ELLIPSE
5
18B
100
AcDbEntity
8
1
62
256
6
ByLayer
370
-1
48
1
60
0
100
AcDbEllipse
10
85.975674
20
-5.151745
30
0
11
0.27940777531077
21
0.0182015135603097
31
0
210
0
220
0
230
1
40
0.965789
41
-1.61848771655716
42
-0.586430508995521
0
ELLIPSE
5
18C
100
AcDbEntity
8
1
62
256
6
ByLayer
370
-1
48
1
60
0
100
AcDbEllipse
10
83.700957
20
-5.639321
30
0
11
-0.179619284128352
21
-0.0117009730030583
31
0
210
0
220
0
230
1
40
0.965789
41
-1.61848771655682
42
-0.586430508995587
0
ELLIPSE
5
18D
100
AcDbEntity
8
1
62
256
6
ByLayer
370
-1
48
1
60
0
100
AcDbEllipse
10
86.42394
20
-5.849417
30
0
11
-0.258780387420074
21
-0.114436926644488
31
0
210
0
220
0
230
1
40
0.908072
41
2.23387201348522
42
-3.10576497508209
0
ELLIPSE
5
18E
100
AcDbEntity
8
1
62
256
6
ByLayer
370
-1
48
1
60
0
100
AcDbEllipse
10
86.060808
20
-6.45862
30
0
11
-0.258780387423562
21
-0.114436926641975
31
0
210
0
220
0
230
1
40
0.908072
41
1.20181480594063
42
2.2338720134998
0
ELLIPSE
5
18F
100
AcDbEntity
8
1
62
256
6
ByLayer
370
-1
48
1
60
0
100
AcDbEllipse
10
83.793874
20
-7.06567
30
0
11
-0.166358820485766
21
-0.0735665956990884
31
0
210
0
220
0
230
1
40
0.908072
41
-1.9397778476562
42
-0.907720640093967
0
ELLIPSE
5
190
100
AcDbEntity
8
1
62
256
6
ByLayer
370
-1
48
1
60
0
100
AcDbEllipse
10
83.722793
20
-7.184917
30
0
11
-0.166358820467863
21
-0.0735665957152013
31
0
210
0
220
0
230
1
40
0.908072
41
-0.907720640230967
42
0.124336567361456
0
ELLIPSE
5
191
100
AcDbEntity
8
1
62
256
6
ByLayer
370
-1
48
1
60
0
100
AcDbEllipse
10
90.135116
20
-3.009993
30
0
11
-0.864006714697597
21
-0.493338539797636
31
0
210
0
220
0
230
1
40
0.117329
41
-1.51815790770219
42
-1.36615656241242
0
ELLIPSE
5
192
100
AcDbEntity
8
1
62
256
6
ByLayer
370
-1
48
1
60
0
100
AcDbEllipse
10
86.74273
20
-5.509661
30
0
11
0.149682736773628
21
0.00975081083588025
31
0
210
0
220
0
230
1
40
0.965789
41
2.55516214459421
42
-2.78447484397486
0
ELLIPSE
5
193
100
AcDbEntity
8
1
62
256
6
ByLayer
370
-1
48
1
60
0
100
AcDbEllipse
10
84.766077
20
-7.098298
30
0
11
-1.06504162701186
21
-0.0931122962414107
31
0
210
0
220
0
230
1
40
0.283884
41
-0.201913854056727
42
0.141795648112197
0
ELLIPSE
5
194
100
AcDbEntity
8
1
62
256
6
ByLayer
370
-1
48
1
60
0
100
AcDbEllipse
10
84.295687
20
-7.88744
30
0
11
-0.516198643873608
21
0.836897354812762
31
0
210
0
220
0
230
1
40
0.335597
41
-0.170497865230642
42
0.173211637494275
0
ELLIPSE
5
195
100
AcDbEntity
8
1
62
256
6
ByLayer
370
-1
48
1
60
0
100
AcDbEllipse
10
93.585623
20
-8.351408
30
0
11
-4.54751380776243
21
-0.296239552194405
31
0
210
0
220
0
230
1
40
0.965789
41
-1.01049832003023
42
0.396142662677316
0
ELLIPSE
5
196
100
AcDbEntity
8
1
62
256
6
ByLayer
370
-1
48
1
60
0
100
AcDbEllipse
10
93.584373
20
-8.332228
30
0
11
4.45112552696292
21
0.289960512185264
31
0
210
0
220
0
230
1
40
0.965789
41
2.13109433355958
42
-2.74544999091249
0
ELLIPSE
5
197
100
AcDbEntity
8
1
62
256
6
ByLayer
370
-1
48
1
60
0
100
AcDbEllipse
10
92.906494
20
-7.605145
30
0
11
-4.1329489574554
21
-1.69160891666733
31
0
210
0
220
0
230
1
40
0.774057
41
0.377254645290644
42
0.531754758900537
0
ELLIPSE
5
198
100
AcDbEntity
8
1
62
256
6
ByLayer
370
-1
48
1
60
0
100
AcDbEllipse
10
88.16434
20
-6.231549
30
0
11
0.189498421256491
21
-0.0782006927162262
31
0
210
0
220
0
230
1
40
0.234319
41
0.761546811930118
42
1.68534667150348
0
ELLIPSE
5
199
100
AcDbEntity
8
1
62
256
6
ByLayer
370
-1
48
1
60
0
100
AcDbEllipse
10
90.924854
20
-4.762567
30
0
11
0.0547579975359993
21
-0.0836753351104582
31
0
210
0
220
0
230
1
40
0.55269
41
0.0453385113553906
42
1.19631940404496
0
ELLIPSE
5
19A
100
AcDbEntity
8
1
62
256
6
ByLayer
370
-1
48
1
60
0
100
AcDbEllipse
10
90.104987
20
-10.6605
30
0
11
0.000551485817536908
21
-0.0999984793054027
31
0
210
0
220
0
230
1
40
0.607562
41
0.889068455514635
42
1.80967421593293
0
ELLIPSE
5
19B
100
AcDbEntity
8
1
62
256
6
ByLayer
370
-1
48
1
60
0
100
AcDbEllipse
10
90.924854
20
-4.762567
30
0
11
-0.0958560929374884
21
-0.0284887600074063
31
0
210
0
220
0
230
1
40
0.253281
41
1.51319995526294
42
2.21133165606108
0
ELLIPSE
5
19C
100
AcDbEntity
8
1
62
256
6
ByLayer
370
-1
48
1
60
0
100
AcDbEllipse
10
90.924854
20
-4.762567
30
0
11
0.0572702673836862
21
-0.0819763165420421
31
0
210
0
220
0
230
1
40
0.137818
41
-1.34714166289472
42
-0.0381447238990865
0
ELLIPSE
5
19D
100
AcDbEntity
8
1
62
256
6
ByLayer
370
-1
48
1
60
0
100
AcDbEllipse
10
89.960632
20
-10.622534
30
0
11
-0.0507632715683027
21
-0.0861573575481674
31
0
210
0
220
0
230
1
40
0.763003
41
1.26671619433832
42
2.51341054349719
0
ELLIPSE
5
19E
100
AcDbEntity
8
1
62
256
6
ByLayer
370
-1
48
1
60
0
100
AcDbEllipse
10
90.731585
20
-4.112277
30
0
11
0.0978077096975357
21
-0.0208243108822981
31
0
210
0
220
0
230
1
40
0.137251
41
0.899542811258519
42
2.39665373048374
0
ELLIPSE
5
19F
100
AcDbEntity
8
1
62
256
6
ByLayer
370
-1
48
1
60
0
100
AcDbEllipse
10
90.731585
20
-4.112277
30
0
11
-0.0958560929374884
21
-0.0284887600074063
31
0
210
0
220
0
230
1
40
0.253281
41
1.51319995526294
42
2.21133165606197
0
ELLIPSE
5
1A0
100
AcDbEntity
8
1
62
256
6
ByLayer
370
-1
48
1
60
0
100
AcDbEllipse
10
89.498997
20
-10.293512
30
0
11
0.0889869578936351
21
0.0456215006859312
31
0
210
0
220
0
230
1
40
0.239247
41
-1.67403865761636
42
-0.36504171862069
0
ELLIPSE
5
1A1
100
AcDbEntity
8
1
62
256
6
ByLayer
370
-1
48
1
60
0
100
AcDbEllipse
10
89.498997
20
-10.293512
30
0
11
-0.0651215289258286
21
-0.0758893040577028
31
0
210
0
220
0
230
1
40
0.780226
41
1.40326756140895
42
2.55424845409767
0
ELLIPSE
5
1A2
100
AcDbEntity
8
1
62
256
6
ByLayer
370
-1
48
1
60
0
100
AcDbEllipse
10
90.731585
20
-4.112277
30
0
11
0.085897694909892
21
-0.0512014258509186
31
0
210
0
220
0
230
1
40
0.216002
41
-2.3832116670894
42
-1.42328114305157
0
ELLIPSE
5
1A3
100
AcDbEntity
8
1
62
256
6
ByLayer
370
-1
48
1
60
0
100
AcDbEllipse
10
89.498997
20
-10.293512
30
0
11
0.0708780682604581
21
-0.0705428907804737
31
0
210
0
220
0
230
1
40
0.174867
41
-1.37504757025767
42
-0.676915869460465
0
ELLIPSE
5
1A4
100
AcDbEntity
8
1
62
256
6
ByLayer
370
-1
48
1
60
0
100
AcDbEllipse
10
88.838863
20
-10.956782
30
0
11
0.0999993939957406
21
-0.000348138599753444
31
0
210
0
220
0
230
1
40
0.258763
41
-2.21539790335857
42
-1.55303667234244
0
ELLIPSE
5
1A5
100
AcDbEntity
8
1
62
256
6
ByLayer
370
-1
48
1
60
0
100
AcDbEllipse
10
88.838863
20
-10.956782
30
0
11
0.0708780682604581
21
-0.0705428907804737
31
0
210
0
220
0
230
1
40
0.174867
41
-1.37504757025797
42
-0.676915869461959
0
ELLIPSE
5
1A6
100
AcDbEntity
8
1
62
256
6
ByLayer
370
-1
48
1
60
0
100
AcDbEllipse
10
88.838863
20
-10.956782
30
0
11
0.0899600627285797
21
-0.0436713534696373
31
0
210
0
220
0
230
1
40
0.500954
41
-2.03955717236957
42
-0.793203073845349
0
ELLIPSE
5
1A7
100
AcDbEntity
8
1
62
256
6
ByLayer
370
-1
48
1
60
0
100
AcDbEllipse
10
91.104039
20
-11.588172
30
0
11
0.0979149386742302
21
0.020314152318562
31
0
210
0
220
0
230
1
40
0.345321
41
1.0541884886902
42
1.97479424910701
0
ELLIPSE
5
1A8
100
AcDbEntity
8
1
62
256
6
ByLayer
370
-1
48
1
60
0
100
AcDbEllipse
10
91.186792
20
-11.761087
30
0
11
0.0786977922275768
21
0.0616981158424238
31
0
210
0
220
0
230
1
40
0.469689
41
0.536821323432427
42
1.78351567258962
0
ELLIPSE
5
1A9
100
AcDbEntity
8
1
62
256
6
ByLayer
370
-1
48
1
60
0
100
AcDbEllipse
10
86.261883
20
-8.316473
30
0
11
0.399549493414206
21
0.256827183749018
31
0
210
0
220
0
230
1
40
0.895737
41
-1.58705851477472
42
-1.40190448775787
0
ELLIPSE
5
1AA
100
AcDbEntity
8
1
62
256
6
ByLayer
370
-1
48
1
60
0
100
AcDbEllipse
10
86.261883
20
-8.316473
30
0
11
0.399549493414206
21
0.256827183749018
31
0
210
0
220
0
230
1
40
0.895737
41
-0.725014990595021
42
-0.539860963578157
0
ELLIPSE
5
1AB
100
AcDbEntity
8
1
62
256
6
ByLayer
370
-1
48
1
60
0
100
AcDbEllipse
10
84.299235
20
-7.43717
30
0
11
-0.126714333577772
21
-0.304702277093462
31
0
210
0
220
0
230
1
40
0.542683
41
-2.13159296005059
42
-1.53017356373994
0
ELLIPSE
5
1AC
100
AcDbEntity
8
1
62
256
6
ByLayer
370
-1
48
1
60
0
100
AcDbEllipse
10
83.924192
20
-7.281203
30
0
11
-0.126714333577772
21
-0.304702277093462
31
0
210
0
220
0
230
1
40
0.542683
41
-2.13159296005053
42
-1.5301735637399
0
ELLIPSE
5
1AD
100
AcDbEntity
8
1
62
256
6
ByLayer
370
-1
48
1
60
0
100
AcDbEllipse
10
84.299235
20
-7.43717
30
0
11
-0.280790684040502
21
-0.173368370114237
31
0
210
0
220
0
230
1
40
0.444526
41
-1.56272537110572
42
-1.21365952070694
0
ELLIPSE
5
1AE
100
AcDbEntity
8
1
62
256
6
ByLayer
370
-1
48
1
60
0
100
AcDbEllipse
10
84.299235
20
-7.43717
30
0
11
0.0259338634078544
21
-0.328979383440274
31
0
210
0
220
0
230
1
40
0.228524
41
-2.3223645050072
42
-1.97329865460842
0
ELLIPSE
5
1AF
100
AcDbEntity
8
1
62
256
6
ByLayer
370
-1
48
1
60
0
100
AcDbEllipse
10
83.924192
20
-7.281203
30
0
11
-0.0700603995359115
21
0.322477193638354
31
0
210
0
220
0
230
1
40
0.487235
41
0.947015793608551
42
1.29072529624593
0
ELLIPSE
5
1B0
100
AcDbEntity
8
1
62
256
6
ByLayer
370
-1
48
1
60
0
100
AcDbEllipse
10
83.924192
20
-7.281203
30
0
11
0.281372755724307
21
0.172422076127478
31
0
210
0
220
0
230
1
40
0.693246
41
1.4089730929631
42
1.75268259560059
0
ELLIPSE
5
1B1
100
AcDbEntity
8
1
62
256
6
ByLayer
370
-1
48
1
60
0
100
AcDbEllipse
10
86.473431
20
-8.645581
30
0
11
0.999832204393133
21
-0.0183183803424055
31
0
210
0
220
0
230
1
40
0.381356
41
1.3256578834982
42
1.82059200983914
0
ELLIPSE
5
1B2
100
AcDbEntity
8
1
62
256
6
ByLayer
370
-1
48
1
60
0
100
AcDbEllipse
10
86.473431
20
-8.645581
30
0
11
-0.528408112215569
21
0.848990498736457
31
0
210
0
220
0
230
1
40
0.00723
41
1.11013798640176
42
1.60507211274074
0
ELLIPSE
5
1B3
100
AcDbEntity
8
1
62
256
6
ByLayer
370
-1
48
1
60
0
100
AcDbEllipse
10
86.525089
20
-5.826017
30
0
11
-0.583057170080236
21
-1.27541913782043
31
0
210
0
220
0
230
1
40
0.64451
41
0.344102230181888
42
0.839036356515961
0
ELLIPSE
5
1B4
100
AcDbEntity
8
1
62
256
6
ByLayer
370
-1
48
1
60
0
100
AcDbEllipse
10
86.452454
20
-5.605725
30
0
11
-0.265039761363759
21
-1.44723866110063
31
0
210
0
220
0
230
1
40
0.431256
41
0.114131128141881
42
0.667803726120395
0
ELLIPSE
5
1B5
100
AcDbEntity
8
1
62
256
6
ByLayer
370
-1
48
1
60
0
100
AcDbEllipse
10
83.88359
20
-10.257487
30
0
11
-1.2421970205258
21
-1.44122019164599
31
0
210
0
220
0
230
1
40
0.453474
41
2.50422054647944
42
2.99915467287048
0
ELLIPSE
5
1B6
100
AcDbEntity
8
1
62
256
6
ByLayer
370
-1
48
1
60
0
100
AcDbEllipse
10
83.713223
20
-10.201152
30
0
11
-1.38083284602532
21
-1.2510740185663
31
0
210
0
220
0
230
1
40
0.317264
41
2.52927139239981
42
3.08294399026661
0
ELLIPSE
5
1B7
100
AcDbEntity
8
1
62
256
6
ByLayer
370
-1
48
1
60
0
100
AcDbEllipse
10
86.332852
20
-7.276857
30
0
11
-0.0259338634078548
21
0.328979383440274
31
0
210
0
220
0
230
1
40
0.228524
41
0.819228148582061
42
1.16829399898109
0
ELLIPSE
5
1B8
100
AcDbEntity
8
1
62
256
6
ByLayer
370
-1
48
1
60
0
100
AcDbEllipse
10
85.285314
20
-9.034243
30
0
11
0.280790684040502
21
0.173368370114237
31
0
210
0
220
0
230
1
40
0.444526
41
1.5788672824839
42
1.92793313288285
0
ELLIPSE
5
1B9
100
AcDbEntity
8
1
62
256
6
ByLayer
370
-1
48
1
60
0
100
AcDbEllipse
10
99.282778
20
-2.429674
30
0
11
-0.149682736773628
21
-0.00975081083588193
31
0
210
0
220
0
230
1
40
0.965789
41
-2.68082561138883
42
-1.7372772927783
0
ELLIPSE
5
1BA
100
AcDbEntity
8
1
62
256
6
ByLayer
370
-1
48
1
60
0
100
AcDbEllipse
10
99.148978
20
-1.999223
30
0
11
0.27940777531077
21
0.0182015135603097
31
0
210
0
220
0
230
1
40
0.965789
41
-2.68082561138865
42
-1.73727729277823
0
ELLIPSE
5
1BB
100
AcDbEntity
8
1
62
256
6
ByLayer
370
-1
48
1
60
0
100
AcDbEllipse
10
94.588714
20
-13.537953
30
0
11
-0.0292331445442328
21
0.202904961151905
31
0
210
0
220
0
230
1
40
0.020928
41
-1.30928422556559
42
-0.385484366003591
0
ELLIPSE
5
1BC
100
AcDbEntity
8
1
62
256
6
ByLayer
370
-1
48
1
60
0
100
AcDbEllipse
10
91.709066
20
-12.345677
30
0
11
0.0700747408760514
21
0.0713409468058439
31
0
210
0
220
0
230
1
40
0.488042
41
0.570471710092101
42
1.72145260278043
0
ELLIPSE
5
1BD
100
AcDbEntity
8
1
62
256
6
ByLayer
370
-1
48
1
60
0
100
AcDbEllipse
10
97.549044
20
-9.77469
30
0
11
0.09545464558378
21
0.0298062180840668
31
0
210
0
220
0
230
1
40
0.35045
41
1.28552064299771
42
2.20612640341638
0
ELLIPSE
5
1BE
100
AcDbEntity
8
1
62
256
6
ByLayer
370
-1
48
1
60
0
100
AcDbEllipse
10
91.709066
20
-12.345677
30
0
11
0.0708780682604581
21
-0.0705428907804737
31
0
210
0
220
0
230
1
40
0.174867
41
-2.07317927105514
42
-1.37504757025682
0
ELLIPSE
5
1BF
100
AcDbEntity
8
1
62
256
6
ByLayer
370
-1
48
1
60
0
100
AcDbEllipse
10
91.709066
20
-12.345677
30
0
11
0.0396403037948465
21
0.0918076593485112
31
0
210
0
220
0
230
1
40
0.121338
41
-1.80379830520358
42
-0.494801366204875
0
ELLIPSE
5
1C0
100
AcDbEntity
8
1
62
256
6
ByLayer
370
-1
48
1
60
0
100
AcDbEllipse
10
97.55923
20
-9.968024
30
0
11
0.0985972254288736
21
-0.0166909298041749
31
0
210
0
220
0
230
1
40
0.429396
41
1.47218115170453
42
2.71887550086205
0
ELLIPSE
5
1C1
100
AcDbEntity
8
1
62
256
6
ByLayer
370
-1
48
1
60
0
100
AcDbEllipse
10
91.221993
20
-12.835064
30
0
11
-0.0179120008964656
21
0.0983827231981562
31
0
210
0
220
0
230
1
40
0.4212
41
1.25790871730607
42
2.75501963653083
0
ELLIPSE
5
1C2
100
AcDbEntity
8
1
62
256
6
ByLayer
370
-1
48
1
60
0
100
AcDbEllipse
10
91.221993
20
-12.835064
30
0
11
0.0708780682604581
21
-0.0705428907804737
31
0
210
0
220
0
230
1
40
0.174867
41
-2.07317927105608
42
-1.3750475702571
0
ELLIPSE
5
1C3
100
AcDbEntity
8
1
62
256
6
ByLayer
370
-1
48
1
60
0
100
AcDbEllipse
10
97.374621
20
-10.751515
30
0
11
-0.0823717996792964
21
0.0566999701727775
31
0
210
0
220
0
230
1
40
0.206283
41
0.423113731740156
42
1.73211067073664
0
ELLIPSE
5
1C4
100
AcDbEntity
8
1
62
256
6
ByLayer
370
-1
48
1
60
0
100
AcDbEllipse
10
97.374621
20
-10.751515
30
0
11
0.0956639397167046
21
-0.029127489385093
31
0
210
0
220
0
230
1
40
0.436783
41
1.52762042945587
42
2.67860132214513
0
ELLIPSE
5
1C5
100
AcDbEntity
8
1
62
256
6
ByLayer
370
-1
48
1
60
0
100
AcDbEllipse
10
91.221966
20
-12.834444
30
0
11
-0.000436584477036679
21
0.0999990469654307
31
0
210
0
220
0
230
1
40
0.016283
41
-2.79266553852187
42
-1.83263127997179
0
ELLIPSE
5
1C6
100
AcDbEntity
8
1
62
256
6
ByLayer
370
-1
48
1
60
0
100
AcDbEllipse
10
97.374621
20
-10.751515
30
0
11
0.0230153731571277
21
0.0973154283679529
31
0
210
0
220
0
230
1
40
0.078414
41
-1.82136525560609
42
-1.12323355481063
0
ELLIPSE
5
1C7
100
AcDbEntity
8
1
62
256
6
ByLayer
370
-1
48
1
60
0
100
AcDbEllipse
10
98.296693
20
-10.969587
30
0
11
-0.0487137874010324
21
0.0873325077908967
31
0
210
0
220
0
230
1
40
0.114526
41
1.80720546909329
42
2.46956670010872
0
ELLIPSE
5
1C8
100
AcDbEntity
8
1
62
256
6
ByLayer
370
-1
48
1
60
0
100
AcDbEllipse
10
98.296693
20
-10.969587
30
0
11
0.0230153731571277
21
0.0973154283679529
31
0
210
0
220
0
230
1
40
0.078414
41
-1.82136525560609
42
-1.12323355480735
0
ELLIPSE
5
1C9
100
AcDbEntity
8
1
62
256
6
ByLayer
370
-1
48
1
60
0
100
AcDbEllipse
10
98.296693
20
-10.969587
30
0
11
-0.019961588619441
21
0.0979874225591642
31
0
210
0
220
0
230
1
40
0.263837
41
-2.4455373642148
42
-1.19918326569077
0
ELLIPSE
5
1CA
100
AcDbEntity
8
1
62
256
6
ByLayer
370
-1
48
1
60
0
100
AcDbEllipse
10
97.885036
20
-8.471367
30
0
11
-0.0539255459961697
21
0.0842142237927477
31
0
210
0
220
0
230
1
40
0.688948
41
1.29116634538655
42
2.21177210580457
0
ELLIPSE
5
1CB
100
AcDbEntity
8
1
62
256
6
ByLayer
370
-1
48
1
60
0
100
AcDbEllipse
10
97.971601
20
-8.368424
30
0
11
-0.0927844659137603
21
0.0372966873207026
31
0
210
0
220
0
230
1
40
0.808002
41
0.491481623317663
42
1.73817597247515
0
ELLIPSE
5
1CC
100
AcDbEntity
8
1
62
256
6
ByLayer
370
-1
48
1
60
0
100
AcDbEllipse
10
97.416422
20
-14.050165
30
0
11
2.90827895344942E-17
21
0.474973683481517
31
0
210
0
220
0
230
1
40
0.999867
41
-0.51923518006931
42
-0.334081072646008
0
ELLIPSE
5
1CD
100
AcDbEntity
8
1
62
256
6
ByLayer
370
-1
48
1
60
0
100
AcDbEllipse
10
97.416422
20
-14.050165
30
0
11
2.90827895344942E-17
21
0.474973683481517
31
0
210
0
220
0
230
1
40
0.999867
41
0.34280842214482
42
0.527962367847801
0
ELLIPSE
5
1CE
100
AcDbEntity
8
1
62
256
6
ByLayer
370
-1
48
1
60
0
100
AcDbEllipse
10
97.43039
20
-16.469491
30
0
11
0.329991143274648
21
0.00241771799247005
31
0
210
0
220
0
230
1
40
0.178986
41
-1.88805753063048
42
-1.28663813431971
0
ELLIPSE
5
1CF
100
AcDbEntity
8
1
62
256
6
ByLayer
370
-1
48
1
60
0
100
AcDbEllipse
10
97.433876
20
-16.945253
30
0
11
0.329991143274648
21
0.00241771799247005
31
0
210
0
220
0
230
1
40
0.178986
41
-1.88805753063066
42
-1.28663813431985
0
ELLIPSE
5
1D0
100
AcDbEntity
8
1
62
256
6
ByLayer
370
-1
48
1
60
0
100
AcDbEllipse
10
97.43039
20
-16.469491
30
0
11
0.286515006649988
21
-0.163735002257787
31
0
210
0
220
0
230
1
40
0.008111
41
-1.58491693353035
42
-1.23585108312843
0
ELLIPSE
5
1D1
100
AcDbEntity
8
1
62
256
6
ByLayer
370
-1
48
1
60
0
100
AcDbEllipse
10
97.43039
20
-16.469491
30
0
11
0.285075263893947
21
0.166229040530819
31
0
210
0
220
0
230
1
40
0.008173
41
1.58488140975352
42
1.9339472601502
0
ELLIPSE
5
1D2
100
AcDbEntity
8
1
62
256
6
ByLayer
370
-1
48
1
60
0
100
AcDbEllipse
10
97.433876
20
-16.945253
30
0
11
-0.284336360926132
21
-0.167489802242657
31
0
210
0
220
0
230
1
40
0.292792
41
1.38421138453948
42
1.72792088717711
0
ELLIPSE
5
1D3
100
AcDbEntity
8
1
62
256
6
ByLayer
370
-1
48
1
60
0
100
AcDbEllipse
10
97.433876
20
-16.945253
30
0
11
-0.28724278594637
21
0.162454861182323
31
0
210
0
220
0
230
1
40
0.308322
41
1.38409824498976
42
1.72780774762726
0
ELLIPSE
5
1D4
100
AcDbEntity
8
1
62
256
6
ByLayer
370
-1
48
1
60
0
100
AcDbEllipse
10
97.430743
20
-14.049961
30
0
11
-0.503823808310171
21
0.863806442543604
31
0
210
0
220
0
230
1
40
0.014084
41
1.06768879073198
42
1.5626229170732
0
ELLIPSE
5
1D5
100
AcDbEntity
8
1
62
256
6
ByLayer
370
-1
48
1
60
0
100
AcDbEllipse
10
97.430743
20
-14.049961
30
0
11
-0.496266116573675
21
-0.868170456500844
31
0
210
0
220
0
230
1
40
0.01412
41
-2.05761858055924
42
-1.56268445421821
0
ELLIPSE
5
1D6
100
AcDbEntity
8
1
62
256
6
ByLayer
370
-1
48
1
60
0
100
AcDbEllipse
10
94.795899
20
-15.58676
30
0
11
-1.57184475929839
21
-0.930409855095725
31
0
210
0
220
0
230
1
40
0.547448
41
3.13800457778567
42
-2.65024660303022
0
ELLIPSE
5
1D7
100
AcDbEntity
8
1
62
256
6
ByLayer
370
-1
48
1
60
0
100
AcDbEllipse
10
94.693364
20
-15.643631
30
0
11
-1.57859169581128
21
-0.928086496391228
31
0
210
0
220
0
230
1
40
0.365866
41
3.14028082429307
42
-2.58923188497932
0
ELLIPSE
5
1D8
100
AcDbEntity
8
1
62
256
6
ByLayer
370
-1
48
1
60
0
100
AcDbEllipse
10
100.078898
20
-15.563706
30
0
11
-1.61585849394843
21
0.910589831244483
31
0
210
0
220
0
230
1
40
0.539126
41
-0.498171127629408
42
-0.0032370012790351
0
ELLIPSE
5
1D9
100
AcDbEntity
8
1
62
256
6
ByLayer
370
-1
48
1
60
0
100
AcDbEllipse
10
100.171826
20
-15.619724
30
0
11
-1.60927738872517
21
0.912731624614188
31
0
210
0
220
0
230
1
40
0.36213
41
-0.554849230549507
42
-0.00117663263174945
0
ELLIPSE
5
1DA
100
AcDbEntity
8
1
62
256
6
ByLayer
370
-1
48
1
60
0
100
AcDbEllipse
10
96.374934
20
-14.659432
30
0
11
-0.285075263893947
21
-0.166229040530819
31
0
210
0
220
0
230
1
40
0.008173
41
-1.5567112438361
42
-1.20764539343543
0
ELLIPSE
5
1DB
100
AcDbEntity
8
1
62
256
6
ByLayer
370
-1
48
1
60
0
100
AcDbEllipse
10
98.47001
20
-14.65029
30
0
11
-0.286515006649988
21
0.163735002257786
31
0
210
0
220
0
230
1
40
0.008111
41
1.55667572005935
42
1.90574157046141
0
ELLIPSE
5
1DC
100
AcDbEntity
8
1
62
256
6
ByLayer
370
-1
48
1
60
0
100
AcDbEllipse
10
92.163916
20
-1.933945
30
0
11
-0.265376290403773
21
-0.15840408185924
31
0
210
0
220
0
230
1
40
0.225571
41
-2.38387902158863
42
-1.68574732067726
0
ELLIPSE
5
1DD
100
AcDbEntity
8
1
62
256
6
ByLayer
370
-1
48
1
60
0
100
AcDbEllipse
10
91.383224
20
-2.372788
30
0
11
-0.265376290364881
21
-0.158404081858407
31
0
210
0
220
0
230
1
40
0.225571
41
-1.68574732097937
42
-0.987615619970946
0
ELLIPSE
5
1DE
100
AcDbEntity
8
1
62
256
6
ByLayer
370
-1
48
1
60
0
100
AcDbEllipse
10
91.079285
20
-2.479206
30
0
11
-0.117543477847699
21
-0.0792885167314444
31
0
210
0
220
0
230
1
40
0.171608
41
0.568942070825252
42
2.06605425905581
0
ELLIPSE
5
1DF
100
AcDbEntity
8
1
62
256
6
ByLayer
370
-1
48
1
60
0
100
AcDbEllipse
10
95.365137
20
-0.232896
30
0
11
-0.582417292602966
21
0.0082559544213568
31
0
210
0
220
0
230
1
40
0.221947
41
-1.81497676412856
42
-1.55317737596765
0
ELLIPSE
5
1E0
100
AcDbEntity
8
1
62
256
6
ByLayer
370
-1
48
1
60
0
100
AcDbEllipse
10
99.670729
20
-4.425392
30
0
11
-0.249471227956045
21
-0.0162513513931364
31
0
210
0
220
0
230
1
40
0.965789
41
3.07876092019255
42
-2.68082561138884
0
ELLIPSE
5
1E1
100
AcDbEntity
8
1
62
256
6
ByLayer
370
-1
48
1
60
0
100
AcDbEllipse
10
95.137492
20
-0.342764
30
0
11
-0.249471227956045
21
-0.0162513513931364
31
0
210
0
220
0
230
1
40
0.965789
41
-1.64876840382743
42
-1.11002928459388
0
ELLIPSE
5
1E2
100
AcDbEntity
8
1
62
256
6
ByLayer
370
-1
48
1
60
0
100
AcDbEllipse
10
99.423935
20
0.870465
30
0
11
-0.179619284128352
21
-0.0117009730030583
31
0
210
0
220
0
230
1
40
0.965789
41
-2.68082561138871
42
-1.64876840382767
0
ELLIPSE
5
1E3
100
AcDbEntity
8
1
62
256
6
ByLayer
370
-1
48
1
60
0
100
AcDbEllipse
10
99.234112
20
-3.306098
30
0
11
-0.268102916051045
21
0.092572561096897
31
0
210
0
220
0
230
1
40
0.911082
41
0.826132218294142
42
1.76968053691978
0
ELLIPSE
5
1E4
100
AcDbEntity
8
1
62
256
6
ByLayer
370
-1
48
1
60
0
100
AcDbEllipse
10
98.87098
20
-2.700065
30
0
11
-0.268102916037454
21
0.0925725611108102
31
0
210
0
220
0
230
1
40
0.911082
41
-0.205924989209616
42
0.826132218376987
0
ELLIPSE
5
1E5
100
AcDbEntity
8
1
62
256
6
ByLayer
370
-1
48
1
60
0
100
AcDbEllipse
10
99.587933
20
-0.67451
30
0
11
-0.172351874599015
21
0.0595109321356939
31
0
210
0
220
0
230
1
40
0.911082
41
2.93566766434294
42
-2.31546043525426
0
ELLIPSE
5
1E6
100
AcDbEntity
8
1
62
256
6
ByLayer
370
-1
48
1
60
0
100
AcDbEllipse
10
99.516852
20
-0.555883
30
0
11
-0.172351874615377
21
0.0595109321220163
31
0
210
0
220
0
230
1
40
0.911082
41
-2.31546043535519
42
-1.28340322781695
0
ELLIPSE
5
1E7
100
AcDbEntity
8
1
62
256
6
ByLayer
370
-1
48
1
60
0
100
AcDbEllipse
10
99.922245
20
-7.838284
30
0
11
-0.00111919466990984
21
0.974554249355169
31
0
210
0
220
0
230
1
40
0.008572
41
1.17582412538873
42
1.3278253943571
0
ELLIPSE
5
1E8
100
AcDbEntity
8
1
62
256
6
ByLayer
370
-1
48
1
60
0
100
AcDbEllipse
10
99.367202
20
-3.725647
30
0
11
0.149682736773628
21
0.00975081083588025
31
0
210
0
220
0
230
1
40
0.965789
41
0.460767042200977
42
1.40431536081149
0
ELLIPSE
5
1E9
100
AcDbEntity
8
1
62
256
6
ByLayer
370
-1
48
1
60
0
100
AcDbEllipse
10
99.006936
20
-1.382068
30
0
11
-0.525897330644648
21
-0.840574243647197
31
0
210
0
220
0
230
1
40
0.332731
41
2.97338126442322
42
-2.9660945401572
0
ELLIPSE
5
1EA
100
AcDbEntity
8
1
62
256
6
ByLayer
370
-1
48
1
60
0
100
AcDbEllipse
10
98.536546
20
-0.597031
30
0
11
-1.0734065576952
21
0.0824096342678992
31
0
210
0
220
0
230
1
40
0.282244
41
2.99526729997243
42
-2.94420850455743
0
ELLIPSE
5
1EB
100
AcDbEntity
8
1
62
256
6
ByLayer
370
-1
48
1
60
0
100
AcDbEllipse
10
93.585623
20
-8.351408
30
0
11
-4.54751380776243
21
-0.296239552194405
31
0
210
0
220
0
230
1
40
0.965789
41
-3.10489342242343
42
-1.69825243971587
0
ELLIPSE
5
1EC
100
AcDbEntity
8
1
62
256
6
ByLayer
370
-1
48
1
60
0
100
AcDbEllipse
10
93.584373
20
-8.332228
30
0
11
4.45112552696292
21
0.289960512185264
31
0
210
0
220
0
230
1
40
0.965789
41
0.0366992311663763
42
1.44334021387393
0
ELLIPSE
5
1ED
100
AcDbEntity
8
1
62
256
6
ByLayer
370
-1
48
1
60
0
100
AcDbEllipse
10
92.680792
20
-8.480648
30
0
11
-3.13488377372546
21
-3.80381728659235
31
0
210
0
220
0
230
1
40
0.79904
41
-2.09709288044228
42
-1.94259276640005
0
ELLIPSE
5
1EE
100
AcDbEntity
8
1
62
256
6
ByLayer
370
-1
48
1
60
0
100
AcDbEllipse
10
94.474414
20
-7.975963
30
0
11
-4.05844635058653
21
2.43156034485883
31
0
210
0
220
0
230
1
40
0.787277
41
-0.983178372675834
42
-0.828678258889388
0
ELLIPSE
5
1EF
100
AcDbEntity
8
1
62
256
6
ByLayer
370
-1
48
1
60
0
100
AcDbEllipse
10
93.572136
20
-8.144382
30
0
11
4.10006811551183
21
0.267091512824501
31
0
210
0
220
0
230
1
40
0.965789
41
1.89387637555853
42
-2.50823203291143
0
ELLIPSE
5
1F0
100
AcDbEntity
8
1
62
256
6
ByLayer
370
-1
48
1
60
0
100
AcDbEllipse
10
93.574698
20
-8.183702
30
0
11
4.29766409115084
21
0.279963544843137
31
0
210
0
220
0
230
1
40
0.965789
41
1.98202682106166
42
-2.59638247841454
0
ELLIPSE
5
1F1
100
AcDbEntity
8
1
62
256
6
ByLayer
370
-1
48
1
60
0
100
AcDbEllipse
10
97.95147
20
-4.481203
30
0
11
-0.158650194184104
21
-0.129827254016042
31
0
210
0
220
0
230
1
40
0.21339
41
-1.72221565606936
42
-0.798415796495277
0
ELLIPSE
5
1F2
100
AcDbEntity
8
1
62
256
6
ByLayer
370
-1
48
1
60
0
100
AcDbEllipse
10
98.117891
20
-7.868345
30
0
11
-0.0982881971808915
21
0.0184236341401523
31
0
210
0
220
0
230
1
40
0.813931
41
0.427327124544806
42
1.57830801723329
0
ELLIPSE
5
1F3
100
AcDbEntity
8
1
62
256
6
ByLayer
370
-1
48
1
60
0
100
AcDbEllipse
10
93.062053
20
-3.992974
30
0
11
-0.0639266674587901
21
0.0768985122587769
31
0
210
0
220
0
230
1
40
0.706584
41
1.47006217915526
42
2.39066793957253
0
ELLIPSE
5
1F4
100
AcDbEntity
8
1
62
256
6
ByLayer
370
-1
48
1
60
0
100
AcDbEllipse
10
98.117891
20
-7.868345
30
0
11
0.0230153731571277
21
0.0973154283679529
31
0
210
0
220
0
230
1
40
0.078414
41
-2.51949695641218
42
-1.82136525560799
0
ELLIPSE
5
1F5
100
AcDbEntity
8
1
62
256
6
ByLayer
370
-1
48
1
60
0
100
AcDbEllipse
10
98.117891
20
-7.868345
30
0
11
-0.0994695119347516
21
-0.0102866999306049
31
0
210
0
220
0
230
1
40
0.259156
41
0.251947546212271
42
1.56094448520798
0
ELLIPSE
5
1F6
100
AcDbEntity
8
1
62
256
6
ByLayer
370
-1
48
1
60
0
100
AcDbEllipse
10
93.202922
20
-3.940455
30
0
11
-0.00853973049229791
21
0.0996346977870607
31
0
210
0
220
0
230
1
40
0.669438
41
1.89553276833796
42
-3.1409581896838
0
ELLIPSE
5
1F7
100
AcDbEntity
8
1
62
256
6
ByLayer
370
-1
48
1
60
0
100
AcDbEllipse
10
98.798232
20
-8.029248
30
0
11
-0.0608646153200694
21
-0.0793441781225313
31
0
210
0
220
0
230
1
40
0.541944
41
0.763231835583898
42
2.26034275480955
0
ELLIPSE
5
1F8
100
AcDbEntity
8
1
62
256
6
ByLayer
370
-1
48
1
60
0
100
AcDbEllipse
10
98.798232
20
-8.029248
30
0
11
0.0230153731571277
21
0.0973154283679529
31
0
210
0
220
0
230
1
40
0.078414
41
-2.51949695640606
42
-1.82136525560609
0
ELLIPSE
5
1F9
100
AcDbEntity
8
1
62
256
6
ByLayer
370
-1
48
1
60
0
100
AcDbEllipse
10
93.878193
20
-3.931563
30
0
11
-0.00580564298290414
21
-0.0998313303004376
31
0
210
0
220
0
230
1
40
0.032964
41
0.00150289436648834
42
1.31049983336791
0
ELLIPSE
5
1FA
100
AcDbEntity
8
1
62
256
6
ByLayer
370
-1
48
1
60
0
100
AcDbEllipse
10
93.878193
20
-3.931563
30
0
11
0.00567656357083237
21
0.0998387531273618
31
0
210
0
220
0
230
1
40
0.637655
41
1.98866182668778
42
3.13964271937743
0
ELLIPSE
5
1FB
100
AcDbEntity
8
1
62
256
6
ByLayer
370
-1
48
1
60
0
100
AcDbEllipse
10
98.798232
20
-8.029248
30
0
11
-0.0857796381939001
21
-0.0513989656639469
31
0
210
0
220
0
230
1
40
0.232285
41
1.4519661042433
42
2.41189662828368
0
ELLIPSE
5
1FC
100
AcDbEntity
8
1
62
256
6
ByLayer
370
-1
48
1
60
0
100
AcDbEllipse
10
93.878193
20
-3.931563
30
0
11
-0.0958560929374884
21
-0.0284887600074063
31
0
210
0
220
0
230
1
40
0.253281
41
0.815068254465385
42
1.51319995526237
0
ELLIPSE
5
1FD
100
AcDbEntity
8
1
62
256
6
ByLayer
370
-1
48
1
60
0
100
AcDbEllipse
10
93.616255
20
-3.05022
30
0
11
-0.0487095877782353
21
-0.0873348501943777
31
0
210
0
220
0
230
1
40
0.144237
41
1.35124095550281
42
2.01360218651958
0
ELLIPSE
5
1FE
100
AcDbEntity
8
1
62
256
6
ByLayer
370
-1
48
1
60
0
100
AcDbEllipse
10
93.616255
20
-3.05022
30
0
11
-0.0958560929374884
21
-0.0284887600074063
31
0
210
0
220
0
230
1
40
0.253281
41
0.815068254465385
42
1.51319995526294
0
ELLIPSE
5
1FF
100
AcDbEntity
8
1
62
256
6
ByLayer
370
-1
48
1
60
0
100
AcDbEllipse
10
93.616255
20
-3.05022
30
0
11
-0.081226249290641
21
-0.0583292073165292
31
0
210
0
220
0
230
1
40
0.07169
41
-2.02998769594877
42
-0.783633597424541
0
ELLIPSE
5
200
100
AcDbEntity
8
1
62
256
6
ByLayer
370
-1
48
1
60
0
100
AcDbEllipse
10
91.72701
20
-4.368626
30
0
11
-0.0105665165218436
21
-0.099440176631951
31
0
210
0
220
0
230
1
40
0.630327
41
0.692580649783652
42
1.61318641020176
0
ELLIPSE
5
201
100
AcDbEntity
8
1
62
256
6
ByLayer
370
-1
48
1
60
0
100
AcDbEllipse
10
91.564392
20
-4.401502
30
0
11
0.0432175552695969
21
-0.0901789494090464
31
0
210
0
220
0
230
1
40
0.584145
41
0.025079945497834
42
1.27177429465444
0
ELLIPSE
5
202
100
AcDbEntity
8
1
62
256
6
ByLayer
370
-1
48
1
60
0
100
AcDbEllipse
10
97.022586
20
-1.82834
30
0
11
0.415683519992529
21
-0.229798196700106
31
0
210
0
220
0
230
1
40
0.903036
41
-2.6657201139942
42
-2.48056608697728
0
ELLIPSE
5
203
100
AcDbEntity
8
1
62
256
6
ByLayer
370
-1
48
1
60
0
100
AcDbEllipse
10
97.022586
20
-1.82834
30
0
11
0.415683519992529
21
-0.229798196700106
31
0
210
0
220
0
230
1
40
0.903036
41
-1.80367658981456
42
-1.61852256279765
0
ELLIPSE
5
204
100
AcDbEntity
8
1
62
256
6
ByLayer
370
-1
48
1
60
0
100
AcDbEllipse
10
99.013187
20
-0.931786
30
0
11
-0.126989212138554
21
0.304587819849102
31
0
210
0
220
0
230
1
40
0.517188
41
-1.5966563221938
42
-0.995236925883143
0
ELLIPSE
5
205
100
AcDbEntity
8
1
62
256
6
ByLayer
370
-1
48
1
60
0
100
AcDbEllipse
10
99.395201
20
-0.772516
30
0
11
-0.126989212138554
21
0.304587819849102
31
0
210
0
220
0
230
1
40
0.517188
41
-1.59665632219388
42
-0.995236925882734
0
ELLIPSE
5
206
100
AcDbEntity
8
1
62
256
6
ByLayer
370
-1
48
1
60
0
100
AcDbEllipse
10
99.013187
20
-0.931786
30
0
11
0.0228891020462423
21
0.329205238426603
31
0
210
0
220
0
230
1
40
0.196789
41
-1.1707595500269
42
-0.821693699627938
0
ELLIPSE
5
207
100
AcDbEntity
8
1
62
256
6
ByLayer
370
-1
48
1
60
0
100
AcDbEllipse
10
99.013187
20
-0.931786
30
0
11
-0.2799708470016
21
0.174689223563467
31
0
210
0
220
0
230
1
40
0.429075
41
-1.89717185571831
42
-1.5481060053194
0
ELLIPSE
5
208
100
AcDbEntity
8
1
62
256
6
ByLayer
370
-1
48
1
60
0
100
AcDbEllipse
10
99.395201
20
-0.772516
30
0
11
0.278332210312974
21
-0.177288411077246
31
0
210
0
220
0
230
1
40
0.680704
41
1.42692072446883
42
1.77063022710631
0
ELLIPSE
5
209
100
AcDbEntity
8
1
62
256
6
ByLayer
370
-1
48
1
60
0
100
AcDbEllipse
10
99.395201
20
-0.772516
30
0
11
-0.0660768011499824
21
-0.32331695957649
31
0
210
0
220
0
230
1
40
0.459163
41
1.84324162674701
42
2.18695112938446
0
ELLIPSE
5
20A
100
AcDbEntity
8
1
62
256
6
ByLayer
370
-1
48
1
60
0
100
AcDbEllipse
10
96.839697
20
-2.159169
30
0
11
-0.521075299741963
21
-0.853510709949691
31
0
210
0
220
0
230
1
40
0.020494
41
-2.01436467948651
42
-1.51943055314564
0
ELLIPSE
5
20B
100
AcDbEntity
8
1
62
256
6
ByLayer
370
-1
48
1
60
0
100
AcDbEllipse
10
96.839697
20
-2.159169
30
0
11
0.999907495776651
21
0.0136014664528107
31
0
210
0
220
0
230
1
40
0.381837
41
1.35623106751348
42
1.85116519385445
0
ELLIPSE
5
20C
100
AcDbEntity
8
1
62
256
6
ByLayer
370
-1
48
1
60
0
100
AcDbEllipse
10
99.442848
20
-3.748414
30
0
11
-1.29043711942861
21
1.42217758483898
31
0
210
0
220
0
230
1
40
0.456317
41
0.128567379152033
42
0.6235015055561
0
ELLIPSE
5
20D
100
AcDbEntity
8
1
62
256
6
ByLayer
370
-1
48
1
60
0
100
AcDbEllipse
10
99.603608
20
-3.690635
30
0
11
-1.41314667307878
21
1.23575105240087
31
0
210
0
220
0
230
1
40
0.318653
41
0.0516008018654829
42
0.60527339975069
0
ELLIPSE
5
20E
100
AcDbEntity
8
1
62
256
6
ByLayer
370
-1
48
1
60
0
100
AcDbEllipse
10
96.801348
20
0.660002
30
0
11
-0.527063859902791
21
1.27928803860099
31
0
210
0
220
0
230
1
40
0.668877
41
2.32648662414495
42
2.82142075044307
0
ELLIPSE
5
20F
100
AcDbEntity
8
1
62
256
6
ByLayer
370
-1
48
1
60
0
100
AcDbEllipse
10
96.864377
20
0.880886
30
0
11
-0.227220612829992
21
1.44656572806345
31
0
210
0
220
0
230
1
40
0.43949
41
2.48756828745423
42
3.04124088536772
0
ELLIPSE
5
210
100
AcDbEntity
8
1
62
256
6
ByLayer
370
-1
48
1
60
0
100
AcDbEllipse
10
98.011272
20
-2.537534
30
0
11
0.2799708470016
21
-0.174689223563467
31
0
210
0
220
0
230
1
40
0.429075
41
1.24442079787166
42
1.59348664827048
0
ELLIPSE
5
211
100
AcDbEntity
8
1
62
256
6
ByLayer
370
-1
48
1
60
0
100
AcDbEllipse
10
96.963734
20
-0.789291
30
0
11
-0.0228891020462422
21
-0.329205238426603
31
0
210
0
220
0
230
1
40
0.196789
41
1.97083310356322
42
2.31989895396181
0
ELLIPSE
5
212
100
AcDbEntity
8
1
62
256
6
ByLayer
370
-1
48
1
60
0
100
AcDbEllipse
10
88.641374
20
-12.573073
30
0
11
-0.265718234535627
21
0.157696200603508
31
0
210
0
220
0
230
1
40
0.209851
41
-1.42800592945134
42
-0.72987422879296
0
ELLIPSE
5
213
100
AcDbEntity
8
1
62
256
6
ByLayer
370
-1
48
1
60
0
100
AcDbEllipse
10
89.422066
20
-13.005103
30
0
11
-0.265718234336684
21
0.157696200489627
31
0
210
0
220
0
230
1
40
0.209851
41
-2.12613763045516
42
-1.4280059293058
0
ELLIPSE
5
214
100
AcDbEntity
8
1
62
256
6
ByLayer
370
-1
48
1
60
0
100
AcDbEllipse
10
89.717907
20
-13.108904
30
0
11
-0.118987856675985
21
0.0786309206409646
31
0
210
0
220
0
230
1
40
0.157713
41
1.09477489715973
42
2.59188708541717
0
ELLIPSE
5
215
100
AcDbEntity
8
1
62
256
6
ByLayer
370
-1
48
1
60
0
100
AcDbEllipse
10
85.578008
20
-10.655153
30
0
11
-0.279352525500632
21
0.506301922424072
31
0
210
0
220
0
230
1
40
0.097362
41
-1.36641652476218
42
-1.10461713558958
0
ELLIPSE
5
216
100
AcDbEntity
8
1
62
256
6
ByLayer
370
-1
48
1
60
0
100
AcDbEllipse
10
87.219439
20
-4.903105
30
0
11
-0.249471227956045
21
-0.0162513513931364
31
0
210
0
220
0
230
1
40
0.965789
41
-1.11002928459387
42
-0.586430508995568
0
ELLIPSE
5
217
100
AcDbEntity
8
1
62
256
6
ByLayer
370
-1
48
1
60
0
100
AcDbEllipse
10
85.892813
20
-10.588605
30
0
11
-0.249471227956045
21
-0.0162513513931364
31
0
210
0
220
0
230
1
40
0.965789
41
0.445626698565862
42
0.984365817799328
0
ELLIPSE
5
218
100
AcDbEntity
8
1
62
256
6
ByLayer
370
-1
48
1
60
0
100
AcDbEllipse
10
99.763559
20
1.808646
30
0
11
0.0104295894546877
21
1.96847237056159
31
0
210
0
220
0
230
1
40
0.05338
41
-2.37439939979962
42
-1.32720184860305
0
ELLIPSE
5
219
100
AcDbEntity
8
1
62
256
6
ByLayer
370
-1
48
1
60
0
100
AcDbEllipse
10
99.763559
20
1.808646
30
0
11
0.0104295894546877
21
1.96847237056159
31
0
210
0
220
0
230
1
40
0.05338
41
-1.32720184860305
42
-0.280004297406618
0
ELLIPSE
5
21A
100
AcDbEntity
8
1
62
256
6
ByLayer
370
-1
48
1
60
0
100
AcDbEllipse
10
99.763559
20
1.808646
30
0
11
0.0104295894546877
21
1.96847237056159
31
0
210
0
220
0
230
1
40
0.05338
41
-0.280004297406618
42
0.767193253790553
0
ELLIPSE
5
21B
100
AcDbEntity
8
1
62
256
6
ByLayer
370
-1
48
1
60
0
100
AcDbEllipse
10
99.763559
20
1.808646
30
0
11
0.0104295894546877
21
1.96847237056159
31
0
210
0
220
0
230
1
40
0.05338
41
0.767193253790553
42
1.81439080498675
0
ELLIPSE
5
21C
100
AcDbEntity
8
1
62
256
6
ByLayer
370
-1
48
1
60
0
100
AcDbEllipse
10
93.557928
20
-7.926281
30
0
11
-1.41300503514304
21
-0.0920476542907249
31
0
210
0
220
0
230
1
40
0.965789
41
2.02823483319945
42
2.97068248826044
0
ELLIPSE
5
21D
100
AcDbEntity
8
1
62
256
6
ByLayer
370
-1
48
1
60
0
100
AcDbEllipse
10
93.557928
20
-7.926281
30
0
11
-1.41300503514304
21
-0.0920476542907249
31
0
210
0
220
0
230
1
40
0.965789
41
0.987694353595898
42
2.02823483319945
0
ELLIPSE
5
21E
100
AcDbEntity
8
1
62
256
6
ByLayer
370
-1
48
1
60
0
100
AcDbEllipse
10
91.338751
20
-7.935965
30
0
11
-0.824252937166772
21
-0.0536944650029228
31
0
210
0
220
0
230
1
40
0.965789
41
-3.01843716494192
42
-2.40515120743499
0
ELLIPSE
5
21F
100
AcDbEntity
8
1
62
256
6
ByLayer
370
-1
48
1
60
0
100
AcDbEllipse
10
93.579524
20
-8.257785
30
0
11
1.41300503514304
21
0.0920476542907088
31
0
210
0
220
0
230
1
40
0.965789
41
2.97068248826056
42
-3.09634595505506
0
ELLIPSE
5
220
100
AcDbEntity
8
1
62
256
6
ByLayer
370
-1
48
1
60
0
100
AcDbEllipse
10
93.579524
20
-8.257785
30
0
11
1.41300503514304
21
0.0920476542907088
31
0
210
0
220
0
230
1
40
0.965789
41
-0.170910165329338
42
0.0452466985348698
0
ELLIPSE
5
221
100
AcDbEntity
8
1
62
256
6
ByLayer
370
-1
48
1
60
0
100
AcDbEllipse
10
93.584901
20
-8.340333
30
0
11
1.96433644892589
21
0.127963140869534
31
0
210
0
220
0
230
1
40
0.965789
41
1.50796459339768
42
2.5485050730013
0
ELLIPSE
5
222
100
AcDbEntity
8
1
62
256
6
ByLayer
370
-1
48
1
60
0
100
AcDbEllipse
10
93.584901
20
-8.340333
30
0
11
1.96433644892589
21
0.127963140869534
31
0
210
0
220
0
230
1
40
0.965789
41
2.5485050730013
42
-2.67416853979574
0
ELLIPSE
5
223
100
AcDbEntity
8
1
62
256
6
ByLayer
370
-1
48
1
60
0
100
AcDbEllipse
10
93.584901
20
-8.340333
30
0
11
1.96433644892589
21
0.127963140869534
31
0
210
0
220
0
230
1
40
0.965789
41
-2.67416853979574
42
-1.63362806019214
0
ELLIPSE
5
224
100
AcDbEntity
8
1
62
256
6
ByLayer
370
-1
48
1
60
0
100
AcDbEllipse
10
93.584901
20
-8.340333
30
0
11
1.96433644892589
21
0.127963140869534
31
0
210
0
220
0
230
1
40
0.965789
41
-1.63362806019214
42
-0.593087580588506
0
ELLIPSE
5
225
100
AcDbEntity
8
1
62
256
6
ByLayer
370
-1
48
1
60
0
100
AcDbEllipse
10
93.584901
20
-8.340333
30
0
11
1.96433644892589
21
0.127963140869534
31
0
210
0
220
0
230
1
40
0.965789
41
-0.593087580588506
42
0.467424113794036
0
ELLIPSE
5
226
100
AcDbEntity
8
1
62
256
6
ByLayer
370
-1
48
1
60
0
100
AcDbEllipse
10
93.584901
20
-8.340333
30
0
11
1.96433644892589
21
0.127963140869534
31
0
210
0
220
0
230
1
40
0.965789
41
0.467424113794036
42
1.50796459339768
0
ELLIPSE
5
227
100
AcDbEntity
8
1
62
256
6
ByLayer
370
-1
48
1
60
0
100
AcDbEllipse
10
95.777106
20
-7.916597
30
0
11
-0.824252937166772
21
-0.0536944650029228
31
0
210
0
220
0
230
1
40
0.965789
41
-0.86210491294957
42
-0.248818955442618
0
ELLIPSE
5
228
100
AcDbEntity
8
1
62
256
6
ByLayer
370
-1
48
1
60
0
100
AcDbEllipse
10
92.443556
20
-9.810207
30
0
11
-0.824252937166772
21
-0.0536944650029228
31
0
210
0
220
0
230
1
40
0.965789
41
-2.15389829999396
42
-1.37203323268724
0
ELLIPSE
5
229
100
AcDbEntity
8
1
62
256
6
ByLayer
370
-1
48
1
60
0
100
AcDbEllipse
10
92.443556
20
-9.810207
30
0
11
-0.824252937166772
21
-0.0536944650029228
31
0
210
0
220
0
230
1
40
0.965789
41
-2.93576336730085
42
-2.15389829999396
0
ELLIPSE
5
22A
100
AcDbEntity
8
1
62
256
6
ByLayer
370
-1
48
1
60
0
100
AcDbEllipse
10
93.557928
20
-9.508951
30
0
11
-0.329302020901979
21
-0.0214517838389401
31
0
210
0
220
0
230
1
40
0.965789
41
0.205829286288981
42
2.81009990050635
0
ELLIPSE
5
22B
100
AcDbEntity
8
1
62
256
6
ByLayer
370
-1
48
1
60
0
100
AcDbEllipse
10
94.672301
20
-9.800482
30
0
11
-0.824252937166772
21
-0.0536944650029228
31
0
210
0
220
0
230
1
40
0.965789
41
-1.1133578203903
42
-0.331492753083499
0
ELLIPSE
5
22C
100
AcDbEntity
8
1
62
256
6
ByLayer
370
-1
48
1
60
0
100
AcDbEllipse
10
94.672301
20
-9.800482
30
0
11
-0.824252937166772
21
-0.0536944650029228
31
0
210
0
220
0
230
1
40
0.965789
41
-1.89522288769719
42
-1.1133578203903
0
ELLIPSE
5
22D
100
AcDbEntity
8
1
62
256
6
ByLayer
370
-1
48
1
60
0
100
AcDbEllipse
10
93.576898
20
-8.217478
30
0
11
3.56743855977144
21
0.232394324921811
31
0
210
0
220
0
230
1
40
0.965789
41
0
42
6.28318530717959
0
ELLIPSE
5
22E
100
AcDbEntity
8
1
62
256
6
ByLayer
370
-1
48
1
60
0
100
AcDbEllipse
10
93.584901
20
-8.340333
30
0
11
2.39492378837803
21
0.156012973374083
31
0
210
0
220
0
230
1
40
0.965789
41
0
42
6.28318530717959
0
ELLIPSE
5
22F
100
AcDbEntity
8
1
62
256
6
ByLayer
370
-1
48
1
60
0
100
AcDbEllipse
10
93.567736
20
-8.076836
30
0
11
-3.88256335396387
21
-0.252922558999465
31
0
210
0
220
0
230
1
40
0.965789
41
0
42
6.28318530717959
0
ELLIPSE
5
230
100
AcDbEntity
8
1
62
256
6
ByLayer
370
-1
48
1
60
0
100
AcDbEllipse
10
95.058867
20
-15.285468
30
0
11
-0.00126245033065744
21
0.289874581241075
31
0
210
0
220
0
230
1
40
0.965798
41
8.31122259266822E-06
42
0.943556629865131
0
ELLIPSE
5
231
100
AcDbEntity
8
1
62
256
6
ByLayer
370
-1
48
1
60
0
100
AcDbEllipse
10
95.785131
20
-15.282299
30
0
11
-0.00126245041660435
21
0.289874581261912
31
0
210
0
220
0
230
1
40
0.965798
41
-1.03204889661657
42
8.31093758864224E-06
0
ELLIPSE
5
232
100
AcDbEntity
8
1
62
256
6
ByLayer
370
-1
48
1
60
0
100
AcDbEllipse
10
97.358461
20
-17.059223
30
0
11
-0.000811575326936354
21
0.186347945087777
31
0
210
0
220
0
230
1
40
0.965798
41
2.10954375663953
42
-3.14158434295825
0
ELLIPSE
5
233
100
AcDbEntity
8
1
62
256
6
ByLayer
370
-1
48
1
60
0
100
AcDbEllipse
10
97.500623
20
-17.058603
30
0
11
-0.000811575223001864
21
0.18634794508657
31
0
210
0
220
0
230
1
40
0.965798
41
-3.14158434242106
42
-2.10952713483336
0
ELLIPSE
5
234
100
AcDbEntity
8
1
62
256
6
ByLayer
370
-1
48
1
60
0
100
AcDbEllipse
10
90.662082
20
-13.63145
30
0
11
-0.864291912655732
21
0.487203801102143
31
0
210
0
220
0
230
1
40
0.109716
41
-1.76109310454866
42
-1.60909174153668
0
ELLIPSE
5
235
100
AcDbEntity
8
1
62
256
6
ByLayer
370
-1
48
1
60
0
100
AcDbEllipse
10
94.604857
20
-15.172968
30
0
11
0.149682736773628
21
0.00975081083588025
31
0
210
0
220
0
230
1
40
0.965789
41
-1.63362806019237
42
-0.690079741581849
0
ELLIPSE
5
236
100
AcDbEntity
8
1
62
256
6
ByLayer
370
-1
48
1
60
0
100
AcDbEllipse
10
96.955101
20
-16.132469
30
0
11
-0.552912620571209
21
0.948244982881095
31
0
210
0
220
0
230
1
40
0.300607
41
2.96977594528186
42
-2.96969985926396
0
ELLIPSE
5
237
100
AcDbEntity
8
1
62
256
6
ByLayer
370
-1
48
1
60
0
100
AcDbEllipse
10
97.895881
20
-16.128363
30
0
11
-0.544617036836165
21
-0.953034314129684
31
0
210
0
220
0
230
1
40
0.300606
41
-0.171892603086023
42
0.171816899558359
0
ELLIPSE
5
238
100
AcDbEntity
8
1
62
256
6
ByLayer
370
-1
48
1
60
0
100
AcDbEllipse
10
93.585623
20
-8.351408
30
0
11
-4.54751380776243
21
-0.296239552194405
31
0
210
0
220
0
230
1
40
0.965789
41
1.08389678236298
42
2.49053776507051
0
ELLIPSE
5
239
100
AcDbEntity
8
1
62
256
6
ByLayer
370
-1
48
1
60
0
100
AcDbEllipse
10
93.584373
20
-8.332228
30
0
11
4.45112552696292
21
0.289960512185264
31
0
210
0
220
0
230
1
40
0.965789
41
-2.05769587122683
42
-0.651054888519291
0
ELLIPSE
5
23A
100
AcDbEntity
8
1
62
256
6
ByLayer
370
-1
48
1
60
0
100
AcDbEllipse
10
94.248713
20
-8.851466
30
0
11
-2.43799137558081
21
4.53481700877685
31
0
210
0
220
0
230
1
40
0.8148
41
1.78038710981461
42
1.93488722326412
0
ELLIPSE
5
23B
100
AcDbEntity
8
1
62
256
6
ByLayer
370
-1
48
1
60
0
100
AcDbEllipse
10
93.803305
20
-7.352802
30
0
11
-4.33849579477168
21
0.296375956094635
31
0
210
0
220
0
230
1
40
0.768938
41
2.89689100288661
42
3.05139111590532
0
ELLIPSE
5
23C
100
AcDbEntity
8
1
62
256
6
ByLayer
370
-1
48
1
60
0
100
AcDbEllipse
10
93.351902
20
-9.103809
30
0
11
-0.60415415158216
21
-5.19685812498562
31
0
210
0
220
0
230
1
40
0.821814
41
1.35309760874637
42
1.50759772063993
0
ELLIPSE
5
23D
100
AcDbEntity
8
1
62
256
6
ByLayer
370
-1
48
1
60
0
100
AcDbEllipse
10
93.572136
20
-8.144382
30
0
11
4.10006811551183
21
0.267091512824501
31
0
210
0
220
0
230
1
40
0.965789
41
-2.29491382922786
42
-0.413836930518247
0
ELLIPSE
5
23E
100
AcDbEntity
8
1
62
256
6
ByLayer
370
-1
48
1
60
0
100
AcDbEllipse
10
93.572136
20
-8.144382
30
0
11
4.10006811551183
21
0.267091512824501
31
0
210
0
220
0
230
1
40
0.965789
41
-0.200518726834669
42
1.68055817187496
0
ELLIPSE
5
23F
100
AcDbEntity
8
1
62
256
6
ByLayer
370
-1
48
1
60
0
100
AcDbEllipse
10
93.574698
20
-8.183702
30
0
11
4.29766409115084
21
0.279963544843137
31
0
210
0
220
0
230
1
40
0.965789
41
-2.20676338372473
42
-0.50198737602136
0
ELLIPSE
5
240
100
AcDbEntity
8
1
62
256
6
ByLayer
370
-1
48
1
60
0
100
AcDbEllipse
10
99.776298
20
-13.591678
30
0
11
-0.292057872999684
21
-0.499869035006915
31
0
210
0
220
0
230
1
40
0.127536
41
-1.7575088562497
42
-1.49570946612696
0
ELLIPSE
5
241
100
AcDbEntity
8
1
62
256
6
ByLayer
370
-1
48
1
60
0
100
AcDbEllipse
10
99.926291
20
-9.28816
30
0
11
-0.00127271044110826
21
0.308574637163071
31
0
210
0
220
0
230
1
40
0.015862
41
0.618275159480605
42
1.31640685951686
0
ELLIPSE
5
242
100
AcDbEntity
8
1
62
256
6
ByLayer
370
-1
48
1
60
0
100
AcDbEllipse
10
93.572136
20
-8.144382
30
0
11
4.00027962432942
21
0.260590972267248
31
0
210
0
220
0
230
1
40
0.965789
41
0
42
6.28318530717959
0
ELLIPSE
5
243
100
AcDbEntity
8
1
62
256
6
ByLayer
370
-1
48
1
60
0
100
AcDbEllipse
10
99.663852
20
-13.160185
30
0
11
-0.249471227956045
21
-0.0162513513931364
31
0
210
0
220
0
230
1
40
0.965789
41
2.54002180095887
42
3.07876092019243
0
ELLIPSE
5
244
100
AcDbEntity
8
1
62
256
6
ByLayer
370
-1
48
1
60
0
100
AcDbEllipse
10
93.824621
20
-15.07978
30
0
11
-0.249471227956045
21
-0.0162513513931364
31
0
210
0
220
0
230
1
40
0.965789
41
0.984365817799391
42
1.5079645933978
0
ELLIPSE
5
245
100
AcDbEntity
8
1
62
256
6
ByLayer
370
-1
48
1
60
0
100
AcDbEllipse
10
99.926291
20
-10.159032
30
0
11
-0.00127271043521867
21
0.308574637182621
31
0
210
0
220
0
230
1
40
0.015862
41
1.31640686087843
42
2.01453856064194
0
ELLIPSE
5
246
100
AcDbEntity
8
1
62
256
6
ByLayer
370
-1
48
1
60
0
100
AcDbEllipse
10
99.922242
20
-8.891472
30
0
11
-0.000230712323233549
21
-0.125847657254819
31
0
210
0
220
0
230
1
40
0.01527
41
0.751563437453865
42
2.24867562598523
0
POINT
5
41
100
AcDbEntity
8
2
62
256
6
ByLayer
370
-1
48
1
60
0
100
AcDbPoint
10
99.93
20
18.875
30
0
39
0
210
0
220
0
230
1
50
360
0
POINT
5
43
100
AcDbEntity
8
1
62
256
6
ByLayer
370
-1
48
1
60
0
100
AcDbPoint
10
99.937672
20
18.992776
30
0
39
0
210
0
220
0
230
1
50
360
0
POINT
5
45
100
AcDbEntity
8
80
62
256
6
ByLayer
370
-1
48
1
60
0
100
AcDbPoint
10
0
20
0
30
0
39
0
210
0
220
0
230
1
50
360
0
POINT
5
47
100
AcDbEntity
8
81
62
256
6
ByLayer
370
-1
48
1
60
0
100
AcDbPoint
10
99.93
20
-18.875
30
0
39
0
210
0
220
0
230
1
50
360
0
SPLINE
5
247
100
AcDbEntity
8
1
62
256
6
ByLayer
370
-1
48
1
60
0
100
AcDbSpline
70
4
71
3
72
8
73
4
40
0
40
0
40
0
40
0
40
1
40
1
40
1
40
1
41
1
10
75.8577349462419
20
-12.3420813797554
30
0
41
1
10
75.8138362922753
20
-12.2871076361177
30
0
41
1
10
75.7623412205195
20
-12.2370484694225
30
0
41
1
10
75.7053519928261
20
-12.1947454312015
30
0
0
SPLINE
5
248
100
AcDbEntity
8
1
62
256
6
ByLayer
370
-1
48
1
60
0
100
AcDbSpline
70
4
71
3
72
10
73
6
40
0
40
0
40
0
40
0
40
0.570865234100518
40
0.570865234100518
40
1
40
1
40
1
40
1
41
1
10
75.2448993917467
20
-12.021309857682
30
0
41
1
10
75.3339817017918
20
-12.0286104635008
30
0
41
1
10
75.4264040573475
20
-12.05019834017
30
0
41
1
10
75.5807999488508
20
-12.1141713960295
30
0
41
1
10
75.6458052892434
20
-12.1505439815666
30
0
41
1
10
75.7053519928264
20
-12.1947454312013
30
0
0
SPLINE
5
249
100
AcDbEntity
8
1
62
256
6
ByLayer
370
-1
48
1
60
0
100
AcDbSpline
70
4
71
3
72
8
73
4
40
0
40
0
40
0
40
0
40
1
40
1
40
1
40
1
41
1
10
64.5695183886327
20
-4.31299635996547
30
0
41
1
10
64.4536689798526
20
-4.50346766066187
30
0
41
1
10
64.3327532827712
20
-4.69122711154151
30
0
41
1
10
64.2073979642478
20
-4.87661015076077
30
0
0
SPLINE
5
24A
100
AcDbEntity
8
1
62
256
6
ByLayer
370
-1
48
1
60
0
100
AcDbSpline
70
4
71
3
72
8
73
4
40
0
40
0
40
0
40
0
40
1
40
1
40
1
40
1
41
1
10
64.2073979620596
20
-10.00875
30
0
41
1
10
64.3290265374561
20
-10.00875
30
0
41
1
10
64.4497643899296
20
-10.00875
30
0
41
1
10
64.5695183886326
20
-10.00875
30
0
0
SPLINE
5
24B
100
AcDbEntity
8
1
62
256
6
ByLayer
370
-1
48
1
60
0
100
AcDbSpline
70
4
71
3
72
8
73
4
40
0
40
0
40
0
40
0
40
1
40
1
40
1
40
1
41
1
10
77.0050946145261
20
-13.8256742325227
30
0
41
1
10
77.0952737542469
20
-13.9344207354312
30
0
41
1
10
77.1998288285376
20
-14.0424185393394
30
0
41
1
10
77.3176757602254
20
-14.1493556346558
30
0
0
SPLINE
5
24C
100
AcDbEntity
8
1
62
256
6
ByLayer
370
-1
48
1
60
0
100
AcDbSpline
70
4
71
3
72
12
73
8
40
0
40
0
40
0
40
0
40
0.433856895626108
40
0.433856895626108
40
0.875089665541722
40
0.875089665541722
40
1
40
1
40
1
40
1
41
1
10
64.5695183886251
20
-10.00875
30
0
41
1
10
64.6158117239593
20
-10.00875
30
0
41
1
10
64.6679126263404
20
-10.00875
30
0
41
1
10
64.7825073351809
20
-10.00875
30
0
41
1
10
64.8470096631994
20
-10.00875
30
0
41
1
10
64.9314051115214
20
-10.00875
30
0
41
1
10
64.9504798826251
20
-10.00875
30
0
41
1
10
64.969518387479
20
-10.00875
30
0
0
SPLINE
5
24D
100
AcDbEntity
8
1
62
256
6
ByLayer
370
-1
48
1
60
0
100
AcDbSpline
70
4
71
3
72
8
73
4
40
0
40
0
40
0
40
0
40
1
40
1
40
1
40
1
41
1
10
74.7847802074875
20
-11.7653825051301
30
0
41
1
10
74.7653680564233
20
-11.7818883321985
30
0
41
1
10
74.7502661454282
20
-11.7983560081344
30
0
41
1
10
74.740414820644
20
-11.8144735853075
30
0
0
SPLINE
5
24E
100
AcDbEntity
8
1
62
256
6
ByLayer
370
-1
48
1
60
0
100
AcDbSpline
70
4
71
3
72
16
73
12
40
0
40
0
40
0
40
0
40
0.0002068207662569
40
0.0002068207662569
40
0.321714093097909
40
0.321714093097909
40
0.645233706804665
40
0.645233706804665
40
0.939875463667642
40
0.939875463667642
40
1
40
1
40
1
40
1
41
1
10
74.7273788525602
20
-11.8594653270611
30
0
41
1
10
74.7273799659961
20
-11.8594814532702
30
0
41
1
10
74.7273810863876
20
-11.859497578746
30
0
41
1
10
74.7291351334393
20
-11.8845861531183
30
0
41
1
10
74.7481067080194
20
-11.908434693323
30
0
41
1
10
74.8237257701198
20
-11.9501951642569
30
0
41
1
10
74.8818935615186
20
-11.9686530261079
30
0
41
1
10
75.0217019907637
20
-11.9970623827791
30
0
41
1
10
75.1023732133763
20
-12.0080373615244
30
0
41
1
10
75.2078493280856
20
-12.0181514697859
30
0
41
1
10
75.2262360845654
20
-12.0197803346045
30
0
41
1
10
75.2448993917466
20
-12.021309857682
30
0
0
SPLINE
5
24F
100
AcDbEntity
8
1
62
256
6
ByLayer
370
-1
48
1
60
0
100
AcDbSpline
70
4
71
3
72
8
73
4
40
0
40
0
40
0
40
0
40
1
40
1
40
1
40
1
41
1
10
82.1130688177184
20
-7.32798374087858
30
0
41
1
10
82.2584749851345
20
-7.6579490394937
30
0
41
1
10
82.3977345305425
20
-7.9762964425544
30
0
41
1
10
82.5315037297495
20
-8.28614857788358
30
0
0
SPLINE
5
250
100
AcDbEntity
8
1
62
256
6
ByLayer
370
-1
48
1
60
0
100
AcDbSpline
70
4
71
3
72
12
73
8
40
0
40
0
40
0
40
0
40
0.448434758152872
40
0.448434758152872
40
0.87707137253598
40
0.87707137253598
40
1
40
1
40
1
40
1
41
1
10
87.043415450045
20
8.80012264703555
30
0
41
1
10
87.0951366010225
20
8.93610924998427
30
0
41
1
10
87.1853635157871
20
9.06330059052655
30
0
41
1
10
87.4120742842469
20
9.27874180312895
30
0
41
1
10
87.5494289645877
20
9.37143175413792
30
0
41
1
10
87.7475861366421
20
9.46874322144413
30
0
41
1
10
87.793445659004
20
9.4891988163067
30
0
41
1
10
87.8405996617735
20
9.50825126307336
30
0
0
SPLINE
5
251
100
AcDbEntity
8
1
62
256
6
ByLayer
370
-1
48
1
60
0
100
AcDbSpline
70
4
71
3
72
8
73
4
40
0
40
0
40
0
40
0
40
1
40
1
40
1
40
1
41
1
10
64.2073979642482
20
4.87661015076043
30
0
41
1
10
64.3322941514871
20
4.69190610269945
30
0
41
1
10
64.4532222520367
20
4.50420213854213
30
0
41
1
10
64.5695183886366
20
4.31299635995916
30
0
0
SPLINE
5
252
100
AcDbEntity
8
1
62
256
6
ByLayer
370
-1
48
1
60
0
100
AcDbSpline
70
4
71
3
72
14
73
10
40
0
40
0
40
0
40
0
40
0.192338116955606
40
0.192338116955606
40
0.435982699781433
40
0.435982699781433
40
0.873991238082937
40
0.873991238082937
40
1
40
1
40
1
40
1
41
1
10
64.969518387479
20
-3.99757739137109
30
0
41
1
10
64.9355708473289
20
-3.99757739137109
30
0
41
1
10
64.9011898475333
20
-4.00454087828092
30
0
41
1
10
64.8292881716249
20
-4.03202403260124
30
0
41
1
10
64.7920156021931
20
-4.05568504008465
30
0
41
1
10
64.6989422866451
20
-4.13168411075867
30
0
41
1
10
64.649139987235
20
-4.19278451284754
30
0
41
1
10
64.5931991224962
20
-4.27505637620175
30
0
41
1
10
64.5811358649466
20
-4.29389573746221
30
0
41
1
10
64.5695183886326
20
-4.31299635996544
30
0
0
SPLINE
5
253
100
AcDbEntity
8
1
62
256
6
ByLayer
370
-1
48
1
60
0
100
AcDbSpline
70
4
71
3
72
8
73
4
40
0
40
0
40
0
40
0
40
1
40
1
40
1
40
1
41
1
10
80.0451100280604
20
-2.9404735420575
30
0
41
1
10
80.0328915975053
20
-2.94333791099237
30
0
41
1
10
80.0231009199553
20
-2.95180403128595
30
0
41
1
10
80.0153112934439
20
-2.96528940812155
30
0
0
SPLINE
5
254
100
AcDbEntity
8
1
62
256
6
ByLayer
370
-1
48
1
60
0
100
AcDbSpline
70
4
71
3
72
26
73
22
40
0
40
0
40
0
40
0
40
0.0002289345001207
40
0.0002289345001207
40
0.0906839170383228
40
0.0906839170383228
40
0.236823178710909
40
0.236823178710909
40
0.388550656109692
40
0.388550656109692
40
0.472846024185884
40
0.472846024185884
40
0.556900526688047
40
0.556900526688047
40
0.705314316281424
40
0.705314316281424
40
0.864450913519766
40
0.864450913519766
40
0.956577964746844
40
0.956577964746844
40
1
40
1
40
1
40
1
41
1
10
79.9959480442396
20
-3.02943051857693
30
0
41
1
10
79.995927664503
20
-3.02955935927434
30
0
41
1
10
79.9959073282071
20
-3.02968832470958
30
0
41
1
10
79.9878343582777
20
-3.08104319817116
30
0
41
1
10
79.986194649473
20
-3.15253635453698
30
0
41
1
10
79.987709799852
20
-3.37142960739834
30
0
41
1
10
79.9947015172567
20
-3.54174961227056
30
0
41
1
10
79.988701100155
20
-3.91696771540475
30
0
41
1
10
79.9773609922683
20
-4.13080804882557
30
0
41
1
10
79.8830606525085
20
-4.45673584993156
30
0
41
1
10
79.830581686585
20
-4.573741449382
30
0
41
1
10
79.6866901075365
20
-4.78278389905861
30
0
41
1
10
79.5949547337993
20
-4.87712630780462
30
0
41
1
10
79.325091631382
20
-5.10945702293077
30
0
41
1
10
79.1313132154442
20
-5.23538277313421
30
0
41
1
10
78.7567130871435
20
-5.48705383709648
30
0
41
1
10
78.5684567909519
20
-5.61547593353706
30
0
41
1
10
78.3401783349991
20
-5.81898999759545
30
0
41
1
10
78.2695262706134
20
-5.89568024366329
30
0
41
1
10
78.2011917610475
20
-6.00763737662203
30
0
41
1
10
78.1844078970204
20
-6.04390271970763
30
0
41
1
10
78.1737553441823
20
-6.07992207212044
30
0
0
SPLINE
5
255
100
AcDbEntity
8
1
62
256
6
ByLayer
370
-1
48
1
60
0
100
AcDbSpline
70
4
71
3
72
8
73
4
40
0
40
0
40
0
40
0
40
1
40
1
40
1
40
1
41
1
10
77.3176757602254
20
-14.1493556346558
30
0
41
1
10
76.8279992941665
20
-13.5492314973679
30
0
41
1
10
76.3408895816544
20
-12.9471299783924
30
0
41
1
10
75.8577349462419
20
-12.3420813797554
30
0
0
SPLINE
5
256
100
AcDbEntity
8
1
62
256
6
ByLayer
370
-1
48
1
60
0
100
AcDbSpline
70
4
71
3
72
10
73
6
40
0
40
0
40
0
40
0
40
0.47336540759364
40
0.47336540759364
40
1
40
1
40
1
40
1
41
1
10
75.3709945938767
20
4.02793061012528
30
0
41
1
10
75.3524813643878
20
4.0189914398731
30
0
41
1
10
75.3330727754019
20
4.01163887359007
30
0
41
1
10
75.2909670327186
20
4.00067576029997
30
0
41
1
10
75.2678505551283
20
3.9975773913483
30
0
41
1
10
75.2448993917308
20
3.99757739134969
30
0
0
SPLINE
5
257
100
AcDbEntity
8
1
62
256
6
ByLayer
370
-1
48
1
60
0
100
AcDbSpline
70
4
71
3
72
14
73
10
40
0
40
0
40
0
40
0
40
0.429884978061043
40
0.429884978061043
40
0.702476432803764
40
0.702476432803764
40
0.894418017317994
40
0.894418017317994
40
1
40
1
40
1
40
1
41
1
10
64.5695183886326
20
4.31299635995612
30
0
41
1
10
64.608929721416
20
4.24819906926248
30
0
41
1
10
64.65352133199
20
4.18563250676942
30
0
41
1
10
64.7398370653819
20
4.09669214165612
30
0
41
1
10
64.7772689878034
20
4.06501236605004
30
0
41
1
10
64.8482417862267
20
4.02397356293645
30
0
41
1
10
64.8803095330155
20
4.01064685857426
30
0
41
1
10
64.9318292646058
20
3.99963704709563
30
0
41
1
10
64.9507219383736
20
3.99757739136135
30
0
41
1
10
64.9695183874779
20
3.99757739136126
30
0
0
SPLINE
5
258
100
AcDbEntity
8
1
62
256
6
ByLayer
370
-1
48
1
60
0
100
AcDbSpline
70
4
71
3
72
12
73
8
40
0
40
0
40
0
40
0
40
0.22356750266732
40
0.22356750266732
40
0.662745605027216
40
0.662745605027216
40
1
40
1
40
1
40
1
41
1
10
99.7800159620397
20
3.73668933023546
30
0
41
1
10
99.7826309342447
20
3.73668914362082
30
0
41
1
10
99.7849719213352
20
3.73595536562178
30
0
41
1
10
99.7912838501622
20
3.73196941689139
30
0
41
1
10
99.7946549555469
20
3.72693264335854
30
0
41
1
10
99.7995035707895
20
3.71454152135092
30
0
41
1
10
99.8012394986262
20
3.70797346394218
30
0
41
1
10
99.8026216880968
20
3.70030126918658
30
0
0
SPLINE
5
259
100
AcDbEntity
8
1
62
256
6
ByLayer
370
-1
48
1
60
0
100
AcDbSpline
70
4
71
3
72
10
73
6
40
0
40
0
40
0
40
0
40
0.642808717256813
40
0.642808717256813
40
1
40
1
40
1
40
1
41
1
10
99.7007414889571
20
2.6560387554012
30
0
41
1
10
99.7089248135533
20
2.65604283409255
30
0
41
1
10
99.7174696420393
20
2.65761945171778
30
0
41
1
10
99.7311323623881
20
2.66332772329335
30
0
41
1
10
99.7361580440008
20
2.66607204391605
30
0
41
1
10
99.7411715631366
20
2.66955836849621
30
0
0
SPLINE
5
25A
100
AcDbEntity
8
1
62
256
6
ByLayer
370
-1
48
1
60
0
100
AcDbSpline
70
4
71
3
72
12
73
8
40
0
40
0
40
0
40
0
40
0.271738474608304
40
0.271738474608304
40
0.723175444779015
40
0.723175444779015
40
1
40
1
40
1
40
1
41
1
10
99.7482889628666
20
1.77626821085207
30
0
41
1
10
99.7388636395381
20
1.77582271047331
30
0
41
1
10
99.7294259921123
20
1.7724012687159
30
0
41
1
10
99.7057511407326
20
1.75808831896776
30
0
41
1
10
99.6919627151678
20
1.74369794553331
30
0
41
1
10
99.6720826315697
20
1.71645281728391
30
0
41
1
10
99.6649657471374
20
1.70498652309453
30
0
41
1
10
99.6583355994108
20
1.69278202576041
30
0
0
SPLINE
5
25B
100
AcDbEntity
8
1
62
256
6
ByLayer
370
-1
48
1
60
0
100
AcDbSpline
70
4
71
3
72
12
73
8
40
0
40
0
40
0
40
0
40
0.127109530507615
40
0.127109530507615
40
0.796270839445184
40
0.796270839445184
40
1
40
1
40
1
40
1
41
1
10
99.6658039403723
20
0.99035092744171
30
0
41
1
10
99.6681174118611
20
0.985337456325453
30
0
41
1
10
99.6704849920454
20
0.980387275014891
30
0
41
1
10
99.6855110359794
20
0.950135421454377
30
0
41
1
10
99.6999640434524
20
0.926068012799078
30
0
41
1
10
99.7201815950667
20
0.901866779002944
30
0
41
1
10
99.7250904296297
20
0.89664749846375
30
0
41
1
10
99.7300319397738
20
0.892145281021868
30
0
0
SPLINE
5
25C
100
AcDbEntity
8
1
62
256
6
ByLayer
370
-1
48
1
60
0
100
AcDbSpline
70
4
71
3
72
8
73
4
40
0
40
0
40
0
40
0
40
1
40
1
40
1
40
1
41
1
10
90.3630255114772
20
-2.77167767717117
30
0
41
1
10
90.3727076207647
20
-2.76834768671003
30
0
41
1
10
90.3823897285651
20
-2.76501769774797
30
0
41
1
10
90.3920718348889
20
-2.76168771027471
30
0
0
SPLINE
5
25D
100
AcDbEntity
8
1
62
256
6
ByLayer
370
-1
48
1
60
0
100
AcDbSpline
70
4
71
3
72
16
73
12
40
0
40
0
40
0
40
0
40
0.164710736630213
40
0.164710736630213
40
0.331370362656699
40
0.331370362656699
40
0.476446336500476
40
0.476446336500476
40
0.702801041235906
40
0.702801041235906
40
1
40
1
40
1
40
1
41
1
10
85.0713187225101
20
-9.42917804905844
30
0
41
1
10
85.0773322896397
20
-9.4389177358695
30
0
41
1
10
85.0849093699907
20
-9.44790451288813
30
0
41
1
10
85.1031638238834
20
-9.46226034408551
30
0
41
1
10
85.1141626414197
20
-9.46771912549735
30
0
41
1
10
85.1360786238297
20
-9.47354971141394
30
0
41
1
10
85.1470492114389
20
-9.47460008666854
30
0
41
1
10
85.1749417973265
20
-9.47376265894943
30
0
41
1
10
85.1922437117941
20
-9.47001165960771
30
0
41
1
10
85.2303917522232
20
-9.45715525064512
30
0
41
1
10
85.2512671903588
20
-9.44661485788794
30
0
41
1
10
85.2708182451692
20
-9.43444636368272
30
0
0
SPLINE
5
25E
100
AcDbEntity
8
1
62
256
6
ByLayer
370
-1
48
1
60
0
100
AcDbSpline
70
4
71
3
72
16
73
12
40
0
40
0
40
0
40
0
40
0.343443954228583
40
0.343443954228583
40
0.535083245610786
40
0.535083245610786
40
0.693553557835223
40
0.693553557835223
40
0.853171508912882
40
0.853171508912882
40
1
40
1
40
1
40
1
41
1
10
86.7470846678759
20
-6.95781139401296
30
0
41
1
10
86.7475337854353
20
-6.93329818973149
30
0
41
1
10
86.7450173689546
20
-6.90857873909306
30
0
41
1
10
86.7334412115253
20
-6.87309680031501
30
0
41
1
10
86.7276157850628
20
-6.86077898616551
30
0
41
1
10
86.7132177531873
20
-6.84114206641172
30
0
41
1
10
86.7051073831047
20
-6.83317689904976
30
0
41
1
10
86.6862565629013
20
-6.82097387279612
30
0
41
1
10
86.6752310949691
20
-6.81664533463516
30
0
41
1
10
86.6531495008499
20
-6.81235805707686
30
0
41
1
10
86.6419424411834
20
-6.81198029317858
30
0
41
1
10
86.6308502444492
20
-6.8128547051615
30
0
0
SPLINE
5
25F
100
AcDbEntity
8
1
62
256
6
ByLayer
370
-1
48
1
60
0
100
AcDbSpline
70
4
71
3
72
12
73
8
40
0
40
0
40
0
40
0
40
0.261466805566837
40
0.261466805566837
40
0.727154521522418
40
0.727154521522418
40
1
40
1
40
1
40
1
41
1
10
86.5558194631905
20
-8.62610149668953
30
0
41
1
10
86.5767930123995
20
-8.60759996594001
30
0
41
1
10
86.5966597174933
20
-8.58779802619208
30
0
41
1
10
86.6463779841752
20
-8.52914044615764
30
0
41
1
10
86.6721747626364
20
-8.48629290293604
30
0
41
1
10
86.7000193183664
20
-8.41554358239839
30
0
41
1
10
86.7077867923506
20
-8.38855107749743
30
0
41
1
10
86.7134980382618
20
-8.36157453395236
30
0
0
SPLINE
5
260
100
AcDbEntity
8
1
62
256
6
ByLayer
370
-1
48
1
60
0
100
AcDbSpline
70
4
71
3
72
14
73
10
40
0
40
0
40
0
40
0
40
0.25
40
0.25
40
0.5
40
0.5
40
0.75
40
0.75
40
1
40
1
40
1
40
1
41
1
10
90.7332711026056
20
-4.13815568051768
30
0
41
1
10
90.4177737019431
20
-4.66744757066724
30
0
41
1
10
90.1022684433952
20
-5.19673511488122
30
0
41
1
10
89.4712745118847
20
-6.25531937624592
30
0
41
1
10
89.1085074156857
20
-6.76513035878105
30
0
41
1
10
88.7928507455616
20
-7.9573377872839
30
0
41
1
10
88.8510183916956
20
-8.56692734082401
30
0
41
1
10
88.8450879301972
20
-9.77477938767612
30
0
41
1
10
88.8426511647838
20
-10.3787163338222
30
0
41
1
10
88.8405485903674
20
-10.9826601872798
30
0
0
SPLINE
5
261
100
AcDbEntity
8
1
62
256
6
ByLayer
370
-1
48
1
60
0
100
AcDbSpline
70
4
71
3
72
10
73
6
40
0
40
0
40
0
40
0
40
0.226375763220903
40
0.226375763220903
40
1
40
1
40
1
40
1
41
1
10
89.586016576425
20
-10.2584963830816
30
0
41
1
10
89.6175695076384
20
-10.2850540770193
30
0
41
1
10
89.6497670417017
20
-10.3110298227105
30
0
41
1
10
89.7946569880701
20
-10.4230814800153
30
0
41
1
10
89.9141529335521
20
-10.50295172986
30
0
41
1
10
90.0403375509623
20
-10.575586134784
30
0
0
SPLINE
5
262
100
AcDbEntity
8
1
62
256
6
ByLayer
370
-1
48
1
60
0
100
AcDbSpline
70
4
71
3
72
8
73
4
40
0
40
0
40
0
40
0
40
1
40
1
40
1
40
1
41
1
10
90.866456962773
20
-3.77748678050551
30
0
41
1
10
90.8425234599314
20
-3.88989710678891
30
0
41
1
10
90.8185900066474
20
-4.00230744940549
30
0
41
1
10
90.7946566329445
20
-4.11471781825028
30
0
0
SPLINE
5
263
100
AcDbEntity
8
1
62
256
6
ByLayer
370
-1
48
1
60
0
100
AcDbSpline
70
4
71
3
72
12
73
8
40
0
40
0
40
0
40
0
40
0.452209010901495
40
0.452209010901495
40
0.985658768919494
40
0.985658768919494
40
1
40
1
40
1
40
1
41
1
10
90.1638871007887
20
-10.6365138079534
30
0
41
1
10
90.1981001877474
20
-10.6440296921252
30
0
41
1
10
90.2360540711712
20
-10.6531092266552
30
0
41
1
10
90.3206205263277
20
-10.6748333971842
30
0
41
1
10
90.3684582907829
20
-10.6880303382612
30
0
41
1
10
90.4174141061523
20
-10.7025419696611
30
0
41
1
10
90.4186953771064
20
-10.7029222144929
30
0
41
1
10
90.419976628831
20
-10.7033037013606
30
0
0
SPLINE
5
264
100
AcDbEntity
8
1
62
256
6
ByLayer
370
-1
48
1
60
0
100
AcDbSpline
70
4
71
3
72
10
73
6
40
0
40
0
40
0
40
0
40
0.274190864391784
40
0.274190864391784
40
1
40
1
40
1
40
1
41
1
10
90.0403375509623
20
-10.575586134784
30
0
41
1
10
90.0499456793457
20
-10.5832200013577
30
0
41
1
10
90.0600072553687
20
-10.5904180647244
30
0
41
1
10
90.09814106013
20
-10.6146009224723
30
0
41
1
10
90.1293075689543
20
-10.6289174236723
30
0
41
1
10
90.1638871007887
20
-10.6365138079534
30
0
0
SPLINE
5
265
100
AcDbEntity
8
1
62
256
6
ByLayer
370
-1
48
1
60
0
100
AcDbSpline
70
4
71
3
72
8
73
4
40
0
40
0
40
0
40
0
40
1
40
1
40
1
40
1
41
1
10
90.7211135596019
20
-12.8949689875932
30
0
41
1
10
90.76956136104
20
-12.8861484606972
30
0
41
1
10
90.8180091622006
20
-12.8773279275938
30
0
41
1
10
90.8664569627732
20
-12.8685073813293
30
0
0
SPLINE
5
266
100
AcDbEntity
8
1
62
256
6
ByLayer
370
-1
48
1
60
0
100
AcDbSpline
70
4
71
3
72
10
73
6
40
0
40
0
40
0
40
0
40
0.726371168591114
40
0.726371168591114
40
1
40
1
40
1
40
1
41
1
10
91.1418514557872
20
-11.7379823919546
30
0
41
1
10
91.1138881942708
20
-11.702314415473
30
0
41
1
10
91.0901801094144
20
-11.6616764901937
30
0
41
1
10
91.0678966701865
20
-11.6005021797254
30
0
41
1
10
91.0628214334911
20
-11.5830117220272
30
0
41
1
10
91.0590985348398
20
-11.5650672177518
30
0
0
SPLINE
5
267
100
AcDbEntity
8
1
62
256
6
ByLayer
370
-1
48
1
60
0
100
AcDbSpline
70
4
71
3
72
12
73
8
40
0
40
0
40
0
40
0
40
0.454187976028942
40
0.454187976028942
40
0.987490284578521
40
0.987490284578521
40
1
40
1
40
1
40
1
41
1
10
91.0590985348398
20
-11.5650672177518
30
0
41
1
10
91.0556720682813
20
-11.5246810068658
30
0
41
1
10
91.0534307570054
20
-11.4816840523569
30
0
41
1
10
91.0501626429385
20
-11.3894306182546
30
0
41
1
10
91.0493916533358
20
-11.3391778663649
30
0
41
1
10
91.0491829995839
20
-11.2898060753278
30
0
41
1
10
91.0491787861094
20
-11.2886760351738
30
0
41
1
10
91.0491743737434
20
-11.2875468612465
30
0
0
SPLINE
5
268
100
AcDbEntity
8
1
62
256
6
ByLayer
370
-1
48
1
60
0
100
AcDbSpline
70
4
71
3
72
12
73
8
40
0
40
0
40
0
40
0
40
0.0125097154214665
40
0.0125097154214665
40
0.545812023971046
40
0.545812023971046
40
1
40
1
40
1
40
1
41
1
10
90.419976628831
20
-10.7033037013606
30
0
41
1
10
90.4188083261997
20
-10.7033439478066
30
0
41
1
10
90.4176400827421
20
-10.7033853001063
30
0
41
1
10
90.3666395996158
20
-10.705206717374
30
0
41
1
10
90.3164221046447
20
-10.7081139827528
30
0
41
1
10
90.2278247170676
20
-10.7150654725952
30
0
41
1
10
90.1879572692944
20
-10.7189622322215
30
0
41
1
10
90.1525105874462
20
-10.7232526826834
30
0
0
SPLINE
5
269
100
AcDbEntity
8
1
62
256
6
ByLayer
370
-1
48
1
60
0
100
AcDbSpline
70
4
71
3
72
10
73
6
40
0
40
0
40
0
40
0
40
0.517866865973617
40
0.517866865973617
40
1
40
1
40
1
40
1
41
1
10
88.8863858907938
20
-11.0195343949009
30
0
41
1
10
88.7755113944858
20
-11.2479284301305
30
0
41
1
10
88.6626632042916
20
-11.4763399784208
30
0
41
1
10
88.4417190837801
20
-11.9173547850768
30
0
41
1
10
88.3338245620036
20
-12.1299708834063
30
0
41
1
10
88.2247951858421
20
-12.3425594996966
30
0
0
SPLINE
5
26A
100
AcDbEntity
8
1
62
256
6
ByLayer
370
-1
48
1
60
0
100
AcDbSpline
70
4
71
3
72
10
73
6
40
0
40
0
40
0
40
0
40
0.732128243131923
40
0.732128243131923
40
1
40
1
40
1
40
1
41
1
10
90.1525105874462
20
-10.7232526826834
30
0
41
1
10
90.1114599624131
20
-10.7234790745012
30
0
41
1
10
90.074135177464
20
-10.7153517821021
30
0
41
1
10
90.0300960361266
20
-10.6972047269118
30
0
41
1
10
90.0188083586347
20
-10.6915627168273
30
0
41
1
10
90.0081554755107
20
-10.6852861176558
30
0
0
SPLINE
5
26B
100
AcDbEntity
8
1
62
256
6
ByLayer
370
-1
48
1
60
0
100
AcDbSpline
70
4
71
3
72
10
73
6
40
0
40
0
40
0
40
0
40
0.478255409340391
40
0.478255409340391
40
1
40
1
40
1
40
1
41
1
10
88.1205472454799
20
-12.2859442527682
30
0
41
1
10
88.2280664828358
20
-12.0773202839405
30
0
41
1
10
88.3345035538212
20
-11.8686826796861
30
0
41
1
10
88.554332414618
20
-11.4324426973222
30
0
41
1
10
88.6674856930629
20
-11.2048302348864
30
0
41
1
10
88.7787031544873
20
-10.9772565729075
30
0
0
SPLINE
5
26C
100
AcDbEntity
8
1
62
256
6
ByLayer
370
-1
48
1
60
0
100
AcDbSpline
70
4
71
3
72
10
73
6
40
0
40
0
40
0
40
0
40
0.391412264300148
40
0.391412264300148
40
1
40
1
40
1
40
1
41
1
10
90.6616216138783
20
-4.08786829183208
30
0
41
1
10
90.6753731021884
20
-4.02328022963317
30
0
41
1
10
90.6891246192895
20
-3.95869217604957
30
0
41
1
10
90.7242577566286
20
-3.7936793436605
30
0
41
1
10
90.7456394110397
20
-3.69325457526674
30
0
41
1
10
90.7670210854462
20
-3.59282981310284
30
0
0
SPLINE
5
26D
100
AcDbEntity
8
1
62
256
6
ByLayer
370
-1
48
1
60
0
100
AcDbSpline
70
4
71
3
72
14
73
10
40
0
40
0
40
0
40
0
40
0.25
40
0.25
40
0.5
40
0.5
40
0.75
40
0.75
40
1
40
1
40
1
40
1
41
1
10
88.7787031544873
20
-10.9772565729075
30
0
41
1
10
88.7777729342388
20
-10.3687972493776
30
0
41
1
10
88.7768584908825
20
-9.76021152167235
30
0
41
1
10
88.7755563928026
20
-8.54264409330742
30
0
41
1
10
88.7103248807802
20
-7.92596791460088
30
0
41
1
10
89.0234734879029
20
-6.72293484104995
30
0
41
1
10
89.3930085979836
20
-6.21613366394141
30
0
41
1
10
90.0273090158754
20
-5.15199711331371
30
0
41
1
10
90.3444700774522
20
-4.61993560770566
30
0
41
1
10
90.6616216138783
20
-4.08786829183208
30
0
0
SPLINE
5
26E
100
AcDbEntity
8
1
62
256
6
ByLayer
370
-1
48
1
60
0
100
AcDbSpline
70
4
71
3
72
12
73
8
40
0
40
0
40
0
40
0
40
0.0143412310806363
40
0.0143412310806363
40
0.547790989098494
40
0.547790989098494
40
1
40
1
40
1
40
1
41
1
10
91.0491743737434
20
-11.2875468612465
30
0
41
1
10
91.0496195203395
20
-11.2887684259125
30
0
41
1
10
91.0500644842427
20
-11.2899910808303
30
0
41
1
10
91.0670905537182
20
-11.3367470957458
30
0
41
1
10
91.0842265410352
20
-11.3838816964634
30
0
41
1
10
91.1162714274034
20
-11.4704372825004
30
0
41
1
10
91.1313487479883
20
-11.5106000067882
30
0
41
1
10
91.1463028510528
20
-11.5487384414599
30
0
0
SPLINE
5
26F
100
AcDbEntity
8
1
62
256
6
ByLayer
370
-1
48
1
60
0
100
AcDbSpline
70
4
71
3
72
10
73
6
40
0
40
0
40
0
40
0
40
0.266814892217345
40
0.266814892217345
40
1
40
1
40
1
40
1
41
1
10
91.1463028510528
20
-11.5487384414599
30
0
41
1
10
91.1519036582372
20
-11.5630225491721
30
0
41
1
10
91.1585236678266
20
-11.5768503409317
30
0
41
1
10
91.1858927050341
20
-11.6265166266058
30
0
41
1
10
91.2114037804845
20
-11.6595638477541
30
0
41
1
10
91.2395998027814
20
-11.6891641366123
30
0
0
SPLINE
5
270
100
AcDbEntity
8
1
62
256
6
ByLayer
370
-1
48
1
60
0
100
AcDbSpline
70
4
71
3
72
12
73
8
40
0
40
0
40
0
40
0
40
0.133148321068528
40
0.133148321068528
40
0.702614877346734
40
0.702614877346734
40
1
40
1
40
1
40
1
41
1
10
90.363025511477
20
-2.77167767715625
30
0
41
1
10
90.2710722577591
20
-2.9259413114506
30
0
41
1
10
90.1791185733684
20
-3.0802047169156
30
0
41
1
10
89.6938845286921
20
-3.89424222900976
30
0
41
1
10
89.3006131355992
20
-4.5540210887365
30
0
41
1
10
88.7020178283766
20
-5.55826249758746
30
0
41
1
10
88.4689383072882
20
-5.89027747359734
30
0
41
1
10
88.3141378540863
20
-6.25750844518527
30
0
0
SPLINE
5
271
100
AcDbEntity
8
1
62
256
6
ByLayer
370
-1
48
1
60
0
100
AcDbSpline
70
4
71
3
72
12
73
8
40
0
40
0
40
0
40
0
40
0.249999999999999
40
0.249999999999999
40
0.499999999999998
40
0.499999999999998
40
1
40
1
40
1
40
1
41
1
10
88.3141378540863
20
-6.25750844518527
30
0
41
1
10
88.1319280850192
20
-6.68976215726298
30
0
41
1
10
88.0938170070655
20
-7.15633111821694
30
0
41
1
10
87.9593556759846
20
-8.07462708281287
30
0
41
1
10
87.8922203730959
20
-8.53181941219398
30
0
41
1
10
87.693140303188
20
-9.90298563426501
30
0
41
1
10
87.5595209704994
20
-10.8173731653669
30
0
41
1
10
87.4255335111436
20
-11.731995187242
30
0
0
SPLINE
5
272
100
AcDbEntity
8
1
62
256
6
ByLayer
370
-1
48
1
60
0
100
AcDbSpline
70
4
71
3
72
12
73
8
40
0
40
0
40
0
40
0
40
0.500000000000003
40
0.500000000000003
40
0.750000000000001
40
0.750000000000001
40
1
40
1
40
1
40
1
41
1
10
87.2837857265029
20
-11.6371980818314
30
0
41
1
10
87.4116565320749
20
-10.7227176337197
30
0
41
1
10
87.5388208190262
20
-9.80814827290908
30
0
41
1
10
87.7280779488098
20
-8.43610680883674
30
0
41
1
10
87.7933222230712
20
-7.97919042014374
30
0
41
1
10
87.9338015236291
20
-7.06794482567071
30
0
41
1
10
87.9839453138506
20
-6.60726358470959
30
0
41
1
10
88.1608845557394
20
-6.17849875115556
30
0
0
SPLINE
5
273
100
AcDbEntity
8
1
62
256
6
ByLayer
370
-1
48
1
60
0
100
AcDbSpline
70
4
71
3
72
12
73
8
40
0
40
0
40
0
40
0
40
0.327536934741047
40
0.327536934741047
40
0.689545574034048
40
0.689545574034048
40
1
40
1
40
1
40
1
41
1
10
88.1608845557394
20
-6.1784987511557
30
0
41
1
10
88.2779057839414
20
-5.78956491129028
30
0
41
1
10
88.5316610611681
20
-5.45152506727925
30
0
41
1
10
88.9726617850174
20
-4.71167117488025
30
0
41
1
10
89.2042811652549
20
-4.32307018174063
30
0
41
1
10
89.6345586381581
20
-3.6012219786235
30
0
41
1
10
89.8332073212346
20
-3.26796986104804
30
0
41
1
10
90.031854155584
20
-2.93471677924248
30
0
0
SPLINE
5
274
100
AcDbEntity
8
1
62
256
6
ByLayer
370
-1
48
1
60
0
100
AcDbSpline
70
4
71
3
72
8
73
4
40
0
40
0
40
0
40
0
40
1
40
1
40
1
40
1
41
1
10
90.721113845714
20
-12.8949689355029
30
0
41
1
10
90.723253230161
20
-12.942840746517
30
0
41
1
10
90.7444975713577
20
-12.9970176955017
30
0
41
1
10
90.7670210854462
20
-13.0120407788695
30
0
0
SPLINE
5
275
100
AcDbEntity
8
1
62
256
6
ByLayer
370
-1
48
1
60
0
100
AcDbSpline
70
4
71
3
72
8
73
4
40
0
40
0
40
0
40
0
40
1
40
1
40
1
40
1
41
1
10
99.124700190789
20
-8.37075271149556
30
0
41
1
10
99.1612025201451
20
-8.35527654206487
30
0
41
1
10
99.2010718768137
20
-8.30660999323246
30
0
41
1
10
99.2108545270245
20
-8.26558838074465
30
0
0
SPLINE
5
276
100
AcDbEntity
8
1
62
256
6
ByLayer
370
-1
48
1
60
0
100
AcDbSpline
70
4
71
3
72
14
73
10
40
0
40
0
40
0
40
0
40
0.230106848183431
40
0.230106848183431
40
0.557861158783428
40
0.557861158783428
40
0.896229002650376
40
0.896229002650376
40
1
40
1
40
1
40
1
41
1
10
90.8664569627731
20
-12.8685073813293
30
0
41
1
10
90.858211271726
20
-12.8833083966222
30
0
41
1
10
90.8494928603535
20
-12.8979006243223
30
0
41
1
10
90.8290807003173
20
-12.9305349018061
30
0
41
1
10
90.8172233292236
20
-12.948186555219
30
0
41
1
10
90.7949555397561
20
-12.9792745650804
30
0
41
1
10
90.7842604924612
20
-12.9930339282862
30
0
41
1
10
90.7722545336147
20
-13.0066220214906
30
0
41
1
10
90.7695467780259
20
-13.0095254953143
30
0
41
1
10
90.7670210854462
20
-13.0120407788695
30
0
0
SPLINE
5
277
100
AcDbEntity
8
1
62
256
6
ByLayer
370
-1
48
1
60
0
100
AcDbSpline
70
4
71
3
72
12
73
8
40
0
40
0
40
0
40
0
40
0.330584430932527
40
0.330584430932527
40
0.914285519682805
40
0.914285519682805
40
1
40
1
40
1
40
1
41
1
10
99.915320023648
20
-7.99393627893332
30
0
41
1
10
99.9148921641321
20
-7.95303633063713
30
0
41
1
10
99.9145925263603
20
-7.9087028010515
30
0
41
1
10
99.9139861375442
20
-7.78834695748765
30
0
41
1
10
99.9138305750172
20
-7.71044283754375
30
0
41
1
10
99.9138500681998
20
-7.62556911808639
30
0
41
1
10
99.9138565947644
20
-7.61466006344992
30
0
41
1
10
99.9138671710338
20
-7.6038283590311
30
0
0
SPLINE
5
278
100
AcDbEntity
8
1
62
256
6
ByLayer
370
-1
48
1
60
0
100
AcDbSpline
70
4
71
3
72
12
73
8
40
0
40
0
40
0
40
0
40
0.467747243448105
40
0.467747243448105
40
0.914074073580865
40
0.914074073580865
40
1
40
1
40
1
40
1
41
1
10
93.4965541927497
20
-0.986329955120681
30
0
41
1
10
93.4724483164032
20
-0.999880363875803
30
0
41
1
10
93.4480499121708
20
-1.01493206582805
30
0
41
1
10
93.4041769525742
20
-1.04465580924148
30
0
41
1
10
93.3838800067904
20
-1.05975892821911
30
0
41
1
10
93.3633874987385
20
-1.07684043890748
30
0
41
1
10
93.3601416211387
20
-1.0796137042237
30
0
41
1
10
93.3570169130464
20
-1.08235452277955
30
0
0
SPLINE
5
279
100
AcDbEntity
8
1
62
256
6
ByLayer
370
-1
48
1
60
0
100
AcDbSpline
70
4
71
3
72
10
73
6
40
0
40
0
40
0
40
0
40
0.410984291904083
40
0.410984291904083
40
1
40
1
40
1
40
1
41
1
10
92.6848900699034
20
-1.64226947020799
30
0
41
1
10
92.7830713110142
20
-1.56441046909114
30
0
41
1
10
92.8788765563129
20
-1.48687968193144
30
0
41
1
10
93.1056289242791
20
-1.29958731330279
30
0
41
1
10
93.2340242253618
20
-1.19023680511941
30
0
41
1
10
93.3570169130434
20
-1.08235452278208
30
0
0
SPLINE
5
27A
100
AcDbEntity
8
1
62
256
6
ByLayer
370
-1
48
1
60
0
100
AcDbSpline
70
4
71
3
72
14
73
10
40
0
40
0
40
0
40
0
40
0.264919990892629
40
0.264919990892629
40
0.530416812891422
40
0.530416812891422
40
0.787654584874248
40
0.787654584874248
40
1
40
1
40
1
40
1
41
1
10
92.5804968558916
20
-1.69979517836239
30
0
41
1
10
92.5882765099169
20
-1.69735374280154
30
0
41
1
10
92.5971826785691
20
-1.69390987114957
30
0
41
1
10
92.6158820401505
20
-1.68549646082855
30
0
41
1
10
92.6259428907987
20
-1.68040203718991
30
0
41
1
10
92.6454161015004
20
-1.66946303153245
30
0
41
1
10
92.6551115802609
20
-1.66349223001785
30
0
41
1
10
92.6714918623848
20
-1.65244306462941
30
0
41
1
10
92.6785749405748
20
-1.64727744990037
30
0
41
1
10
92.6848900699044
20
-1.6422694702093
30
0
0
SPLINE
5
27B
100
AcDbEntity
8
1
62
256
6
ByLayer
370
-1
48
1
60
0
100
AcDbSpline
70
4
71
3
72
8
73
4
40
0
40
0
40
0
40
0
40
1
40
1
40
1
40
1
41
1
10
99.9153200236381
20
-7.99393627893156
30
0
41
1
10
99.9154527788028
20
-8.00662661108609
30
0
41
1
10
99.9155855340094
20
-8.01931694217515
30
0
41
1
10
99.9157182892571
20
-8.0320072722061
30
0
0
SPLINE
5
27C
100
AcDbEntity
8
1
62
256
6
ByLayer
370
-1
48
1
60
0
100
AcDbSpline
70
4
71
3
72
16
73
12
40
0
40
0
40
0
40
0
40
0.164710736630273
40
0.164710736630273
40
0.331370362656728
40
0.331370362656728
40
0.47644633650043
40
0.47644633650043
40
0.702801041235943
40
0.702801041235943
40
1
40
1
40
1
40
1
41
1
10
96.6579268809992
20
-0.327923347950474
30
0
41
1
10
96.6454283741377
20
-0.327054347200857
30
0
41
1
10
96.632747421932
20
-0.327766195670051
30
0
41
1
10
96.6090074825433
20
-0.333493139665933
30
0
41
1
10
96.5976826985656
20
-0.338698763709772
30
0
41
1
10
96.5798286771985
20
-0.351846799080704
30
0
41
1
10
96.572635659931
20
-0.359455878628921
30
0
41
1
10
96.5576226379279
20
-0.380731187101077
30
0
41
1
10
96.5513270156787
20
-0.395705642268837
30
0
41
1
10
96.5417277645207
20
-0.431244210253425
30
0
41
1
10
96.5397472673466
20
-0.452619404893483
30
0
41
1
10
96.5400367645704
20
-0.473901701560095
30
0
0
SPLINE
5
27D
100
AcDbEntity
8
1
62
256
6
ByLayer
370
-1
48
1
60
0
100
AcDbSpline
70
4
71
3
72
16
73
12
40
0
40
0
40
0
40
0
40
0.343443954228555
40
0.343443954228555
40
0.535083245610817
40
0.535083245610817
40
0.693553557835086
40
0.693553557835086
40
0.853171508912961
40
0.853171508912961
40
1
40
1
40
1
40
1
41
1
10
98.0163031872771
20
-2.93765250809997
30
0
41
1
10
98.0389349071374
20
-2.95146935898708
30
0
41
1
10
98.0634384894612
20
-2.96318662145242
30
0
41
1
10
98.1031204582827
20
-2.97406220555129
30
0
41
1
10
98.1179194198413
20
-2.97648951633641
30
0
41
1
10
98.1444061009848
20
-2.97654489071539
30
0
41
1
10
98.1564352453171
20
-2.97487321487807
30
0
41
1
10
98.1785029877545
20
-2.96751724145386
30
0
41
1
10
98.1887876442742
20
-2.96167012185666
30
0
41
1
10
98.2052945821591
20
-2.94754971524114
30
0
41
1
10
98.2119935434138
20
-2.9393942484908
30
0
41
1
10
98.2174584029396
20
-2.93063582986022
30
0
0
SPLINE
5
27E
100
AcDbEntity
8
1
62
256
6
ByLayer
370
-1
48
1
60
0
100
AcDbSpline
70
4
71
3
72
12
73
8
40
0
40
0
40
0
40
0
40
0.261466805566844
40
0.261466805566844
40
0.727154521522405
40
0.727154521522405
40
1
40
1
40
1
40
1
41
1
10
96.5670610387542
20
-1.87740034968422
30
0
41
1
10
96.5724576698486
20
-1.90322720213976
30
0
41
1
10
96.5797663918419
20
-1.92904652306316
30
0
41
1
10
96.6065391274636
20
-1.99864518139404
30
0
41
1
10
96.6319401475232
20
-2.0414693775985
30
0
41
1
10
96.6820628646812
20
-2.10092295108726
30
0
41
1
10
96.7027878780401
20
-2.12145269224919
30
0
41
1
10
96.7247396138255
20
-2.14055116753852
30
0
0
SPLINE
5
27F
100
AcDbEntity
8
1
62
256
6
ByLayer
370
-1
48
1
60
0
100
AcDbSpline
70
4
71
3
72
14
73
10
40
0
40
0
40
0
40
0
40
0.327529474127719
40
0.327529474127719
40
0.665666599581777
40
0.665666599581777
40
0.915673055310688
40
0.915673055310688
40
1
40
1
40
1
40
1
41
1
10
90.7670210854462
20
-3.59282981310284
30
0
41
1
10
90.7748997964667
20
-3.61029438580297
30
0
41
1
10
90.7845618246524
20
-3.63011874363897
30
0
41
1
10
90.8056490791413
20
-3.6713567455694
30
0
41
1
10
90.8174496225001
20
-3.69344131779871
30
0
41
1
10
90.8385795706322
20
-3.73119386180008
30
0
41
1
10
90.8479729979697
20
-3.74742535396183
30
0
41
1
10
90.8602788450534
20
-3.76764056920331
30
0
41
1
10
90.8633999277789
20
-3.77267315393624
30
0
41
1
10
90.8664569627731
20
-3.77748678050551
30
0
0
SPLINE
5
280
100
AcDbEntity
8
1
62
256
6
ByLayer
370
-1
48
1
60
0
100
AcDbSpline
70
4
71
3
72
14
73
10
40
0
40
0
40
0
40
0
40
0.25
40
0.25
40
0.5
40
0.5
40
0.75
40
0.75
40
1
40
1
40
1
40
1
41
1
10
98.7999182453456
20
-8.05512599527333
30
0
41
1
10
98.484418446135
20
-7.52858896720377
30
0
41
1
10
98.1689265025112
20
-7.00204752078403
30
0
41
1
10
97.5379260345296
20
-5.94897395372641
30
0
41
1
10
97.263709618857
20
-5.39255287451275
30
0
41
1
10
96.3540207259827
20
-4.53701807663975
30
0
41
1
10
95.7782439819418
20
-4.28327403984937
30
0
41
1
10
94.6984557821174
20
-3.67911126647874
30
0
41
1
10
94.158285590588
20
-3.37746660288136
30
0
41
1
10
93.6179408041958
20
-3.07609811430316
30
0
0
SPLINE
5
281
100
AcDbEntity
8
1
62
256
6
ByLayer
370
-1
48
1
60
0
100
AcDbSpline
70
4
71
3
72
10
73
6
40
0
40
0
40
0
40
0
40
0.226375763220932
40
0.226375763220932
40
1
40
1
40
1
40
1
41
1
10
93.8723924860753
20
-4.03139438101539
30
0
41
1
10
93.8215707543833
20
-4.02850617991291
30
0
41
1
10
93.7709313111648
20
-4.02642485598096
30
0
41
1
10
93.5483052599172
20
-4.02078527030568
30
0
41
1
10
93.3783106579612
20
-4.02579093497008
30
0
41
1
10
93.2115039231935
20
-4.0400864092104
30
0
0
SPLINE
5
282
100
AcDbEntity
8
1
62
256
6
ByLayer
370
-1
48
1
60
0
100
AcDbSpline
70
4
71
3
72
8
73
4
40
0
40
0
40
0
40
0
40
1
40
1
40
1
40
1
41
1
10
99.0160847868341
20
-8.28743401021492
30
0
41
1
10
98.9387151212782
20
-8.22808388553494
30
0
41
1
10
98.8613454072674
20
-8.16873378139866
30
0
41
1
10
98.783975615446
20
-8.10938371025253
30
0
0
SPLINE
5
283
100
AcDbEntity
8
1
62
256
6
ByLayer
370
-1
48
1
60
0
100
AcDbSpline
70
4
71
3
72
12
73
8
40
0
40
0
40
0
40
0
40
0.452209010901458
40
0.452209010901458
40
0.98565876891945
40
0.98565876891945
40
1
40
1
40
1
40
1
41
1
10
93.0717133349501
20
-4.0800109835516
30
0
41
1
10
93.0424750850507
20
-4.09728120099388
30
0
41
1
10
93.0114313246261
20
-4.11905279597624
30
0
41
1
10
92.9437145811917
20
-4.17086945864807
30
0
41
1
10
92.9063361948044
20
-4.20225575673044
30
0
41
1
10
92.8685818214229
20
-4.23590548065809
30
0
41
1
10
92.8675943102936
20
-4.23678738339117
30
0
41
1
10
92.8666066891515
20
-4.23767009444794
30
0
0
SPLINE
5
284
100
AcDbEntity
8
1
62
256
6
ByLayer
370
-1
48
1
60
0
100
AcDbSpline
70
4
71
3
72
10
73
6
40
0
40
0
40
0
40
0
40
0.27419086439185
40
0.27419086439185
40
1
40
1
40
1
40
1
41
1
10
93.2115039231935
20
-4.0400864092104
30
0
41
1
10
93.1977033381037
20
-4.04127110476813
30
0
41
1
10
93.1840559164569
20
-4.04303830793759
30
0
41
1
10
93.1354655476651
20
-4.05179004615931
30
0
41
1
10
93.1012647459175
20
-4.06255579061462
30
0
41
1
10
93.0717133349501
20
-4.0800109835516
30
0
0
SPLINE
5
285
100
AcDbEntity
8
1
62
256
6
ByLayer
370
-1
48
1
60
0
100
AcDbSpline
70
4
71
3
72
8
73
4
40
0
40
0
40
0
40
0
40
1
40
1
40
1
40
1
41
1
10
90.9000561095986
20
-3.61967920713278
30
0
41
1
10
90.8888563873415
20
-3.67228172939915
30
0
41
1
10
90.8776566699254
20
-3.72488425326097
30
0
41
1
10
90.866456962773
20
-3.77748678050551
30
0
0
SPLINE
5
286
100
AcDbEntity
8
1
62
256
6
ByLayer
370
-1
48
1
60
0
100
AcDbSpline
70
4
71
3
72
10
73
6
40
0
40
0
40
0
40
0
40
0.726371168591184
40
0.726371168591184
40
1
40
1
40
1
40
1
41
1
10
91.6274629143225
20
-4.40394194081904
30
0
41
1
10
91.6650389770454
20
-4.38593390703528
30
0
41
1
10
91.7048336348704
20
-4.37381745461337
30
0
41
1
10
91.7597765958414
20
-4.36939338409255
30
0
41
1
10
91.7750057856297
20
-4.36946397546194
30
0
41
1
10
91.790080997874
20
-4.37106586802332
30
0
0
SPLINE
5
287
100
AcDbEntity
8
1
62
256
6
ByLayer
370
-1
48
1
60
0
100
AcDbSpline
70
4
71
3
72
12
73
8
40
0
40
0
40
0
40
0
40
0.454187976028979
40
0.454187976028979
40
0.987490284578582
40
0.987490284578582
40
1
40
1
40
1
40
1
41
1
10
91.790080997874
20
-4.37106586802332
30
0
41
1
10
91.8221764617216
20
-4.3797748969495
30
0
41
1
10
91.8576090020783
20
-4.39308128183293
30
0
41
1
10
91.9356701854903
20
-4.42700005732274
30
0
41
1
10
91.9794843529133
20
-4.4489314996795
30
0
41
1
10
92.0237740544792
20
-4.47314141387201
30
0
41
1
10
92.0247883452196
20
-4.47369724897493
30
0
41
1
10
92.0258028144452
20
-4.47425372711868
30
0
0
SPLINE
5
288
100
AcDbEntity
8
1
62
256
6
ByLayer
370
-1
48
1
60
0
100
AcDbSpline
70
4
71
3
72
12
73
8
40
0
40
0
40
0
40
0
40
0.0125097154214419
40
0.0125097154214419
40
0.545812023971056
40
0.545812023971056
40
1
40
1
40
1
40
1
41
1
10
92.8666066891515
20
-4.23767009444794
30
0
41
1
10
92.8671593318896
20
-4.2366726656231
30
0
41
1
10
92.8677118082576
20
-4.23567597687381
30
0
41
1
10
92.8918534401736
20
-4.19221099743862
30
0
41
1
10
92.9161757461265
20
-4.1511074569583
30
0
41
1
10
92.9608754441045
20
-4.08264648186306
30
0
41
1
10
92.9817133021303
20
-4.05350685017663
30
0
41
1
10
93.0015644545359
20
-4.03018119120409
30
0
0
SPLINE
5
289
100
AcDbEntity
8
1
62
256
6
ByLayer
370
-1
48
1
60
0
100
AcDbSpline
70
4
71
3
72
10
73
6
40
0
40
0
40
0
40
0
40
0.51786686597361
40
0.51786686597361
40
1
40
1
40
1
40
1
41
1
10
93.5557664738828
20
-3.08742726675194
30
0
41
1
10
93.385100065383
20
-2.84976601812375
30
0
41
1
10
93.2157786793057
20
-2.61097559181641
30
0
41
1
10
92.8909678644369
20
-2.14819265363616
30
0
41
1
10
92.7353253435668
20
-1.9243041639499
30
0
41
1
10
92.5804968558912
20
-1.69979517836183
30
0
0
SPLINE
5
28A
100
AcDbEntity
8
1
62
256
6
ByLayer
370
-1
48
1
60
0
100
AcDbSpline
70
4
71
3
72
10
73
6
40
0
40
0
40
0
40
0
40
0.732128243132122
40
0.732128243132122
40
1
40
1
40
1
40
1
41
1
10
93.0015644545359
20
-4.03018119120409
30
0
41
1
10
93.0296886822244
20
-4.0068011790535
30
0
41
1
10
93.0642828591476
20
-3.99192754717913
30
0
41
1
10
93.1143659359758
20
-3.9809347402724
30
0
41
1
10
93.1282754381977
20
-3.97887621680226
30
0
41
1
10
93.1424333360424
20
-3.97766273761664
30
0
0
SPLINE
5
28B
100
AcDbEntity
8
1
62
256
6
ByLayer
370
-1
48
1
60
0
100
AcDbSpline
70
4
71
3
72
10
73
6
40
0
40
0
40
0
40
0
40
0.478255409340374
40
0.478255409340374
40
1
40
1
40
1
40
1
41
1
10
92.6848900699044
20
-1.64226947020933
30
0
41
1
10
92.8366882645457
20
-1.86320436092055
30
0
41
1
10
92.9892575264778
20
-2.08355016504814
30
0
41
1
10
93.3101652149427
20
-2.5427634757946
30
0
41
1
10
93.4786812823655
20
-2.78150661603524
30
0
41
1
10
93.6485079118422
20
-3.01914708520064
30
0
0
SPLINE
5
28C
100
AcDbEntity
8
1
62
256
6
ByLayer
370
-1
48
1
60
0
100
AcDbSpline
70
4
71
3
72
10
73
6
40
0
40
0
40
0
40
0
40
0.391412264300151
40
0.391412264300151
40
1
40
1
40
1
40
1
41
1
10
98.8701298345476
20
-8.00421925723992
30
0
41
1
10
98.9145844970806
20
-8.03832025425712
30
0
41
1
10
98.9590391337207
20
-8.07242126578015
30
0
41
1
10
99.0726140495975
20
-8.15954429755345
30
0
41
1
10
99.1417342976208
20
-8.21256633447459
30
0
41
1
10
99.2108545270245
20
-8.26558838074462
30
0
0
SPLINE
5
28D
100
AcDbEntity
8
1
62
256
6
ByLayer
370
-1
48
1
60
0
100
AcDbSpline
70
4
71
3
72
14
73
10
40
0
40
0
40
0
40
0
40
0.25
40
0.25
40
0.5
40
0.5
40
0.75
40
0.75
40
1
40
1
40
1
40
1
41
1
10
93.6485079118422
20
-3.01914708520064
30
0
41
1
10
94.1938252856092
20
-3.31934328475745
30
0
41
1
10
94.7391182850683
20
-3.61942731197109
30
0
41
1
10
95.8293801942629
20
-4.21963295016329
30
0
41
1
10
96.4121740776218
20
-4.46678544266658
30
0
41
1
10
97.3302271893122
20
-5.32181700893221
30
0
41
1
10
97.6015197871137
20
-5.88702436823561
30
0
41
1
10
98.2358308340602
20
-6.94561789529507
30
0
41
1
10
98.552975608168
20
-7.47492152281654
30
0
41
1
10
98.8701298345476
20
-8.00421925723992
30
0
0
SPLINE
5
28E
100
AcDbEntity
8
1
62
256
6
ByLayer
370
-1
48
1
60
0
100
AcDbSpline
70
4
71
3
72
10
73
6
40
0
40
0
40
0
40
0
40
0.226375575408397
40
0.226375575408397
40
1
40
1
40
1
40
1
41
1
10
91.6089165708523
20
-4.49101908078205
30
0
41
1
10
91.560498955192
20
-4.5142023943601
30
0
41
1
10
91.5122943803734
20
-4.53819733472653
30
0
41
1
10
91.3005489581889
20
-4.64764747819805
30
0
41
1
10
91.1393278968512
20
-4.74173121618963
30
0
41
1
10
90.9816514616275
20
-4.84478503399401
30
0
0
SPLINE
5
28F
100
AcDbEntity
8
1
62
256
6
ByLayer
370
-1
48
1
60
0
100
AcDbSpline
70
4
71
3
72
12
73
8
40
0
40
0
40
0
40
0
40
0.014341231080616
40
0.014341231080616
40
0.547790989098403
40
0.547790989098403
40
1
40
1
40
1
40
1
41
1
10
92.0258028144452
20
-4.47425372711868
30
0
41
1
10
92.024483430502
20
-4.47402015631937
30
0
41
1
10
92.0231641549836
20
-4.4737873323802
30
0
41
1
10
91.9727462091105
20
-4.46494735091213
30
0
41
1
10
91.9232994555712
20
-4.45799172879202
30
0
41
1
10
91.8351871793031
20
-4.45002190920189
30
0
41
1
10
91.7953647578772
20
-4.44819049199472
30
0
41
1
10
91.7589003503622
20
-4.44940755064002
30
0
0
SPLINE
5
290
100
AcDbEntity
8
1
62
256
6
ByLayer
370
-1
48
1
60
0
100
AcDbSpline
70
4
71
3
72
10
73
6
40
0
40
0
40
0
40
0
40
0.266814892217341
40
0.266814892217341
40
1
40
1
40
1
40
1
41
1
10
91.7589003503622
20
-4.44940755064002
30
0
41
1
10
91.7452432212984
20
-4.44986337943664
30
0
41
1
10
91.7315299747512
20
-4.45146847398996
30
0
41
1
10
91.680799092009
20
-4.46072227072619
30
0
41
1
10
91.6440436072424
20
-4.47397119761303
30
0
41
1
10
91.6089165708523
20
-4.49101908078208
30
0
0
SPLINE
5
291
100
AcDbEntity
8
1
62
256
6
ByLayer
370
-1
48
1
60
0
100
AcDbSpline
70
4
71
3
72
12
73
8
40
0
40
0
40
0
40
0
40
0.133148321068523
40
0.133148321068523
40
0.702614877346732
40
0.702614877346732
40
1
40
1
40
1
40
1
41
1
10
99.9153200236493
20
-7.99393627893542
30
0
41
1
10
99.8233670030114
20
-7.84047499422937
30
0
41
1
10
99.731414414331
20
-7.6870134769305
30
0
41
1
10
99.2461872326361
20
-6.87720693488629
30
0
41
1
10
98.8529036441219
20
-6.22086674159615
30
0
41
1
10
98.2542932076006
20
-5.22185918053225
30
0
41
1
10
98.0730071249345
20
-4.8605443535389
30
0
41
1
10
97.8209142345331
20
-4.54755355401127
30
0
0
SPLINE
5
292
100
AcDbEntity
8
1
62
256
6
ByLayer
370
-1
48
1
60
0
100
AcDbSpline
70
4
71
3
72
12
73
8
40
0
40
0
40
0
40
0
40
0.250000000000006
40
0.250000000000006
40
0.500000000000011
40
0.500000000000011
40
1
40
1
40
1
40
1
41
1
10
97.8209142345331
20
-4.54755355401127
30
0
41
1
10
97.5241852108531
20
-4.17914390066252
30
0
41
1
10
97.1274634278623
20
-3.91917434727338
30
0
41
1
10
96.3743196109086
20
-3.35446155156251
30
0
41
1
10
95.997434948415
20
-3.07022989469223
30
0
41
1
10
94.8652127505876
20
-2.21857645095389
30
0
41
1
10
94.1109890012884
20
-1.65047732666724
30
0
41
1
10
93.3570169130323
20
-1.08235452276898
30
0
0
SPLINE
5
293
100
AcDbEntity
8
1
62
256
6
ByLayer
370
-1
48
1
60
0
100
AcDbSpline
70
4
71
3
72
12
73
8
40
0
40
0
40
0
40
0
40
0.5
40
0.5
40
0.75
40
0.75
40
1
40
1
40
1
40
1
41
1
10
93.4965541927497
20
-0.986329955120709
30
0
41
1
10
94.2519028014109
20
-1.54697623142116
30
0
41
1
10
95.0076871388216
20
-2.1070755058509
30
0
41
1
10
96.1422821360975
20
-2.94607136899109
30
0
41
1
10
96.5190065829453
20
-3.22732892655154
30
0
41
1
10
97.2651017427867
20
-3.79691935629881
30
0
41
1
10
97.6528104976134
20
-4.06741075814676
30
0
41
1
10
97.9480141151197
20
-4.42815251145731
30
0
0
SPLINE
5
294
100
AcDbEntity
8
1
62
256
6
ByLayer
370
-1
48
1
60
0
100
AcDbSpline
70
4
71
3
72
12
73
8
40
0
40
0
40
0
40
0
40
0.327536934741043
40
0.327536934741043
40
0.689545574034056
40
0.689545574034056
40
1
40
1
40
1
40
1
41
1
10
97.9480141151198
20
-4.42815251145734
30
0
41
1
10
98.2377047149276
20
-4.7190040405776
30
0
41
1
10
98.4136438948383
20
-5.10012902618746
30
0
41
1
10
98.8546592157705
20
-5.8361263460732
30
0
41
1
10
99.0863044885633
20
-6.22269217211465
30
0
41
1
10
99.5165819790607
20
-6.94078510530827
30
0
41
1
10
99.715223646704
20
-7.27230722235296
30
0
41
1
10
99.913867171034
20
-7.60382835900799
30
0
0
SPLINE
5
295
100
AcDbEntity
8
1
62
256
6
ByLayer
370
-1
48
1
60
0
100
AcDbSpline
70
4
71
1
72
4
73
2
40
0
40
0
40
1
40
1
41
1
10
90.3920718348889
20
-2.76168771027471
30
0
41
1
10
90.7670210854462
20
-3.59282981310284
30
0
0
SPLINE
5
296
100
AcDbEntity
8
1
62
256
6
ByLayer
370
-1
48
1
60
0
100
AcDbSpline
70
4
71
3
72
8
73
4
40
0
40
0
40
0
40
0
40
1
40
1
40
1
40
1
41
1
10
90.9000560434578
20
-3.61967951778092
30
0
41
1
10
90.8627231499383
20
-3.60737531323636
30
0
41
1
10
90.8011590032903
20
-3.594950164381
30
0
41
1
10
90.7670210854462
20
-3.59282981310284
30
0
0
SPLINE
5
297
100
AcDbEntity
8
1
62
256
6
ByLayer
370
-1
48
1
60
0
100
AcDbSpline
70
4
71
3
72
12
73
8
40
0
40
0
40
0
40
0
40
0.330584430932516
40
0.330584430932516
40
0.914285519682903
40
0.914285519682903
40
1
40
1
40
1
40
1
41
1
10
90.3630255114757
20
-2.77167767715841
30
0
41
1
10
90.3318208302712
20
-2.78240997604775
30
0
41
1
10
90.2959018590893
20
-2.79783265673149
30
0
41
1
10
90.1957473413775
20
-2.84448215407099
30
0
41
1
10
90.1278955074073
20
-2.88014761113129
30
0
41
1
10
90.0515618695677
20
-2.92336651196578
30
0
41
1
10
90.0416991818939
20
-2.92901438819914
30
0
41
1
10
90.0318541556047
20
-2.93471677923088
30
0
0
SPLINE
5
298
100
AcDbEntity
8
1
62
256
6
ByLayer
370
-1
48
1
60
0
100
AcDbSpline
70
4
71
3
72
12
73
8
40
0
40
0
40
0
40
0
40
0.467747243448134
40
0.467747243448134
40
0.914074073580852
40
0.914074073580852
40
1
40
1
40
1
40
1
41
1
10
87.2837857265029
20
-11.6371980818314
30
0
41
1
10
87.3078916028493
20
-11.6505381057682
30
0
41
1
10
87.3324580287017
20
-11.6653761366483
30
0
41
1
10
87.3769671821422
20
-11.6947142011814
30
0
41
1
10
87.3977283781733
20
-11.7096381520262
30
0
41
1
10
87.4189199723413
20
-11.7265377630369
30
0
41
1
10
87.4222850852298
20
-11.7292821795361
30
0
41
1
10
87.4255335111459
20
-11.7319951872249
30
0
0
SPLINE
5
299
100
AcDbEntity
8
1
62
256
6
ByLayer
370
-1
48
1
60
0
100
AcDbSpline
70
4
71
3
72
10
73
6
40
0
40
0
40
0
40
0
40
0.410984291904105
40
0.410984291904105
40
1
40
1
40
1
40
1
41
1
10
88.1205472454794
20
-12.2859442527697
30
0
41
1
10
88.0195168343365
20
-12.208954564734
30
0
41
1
10
87.9207358071502
20
-12.1322729065766
30
0
41
1
10
87.6864637379632
20
-11.9469923408189
30
0
41
1
10
87.5533958977693
20
-11.8387827966624
30
0
41
1
10
87.425533511149
20
-11.7319951872275
30
0
0
SPLINE
5
29A
100
AcDbEntity
8
1
62
256
6
ByLayer
370
-1
48
1
60
0
100
AcDbSpline
70
4
71
3
72
14
73
10
40
0
40
0
40
0
40
0
40
0.264919990892454
40
0.264919990892454
40
0.530416812891421
40
0.530416812891421
40
0.787654584874482
40
0.787654584874482
40
1
40
1
40
1
40
1
41
1
10
88.2247951858424
20
-12.342559499696
30
0
41
1
10
88.217258311645
20
-12.3401849018838
30
0
41
1
10
88.2085485203914
20
-12.3368179021641
30
0
41
1
10
88.1901128295104
20
-12.328566540531
30
0
41
1
10
88.1801224860221
20
-12.3235596156162
30
0
41
1
10
88.160650191115
20
-12.312790559041
30
0
41
1
10
88.1508892594316
20
-12.3069046607533
30
0
41
1
10
88.1342775336689
20
-12.2959994647748
30
0
41
1
10
88.1270456366734
20
-12.2908963172511
30
0
41
1
10
88.12054724548
20
-12.2859442527682
30
0
0
SPLINE
5
29B
100
AcDbEntity
8
1
62
256
6
ByLayer
370
-1
48
1
60
0
100
AcDbSpline
70
4
71
3
72
8
73
4
40
0
40
0
40
0
40
0
40
1
40
1
40
1
40
1
41
1
10
99.7300319397739
20
0.892145281020873
30
0
41
1
10
99.7342385582237
20
0.888312624524531
30
0
41
1
10
99.7384452202887
20
0.8844799822173
30
0
41
1
10
99.7426519244979
20
0.880647353621299
30
0
0
SPLINE
5
29C
100
AcDbEntity
8
1
62
256
6
ByLayer
370
-1
48
1
60
0
100
AcDbSpline
70
4
71
3
72
22
73
18
40
0
40
0
40
0
40
0
40
0.0904884159774085
40
0.0904884159774085
40
0.167615335033987
40
0.167615335033987
40
0.28648271602173
40
0.28648271602173
40
0.385988194077909
40
0.385988194077909
40
0.48517089300021
40
0.48517089300021
40
0.67149510634317
40
0.67149510634317
40
0.857309270881358
40
0.857309270881358
40
1
40
1
40
1
40
1
41
1
10
99.7426519244979
20
0.880647353621299
30
0
41
1
10
99.7518676372783
20
0.871119153362258
30
0
41
1
10
99.7609201984031
20
0.858607421044667
30
0
41
1
10
99.775632154264
20
0.832379136939551
30
0
41
1
10
99.7817833454617
20
0.81884492093738
30
0
41
1
10
99.7952484742983
20
0.783692918807986
30
0
41
1
10
99.8016983869481
20
0.761096777003274
30
0
41
1
10
99.8111273355461
20
0.720485173985907
30
0
41
1
10
99.8145819213031
20
0.701979771345037
30
0
41
1
10
99.8202612937749
20
0.665825679551887
30
0
41
1
10
99.8225047176808
20
0.648060044863399
30
0
41
1
10
99.8277181205673
20
0.598177367381538
30
0
41
1
10
99.8296541175079
20
0.566860993112044
30
0
41
1
10
99.8317388947547
20
0.507171729392923
30
0
41
1
10
99.8318810003407
20
0.478613369283408
30
0
41
1
10
99.8309558798375
20
0.43057832922031
30
0
41
1
10
99.8301548274486
20
0.410477301563077
30
0
41
1
10
99.8289871060059
20
0.391232056554628
30
0
0
SPLINE
5
29D
100
AcDbEntity
8
1
62
256
6
ByLayer
370
-1
48
1
60
0
100
AcDbSpline
70
4
71
3
72
24
73
20
40
0
40
0
40
0
40
0
40
0.0429952269620017
40
0.0429952269620017
40
0.228745926441736
40
0.228745926441736
40
0.414699745380642
40
0.414699745380642
40
0.538335079652269
40
0.538335079652269
40
0.632242005354347
40
0.632242005354347
40
0.783656353744027
40
0.783656353744027
40
0.875145603232629
40
0.875145603232629
40
0.967942630461983
40
0.967942630461983
40
1
40
1
40
1
40
1
41
1
10
99.8289871060059
20
0.391232056554628
30
0
41
1
10
99.8286350558597
20
0.385429909680283
30
0
41
1
10
99.8282492135506
20
0.379703564431367
30
0
41
1
10
99.8260183994913
20
0.349683654964878
30
0
41
1
10
99.8235849583644
20
0.326716137322791
30
0
41
1
10
99.8172821944558
20
0.284359531684487
30
0
41
1
10
99.8134056595134
20
0.264864213049094
30
0
41
1
10
99.8052413372389
20
0.236524746547019
30
0
41
1
10
99.8015102944713
20
0.226261288696833
30
0
41
1
10
99.793804925135
20
0.210869453647632
30
0
41
1
10
99.7900917269208
20
0.205077894611691
30
0
41
1
10
99.7791126865875
20
0.193134524079539
30
0
41
1
10
99.7709350307486
20
0.188683329663945
30
0
41
1
10
99.7544778247637
20
0.190382764424669
30
0
41
1
10
99.7473545971786
20
0.193143691278323
30
0
41
1
10
99.7315021398639
20
0.204135008437106
30
0
41
1
10
99.7224884512522
20
0.212701402446442
30
0
41
1
10
99.7100812876021
20
0.227490701578773
30
0
41
1
10
99.7068088195609
20
0.231646674204654
30
0
41
1
10
99.7035397148285
20
0.236038091190977
30
0
0
SPLINE
5
29E
100
AcDbEntity
8
1
62
256
6
ByLayer
370
-1
48
1
60
0
100
AcDbSpline
70
4
71
3
72
8
73
4
40
0
40
0
40
0
40
0
40
1
40
1
40
1
40
1
41
1
10
99.761158939755
20
1.7768765180565
30
0
41
1
10
99.7568689051326
20
1.77667375004685
30
0
41
1
10
99.7525789123497
20
1.77647098099086
30
0
41
1
10
99.7482889628666
20
1.77626821085207
30
0
0
SPLINE
5
29F
100
AcDbEntity
8
1
62
256
6
ByLayer
370
-1
48
1
60
0
100
AcDbSpline
70
4
71
3
72
22
73
18
40
0
40
0
40
0
40
0
40
0.090488415977292
40
0.090488415977292
40
0.167615335033805
40
0.167615335033805
40
0.286482716021451
40
0.286482716021451
40
0.385988194077503
40
0.385988194077503
40
0.485170892999711
40
0.485170892999711
40
0.671495106342516
40
0.671495106342516
40
0.857309270880541
40
0.857309270880541
40
1
40
1
40
1
40
1
41
1
10
99.75397544704
20
2.67846186992912
30
0
41
1
10
99.7633941397165
20
2.68387355754868
30
0
41
1
10
99.7728372876542
20
2.68615728582097
30
0
41
1
10
99.788545030299
20
2.6840624619185
30
0
41
1
10
99.7952700296995
20
2.68064982867105
30
0
41
1
10
99.8103347588961
20
2.66753625304082
30
0
41
1
10
99.8179093244627
20
2.65535655775162
30
0
41
1
10
99.8294651753219
20
2.62935596689951
30
0
41
1
10
99.8339298584096
20
2.61591479423925
30
0
41
1
10
99.8416409089624
20
2.58738570871816
30
0
41
1
10
99.8449123803004
20
2.57220962877398
30
0
41
1
10
99.8530787122767
20
2.52701122528026
30
0
41
1
10
99.8569507663349
20
2.49543104070048
30
0
41
1
10
99.862847720727
20
2.43047682748582
30
0
41
1
10
99.8648780874495
20
2.39688955042146
30
0
41
1
10
99.8672295251931
20
2.33647171760597
30
0
41
1
10
99.8678350643483
20
2.30980437746768
30
0
41
1
10
99.8680495323762
20
2.28288693770347
30
0
0
SPLINE
5
2A0
100
AcDbEntity
8
1
62
256
6
ByLayer
370
-1
48
1
60
0
100
AcDbSpline
70
4
71
3
72
24
73
20
40
0
40
0
40
0
40
0
40
0.0429952269610957
40
0.0429952269610957
40
0.228745926440954
40
0.228745926440954
40
0.41469974537996
40
0.41469974537996
40
0.538335079651706
40
0.538335079651706
40
0.632242005353887
40
0.632242005353887
40
0.783656353743713
40
0.783656353743713
40
0.875145603232456
40
0.875145603232456
40
0.967942630461937
40
0.967942630461937
40
1
40
1
40
1
40
1
41
1
10
99.8680495323762
20
2.28288693770347
30
0
41
1
10
99.8681141912048
20
2.27477174151238
30
0
41
1
10
99.8681429956491
20
2.2666305212189
30
0
41
1
10
99.8681042101788
20
2.22323724071487
30
0
41
1
10
99.8674122799216
20
2.18752186373254
30
0
41
1
10
99.8644713275413
20
2.11579550464904
30
0
41
1
10
99.8622232276629
20
2.07961616350173
30
0
41
1
10
99.8566123207407
20
2.01975770962321
30
0
41
1
10
99.8538629694164
20
1.9958575715232
30
0
41
1
10
99.8477734074988
20
1.95441478175826
30
0
41
1
10
99.8447235776558
20
1.93666092167004
30
0
41
1
10
99.8353285675369
20
1.89162505418278
30
0
41
1
10
99.8280083075267
20
1.86442739253724
30
0
41
1
10
99.812461193789
20
1.82656599807632
30
0
41
1
10
99.8055765039852
20
1.81340143382238
30
0
41
1
10
99.7898702743396
20
1.79231844398257
30
0
41
1
10
99.7807554173947
20
1.78427529730257
30
0
41
1
10
99.7679642493518
20
1.77855327287295
30
0
41
1
10
99.7645696747508
20
1.77749894834824
30
0
41
1
10
99.7611589397551
20
1.7768765180565
30
0
0
SPLINE
5
2A1
100
AcDbEntity
8
1
62
256
6
ByLayer
370
-1
48
1
60
0
100
AcDbSpline
70
4
71
3
72
8
73
4
40
0
40
0
40
0
40
0
40
1
40
1
40
1
40
1
41
1
10
99.7229770113349
20
3.35000511739054
30
0
41
1
10
99.7188485823991
20
3.34401357788892
30
0
41
1
10
99.7147201958938
20
3.33802201617127
30
0
41
1
10
99.7105918532999
20
3.33203043146321
30
0
0
SPLINE
5
2A2
100
AcDbEntity
8
1
62
256
6
ByLayer
370
-1
48
1
60
0
100
AcDbSpline
70
4
71
3
72
8
73
4
40
0
40
0
40
0
40
0
40
1
40
1
40
1
40
1
41
1
10
99.7411715631368
20
2.66955836849698
30
0
41
1
10
99.7454394815423
20
2.67252621372521
30
0
41
1
10
99.7497074433311
20
2.67549404740626
30
0
41
1
10
99.75397544704
20
2.67846186992912
30
0
0
SPLINE
5
2A3
100
AcDbEntity
8
1
62
256
6
ByLayer
370
-1
48
1
60
0
100
AcDbSpline
70
4
71
3
72
24
73
20
40
0
40
0
40
0
40
0
40
0.0429952269619463
40
0.0429952269619463
40
0.228745926441684
40
0.228745926441684
40
0.414699745380579
40
0.414699745380579
40
0.538335079652217
40
0.538335079652217
40
0.632242005354297
40
0.632242005354297
40
0.783656353744006
40
0.783656353744006
40
0.87514560323262
40
0.87514560323262
40
0.967942630461993
40
0.967942630461993
40
1
40
1
40
1
40
1
41
1
10
99.8026216880968
20
3.70030126918658
30
0
41
1
10
99.8030383970716
20
3.69798821986967
30
0
41
1
10
99.8034227972737
20
3.69557350508072
30
0
41
1
10
99.8052922104454
20
3.68220184336155
30
0
41
1
10
99.8062154049686
20
3.66945831972026
30
0
41
1
10
99.8066145575157
20
3.64010426337973
30
0
41
1
10
99.8060991025078
20
3.62343159987574
30
0
41
1
10
99.803455145147
20
3.59194014982441
30
0
41
1
10
99.8019173759828
20
3.57831681847404
30
0
41
1
10
99.7979903344846
20
3.55229523152565
30
0
41
1
10
99.7958874771227
20
3.54034758681257
30
0
41
1
10
99.788965091864
20
3.50730015953818
30
0
41
1
10
99.783208880167
20
3.48458873329349
30
0
41
1
10
99.7700416159044
20
3.44510249036077
30
0
41
1
10
99.7640400819853
20
3.42921006112746
30
0
41
1
10
99.7499168080421
20
3.39721135846338
30
0
41
1
10
99.7415180703329
20
3.38064578092201
30
0
41
1
10
99.7294595061217
20
3.36019631287189
30
0
41
1
10
99.7262366419391
20
3.35500244451629
30
0
41
1
10
99.7229770113348
20
3.35000511739059
30
0
0
SPLINE
5
2A4
100
AcDbEntity
8
1
62
256
6
ByLayer
370
-1
48
1
60
0
100
AcDbSpline
70
4
71
3
72
12
73
8
40
0
40
0
40
0
40
0
40
0.537499189677534
40
0.537499189677534
40
0.978204604845872
40
0.978204604845872
40
1
40
1
40
1
40
1
41
1
10
95.2260942118183
20
-8.87200766499652
30
0
41
1
10
95.1638407118617
20
-8.80282179621105
30
0
41
1
10
95.1090910564805
20
-8.7229263928146
30
0
41
1
10
95.0321451944382
20
-8.56563354690172
30
0
41
1
10
95.005169666878
20
-8.48857253859009
30
0
41
1
10
94.9885647515681
20
-8.4069747103932
30
0
41
1
10
94.987799513206
20
-8.40307836508742
30
0
41
1
10
94.9870615563443
20
-8.39917940173817
30
0
0
SPLINE
5
2A5
100
AcDbEntity
8
1
62
256
6
ByLayer
370
-1
48
1
60
0
100
AcDbSpline
70
4
71
3
72
16
73
12
40
0
40
0
40
0
40
0
40
0.011319700000436
40
0.011319700000436
40
0.325952031184514
40
0.325952031184514
40
0.611565060295875
40
0.611565060295875
40
0.862469040564455
40
0.862469040564455
40
1
40
1
40
1
40
1
41
1
10
95.2260942118183
20
-8.87200766499649
30
0
41
1
10
95.2272225667273
20
-8.87326167022877
30
0
41
1
10
95.2283439634701
20
-8.8745235229994
30
0
41
1
10
95.2599464694243
20
-8.91053075835771
30
0
41
1
10
95.2855232951464
20
-8.95191512404691
30
0
41
1
10
95.3182050162725
20
-9.03673397147637
30
0
41
1
10
95.3272264699446
20
-9.0810087913523
30
0
41
1
10
95.3282244310966
20
-9.16308362009255
30
0
41
1
10
95.3220856197159
20
-9.20224443541662
30
0
41
1
10
95.3025154033185
20
-9.25784271069463
30
0
41
1
10
95.2935473159332
20
-9.27688748670602
30
0
41
1
10
95.2828408402572
20
-9.29457675162104
30
0
0
SPLINE
5
2A6
100
AcDbEntity
8
1
62
256
6
ByLayer
370
-1
48
1
60
0
100
AcDbSpline
70
4
71
3
72
16
73
12
40
0
40
0
40
0
40
0
40
0.0911679433713379
40
0.0911679433713379
40
0.313820406051421
40
0.313820406051421
40
0.540930752401788
40
0.540930752401788
40
0.784041924828298
40
0.784041924828298
40
1
40
1
40
1
40
1
41
1
10
95.2828408402572
20
-9.29457675162104
30
0
41
1
10
95.2759023231666
20
-9.30604058628026
30
0
41
1
10
95.2681980944893
20
-9.31700739498262
30
0
41
1
10
95.239516574673
20
-9.35241552367404
30
0
41
1
10
95.2148614270507
20
-9.37402671902785
30
0
41
1
10
95.1606006244748
20
-9.40759967484513
30
0
41
1
10
95.1302346201642
20
-9.4198097349738
30
0
41
1
10
95.0661829733444
20
-9.43429847833201
30
0
41
1
10
95.0316247986427
20
-9.43603440776045
30
0
41
1
10
94.9682942958884
20
-9.42929097668502
30
0
41
1
10
94.9387694880486
20
-9.42192948459046
30
0
41
1
10
94.9107884099262
20
-9.41101764683552
30
0
0
SPLINE
5
2A7
100
AcDbEntity
8
1
62
256
6
ByLayer
370
-1
48
1
60
0
100
AcDbSpline
70
4
71
3
72
18
73
14
40
0
40
0
40
0
40
0
40
0.19470722950853
40
0.19470722950853
40
0.372132674476731
40
0.372132674476731
40
0.551484410835788
40
0.551484410835788
40
0.704942958574535
40
0.704942958574535
40
0.905288500750483
40
0.905288500750483
40
1
40
1
40
1
40
1
41
1
10
93.9009415657005
20
-9.9743519589272
30
0
41
1
10
93.9209819105637
20
-9.89104101510392
30
0
41
1
10
93.9524633233169
20
-9.80898001026856
30
0
41
1
10
94.0346358790477
20
-9.66446830187869
30
0
41
1
10
94.0845140799638
20
-9.5993985928601
30
0
41
1
10
94.2019083726773
20
-9.48916024825394
30
0
41
1
10
94.2715969498391
20
-9.44282367092478
30
0
41
1
10
94.4076475418593
20
-9.38393823934814
30
0
41
1
10
94.4746209880464
20
-9.36664454169073
30
0
41
1
10
94.6266795212014
20
-9.34960348804086
30
0
41
1
10
94.7135980148498
20
-9.35614947733129
30
0
41
1
10
94.834884461749
20
-9.38439583875223
30
0
41
1
10
94.8733815739549
20
-9.39643002718523
30
0
41
1
10
94.9107884099264
20
-9.41101764683492
30
0
0
SPLINE
5
2A8
100
AcDbEntity
8
1
62
256
6
ByLayer
370
-1
48
1
60
0
100
AcDbSpline
70
4
71
3
72
14
73
10
40
0
40
0
40
0
40
0
40
0.264811550887836
40
0.264811550887836
40
0.554702973213255
40
0.554702973213255
40
0.816600830646205
40
0.816600830646205
40
1
40
1
40
1
40
1
41
1
10
93.9009415657011
20
-9.97435195892737
30
0
41
1
10
93.8919005989983
20
-10.0119367147897
30
0
41
1
10
93.8770297810573
20
-10.0487778926834
30
0
41
1
10
93.8346876145263
20
-10.1184730760268
30
0
41
1
10
93.8054022754123
20
-10.151679449221
30
0
41
1
10
93.7402436887983
20
-10.2011718403477
30
0
41
1
10
93.7042489313174
20
-10.2194717260162
30
0
41
1
10
93.6401968643426
20
-10.2376741608378
30
0
41
1
10
93.6124365223458
20
-10.241637564911
30
0
41
1
10
93.5849011011356
20
-10.2417577230522
30
0
0
SPLINE
5
2A9
100
AcDbEntity
8
1
62
256
6
ByLayer
370
-1
48
1
60
0
100
AcDbSpline
70
4
71
3
72
16
73
12
40
0
40
0
40
0
40
0
40
0.0516479771277092
40
0.0516479771277092
40
0.275008977542763
40
0.275008977542763
40
0.500552414412976
40
0.500552414412976
40
0.740268823693852
40
0.740268823693852
40
1
40
1
40
1
40
1
41
1
10
93.5849011011356
20
-10.2417577230522
30
0
41
1
10
93.5771050405843
20
-10.241791743238
30
0
41
1
10
93.569300732896
20
-10.2415239481716
30
0
41
1
10
93.5281564960985
20
-10.238519341029
30
0
41
1
10
93.4947721072953
20
-10.2303537482091
30
0
41
1
10
93.4329395182003
20
-10.204177695627
30
0
41
1
10
93.4037458660525
20
-10.1857643306223
30
0
41
1
10
93.3513494743945
20
-10.1404786685479
30
0
41
1
10
93.3279601875486
20
-10.1126102783099
30
0
41
1
10
93.289211950303
20
-10.0498844418978
30
0
41
1
10
93.2741759621679
20
-10.0138927546855
30
0
41
1
10
93.2647080511206
20
-9.97712833325403
30
0
0
SPLINE
5
2AA
100
AcDbEntity
8
1
62
256
6
ByLayer
370
-1
48
1
60
0
100
AcDbSpline
70
4
71
3
72
18
73
14
40
0
40
0
40
0
40
0
40
0.196921775003785
40
0.196921775003785
40
0.373930047834627
40
0.373930047834627
40
0.552838497307356
40
0.552838497307356
40
0.706187346680716
40
0.706187346680716
40
0.906901818514513
40
0.906901818514513
40
1
40
1
40
1
40
1
41
1
10
92.2548612068936
20
-9.42260749227856
30
0
41
1
10
92.330447350423
20
-9.39192570649064
30
0
41
1
10
92.4112957748209
20
-9.37188976196254
30
0
41
1
10
92.5677736739622
20
-9.36035504568841
30
0
41
1
10
92.6449203111628
20
-9.36629840145741
30
0
41
1
10
92.7947567230666
20
-9.40506747582631
30
0
41
1
10
92.8696077750989
20
-9.43912388608007
30
0
41
1
10
92.9927973995988
20
-9.52399006394504
30
0
41
1
10
93.0449197924609
20
-9.57260213834869
30
0
41
1
10
93.1467507677075
20
-9.69589297585222
30
0
41
1
10
93.1927115425922
20
-9.77581114329021
30
0
41
1
10
93.2414299892025
20
-9.89725728850541
30
0
41
1
10
93.2543661670506
20
-9.93697022631332
30
0
41
1
10
93.2647080511205
20
-9.97712833325406
30
0
0
SPLINE
5
2AB
100
AcDbEntity
8
1
62
256
6
ByLayer
370
-1
48
1
60
0
100
AcDbSpline
70
4
71
3
72
14
73
10
40
0
40
0
40
0
40
0
40
0.280234602389445
40
0.280234602389445
40
0.568175490274818
40
0.568175490274818
40
0.828479444262403
40
0.828479444262403
40
1
40
1
40
1
40
1
41
1
10
92.2548612068937
20
-9.42260749227893
30
0
41
1
10
92.2191882664389
20
-9.4370877854432
30
0
41
1
10
92.1807232633125
20
-9.44559645349861
30
0
41
1
10
92.1030963426875
20
-9.44797775693948
30
0
41
1
10
92.0627374859848
20
-9.44140142367624
30
0
41
1
10
91.9920792775159
20
-9.41355412982821
30
0
41
1
10
91.9601475815223
20
-9.39326724104012
30
0
41
1
10
91.9157510131104
20
-9.35049420399682
30
0
41
1
10
91.8999890930483
20
-9.33080632448295
30
0
41
1
10
91.8869613620141
20
-9.30939557581638
30
0
0
SPLINE
5
2AC
100
AcDbEntity
8
1
62
256
6
ByLayer
370
-1
48
1
60
0
100
AcDbSpline
70
4
71
3
72
18
73
14
40
0
40
0
40
0
40
0
40
0.0612573774480104
40
0.0612573774480104
40
0.279483952469554
40
0.279483952469554
40
0.500470610100426
40
0.500470610100426
40
0.735822942069504
40
0.735822942069504
40
0.994575323592023
40
0.994575323592023
40
1
40
1
40
1
40
1
41
1
10
91.8869613620141
20
-9.30939557581638
30
0
41
1
10
91.8821846011442
20
-9.30154508933055
30
0
41
1
10
91.8777499418323
20
-9.29343497762227
30
0
41
1
10
91.8593074155069
20
-9.25569919815706
30
0
41
1
10
91.8494680736991
20
-9.22315164261997
30
0
41
1
10
91.8399438853771
20
-9.15673836626493
30
0
41
1
10
91.8402411614934
20
-9.12202241577094
30
0
41
1
10
91.8504137367772
20
-9.05289465830546
30
0
41
1
10
91.8610017828856
20
-9.01778107389151
30
0
41
1
10
91.8917617826623
20
-8.94990414995945
30
0
41
1
10
91.9131323717251
20
-8.91685143081614
30
0
41
1
10
91.9383449717906
20
-8.88756033380224
30
0
41
1
10
91.9388697347365
20
-8.88695430196466
30
0
41
1
10
91.9393960767088
20
-8.88635004733339
30
0
0
SPLINE
5
2AD
100
AcDbEntity
8
1
62
256
6
ByLayer
370
-1
48
1
60
0
100
AcDbSpline
70
4
71
3
72
12
73
8
40
0
40
0
40
0
40
0
40
0.210744611346413
40
0.210744611346413
40
0.708714990416221
40
0.708714990416221
40
1
40
1
40
1
40
1
41
1
10
92.1719857756154
20
-8.41146373437059
30
0
41
1
10
92.1651323034445
20
-8.44885660030019
30
0
41
1
10
92.1558125293805
20
-8.48613217621619
30
0
41
1
10
92.1174752284652
20
-8.60807026704552
30
0
41
1
10
92.0782268830804
20
-8.69031358138284
30
0
41
1
10
92.0033229014541
20
-8.80733023675714
30
0
41
1
10
91.972517408629
20
-8.84832587434431
30
0
41
1
10
91.9393960767089
20
-8.88635004733345
30
0
0
SPLINE
5
2AE
100
AcDbEntity
8
1
62
256
6
ByLayer
370
-1
48
1
60
0
100
AcDbSpline
70
4
71
3
72
12
73
8
40
0
40
0
40
0
40
0
40
0.238644736246463
40
0.238644736246463
40
0.744856633731207
40
0.744856633731207
40
1
40
1
40
1
40
1
41
1
10
94.9870615563442
20
-8.10410588171175
30
0
41
1
10
94.9950563296973
20
-8.06548592093
30
0
41
1
10
95.00631207162
20
-8.02846153645567
30
0
41
1
10
95.0498302672328
20
-7.92046200101171
30
0
41
1
10
95.0922207115571
20
-7.85598111700693
30
0
41
1
10
95.1683193344202
20
-7.7751073982202
30
0
41
1
10
95.1962991264393
20
-7.75031923614381
30
0
41
1
10
95.2260942118183
20
-7.72812409968023
30
0
0
SPLINE
5
2AF
100
AcDbEntity
8
1
62
256
6
ByLayer
370
-1
48
1
60
0
100
AcDbSpline
70
4
71
3
72
18
73
14
40
0
40
0
40
0
40
0
40
0.0249234866862197
40
0.0249234866862197
40
0.244016849022698
40
0.244016849022698
40
0.463732500095473
40
0.463732500095473
40
0.696086204296046
40
0.696086204296046
40
0.950572766561285
40
0.950572766561285
40
1
40
1
40
1
40
1
41
1
10
95.2828408402572
20
-7.371269892188
30
0
41
1
10
95.2847918910445
20
-7.37447639514173
30
0
41
1
10
95.2866843720746
20
-7.37770841134591
30
0
41
1
10
95.3044431554891
20
-7.40925375397444
30
0
41
1
10
95.3158715406765
20
-7.43967128907926
30
0
41
1
10
95.3282385149994
20
-7.49978464484431
30
0
41
1
10
95.3293298448863
20
-7.53024322349188
30
0
41
1
10
95.3217584408087
20
-7.58901210697942
30
0
41
1
10
95.312471496398
20
-7.61784009409243
30
0
41
1
10
95.2841908083005
20
-7.67148848555269
30
0
41
1
10
95.264039055058
20
-7.6963561240529
30
0
41
1
10
95.2357686518765
20
-7.72065404898822
30
0
41
1
10
95.2309963853452
20
-7.72447234272076
30
0
41
1
10
95.2260942118184
20
-7.72812409968034
30
0
0
SPLINE
5
2B0
100
AcDbEntity
8
1
62
256
6
ByLayer
370
-1
48
1
60
0
100
AcDbSpline
70
4
71
3
72
12
73
8
40
0
40
0
40
0
40
0
40
0.488382226294681
40
0.488382226294681
40
0.938326634806848
40
0.938326634806848
40
1
40
1
40
1
40
1
41
1
10
91.9393960767101
20
-7.74246648201671
30
0
41
1
10
91.9945863188809
20
-7.78412105054372
30
0
41
1
10
92.0435780004022
20
-7.83548901154947
30
0
41
1
10
92.119054523117
20
-7.95128915471878
30
0
41
1
10
92.1477125209415
20
-8.01588287343515
30
0
41
1
10
92.1677349844226
20
-8.09642458990754
30
0
41
1
10
92.1699661043782
20
-8.10634945171986
30
0
41
1
10
92.1719857756154
20
-8.11639021434462
30
0
0
SPLINE
5
2B1
100
AcDbEntity
8
1
62
256
6
ByLayer
370
-1
48
1
60
0
100
AcDbSpline
70
4
71
3
72
16
73
12
40
0
40
0
40
0
40
0
40
0.11596719572897
40
0.11596719572897
40
0.418874678249595
40
0.418874678249595
40
0.693205641512847
40
0.693205641512847
40
0.935091184694319
40
0.935091184694319
40
1
40
1
40
1
40
1
41
1
10
91.9393960767064
20
-7.74246648202146
30
0
41
1
10
91.9282109831444
20
-7.73402458671663
30
0
41
1
10
91.9177172836726
20
-7.72465139148429
30
0
41
1
10
91.8831426835473
20
-7.68797706092462
30
0
41
1
10
91.8635866526889
20
-7.65506181442743
30
0
41
1
10
91.8422888992462
20
-7.5854920364975
30
0
41
1
10
91.8387932051563
20
-7.5483629142297
30
0
41
1
10
91.8470176293856
20
-7.4779740208553
30
0
41
1
10
91.8571596828743
20
-7.44374554529665
30
0
41
1
10
91.8771909440948
20
-7.4030463200929
30
0
41
1
10
91.8818829371168
20
-7.39447930223787
30
0
41
1
10
91.8869613620141
20
-7.38608871638337
30
0
0
SPLINE
5
2B2
100
AcDbEntity
8
1
62
256
6
ByLayer
370
-1
48
1
60
0
100
AcDbSpline
70
4
71
3
72
16
73
12
40
0
40
0
40
0
40
0
40
0.161214365130048
40
0.161214365130048
40
0.38405466902734
40
0.38405466902734
40
0.615221100576699
40
0.615221100576699
40
0.865480028758239
40
0.865480028758239
40
1
40
1
40
1
40
1
41
1
10
91.8869613620141
20
-7.38608871638337
30
0
41
1
10
91.8991738058436
20
-7.36591128725567
30
0
41
1
10
91.9137782235495
20
-7.34656205455545
30
0
41
1
10
91.9526721280392
20
-7.30439322236774
30
0
41
1
10
91.9790686251746
20
-7.28256616451461
30
0
41
1
10
92.0361295931055
20
-7.24638420436079
30
0
41
1
10
92.0676195562951
20
-7.23185864692081
30
0
41
1
10
92.1332664829219
20
-7.21092531608221
30
0
41
1
10
92.1682416271324
20
-7.20499050643741
30
0
41
1
10
92.2197744132325
20
-7.203172017757
30
0
41
1
10
92.2376059288097
20
-7.20389889987339
30
0
41
1
10
92.2548612068937
20
-7.20590231679557
30
0
0
SPLINE
5
2B3
100
AcDbEntity
8
1
62
256
6
ByLayer
370
-1
48
1
60
0
100
AcDbSpline
70
4
71
3
72
18
73
14
40
0
40
0
40
0
40
0
40
0.207993339910714
40
0.207993339910714
40
0.38296637399764
40
0.38296637399764
40
0.559708257177237
40
0.559708257177237
40
0.712573028514946
40
0.712573028514946
40
0.9151889607428
40
0.9151889607428
40
1
40
1
40
1
40
1
41
1
10
93.2647080511192
20
-6.64256800470764
30
0
41
1
10
93.2418372557005
20
-6.70913422296169
30
0
41
1
10
93.2059342814182
20
-6.77558829386734
30
0
41
1
10
93.1161050209175
20
-6.89098607658397
30
0
41
1
10
93.0647597315672
20
-6.94230448899236
30
0
41
1
10
92.9459196972682
20
-7.03472770000295
30
0
41
1
10
92.8763366752293
20
-7.0770345752816
30
0
41
1
10
92.7412560820647
20
-7.13984219579569
30
0
41
1
10
92.6749066798861
20
-7.16330724496626
30
0
41
1
10
92.5236706600881
20
-7.20168231801202
30
0
41
1
10
92.4371959733786
20
-7.21216539721289
30
0
41
1
10
92.3214970724993
20
-7.21173527064371
30
0
41
1
10
92.2877387196208
20
-7.20971954680692
30
0
41
1
10
92.2548612068937
20
-7.2059023167956
30
0
0
SPLINE
5
2B4
100
AcDbEntity
8
1
62
256
6
ByLayer
370
-1
48
1
60
0
100
AcDbSpline
70
4
71
3
72
14
73
10
40
0
40
0
40
0
40
0
40
0.227747390964449
40
0.227747390964449
40
0.52229741011001
40
0.52229741011001
40
0.788141840541996
40
0.788141840541996
40
1
40
1
40
1
40
1
41
1
10
94.9107884099261
20
-7.19431247135162
30
0
41
1
10
94.9403330038696
20
-7.19068833907045
30
0
41
1
10
94.9716175089764
20
-7.19068080521737
30
0
41
1
10
95.0436949312519
20
-7.19982952549219
30
0
41
1
10
95.0858108623958
20
-7.21193737731616
30
0
41
1
10
95.1603313031759
20
-7.24773776394389
30
0
41
1
10
95.1943932686169
20
-7.27079864255774
30
0
41
1
10
95.246373858221
20
-7.3198490936027
30
0
41
1
10
95.2667639297679
20
-7.34484789368969
30
0
41
1
10
95.2828408402572
20
-7.371269892188
30
0
0
SPLINE
5
2B5
100
AcDbEntity
8
1
62
256
6
ByLayer
370
-1
48
1
60
0
100
AcDbSpline
70
4
71
3
72
14
73
10
40
0
40
0
40
0
40
0
40
0.197061049816476
40
0.197061049816476
40
0.495409650609788
40
0.495409650609788
40
0.764632117277093
40
0.764632117277093
40
1
40
1
40
1
40
1
41
1
10
93.2647080511171
20
-6.64256800470648
30
0
41
1
10
93.2719038022511
20
-6.6216245293374
30
0
41
1
10
93.2822692863429
20
-6.60091073902026
30
0
41
1
10
93.3158135198719
20
-6.55174684420186
30
0
41
1
10
93.3435667096037
20
-6.52394659030455
30
0
41
1
10
93.4069991955653
20
-6.48101735438911
30
0
41
1
10
93.442668372701
20
-6.46431039334655
30
0
41
1
10
93.5137390291118
20
-6.44416185983241
30
0
41
1
10
93.5496027150109
20
-6.43906177885759
30
0
41
1
10
93.5849011011356
20
-6.43890774495219
30
0
0
SPLINE
5
2B6
100
AcDbEntity
8
1
62
256
6
ByLayer
370
-1
48
1
60
0
100
AcDbSpline
70
4
71
3
72
18
73
14
40
0
40
0
40
0
40
0
40
0.0040520837746126
40
0.0040520837746126
40
0.228770169170028
40
0.228770169170028
40
0.452833280150233
40
0.452833280150233
40
0.688771690735401
40
0.688771690735401
40
0.946553144987623
40
0.946553144987623
40
1
40
1
40
1
40
1
41
1
10
93.5849011011356
20
-6.43890774495219
30
0
41
1
10
93.585516123674
20
-6.4389050611376
30
0
41
1
10
93.5861311352385
20
-6.43890382466597
30
0
41
1
10
93.6203810697322
20
-6.43891556965491
30
0
41
1
10
93.6543869426199
20
-6.44340207423508
30
0
41
1
10
93.7174994264269
20
-6.46027171714616
30
0
41
1
10
93.7474359940549
20
-6.47282790442273
30
0
41
1
10
93.8014431436741
20
-6.50450142378926
30
0
41
1
10
93.8258160326222
20
-6.52430309051186
30
0
41
1
10
93.8671168779517
20
-6.56951600102977
30
0
41
1
10
93.8836964399239
20
-6.59582150505761
30
0
41
1
10
93.8970230604746
20
-6.62839408982509
30
0
41
1
10
93.89909903839
20
-6.6340794298593
30
0
41
1
10
93.9009415657011
20
-6.63979163037703
30
0
0
SPLINE
5
2B7
100
AcDbEntity
8
1
62
256
6
ByLayer
370
-1
48
1
60
0
100
AcDbSpline
70
4
71
3
72
18
73
14
40
0
40
0
40
0
40
0
40
0.211689539235212
40
0.211689539235212
40
0.385932342887289
40
0.385932342887289
40
0.56189848986682
40
0.56189848986682
40
0.714573453314916
40
0.714573453314916
40
0.917791207619055
40
0.917791207619055
40
1
40
1
40
1
40
1
41
1
10
94.9107884099263
20
-7.19431247135225
30
0
41
1
10
94.8280136315625
20
-7.2044661646774
30
0
41
1
10
94.7391117374167
20
-7.20357042151409
30
0
41
1
10
94.5748689799525
20
-7.17962187971469
30
0
41
1
10
94.4980709473883
20
-7.16011966421968
30
0
41
1
10
94.3501950499575
20
-7.1047680657579
30
0
41
1
10
94.2770654685437
20
-7.06782138924862
30
0
41
1
10
94.1570310558112
20
-6.98863672461923
30
0
41
1
10
94.106442114486
20
-6.94683763717816
30
0
41
1
10
94.0074920140615
20
-6.84515365262723
30
0
41
1
10
93.9634514110167
20
-6.78216974793889
30
0
41
1
10
93.9199902677811
20
-6.6924651089995
30
0
41
1
10
93.9094566226938
20
-6.66618999780945
30
0
41
1
10
93.900941565701
20
-6.63979163037703
30
0
0
SPLINE
5
2B8
100
AcDbEntity
8
1
62
256
6
ByLayer
370
-1
48
1
60
0
100
AcDbSpline
70
4
71
3
72
8
73
4
40
0
40
0
40
0
40
0
40
1
40
1
40
1
40
1
41
1
10
90.4203216270631
20
-13.3951847077869
30
0
41
1
10
90.4109050281049
20
-13.3919380596238
30
0
41
1
10
90.4014884307172
20
-13.3886914129466
30
0
41
1
10
90.3920718348889
20
-13.3854447677448
30
0
0
SPLINE
5
2B9
100
AcDbEntity
8
1
62
256
6
ByLayer
370
-1
48
1
60
0
100
AcDbSpline
70
4
71
3
72
16
73
12
40
0
40
0
40
0
40
0
40
0.164710736630214
40
0.164710736630214
40
0.331370362656705
40
0.331370362656705
40
0.476446336500443
40
0.476446336500443
40
0.702801041235973
40
0.702801041235973
40
1
40
1
40
1
40
1
41
1
10
98.9780994310112
20
-14.5369095405454
30
0
41
1
10
98.9844395157717
20
-14.5258152149444
30
0
41
1
10
98.989384870719
20
-14.5136832282778
30
0
41
1
10
98.9945417546422
20
-14.4885561564061
30
0
41
1
10
98.994693041323
20
-14.4752102770638
30
0
41
1
10
98.9903198843141
20
-14.4514545490656
30
0
41
1
10
98.9864001857343
20
-14.4406133122536
30
0
41
1
10
98.9731848901215
20
-14.4150216812388
30
0
41
1
10
98.9619939497376
20
-14.4009637285483
30
0
41
1
10
98.9330715430886
20
-14.3725462442713
30
0
41
1
10
98.9139977569123
20
-14.3589660254516
30
0
41
1
10
98.8940064852791
20
-14.3475385567276
30
0
0
SPLINE
5
2BA
100
AcDbEntity
8
1
62
256
6
ByLayer
370
-1
48
1
60
0
100
AcDbSpline
70
4
71
3
72
16
73
12
40
0
40
0
40
0
40
0
40
0.343443954228623
40
0.343443954228623
40
0.535083245610714
40
0.535083245610714
40
0.69355355783513
40
0.69355355783513
40
0.853171508912896
40
0.853171508912896
40
1
40
1
40
1
40
1
41
1
10
95.9414736398656
20
-14.3604227198574
30
0
41
1
10
95.918566378903
20
-14.3737836105474
30
0
41
1
10
95.8967906416199
20
-14.3900313960389
30
0
41
1
10
95.8690859195062
20
-14.4207947915939
30
0
41
1
10
95.8602737680093
20
-14.4331626621461
30
0
41
1
10
95.8485050371863
20
-14.4576552112518
30
0
41
1
10
95.8447438524526
20
-14.4697111794278
30
0
41
1
10
95.8418471135333
20
-14.4941852487968
30
0
41
1
10
95.8427546743584
20
-14.5069206432624
30
0
41
1
10
95.8486312816704
20
-14.5299635177225
30
0
41
1
10
95.8532794927538
20
-14.5406475898239
30
0
41
1
10
95.8590363871316
20
-14.5505204025328
30
0
0
SPLINE
5
2BB
100
AcDbEntity
8
1
62
256
6
ByLayer
370
-1
48
1
60
0
100
AcDbSpline
70
4
71
3
72
12
73
8
40
0
40
0
40
0
40
0
40
0.261466805566817
40
0.261466805566817
40
0.727154521522211
40
0.727154521522211
40
1
40
1
40
1
40
1
41
1
10
97.5721374599287
20
-13.601278677294
30
0
41
1
10
97.5456453919305
20
-13.5920822820906
30
0
41
1
10
97.5183851400803
20
-13.5847627730306
30
0
41
1
10
97.4417453449483
20
-13.5715376059395
30
0
41
1
10
97.390545527361
20
-13.5715299586713
30
0
41
1
10
97.3127218817202
20
-13.5850304987146
30
0
41
1
10
97.2843162114108
20
-13.5928259732876
30
0
41
1
10
97.2567803097859
20
-13.6026548221769
30
0
0
SPLINE
5
2BC
100
AcDbEntity
8
1
62
256
6
ByLayer
370
-1
48
1
60
0
100
AcDbSpline
70
4
71
3
72
14
73
10
40
0
40
0
40
0
40
0
40
0.327529474127662
40
0.327529474127662
40
0.665666599581678
40
0.665666599581678
40
0.915673055310627
40
0.915673055310627
40
1
40
1
40
1
40
1
41
1
10
99.2108545270245
20
-8.26558838074465
30
0
41
1
10
99.1960434082311
20
-8.27049655978837
30
0
41
1
10
99.177530497337
20
-8.27472910273494
30
0
41
1
10
99.1366815381789
20
-8.28169203576823
30
0
41
1
10
99.1136046261661
20
-8.28447566731307
30
0
41
1
10
99.0718904074174
20
-8.28745068742677
30
0
41
1
10
99.0532251892256
20
-8.28815472073933
30
0
41
1
10
99.0285428700847
20
-8.28790094262334
30
0
41
1
10
99.0222620672391
20
-8.2877305894184
30
0
41
1
10
99.0160847868341
20
-8.28743401021489
30
0
0
SPLINE
5
2BD
100
AcDbEntity
8
1
62
256
6
ByLayer
370
-1
48
1
60
0
100
AcDbSpline
70
4
71
3
72
14
73
10
40
0
40
0
40
0
40
0
40
0.25
40
0.25
40
0.5
40
0.5
40
0.75
40
0.75
40
1
40
1
40
1
40
1
41
1
10
91.2236783810673
20
-12.8609421886308
30
0
41
1
10
91.8546755809406
20
-12.8581873265509
30
0
41
1
10
92.4856727831117
20
-12.855441228757
30
0
41
1
10
93.7476671826038
20
-12.8499305344501
30
0
41
1
10
94.3846506944761
20
-12.8965406311285
30
0
41
1
10
95.6099962574742
20
-12.559868000499
30
0
41
1
10
96.1276053553815
20
-12.204022483749
30
0
41
1
10
97.2133240167039
20
-11.6003332102671
30
0
41
1
10
97.7559309736467
20
-11.2980409277184
30
0
41
1
10
98.2983783344553
20
-10.9954655628389
30
0
0
SPLINE
5
2BE
100
AcDbEntity
8
1
62
256
6
ByLayer
370
-1
48
1
60
0
100
AcDbSpline
70
4
71
3
72
10
73
6
40
0
40
0
40
0
40
0
40
0.226375575408429
40
0.226375575408429
40
1
40
1
40
1
40
1
41
1
10
91.2395998027814
20
-11.6891641366123
30
0
41
1
10
91.2754342695834
20
-11.7354816113599
30
0
41
1
10
91.3118875123068
20
-11.7812179388398
30
0
41
1
10
91.4754544060748
20
-11.9804492185842
30
0
41
1
10
91.6091277608087
20
-12.127703104493
30
0
41
1
10
91.7492413050742
20
-12.2671641846246
30
0
0
SPLINE
5
2BF
100
AcDbEntity
8
1
62
256
6
ByLayer
370
-1
48
1
60
0
100
AcDbSpline
70
4
71
3
72
10
73
6
40
0
40
0
40
0
40
0
40
0.22637576322092
40
0.22637576322092
40
1
40
1
40
1
40
1
41
1
10
97.2947102397277
20
-10.7067917542745
30
0
41
1
10
97.3117947957147
20
-10.6495923633831
30
0
41
1
10
97.3280495960288
20
-10.592124073516
30
0
41
1
10
97.3961233126749
20
-10.3373866227116
30
0
41
1
10
97.4391186520577
20
-10.1373287960505
30
0
41
1
10
97.4722515647692
20
-9.93543364204479
30
0
0
SPLINE
5
2C0
100
AcDbEntity
8
1
62
256
6
ByLayer
370
-1
48
1
60
0
100
AcDbSpline
70
4
71
3
72
8
73
4
40
0
40
0
40
0
40
0
40
1
40
1
40
1
40
1
41
1
10
90.8664569627732
20
-12.8685073813293
30
0
41
1
10
90.9699887388179
20
-12.8496580876635
30
0
41
1
10
91.0735205120226
20
-12.8308087304506
30
0
41
1
10
91.1770522806667
20
-12.8119592711911
30
0
0
SPLINE
5
2C1
100
AcDbEntity
8
1
62
256
6
ByLayer
370
-1
48
1
60
0
100
AcDbSpline
70
4
71
3
72
12
73
8
40
0
40
0
40
0
40
0
40
0.452209010901532
40
0.452209010901532
40
0.98565876891942
40
0.98565876891942
40
1
40
1
40
1
40
1
41
1
10
97.4839893904571
20
-9.76545348128457
30
0
41
1
10
97.4779807704407
20
-9.72479798533476
30
0
41
1
10
97.470327970089
20
-9.68254616509898
30
0
41
1
10
97.4523721846959
20
-9.59202621734815
30
0
41
1
10
97.4416294160341
20
-9.54309270615991
30
0
41
1
10
97.4304130317216
20
-9.49470197420538
30
0
41
1
10
97.4301190766047
20
-9.49343682875167
30
0
41
1
10
97.4298254460223
20
-9.49217263082718
30
0
0
SPLINE
5
2C2
100
AcDbEntity
8
1
62
256
6
ByLayer
370
-1
48
1
60
0
100
AcDbSpline
70
4
71
3
72
10
73
6
40
0
40
0
40
0
40
0
40
0.274190864391876
40
0.274190864391876
40
1
40
1
40
1
40
1
41
1
10
97.4722515647692
20
-9.93543364204479
30
0
41
1
10
97.4760282555997
20
-9.92023274154047
30
0
41
1
10
97.4791965638876
20
-9.90485794330533
30
0
41
1
10
97.4881407345177
20
-9.848706900308
30
0
41
1
10
97.490062366783
20
-9.80654442458754
30
0
41
1
10
97.4839893904571
20
-9.76545348128457
30
0
0
SPLINE
5
2C3
100
AcDbEntity
8
1
62
256
6
ByLayer
370
-1
48
1
60
0
100
AcDbSpline
70
4
71
3
72
8
73
4
40
0
40
0
40
0
40
0
40
1
40
1
40
1
40
1
41
1
10
99.1247004046016
20
-8.37075287551085
30
0
41
1
10
99.0884952051797
20
-8.34297991765607
30
0
41
1
10
99.0522900010245
20
-8.31520696180809
30
0
41
1
10
99.016084786834
20
-8.28743401021487
30
0
0
SPLINE
5
2C4
100
AcDbEntity
8
1
62
256
6
ByLayer
370
-1
48
1
60
0
100
AcDbSpline
70
4
71
3
72
10
73
6
40
0
40
0
40
0
40
0
40
0.726371168591027
40
0.726371168591027
40
1
40
1
40
1
40
1
41
1
10
97.9573438956444
20
-8.44856013458804
30
0
41
1
10
97.9460626921793
20
-8.47662483720822
30
0
41
1
10
97.9282895437863
20
-8.50348893464817
30
0
41
1
10
97.893443560717
20
-8.53552338740181
30
0
41
1
10
97.8826985401333
20
-8.54386989551216
30
0
41
1
10
97.8707788311748
20
-8.55150253504445
30
0
0
SPLINE
5
2C5
100
AcDbEntity
8
1
62
256
6
ByLayer
370
-1
48
1
60
0
100
AcDbSpline
70
4
71
3
72
12
73
8
40
0
40
0
40
0
40
0
40
0.454187976028933
40
0.454187976028933
40
0.987490284578424
40
0.987490284578424
40
1
40
1
40
1
40
1
41
1
10
97.8707788311748
20
-8.55150253504445
30
0
41
1
10
97.8409630392251
20
-8.56557550272646
30
0
41
1
10
97.8069382581735
20
-8.58247038363294
30
0
41
1
10
97.7309098084854
20
-8.6218409669676
30
0
41
1
10
97.6875476039386
20
-8.64526496137765
30
0
41
1
10
97.6434518779303
20
-8.67020151619701
30
0
41
1
10
97.6424416326757
20
-8.67077314248698
30
0
41
1
10
97.641431575816
20
-8.67134583827058
30
0
0
SPLINE
5
2C6
100
AcDbEntity
8
1
62
256
6
ByLayer
370
-1
48
1
60
0
100
AcDbSpline
70
4
71
3
72
12
73
8
40
0
40
0
40
0
40
0
40
0.0125097154214449
40
0.0125097154214449
40
0.54581202397099
40
0.54581202397099
40
1
40
1
40
1
40
1
41
1
10
97.4298254460223
20
-9.49217263082718
30
0
41
1
10
97.4304411059154
20
-9.49312981320597
30
0
41
1
10
97.4310570409938
20
-9.49408772841664
30
0
41
1
10
97.4579305703993
20
-9.535956612609
30
0
41
1
10
97.484144786143
20
-9.57905020283386
30
0
41
1
10
97.5292778560851
20
-9.65952376336452
30
0
41
1
10
97.5491409978032
20
-9.69756232414355
30
0
41
1
10
97.5658833219065
20
-9.73420174693209
30
0
0
SPLINE
5
2C7
100
AcDbEntity
8
1
62
256
6
ByLayer
370
-1
48
1
60
0
100
AcDbSpline
70
4
71
3
72
10
73
6
40
0
40
0
40
0
40
0
40
0.5178668659736
40
0.5178668659736
40
1
40
1
40
1
40
1
41
1
10
98.3135321643806
20
-10.9290991380411
30
0
41
1
10
98.5907899686209
20
-10.8726173357319
30
0
41
1
10
98.8687484033715
20
-10.8183518268987
30
0
41
1
10
99.4064849900119
20
-10.717031898979
30
0
41
1
10
99.666206946773
20
-10.6697396739167
30
0
41
1
10
99.9262924752348
20
-10.6237516812845
30
0
0
SPLINE
5
2C8
100
AcDbEntity
8
1
62
256
6
ByLayer
370
-1
48
1
60
0
100
AcDbSpline
70
4
71
3
72
10
73
6
40
0
40
0
40
0
40
0
40
0.732128243131974
40
0.732128243131974
40
1
40
1
40
1
40
1
41
1
10
97.5658833219065
20
-9.73420174693209
30
0
41
1
10
97.5803114339866
20
-9.78040788825351
30
0
41
1
10
97.5847125338874
20
-9.82905219745237
30
0
41
1
10
97.5809528938597
20
-9.89325781995191
30
0
41
1
10
97.5789528279942
20
-9.91050284883235
30
0
41
1
10
97.5760694542009
20
-9.92753561208917
30
0
0
SPLINE
5
2C9
100
AcDbEntity
8
1
62
256
6
ByLayer
370
-1
48
1
60
0
100
AcDbSpline
70
4
71
3
72
10
73
6
40
0
40
0
40
0
40
0
40
0.478255409340393
40
0.478255409340393
40
1
40
1
40
1
40
1
41
1
10
99.9263651120604
20
-10.7412377362834
30
0
41
1
10
99.670773405335
20
-10.7861196740021
30
0
41
1
10
99.4155347615001
20
-10.8322485117528
30
0
41
1
10
98.8827802552285
20
-10.9318059205489
30
0
41
1
10
98.6053347775363
20
-10.9855149939111
30
0
41
1
10
98.3285872428296
20
-11.0414037570558
30
0
0
SPLINE
5
2CA
100
AcDbEntity
8
1
62
256
6
ByLayer
370
-1
48
1
60
0
100
AcDbSpline
70
4
71
3
72
10
73
6
40
0
40
0
40
0
40
0
40
0.391412264300151
40
0.391412264300151
40
1
40
1
40
1
40
1
41
1
10
91.222959700926
20
-12.9290310944624
30
0
41
1
10
91.1634730527691
20
-12.9398615028192
30
0
41
1
10
91.1039864009945
20
-12.9506918770084
30
0
41
1
10
90.9520068645313
20
-12.9783617960168
30
0
41
1
10
90.8595139759673
20
-12.9952012996959
30
0
41
1
10
90.7670210854462
20
-13.0120407788695
30
0
0
SPLINE
5
2CB
100
AcDbEntity
8
1
62
256
6
ByLayer
370
-1
48
1
60
0
100
AcDbSpline
70
4
71
3
72
14
73
10
40
0
40
0
40
0
40
0
40
0.25
40
0.25
40
0.5
40
0.5
40
0.75
40
0.75
40
1
40
1
40
1
40
1
41
1
10
98.3285872428296
20
-11.0414037570558
30
0
41
1
10
97.7840814740206
20
-11.3478460415516
30
0
41
1
10
97.2395588054724
20
-11.6541355008689
30
0
41
1
10
96.1502294852904
20
-12.2658250316325
30
0
41
1
10
95.6320981264619
20
-12.6266143052429
30
0
41
1
10
94.4003846026499
20
-12.9667591968848
30
0
41
1
10
93.7601827926281
20
-12.9179610469195
30
0
41
1
10
92.4915712133727
20
-12.9235023140834
30
0
41
1
10
91.8572654753605
20
-12.9262616915241
30
0
41
1
10
91.222959700926
20
-12.9290310944624
30
0
0
SPLINE
5
2CC
100
AcDbEntity
8
1
62
256
6
ByLayer
370
-1
48
1
60
0
100
AcDbSpline
70
4
71
3
72
10
73
6
40
0
40
0
40
0
40
0
40
0.226375575408414
40
0.226375575408414
40
1
40
1
40
1
40
1
41
1
10
97.8755766652914
20
-8.37092296864478
30
0
41
1
10
97.8903532497334
20
-8.33509316898318
30
0
41
1
10
97.9042987801407
20
-8.29904459828754
30
0
41
1
10
97.9621618222121
20
-8.13902819715111
30
0
41
1
10
97.9972058395686
20
-8.01276493250691
30
0
41
1
10
98.0222265355264
20
-7.88473329975284
30
0
0
SPLINE
5
2CD
100
AcDbEntity
8
1
62
256
6
ByLayer
370
-1
48
1
60
0
100
AcDbSpline
70
4
71
3
72
12
73
8
40
0
40
0
40
0
40
0
40
0.014341231080646
40
0.014341231080646
40
0.547790989098516
40
0.547790989098516
40
1
40
1
40
1
40
1
41
1
10
97.641431575816
20
-8.67134583827058
30
0
41
1
10
97.6423058131633
20
-8.67035784440384
30
0
41
1
10
97.6431803200705
20
-8.66937101131407
30
0
41
1
10
97.676587138792
20
-8.63168435449401
30
0
41
1
10
97.709181295609
20
-8.59585564792499
30
0
41
1
10
97.7663547591798
20
-8.5342489960282
30
0
41
1
10
97.7918425373732
20
-8.50731837967089
30
0
41
1
10
97.8143866247808
20
-8.4838322806896
30
0
0
SPLINE
5
2CE
100
AcDbEntity
8
1
62
256
6
ByLayer
370
-1
48
1
60
0
100
AcDbSpline
70
4
71
3
72
10
73
6
40
0
40
0
40
0
40
0
40
0.266814892217268
40
0.266814892217268
40
1
40
1
40
1
40
1
41
1
10
97.8143866247808
20
-8.4838322806896
30
0
41
1
10
97.8228301326377
20
-8.47503595827956
30
0
41
1
10
97.8303200688724
20
-8.46569272281127
30
0
41
1
10
97.8551723618842
20
-8.42965219997234
30
0
41
1
10
97.8675418797233
20
-8.40062736667019
30
0
41
1
10
97.8755766652914
20
-8.37092296864478
30
0
0
SPLINE
5
2CF
100
AcDbEntity
8
1
62
256
6
ByLayer
370
-1
48
1
60
0
100
AcDbSpline
70
4
71
3
72
12
73
8
40
0
40
0
40
0
40
0
40
0.133148321068525
40
0.133148321068525
40
0.702614877346734
40
0.702614877346734
40
1
40
1
40
1
40
1
41
1
10
90.4203216270519
20
-13.3951847077907
30
0
41
1
10
90.6042278970704
20
-13.3943822916219
30
0
41
1
10
90.7881341677305
20
-13.3935803664487
30
0
41
1
10
91.7585953874587
20
-13.3893492944206
30
0
41
1
10
92.545150322399
20
-13.3859099116213
30
0
41
1
10
93.7423561719699
20
-13.3806776883533
30
0
41
1
10
94.1565049199933
20
-13.4066486305964
30
0
41
1
10
94.5632223357908
20
-13.3497078261729
30
0
0
SPLINE
5
2D0
100
AcDbEntity
8
1
62
256
6
ByLayer
370
-1
48
1
60
0
100
AcDbSpline
70
4
71
3
72
12
73
8
40
0
40
0
40
0
40
0
40
0.250000000000007
40
0.250000000000007
40
0.500000000000014
40
0.500000000000014
40
1
40
1
40
1
40
1
41
1
10
94.5632223357907
20
-13.3497078261729
30
0
41
1
10
95.0419540505605
20
-13.2826849550513
30
0
41
1
10
95.477244510782
20
-13.0831100619856
30
0
41
1
10
96.3653024876261
20
-12.7364781771164
30
0
41
1
10
96.809152307915
20
-12.5609056414741
30
0
41
1
10
98.1397939108829
20
-12.031251131155
30
0
41
1
10
99.0272723991869
20
-11.6793659199666
30
0
41
1
10
99.9149216664811
20
-11.3281036512146
30
0
0
SPLINE
5
2D1
100
AcDbEntity
8
1
62
256
6
ByLayer
370
-1
48
1
60
0
100
AcDbSpline
70
4
71
3
72
12
73
8
40
0
40
0
40
0
40
0
40
0.500000000000013
40
0.500000000000013
40
0.750000000000007
40
0.750000000000007
40
1
40
1
40
1
40
1
41
1
10
99.9138164139944
20
-11.4680257989013
30
0
41
1
10
99.0305969997615
20
-11.8218599707125
30
0
41
1
10
98.1476483753995
20
-12.1763300570933
30
0
41
1
10
96.8237962483398
20
-12.7093756580244
30
0
41
1
10
96.3818275272307
20
-12.8850344891578
30
0
41
1
10
95.4952530668314
20
-13.2266896538838
30
0
41
1
10
95.0574005217831
20
-13.4168794929967
30
0
41
1
10
94.5852576623878
20
-13.4849025732403
30
0
0
SPLINE
5
2D2
100
AcDbEntity
8
1
62
256
6
ByLayer
370
-1
48
1
60
0
100
AcDbSpline
70
4
71
3
72
12
73
8
40
0
40
0
40
0
40
0
40
0.327536934741048
40
0.327536934741048
40
0.689545574034055
40
0.689545574034055
40
1
40
1
40
1
40
1
41
1
10
94.585257662388
20
-13.4849025732403
30
0
41
1
10
94.1785458343787
20
-13.5829848839857
30
0
41
1
10
93.7490035512068
20
-13.5422357343497
30
0
41
1
10
92.8669875534076
20
-13.5460930280696
30
0
41
1
10
92.4037229837335
20
-13.5481294747541
30
0
41
1
10
91.5431680203893
20
-13.5518847455471
30
0
41
1
10
91.1458776470826
20
-13.5536143993473
30
0
41
1
10
90.748587277747
20
-13.5553461809171
30
0
0
SPLINE
5
2D3
100
AcDbEntity
8
1
62
256
6
ByLayer
370
-1
48
1
60
0
100
AcDbSpline
70
4
71
3
72
8
73
4
40
0
40
0
40
0
40
0
40
1
40
1
40
1
40
1
41
1
10
90.7670210854462
20
-13.0120407788695
30
0
41
1
10
90.6420380019272
20
-13.1365087751613
30
0
41
1
10
90.5170549184081
20
-13.260976771453
30
0
41
1
10
90.3920718348889
20
-13.3854447677448
30
0
0
SPLINE
5
2D4
100
AcDbEntity
8
1
62
256
6
ByLayer
370
-1
48
1
60
0
100
AcDbSpline
70
4
71
1
72
4
73
2
40
0
40
0
40
1
40
1
41
1
10
99.9157182892571
20
-8.0320072722061
30
0
41
1
10
99.2108545270245
20
-8.26558838074465
30
0
0
SPLINE
5
2D5
100
AcDbEntity
8
SK1
62
256
6
ByLayer
370
-1
48
1
60
0
100
AcDbSpline
70
4
71
3
72
10
73
6
40
0
40
0
40
0
40
0
40
0.5
40
0.5
40
1
40
1
40
1
40
1
41
1
10
-199.32
20
-4.87661015076048
30
0
41
1
10
-199.931278087239
20
-3.31084475816917
30
0
41
1
10
-200.311010085058
20
-1.6854668539319
30
0
41
1
10
-200.311489681707
20
1.68219136624683
30
0
41
1
10
-199.931860983986
20
3.30935169049235
30
0
41
1
10
-199.32
20
4.87661015076054
30
0
0
SPLINE
5
2D6
100
AcDbEntity
8
SK1
62
256
6
ByLayer
370
-1
48
1
60
0
100
AcDbSpline
70
4
71
3
72
8
73
4
40
0
40
0
40
0
40
0
40
1
40
1
40
1
40
1
41
1
10
-201.32
20
-10.00875
30
0
41
1
10
-200.859655007734
20
-10.00875
30
0
41
1
10
-200.133727170391
20
-10.00875
30
0
41
1
10
-199.32
20
-10.00875
30
0
0
SPLINE
5
2D7
100
AcDbEntity
8
1
62
256
6
ByLayer
370
-1
48
1
60
0
100
AcDbSpline
70
4
71
3
72
14
73
10
40
0
40
0
40
0
40
0
40
0.264919990892534
40
0.264919990892534
40
0.53041681289127
40
0.53041681289127
40
0.787654584874262
40
0.787654584874262
40
1
40
1
40
1
40
1
41
1
10
99.9262924752342
20
-10.6237516812846
30
0
41
1
10
99.9264138651481
20
-10.6341580111497
30
0
41
1
10
99.9265120538485
20
-10.6454907074863
30
0
41
1
10
99.9266438891987
20
-10.6682268133075
30
0
41
1
10
99.9266791427787
20
-10.6799516737149
30
0
41
1
10
99.9266796006759
20
-10.7016808232151
30
0
41
1
10
99.9266468742145
20
-10.7120303910284
30
0
41
1
10
99.9265311523951
20
-10.7286554852434
30
0
41
1
10
99.9264567429923
20
-10.7354975161496
30
0
41
1
10
99.9263651120605
20
-10.7412377362834
30
0
0
SPLINE
5
2D8
100
AcDbEntity
8
1
62
256
6
ByLayer
370
-1
48
1
60
0
100
AcDbSpline
70
4
71
3
72
10
73
6
40
0
40
0
40
0
40
0
40
0.410984291904105
40
0.410984291904105
40
1
40
1
40
1
40
1
41
1
10
99.9263651120621
20
-10.741237736283
30
0
41
1
10
99.924940527046
20
-10.830480870915
30
0
41
1
10
99.9234526360998
20
-10.9161723719675
30
0
41
1
10
99.9196927854894
20
-11.1155951739084
30
0
41
1
10
99.9173565159338
20
-11.2255644135042
30
0
41
1
10
99.9149216664644
20
-11.3281036512187
30
0
0
SPLINE
5
2D9
100
AcDbEntity
8
1
62
256
6
ByLayer
370
-1
48
1
60
0
100
AcDbSpline
70
4
71
3
72
12
73
8
40
0
40
0
40
0
40
0
40
0.330584430932543
40
0.330584430932543
40
0.914285519682721
40
0.914285519682721
40
1
40
1
40
1
40
1
41
1
10
90.4203216270543
20
-13.3951847077907
30
0
41
1
10
90.4506705892268
20
-13.4056484009696
30
0
41
1
10
90.4859902848949
20
-13.420760212748
30
0
41
1
10
90.5849320249745
20
-13.4665409005608
30
0
41
1
10
90.6524727338906
20
-13.5016155362144
30
0
41
1
10
90.7288453580954
20
-13.5441680626191
30
0
41
1
10
90.7387210988985
20
-13.5497298049648
30
0
41
1
10
90.7485872777264
20
-13.5553461809053
30
0
0
SPLINE
5
2DA
100
AcDbEntity
8
1
62
256
6
ByLayer
370
-1
48
1
60
0
100
AcDbSpline
70
4
71
3
72
12
73
8
40
0
40
0
40
0
40
0
40
0.467747243448209
40
0.467747243448209
40
0.914074073580961
40
0.914074073580961
40
1
40
1
40
1
40
1
41
1
10
99.9138164139945
20
-11.4680257989013
30
0
41
1
10
99.9138164139945
20
-11.4411353662094
30
0
41
1
10
99.9139004248045
20
-11.4151145325385
30
0
41
1
10
99.9142185217264
20
-11.3707018502789
30
0
41
1
10
99.9144506468501
20
-11.3513646987727
30
0
41
1
10
99.9148001899081
20
-11.3334808727004
30
0
41
1
10
99.9148598075524
20
-11.3307087263024
30
0
41
1
10
99.9149216664644
20
-11.3281036512211
30
0
0
LINE
5
49
100
AcDbEntity
8
1
62
256
6
ByLayer
370
-1
48
1
60
0
100
AcDbLine
10
99.673184
20
2.656183
30
0
11
99.701491
21
2.656033
31
0
39
0
210
0
220
0
230
1
0
LINE
5
4A
100
AcDbEntity
8
1
62
256
6
ByLayer
370
-1
48
1
60
0
100
AcDbLine
10
87.029558
20
-11.496515
30
0
11
87.087988
21
-12.401929
31
0
39
0
210
0
220
0
230
1
0
LINE
5
4B
100
AcDbEntity
8
1
62
256
6
ByLayer
370
-1
48
1
60
0
100
AcDbLine
10
86.540812
20
-4.717549
30
0
11
86.593048
21
-5.519412
31
0
39
0
210
0
220
0
230
1
0
LINE
5
4C
100
AcDbEntity
8
1
62
256
6
ByLayer
370
-1
48
1
60
0
100
AcDbLine
10
83.219965
20
-6.828257
30
0
11
83.289144
21
-7.900245
31
0
39
0
210
0
220
0
230
1
0
LINE
5
4D
100
AcDbEntity
8
SK1
62
256
6
ByLayer
370
-1
48
1
60
0
100
AcDbLine
10
-199.32
20
12.49125
30
0
11
-201.32
21
10.49125
31
0
39
0
210
0
220
0
230
1
0
LINE
5
4F
100
AcDbEntity
8
SK1
62
256
6
ByLayer
370
-1
48
1
60
0
100
AcDbLine
10
0
20
12.49125
30
0
11
-199.32
21
12.49125
31
0
39
0
210
0
220
0
230
1
0
LINE
5
50
100
AcDbEntity
8
1
62
256
6
ByLayer
370
-1
48
1
60
0
100
AcDbLine
10
89.997233
20
-8.262188
30
0
11
90.009459
21
-8.449872
31
0
39
0
210
0
220
0
230
1
0
LINE
5
51
100
AcDbEntity
8
1
62
256
6
ByLayer
370
-1
48
1
60
0
100
AcDbLine
10
97.144337
20
-7.985084
30
0
11
97.13211
21
-7.7974
31
0
39
0
210
0
220
0
230
1
0
LINE
5
52
100
AcDbEntity
8
1
62
256
6
ByLayer
370
-1
48
1
60
0
100
AcDbLine
10
73.921409
20
-12.175
30
0
11
75.244899
21
-12.175
31
0
39
0
210
0
220
0
230
1
0
LINE
5
53
100
AcDbEntity
8
1
62
256
6
ByLayer
370
-1
48
1
60
0
100
AcDbLine
10
75.244899
20
12.175
30
0
11
64.969518
21
12.175
31
0
39
0
210
0
220
0
230
1
0
LINE
5
54
100
AcDbEntity
8
1
62
256
6
ByLayer
370
-1
48
1
60
0
100
AcDbLine
10
64.569518
20
12.28218
30
0
11
64.207398
21
12.49125
31
0
39
0
210
0
220
0
230
1
0
LINE
5
55
100
AcDbEntity
8
1
62
256
6
ByLayer
370
-1
48
1
60
0
100
AcDbLine
10
75.619028
20
12.185
30
0
11
75.370995
21
12.185
31
0
39
0
210
0
220
0
230
1
0
LINE
5
56
100
AcDbEntity
8
1
62
256
6
ByLayer
370
-1
48
1
60
0
100
AcDbLine
10
64.207398
20
12.49125
30
0
11
0
21
12.49125
31
0
39
0
210
0
220
0
230
1
0
LINE
5
57
100
AcDbEntity
8
1
62
256
6
ByLayer
370
-1
48
1
60
0
100
AcDbLine
10
75.857735
20
-12.46077
30
0
11
77.017577
21
-13.843016
31
0
39
0
210
0
220
0
230
1
0
LINE
5
58
100
AcDbEntity
8
1
62
256
6
ByLayer
370
-1
48
1
60
0
100
AcDbLine
10
99.76828
20
-0.673989
30
0
11
99.674635
21
0.763539
31
0
39
0
210
0
220
0
230
1
0
LINE
5
59
100
AcDbEntity
8
1
62
256
6
ByLayer
370
-1
48
1
60
0
100
AcDbLine
10
83.450257
20
-5.77027
30
0
11
83.543851
21
-7.207014
31
0
39
0
210
0
220
0
230
1
0
LINE
5
5A
100
AcDbEntity
8
1
62
256
6
ByLayer
370
-1
48
1
60
0
100
AcDbLine
10
99.920201
20
-4.40914
30
0
11
99.835777
21
-3.113168
31
0
39
0
210
0
220
0
230
1
0
LINE
5
5B
100
AcDbEntity
8
SK4
62
256
6
ByLayer
370
-1
48
0.05
60
0
100
AcDbLine
10
-206.32
20
0
30
0
11
104.93
21
0
31
0
39
0
210
0
220
0
230
1
0
LINE
5
5D
100
AcDbEntity
8
80
62
256
6
ByLayer
370
-1
48
1
60
0
100
AcDbLine
10
0
20
0
30
0
11
-5
21
0
31
0
39
0
210
0
220
0
230
1
0
LINE
5
5E
100
AcDbEntity
8
81
62
256
6
ByLayer
370
-1
48
1
60
0
100
AcDbLine
10
99.93
20
-18.875
30
0
11
104.93
21
-18.875
31
0
39
0
210
0
220
0
230
1
0
LINE
5
5F
100
AcDbEntity
8
1
62
256
6
ByLayer
370
-1
48
1
60
0
100
AcDbLine
10
75.244899
20
-12.175
30
0
11
75.244899
21
-12.02131
31
0
39
0
210
0
220
0
230
1
0
LINE
5
60
100
AcDbEntity
8
1
62
256
6
ByLayer
370
-1
48
1
60
0
100
AcDbLine
10
75.244899
20
3.997577
30
0
11
75.244899
21
12.175
31
0
39
0
210
0
220
0
230
1
0
LINE
5
61
100
AcDbEntity
8
1
62
256
6
ByLayer
370
-1
48
1
60
0
100
AcDbLine
10
95.705292
20
0.433611
30
0
11
99.216433
21
2.407147
31
0
39
0
210
0
220
0
230
1
0
LINE
5
62
100
AcDbEntity
8
1
62
256
6
ByLayer
370
-1
48
1
60
0
100
AcDbLine
10
75.619028
20
12.185
30
0
11
87.8406
21
9.508251
31
0
39
0
210
0
220
0
230
1
0
LINE
5
63
100
AcDbEntity
8
1
62
256
6
ByLayer
370
-1
48
1
60
0
100
AcDbLine
10
80.192506
20
4.027931
30
0
11
75.370995
21
4.027931
31
0
39
0
210
0
220
0
230
1
0
LINE
5
64
100
AcDbEntity
8
1
62
256
6
ByLayer
370
-1
48
1
60
0
100
AcDbLine
10
99.062479
20
-2.256834
30
0
11
99.062479
21
-2.003479
31
0
39
0
210
0
220
0
230
1
0
LINE
5
65
100
AcDbEntity
8
1
62
256
6
ByLayer
370
-1
48
1
60
0
100
AcDbLine
10
99.2303
20
7.013698
30
0
11
99.2303
21
2.457429
31
0
39
0
210
0
220
0
230
1
0
LINE
5
66
100
AcDbEntity
8
1
62
256
6
ByLayer
370
-1
48
1
60
0
100
AcDbLine
10
75.244899
20
3.997577
30
0
11
64.969518
21
3.997577
31
0
39
0
210
0
220
0
230
1
0
LINE
5
67
100
AcDbEntity
8
1
62
256
6
ByLayer
370
-1
48
1
60
0
100
AcDbLine
10
73.921409
20
-12.175
30
0
11
71.755159
21
-10.00875
31
0
39
0
210
0
220
0
230
1
0
LINE
5
68
100
AcDbEntity
8
1
62
256
6
ByLayer
370
-1
48
1
60
0
100
AcDbLine
10
64.969518
20
-3.997577
30
0
11
64.969518
21
-10.00875
31
0
39
0
210
0
220
0
230
1
0
LINE
5
69
100
AcDbEntity
8
1
62
256
6
ByLayer
370
-1
48
1
60
0
100
AcDbLine
10
85.45636
20
-5.327091
30
0
11
85.261512
21
-5.394008
31
0
39
0
210
0
220
0
230
1
0
LINE
5
6A
100
AcDbEntity
8
1
62
256
6
ByLayer
370
-1
48
1
60
0
100
AcDbLine
10
85.45636
20
-5.327091
30
0
11
86.786474
21
-4.579463
31
0
39
0
210
0
220
0
230
1
0
LINE
5
6B
100
AcDbEntity
8
1
62
256
6
ByLayer
370
-1
48
1
60
0
100
AcDbLine
10
75.857735
20
-12.46077
30
0
11
75.857735
21
-12.342081
31
0
39
0
210
0
220
0
230
1
0
LINE
5
6C
100
AcDbEntity
8
1
62
256
6
ByLayer
370
-1
48
1
60
0
100
AcDbLine
10
78.173755
20
-6.079922
30
0
11
74.78478
21
-11.765383
31
0
39
0
210
0
220
0
230
1
0
LINE
5
6D
100
AcDbEntity
8
1
62
256
6
ByLayer
370
-1
48
1
60
0
100
AcDbLine
10
0
20
-4.87661
30
0
11
0
21
4.87661
31
0
39
0
210
0
220
0
230
1
0
LINE
5
6E
100
AcDbEntity
8
1
62
256
6
ByLayer
370
-1
48
1
60
0
100
AcDbLine
10
86.431917
20
-11.165795
30
0
11
86.702897
21
-12.13618
31
0
39
0
210
0
220
0
230
1
0
LINE
5
6F
100
AcDbEntity
8
1
62
256
6
ByLayer
370
-1
48
1
60
0
100
AcDbLine
10
99.216433
20
2.407147
30
0
11
99.2303
21
2.457429
31
0
39
0
210
0
220
0
230
1
0
LINE
5
70
100
AcDbEntity
8
1
62
256
6
ByLayer
370
-1
48
1
60
0
100
AcDbLine
10
86.702897
20
-14.108401
30
0
11
86.702897
21
-12.13618
31
0
39
0
210
0
220
0
230
1
0
LINE
5
71
100
AcDbEntity
8
1
62
256
6
ByLayer
370
-1
48
1
60
0
100
AcDbLine
10
64.569518
20
12.28218
30
0
11
64.569518
21
4.312996
31
0
39
0
210
0
220
0
230
1
0
LINE
5
72
100
AcDbEntity
8
1
62
256
6
ByLayer
370
-1
48
1
60
0
100
AcDbLine
10
64.207398
20
-4.87661
30
0
11
64.207398
21
-10.00875
31
0
39
0
210
0
220
0
230
1
0
LINE
5
73
100
AcDbEntity
8
1
62
256
6
ByLayer
370
-1
48
1
60
0
100
AcDbLine
10
99.2303
20
2.457429
30
0
11
85.261512
21
-5.394008
31
0
39
0
210
0
220
0
230
1
0
LINE
5
74
100
AcDbEntity
8
1
62
256
6
ByLayer
370
-1
48
1
60
0
100
AcDbLine
10
87.043415
20
8.800123
30
0
11
80.04511
21
-2.940474
31
0
39
0
210
0
220
0
230
1
0
LINE
5
75
100
AcDbEntity
8
1
62
256
6
ByLayer
370
-1
48
1
60
0
100
AcDbLine
10
0
20
-10.00875
30
0
11
64.207398
21
-10.00875
31
0
39
0
210
0
220
0
230
1
0
LINE
5
76
100
AcDbEntity
8
1
62
256
6
ByLayer
370
-1
48
1
60
0
100
AcDbLine
10
64.569518
20
-4.312996
30
0
11
64.569518
21
-10.00875
31
0
39
0
210
0
220
0
230
1
0
LINE
5
77
100
AcDbEntity
8
1
62
256
6
ByLayer
370
-1
48
1
60
0
100
AcDbLine
10
87.780517
20
-4.055985
30
0
11
94.884124
21
-0.063202
31
0
39
0
210
0
220
0
230
1
0
LINE
5
78
100
AcDbEntity
8
1
62
256
6
ByLayer
370
-1
48
1
60
0
100
AcDbLine
10
88.549475
20
9.352994
30
0
11
75.705352
21
-12.194745
31
0
39
0
210
0
220
0
230
1
0
LINE
5
79
100
AcDbEntity
8
1
62
256
6
ByLayer
370
-1
48
1
60
0
100
AcDbLine
10
88.549475
20
9.352994
30
0
11
99.2303
21
7.013698
31
0
39
0
210
0
220
0
230
1
0
LINE
5
7A
100
AcDbEntity
8
1
62
256
6
ByLayer
370
-1
48
1
60
0
100
AcDbLine
10
86.874808
20
-12.469874
30
0
11
86.874808
21
-11.410833
31
0
39
0
210
0
220
0
230
1
0
LINE
5
7B
100
AcDbEntity
8
1
62
256
6
ByLayer
370
-1
48
1
60
0
100
AcDbLine
10
64.207398
20
-4.87661
30
0
11
0
21
-4.87661
31
0
39
0
210
0
220
0
230
1
0
LINE
5
7C
100
AcDbEntity
8
1
62
256
6
ByLayer
370
-1
48
1
60
0
100
AcDbLine
10
73.483372
20
-3.997577
30
0
11
80.192506
21
4.027931
31
0
39
0
210
0
220
0
230
1
0
LINE
5
7D
100
AcDbEntity
8
1
62
256
6
ByLayer
370
-1
48
1
60
0
100
AcDbLine
10
75.370995
20
12.185
30
0
11
75.370995
21
4.027931
31
0
39
0
210
0
220
0
230
1
0
LINE
5
7E
100
AcDbEntity
8
1
62
256
6
ByLayer
370
-1
48
1
60
0
100
AcDbLine
10
64.207398
20
12.49125
30
0
11
64.207398
21
4.87661
31
0
39
0
210
0
220
0
230
1
0
LINE
5
7F
100
AcDbEntity
8
1
62
256
6
ByLayer
370
-1
48
1
60
0
100
AcDbLine
10
86.874826
20
-11.53023
30
0
11
87.031847
21
-11.529551
31
0
39
0
210
0
220
0
230
1
0
LINE
5
80
100
AcDbEntity
8
1
62
256
6
ByLayer
370
-1
48
1
60
0
100
AcDbLine
10
86.702897
20
-12.13618
30
0
11
82.69978
21
-9.920849
31
0
39
0
210
0
220
0
230
1
0
LINE
5
81
100
AcDbEntity
8
1
62
256
6
ByLayer
370
-1
48
1
60
0
100
AcDbLine
10
64.969518
20
3.997577
30
0
11
64.969518
21
12.175
31
0
39
0
210
0
220
0
230
1
0
LINE
5
82
100
AcDbEntity
8
1
62
256
6
ByLayer
370
-1
48
1
60
0
100
AcDbLine
10
64.969518
20
-3.997577
30
0
11
73.483372
21
-3.997577
31
0
39
0
210
0
220
0
230
1
0
LINE
5
83
100
AcDbEntity
8
1
62
256
6
ByLayer
370
-1
48
1
60
0
100
AcDbLine
10
86.702897
20
-14.108401
30
0
11
77.317676
21
-14.149356
31
0
39
0
210
0
220
0
230
1
0
LINE
5
84
100
AcDbEntity
8
1
62
256
6
ByLayer
370
-1
48
1
60
0
100
AcDbLine
10
0
20
4.87661
30
0
11
0
21
12.49125
31
0
39
0
210
0
220
0
230
1
0
LINE
5
85
100
AcDbEntity
8
1
62
256
6
ByLayer
370
-1
48
1
60
0
100
AcDbLine
10
85.332654
20
-10.137959
30
0
11
81.797155
21
-8.1813
31
0
39
0
210
0
220
0
230
1
0
LINE
5
86
100
AcDbEntity
8
1
62
256
6
ByLayer
370
-1
48
1
60
0
100
AcDbLine
10
0
20
-4.87661
30
0
11
0
21
-10.00875
31
0
39
0
210
0
220
0
230
1
0
LINE
5
87
100
AcDbEntity
8
1
62
256
6
ByLayer
370
-1
48
1
60
0
100
AcDbLine
10
85.261512
20
-5.394008
30
0
11
85.218782
21
-5.352915
31
0
39
0
210
0
220
0
230
1
0
LINE
5
88
100
AcDbEntity
8
1
62
256
6
ByLayer
370
-1
48
1
60
0
100
AcDbLine
10
88.549475
20
9.352994
30
0
11
87.8406
21
9.508251
31
0
39
0
210
0
220
0
230
1
0
LINE
5
89
100
AcDbEntity
8
1
62
256
6
ByLayer
370
-1
48
1
60
0
100
AcDbLine
10
86.702893
20
-12.470617
30
0
11
86.874808
21
-12.469874
31
0
39
0
210
0
220
0
230
1
0
LINE
5
8A
100
AcDbEntity
8
1
62
256
6
ByLayer
370
-1
48
1
60
0
100
AcDbLine
10
71.755159
20
-10.00875
30
0
11
64.969518
21
-10.00875
31
0
39
0
210
0
220
0
230
1
0
LINE
5
8B
100
AcDbEntity
8
1
62
256
6
ByLayer
370
-1
48
1
60
0
100
AcDbLine
10
0
20
4.87661
30
0
11
64.207398
21
4.87661
31
0
39
0
210
0
220
0
230
1
0
LINE
5
8C
100
AcDbEntity
8
SK1
62
256
6
ByLayer
370
-1
48
1
60
0
100
AcDbLine
10
-199.32
20
4.87661
30
0
11
0
21
4.87661
31
0
39
0
210
0
220
0
230
1
0
LINE
5
8D
100
AcDbEntity
8
SK1
62
256
6
ByLayer
370
-1
48
1
60
0
100
AcDbLine
10
-201.32
20
10.49125
30
0
11
-201.32
21
-10.00875
31
0
39
0
210
0
220
0
230
1
0
LINE
5
8E
100
AcDbEntity
8
SK1
62
256
6
ByLayer
370
-1
48
1
60
0
100
AcDbLine
10
-199.32
20
12.49125
30
0
11
-199.32
21
4.87661
31
0
39
0
210
0
220
0
230
1
0
LINE
5
8F
100
AcDbEntity
8
1
62
256
6
ByLayer
370
-1
48
1
60
0
100
AcDbLine
10
92.163944
20
-8.28801
30
0
11
92.171986
21
-8.411464
31
0
39
0
210
0
220
0
230
1
0
LINE
5
90
100
AcDbEntity
8
1
62
256
6
ByLayer
370
-1
48
1
60
0
100
AcDbLine
10
99.746426
20
-0.338587
30
0
11
99.752168
21
-0.341323
31
0
39
0
210
0
220
0
230
1
0
LINE
5
91
100
AcDbEntity
8
1
62
256
6
ByLayer
370
-1
48
1
60
0
100
AcDbLine
10
99.706342
20
3.350093
30
0
11
99.722977
21
3.350005
31
0
39
0
210
0
220
0
230
1
0
LINE
5
92
100
AcDbEntity
8
1
62
256
6
ByLayer
370
-1
48
1
60
0
100
AcDbLine
10
99.665967
20
0.881054
30
0
11
99.742652
21
0.880647
31
0
39
0
210
0
220
0
230
1
0
LINE
5
93
100
AcDbEntity
8
1
62
256
6
ByLayer
370
-1
48
1
60
0
100
AcDbLine
10
99.665711
20
0.892486
30
0
11
99.730032
21
0.892145
31
0
39
0
210
0
220
0
230
1
0
LINE
5
94
100
AcDbEntity
8
1
62
256
6
ByLayer
370
-1
48
1
60
0
100
AcDbLine
10
99.658305
20
1.776745
30
0
11
99.748289
21
1.776268
31
0
39
0
210
0
220
0
230
1
0
LINE
5
95
100
AcDbEntity
8
1
62
256
6
ByLayer
370
-1
48
1
60
0
100
AcDbLine
10
99.658326
20
1.777421
30
0
11
99.761159
21
1.776877
31
0
39
0
210
0
220
0
230
1
0
LINE
5
96
100
AcDbEntity
8
1
62
256
6
ByLayer
370
-1
48
1
60
0
100
AcDbLine
10
95.141276
20
-0.101294
30
0
11
95.128584
21
0.093541
31
0
39
0
210
0
220
0
230
1
0
LINE
5
97
100
AcDbEntity
8
1
62
256
6
ByLayer
370
-1
48
1
60
0
100
AcDbLine
10
96.839101
20
1.070882
30
0
11
99.42666
21
1.044324
31
0
39
0
210
0
220
0
230
1
0
LINE
5
98
100
AcDbEntity
8
1
62
256
6
ByLayer
370
-1
48
1
60
0
100
AcDbLine
10
87.094456
20
-4.694521
30
0
11
87.076555
21
-4.419714
31
0
39
0
210
0
220
0
230
1
0
LINE
5
99
100
AcDbEntity
8
1
62
256
6
ByLayer
370
-1
48
1
60
0
100
AcDbLine
10
95.002848
20
0.014136
30
0
11
95.012509
21
-0.13418
31
0
39
0
210
0
220
0
230
1
0
LINE
5
9A
100
AcDbEntity
8
1
62
256
6
ByLayer
370
-1
48
1
60
0
100
AcDbLine
10
98.627263
20
-2.816937
30
0
11
98.61213
21
-2.584631
31
0
39
0
210
0
220
0
230
1
0
LINE
5
9B
100
AcDbEntity
8
1
62
256
6
ByLayer
370
-1
48
1
60
0
100
AcDbLine
10
98.898593
20
-2.122273
30
0
11
98.906526
21
-2.135511
31
0
39
0
210
0
220
0
230
1
0
LINE
5
9C
100
AcDbEntity
8
1
62
256
6
ByLayer
370
-1
48
1
60
0
100
AcDbLine
10
86.982602
20
-4.470756
30
0
11
87.002963
21
-4.783308
31
0
39
0
210
0
220
0
230
1
0
LINE
5
9D
100
AcDbEntity
8
1
62
256
6
ByLayer
370
-1
48
1
60
0
100
AcDbLine
10
86.612845
20
-5.437784
30
0
11
86.56504
21
-4.703939
31
0
39
0
210
0
220
0
230
1
0
LINE
5
9E
100
AcDbEntity
8
SK1
62
256
6
ByLayer
370
-1
48
1
60
0
100
AcDbLine
10
0
20
12.49125
30
0
11
0
21
4.87661
31
0
39
0
210
0
220
0
230
1
0
LINE
5
9F
100
AcDbEntity
8
1
62
256
6
ByLayer
370
-1
48
1
60
0
100
AcDbLine
10
86.665128
20
-5.964173
30
0
11
86.64491
21
-5.653815
31
0
39
0
210
0
220
0
230
1
0
LINE
5
A0
100
AcDbEntity
8
1
62
256
6
ByLayer
370
-1
48
1
60
0
100
AcDbLine
10
86.218127
20
-5.285916
30
0
11
86.542398
21
-4.741908
31
0
39
0
210
0
220
0
230
1
0
LINE
5
A1
100
AcDbEntity
8
1
62
256
6
ByLayer
370
-1
48
1
60
0
100
AcDbLine
10
84.5355
20
-4.925559
30
0
11
83.297519
21
-5.620488
31
0
39
0
210
0
220
0
230
1
0
LINE
5
A2
100
AcDbEntity
8
1
62
256
6
ByLayer
370
-1
48
1
60
0
100
AcDbLine
10
97.2858
20
1.321914
30
0
11
97.2858
21
1.066235
31
0
39
0
210
0
220
0
230
1
0
LINE
5
A3
100
AcDbEntity
8
1
62
256
6
ByLayer
370
-1
48
1
60
0
100
AcDbLine
10
89.352106
20
-12.891511
30
0
11
89.352106
21
-13.094781
31
0
39
0
210
0
220
0
230
1
0
LINE
5
A4
100
AcDbEntity
8
1
62
256
6
ByLayer
370
-1
48
1
60
0
100
AcDbLine
10
89.238625
20
-12.828628
30
0
11
89.238625
21
-13.095203
31
0
39
0
210
0
220
0
230
1
0
LINE
5
A5
100
AcDbEntity
8
1
62
256
6
ByLayer
370
-1
48
1
60
0
100
AcDbLine
10
88.793506
20
-12.582311
30
0
11
88.793506
21
-13.046476
31
0
39
0
210
0
220
0
230
1
0
LINE
5
A6
100
AcDbEntity
8
1
62
256
6
ByLayer
370
-1
48
1
60
0
100
AcDbLine
10
88.469234
20
-12.419566
30
0
11
88.469234
21
-12.940295
31
0
39
0
210
0
220
0
230
1
0
LINE
5
A7
100
AcDbEntity
8
1
62
256
6
ByLayer
370
-1
48
1
60
0
100
AcDbLine
10
88.216243
20
-12.339162
30
0
11
88.216243
21
-12.941236
31
0
39
0
210
0
220
0
230
1
0
LINE
5
A8
100
AcDbEntity
8
1
62
256
6
ByLayer
370
-1
48
1
60
0
100
AcDbLine
10
87.086826
20
-12.365882
30
0
11
87.086826
21
-11.528198
31
0
39
0
210
0
220
0
230
1
0
LINE
5
A9
100
AcDbEntity
8
1
62
256
6
ByLayer
370
-1
48
1
60
0
100
AcDbLine
10
84.507552
20
-8.801553
30
0
11
84.287107
21
-8.802373
31
0
39
0
210
0
220
0
230
1
0
LINE
5
AA
100
AcDbEntity
8
1
62
256
6
ByLayer
370
-1
48
1
60
0
100
AcDbLine
10
83.230101
20
-4.87396
30
0
11
83.287208
21
-5.758886
31
0
39
0
210
0
220
0
230
1
0
LINE
5
AB
100
AcDbEntity
8
1
62
256
6
ByLayer
370
-1
48
1
60
0
100
AcDbLine
10
83.218029
20
-6.76818
30
0
11
83.218029
21
-4.877466
31
0
39
0
210
0
220
0
230
1
0
LINE
5
AC
100
AcDbEntity
8
1
62
256
6
ByLayer
370
-1
48
1
60
0
100
AcDbLine
10
87.030766
20
-11.497179
30
0
11
87.086826
21
-12.365882
31
0
39
0
210
0
220
0
230
1
0
LINE
5
AD
100
AcDbEntity
8
1
62
256
6
ByLayer
370
-1
48
1
60
0
100
AcDbLine
10
83.218029
20
-6.76818
30
0
11
83.287208
21
-7.840167
31
0
39
0
210
0
220
0
230
1
0
LINE
5
AE
100
AcDbEntity
8
1
62
256
6
ByLayer
370
-1
48
1
60
0
100
AcDbLine
10
83.287208
20
-7.840167
30
0
11
83.287208
21
-5.758886
31
0
39
0
210
0
220
0
230
1
0
LINE
5
AF
100
AcDbEntity
8
1
62
256
6
ByLayer
370
-1
48
1
60
0
100
AcDbLine
10
88.216243
20
-12.941236
30
0
11
87.686765
21
-12.943206
31
0
39
0
210
0
220
0
230
1
0
LINE
5
B0
100
AcDbEntity
8
1
62
256
6
ByLayer
370
-1
48
1
60
0
100
AcDbLine
10
89.238625
20
-13.095203
30
0
11
89.352106
21
-13.094781
31
0
39
0
210
0
220
0
230
1
0
LINE
5
B1
100
AcDbEntity
8
1
62
256
6
ByLayer
370
-1
48
1
60
0
100
AcDbLine
10
83.698232
20
-5.465487
30
0
11
85.979912
21
-5.422154
31
0
39
0
210
0
220
0
230
1
0
LINE
5
B2
100
AcDbEntity
8
1
62
256
6
ByLayer
370
-1
48
1
60
0
100
AcDbLine
10
83.474014
20
-5.672316
30
0
11
83.545095
21
-5.553068
31
0
39
0
210
0
220
0
230
1
0
LINE
5
B3
100
AcDbEntity
8
1
62
256
6
ByLayer
370
-1
48
1
60
0
100
AcDbLine
10
89.902862
20
-3.010989
30
0
11
87.382813
21
-4.53243
31
0
39
0
210
0
220
0
230
1
0
LINE
5
B4
100
AcDbEntity
8
1
62
256
6
ByLayer
370
-1
48
1
60
0
100
AcDbLine
10
86.675285
20
-5.719402
30
0
11
86.678832
21
-5.726636
31
0
39
0
210
0
220
0
230
1
0
LINE
5
B5
100
AcDbEntity
8
1
62
256
6
ByLayer
370
-1
48
1
60
0
100
AcDbLine
10
86.665128
20
-5.964173
30
0
11
86.301996
21
-6.573376
31
0
39
0
210
0
220
0
230
1
0
LINE
5
B6
100
AcDbEntity
8
1
62
256
6
ByLayer
370
-1
48
1
60
0
100
AcDbLine
10
86.064398
20
-6.719068
30
0
11
83.791566
21
-6.898238
31
0
39
0
210
0
220
0
230
1
0
LINE
5
B7
100
AcDbEntity
8
1
62
256
6
ByLayer
370
-1
48
1
60
0
100
AcDbLine
10
83.638825
20
-6.991898
30
0
11
83.567744
21
-7.111145
31
0
39
0
210
0
220
0
230
1
0
LINE
5
B8
100
AcDbEntity
8
1
62
256
6
ByLayer
370
-1
48
1
60
0
100
AcDbLine
10
88.636317
20
-12.495439
30
0
11
89.417008
21
-12.927468
31
0
39
0
210
0
220
0
230
1
0
LINE
5
B9
100
AcDbEntity
8
1
62
256
6
ByLayer
370
-1
48
1
60
0
100
AcDbLine
10
87.382813
20
-4.53243
30
0
11
87.094456
21
-4.694521
31
0
39
0
210
0
220
0
230
1
0
LINE
5
BA
100
AcDbEntity
8
1
62
256
6
ByLayer
370
-1
48
1
60
0
100
AcDbLine
10
86.605783
20
-5.569332
30
0
11
86.675285
21
-5.719402
31
0
39
0
210
0
220
0
230
1
0
LINE
5
BB
100
AcDbEntity
8
1
62
256
6
ByLayer
370
-1
48
1
60
0
100
AcDbLine
10
87.002963
20
-4.783308
30
0
11
86.612845
21
-5.437784
31
0
39
0
210
0
220
0
230
1
0
LINE
5
BC
100
AcDbEntity
8
1
62
256
6
ByLayer
370
-1
48
1
60
0
100
AcDbLine
10
85.767831
20
-10.798279
30
0
11
87.283786
21
-11.637198
31
0
39
0
210
0
220
0
230
1
0
LINE
5
BD
100
AcDbEntity
8
1
62
256
6
ByLayer
370
-1
48
1
60
0
100
AcDbLine
10
85.569579
20
-10.525762
30
0
11
85.67447
21
-10.707118
31
0
39
0
210
0
220
0
230
1
0
LINE
5
BE
100
AcDbEntity
8
1
62
256
6
ByLayer
370
-1
48
1
60
0
100
AcDbLine
10
85.270818
20
-9.434446
30
0
11
86.485405
21
-8.678493
31
0
39
0
210
0
220
0
230
1
0
LINE
5
BF
100
AcDbEntity
8
1
62
256
6
ByLayer
370
-1
48
1
60
0
100
AcDbLine
10
83.71546
20
-7.233204
30
0
11
85.071319
21
-9.429178
31
0
39
0
210
0
220
0
230
1
0
LINE
5
C0
100
AcDbEntity
8
1
62
256
6
ByLayer
370
-1
48
1
60
0
100
AcDbLine
10
83.717371
20
-7.128884
30
0
11
83.738807
21
-7.092923
31
0
39
0
210
0
220
0
230
1
0
LINE
5
C1
100
AcDbEntity
8
1
62
256
6
ByLayer
370
-1
48
1
60
0
100
AcDbLine
10
83.834627
20
-7.033285
30
0
11
86.63085
21
-6.812855
31
0
39
0
210
0
220
0
230
1
0
LINE
5
C2
100
AcDbEntity
8
1
62
256
6
ByLayer
370
-1
48
1
60
0
100
AcDbLine
10
86.722858
20
-8.280133
30
0
11
86.747085
21
-6.957811
31
0
39
0
210
0
220
0
230
1
0
LINE
5
C3
100
AcDbEntity
8
1
62
256
6
ByLayer
370
-1
48
1
60
0
100
AcDbLine
10
90.926539
20
-4.788446
30
0
11
90.733271
21
-4.138156
31
0
39
0
210
0
220
0
230
1
0
LINE
5
C4
100
AcDbEntity
8
1
62
256
6
ByLayer
370
-1
48
1
60
0
100
AcDbLine
10
88.840549
20
-10.98266
30
0
11
89.500682
21
-10.31939
31
0
39
0
210
0
220
0
230
1
0
LINE
5
C5
100
AcDbEntity
8
1
62
256
6
ByLayer
370
-1
48
1
60
0
100
AcDbLine
10
90.794657
20
-4.114718
30
0
11
90.987925
21
-4.765008
31
0
39
0
210
0
220
0
230
1
0
LINE
5
C6
100
AcDbEntity
8
1
62
256
6
ByLayer
370
-1
48
1
60
0
100
AcDbLine
10
89.652359
20
-13.089551
30
0
11
90.721114
21
-12.894969
31
0
39
0
210
0
220
0
230
1
0
LINE
5
C7
100
AcDbEntity
8
1
62
256
6
ByLayer
370
-1
48
1
60
0
100
AcDbLine
10
90.767021
20
-13.012041
30
0
11
89.812887
21
-13.185755
31
0
39
0
210
0
220
0
230
1
0
LINE
5
C8
100
AcDbEntity
8
1
62
256
6
ByLayer
370
-1
48
1
60
0
100
AcDbLine
10
89.54652
20
-10.356264
30
0
11
88.886386
21
-11.019534
31
0
39
0
210
0
220
0
230
1
0
LINE
5
C9
100
AcDbEntity
8
1
62
256
6
ByLayer
370
-1
48
1
60
0
100
AcDbLine
10
85.49648
20
-10.403286
30
0
11
86.555819
21
-8.626101
31
0
39
0
210
0
220
0
230
1
0
LINE
5
CA
100
AcDbEntity
8
1
62
256
6
ByLayer
370
-1
48
1
60
0
100
AcDbLine
10
86.713498
20
-8.361575
30
0
11
89.902862
21
-3.010989
31
0
39
0
210
0
220
0
230
1
0
LINE
5
CB
100
AcDbEntity
8
1
62
256
6
ByLayer
370
-1
48
1
60
0
100
AcDbLine
10
88.160885
20
-6.178499
30
0
11
85.569579
21
-10.525762
31
0
39
0
210
0
220
0
230
1
0
LINE
5
CC
100
AcDbEntity
8
1
62
256
6
ByLayer
370
-1
48
1
60
0
100
AcDbLine
10
91.059099
20
-11.565067
30
0
11
89.590281
21
-13.040864
31
0
39
0
210
0
220
0
230
1
0
LINE
5
CD
100
AcDbEntity
8
1
62
256
6
ByLayer
370
-1
48
1
60
0
100
AcDbLine
10
90.419977
20
-10.703304
30
0
11
88.636317
21
-12.495439
31
0
39
0
210
0
220
0
230
1
0
LINE
5
CE
100
AcDbEntity
8
1
62
256
6
ByLayer
370
-1
48
1
60
0
100
AcDbLine
10
89.417008
20
-12.927468
30
0
11
91.049174
21
-11.287547
31
0
39
0
210
0
220
0
230
1
0
LINE
5
CF
100
AcDbEntity
8
1
62
256
6
ByLayer
370
-1
48
1
60
0
100
AcDbLine
10
88.465411
20
-12.418369
30
0
11
90.152511
21
-10.723253
31
0
39
0
210
0
220
0
230
1
0
LINE
5
D0
100
AcDbEntity
8
1
62
256
6
ByLayer
370
-1
48
1
60
0
100
AcDbLine
10
86.675285
20
-5.719402
30
0
11
87.382813
21
-4.53243
31
0
39
0
210
0
220
0
230
1
0
LINE
5
D1
100
AcDbEntity
8
1
62
256
6
ByLayer
370
-1
48
1
60
0
100
AcDbLine
10
84.128868
20
-7.380835
30
0
11
83.753825
21
-7.224869
31
0
39
0
210
0
220
0
230
1
0
LINE
5
D2
100
AcDbEntity
8
1
62
256
6
ByLayer
370
-1
48
1
60
0
100
AcDbLine
10
83.851557
20
-7.060911
30
0
11
84.2266
21
-7.216877
31
0
39
0
210
0
220
0
230
1
0
LINE
5
D3
100
AcDbEntity
8
1
62
256
6
ByLayer
370
-1
48
1
60
0
100
AcDbLine
10
83.834627
20
-7.033285
30
0
11
83.851557
21
-7.060911
31
0
39
0
210
0
220
0
230
1
0
LINE
5
D4
100
AcDbEntity
8
1
62
256
6
ByLayer
370
-1
48
1
60
0
100
AcDbLine
10
83.753825
20
-7.224869
30
0
11
83.71546
21
-7.233204
31
0
39
0
210
0
220
0
230
1
0
LINE
5
D5
100
AcDbEntity
8
1
62
256
6
ByLayer
370
-1
48
1
60
0
100
AcDbLine
10
83.717371
20
-7.128884
30
0
11
83.755736
21
-7.120549
31
0
39
0
210
0
220
0
230
1
0
LINE
5
D6
100
AcDbEntity
8
1
62
256
6
ByLayer
370
-1
48
1
60
0
100
AcDbLine
10
83.755736
20
-7.120549
30
0
11
83.738807
21
-7.092923
31
0
39
0
210
0
220
0
230
1
0
LINE
5
D7
100
AcDbEntity
8
1
62
256
6
ByLayer
370
-1
48
1
60
0
100
AcDbLine
10
84.2266
20
-7.216877
30
0
11
86.260217
21
-7.056565
31
0
39
0
210
0
220
0
230
1
0
LINE
5
D8
100
AcDbEntity
8
1
62
256
6
ByLayer
370
-1
48
1
60
0
100
AcDbLine
10
84.219904
20
-7.313754
30
0
11
85.205984
21
-8.910827
31
0
39
0
210
0
220
0
230
1
0
LINE
5
D9
100
AcDbEntity
8
1
62
256
6
ByLayer
370
-1
48
1
60
0
100
AcDbLine
10
86.253522
20
-7.153442
30
0
11
84.219904
21
-7.313754
31
0
39
0
210
0
220
0
230
1
0
LINE
5
DA
100
AcDbEntity
8
1
62
256
6
ByLayer
370
-1
48
1
60
0
100
AcDbLine
10
85.114948
20
-8.977908
30
0
11
84.128868
21
-7.380835
31
0
39
0
210
0
220
0
230
1
0
LINE
5
DB
100
AcDbEntity
8
1
62
256
6
ByLayer
370
-1
48
1
60
0
100
AcDbLine
10
85.205984
20
-8.910827
30
0
11
86.233035
21
-8.271594
31
0
39
0
210
0
220
0
230
1
0
LINE
5
DC
100
AcDbEntity
8
1
62
256
6
ByLayer
370
-1
48
1
60
0
100
AcDbLine
10
86.233035
20
-8.271594
30
0
11
86.253522
21
-7.153442
31
0
39
0
210
0
220
0
230
1
0
LINE
5
DD
100
AcDbEntity
8
1
62
256
6
ByLayer
370
-1
48
1
60
0
100
AcDbLine
10
98.990395
20
-3.422971
30
0
11
98.906526
21
-2.135511
31
0
39
0
210
0
220
0
230
1
0
LINE
5
DE
100
AcDbEntity
8
1
62
256
6
ByLayer
370
-1
48
1
60
0
100
AcDbLine
10
99.204404
20
-3.563837
30
0
11
99.120013
21
-2.268358
31
0
39
0
210
0
220
0
230
1
0
LINE
5
DF
100
AcDbEntity
8
1
62
256
6
ByLayer
370
-1
48
1
60
0
100
AcDbLine
10
99.382719
20
-3.581468
30
0
11
99.298295
21
-2.285495
31
0
39
0
210
0
220
0
230
1
0
LINE
5
E0
100
AcDbEntity
8
1
62
256
6
ByLayer
370
-1
48
1
60
0
100
AcDbLine
10
99.497087
20
-3.652636
30
0
11
99.412663
21
-2.356663
31
0
39
0
210
0
220
0
230
1
0
LINE
5
E1
100
AcDbEntity
8
1
62
256
6
ByLayer
370
-1
48
1
60
0
100
AcDbLine
10
99.412663
20
-2.356663
30
0
11
99.802781
21
-3.007734
31
0
39
0
210
0
220
0
230
1
0
LINE
5
E2
100
AcDbEntity
8
1
62
256
6
ByLayer
370
-1
48
1
60
0
100
AcDbLine
10
99.120013
20
-2.268358
30
0
11
99.298295
21
-2.285495
31
0
39
0
210
0
220
0
230
1
0
LINE
5
E3
100
AcDbEntity
8
1
62
256
6
ByLayer
370
-1
48
1
60
0
100
AcDbLine
10
94.826337
20
-15.123705
30
0
11
93.411282
21
-15.12988
31
0
39
0
210
0
220
0
230
1
0
LINE
5
E4
100
AcDbEntity
8
1
62
256
6
ByLayer
370
-1
48
1
60
0
100
AcDbLine
10
97.523318
20
-16.525508
30
0
11
97.526804
21
-17.001271
31
0
39
0
210
0
220
0
230
1
0
LINE
5
E5
100
AcDbEntity
8
1
62
256
6
ByLayer
370
-1
48
1
60
0
100
AcDbLine
10
97.331341
20
-17.002124
30
0
11
97.327855
21
-16.526361
31
0
39
0
210
0
220
0
230
1
0
LINE
5
E6
100
AcDbEntity
8
1
62
256
6
ByLayer
370
-1
48
1
60
0
100
AcDbLine
10
97.310287
20
-17.03935
30
0
11
97.331341
21
-17.002124
31
0
39
0
210
0
220
0
230
1
0
LINE
5
E7
100
AcDbEntity
8
1
62
256
6
ByLayer
370
-1
48
1
60
0
100
AcDbLine
10
97.526804
20
-17.001271
30
0
11
97.548622
21
-17.03831
31
0
39
0
210
0
220
0
230
1
0
LINE
5
E8
100
AcDbEntity
8
1
62
256
6
ByLayer
370
-1
48
1
60
0
100
AcDbLine
10
97.451137
20
-17.095169
30
0
11
97.429319
21
-17.05813
31
0
39
0
210
0
220
0
230
1
0
LINE
5
E9
100
AcDbEntity
8
1
62
256
6
ByLayer
370
-1
48
1
60
0
100
AcDbLine
10
97.429319
20
-17.05813
30
0
11
97.408265
21
-17.095356
31
0
39
0
210
0
220
0
230
1
0
LINE
5
EA
100
AcDbEntity
8
1
62
256
6
ByLayer
370
-1
48
1
60
0
100
AcDbLine
10
97.327855
20
-16.526361
30
0
11
96.2724
21
-14.716302
31
0
39
0
210
0
220
0
230
1
0
LINE
5
EB
100
AcDbEntity
8
1
62
256
6
ByLayer
370
-1
48
1
60
0
100
AcDbLine
10
97.425016
20
-16.469502
30
0
11
98.464637
21
-14.650302
31
0
39
0
210
0
220
0
230
1
0
LINE
5
EC
100
AcDbEntity
8
1
62
256
6
ByLayer
370
-1
48
1
60
0
100
AcDbLine
10
96.369561
20
-14.659444
30
0
11
97.425016
21
-16.469502
31
0
39
0
210
0
220
0
230
1
0
LINE
5
ED
100
AcDbEntity
8
1
62
256
6
ByLayer
370
-1
48
1
60
0
100
AcDbLine
10
98.562939
20
-14.706307
30
0
11
97.523318
21
-16.525508
31
0
39
0
210
0
220
0
230
1
0
LINE
5
EE
100
AcDbEntity
8
1
62
256
6
ByLayer
370
-1
48
1
60
0
100
AcDbLine
10
98.464637
20
-14.650302
30
0
11
97.41446
21
-14.049996
31
0
39
0
210
0
220
0
230
1
0
LINE
5
EF
100
AcDbEntity
8
1
62
256
6
ByLayer
370
-1
48
1
60
0
100
AcDbLine
10
97.41446
20
-14.049996
30
0
11
96.369561
21
-14.659444
31
0
39
0
210
0
220
0
230
1
0
LINE
5
F0
100
AcDbEntity
8
1
62
256
6
ByLayer
370
-1
48
1
60
0
100
AcDbLine
10
92.580497
20
-1.699795
30
0
11
92.332131
21
-1.777738
31
0
39
0
210
0
220
0
230
1
0
LINE
5
F1
100
AcDbEntity
8
1
62
256
6
ByLayer
370
-1
48
1
60
0
100
AcDbLine
10
90.987588
20
-2.556871
30
0
11
90.392072
21
-2.761688
31
0
39
0
210
0
220
0
230
1
0
LINE
5
F2
100
AcDbEntity
8
1
62
256
6
ByLayer
370
-1
48
1
60
0
100
AcDbLine
10
91.207261
20
-2.410051
30
0
11
91.14712
21
-2.459271
31
0
39
0
210
0
220
0
230
1
0
LINE
5
F3
100
AcDbEntity
8
1
62
256
6
ByLayer
370
-1
48
1
60
0
100
AcDbLine
10
99.519994
20
-0.388428
30
0
11
95.507721
21
-0.109461
31
0
39
0
210
0
220
0
230
1
0
LINE
5
F4
100
AcDbEntity
8
1
62
256
6
ByLayer
370
-1
48
1
60
0
100
AcDbLine
10
99.802781
20
-3.007734
30
0
11
99.887205
21
-4.303706
31
0
39
0
210
0
220
0
230
1
0
LINE
5
F5
100
AcDbEntity
8
1
62
256
6
ByLayer
370
-1
48
1
60
0
100
AcDbLine
10
83.567744
20
-7.111145
30
0
11
83.474014
21
-5.672316
31
0
39
0
210
0
220
0
230
1
0
LINE
5
F6
100
AcDbEntity
8
1
62
256
6
ByLayer
370
-1
48
1
60
0
100
AcDbLine
10
83.638825
20
-6.991898
30
0
11
83.545095
21
-5.553068
31
0
39
0
210
0
220
0
230
1
0
LINE
5
F7
100
AcDbEntity
8
1
62
256
6
ByLayer
370
-1
48
1
60
0
100
AcDbLine
10
83.791566
20
-6.898238
30
0
11
83.698232
21
-5.465487
31
0
39
0
210
0
220
0
230
1
0
LINE
5
F8
100
AcDbEntity
8
1
62
256
6
ByLayer
370
-1
48
1
60
0
100
AcDbLine
10
86.064398
20
-6.719068
30
0
11
85.979912
21
-5.422154
31
0
39
0
210
0
220
0
230
1
0
LINE
5
F9
100
AcDbEntity
8
1
62
256
6
ByLayer
370
-1
48
1
60
0
100
AcDbLine
10
86.301996
20
-6.573376
30
0
11
86.218127
21
-5.285916
31
0
39
0
210
0
220
0
230
1
0
LINE
5
FA
100
AcDbEntity
8
1
62
256
6
ByLayer
370
-1
48
1
60
0
100
AcDbLine
10
99.579797
20
0.958079
30
0
11
99.650878
21
0.839452
31
0
39
0
210
0
220
0
230
1
0
LINE
5
FB
100
AcDbEntity
8
1
62
256
6
ByLayer
370
-1
48
1
60
0
100
AcDbLine
10
99.914104
20
-7.463302
30
0
11
99.920694
21
-4.745967
31
0
39
0
210
0
220
0
230
1
0
LINE
5
FC
100
AcDbEntity
8
1
62
256
6
ByLayer
370
-1
48
1
60
0
100
AcDbLine
10
99.213166
20
-3.565169
30
0
11
99.204404
21
-3.563837
31
0
39
0
210
0
220
0
230
1
0
LINE
5
FD
100
AcDbEntity
8
1
62
256
6
ByLayer
370
-1
48
1
60
0
100
AcDbLine
10
98.990395
20
-3.422971
30
0
11
98.627263
21
-2.816937
31
0
39
0
210
0
220
0
230
1
0
LINE
5
FE
100
AcDbEntity
8
1
62
256
6
ByLayer
370
-1
48
1
60
0
100
AcDbLine
10
98.625787
20
-2.559503
30
0
11
99.745557
21
-0.764871
31
0
39
0
210
0
220
0
230
1
0
LINE
5
FF
100
AcDbEntity
8
1
62
256
6
ByLayer
370
-1
48
1
60
0
100
AcDbLine
10
99.744608
20
-0.599378
30
0
11
99.673527
21
-0.48075
31
0
39
0
210
0
220
0
230
1
0
LINE
5
100
100
AcDbEntity
8
1
62
256
6
ByLayer
370
-1
48
1
60
0
100
AcDbLine
10
92.158858
20
-1.85631
30
0
11
91.378167
21
-2.295153
31
0
39
0
210
0
220
0
230
1
0
LINE
5
101
100
AcDbEntity
8
1
62
256
6
ByLayer
370
-1
48
1
60
0
100
AcDbLine
10
99.920694
20
-4.745967
30
0
11
99.920694
21
-4.424301
31
0
39
0
210
0
220
0
230
1
0
LINE
5
102
100
AcDbEntity
8
1
62
256
6
ByLayer
370
-1
48
1
60
0
100
AcDbLine
10
99.382719
20
-3.581468
30
0
11
99.213166
21
-3.565169
31
0
39
0
210
0
220
0
230
1
0
LINE
5
103
100
AcDbEntity
8
1
62
256
6
ByLayer
370
-1
48
1
60
0
100
AcDbLine
10
99.887205
20
-4.303706
30
0
11
99.497087
21
-3.652636
31
0
39
0
210
0
220
0
230
1
0
LINE
5
104
100
AcDbEntity
8
1
62
256
6
ByLayer
370
-1
48
1
60
0
100
AcDbLine
10
95.012509
20
-0.13418
30
0
11
93.496554
21
-0.98633
31
0
39
0
210
0
220
0
230
1
0
LINE
5
105
100
AcDbEntity
8
1
62
256
6
ByLayer
370
-1
48
1
60
0
100
AcDbLine
10
95.356708
20
-0.103505
30
0
11
95.141276
21
-0.101294
31
0
39
0
210
0
220
0
230
1
0
LINE
5
106
100
AcDbEntity
8
1
62
256
6
ByLayer
370
-1
48
1
60
0
100
AcDbLine
10
96.540037
20
-0.473902
30
0
11
96.558021
21
-1.79604
31
0
39
0
210
0
220
0
230
1
0
LINE
5
107
100
AcDbEntity
8
1
62
256
6
ByLayer
370
-1
48
1
60
0
100
AcDbLine
10
99.475923
20
-0.523854
30
0
11
96.657927
21
-0.327923
31
0
39
0
210
0
220
0
230
1
0
LINE
5
108
100
AcDbEntity
8
1
62
256
6
ByLayer
370
-1
48
1
60
0
100
AcDbLine
10
99.572236
20
-0.582654
30
0
11
99.593672
21
-0.618428
31
0
39
0
210
0
220
0
230
1
0
LINE
5
109
100
AcDbEntity
8
1
62
256
6
ByLayer
370
-1
48
1
60
0
100
AcDbLine
10
99.59509
20
-0.722733
30
0
11
98.217458
21
-2.930636
31
0
39
0
210
0
220
0
230
1
0
LINE
5
10A
100
AcDbEntity
8
1
62
256
6
ByLayer
370
-1
48
1
60
0
100
AcDbLine
10
96.795475
20
-2.192327
30
0
11
98.016303
21
-2.937653
31
0
39
0
210
0
220
0
230
1
0
LINE
5
10B
100
AcDbEntity
8
1
62
256
6
ByLayer
370
-1
48
1
60
0
100
AcDbLine
10
98.119577
20
-7.894223
30
0
11
98.799918
21
-8.055126
31
0
39
0
210
0
220
0
230
1
0
LINE
5
10C
100
AcDbEntity
8
1
62
256
6
ByLayer
370
-1
48
1
60
0
100
AcDbLine
10
93.617941
20
-3.076098
30
0
11
93.879879
21
-3.957441
31
0
39
0
210
0
220
0
230
1
0
LINE
5
10D
100
AcDbEntity
8
1
62
256
6
ByLayer
370
-1
48
1
60
0
100
AcDbLine
10
98.783976
20
-8.109384
30
0
11
98.103634
21
-7.948481
31
0
39
0
210
0
220
0
230
1
0
LINE
5
10E
100
AcDbEntity
8
1
62
256
6
ByLayer
370
-1
48
1
60
0
100
AcDbLine
10
91.14712
20
-2.459271
30
0
11
90.900056
21
-3.619679
31
0
39
0
210
0
220
0
230
1
0
LINE
5
10F
100
AcDbEntity
8
1
62
256
6
ByLayer
370
-1
48
1
60
0
100
AcDbLine
10
90.767021
20
-3.59283
30
0
11
90.987588
21
-2.556871
31
0
39
0
210
0
220
0
230
1
0
LINE
5
110
100
AcDbEntity
8
1
62
256
6
ByLayer
370
-1
48
1
60
0
100
AcDbLine
10
93.817705
20
-3.96877
30
0
11
93.555766
21
-3.087427
31
0
39
0
210
0
220
0
230
1
0
LINE
5
111
100
AcDbEntity
8
1
62
256
6
ByLayer
370
-1
48
1
60
0
100
AcDbLine
10
95.507721
20
-0.109461
30
0
11
96.567061
21
-1.8774
31
0
39
0
210
0
220
0
230
1
0
LINE
5
112
100
AcDbEntity
8
1
62
256
6
ByLayer
370
-1
48
1
60
0
100
AcDbLine
10
96.72474
20
-2.140551
30
0
11
99.914104
21
-7.463302
31
0
39
0
210
0
220
0
230
1
0
LINE
5
113
100
AcDbEntity
8
1
62
256
6
ByLayer
370
-1
48
1
60
0
100
AcDbLine
10
97.948014
20
-4.428153
30
0
11
95.356708
21
-0.103505
31
0
39
0
210
0
220
0
230
1
0
LINE
5
114
100
AcDbEntity
8
1
62
256
6
ByLayer
370
-1
48
1
60
0
100
AcDbLine
10
91.790081
20
-4.371066
30
0
11
91.207261
21
-2.410051
31
0
39
0
210
0
220
0
230
1
0
LINE
5
115
100
AcDbEntity
8
1
62
256
6
ByLayer
370
-1
48
1
60
0
100
AcDbLine
10
92.866607
20
-4.23767
30
0
11
92.158858
21
-1.85631
31
0
39
0
210
0
220
0
230
1
0
LINE
5
116
100
AcDbEntity
8
1
62
256
6
ByLayer
370
-1
48
1
60
0
100
AcDbLine
10
91.378167
20
-2.295153
30
0
11
92.025803
21
-4.474254
31
0
39
0
210
0
220
0
230
1
0
LINE
5
117
100
AcDbEntity
8
1
62
256
6
ByLayer
370
-1
48
1
60
0
100
AcDbLine
10
92.332131
20
-1.777738
30
0
11
93.001564
21
-4.030181
31
0
39
0
210
0
220
0
230
1
0
LINE
5
118
100
AcDbEntity
8
1
62
256
6
ByLayer
370
-1
48
1
60
0
100
AcDbLine
10
99.213166
20
-3.565169
30
0
11
99.920694
21
-4.745967
31
0
39
0
210
0
220
0
230
1
0
LINE
5
119
100
AcDbEntity
8
1
62
256
6
ByLayer
370
-1
48
1
60
0
100
AcDbLine
10
99.076215
20
-0.710902
30
0
11
99.45823
21
-0.551632
31
0
39
0
210
0
220
0
230
1
0
LINE
5
11A
100
AcDbEntity
8
1
62
256
6
ByLayer
370
-1
48
1
60
0
100
AcDbLine
10
99.555961
20
-0.714736
30
0
11
99.173946
21
-0.874006
31
0
39
0
210
0
220
0
230
1
0
LINE
5
11B
100
AcDbEntity
8
1
62
256
6
ByLayer
370
-1
48
1
60
0
100
AcDbLine
10
99.59509
20
-0.722733
30
0
11
99.555961
21
-0.714736
31
0
39
0
210
0
220
0
230
1
0
LINE
5
11C
100
AcDbEntity
8
1
62
256
6
ByLayer
370
-1
48
1
60
0
100
AcDbLine
10
99.45823
20
-0.551632
30
0
11
99.475923
21
-0.523854
31
0
39
0
210
0
220
0
230
1
0
LINE
5
11D
100
AcDbEntity
8
1
62
256
6
ByLayer
370
-1
48
1
60
0
100
AcDbLine
10
99.572236
20
-0.582654
30
0
11
99.554542
21
-0.610431
31
0
39
0
210
0
220
0
230
1
0
LINE
5
11E
100
AcDbEntity
8
1
62
256
6
ByLayer
370
-1
48
1
60
0
100
AcDbLine
10
99.554542
20
-0.610431
30
0
11
99.593672
21
-0.618428
31
0
39
0
210
0
220
0
230
1
0
LINE
5
11F
100
AcDbEntity
8
1
62
256
6
ByLayer
370
-1
48
1
60
0
100
AcDbLine
10
99.173946
20
-0.874006
30
0
11
98.172032
21
-2.479754
31
0
39
0
210
0
220
0
230
1
0
LINE
5
120
100
AcDbEntity
8
1
62
256
6
ByLayer
370
-1
48
1
60
0
100
AcDbLine
10
99.08177
20
-0.807725
30
0
11
97.032317
21
-0.66523
31
0
39
0
210
0
220
0
230
1
0
LINE
5
121
100
AcDbEntity
8
1
62
256
6
ByLayer
370
-1
48
1
60
0
100
AcDbLine
10
98.079855
20
-2.413473
30
0
11
99.08177
21
-0.807725
31
0
39
0
210
0
220
0
230
1
0
LINE
5
122
100
AcDbEntity
8
1
62
256
6
ByLayer
370
-1
48
1
60
0
100
AcDbLine
10
97.026763
20
-0.568407
30
0
11
99.076215
21
-0.710902
31
0
39
0
210
0
220
0
230
1
0
LINE
5
123
100
AcDbEntity
8
1
62
256
6
ByLayer
370
-1
48
1
60
0
100
AcDbLine
10
97.032317
20
-0.66523
30
0
11
97.047525
21
-1.783227
31
0
39
0
210
0
220
0
230
1
0
LINE
5
124
100
AcDbEntity
8
1
62
256
6
ByLayer
370
-1
48
1
60
0
100
AcDbLine
10
97.047525
20
-1.783227
30
0
11
98.079855
21
-2.413473
31
0
39
0
210
0
220
0
230
1
0
LINE
5
125
100
AcDbEntity
8
1
62
256
6
ByLayer
370
-1
48
1
60
0
100
AcDbLine
10
88.224795
20
-12.342559
30
0
11
88.465411
21
-12.418369
31
0
39
0
210
0
220
0
230
1
0
LINE
5
126
100
AcDbEntity
8
1
62
256
6
ByLayer
370
-1
48
1
60
0
100
AcDbLine
10
89.812887
20
-13.185755
30
0
11
90.392072
21
-13.385445
31
0
39
0
210
0
220
0
230
1
0
LINE
5
127
100
AcDbEntity
8
1
62
256
6
ByLayer
370
-1
48
1
60
0
100
AcDbLine
10
89.590281
20
-13.040864
30
0
11
89.652359
21
-13.089551
31
0
39
0
210
0
220
0
230
1
0
LINE
5
128
100
AcDbEntity
8
1
62
256
6
ByLayer
370
-1
48
1
60
0
100
AcDbLine
10
83.566003
20
-7.276651
30
0
11
85.49648
21
-10.403286
31
0
39
0
210
0
220
0
230
1
0
LINE
5
129
100
AcDbEntity
8
1
62
256
6
ByLayer
370
-1
48
1
60
0
100
AcDbLine
10
99.519994
20
-0.388428
30
0
11
99.42666
21
1.044324
31
0
39
0
210
0
220
0
230
1
0
LINE
5
12A
100
AcDbEntity
8
1
62
256
6
ByLayer
370
-1
48
1
60
0
100
AcDbLine
10
99.673527
20
-0.48075
30
0
11
99.579797
21
0.958079
31
0
39
0
210
0
220
0
230
1
0
LINE
5
12B
100
AcDbEntity
8
1
62
256
6
ByLayer
370
-1
48
1
60
0
100
AcDbLine
10
99.744608
20
-0.599378
30
0
11
99.650878
21
0.839452
31
0
39
0
210
0
220
0
230
1
0
LINE
5
12C
100
AcDbEntity
8
1
62
256
6
ByLayer
370
-1
48
1
60
0
100
AcDbLine
10
95.201278
20
-7.347168
30
0
11
95.226094
21
-7.728124
31
0
39
0
210
0
220
0
230
1
0
LINE
5
12D
100
AcDbEntity
8
1
62
256
6
ByLayer
370
-1
48
1
60
0
100
AcDbLine
10
94.885892
20
-9.028839
30
0
11
94.910788
21
-9.411018
31
0
39
0
210
0
220
0
230
1
0
LINE
5
12E
100
AcDbEntity
8
1
62
256
6
ByLayer
370
-1
48
1
60
0
100
AcDbLine
10
93.876045
20
-9.592173
30
0
11
93.900942
21
-9.974352
31
0
39
0
210
0
220
0
230
1
0
LINE
5
12F
100
AcDbEntity
8
1
62
256
6
ByLayer
370
-1
48
1
60
0
100
AcDbLine
10
93.239812
20
-9.594949
30
0
11
93.264708
21
-9.977128
31
0
39
0
210
0
220
0
230
1
0
LINE
5
130
100
AcDbEntity
8
1
62
256
6
ByLayer
370
-1
48
1
60
0
100
AcDbLine
10
92.229965
20
-9.040429
30
0
11
92.254861
21
-9.422607
31
0
39
0
210
0
220
0
230
1
0
LINE
5
131
100
AcDbEntity
8
1
62
256
6
ByLayer
370
-1
48
1
60
0
100
AcDbLine
10
91.914579
20
-7.361511
30
0
11
91.939396
21
-7.742466
31
0
39
0
210
0
220
0
230
1
0
LINE
5
132
100
AcDbEntity
8
1
62
256
6
ByLayer
370
-1
48
1
60
0
100
AcDbLine
10
92.171986
20
-8.11639
30
0
11
92.150391
21
-7.784887
31
0
39
0
210
0
220
0
230
1
0
LINE
5
133
100
AcDbEntity
8
1
62
256
6
ByLayer
370
-1
48
1
60
0
100
AcDbLine
10
94.965466
20
-7.772602
30
0
11
94.987062
21
-8.104106
31
0
39
0
210
0
220
0
230
1
0
LINE
5
134
100
AcDbEntity
8
1
62
256
6
ByLayer
370
-1
48
1
60
0
100
AcDbLine
10
94.987062
20
-8.399179
30
0
11
94.965466
21
-8.067676
31
0
39
0
210
0
220
0
230
1
0
LINE
5
135
100
AcDbEntity
8
SK1
62
256
6
ByLayer
370
-1
48
1
60
0
100
AcDbLine
10
-199.32
20
-4.87661
30
0
11
-199.32
21
-10.00875
31
0
39
0
210
0
220
0
230
1
0
LINE
5
136
100
AcDbEntity
8
1
62
256
6
ByLayer
370
-1
48
1
60
0
100
AcDbLine
10
90.878052
20
-13.63049
30
0
11
93.411282
21
-15.12988
31
0
39
0
210
0
220
0
230
1
0
LINE
5
137
100
AcDbEntity
8
1
62
256
6
ByLayer
370
-1
48
1
60
0
100
AcDbLine
10
94.826337
20
-15.123705
30
0
11
94.831456
21
-15.116324
31
0
39
0
210
0
220
0
230
1
0
LINE
5
138
100
AcDbEntity
8
1
62
256
6
ByLayer
370
-1
48
1
60
0
100
AcDbLine
10
95.057602
20
-14.995594
30
0
11
95.783866
21
-14.992424
31
0
39
0
210
0
220
0
230
1
0
LINE
5
139
100
AcDbEntity
8
1
62
256
6
ByLayer
370
-1
48
1
60
0
100
AcDbLine
10
96.024788
20
-15.132529
30
0
11
97.204396
21
-17.155504
31
0
39
0
210
0
220
0
230
1
0
LINE
5
13A
100
AcDbEntity
8
1
62
256
6
ByLayer
370
-1
48
1
60
0
100
AcDbLine
10
97.359274
20
-17.245571
30
0
11
97.501436
21
-17.244951
31
0
39
0
210
0
220
0
230
1
0
LINE
5
13B
100
AcDbEntity
8
1
62
256
6
ByLayer
370
-1
48
1
60
0
100
AcDbLine
10
99.921234
20
-10.081398
30
0
11
99.921234
21
-9.210526
31
0
39
0
210
0
220
0
230
1
0
LINE
5
13C
100
AcDbEntity
8
1
62
256
6
ByLayer
370
-1
48
1
60
0
100
AcDbLine
10
93.411282
20
-15.12988
30
0
11
93.699638
21
-15.289454
31
0
39
0
210
0
220
0
230
1
0
LINE
5
13D
100
AcDbEntity
8
1
62
256
6
ByLayer
370
-1
48
1
60
0
100
AcDbLine
10
94.726286
20
-15.257476
30
0
11
94.826337
21
-15.123705
31
0
39
0
210
0
220
0
230
1
0
LINE
5
13E
100
AcDbEntity
8
1
62
256
6
ByLayer
370
-1
48
1
60
0
100
AcDbLine
10
93.824621
20
-15.321261
30
0
11
94.604857
21
-15.317857
31
0
39
0
210
0
220
0
230
1
0
LINE
5
13F
100
AcDbEntity
8
1
62
256
6
ByLayer
370
-1
48
1
60
0
100
AcDbLine
10
99.913816
20
-13.159094
30
0
11
99.913816
21
-11.468026
31
0
39
0
210
0
220
0
230
1
0
LINE
5
140
100
AcDbEntity
8
1
62
256
6
ByLayer
370
-1
48
1
60
0
100
AcDbLine
10
99.767869
20
-13.462287
30
0
11
99.878411
21
-13.283142
31
0
39
0
210
0
220
0
230
1
0
LINE
5
141
100
AcDbEntity
8
1
62
256
6
ByLayer
370
-1
48
1
60
0
100
AcDbLine
10
98.894006
20
-14.347539
30
0
11
97.652072
21
-13.63762
31
0
39
0
210
0
220
0
230
1
0
LINE
5
142
100
AcDbEntity
8
1
62
256
6
ByLayer
370
-1
48
1
60
0
100
AcDbLine
10
97.548622
20
-17.03831
30
0
11
98.978099
21
-14.53691
31
0
39
0
210
0
220
0
230
1
0
LINE
5
143
100
AcDbEntity
8
1
62
256
6
ByLayer
370
-1
48
1
60
0
100
AcDbLine
10
97.451137
20
-17.095169
30
0
11
97.408265
21
-17.095356
31
0
39
0
210
0
220
0
230
1
0
LINE
5
144
100
AcDbEntity
8
1
62
256
6
ByLayer
370
-1
48
1
60
0
100
AcDbLine
10
97.310287
20
-17.03935
30
0
11
95.859036
21
-14.55052
31
0
39
0
210
0
220
0
230
1
0
LINE
5
145
100
AcDbEntity
8
1
62
256
6
ByLayer
370
-1
48
1
60
0
100
AcDbLine
10
97.177166
20
-13.639693
30
0
11
95.941474
21
-14.360423
31
0
39
0
210
0
220
0
230
1
0
LINE
5
146
100
AcDbEntity
8
1
62
256
6
ByLayer
370
-1
48
1
60
0
100
AcDbLine
10
91.710751
20
-12.371555
30
0
11
91.223678
21
-12.860942
31
0
39
0
210
0
220
0
230
1
0
LINE
5
147
100
AcDbEntity
8
1
62
256
6
ByLayer
370
-1
48
1
60
0
100
AcDbLine
10
98.298378
20
-10.995466
30
0
11
97.376306
21
-10.777393
31
0
39
0
210
0
220
0
230
1
0
LINE
5
148
100
AcDbEntity
8
1
62
256
6
ByLayer
370
-1
48
1
60
0
100
AcDbLine
10
91.177052
20
-12.811959
30
0
11
91.664125
21
-12.322572
31
0
39
0
210
0
220
0
230
1
0
LINE
5
149
100
AcDbEntity
8
1
62
256
6
ByLayer
370
-1
48
1
60
0
100
AcDbLine
10
99.923386
20
-8.983422
30
0
11
99.1247
21
-8.370753
31
0
39
0
210
0
220
0
230
1
0
LINE
5
14A
100
AcDbEntity
8
1
62
256
6
ByLayer
370
-1
48
1
60
0
100
AcDbLine
10
99.210855
20
-8.265588
30
0
11
99.923884
21
-8.81255
31
0
39
0
210
0
220
0
230
1
0
LINE
5
14B
100
AcDbEntity
8
1
62
256
6
ByLayer
370
-1
48
1
60
0
100
AcDbLine
10
97.39146
20
-10.711027
30
0
11
98.313532
21
-10.929099
31
0
39
0
210
0
220
0
230
1
0
LINE
5
14C
100
AcDbEntity
8
1
62
256
6
ByLayer
370
-1
48
1
60
0
100
AcDbLine
10
99.690817
20
-13.592033
30
0
11
97.572137
21
-13.601279
31
0
39
0
210
0
220
0
230
1
0
LINE
5
14D
100
AcDbEntity
8
1
62
256
6
ByLayer
370
-1
48
1
60
0
100
AcDbLine
10
97.25678
20
-13.602655
30
0
11
90.878052
21
-13.63049
31
0
39
0
210
0
220
0
230
1
0
LINE
5
14E
100
AcDbEntity
8
1
62
256
6
ByLayer
370
-1
48
1
60
0
100
AcDbLine
10
94.585258
20
-13.484903
30
0
11
99.767869
21
-13.462287
31
0
39
0
210
0
220
0
230
1
0
LINE
5
14F
100
AcDbEntity
8
1
62
256
6
ByLayer
370
-1
48
1
60
0
100
AcDbLine
10
97.870779
20
-8.551503
30
0
11
99.922417
21
-9.036721
31
0
39
0
210
0
220
0
230
1
0
LINE
5
150
100
AcDbEntity
8
1
62
256
6
ByLayer
370
-1
48
1
60
0
100
AcDbLine
10
97.429825
20
-9.492173
30
0
11
99.921234
21
-10.081398
31
0
39
0
210
0
220
0
230
1
0
LINE
5
151
100
AcDbEntity
8
1
62
256
6
ByLayer
370
-1
48
1
60
0
100
AcDbLine
10
99.921234
20
-9.210526
30
0
11
97.641432
21
-8.671346
31
0
39
0
210
0
220
0
230
1
0
LINE
5
152
100
AcDbEntity
8
1
62
256
6
ByLayer
370
-1
48
1
60
0
100
AcDbLine
10
99.922417
20
-10.291529
30
0
11
97.565883
21
-9.734202
31
0
39
0
210
0
220
0
230
1
0
LINE
5
153
100
AcDbEntity
8
SK1
62
256
6
ByLayer
370
-1
48
1
60
0
100
AcDbLine
10
0
20
-4.87661
30
0
11
-199.32
21
-4.87661
31
0
39
0
210
0
220
0
230
1
0
LINE
5
154
100
AcDbEntity
8
SK1
62
256
6
ByLayer
370
-1
48
1
60
0
100
AcDbLine
10
0
20
-4.87661
30
0
11
0
21
4.87661
31
0
39
0
210
0
220
0
230
1
0
LINE
5
155
100
AcDbEntity
8
SK1
62
256
6
ByLayer
370
-1
48
1
60
0
100
AcDbLine
10
0
20
-4.87661
30
0
11
0
21
-10.00875
31
0
39
0
210
0
220
0
230
1
0
LINE
5
156
100
AcDbEntity
8
SK1
62
256
6
ByLayer
370
-1
48
1
60
0
100
AcDbLine
10
-199.32
20
-10.00875
30
0
11
0
21
-10.00875
31
0
39
0
210
0
220
0
230
1
0
LINE
5
157
100
AcDbEntity
8
1
62
256
6
ByLayer
370
-1
48
1
60
0
100
AcDbLine
10
99.926292
20
-10.623752
30
0
11
99.922417
21
-10.291529
31
0
39
0
210
0
220
0
230
1
0
LINE
5
158
100
AcDbEntity
8
1
62
256
6
ByLayer
370
-1
48
1
60
0
100
AcDbLine
10
99.923884
20
-8.81255
30
0
11
99.915718
21
-8.032007
31
0
39
0
210
0
220
0
230
1
0
LINE
5
159
100
AcDbEntity
8
1
62
256
6
ByLayer
370
-1
48
1
60
0
100
AcDbLine
10
97.655522
20
-17.153535
30
0
11
99.690817
21
-13.592033
31
0
39
0
210
0
220
0
230
1
0
LINE
5
15A
100
AcDbEntity
8
1
62
256
6
ByLayer
370
-1
48
1
60
0
100
AcDbLine
10
99.922417
20
-9.036721
30
0
11
99.923386
21
-8.983422
31
0
39
0
210
0
220
0
230
1
0
MTEXT
5
2DB
100
AcDbEntity
8
SK6
62
256
6
ByLayer
370
-1
48
1
60
0
100
AcDbMText
10
-49.82
20
28.058888
30
0
210
0
220
0
230
1
1
\W00.738;\fsimplex.shx,bigfont.shx;266LKF-25-22 
40
3.5
41
0
44
1.084337
50
0
71
7
72
5
7
DEFAULT
0
DIMENSION
5
30E
100
AcDbEntity
8
2
62
256
6
ByLayer
370
-3
48
1
60
0
100
AcDbDimension
2
DimnDraft3D1
10
99.93
20
-33.125
30
0
11
79.713632
21
-33.125
31
0
70
32
71
5
72
1
41
1
210
0
220
0
230
1
3
Standard
100
AcDbAlignedDimension
13
64.755159
23
-20.375
33
0
14
99.93
24
-20.375
34
0
50
0
100
AcDbRotatedDimension
1001
ACAD
1000
DSTYLE
1002
{
1070
   279
1070
     0
1070
   172
1070
     1
1070
   173
1070
     1
1070
   340
1005
2DC
1070
   271
1070
     3
1070
   272
1070
     3
1070
    77
1070
     1
1070
    73
1070
     0
1070
   171
1070
     4
1070
   274
1070
     4
1070
   177
1070
     2
1070
   176
1070
     2
1070
   178
1070
     7
1070
    78
1070
     8
1070
    41
1041
3.0
1070
   147
1041
2.25
1070
    42
1041
1.5
1070
    44
1041
3.0
1070
   140
1041
4.5
1070
   343
1005
30F
1070
   344
1005
30F
1002
}
0
DIMENSION
5
324
100
AcDbEntity
8
SK2
62
256
6
ByLayer
370
-3
48
1
60
0
100
AcDbDimension
2
DimnDraft3D2
10
-201.32
20
-43.125
30
0
11
-54.413421
21
-43.125
31
0
70
32
71
5
72
1
41
1
210
0
220
0
230
1
3
Standard
100
AcDbAlignedDimension
13
99.93
23
-20.375
33
0
14
-201.32
24
-1.5
34
0
50
0
100
AcDbRotatedDimension
1001
ACAD
1000
DSTYLE
1002
{
1070
   279
1070
     0
1070
   172
1070
     1
1070
   173
1070
     1
1070
   340
1005
2DC
1070
   271
1070
     3
1070
   272
1070
     3
1070
    77
1070
     1
1070
    73
1070
     0
1070
   171
1070
     4
1070
   274
1070
     4
1070
   177
1070
     2
1070
   176
1070
     2
1070
   178
1070
     7
1070
    78
1070
     8
1070
    41
1041
3.0
1070
   147
1041
2.25
1070
    42
1041
1.5
1070
    44
1041
3.0
1070
   140
1041
4.5
1070
   343
1005
30F
1070
   344
1005
30F
1002
}
0
DIMENSION
5
332
100
AcDbEntity
8
2
62
256
6
ByLayer
370
-3
48
1
60
0
100
AcDbDimension
2
DimnDraft3D3
10
114.18
20
-18.875
30
0
11
114.18
21
-11.503947
31
0
70
32
71
5
72
1
41
1
210
0
220
0
230
1
3
Standard
100
AcDbAlignedDimension
13
106.43
23
0
33
0
14
101.43
24
-18.875
34
0
50
90
100
AcDbRotatedDimension
1001
ACAD
1000
DSTYLE
1002
{
1070
    74
1070
     0
1070
   279
1070
     0
1070
   172
1070
     1
1070
   173
1070
     1
1070
   340
1005
2DC
1070
   271
1070
     3
1070
   272
1070
     3
1070
    77
1070
     1
1070
    73
1070
     0
1070
   171
1070
     4
1070
   274
1070
     4
1070
   177
1070
     2
1070
   176
1070
     2
1070
   178
1070
     7
1070
    78
1070
     8
1070
    41
1041
3.0
1070
   147
1041
2.25
1070
    42
1041
1.5
1070
    44
1041
3.0
1070
   140
1041
4.5
1070
   343
1005
30F
1070
   344
1005
30F
1002
}
0
DIMENSION
5
340
100
AcDbEntity
8
SK2
62
256
6
ByLayer
370
-3
48
1
60
0
100
AcDbDimension
2
DimnDraft3D4
10
-211.07
20
12.49125
30
0
11
-211.07
21
-4.784211
31
0
70
32
71
5
72
1
41
1
210
0
220
0
230
1
3
Standard
100
AcDbAlignedDimension
13
-202.82
23
-12.49125
33
0
14
-202.82
24
12.49125
34
0
50
90
100
AcDbRotatedDimension
1001
ACAD
1000
DSTYLE
1002
{
1070
    74
1070
     0
1070
   279
1070
     0
1070
   172
1070
     1
1070
   173
1070
     1
1070
   340
1005
2DC
1070
   271
1070
     3
1070
   272
1070
     3
1070
    77
1070
     1
1070
    73
1070
     0
1070
   171
1070
     4
1070
   274
1070
     4
1070
   177
1070
     2
1070
   176
1070
     2
1070
   178
1070
     7
1070
    78
1070
     8
1070
    41
1041
3.0
1070
   147
1041
2.25
1070
    42
1041
1.5
1070
    44
1041
3.0
1070
   140
1041
4.5
1070
   343
1005
30F
1070
   344
1005
30F
1002
}
0
ENDSEC
0
SECTION
2
OBJECTS
0
DICTIONARY
5
371
330
0
100
AcDbDictionary
280
0
281
1
3
ACAD_GROUP
350
372
3
ACAD_MLINESTYLE
350
373
0
DICTIONARY
5
372
330
0
100
AcDbDictionary
280
0
281
1
0
DICTIONARY
5
373
330
0
100
AcDbDictionary
280
0
281
1
3
Standard
350
18
0
MLINESTYLE
5
18
330
373
100
AcDbMlineStyle
2
Standard
70
0
3

62
256
51
90
52
90
71
2
49
-0.5
62
256
6
ByLayer
49
0.5
62
256
6
ByLayer
0
RASTERVARIABLES
5
35f
330

100
AcDbRasterVariables
90
0
70
1
71
1
72
1
0
ENDSEC
0
EOF
