0
SECTION
2
HEADER
9
$ACADVER
1
AC1015
9
$DWGCODEPAGE
3
ANSI_1252
9
$HANDSEED
5
320
9
$ANGBASE
50
0
9
$ANGDIR
70
0
9
$ATTMODE
70
1
9
$AUNITS
70
0
9
$AUPREC
70
0
9
$CECOLOR
62
256
9
$CELTSCALE
40
1
9
$CELTYPE
6
ByLayer
9
$CELWEIGHT
370
-1
9
$CLAYER
8
0
9
$CMLJUST
70
0
9
$CMLSCALE
40
1
9
$CMLSTYLE
2
Standard
9
$DIMSTYLE
2
Standard
9
$TEXTSIZE
40
0.2
9
$TEXTSTYLE
7
Standard
9
$LUNITS
70
2
9
$LUPREC
70
4
9
$EXTNAMES
290
1
9
$INSUNITS
70
4
9
$LTSCALE
40
1
9
$LWDISPLAY
290
0
9
$PDMODE
70
0
9
$PDSIZE
40
0
9
$PLINEGEN
70
0
0
ENDSEC
0
SECTION
2
CLASSES
0
CLASS
1
RASTERVARIABLES
2
AcDbRasterVariables
3
ISM
90
0
280
0
281
0
0
ENDSEC
0
SECTION
2
TABLES
0
TABLE
2
VPORT
5
316
100
AcDbSymbolTable
0
VPORT
5
1
100
AcDbSymbolTableRecord
100
AcDbViewportTableRecord
2
*Active
70
0
10
0
20
0
11
1
21
1
12
-1
22
1
13
0
23
0
14
0.5
24
0.5
15
10
25
10
16
0
26
0
36
1
17
0
27
0
37
0
0
ENDTAB
0
TABLE
2
LTYPE
5
317
100
AcDbSymbolTable
0
LTYPE
5
14
100
AcDbSymbolTableRecord
100
AcDbLinetypeTableRecord
70
0
2
ByBlock
3

72
65
73
0
40
0
0
LTYPE
5
15
100
AcDbSymbolTableRecord
100
AcDbLinetypeTableRecord
70
0
2
ByLayer
3

72
65
73
0
40
0
0
LTYPE
5
16
100
AcDbSymbolTableRecord
100
AcDbLinetypeTableRecord
70
0
2
CONTINUOUS
3
Solid line
72
65
73
0
40
0
0
LTYPE
5
3B
100
AcDbSymbolTableRecord
100
AcDbLinetypeTableRecord
70
0
2
DASHED
3
__ __ __ __ __ __ __ __ __
72
65
73
2
40
25.72
49
12.86
74
0
49
-12.86
74
0
0
LTYPE
5
3C
100
AcDbSymbolTableRecord
100
AcDbLinetypeTableRecord
70
0
2
HIDDEN
3
_ _ _ _ _ _ _ _ _ _ _ _ _ _ _
72
65
73
2
40
0.5
49
0.25
74
0
49
-0.25
74
0
0
LTYPE
5
3D
100
AcDbSymbolTableRecord
100
AcDbLinetypeTableRecord
70
0
2
PHANTOM
3
____ _ _ ____ _ _ _____ _ _ ____
72
65
73
6
40
50.5
49
18
74
0
49
-6.5
74
0
49
6.5
74
0
49
-6.5
74
0
49
6.5
74
0
49
-6.5
74
0
0
LTYPE
5
3E
100
AcDbSymbolTableRecord
100
AcDbLinetypeTableRecord
70
0
2
CENTER
3
____ _ ____ _ ____ _ ____
72
65
73
4
40
47.5
49
22
74
0
49
-8.5
74
0
49
8.5
74
0
49
-8.5
74
0
0
LTYPE
5
3F
100
AcDbSymbolTableRecord
100
AcDbLinetypeTableRecord
70
0
2
DOT
3
.........................
72
65
73
2
40
10
49
0
74
0
49
-10
74
0
0
LTYPE
5
40
100
AcDbSymbolTableRecord
100
AcDbLinetypeTableRecord
70
0
2
DASHDOT
3
_._._._._._._._._._._._._._._._.
72
65
73
4
40
70
49
31
74
0
49
-13
74
0
49
13
74
0
49
-13
74
0
0
ENDTAB
0
TABLE
2
LAYER
5
318
100
AcDbSymbolTable
0
LAYER
5
10
100
AcDbSymbolTableRecord
100
AcDbLayerTableRecord
2
0
70
0
62
7
6
CONTINUOUS
290
1
370
-3
390
0
0
LAYER
5
42
100
AcDbSymbolTableRecord
100
AcDbLayerTableRecord
2
80
70
0
62
-6
6
CONTINUOUS
290
1
370
-3
390
0
0
LAYER
5
44
100
AcDbSymbolTableRecord
100
AcDbLayerTableRecord
2
81
70
0
62
-3
6
CONTINUOUS
290
1
370
-3
390
0
0
LAYER
5
46
100
AcDbSymbolTableRecord
100
AcDbLayerTableRecord
2
2
70
0
62
7
6
CONTINUOUS
290
1
370
-3
390
0
0
LAYER
5
4A
100
AcDbSymbolTableRecord
100
AcDbLayerTableRecord
2
1
70
0
62
4
6
CONTINUOUS
290
1
370
-3
390
0
0
LAYER
5
303
100
AcDbSymbolTableRecord
100
AcDbLayerTableRecord
2
SK1
70
0
62
4
6
CONTINUOUS
290
1
370
-3
390
0
0
LAYER
5
304
100
AcDbSymbolTableRecord
100
AcDbLayerTableRecord
2
SK6
70
0
62
5
6
CONTINUOUS
290
1
370
-3
390
0
0
LAYER
5
305
100
AcDbSymbolTableRecord
100
AcDbLayerTableRecord
2
SK2
70
0
62
7
6
CONTINUOUS
290
1
370
-3
390
0
0
ENDTAB
0
TABLE
2
STYLE
5
319
100
AcDbSymbolTable
0
STYLE
5
11
100
AcDbSymbolTableRecord
100
AcDbTextStyleTableRecord
2
Standard
3
txt
70
0
71
0
40
0
41
1
42
0
50
0
0
STYLE
5
27F
100
AcDbSymbolTableRecord
100
AcDbTextStyleTableRecord
2
DEFAULT
3
simplex.shx
70
0
71
0
40
0
41
1
42
0
50
0
0
STYLE
5
2A2
100
AcDbSymbolTableRecord
100
AcDbTextStyleTableRecord
2
DWGDirectTextStyle
3
SIMPLEX
70
0
71
0
40
0
41
1
42
0
50
0
0
ENDTAB
0
TABLE
2
DIMSTYLE
5
31a
100
AcDbSymbolTable
100
AcDbDimStyleTable
0
DIMSTYLE
105
27
100
AcDbSymbolTableRecord
100
AcDbDimStyleTableRecord
2
Standard
70
0
3
<>
41
0.18
42
0.0625
44
0.18
140
0.18
147
0.09
73
0
74
0
77
1
271
2
275
0
278
52
280
0
340
11
0
ENDTAB
0
TABLE
2
VIEW
5
31b
100
AcDbSymbolTable
0
ENDTAB
0
TABLE
2
UCS
5
31c
100
AcDbSymbolTable
0
ENDTAB
0
TABLE
2
APPID
5
31d
100
AcDbSymbolTable
0
APPID
5
12
100
AcDbSymbolTableRecord
100
AcDbRegAppTableRecord
2
ACAD
70
0
0
ENDTAB
0
TABLE
2
BLOCK_RECORD
5
31e
100
AcDbSymbolTable
0
BLOCK_RECORD
5
1F
100
AcDbSymbolTableRecord
100
AcDbBlockTableRecord
2
*Model_Space
340
0
70
0
0
BLOCK_RECORD
5
1B
100
AcDbSymbolTableRecord
100
AcDbBlockTableRecord
2
*Paper_Space
340
0
70
0
0
BLOCK_RECORD
5
23
100
AcDbSymbolTableRecord
100
AcDbBlockTableRecord
2
*Paper_Space0
340
0
70
0
0
BLOCK_RECORD
5
2A4
100
AcDbSymbolTableRecord
100
AcDbBlockTableRecord
2
DimnDraft3D1
340
0
70
0
0
BLOCK_RECORD
5
2B2
100
AcDbSymbolTableRecord
100
AcDbBlockTableRecord
2
_CLOSED
340
0
70
0
0
BLOCK_RECORD
5
2B9
100
AcDbSymbolTableRecord
100
AcDbBlockTableRecord
2
DimnDraft3D2
340
0
70
0
0
BLOCK_RECORD
5
2C8
100
AcDbSymbolTableRecord
100
AcDbBlockTableRecord
2
DimnDraft3D3
340
0
70
0
0
BLOCK_RECORD
5
2D6
100
AcDbSymbolTableRecord
100
AcDbBlockTableRecord
2
DimnDraft3D4
340
0
70
0
0
ENDTAB
0
ENDSEC
0
SECTION
2
BLOCKS
0
BLOCK
5
20
100
AcDbEntity
8
0
100
AcDbBlockBegin
2
*Model_Space
70
0
10
0
20
0
30
0
3
*Model_Space
0
ENDBLK
5
21
100
AcDbEntity
8
0
100
AcDbBlockEnd
0
BLOCK
5
1C
100
AcDbEntity
8
0
100
AcDbBlockBegin
2
*Paper_Space
70
0
10
0
20
0
30
0
3
*Paper_Space
0
ENDBLK
5
1D
100
AcDbEntity
8
0
100
AcDbBlockEnd
0
BLOCK
5
24
100
AcDbEntity
8
0
100
AcDbBlockBegin
2
*Paper_Space0
70
0
10
0
20
0
30
0
3
*Paper_Space0
0
ENDBLK
5
25
100
AcDbEntity
8
0
100
AcDbBlockEnd
0
BLOCK
5
2AF
100
AcDbEntity
8
0
100
AcDbBlockBegin
2
DimnDraft3D1
70
0
10
0
20
0
30
0
3
DimnDraft3D1
0
MTEXT
5
2A5
100
AcDbEntity
8
2
62
256
6
ByLayer
370
-1
48
1
60
0
100
AcDbMText
10
11.845752
20
-33.0375
30
0
210
0
220
0
230
1
1
\W01.000;\fsimplex.shx,bigfont.shx;27 
40
4.5
41
0
44
1.084337
50
0
71
7
72
5
7
DEFAULT
0
LINE
5
2A6
100
AcDbEntity
8
2
62
256
6
ByLayer
370
-1
48
1
60
0
100
AcDbLine
10
0
20
-13.9375
30
0
11
0
21
-37.1625
31
0
39
0
210
0
220
0
230
1
0
LINE
5
2A7
100
AcDbEntity
8
2
62
256
6
ByLayer
370
-1
48
1
60
0
100
AcDbLine
10
26.699398
20
-21.4125
30
0
11
26.699398
21
-37.1625
31
0
39
0
210
0
220
0
230
1
0
LINE
5
2A8
100
AcDbEntity
8
2
62
256
6
ByLayer
370
-1
48
1
60
0
100
AcDbLine
10
0
20
-34.1625
30
0
11
26.699398
21
-34.1625
31
0
39
0
210
0
220
0
230
1
0
LINE
5
2A9
100
AcDbEntity
8
2
62
256
6
ByLayer
370
-1
48
1
60
0
100
AcDbLine
10
0
20
-34.1625
30
0
11
2.999999
21
-33.767543
31
0
39
0
210
0
220
0
230
1
0
LINE
5
2AA
100
AcDbEntity
8
2
62
256
6
ByLayer
370
-1
48
1
60
0
100
AcDbLine
10
0
20
-34.1625
30
0
11
3.000001
21
-34.557457
31
0
39
0
210
0
220
0
230
1
0
LINE
5
2AB
100
AcDbEntity
8
2
62
256
6
ByLayer
370
-1
48
1
60
0
100
AcDbLine
10
2.999999
20
-33.767543
30
0
11
3.000001
21
-34.557457
31
0
39
0
210
0
220
0
230
1
0
LINE
5
2AC
100
AcDbEntity
8
2
62
256
6
ByLayer
370
-1
48
1
60
0
100
AcDbLine
10
26.699398
20
-34.1625
30
0
11
23.699399
21
-34.557457
31
0
39
0
210
0
220
0
230
1
0
LINE
5
2AD
100
AcDbEntity
8
2
62
256
6
ByLayer
370
-1
48
1
60
0
100
AcDbLine
10
26.699398
20
-34.1625
30
0
11
23.699397
21
-33.767543
31
0
39
0
210
0
220
0
230
1
0
LINE
5
2AE
100
AcDbEntity
8
2
62
256
6
ByLayer
370
-1
48
1
60
0
100
AcDbLine
10
23.699399
20
-34.557457
30
0
11
23.699397
21
-33.767543
31
0
39
0
210
0
220
0
230
1
0
ENDBLK
5
2B0
100
AcDbEntity
8
0
100
AcDbBlockEnd
0
BLOCK
5
2B3
100
AcDbEntity
8
0
100
AcDbBlockBegin
2
_CLOSED
70
0
10
0
20
0
30
0
3
_CLOSED
0
LINE
5
2B5
100
AcDbEntity
8
0
62
256
6
ByLayer
370
-2
48
1
60
0
100
AcDbLine
10
-1
20
0.166667
30
0
11
0
21
0
31
0
39
0
210
0
220
0
230
1
0
LINE
5
2B6
100
AcDbEntity
8
0
62
256
6
ByLayer
370
-2
48
1
60
0
100
AcDbLine
10
0
20
0
30
0
11
-1
21
-0.166667
31
0
39
0
210
0
220
0
230
1
0
LINE
5
2B7
100
AcDbEntity
8
0
62
256
6
ByLayer
370
-2
48
1
60
0
100
AcDbLine
10
-1
20
0.166667
30
0
11
-1
21
-0.166667
31
0
39
0
210
0
220
0
230
1
0
LINE
5
2B8
100
AcDbEntity
8
0
62
256
6
ByLayer
370
-2
48
1
60
0
100
AcDbLine
10
0
20
0
30
0
11
-1
21
0
31
0
39
0
210
0
220
0
230
1
0
ENDBLK
5
2B4
100
AcDbEntity
8
0
100
AcDbBlockEnd
0
BLOCK
5
2C5
100
AcDbEntity
8
0
100
AcDbBlockBegin
2
DimnDraft3D2
70
0
10
0
20
0
30
0
3
DimnDraft3D2
0
MTEXT
5
2BA
100
AcDbEntity
8
SK2
62
256
6
ByLayer
370
-1
48
1
60
0
100
AcDbMText
10
-61.006523
20
-43.0375
30
0
210
0
220
0
230
1
1
\W01.000;\fsimplex.shx,bigfont.shx;171 
40
4.5
41
0
44
1.084337
50
0
71
7
72
5
7
DEFAULT
0
LINE
5
2BC
100
AcDbEntity
8
SK2
62
256
6
ByLayer
370
-1
48
1
60
0
100
AcDbLine
10
-144.650602
20
-13.9375
30
0
11
-144.650602
21
-47.1625
31
0
39
0
210
0
220
0
230
1
0
LINE
5
2BD
100
AcDbEntity
8
SK2
62
256
6
ByLayer
370
-1
48
1
60
0
100
AcDbLine
10
26.699398
20
-21.4125
30
0
11
26.699398
21
-47.1625
31
0
39
0
210
0
220
0
230
1
0
LINE
5
2BE
100
AcDbEntity
8
SK2
62
256
6
ByLayer
370
-1
48
1
60
0
100
AcDbLine
10
-144.650602
20
-44.1625
30
0
11
26.699398
21
-44.1625
31
0
39
0
210
0
220
0
230
1
0
LINE
5
2BF
100
AcDbEntity
8
SK2
62
256
6
ByLayer
370
-1
48
1
60
0
100
AcDbLine
10
-144.650602
20
-44.1625
30
0
11
-141.650603
21
-43.767543
31
0
39
0
210
0
220
0
230
1
0
LINE
5
2C0
100
AcDbEntity
8
SK2
62
256
6
ByLayer
370
-1
48
1
60
0
100
AcDbLine
10
-144.650602
20
-44.1625
30
0
11
-141.650601
21
-44.557457
31
0
39
0
210
0
220
0
230
1
0
LINE
5
2C1
100
AcDbEntity
8
SK2
62
256
6
ByLayer
370
-1
48
1
60
0
100
AcDbLine
10
-141.650603
20
-43.767543
30
0
11
-141.650601
21
-44.557457
31
0
39
0
210
0
220
0
230
1
0
LINE
5
2C2
100
AcDbEntity
8
SK2
62
256
6
ByLayer
370
-1
48
1
60
0
100
AcDbLine
10
26.699398
20
-44.1625
30
0
11
23.699399
21
-44.557457
31
0
39
0
210
0
220
0
230
1
0
LINE
5
2C3
100
AcDbEntity
8
SK2
62
256
6
ByLayer
370
-1
48
1
60
0
100
AcDbLine
10
26.699398
20
-44.1625
30
0
11
23.699397
21
-43.767543
31
0
39
0
210
0
220
0
230
1
0
LINE
5
2C4
100
AcDbEntity
8
SK2
62
256
6
ByLayer
370
-1
48
1
60
0
100
AcDbLine
10
23.699399
20
-44.557457
30
0
11
23.699397
21
-43.767543
31
0
39
0
210
0
220
0
230
1
0
ENDBLK
5
2C6
100
AcDbEntity
8
0
100
AcDbBlockEnd
0
BLOCK
5
2D3
100
AcDbEntity
8
0
100
AcDbBlockBegin
2
DimnDraft3D3
70
0
10
0
20
0
30
0
3
DimnDraft3D3
0
MTEXT
5
2C9
100
AcDbEntity
8
SK2
62
256
6
ByLayer
370
-1
48
1
60
0
100
AcDbMText
10
-155.525602
20
-1.503947
30
0
210
0
220
0
230
1
1
\W01.000;\fsimplex.shx,bigfont.shx;32 
40
4.5
41
0
44
1.084337
50
90
71
7
72
5
7
DEFAULT
0
LINE
5
2CA
100
AcDbEntity
8
SK2
62
256
6
ByLayer
370
-1
48
1
60
0
100
AcDbLine
10
-146.150602
20
12.4375
30
0
11
-157.400602
21
12.4375
31
0
39
0
210
0
220
0
230
1
0
LINE
5
2CB
100
AcDbEntity
8
SK2
62
256
6
ByLayer
370
-1
48
1
60
0
100
AcDbLine
10
-146.150602
20
-12.4375
30
0
11
-157.400602
21
-12.4375
31
0
39
0
210
0
220
0
230
1
0
LINE
5
2CC
100
AcDbEntity
8
SK2
62
256
6
ByLayer
370
-1
48
1
60
0
100
AcDbLine
10
-154.400602
20
12.4375
30
0
11
-154.400602
21
-12.4375
31
0
39
0
210
0
220
0
230
1
0
LINE
5
2CD
100
AcDbEntity
8
SK2
62
256
6
ByLayer
370
-1
48
1
60
0
100
AcDbLine
10
-154.400602
20
12.4375
30
0
11
-154.005644
21
9.437501
31
0
39
0
210
0
220
0
230
1
0
LINE
5
2CE
100
AcDbEntity
8
SK2
62
256
6
ByLayer
370
-1
48
1
60
0
100
AcDbLine
10
-154.400602
20
12.4375
30
0
11
-154.795559
21
9.437499
31
0
39
0
210
0
220
0
230
1
0
LINE
5
2CF
100
AcDbEntity
8
SK2
62
256
6
ByLayer
370
-1
48
1
60
0
100
AcDbLine
10
-154.005644
20
9.437501
30
0
11
-154.795559
21
9.437499
31
0
39
0
210
0
220
0
230
1
0
LINE
5
2D0
100
AcDbEntity
8
SK2
62
256
6
ByLayer
370
-1
48
1
60
0
100
AcDbLine
10
-154.400602
20
-12.4375
30
0
11
-154.795559
21
-9.437501
31
0
39
0
210
0
220
0
230
1
0
LINE
5
2D1
100
AcDbEntity
8
SK2
62
256
6
ByLayer
370
-1
48
1
60
0
100
AcDbLine
10
-154.400602
20
-12.4375
30
0
11
-154.005644
21
-9.437499
31
0
39
0
210
0
220
0
230
1
0
LINE
5
2D2
100
AcDbEntity
8
SK2
62
256
6
ByLayer
370
-1
48
1
60
0
100
AcDbLine
10
-154.795559
20
-9.437501
30
0
11
-154.005644
21
-9.437499
31
0
39
0
210
0
220
0
230
1
0
ENDBLK
5
2D4
100
AcDbEntity
8
0
100
AcDbBlockEnd
0
BLOCK
5
2E1
100
AcDbEntity
8
0
100
AcDbBlockBegin
2
DimnDraft3D4
70
0
10
0
20
0
30
0
3
DimnDraft3D4
0
MTEXT
5
2D7
100
AcDbEntity
8
2
62
256
6
ByLayer
370
-1
48
1
60
0
100
AcDbMText
10
39.824398
20
-5.241447
30
0
210
0
220
0
230
1
1
\W01.000;\fsimplex.shx,bigfont.shx;32 
40
4.5
41
0
44
1.084337
50
90
71
7
72
5
7
DEFAULT
0
LINE
5
2D8
100
AcDbEntity
8
2
62
256
6
ByLayer
370
-1
48
1
60
0
100
AcDbLine
10
1.5
20
12.4375
30
0
11
43.949398
21
12.4375
31
0
39
0
210
0
220
0
230
1
0
LINE
5
2D9
100
AcDbEntity
8
2
62
256
6
ByLayer
370
-1
48
1
60
0
100
AcDbLine
10
28.199398
20
-19.9125
30
0
11
43.949398
21
-19.9125
31
0
39
0
210
0
220
0
230
1
0
LINE
5
2DA
100
AcDbEntity
8
2
62
256
6
ByLayer
370
-1
48
1
60
0
100
AcDbLine
10
40.949398
20
12.4375
30
0
11
40.949398
21
-19.9125
31
0
39
0
210
0
220
0
230
1
0
LINE
5
2DB
100
AcDbEntity
8
2
62
256
6
ByLayer
370
-1
48
1
60
0
100
AcDbLine
10
40.949398
20
12.4375
30
0
11
41.344356
21
9.437501
31
0
39
0
210
0
220
0
230
1
0
LINE
5
2DC
100
AcDbEntity
8
2
62
256
6
ByLayer
370
-1
48
1
60
0
100
AcDbLine
10
40.949398
20
12.4375
30
0
11
40.554441
21
9.437499
31
0
39
0
210
0
220
0
230
1
0
LINE
5
2DD
100
AcDbEntity
8
2
62
256
6
ByLayer
370
-1
48
1
60
0
100
AcDbLine
10
41.344356
20
9.437501
30
0
11
40.554441
21
9.437499
31
0
39
0
210
0
220
0
230
1
0
LINE
5
2DE
100
AcDbEntity
8
2
62
256
6
ByLayer
370
-1
48
1
60
0
100
AcDbLine
10
40.949398
20
-19.9125
30
0
11
40.554441
21
-16.912501
31
0
39
0
210
0
220
0
230
1
0
LINE
5
2DF
100
AcDbEntity
8
2
62
256
6
ByLayer
370
-1
48
1
60
0
100
AcDbLine
10
40.949398
20
-19.9125
30
0
11
41.344356
21
-16.912499
31
0
39
0
210
0
220
0
230
1
0
LINE
5
2E0
100
AcDbEntity
8
2
62
256
6
ByLayer
370
-1
48
1
60
0
100
AcDbLine
10
40.554441
20
-16.912501
30
0
11
41.344356
21
-16.912499
31
0
39
0
210
0
220
0
230
1
0
ENDBLK
5
2E2
100
AcDbEntity
8
0
100
AcDbBlockEnd
0
ENDSEC
0
SECTION
2
ENTITIES
0
ELLIPSE
5
15B
100
AcDbEntity
8
1
62
256
6
ByLayer
370
-1
48
1
60
0
100
AcDbEllipse
10
16.129403
20
-11.930967
30
0
11
-1.08030563135577
21
-2.62885183837992
31
0
210
0
220
0
230
1
40
0.404754
41
-1.88187489707368
42
-1.59926189480003
0
ELLIPSE
5
15C
100
AcDbEntity
8
1
62
256
6
ByLayer
370
-1
48
1
60
0
100
AcDbEllipse
10
17.594322
20
-8.120606
30
0
11
-0.197022175593589
21
-1.99027190663094
31
0
210
0
220
0
230
1
40
0.984662
41
1.81584635951599
42
2.47092466409962
0
ELLIPSE
5
15D
100
AcDbEntity
8
1
62
256
6
ByLayer
370
-1
48
1
60
0
100
AcDbEllipse
10
17.351851
20
-6.87079
30
0
11
-0.162543294864711
21
-1.64197432297053
31
0
210
0
220
0
230
1
40
0.984662
41
1.78265846637355
42
2.10373381372523
0
ELLIPSE
5
15E
100
AcDbEntity
8
1
62
256
6
ByLayer
370
-1
48
1
60
0
100
AcDbEllipse
10
16.929948
20
-6.829025
30
0
11
-0.162543294864711
21
-1.64197432297053
31
0
210
0
220
0
230
1
40
0.984662
41
1.40825361869241
42
1.89698289101566
0
ELLIPSE
5
15F
100
AcDbEntity
8
1
62
256
6
ByLayer
370
-1
48
1
60
0
100
AcDbEllipse
10
12.664483
20
-17.992249
30
0
11
-1.08030563151969
21
-2.62885183836774
31
0
210
0
220
0
230
1
40
0.404754
41
-2.16448789915243
42
-1.88187489689811
0
ELLIPSE
5
160
100
AcDbEntity
8
1
62
256
6
ByLayer
370
-1
48
1
60
0
100
AcDbEllipse
10
19.869135
20
-7.119797
30
0
11
-6.1732862673955
21
2.17765707591014
31
0
210
0
220
0
230
1
40
0.084918
41
-1.38624575929637
42
-1.37130150473653
0
ELLIPSE
5
161
100
AcDbEntity
8
1
62
256
6
ByLayer
370
-1
48
1
60
0
100
AcDbEllipse
10
18.173953
20
-6.952173
30
0
11
-0.162543294864711
21
-1.64197432297053
31
0
210
0
220
0
230
1
40
0.984662
41
1.67693262933211
42
-1.59753142449094
0
ELLIPSE
5
162
100
AcDbEntity
8
1
62
256
6
ByLayer
370
-1
48
1
60
0
100
AcDbEllipse
10
16.912586
20
-6.827306
30
0
11
-0.162543294864711
21
-1.64197432297053
31
0
210
0
220
0
230
1
40
0.984662
41
1.4082784574647
42
2.74090299469914
0
ELLIPSE
5
163
100
AcDbEntity
8
1
62
256
6
ByLayer
370
-1
48
1
60
0
100
AcDbEllipse
10
17.172419
20
-8.078841
30
0
11
-0.208520514880066
21
-2.10642543902311
31
0
210
0
220
0
230
1
40
0.984662
41
1.88241829184334
42
2.54289838283157
0
ELLIPSE
5
164
100
AcDbEntity
8
1
62
256
6
ByLayer
370
-1
48
1
60
0
100
AcDbEllipse
10
23.36557
20
-7.466104
30
0
11
-4.60966553482673
21
1.73358190518635
31
0
210
0
220
0
230
1
40
0.221124
41
0.361365533168125
42
0.773224132313624
0
ELLIPSE
5
165
100
AcDbEntity
8
1
62
256
6
ByLayer
370
-1
48
1
60
0
100
AcDbEllipse
10
17.925662
20
-7.652069
30
0
11
0.163118636092517
21
1.64778628540055
31
0
210
0
220
0
230
1
40
0.984662
41
1.0905057426985
42
2.22539590413146
0
ELLIPSE
5
166
100
AcDbEntity
8
1
62
256
6
ByLayer
370
-1
48
1
60
0
100
AcDbEllipse
10
18.473684
20
-15.139185
30
0
11
-0.268442714246302
21
-2.71174547278503
31
0
210
0
220
0
230
1
40
0.984662
41
-3.14153303982983
42
0
0
ELLIPSE
5
167
100
AcDbEntity
8
1
62
256
6
ByLayer
370
-1
48
1
60
0
100
AcDbEllipse
10
18.688735
20
-15.160474
30
0
11
-0.268442714246301
21
-2.71174547278502
31
0
210
0
220
0
230
1
40
0.984662
41
0
42
6.28318530717959
0
ELLIPSE
5
168
100
AcDbEntity
8
1
62
256
6
ByLayer
370
-1
48
1
60
0
100
AcDbEllipse
10
18.699393
20
-15.161529
30
0
11
-0.177319958034268
21
-1.79124471596823
31
0
210
0
220
0
230
1
40
0.984662
41
0
42
6.28318530717959
0
ELLIPSE
5
169
100
AcDbEntity
8
1
62
256
6
ByLayer
370
-1
48
1
60
0
100
AcDbEllipse
10
19.152487
20
-16.418844
30
0
11
-0.335790509927817
21
-0.198599298573793
31
0
210
0
220
0
230
1
40
0.492091
41
-2.55058598128718
42
-1.58029449207162
0
ELLIPSE
5
16A
100
AcDbEntity
8
1
62
256
6
ByLayer
370
-1
48
1
60
0
100
AcDbEllipse
10
18.425938
20
-15.134459
30
0
11
-0.127108856584205
21
-1.28402392056295
31
0
210
0
220
0
230
1
40
0.984662
41
0.620766087096182
42
1.66796363829275
0
ELLIPSE
5
16B
100
AcDbEntity
8
1
62
256
6
ByLayer
370
-1
48
1
60
0
100
AcDbEllipse
10
19.886703
20
-15.134459
30
0
11
-0.00153284667760292
21
-0.394041092517484
31
0
210
0
220
0
230
1
40
0.482349
41
-1.56891995828463
42
-0.158646496811236
0
ELLIPSE
5
16C
100
AcDbEntity
8
1
62
256
6
ByLayer
370
-1
48
1
60
0
100
AcDbEllipse
10
18.699393
20
-15.161529
30
0
11
0.165143987582509
21
1.66824591213769
31
0
210
0
220
0
230
1
40
0.984662
41
0.09716731149725
42
1.14436486269461
0
ELLIPSE
5
16D
100
AcDbEntity
8
1
62
256
6
ByLayer
370
-1
48
1
60
0
100
AcDbEllipse
10
18.699393
20
-15.161529
30
0
11
0.165143987582509
21
1.66824591213769
31
0
210
0
220
0
230
1
40
0.984662
41
1.14436486269461
42
2.19156241389119
0
ELLIPSE
5
16E
100
AcDbEntity
8
1
62
256
6
ByLayer
370
-1
48
1
60
0
100
AcDbEllipse
10
18.699393
20
-15.161529
30
0
11
0.165143987582509
21
1.66824591213769
31
0
210
0
220
0
230
1
40
0.984662
41
2.19156241389119
42
-3.04442534209249
0
ELLIPSE
5
16F
100
AcDbEntity
8
1
62
256
6
ByLayer
370
-1
48
1
60
0
100
AcDbEllipse
10
18.699393
20
-15.161529
30
0
11
0.165143987582509
21
1.66824591213769
31
0
210
0
220
0
230
1
40
0.984662
41
-3.04442534209249
42
-1.99722779089521
0
ELLIPSE
5
170
100
AcDbEntity
8
1
62
256
6
ByLayer
370
-1
48
1
60
0
100
AcDbEllipse
10
18.699393
20
-15.161529
30
0
11
0.165143987582509
21
1.66824591213769
31
0
210
0
220
0
230
1
40
0.984662
41
-1.99722779089521
42
-0.950030239698587
0
ELLIPSE
5
171
100
AcDbEntity
8
1
62
256
6
ByLayer
370
-1
48
1
60
0
100
AcDbEllipse
10
18.699393
20
-15.161529
30
0
11
0.165143987582509
21
1.66824591213769
31
0
210
0
220
0
230
1
40
0.984662
41
-0.950030239698587
42
0.09716731149725
0
ELLIPSE
5
172
100
AcDbEntity
8
1
62
256
6
ByLayer
370
-1
48
1
60
0
100
AcDbEllipse
10
18.425938
20
-15.134459
30
0
11
0.127108856584167
21
1.28402392056259
31
0
210
0
220
0
230
1
40
0.984662
41
0.767324670277629
42
1.36610928308846
0
ELLIPSE
5
173
100
AcDbEntity
8
1
62
256
6
ByLayer
370
-1
48
1
60
0
100
AcDbEllipse
10
18.425938
20
-15.134459
30
0
11
-0.127108856584205
21
-1.28402392056295
31
0
210
0
220
0
230
1
40
0.984662
41
-1.14039128747544
42
-0.533818807487071
0
ELLIPSE
5
174
100
AcDbEntity
8
1
62
256
6
ByLayer
370
-1
48
1
60
0
100
AcDbEllipse
10
17.691721
20
-16.418844
30
0
11
-0.334789202943608
21
0.198289421908169
31
0
210
0
220
0
230
1
40
0.494673
41
-0.815285064495945
42
-0.152897912345085
0
ELLIPSE
5
175
100
AcDbEntity
8
1
62
256
6
ByLayer
370
-1
48
1
60
0
100
AcDbEllipse
10
19.688869
20
-15.876049
30
0
11
-0.193857669878144
21
-0.341952608842209
31
0
210
0
220
0
230
1
40
0.484716
41
0.897947826113394
42
-3.09182378148334
0
ELLIPSE
5
176
100
AcDbEntity
8
1
62
256
6
ByLayer
370
-1
48
1
60
0
100
AcDbEllipse
10
19.693297
20
-14.392868
30
0
11
-0.191488483430399
21
0.342136907191935
31
0
210
0
220
0
230
1
40
0.487198
41
3.09379216279874
42
-0.918975649491862
0
ELLIPSE
5
177
100
AcDbEntity
8
1
62
256
6
ByLayer
370
-1
48
1
60
0
100
AcDbEllipse
10
19.886703
20
-15.134459
30
0
11
-0.00153284667896927
21
-0.394041092524863
31
0
210
0
220
0
230
1
40
0.482349
41
-2.97919341973014
42
-1.56891995827696
0
ELLIPSE
5
178
100
AcDbEntity
8
1
62
256
6
ByLayer
370
-1
48
1
60
0
100
AcDbEllipse
10
18.425938
20
-15.134459
30
0
11
-0.127108856584205
21
-1.28402392056295
31
0
210
0
220
0
230
1
40
0.984662
41
1.66796363829368
42
2.71516118949026
0
ELLIPSE
5
179
100
AcDbEntity
8
1
62
256
6
ByLayer
370
-1
48
1
60
0
100
AcDbEllipse
10
19.160154
20
-13.850073
30
0
11
-0.334789202941932
21
0.198289421905204
31
0
210
0
220
0
230
1
40
0.494673
41
1.5784212797737
42
2.32630559313799
0
ELLIPSE
5
17A
100
AcDbEntity
8
1
62
256
6
ByLayer
370
-1
48
1
60
0
100
AcDbEllipse
10
18.421511
20
-16.61764
30
0
11
-0.388113116813996
21
-0.000380450307972422
31
0
210
0
220
0
230
1
40
0.497203
41
1.68583207080399
42
-3.08641908149593
0
ELLIPSE
5
17B
100
AcDbEntity
8
1
62
256
6
ByLayer
370
-1
48
1
60
0
100
AcDbEllipse
10
18.430365
20
-13.651278
30
0
11
-0.388113116813999
21
-0.000380450307986041
31
0
210
0
220
0
230
1
40
0.497203
41
3.08247600625893
42
-2.04288598964795
0
ELLIPSE
5
17C
100
AcDbEntity
8
1
62
256
6
ByLayer
370
-1
48
1
60
0
100
AcDbEllipse
10
19.160154
20
-13.850073
30
0
11
-0.334789202942745
21
0.198289421907551
31
0
210
0
220
0
230
1
40
0.494673
41
0.168147818325307
42
1.57842127978316
0
ELLIPSE
5
17D
100
AcDbEntity
8
1
62
256
6
ByLayer
370
-1
48
1
60
0
100
AcDbEllipse
10
18.425938
20
-15.134459
30
0
11
-0.127108856584205
21
-1.28402392056295
31
0
210
0
220
0
230
1
40
0.984662
41
2.71516118949023
42
-2.89058537899261
0
ELLIPSE
5
17E
100
AcDbEntity
8
1
62
256
6
ByLayer
370
-1
48
1
60
0
100
AcDbEllipse
10
18.425938
20
-15.134459
30
0
11
-0.127108856584205
21
-1.28402392056295
31
0
210
0
220
0
230
1
40
0.984662
41
-0.107609258492646
42
0.620766087096101
0
ELLIPSE
5
17F
100
AcDbEntity
8
1
62
256
6
ByLayer
370
-1
48
1
60
0
100
AcDbEllipse
10
19.152487
20
-16.418844
30
0
11
-0.335790509926061
21
-0.198599298572605
31
0
210
0
220
0
230
1
40
0.492091
41
-1.58029449207092
42
-0.170021030608014
0
ELLIPSE
5
180
100
AcDbEntity
8
1
62
256
6
ByLayer
370
-1
48
1
60
0
100
AcDbEllipse
10
22.654861
20
-10.993825
30
0
11
1.53075794227797E-17
21
0.25
31
0
210
0
220
0
230
1
40
0.173648
41
2.03075104594622
42
2.61418654517731
0
ELLIPSE
5
181
100
AcDbEntity
8
1
62
256
6
ByLayer
370
-1
48
1
60
0
100
AcDbEllipse
10
22.475699
20
-12.765262
30
0
11
1.10214571844014E-16
21
1.8
31
0
210
0
220
0
230
1
40
0.173648
41
-0.754298911171547
42
-0.52740610841224
0
ELLIPSE
5
182
100
AcDbEntity
8
1
62
256
6
ByLayer
370
-1
48
1
60
0
100
AcDbEllipse
10
22.66001
20
-11.635696
30
0
11
1.53075794227797E-17
21
0.25
31
0
210
0
220
0
230
1
40
0.173648
41
-1.58333030586885
42
-0.754298911171498
0
ELLIPSE
5
183
100
AcDbEntity
8
1
62
256
6
ByLayer
370
-1
48
1
60
0
100
AcDbEllipse
10
22.651421
20
-12.574075
30
0
11
1.53075794227797E-17
21
0.25
31
0
210
0
220
0
230
1
40
0.173648
41
0.502338150264358
42
1.09015436395413
0
ELLIPSE
5
184
100
AcDbEntity
8
1
62
256
6
ByLayer
370
-1
48
1
60
0
100
AcDbEllipse
10
22.480026
20
-10.777334
30
0
11
1.10214571844014E-16
21
1.8
31
0
210
0
220
0
230
1
40
0.173648
41
-2.63925450332544
42
-2.41236170056614
0
ELLIPSE
5
185
100
AcDbEntity
8
1
62
256
6
ByLayer
370
-1
48
1
60
0
100
AcDbEllipse
10
22.659362
20
-11.933149
30
0
11
1.53075794227797E-17
21
0.25
31
0
210
0
220
0
230
1
40
0.173648
41
-2.41236170056577
42
-1.58333030586883
0
ELLIPSE
5
186
100
AcDbEntity
8
1
62
256
6
ByLayer
370
-1
48
1
60
0
100
AcDbEllipse
10
18.482403
20
-15.135469
30
0
11
-0.27210402828057
21
-2.9976362646461
31
0
210
0
220
0
230
1
40
0.984685
41
-0.379019449942485
42
0
0
ELLIPSE
5
187
100
AcDbEntity
8
1
62
256
6
ByLayer
370
-1
48
1
60
0
100
AcDbEllipse
10
18.482403
20
-15.135469
30
0
11
-0.27210402828057
21
-2.9976362646461
31
0
210
0
220
0
230
1
40
0.984685
41
0
42
0.0919249144870164
0
ELLIPSE
5
188
100
AcDbEntity
8
1
62
256
6
ByLayer
370
-1
48
1
60
0
100
AcDbEllipse
10
18.482403
20
-15.135469
30
0
11
-0.27210402828057
21
-2.9976362646461
31
0
210
0
220
0
230
1
40
0.984685
41
0.0919249049210807
42
-2.7627029969778
0
ELLIPSE
5
189
100
AcDbEntity
8
1
62
256
6
ByLayer
370
-1
48
1
60
0
100
AcDbEllipse
10
18.438737
20
-15.131505
30
0
11
-0.264066187850135
21
-2.90908732946141
31
0
210
0
220
0
230
1
40
0.984685
41
-0.77024592257035
42
0
0
ELLIPSE
5
18A
100
AcDbEntity
8
1
62
256
6
ByLayer
370
-1
48
1
60
0
100
AcDbEllipse
10
18.438737
20
-15.131505
30
0
11
-0.264066187850135
21
-2.90908732946141
31
0
210
0
220
0
230
1
40
0.984685
41
0
42
0.0919247418532684
0
ELLIPSE
5
18B
100
AcDbEntity
8
1
62
256
6
ByLayer
370
-1
48
1
60
0
100
AcDbEllipse
10
18.438737
20
-15.131505
30
0
11
-0.264066187850135
21
-2.90908732946141
31
0
210
0
220
0
230
1
40
0.984685
41
2.2161322122727
42
-2.37147652622667
0
ELLIPSE
5
18C
100
AcDbEntity
8
1
62
256
6
ByLayer
370
-1
48
1
60
0
100
AcDbEllipse
10
18.438737
20
-15.131505
30
0
11
-0.264066187850135
21
-2.90908732946141
31
0
210
0
220
0
230
1
40
0.984685
41
0.0919249798460305
42
0.880660998939208
0
ELLIPSE
5
18D
100
AcDbEntity
8
1
62
256
6
ByLayer
370
-1
48
1
60
0
100
AcDbEllipse
10
14.185279
20
-19.30768
30
0
11
-0.27974732236384
21
-0.1557730910611
31
0
210
0
220
0
230
1
40
0.099584
41
-2.07002057392749
42
-1.27347863739392
0
ELLIPSE
5
18E
100
AcDbEntity
8
1
62
256
6
ByLayer
370
-1
48
1
60
0
100
AcDbEllipse
10
14.361511
20
-19.321006
30
0
11
-0.161057566544888
21
-0.0288747064222606
31
0
210
0
220
0
230
1
40
0.77681
41
-2.34494699850022
42
-2.00013870747237
0
ELLIPSE
5
18F
100
AcDbEntity
8
1
62
256
6
ByLayer
370
-1
48
1
60
0
100
AcDbEllipse
10
12.947757
20
-15.617713
30
0
11
-0.0889732261400954
21
-0.152712070474546
31
0
210
0
220
0
230
1
40
0.134321
41
0.59848089580613
42
1.63346114231872
0
ELLIPSE
5
190
100
AcDbEntity
8
1
62
256
6
ByLayer
370
-1
48
1
60
0
100
AcDbEllipse
10
13.817589
20
-19.336538
30
0
11
-0.0393851345051514
21
0.124684027151039
31
0
210
0
220
0
230
1
40
0.960533
41
2.32479554091775
42
-2.91784637260284
0
ELLIPSE
5
191
100
AcDbEntity
8
1
62
256
6
ByLayer
370
-1
48
1
60
0
100
AcDbEllipse
10
13.244477
20
-19.00005
30
0
11
-0.0393851345276978
21
0.124684027139009
31
0
210
0
220
0
230
1
40
0.960533
41
1.37207586378926
42
2.32479554072439
0
ELLIPSE
5
192
100
AcDbEntity
8
1
62
256
6
ByLayer
370
-1
48
1
60
0
100
AcDbEllipse
10
12.987948
20
-18.971563
30
0
11
-0.0393851345584785
21
0.124684027124233
31
0
210
0
220
0
230
1
40
0.960533
41
-1.76951679007746
42
-0.816797113107861
0
ELLIPSE
5
193
100
AcDbEntity
8
1
62
256
6
ByLayer
370
-1
48
1
60
0
100
AcDbEllipse
10
12.938736
20
-18.942669
30
0
11
-0.0393851345324514
21
0.124684027133034
31
0
210
0
220
0
230
1
40
0.960533
41
-0.816797112932739
42
0.223746280763476
0
ELLIPSE
5
194
100
AcDbEntity
8
1
62
256
6
ByLayer
370
-1
48
1
60
0
100
AcDbEllipse
10
12.077071
20
-19.071653
30
0
11
-0.0605925146332205
21
0.191821580224574
31
0
210
0
220
0
230
1
40
0.960533
41
2.32479554085196
42
-2.91784637265715
0
ELLIPSE
5
195
100
AcDbEntity
8
1
62
256
6
ByLayer
370
-1
48
1
60
0
100
AcDbEllipse
10
12.055899
20
-19.059222
30
0
11
-0.060592514616588
21
0.191821580233344
31
0
210
0
220
0
230
1
40
0.960533
41
1.28425214728306
42
2.32479554093598
0
ELLIPSE
5
196
100
AcDbEntity
8
1
62
256
6
ByLayer
370
-1
48
1
60
0
100
AcDbEllipse
10
15.758547
20
-19.713282
30
0
11
0.0180802375823497
21
0.199181085971951
31
0
210
0
220
0
230
1
40
0.984685
41
2.70713969510981
42
-3.05244683647129
0
ELLIPSE
5
197
100
AcDbEntity
8
1
62
256
6
ByLayer
370
-1
48
1
60
0
100
AcDbEllipse
10
12.705472
20
-17.869541
30
0
11
0.118305764501749
21
-0.225396863522226
31
0
210
0
220
0
230
1
40
0.956983
41
1.61029446388621
42
2.68420852399154
0
ELLIPSE
5
198
100
AcDbEntity
8
1
62
256
6
ByLayer
370
-1
48
1
60
0
100
AcDbEllipse
10
12.297791
20
-17.872931
30
0
11
0.118305764501749
21
-0.225396863522226
31
0
210
0
220
0
230
1
40
0.956983
41
2.68420852399141
42
2.9891457889724
0
ELLIPSE
5
199
100
AcDbEntity
8
1
62
256
6
ByLayer
370
-1
48
1
60
0
100
AcDbEllipse
10
12.915689
20
-18.235715
30
0
11
0.118305764501749
21
-0.225396863522226
31
0
210
0
220
0
230
1
40
0.956983
41
1.30535719890518
42
1.6102944638862
0
ELLIPSE
5
19A
100
AcDbEntity
8
1
62
256
6
ByLayer
370
-1
48
1
60
0
100
AcDbEllipse
10
12.854899
20
-17.868299
30
0
11
-0.931737083200189
21
-0.00318186459729154
31
0
210
0
220
0
230
1
40
0.351013
41
-0.81289484656949
42
0.00938637575900424
0
ELLIPSE
5
19B
100
AcDbEntity
8
1
62
256
6
ByLayer
370
-1
48
1
60
0
100
AcDbEllipse
10
12.628421
20
-17.735328
30
0
11
-0.480039673608336
21
0.836978963729527
31
0
210
0
220
0
230
1
40
0.327324
41
-3.13575152717909
42
-2.31347030485511
0
ELLIPSE
5
19C
100
AcDbEntity
8
1
62
256
6
ByLayer
370
-1
48
1
60
0
100
AcDbEllipse
10
11.99222
20
-16.344587
30
0
11
-0.0938360330560875
21
2.80143478250024
31
0
210
0
220
0
230
1
40
0.29273
41
3.13446637235517
42
-2.98112325981748
0
ELLIPSE
5
19D
100
AcDbEntity
8
1
62
256
6
ByLayer
370
-1
48
1
60
0
100
AcDbEllipse
10
14.318546
20
-17.710434
30
0
11
-2.32235940220689
21
-1.38920876452626
31
0
210
0
220
0
230
1
40
0.314059
41
-0.173471786619623
42
-0.00587611184257076
0
ELLIPSE
5
19E
100
AcDbEntity
8
1
62
256
6
ByLayer
370
-1
48
1
60
0
100
AcDbEllipse
10
12.859035
20
-17.11019
30
0
11
-0.283797838351282
21
-0.147847174295418
31
0
210
0
220
0
230
1
40
0.095227
41
-2.45854301848247
42
-1.42356277204931
0
ELLIPSE
5
19F
100
AcDbEntity
8
1
62
256
6
ByLayer
370
-1
48
1
60
0
100
AcDbEllipse
10
12.859035
20
-17.11019
30
0
11
0.273970542679925
21
0.165348546239957
31
0
210
0
220
0
230
1
40
0.018074
41
0.67948922568483
42
1.86463385082666
0
ELLIPSE
5
1A0
100
AcDbEntity
8
1
62
256
6
ByLayer
370
-1
48
1
60
0
100
AcDbEllipse
10
12.859035
20
-17.11019
30
0
11
0.162018972073847
21
0.275952627615926
31
0
210
0
220
0
230
1
40
0.158144
41
1.64518250202724
42
1.81971542722653
0
ELLIPSE
5
1A1
100
AcDbEntity
8
1
62
256
6
ByLayer
370
-1
48
1
60
0
100
AcDbEllipse
10
15.23401
20
-13.358803
30
0
11
-0.0109765333732287
21
-0.1495978466259
31
0
210
0
220
0
230
1
40
0.174315
41
1.56778344730408
42
2.27657293682735
0
ELLIPSE
5
1A2
100
AcDbEntity
8
1
62
256
6
ByLayer
370
-1
48
1
60
0
100
AcDbEllipse
10
18.378606
20
-18.527089
30
0
11
0.0367863585044556
21
-0.145419269108264
31
0
210
0
220
0
230
1
40
0.164735
41
1.33837117999122
42
1.5129041051906
0
ELLIPSE
5
1A3
100
AcDbEntity
8
1
62
256
6
ByLayer
370
-1
48
1
60
0
100
AcDbEllipse
10
17.777896
20
-18.679049
30
0
11
0.0367863585044556
21
-0.145419269108264
31
0
210
0
220
0
230
1
40
0.164735
41
1.33837117999126
42
1.51290410519056
0
ELLIPSE
5
1A4
100
AcDbEntity
8
1
62
256
6
ByLayer
370
-1
48
1
60
0
100
AcDbEllipse
10
17.642544
20
-19.327014
30
0
11
0.149913678706951
21
0.00508811719096788
31
0
210
0
220
0
230
1
40
0.021972
41
-1.39692958113925
42
-0.688140091617093
0
ELLIPSE
5
1A5
100
AcDbEntity
8
1
62
256
6
ByLayer
370
-1
48
1
60
0
100
AcDbEllipse
10
12.351741
20
-17.844613
30
0
11
0.0155171404431575
21
0.329634977440907
31
0
210
0
220
0
230
1
40
0.571905
41
0.900781516255423
42
1.72306273859037
0
ELLIPSE
5
1A6
100
AcDbEntity
8
1
62
256
6
ByLayer
370
-1
48
1
60
0
100
AcDbEllipse
10
12.351741
20
-17.844613
30
0
11
0.0027434716403308
21
-0.329988595808035
31
0
210
0
220
0
230
1
40
0.26032
41
-2.3187215918022
42
-1.43770026579287
0
ELLIPSE
5
1A7
100
AcDbEntity
8
1
62
256
6
ByLayer
370
-1
48
1
60
0
100
AcDbEllipse
10
12.969639
20
-18.207398
30
0
11
0.286191286725687
21
0.164300174687356
31
0
210
0
220
0
230
1
40
0.011457
41
0.983935267127387
42
1.8649565931396
0
ELLIPSE
5
1A8
100
AcDbEntity
8
1
62
256
6
ByLayer
370
-1
48
1
60
0
100
AcDbEllipse
10
12.969639
20
-18.207398
30
0
11
-0.267449075294889
21
-0.19331578343195
31
0
210
0
220
0
230
1
40
0.316515
41
1.26476442462777
42
2.08704564696279
0
ELLIPSE
5
1A9
100
AcDbEntity
8
1
62
256
6
ByLayer
370
-1
48
1
60
0
100
AcDbEllipse
10
12.295098
20
-18.935509
30
0
11
-0.753175037503753
21
-0.876144179845665
31
0
210
0
220
0
230
1
40
0.022981
41
-1.47589430609399
42
-1.30829858546443
0
ELLIPSE
5
1AA
100
AcDbEntity
8
1
62
256
6
ByLayer
370
-1
48
1
60
0
100
AcDbEllipse
10
12.295098
20
-18.935508
30
0
11
-0.289730907649423
21
-1.14560447713605
31
0
210
0
220
0
230
1
40
0.218276
41
-1.54349117737279
42
-1.37589550817981
0
ELLIPSE
5
1AB
100
AcDbEntity
8
1
62
256
6
ByLayer
370
-1
48
1
60
0
100
AcDbEllipse
10
12.759422
20
-17.841224
30
0
11
0.0027434716403308
21
-0.329988595808035
31
0
210
0
220
0
230
1
40
0.26032
41
-2.3187215918022
42
-1.43770026579287
0
ELLIPSE
5
1AC
100
AcDbEntity
8
1
62
256
6
ByLayer
370
-1
48
1
60
0
100
AcDbEllipse
10
12.759422
20
-17.841224
30
0
11
-0.286191286725687
21
-0.164300174687356
31
0
210
0
220
0
230
1
40
0.011457
41
-2.15765738646053
42
-1.27663606045253
0
ELLIPSE
5
1AD
100
AcDbEntity
8
1
62
256
6
ByLayer
370
-1
48
1
60
0
100
AcDbEllipse
10
12.351741
20
-17.844613
30
0
11
-0.32985002043205
21
-0.00994806619279573
31
0
210
0
220
0
230
1
40
0.131594
41
0.95782412935333
42
1.3068899797522
0
ELLIPSE
5
1AE
100
AcDbEntity
8
1
62
256
6
ByLayer
370
-1
48
1
60
0
100
AcDbEllipse
10
12.969639
20
-18.207398
30
0
11
-0.169262396137934
21
0.283284735299389
31
0
210
0
220
0
230
1
40
0.289738
41
1.55477985776542
42
1.90384570816431
0
ELLIPSE
5
1AF
100
AcDbEntity
8
1
62
256
6
ByLayer
370
-1
48
1
60
0
100
AcDbEllipse
10
12.373426
20
-18.563634
30
0
11
-0.32985002043205
21
-0.00994806619279573
31
0
210
0
220
0
230
1
40
0.131594
41
0.957824129353304
42
1.30688997975213
0
ELLIPSE
5
1B0
100
AcDbEntity
8
1
62
256
6
ByLayer
370
-1
48
1
60
0
100
AcDbEllipse
10
12.373426
20
-18.563634
30
0
11
-0.169262396137934
21
0.283284735299389
31
0
210
0
220
0
230
1
40
0.289738
41
1.55477985776529
42
1.90384570816423
0
ELLIPSE
5
1B1
100
AcDbEntity
8
1
62
256
6
ByLayer
370
-1
48
1
60
0
100
AcDbEllipse
10
12.373426
20
-18.563634
30
0
11
-0.295887399852021
21
0.14611860459507
31
0
210
0
220
0
230
1
40
0.410668
41
1.09576026608716
42
1.69717966239799
0
ELLIPSE
5
1B2
100
AcDbEntity
8
1
62
256
6
ByLayer
370
-1
48
1
60
0
100
AcDbEllipse
10
12.225915
20
-18.862341
30
0
11
0.295887399852021
21
-0.14611860459507
31
0
210
0
220
0
230
1
40
0.410668
41
-2.0458323875026
42
-1.44441299119162
0
ELLIPSE
5
1B3
100
AcDbEntity
8
1
62
256
6
ByLayer
370
-1
48
1
60
0
100
AcDbEllipse
10
17.292817
20
-9.182085
30
0
11
-0.00204550558070434
21
-0.320084952777455
31
0
210
0
220
0
230
1
40
0.17433
41
-1.73783972738129
42
-0.941297790821177
0
ELLIPSE
5
1B4
100
AcDbEntity
8
1
62
256
6
ByLayer
370
-1
48
1
60
0
100
AcDbEllipse
10
17.111448
20
-9.368739
30
0
11
-0.104613574480884
21
0.108175544071706
31
0
210
0
220
0
230
1
40
0.746721
41
3.04066759871165
42
-2.89770941674561
0
ELLIPSE
5
1B5
100
AcDbEntity
8
1
62
256
6
ByLayer
370
-1
48
1
60
0
100
AcDbEllipse
10
21.08693
20
-9.918348
30
0
11
-0.0885856203341272
21
0.152801635029289
31
0
210
0
220
0
230
1
40
0.121299
41
-1.6564369671716
42
-0.621456720743334
0
ELLIPSE
5
1B6
100
AcDbEntity
8
1
62
256
6
ByLayer
370
-1
48
1
60
0
100
AcDbEllipse
10
17.372987
20
-8.882039
30
0
11
-0.0535420619846235
21
-0.11907890449945
31
0
210
0
220
0
230
1
40
0.958693
41
-2.20960672968558
42
-1.16906333605934
0
ELLIPSE
5
1B7
100
AcDbEntity
8
1
62
256
6
ByLayer
370
-1
48
1
60
0
100
AcDbEllipse
10
17.94794
20
-8.54555
30
0
11
-0.0535420620107089
21
-0.11907890447992
31
0
210
0
220
0
230
1
40
0.958693
41
3.12085890078814
42
-2.20960672946052
0
ELLIPSE
5
1B8
100
AcDbEntity
8
1
62
256
6
ByLayer
370
-1
48
1
60
0
100
AcDbEllipse
10
18.106297
20
-8.331731
30
0
11
-0.0535420619869673
21
-0.119078904494591
31
0
210
0
220
0
230
1
40
0.958693
41
-0.0207337530023264
42
0.931985923912226
0
ELLIPSE
5
1B9
100
AcDbEntity
8
1
62
256
6
ByLayer
370
-1
48
1
60
0
100
AcDbEllipse
10
18.155667
20
-8.302837
30
0
11
-0.0535420619995015
21
-0.119078904486742
31
0
210
0
220
0
230
1
40
0.958693
41
0.931985924025334
42
1.97252931769873
0
ELLIPSE
5
1BA
100
AcDbEntity
8
1
62
256
6
ByLayer
370
-1
48
1
60
0
100
AcDbEllipse
10
18.50546
20
-7.468354
30
0
11
-0.0823724030707736
21
-0.183198314599245
31
0
210
0
220
0
230
1
40
0.958693
41
-2.20960672959333
42
-1.16906333592928
0
ELLIPSE
5
1BB
100
AcDbEntity
8
1
62
256
6
ByLayer
370
-1
48
1
60
0
100
AcDbEllipse
10
18.526701
20
-7.455923
30
0
11
-0.0823724030658332
21
-0.183198314602905
31
0
210
0
220
0
230
1
40
0.958693
41
3.03303518388578
42
-2.20960672963012
0
ELLIPSE
5
1BC
100
AcDbEntity
8
1
62
256
6
ByLayer
370
-1
48
1
60
0
100
AcDbEllipse
10
16.222472
20
-10.332521
30
0
11
0.0180802375823497
21
0.199181085971951
31
0
210
0
220
0
230
1
40
0.984685
41
0.612744592716628
42
1.13634336831483
0
ELLIPSE
5
1BD
100
AcDbEntity
8
1
62
256
6
ByLayer
370
-1
48
1
60
0
100
AcDbEllipse
10
19.148542
20
-8.650382
30
0
11
-0.138398498626085
21
-0.21364890727089
31
0
210
0
220
0
230
1
40
0.952315
41
0.547449270962584
42
1.62136333106766
0
ELLIPSE
5
1BE
100
AcDbEntity
8
1
62
256
6
ByLayer
370
-1
48
1
60
0
100
AcDbEllipse
10
19.36076
20
-8.285391
30
0
11
-0.138398498626085
21
-0.21364890727089
31
0
210
0
220
0
230
1
40
0.952315
41
1.62136333106766
42
1.92630059604859
0
ELLIPSE
5
1BF
100
AcDbEntity
8
1
62
256
6
ByLayer
370
-1
48
1
60
0
100
AcDbEllipse
10
18.740876
20
-8.648175
30
0
11
-0.138398498626085
21
-0.21364890727089
31
0
210
0
220
0
230
1
40
0.952315
41
0.242512005981463
42
0.54744927096235
0
ELLIPSE
5
1C0
100
AcDbEntity
8
1
62
256
6
ByLayer
370
-1
48
1
60
0
100
AcDbEllipse
10
19.070757
20
-8.784163
30
0
11
-0.485450528837316
21
-0.833793599943718
31
0
210
0
220
0
230
1
40
0.325762
41
2.31654122001247
42
3.13882244233798
0
ELLIPSE
5
1C1
100
AcDbEntity
8
1
62
256
6
ByLayer
370
-1
48
1
60
0
100
AcDbEllipse
10
19.297963
20
-8.651191
30
0
11
-0.931731499544126
21
-0.000583048785425534
31
0
210
0
220
0
230
1
40
0.349309
41
-0.0127205576558895
42
0.809560664674022
0
ELLIPSE
5
1C2
100
AcDbEntity
8
1
62
256
6
ByLayer
370
-1
48
1
60
0
100
AcDbEllipse
10
20.760759
20
-8.804102
30
0
11
-2.31605435048975
21
1.37369458288726
31
0
210
0
220
0
230
1
40
0.315635
41
0.00298511009039536
42
0.170580785280921
0
ELLIPSE
5
1C3
100
AcDbEntity
8
1
62
256
6
ByLayer
370
-1
48
1
60
0
100
AcDbEllipse
10
18.426956
20
-10.169949
30
0
11
-0.111418399184055
21
-2.78797895014466
31
0
210
0
220
0
230
1
40
0.293981
41
2.98390838984957
42
-3.13168124239929
0
ELLIPSE
5
1C4
100
AcDbEntity
8
1
62
256
6
ByLayer
370
-1
48
1
60
0
100
AcDbEllipse
10
19.773417
20
-9.1377
30
0
11
0.0113395985135246
21
0.319799020488731
31
0
210
0
220
0
230
1
40
0.174084
41
1.56119816859219
42
2.59617841502481
0
ELLIPSE
5
1C5
100
AcDbEntity
8
1
62
256
6
ByLayer
370
-1
48
1
60
0
100
AcDbEllipse
10
19.773417
20
-9.1377
30
0
11
0.00572482928562401
21
-0.319948787042005
31
0
210
0
220
0
230
1
40
0.256832
41
-1.74207351478782
42
-0.556928889643841
0
ELLIPSE
5
1C6
100
AcDbEntity
8
1
62
256
6
ByLayer
370
-1
48
1
60
0
100
AcDbEllipse
10
19.773417
20
-9.1377
30
0
11
0.161632485826125
21
-0.276179180108978
31
0
210
0
220
0
230
1
40
0.142623
41
-1.84680470892602
42
-1.67227178372671
0
ELLIPSE
5
1C7
100
AcDbEntity
8
1
62
256
6
ByLayer
370
-1
48
1
60
0
100
AcDbEllipse
10
21.865108
20
-13.052613
30
0
11
-0.124592254826947
21
0.0835270617053962
31
0
210
0
220
0
230
1
40
0.084588
41
-2.43318214818816
42
-1.7243926586665
0
ELLIPSE
5
1C8
100
AcDbEntity
8
1
62
256
6
ByLayer
370
-1
48
1
60
0
100
AcDbEllipse
10
15.876792
20
-13.245877
30
0
11
-0.144249644291543
21
0.0411344152962359
31
0
210
0
220
0
230
1
40
0.032944
41
-1.74293776391113
42
-1.56840483871208
0
ELLIPSE
5
1C9
100
AcDbEntity
8
1
62
256
6
ByLayer
370
-1
48
1
60
0
100
AcDbEllipse
10
16.048974
20
-12.642073
30
0
11
-0.144249644291543
21
0.0411344152962359
31
0
210
0
220
0
230
1
40
0.032944
41
-1.7429377639115
42
-1.56840483871208
0
ELLIPSE
5
1CA
100
AcDbEntity
8
1
62
256
6
ByLayer
370
-1
48
1
60
0
100
AcDbEllipse
10
15.564274
20
-12.200638
30
0
11
-0.0710291567746819
21
-0.132116838018012
31
0
210
0
220
0
230
1
40
0.160766
41
0.930395554479573
42
1.63918504400245
0
ELLIPSE
5
1CB
100
AcDbEntity
8
1
62
256
6
ByLayer
370
-1
48
1
60
0
100
AcDbEllipse
10
19.414538
20
-8.320227
30
0
11
0.265139820720223
21
-0.19647105503979
31
0
210
0
220
0
230
1
40
0.340178
41
1.07395708266921
42
1.89623830500428
0
ELLIPSE
5
1CC
100
AcDbEntity
8
1
62
256
6
ByLayer
370
-1
48
1
60
0
100
AcDbEllipse
10
19.414538
20
-8.320227
30
0
11
-0.285282473313296
21
0.165873175710387
31
0
210
0
220
0
230
1
40
0.015422
41
-2.14212784185345
42
-1.26110651583905
0
ELLIPSE
5
1CD
100
AcDbEntity
8
1
62
256
6
ByLayer
370
-1
48
1
60
0
100
AcDbEllipse
10
18.794653
20
-8.683011
30
0
11
-0.00178662304630266
21
-0.329995163567726
31
0
210
0
220
0
230
1
40
0.260526
41
-1.7360447117673
42
-0.85502338575789
0
ELLIPSE
5
1CE
100
AcDbEntity
8
1
62
256
6
ByLayer
370
-1
48
1
60
0
100
AcDbEllipse
10
18.794653
20
-8.683011
30
0
11
-0.0208215068507404
21
0.329342473502075
31
0
210
0
220
0
230
1
40
0.570502
41
1.38076587295059
42
2.20304709528556
0
ELLIPSE
5
1CF
100
AcDbEntity
8
1
62
256
6
ByLayer
370
-1
48
1
60
0
100
AcDbEllipse
10
18.743909
20
-7.618711
30
0
11
-0.289490857017993
21
1.13451433387103
31
0
210
0
220
0
230
1
40
0.214503
41
1.35157267497558
42
1.51916835041983
0
ELLIPSE
5
1D0
100
AcDbEntity
8
1
62
256
6
ByLayer
370
-1
48
1
60
0
100
AcDbEllipse
10
18.74391
20
-7.618711
30
0
11
-0.748651163892431
21
0.868264261734235
31
0
210
0
220
0
230
1
40
0.006448
41
1.28886021261781
42
1.45645585350553
0
ELLIPSE
5
1D1
100
AcDbEntity
8
1
62
256
6
ByLayer
370
-1
48
1
60
0
100
AcDbEllipse
10
19.202319
20
-8.685218
30
0
11
-0.285282473313296
21
0.165873175710387
31
0
210
0
220
0
230
1
40
0.015422
41
-2.14212784185039
42
-1.26110651584084
0
ELLIPSE
5
1D2
100
AcDbEntity
8
1
62
256
6
ByLayer
370
-1
48
1
60
0
100
AcDbEllipse
10
19.202319
20
-8.685218
30
0
11
0.00178662304630247
21
0.329995163567726
31
0
210
0
220
0
230
1
40
0.260526
41
1.40554794182249
42
2.28656926783188
0
ELLIPSE
5
1D3
100
AcDbEntity
8
1
62
256
6
ByLayer
370
-1
48
1
60
0
100
AcDbEllipse
10
19.414538
20
-8.320227
30
0
11
0.168459357975662
21
0.283763008002149
31
0
210
0
220
0
230
1
40
0.304906
41
1.20981229166575
42
1.55887814206458
0
ELLIPSE
5
1D4
100
AcDbEntity
8
1
62
256
6
ByLayer
370
-1
48
1
60
0
100
AcDbEllipse
10
18.794653
20
-8.683011
30
0
11
0.329788829487308
21
-0.0118037259113879
31
0
210
0
220
0
230
1
40
0.162283
41
1.8357369762291
42
2.18480282662799
0
ELLIPSE
5
1D5
100
AcDbEntity
8
1
62
256
6
ByLayer
370
-1
48
1
60
0
100
AcDbEllipse
10
18.820265
20
-7.96743
30
0
11
0.168459357975662
21
0.283763008002149
31
0
210
0
220
0
230
1
40
0.304906
41
1.20981229166573
42
1.55887814206462
0
ELLIPSE
5
1D6
100
AcDbEntity
8
1
62
256
6
ByLayer
370
-1
48
1
60
0
100
AcDbEllipse
10
18.820265
20
-7.96743
30
0
11
0.329788829487308
21
-0.0118037259113879
31
0
210
0
220
0
230
1
40
0.162283
41
1.83573697622912
42
2.18480282662793
0
ELLIPSE
5
1D7
100
AcDbEntity
8
1
62
256
6
ByLayer
370
-1
48
1
60
0
100
AcDbEllipse
10
18.820265
20
-7.96743
30
0
11
0.295747720360011
21
0.146401113048559
31
0
210
0
220
0
230
1
40
0.435879
41
1.42922678441894
42
2.03064618072985
0
ELLIPSE
5
1D8
100
AcDbEntity
8
1
62
256
6
ByLayer
370
-1
48
1
60
0
100
AcDbEllipse
10
18.674379
20
-7.672722
30
0
11
-0.295747720360011
21
-0.146401113048559
31
0
210
0
220
0
230
1
40
0.435879
41
-1.71236586917084
42
-1.11094647285998
0
ELLIPSE
5
1D9
100
AcDbEntity
8
1
62
256
6
ByLayer
370
-1
48
1
60
0
100
AcDbEllipse
10
17.662361
20
-19.910893
30
0
11
-0.150100272176235
21
0.000410293035844403
31
0
210
0
220
0
230
1
40
0.015511
41
1.74523197360667
42
2.45402146315924
0
ELLIPSE
5
1DA
100
AcDbEntity
8
1
62
256
6
ByLayer
370
-1
48
1
60
0
100
AcDbEllipse
10
12.244516
20
-16.74939
30
0
11
-0.162018972073839
21
-0.275952627615931
31
0
210
0
220
0
230
1
40
0.158144
41
-1.49641015156247
42
-1.32187722636302
0
ELLIPSE
5
1DB
100
AcDbEntity
8
1
62
256
6
ByLayer
370
-1
48
1
60
0
100
AcDbEllipse
10
12.46764
20
-16.358894
30
0
11
-0.189809549108308
21
-0.325785750366509
31
0
210
0
220
0
230
1
40
0.134321
41
-2.54311175778161
42
-1.50813151132391
0
ELLIPSE
5
1DC
100
AcDbEntity
8
1
62
256
6
ByLayer
370
-1
48
1
60
0
100
AcDbEllipse
10
14.278526
20
-13.288696
30
0
11
-0.0840311248386861
21
-0.143872957493555
31
0
210
0
220
0
230
1
40
0.142448
41
1.63742825164199
42
2.34621774092195
0
ELLIPSE
5
1DD
100
AcDbEntity
8
1
62
256
6
ByLayer
370
-1
48
1
60
0
100
AcDbEllipse
10
14.966274
20
-19.492327
30
0
11
-0.24236581841087
21
0.141207362999474
31
0
210
0
220
0
230
1
40
0.0396
41
-1.65536506594155
42
-0.620384819656896
0
ELLIPSE
5
1DE
100
AcDbEntity
8
1
62
256
6
ByLayer
370
-1
48
1
60
0
100
AcDbEllipse
10
12.008828
20
-17.498494
30
0
11
-0.060592514044076
21
0.191821580340695
31
0
210
0
220
0
230
1
40
0.960533
41
0.753999216966307
42
1.2842521502284
0
ELLIPSE
5
1DF
100
AcDbEntity
8
1
62
256
6
ByLayer
370
-1
48
1
60
0
100
AcDbEllipse
10
17.843526
20
-7.393909
30
0
11
0.0180802375823498
21
0.199181085971951
31
0
210
0
220
0
230
1
40
0.984685
41
1.19043037739659E-05
42
0.612744592716628
0
ELLIPSE
5
1E0
100
AcDbEntity
8
1
62
256
6
ByLayer
370
-1
48
1
60
0
100
AcDbEllipse
10
11.393897
20
-19.009639
30
0
11
0.0180802375823497
21
0.199181085971951
31
0
210
0
220
0
230
1
40
0.984685
41
2.7071396951098
42
-3.14158796552855
0
ELLIPSE
5
1E1
100
AcDbEntity
8
1
62
256
6
ByLayer
370
-1
48
1
60
0
100
AcDbEllipse
10
15.003271
20
-19.644724
30
0
11
0.0180802375823497
21
0.199181085971951
31
0
210
0
220
0
230
1
40
0.984685
41
2.70713969510978
42
3.14158718612353
0
ELLIPSE
5
1E2
100
AcDbEntity
8
1
62
256
6
ByLayer
370
-1
48
1
60
0
100
AcDbEllipse
10
13.154722
20
-19.276368
30
0
11
-0.0117521544285269
21
-0.129467705881769
31
0
210
0
220
0
230
1
40
0.984685
41
-0.434452958480013
42
1.01564221771404E-05
0
ELLIPSE
5
1E3
100
AcDbEntity
8
1
62
256
6
ByLayer
370
-1
48
1
60
0
100
AcDbEllipse
10
24.36851
20
-16.952897
30
0
11
-0.276792282494417
21
0.160605130408693
31
0
210
0
220
0
230
1
40
0.074719
41
0.767263538807463
42
1.56380547490924
0
ELLIPSE
5
1E4
100
AcDbEntity
8
1
62
256
6
ByLayer
370
-1
48
1
60
0
100
AcDbEllipse
10
24.218956
20
-16.738874
30
0
11
-0.0456617356648926
21
-0.124163624620794
31
0
210
0
220
0
230
1
40
0.697969
41
-1.29670867807777
42
-0.951900386576933
0
ELLIPSE
5
1E5
100
AcDbEntity
8
1
62
256
6
ByLayer
370
-1
48
1
60
0
100
AcDbEllipse
10
21.859205
20
-19.910893
30
0
11
-0.176125829967463
21
0.000349642819602991
31
0
210
0
220
0
230
1
40
0.013275
41
1.71923844985962
42
2.75421869631743
0
ELLIPSE
5
1E6
100
AcDbEntity
8
1
62
256
6
ByLayer
370
-1
48
1
60
0
100
AcDbEllipse
10
24.504221
20
-17.210304
30
0
11
-0.132004968947313
21
0.000359883268826979
31
0
210
0
220
0
230
1
40
0.984689
41
3.14158196882394
42
-2.1010599447005
0
ELLIPSE
5
1E7
100
AcDbEntity
8
1
62
256
6
ByLayer
370
-1
48
1
60
0
100
AcDbEllipse
10
24.502379
20
-17.883282
30
0
11
-0.13200496895421
21
0.000359883506568715
31
0
210
0
220
0
230
1
40
0.984689
41
2.18886229371493
42
3.14158197059157
0
ELLIPSE
5
1E8
100
AcDbEntity
8
1
62
256
6
ByLayer
370
-1
48
1
60
0
100
AcDbEllipse
10
24.61038
20
-18.12648
30
0
11
-0.132004968946239
21
0.000359883373961423
31
0
210
0
220
0
230
1
40
0.984689
41
-0.952730360896439
42
-1.06839832913047E-05
0
ELLIPSE
5
1E9
100
AcDbEntity
8
1
62
256
6
ByLayer
370
-1
48
1
60
0
100
AcDbEllipse
10
24.610221
20
-18.184268
30
0
11
-0.132004968937535
21
0.00035988344249456
31
0
210
0
220
0
230
1
40
0.984689
41
-1.06834737987436E-05
42
1.04053271022483
0
ELLIPSE
5
1EA
100
AcDbEntity
8
1
62
256
6
ByLayer
370
-1
48
1
60
0
100
AcDbEllipse
10
25.173189
20
-18.894406
30
0
11
-0.203084567605185
21
0.000553666675465492
31
0
210
0
220
0
230
1
40
0.984689
41
3.14158196934609
42
-2.10105994416068
0
ELLIPSE
5
1EB
100
AcDbEntity
8
1
62
256
6
ByLayer
370
-1
48
1
60
0
100
AcDbEllipse
10
25.173121
20
-18.919268
30
0
11
-0.203084567606066
21
0.000553666665991625
31
0
210
0
220
0
230
1
40
0.984689
41
2.10103857562933
42
3.14158196929976
0
ELLIPSE
5
1EC
100
AcDbEntity
8
1
62
256
6
ByLayer
370
-1
48
1
60
0
100
AcDbEllipse
10
23.991005
20
-15.408243
30
0
11
0.0180802375823497
21
0.199181085971951
31
0
210
0
220
0
230
1
40
0.984685
41
-1.48165050967664
42
-0.95805173407839
0
ELLIPSE
5
1ED
100
AcDbEntity
8
1
62
256
6
ByLayer
370
-1
48
1
60
0
100
AcDbEllipse
10
23.77663
20
-18.903068
30
0
11
-0.254558441227157
21
3.11733884545897E-17
31
0
210
0
220
0
230
1
40
0.99988
41
-0.539694073108343
42
0.534219985807056
0
ELLIPSE
5
1EE
100
AcDbEntity
8
1
62
256
6
ByLayer
370
-1
48
1
60
0
100
AcDbEllipse
10
23.991628
20
-19.266444
30
0
11
-0.254558441227157
21
3.11733884545897E-17
31
0
210
0
220
0
230
1
40
0.99988
41
0.534219985807056
42
0.839157347883562
0
ELLIPSE
5
1EF
100
AcDbEntity
8
1
62
256
6
ByLayer
370
-1
48
1
60
0
100
AcDbEllipse
10
23.993614
20
-18.540875
30
0
11
-0.254558441227157
21
3.11733884545897E-17
31
0
210
0
220
0
230
1
40
0.99988
41
-0.844631240838782
42
-0.53969407310818
0
ELLIPSE
5
1F0
100
AcDbEntity
8
1
62
256
6
ByLayer
370
-1
48
1
60
0
100
AcDbEllipse
10
23.696465
20
-18.769823
30
0
11
-0.491325860438496
21
0.830376881084332
31
0
210
0
220
0
230
1
40
0.342013
41
2.31470180313004
42
3.13698302547677
0
ELLIPSE
5
1F1
100
AcDbEntity
8
1
62
256
6
ByLayer
370
-1
48
1
60
0
100
AcDbEllipse
10
23.695737
20
-19.035765
30
0
11
-0.495864210021741
21
-0.827675111829966
31
0
210
0
220
0
230
1
40
0.342013
41
-3.1369829037577
42
-2.31470168142547
0
ELLIPSE
5
1F2
100
AcDbEntity
8
1
62
256
6
ByLayer
370
-1
48
1
60
0
100
AcDbEllipse
10
22.787277
20
-20.266164
30
0
11
-2.45249888043089
21
-1.40681162554285
31
0
210
0
220
0
230
1
40
0.300608
41
-3.13729915428638
42
-2.96970347882013
0
ELLIPSE
5
1F3
100
AcDbEntity
8
1
62
256
6
ByLayer
370
-1
48
1
60
0
100
AcDbEllipse
10
22.794754
20
-17.534471
30
0
11
-2.44476097003921
21
1.42021440062955
31
0
210
0
220
0
230
1
40
0.300609
41
2.96970336983825
42
3.13729904529968
0
ELLIPSE
5
1F4
100
AcDbEntity
8
1
62
256
6
ByLayer
370
-1
48
1
60
0
100
AcDbEllipse
10
23.099968
20
-19.184407
30
0
11
0.272189295186312
21
-0.168264635577351
31
0
210
0
220
0
230
1
40
0.078857
41
-2.76238866899363
42
-1.72740842256119
0
ELLIPSE
5
1F5
100
AcDbEntity
8
1
62
256
6
ByLayer
370
-1
48
1
60
0
100
AcDbEllipse
10
23.099968
20
-19.184407
30
0
11
-0.278191912985563
21
0.158143161563922
31
0
210
0
220
0
230
1
40
0.013504
41
-1.56314420785077
42
-0.377999582704293
0
ELLIPSE
5
1F6
100
AcDbEntity
8
1
62
256
6
ByLayer
370
-1
48
1
60
0
100
AcDbEllipse
10
23.099968
20
-19.184407
30
0
11
-0.319998801299914
21
0.000875880481828284
31
0
210
0
220
0
230
1
40
0.015521
41
-1.57077508380575
42
-1.39624215860623
0
ELLIPSE
5
1F7
100
AcDbEntity
8
1
62
256
6
ByLayer
370
-1
48
1
60
0
100
AcDbEllipse
10
18.794774
20
-19.035537
30
0
11
0.135500750613122
21
0.0643393082281785
31
0
210
0
220
0
230
1
40
0.089727
41
-2.12893318312511
42
-1.42014369360343
0
ELLIPSE
5
1F8
100
AcDbEntity
8
1
62
256
6
ByLayer
370
-1
48
1
60
0
100
AcDbEllipse
10
21.638494
20
-13.673988
30
0
11
0.108836897204721
21
0.103220781855443
31
0
210
0
220
0
230
1
40
0.131791
41
-1.45540601772895
42
-1.28087309252967
0
ELLIPSE
5
1F9
100
AcDbEntity
8
1
62
256
6
ByLayer
370
-1
48
1
60
0
100
AcDbEllipse
10
22.067022
20
-14.125832
30
0
11
0.108836897204721
21
0.103220781855443
31
0
210
0
220
0
230
1
40
0.131791
41
-1.45540601772867
42
-1.28087309252937
0
ELLIPSE
5
1FA
100
AcDbEntity
8
1
62
256
6
ByLayer
370
-1
48
1
60
0
100
AcDbEllipse
10
22.687074
20
-13.919302
30
0
11
-0.0805518628637628
21
0.126536150522993
31
0
210
0
220
0
230
1
40
0.138793
41
-1.67753375611269
42
-0.968744266589326
0
ELLIPSE
5
1FB
100
AcDbEntity
8
1
62
256
6
ByLayer
370
-1
48
1
60
0
100
AcDbEllipse
10
23.990262
20
-19.269646
30
0
11
-0.284491903543768
21
-0.167225467013979
31
0
210
0
220
0
230
1
40
0.329409
41
0.752335948646926
42
1.57461717098183
0
ELLIPSE
5
1FC
100
AcDbEntity
8
1
62
256
6
ByLayer
370
-1
48
1
60
0
100
AcDbEllipse
10
23.990262
20
-19.269646
30
0
11
0.284010899060889
21
0.168041093827152
31
0
210
0
220
0
230
1
40
0.013348
41
1.56287435652403
42
2.44389568253722
0
ELLIPSE
5
1FD
100
AcDbEntity
8
1
62
256
6
ByLayer
370
-1
48
1
60
0
100
AcDbEllipse
10
23.992248
20
-18.544077
30
0
11
-0.283086776769785
21
0.169593268787691
31
0
210
0
220
0
230
1
40
0.013326
41
-1.56283785193288
42
-0.681816525920561
0
ELLIPSE
5
1FE
100
AcDbEntity
8
1
62
256
6
ByLayer
370
-1
48
1
60
0
100
AcDbEllipse
10
23.992248
20
-18.544077
30
0
11
0.282591938850262
21
-0.170416537040424
31
0
210
0
220
0
230
1
40
0.354474
41
1.5838753958375
42
2.40615661817258
0
ELLIPSE
5
1FF
100
AcDbEntity
8
1
62
256
6
ByLayer
370
-1
48
1
60
0
100
AcDbEllipse
10
25.156998
20
-18.920159
30
0
11
-1.2071308001183
21
0.289513308789586
31
0
210
0
220
0
230
1
40
0.065395
41
-1.62220687000875
42
-1.45461119781104
0
ELLIPSE
5
200
100
AcDbEntity
8
1
62
256
6
ByLayer
370
-1
48
1
60
0
100
AcDbEllipse
10
25.156998
20
-18.920159
30
0
11
-1.20875911534163
21
-0.27530826590389
31
0
210
0
220
0
230
1
40
0.044146
41
1.45992325427814
42
1.62751893482235
0
ELLIPSE
5
201
100
AcDbEntity
8
1
62
256
6
ByLayer
370
-1
48
1
60
0
100
AcDbEllipse
10
23.775264
20
-18.90627
30
0
11
0.284010899060889
21
0.168041093827152
31
0
210
0
220
0
230
1
40
0.013348
41
1.56287435652411
42
2.44389568253938
0
ELLIPSE
5
202
100
AcDbEntity
8
1
62
256
6
ByLayer
370
-1
48
1
60
0
100
AcDbEllipse
10
23.775264
20
-18.90627
30
0
11
0.283086776769785
21
-0.169593268787691
31
0
210
0
220
0
230
1
40
0.013326
41
1.57875480165686
42
2.45977612766924
0
ELLIPSE
5
203
100
AcDbEntity
8
1
62
256
6
ByLayer
370
-1
48
1
60
0
100
AcDbEllipse
10
23.990262
20
-19.269646
30
0
11
0.164202282649771
21
-0.286247463521696
31
0
210
0
220
0
230
1
40
0.007742
41
1.2351836122337
42
1.58424946263755
0
ELLIPSE
5
204
100
AcDbEntity
8
1
62
256
6
ByLayer
370
-1
48
1
60
0
100
AcDbEllipse
10
23.992248
20
-18.544077
30
0
11
-0.165766666325404
21
-0.285344374984618
31
0
210
0
220
0
230
1
40
0.007779
41
-1.93329407388413
42
-1.58422822348654
0
ELLIPSE
5
205
100
AcDbEntity
8
1
62
256
6
ByLayer
370
-1
48
1
60
0
100
AcDbEllipse
10
24.619692
20
-18.908581
30
0
11
0.164202282649771
21
-0.286247463521696
31
0
210
0
220
0
230
1
40
0.007742
41
1.23518361224039
42
1.58424946263746
0
ELLIPSE
5
206
100
AcDbEntity
8
1
62
256
6
ByLayer
370
-1
48
1
60
0
100
AcDbEllipse
10
24.619692
20
-18.908581
30
0
11
-0.165766666325404
21
-0.285344374984618
31
0
210
0
220
0
230
1
40
0.007779
41
-1.933294073888
42
-1.58422822348678
0
ELLIPSE
5
207
100
AcDbEntity
8
1
62
256
6
ByLayer
370
-1
48
1
60
0
100
AcDbEllipse
10
24.619692
20
-18.908581
30
0
11
-0.00183525231900496
21
-0.329994896701336
31
0
210
0
220
0
230
1
40
0.179002
41
1.28586323075634
42
1.88728262706718
0
ELLIPSE
5
208
100
AcDbEntity
8
1
62
256
6
ByLayer
370
-1
48
1
60
0
100
AcDbEllipse
10
24.97916
20
-18.91058
30
0
11
0.00183525231900507
21
0.329994896701336
31
0
210
0
220
0
230
1
40
0.179002
41
-1.85572942283347
42
-1.25431002652246
0
ELLIPSE
5
209
100
AcDbEntity
8
1
62
256
6
ByLayer
370
-1
48
1
60
0
100
AcDbEllipse
10
15.05628
20
-11.927528
30
0
11
-0.07599658761916
21
-0.129443221040362
31
0
210
0
220
0
230
1
40
0.158036
41
0.936339048824461
42
1.64512853805731
0
ELLIPSE
5
20A
100
AcDbEntity
8
1
62
256
6
ByLayer
370
-1
48
1
60
0
100
AcDbEllipse
10
20.389911
20
-8.7769
30
0
11
-0.161632485826141
21
0.276179180108969
31
0
210
0
220
0
230
1
40
0.142623
41
1.29478794466374
42
1.46932086986306
0
ELLIPSE
5
20B
100
AcDbEntity
8
1
62
256
6
ByLayer
370
-1
48
1
60
0
100
AcDbEllipse
10
20.610897
20
-9.167396
30
0
11
-0.188982656713421
21
0.325976821397348
31
0
210
0
220
0
230
1
40
0.121299
41
1.48515568642295
42
2.5201359328476
0
ELLIPSE
5
20C
100
AcDbEntity
8
1
62
256
6
ByLayer
370
-1
48
1
60
0
100
AcDbEllipse
10
22.404949
20
-12.247365
30
0
11
-0.0837187676528536
21
0.143968153023178
31
0
210
0
220
0
230
1
40
0.128583
41
-2.37059526819097
42
-1.66180577928845
0
ELLIPSE
5
20D
100
AcDbEntity
8
1
62
256
6
ByLayer
370
-1
48
1
60
0
100
AcDbEllipse
10
16.76784
20
-9.765199
30
0
11
-0.24308177646563
21
-0.140924866123434
31
0
210
0
220
0
230
1
40
0.053924
41
1.64683880906199
42
2.68181905541424
0
ELLIPSE
5
20E
100
AcDbEntity
8
1
62
256
6
ByLayer
370
-1
48
1
60
0
100
AcDbEllipse
10
19.816645
20
-8.221714
30
0
11
-0.0823724030382433
21
-0.183198314601414
31
0
210
0
220
0
230
1
40
0.958693
41
2.50278225062663
42
3.03303518376547
0
ELLIPSE
5
20F
100
AcDbEntity
8
1
62
256
6
ByLayer
370
-1
48
1
60
0
100
AcDbEllipse
10
17.489524
20
-8.242369
30
0
11
-0.0117521544285269
21
-0.129467705881768
31
0
210
0
220
0
230
1
40
0.984685
41
0.612744592716966
42
1.65328798638688
0
ELLIPSE
5
210
100
AcDbEntity
8
1
62
256
6
ByLayer
370
-1
48
1
60
0
100
AcDbEllipse
10
17.822286
20
-7.40634
30
0
11
0.0180802375823497
21
0.199181085971951
31
0
210
0
220
0
230
1
40
0.984685
41
0.612744592716754
42
1.65328798638697
0
ELLIPSE
5
211
100
AcDbEntity
8
1
62
256
6
ByLayer
370
-1
48
1
60
0
100
AcDbEllipse
10
16.449542
20
-9.308656
30
0
11
-0.011752154428527
21
-0.129467705881769
31
0
210
0
220
0
230
1
40
0.984685
41
0.612744592716702
42
1.65328798638685
0
ELLIPSE
5
212
100
AcDbEntity
8
1
62
256
6
ByLayer
370
-1
48
1
60
0
100
AcDbEllipse
10
16.71012
20
-8.821869
30
0
11
-0.0117521544285269
21
-0.129467705881769
31
0
210
0
220
0
230
1
40
0.984685
41
-2.52884806087328
42
-1.48830466720292
0
ELLIPSE
5
213
100
AcDbEntity
8
1
62
256
6
ByLayer
370
-1
48
1
60
0
100
AcDbEllipse
10
17.285074
20
-8.48538
30
0
11
0.0117521544285273
21
0.129467705881768
31
0
210
0
220
0
230
1
40
0.984685
41
1.07325120473771E-05
42
0.612744592716541
0
ELLIPSE
5
214
100
AcDbEntity
8
1
62
256
6
ByLayer
370
-1
48
1
60
0
100
AcDbEllipse
10
11.372724
20
-18.997208
30
0
11
0.0180802375823498
21
0.199181085971951
31
0
210
0
220
0
230
1
40
0.984685
41
1.66659630143955
42
2.70713969510967
0
ELLIPSE
5
215
100
AcDbEntity
8
1
62
256
6
ByLayer
370
-1
48
1
60
0
100
AcDbEllipse
10
11.631524
20
-20.044512
30
0
11
1.40969978363826
21
0.000781031295272963
31
0
210
0
220
0
230
1
40
0.053315
41
1.39632586168701
42
2.44352341288324
0
ELLIPSE
5
216
100
AcDbEntity
8
1
62
256
6
ByLayer
370
-1
48
1
60
0
100
AcDbEllipse
10
11.631524
20
-20.044512
30
0
11
1.40969978363826
21
0.000781031295272963
31
0
210
0
220
0
230
1
40
0.053315
41
2.44352341288324
42
-2.79246434309976
0
ELLIPSE
5
217
100
AcDbEntity
8
1
62
256
6
ByLayer
370
-1
48
1
60
0
100
AcDbEllipse
10
11.631524
20
-20.044512
30
0
11
1.40969978363826
21
0.000781031295272963
31
0
210
0
220
0
230
1
40
0.053315
41
-2.79246434309976
42
-1.74526679190278
0
ELLIPSE
5
218
100
AcDbEntity
8
1
62
256
6
ByLayer
370
-1
48
1
60
0
100
AcDbEllipse
10
11.631524
20
-20.044512
30
0
11
1.40969978363826
21
0.000781031295272963
31
0
210
0
220
0
230
1
40
0.053315
41
-1.74526679190278
42
-0.698069240706564
0
ELLIPSE
5
219
100
AcDbEntity
8
1
62
256
6
ByLayer
370
-1
48
1
60
0
100
AcDbEllipse
10
11.631524
20
-20.044512
30
0
11
1.40969978363826
21
0.000781031295272963
31
0
210
0
220
0
230
1
40
0.053315
41
-0.698069240706564
42
0.349128310490037
0
ELLIPSE
5
21A
100
AcDbEntity
8
1
62
256
6
ByLayer
370
-1
48
1
60
0
100
AcDbEllipse
10
11.631524
20
-20.044512
30
0
11
1.40969978363826
21
0.000781031295272963
31
0
210
0
220
0
230
1
40
0.053315
41
0.349128310490037
42
1.39632586168701
0
ELLIPSE
5
21B
100
AcDbEntity
8
1
62
256
6
ByLayer
370
-1
48
1
60
0
100
AcDbEllipse
10
11.630914
20
-18.946077
30
0
11
-3.09999952421012
21
-0.00171752643495761
31
0
210
0
220
0
230
1
40
0.053315
41
-1.42322632224008
42
-1.30953431926594
0
ELLIPSE
5
21C
100
AcDbEntity
8
1
62
256
6
ByLayer
370
-1
48
1
60
0
100
AcDbEllipse
10
11.631524
20
-20.044512
30
0
11
-1.69999973908299
21
-0.000941869335299347
31
0
210
0
220
0
230
1
40
0.053315
41
0
42
6.28318530717959
0
ELLIPSE
5
21D
100
AcDbEntity
8
1
62
256
6
ByLayer
370
-1
48
1
60
0
100
AcDbEllipse
10
23.806864
20
-19.703004
30
0
11
-0.203084567579509
21
0.000553666241341851
31
0
210
0
220
0
230
1
40
0.984689
41
1.57078564038121
42
2.10103857357568
0
ELLIPSE
5
21E
100
AcDbEntity
8
1
62
256
6
ByLayer
370
-1
48
1
60
0
100
AcDbEllipse
10
18.657341
20
-15.151349
30
0
11
-0.278473250631794
21
-3.06780285504269
31
0
210
0
220
0
230
1
40
0.984685
41
0
42
6.28318530717959
0
ELLIPSE
5
21F
100
AcDbEntity
8
1
62
256
6
ByLayer
370
-1
48
1
60
0
100
AcDbEllipse
10
24.159778
20
-16.189427
30
0
11
-0.000561880952719799
21
-0.28303669786659
31
0
210
0
220
0
230
1
40
0.092036
41
0.527646107693103
42
1.56262635412553
0
ELLIPSE
5
220
100
AcDbEntity
8
1
62
256
6
ByLayer
370
-1
48
1
60
0
100
AcDbEllipse
10
23.175251
20
-13.608532
30
0
11
-0.0758145712254668
21
0.129549341070804
31
0
210
0
220
0
230
1
40
0.142526
41
-1.67219908257643
42
-0.963409593875316
0
ELLIPSE
5
221
100
AcDbEntity
8
1
62
256
6
ByLayer
370
-1
48
1
60
0
100
AcDbEllipse
10
22.653882
20
-19.906007
30
0
11
-0.375735103935588
21
0.0007459046818797
31
0
210
0
220
0
230
1
40
0.013275
41
-1.42235420372009
42
-0.387373957274198
0
ELLIPSE
5
222
100
AcDbEntity
8
1
62
256
6
ByLayer
370
-1
48
1
60
0
100
AcDbEllipse
10
19.210416
20
-19.910893
30
0
11
-0.166222918837061
21
0.000370480982103812
31
0
210
0
220
0
230
1
40
0.014047
41
1.01936750181947
42
1.72815699123053
0
ELLIPSE
5
223
100
AcDbEntity
8
1
62
256
6
ByLayer
370
-1
48
1
60
0
100
AcDbEllipse
10
23.097993
20
-19.906007
30
0
11
0.319998801299914
21
-0.000875880481823207
31
0
210
0
220
0
230
1
40
0.015521
41
1.57081756978413
42
1.74535049498364
0
POINT
5
41
100
AcDbEntity
8
80
62
256
6
ByLayer
370
-1
48
1
60
0
100
AcDbPoint
10
0
20
0
30
0
39
0
210
0
220
0
230
1
50
360
0
POINT
5
43
100
AcDbEntity
8
81
62
256
6
ByLayer
370
-1
48
1
60
0
100
AcDbPoint
10
26.699398
20
-19.9125
30
0
39
0
210
0
220
0
230
1
50
360
0
POINT
5
45
100
AcDbEntity
8
2
62
256
6
ByLayer
370
-1
48
1
60
0
100
AcDbPoint
10
26.699398
20
19.9125
30
0
39
0
210
0
220
0
230
1
50
360
0
POINT
5
47
100
AcDbEntity
8
2
62
256
6
ByLayer
370
-1
48
1
60
0
100
AcDbPoint
10
26.743198
20
19.911017
30
0
39
0
210
0
220
0
230
1
50
360
0
POINT
5
48
100
AcDbEntity
8
2
62
256
6
ByLayer
370
-1
48
1
60
0
100
AcDbPoint
10
25.376231
20
18.907392
30
0
39
0
210
0
220
0
230
1
50
360
0
SPLINE
5
224
100
AcDbEntity
8
1
62
256
6
ByLayer
370
-1
48
1
60
0
100
AcDbSpline
70
4
71
1
72
4
73
2
40
0
40
0
40
1
40
1
41
1
10
22.3064658132128
20
-10.6390320278425
30
0
41
1
10
21.7981232566242
20
-10.4735791710433
30
0
0
SPLINE
5
225
100
AcDbEntity
8
1
62
256
6
ByLayer
370
-1
48
1
60
0
100
AcDbSpline
70
4
71
3
72
11
73
7
40
0
40
0
40
0
40
0
40
0.0353575436464532
40
0.461449792549674
40
0.875333737409594
40
1
40
1
40
1
40
1
41
1
10
9.75605395508478
20
-19.9650768492422
30
0
41
1
10
9.74449273097281
20
-19.9602693808495
30
0
41
1
10
9.59429428046295
20
-19.8962633663893
30
0
41
1
10
9.33394771008011
20
-19.7228814302243
30
0
41
1
10
9.06468983317595
20
-19.5139582079439
30
0
41
1
10
8.92290188088373
20
-19.3859328060206
30
0
41
1
10
8.89070840475381
20
-19.3556237325976
30
0
0
SPLINE
5
226
100
AcDbEntity
8
1
62
256
6
ByLayer
370
-1
48
1
60
0
100
AcDbSpline
70
4
71
3
72
11
73
7
40
0
40
0
40
0
40
0
40
0.186978792976281
40
0.531587385947857
40
0.857751945785326
40
1
40
1
40
1
40
1
41
1
10
14.2663969370954
20
-19.4454420232314
30
0
41
1
10
14.2134683360546
20
-19.4927960437958
30
0
41
1
10
14.0598032906197
20
-19.6234765551668
30
0
41
1
10
13.7918471737812
20
-19.809954356889
30
0
41
1
10
13.5230756659325
20
-19.9637508712158
30
0
41
1
10
13.3597089512406
20
-20.0339230212495
30
0
41
1
10
13.3094092793823
20
-20.0538810453638
30
0
0
SPLINE
5
227
100
AcDbEntity
8
1
62
256
6
ByLayer
370
-1
48
1
60
0
100
AcDbSpline
70
4
71
3
72
8
73
4
40
0
40
0
40
0
40
0
40
1
40
1
40
1
40
1
41
1
10
18.5135709281878
20
-6.45449344089317
30
0
41
1
10
18.6684416641072
20
-6.53134213514943
30
0
41
1
10
18.819292771853
20
-6.60721321952269
30
0
41
1
10
18.9666708514537
20
-6.68198654327301
30
0
0
SPLINE
5
228
100
AcDbEntity
8
1
62
256
6
ByLayer
370
-1
48
1
60
0
100
AcDbSpline
70
4
71
3
72
8
73
4
40
0
40
0
40
0
40
0
40
1
40
1
40
1
40
1
41
1
10
19.0611406575907
20
-16.6119769775261
30
0
41
1
10
19.0631622913805
20
-16.6187101436465
30
0
41
1
10
19.0651839291658
20
-16.6254432734247
30
0
41
1
10
19.0672055707878
20
-16.6321763682995
30
0
0
SPLINE
5
229
100
AcDbEntity
8
1
62
256
6
ByLayer
370
-1
48
1
60
0
100
AcDbSpline
70
4
71
3
72
34
73
30
40
0
40
0
40
0
40
0
40
0.0514465755209388
40
0.0514465755209388
40
0.135786144735445
40
0.135786144735445
40
0.20313163521892
40
0.20313163521892
40
0.270315608875157
40
0.270315608875157
40
0.337431278536022
40
0.337431278536022
40
0.404515897625643
40
0.404515897625643
40
0.499929883689665
40
0.499929883689665
40
0.599210771748214
40
0.599210771748214
40
0.697083019894285
40
0.697083019894285
40
0.780957226922788
40
0.780957226922788
40
0.847546414393269
40
0.847546414393269
40
0.898875235580322
40
0.898875235580322
40
0.980803570703532
40
0.980803570703532
40
1
40
1
40
1
40
1
41
1
10
18.2943433725795
20
-16.6119769775261
30
0
41
1
10
18.2957608588598
20
-16.5983181737126
30
0
41
1
10
18.2945693849805
20
-16.5839729021234
30
0
41
1
10
18.2866027753912
20
-16.5469207698132
30
0
41
1
10
18.276783456342
20
-16.5239955705694
30
0
41
1
10
18.25476726642
20
-16.4849700920137
30
0
41
1
10
18.2432517550912
20
-16.4681165167788
30
0
41
1
10
18.2181416938035
20
-16.4358230359495
30
0
41
1
10
18.2044644865299
20
-16.4202761208663
30
0
41
1
10
18.1756325297993
20
-16.3905106706047
30
0
41
1
10
18.160413604885
20
-16.3762271464194
30
0
41
1
10
18.1288884930329
20
-16.3489689444036
30
0
41
1
10
18.1125272021285
20
-16.3359474392093
30
0
41
1
10
18.0719552944054
20
-16.3060512388922
30
0
41
1
10
18.0472136747627
20
-16.2897665204335
30
0
41
1
10
17.9957840844906
20
-16.2595671855055
30
0
41
1
10
17.9688929118457
20
-16.2456772559904
30
0
41
1
10
17.9151013931968
20
-16.2217562775655
30
0
41
1
10
17.8880270647165
20
-16.2115888871887
30
0
41
1
10
17.8379272116684
20
-16.1967598573923
30
0
41
1
10
17.814723584082
20
-16.1914713931384
30
0
41
1
10
17.7736892847788
20
-16.1856717409889
30
0
41
1
10
17.7556239768042
20
-16.184386047349
30
0
41
1
10
17.7244555926869
20
-16.1851243387761
30
0
41
1
10
17.711084285232
20
-16.1864629730352
30
0
41
1
10
17.677957011765
20
-16.1932904872853
30
0
41
1
10
17.6584108246568
20
-16.2009144801831
30
0
41
1
10
17.6388137358542
20
-16.216247764592
30
0
41
1
10
17.6352337138632
20
-16.2194855195112
30
0
41
1
10
17.6319157903309
20
-16.2230010530434
30
0
0
SPLINE
5
22A
100
AcDbEntity
8
1
62
256
6
ByLayer
370
-1
48
1
60
0
100
AcDbSpline
70
4
71
3
72
8
73
4
40
0
40
0
40
0
40
0
40
1
40
1
40
1
40
1
41
1
10
18.292247161809
20
-16.6321763682995
30
0
41
1
10
18.2929458799489
20
-16.6254432734247
30
0
41
1
10
18.2936446166175
20
-16.6187101436465
30
0
41
1
10
18.2943433725795
20
-16.6119769775261
30
0
0
SPLINE
5
22B
100
AcDbEntity
8
1
62
256
6
ByLayer
370
-1
48
1
60
0
100
AcDbSpline
70
4
71
3
72
22
73
18
40
0
40
0
40
0
40
0
40
0.0973712659846069
40
0.0973712659846069
40
0.180296832630581
40
0.180296832630581
40
0.307445080802773
40
0.307445080802773
40
0.411978418514588
40
0.411978418514588
40
0.516185210010747
40
0.516185210010747
40
0.620250145291516
40
0.620250145291516
40
0.829289859625552
40
0.829289859625552
40
1
40
1
40
1
40
1
41
1
10
19.0672055707878
20
-16.6321763682995
30
0
41
1
10
19.0701410965511
20
-16.6461631504215
30
0
41
1
10
19.0699328094108
20
-16.6608981410183
30
0
41
1
10
19.0637441792248
20
-16.6865893607762
30
0
41
1
10
19.0586056713506
20
-16.6980861953659
30
0
41
1
10
19.0417675474402
20
-16.7246605749421
30
0
41
1
10
19.0278687839704
20
-16.7389060579693
30
0
41
1
10
18.9997230020196
20
-16.7612061613455
30
0
41
1
10
18.9857501951231
20
-16.770103067704
30
0
41
1
10
18.9566335824208
20
-16.7857926990482
30
0
41
1
10
18.9413984811932
20
-16.7926398556091
30
0
41
1
10
18.9102193809627
20
-16.8046413862619
30
0
41
1
10
18.8942200598924
20
-16.8098169705008
30
0
41
1
10
18.8454731993731
20
-16.8232097592624
30
0
41
1
10
18.8118764047964
20
-16.8293339430584
30
0
41
1
10
18.7503559355812
20
-16.8361760701153
30
0
41
1
10
18.7223859414677
20
-16.8376811082161
30
0
41
1
10
18.6943900296621
20
-16.8376811082161
30
0
0
SPLINE
5
22C
100
AcDbEntity
8
1
62
256
6
ByLayer
370
-1
48
1
60
0
100
AcDbSpline
70
4
71
3
72
24
73
20
40
0
40
0
40
0
40
0
40
0.0380198325514988
40
0.0380198325514988
40
0.246834654674764
40
0.246834654674764
40
0.404726505663225
40
0.404726505663225
40
0.526150637962722
40
0.526150637962722
40
0.6215319955035
40
0.6215319955035
40
0.776890538332023
40
0.776890538332023
40
0.873684213897983
40
0.873684213897983
40
0.971746172255035
40
0.971746172255035
40
1
40
1
40
1
40
1
41
1
10
18.6943900296621
20
-16.8376811082161
30
0
41
1
10
18.688147899799
20
-16.8376811082161
30
0
41
1
10
18.681901615986
20
-16.8376058683944
30
0
41
1
10
18.6413973852512
20
-16.8366292399727
30
0
41
1
10
18.6069931705942
20
-16.8335544082517
30
0
41
1
10
18.5472066739526
20
-16.8238340914023
30
0
41
1
10
18.5215596189555
20
-16.8182205230415
30
0
41
1
10
18.4770071630304
20
-16.8053351250516
30
0
41
1
10
18.457840433996
20
-16.7987229608457
30
0
41
1
10
18.4245287749755
20
-16.7847788126945
30
0
41
1
10
18.4101336086964
20
-16.7778805114552
30
0
41
1
10
18.3738928441988
20
-16.7575251064336
30
0
41
1
10
18.3524439650388
20
-16.7423736072662
30
0
41
1
10
18.3235642018587
20
-16.7131450249625
30
0
41
1
10
18.3137371488017
20
-16.7005396485886
30
0
41
1
10
18.2991470038401
20
-16.6736701368109
30
0
41
1
10
18.29433035677
20
-16.6589811576899
30
0
41
1
10
18.2923557636468
20
-16.6405002280959
30
0
41
1
10
18.2921727361694
20
-16.6363146900364
30
0
41
1
10
18.2922471618089
20
-16.6321763682995
30
0
0
SPLINE
5
22D
100
AcDbEntity
8
1
62
256
6
ByLayer
370
-1
48
1
60
0
100
AcDbSpline
70
4
71
3
72
8
73
4
40
0
40
0
40
0
40
0
40
1
40
1
40
1
40
1
41
1
10
20.1113015755323
20
-15.5487904419205
30
0
41
1
10
20.1183424521339
20
-15.5509947899763
30
0
41
1
10
20.125383304506
20
-15.5531991271572
30
0
41
1
10
20.1324241336072
20
-15.5554034538935
30
0
0
SPLINE
5
22E
100
AcDbEntity
8
1
62
256
6
ByLayer
370
-1
48
1
60
0
100
AcDbSpline
70
4
71
3
72
34
73
30
40
0
40
0
40
0
40
0
40
0.0514465755209551
40
0.0514465755209551
40
0.135786144735464
40
0.135786144735464
40
0.203131635218927
40
0.203131635218927
40
0.270315608875186
40
0.270315608875186
40
0.33743127853607
40
0.33743127853607
40
0.404515897625701
40
0.404515897625701
40
0.499929883689683
40
0.499929883689683
40
0.599210771748198
40
0.599210771748198
40
0.697083019894261
40
0.697083019894261
40
0.780957226922749
40
0.780957226922749
40
0.847546414393252
40
0.847546414393252
40
0.898875235580341
40
0.898875235580341
40
0.980803570703517
40
0.980803570703517
40
1
40
1
40
1
40
1
41
1
10
19.7258904198107
20
-16.223001053044
30
0
41
1
10
19.7143811544853
20
-16.2136771354881
30
0
41
1
10
19.7009758301336
20
-16.2063075886578
30
0
41
1
10
19.6639525115535
20
-16.1917032808451
30
0
41
1
10
19.6386462935094
20
-16.1870997587173
30
0
41
1
10
19.5929913391283
20
-16.1841220198893
30
0
41
1
10
19.5722989165602
20
-16.1846759729938
30
0
41
1
10
19.5311853136816
20
-16.1885632830711
30
0
41
1
10
19.5106280764331
20
-16.1919088217671
30
0
41
1
10
19.4700115848582
20
-16.2008016374336
30
0
41
1
10
19.4498630071048
20
-16.2063693465938
30
0
41
1
10
19.4102434443196
20
-16.2193538737641
30
0
41
1
10
19.3907039183393
20
-16.226793825551
30
0
41
1
10
19.3444365470922
20
-16.2467571802522
30
0
41
1
10
19.3179994836827
20
-16.2601633553399
30
0
41
1
10
19.2663896038699
20
-16.2903626902678
30
0
41
1
10
19.2411448368321
20
-16.3073673259715
30
0
41
1
10
19.1941740246212
20
-16.3438252455906
30
0
41
1
10
19.1722422945643
20
-16.3633593328586
30
0
41
1
10
19.1352664020705
20
-16.4019572372741
30
0
41
1
10
19.119571025371
20
-16.4208051135991
30
0
41
1
10
19.0950013165055
20
-16.456254988884
30
0
41
1
10
19.0853214805502
20
-16.4726175209729
30
0
41
1
10
19.0712545546864
20
-16.5025704205286
30
0
41
1
10
19.066130148689
20
-16.5160155053013
30
0
41
1
10
19.0565495912472
20
-16.5513422114225
30
0
41
1
10
19.0540865919328
20
-16.5742508469847
30
0
41
1
10
19.0584171164437
20
-16.6015854914762
30
0
41
1
10
19.0595943757863
20
-16.6068269981822
30
0
41
1
10
19.0611406575907
20
-16.611976977526
30
0
0
SPLINE
5
22F
100
AcDbEntity
8
1
62
256
6
ByLayer
370
-1
48
1
60
0
100
AcDbSpline
70
4
71
3
72
8
73
4
40
0
40
0
40
0
40
0
40
1
40
1
40
1
40
1
41
1
10
19.74291099646
20
-16.2367897768841
30
0
41
1
10
19.7372374870146
20
-16.2321935592877
30
0
41
1
10
19.7315639616829
20
-16.2275973183286
30
0
41
1
10
19.7258904198107
20
-16.223001053044
30
0
0
SPLINE
5
230
100
AcDbEntity
8
1
62
256
6
ByLayer
370
-1
48
1
60
0
100
AcDbSpline
70
4
71
3
72
22
73
18
40
0
40
0
40
0
40
0
40
0.097371265984854
40
0.097371265984854
40
0.180296832631025
40
0.180296832631025
40
0.307445080803502
40
0.307445080803502
40
0.411978418515508
40
0.411978418515508
40
0.516185210011852
40
0.516185210011852
40
0.620250145292813
40
0.620250145292813
40
0.829289859627264
40
0.829289859627264
40
1
40
1
40
1
40
1
41
1
10
20.1324241336071
20
-15.5554034538936
30
0
41
1
10
20.1464015847046
20
-15.5610641901467
30
0
41
1
10
20.1594329740874
20
-15.5698519947869
30
0
41
1
10
20.1791707371678
20
-15.5901720674897
30
0
41
1
10
20.1867905294904
20
-15.6012986211143
30
0
41
1
10
20.2018715757328
20
-15.6312925393993
30
0
41
1
10
20.2074698948792
20
-15.6515720431385
30
0
41
1
10
20.2129913180079
20
-15.6888645766087
30
0
41
1
10
20.2138014638361
20
-15.7061246048322
30
0
41
1
10
20.2129666807354
20
-15.7404665479797
30
0
41
1
10
20.2113236685477
20
-15.7576588985686
30
0
41
1
10
20.2061865440937
20
-15.791710567548
30
0
41
1
10
20.2026831765231
20
-15.8086301093632
30
0
41
1
10
20.1899192009767
20
-15.8588571778797
30
0
41
1
10
20.1783907915139
20
-15.8917453268176
30
0
41
1
10
20.1534545971366
20
-15.9495761986428
30
0
41
1
10
20.1407119203958
20
-15.9749893664271
30
0
41
1
10
20.1266404872606
20
-15.9996049215107
30
0
0
SPLINE
5
231
100
AcDbEntity
8
1
62
256
6
ByLayer
370
-1
48
1
60
0
100
AcDbSpline
70
4
71
3
72
24
73
20
40
0
40
0
40
0
40
0
40
0.0380198325533829
40
0.0380198325533829
40
0.246834654676214
40
0.246834654676214
40
0.40472650566435
40
0.40472650566435
40
0.526150637963624
40
0.526150637963624
40
0.621531995504314
40
0.621531995504314
40
0.776890538332528
40
0.776890538332528
40
0.873684213898233
40
0.873684213898233
40
0.971746172255066
40
0.971746172255066
40
1
40
1
40
1
40
1
41
1
10
20.1266404872606
20
-15.9996049215107
30
0
41
1
10
20.1235030394215
20
-16.0050933475553
30
0
41
1
10
20.1202977133858
20
-16.010544380109
30
0
41
1
10
20.0990852921879
20
-16.0456250952164
30
0
41
1
10
20.0791047954501
20
-16.0741990310803
30
0
41
1
10
20.0405471269915
20
-16.1214459094284
30
0
41
1
10
20.0227413312989
20
-16.1409194172074
30
0
41
1
10
19.9890517726897
20
-16.1729970587731
30
0
41
1
10
19.9736175749555
20
-16.1862000566659
30
0
41
1
10
19.9446255489094
20
-16.2077567655828
30
0
41
1
10
19.9313258403498
20
-16.2165776133908
30
0
41
1
10
19.8951923272528
20
-16.2370700304361
30
0
41
1
10
19.871054774332
20
-16.2474199362768
30
0
41
1
10
19.830687441387
20
-16.2562061365576
30
0
41
1
10
19.8145807435021
20
-16.2576434442932
30
0
41
1
10
19.7833848849869
20
-16.2549867242846
30
0
41
1
10
19.7678893835747
20
-16.2506901647661
30
0
41
1
10
19.7504029654888
20
-16.241592796742
30
0
41
1
10
19.7465725971651
20
-16.2392937521711
30
0
41
1
10
19.74291099646
20
-16.2367897768841
30
0
0
SPLINE
5
232
100
AcDbEntity
8
1
62
256
6
ByLayer
370
-1
48
1
60
0
100
AcDbSpline
70
4
71
3
72
30
73
26
40
0
40
0
40
0
40
0
40
0.0515194889309513
40
0.0515194889309513
40
0.0928771460762644
40
0.0928771460762644
40
0.148185150442089
40
0.148185150442089
40
0.203338923043133
40
0.203338923043133
40
0.28795570868247
40
0.28795570868247
40
0.372427214532352
40
0.372427214532352
40
0.435367147734886
40
0.435367147734886
40
0.498971020782639
40
0.498971020782639
40
0.701334348038623
40
0.701334348038623
40
0.838887327920915
40
0.838887327920915
40
0.925006664596601
40
0.925006664596601
40
1
40
1
40
1
40
1
41
1
10
18.3030127589543
20
-13.7076520573496
30
0
41
1
10
18.3043495192248
20
-13.7210372162451
30
0
41
1
10
18.3030732199505
20
-13.7351092394713
30
0
41
1
10
18.297451126954
20
-13.7600915924298
30
0
41
1
10
18.293735476415
20
-13.7712442834425
30
0
41
1
10
18.2830701552822
20
-13.7967893681813
30
0
41
1
10
18.2754069230952
20
-13.8111450819577
30
0
41
1
10
18.2580948296791
20
-13.8389168398861
30
0
41
1
10
18.2483903091908
20
-13.8524289414491
30
0
41
1
10
18.2220149213141
20
-13.8855245606582
30
0
41
1
10
18.2042732597601
20
-13.904665181992
30
0
41
1
10
18.1667085770451
20
-13.940892903555
30
0
41
1
10
18.1467573306897
20
-13.9581002132735
30
0
41
1
10
18.110673221698
20
-13.9863756637949
30
0
41
1
10
18.0948026211305
20
-13.9979334479274
30
0
41
1
10
18.0622855400558
20
-14.0200039500752
30
0
41
1
10
18.0455892754317
20
-14.0305335024522
30
0
41
1
10
17.9755097669036
20
-14.0715402739717
30
0
41
1
10
17.919239274324
20
-14.0970464773478
30
0
41
1
10
17.8260141283173
20
-14.1247319943553
30
0
41
1
10
17.7877373958521
20
-14.1320287076461
30
0
41
1
10
17.7284492385327
20
-14.1330139704252
30
0
41
1
10
17.7058999282561
20
-14.1307264438089
30
0
41
1
10
17.6676647011701
20
-14.118749313828
30
0
41
1
10
17.6509571835216
20
-14.1097653479131
30
0
41
1
10
17.6382629967343
20
-14.0966279818318
30
0
0
SPLINE
5
233
100
AcDbEntity
8
1
62
256
6
ByLayer
370
-1
48
1
60
0
100
AcDbSpline
70
4
71
3
72
8
73
4
40
0
40
0
40
0
40
0
40
1
40
1
40
1
40
1
41
1
10
18.301035930223
20
-13.6878573566553
30
0
41
1
10
18.3016948545677
20
-13.6944555526142
30
0
41
1
10
18.3023537972261
20
-13.7010537856691
30
0
41
1
10
18.3030127589543
20
-13.7076520573496
30
0
0
SPLINE
5
234
100
AcDbEntity
8
1
62
256
6
ByLayer
370
-1
48
1
60
0
100
AcDbSpline
70
4
71
3
72
30
73
26
40
0
40
0
40
0
40
0
40
0.0511772287529489
40
0.0511772287529489
40
0.135075241067989
40
0.135075241067989
40
0.27183478065308
40
0.27183478065308
40
0.4690612669119
40
0.4690612669119
40
0.500636061960942
40
0.500636061960942
40
0.599800502490522
40
0.599800502490522
40
0.697557955315713
40
0.697557955315713
40
0.781333785464103
40
0.781333785464103
40
0.847844869822885
40
0.847844869822885
40
0.899113486931775
40
0.899113486931775
40
0.939077913069671
40
0.939077913069671
40
1
40
1
40
1
40
1
41
1
10
19.732237626214
20
-14.0966279818323
30
0
41
1
10
19.7206735140796
20
-14.1056782544702
30
0
41
1
10
19.7072250092967
20
-14.1127745529374
30
0
41
1
10
19.6701165262794
20
-14.1267011222072
30
0
41
1
10
19.6447839924652
20
-14.1309136273391
30
0
41
1
10
19.5783443715896
20
-14.1343385729397
30
0
41
1
10
19.535820258128
20
-14.1290352785043
30
0
41
1
10
19.4358427366123
20
-14.1059302368244
30
0
41
1
10
19.3778804982103
20
-14.0831079724028
30
0
41
1
10
19.31624125527
20
-14.0501114828394
30
0
41
1
10
19.3077470242247
20
-14.04534650153
30
0
41
1
10
19.2731515971984
20
-14.0250321478239
30
0
41
1
10
19.2480081764779
20
-14.0080848265463
30
0
41
1
10
19.2012543436888
20
-13.9718526256423
30
0
41
1
10
19.179438731904
20
-13.9524860137494
30
0
41
1
10
19.1426920450124
20
-13.9142979135652
30
0
41
1
10
19.1271085051392
20
-13.8956794148319
30
0
41
1
10
19.1027489970464
20
-13.8607100798506
30
0
41
1
10
19.0931661339439
20
-13.8445858060192
30
0
41
1
10
19.0792766391537
20
-13.8150976487311
30
0
41
1
10
19.0742318496463
20
-13.8018704701677
30
0
41
1
10
19.0677622881031
20
-13.7778951909174
30
0
41
1
10
19.0657723071925
20
-13.7671810030675
30
0
41
1
10
19.063592523279
20
-13.7401628750328
30
0
41
1
10
19.0648808075899
20
-13.7234296835435
30
0
41
1
10
19.0698100439655
20
-13.7076520573496
30
0
0
SPLINE
5
235
100
AcDbEntity
8
1
62
256
6
ByLayer
370
-1
48
1
60
0
100
AcDbSpline
70
4
71
3
72
8
73
4
40
0
40
0
40
0
40
0
40
1
40
1
40
1
40
1
41
1
10
19.0698100439655
20
-13.7076520573496
30
0
41
1
10
19.0718714719892
20
-13.7010537856692
30
0
41
1
10
19.0739329037847
20
-13.6944555526142
30
0
41
1
10
19.0759943392019
20
-13.6878573566553
30
0
0
SPLINE
5
236
100
AcDbEntity
8
1
62
256
6
ByLayer
370
-1
48
1
60
0
100
AcDbSpline
70
4
71
3
72
24
73
20
40
0
40
0
40
0
40
0
40
0.0974021566270648
40
0.0974021566270648
40
0.180354031075446
40
0.180354031075446
40
0.307542616517401
40
0.307542616517401
40
0.412109117009844
40
0.412109117009844
40
0.516348967691213
40
0.516348967691213
40
0.620446917153883
40
0.620446917153883
40
0.724476829460632
40
0.724476829460632
40
0.93331090138698
40
0.93331090138698
40
1
40
1
40
1
40
1
41
1
10
19.0759943392019
20
-13.6878573566553
30
0
41
1
10
19.0790125483007
20
-13.6741444537593
30
0
41
1
10
19.078891417196
20
-13.6596813633234
30
0
41
1
10
19.0728548269542
20
-13.6344377902348
30
0
41
1
10
19.06778438867
20
-13.6231306802423
30
0
41
1
10
19.0511036592422
20
-13.5969764469809
30
0
41
1
10
19.0372893217339
20
-13.5829384491082
30
0
41
1
10
19.0092757462904
20
-13.560948145199
30
0
41
1
10
18.9953557043727
20
-13.5521682938372
30
0
41
1
10
18.966332162215
20
-13.5366784287172
30
0
41
1
10
18.9511376895425
20
-13.5299146420642
30
0
41
1
10
18.9200298133045
20
-13.5180554740023
30
0
41
1
10
18.9040612136394
20
-13.5129391023362
30
0
41
1
10
18.8716683044432
20
-13.5041248715619
30
0
41
1
10
18.8552071853581
20
-13.5004174798977
30
0
41
1
10
18.8053216048265
20
-13.4911762406687
30
0
41
1
10
18.7713177310976
20
-13.4875010374789
30
0
41
1
10
18.7262808221674
20
-13.4856052646862
30
0
41
1
10
18.7153437606458
20
-13.4853763613957
30
0
41
1
10
18.7043966321936
20
-13.4853763613957
30
0
0
SPLINE
5
237
100
AcDbEntity
8
1
62
256
6
ByLayer
370
-1
48
1
60
0
100
AcDbSpline
70
4
71
3
72
22
73
18
40
0
40
0
40
0
40
0
40
0.14205760873998
40
0.14205760873998
40
0.351004812993413
40
0.351004812993413
40
0.487763342942422
40
0.487763342942422
40
0.591529353509789
40
0.591529353509789
40
0.758694969227307
40
0.758694969227307
40
0.858776631809006
40
0.858776631809006
40
0.96035991951741
40
0.96035991951741
40
1
40
1
40
1
40
1
41
1
10
18.7043966321936
20
-13.4853763613957
30
0
41
1
10
18.6811036353434
20
-13.4853763613957
30
0
41
1
10
18.6577274656833
20
-13.4864095046007
30
0
41
1
10
18.6001557651376
20
-13.4915895768103
30
0
41
1
10
18.5658635260166
20
-13.4969693250059
30
0
41
1
10
18.5101202808139
20
-13.5103112526873
30
0
41
1
10
18.4882270435204
20
-13.5167704248998
30
0
41
1
10
18.4506352217136
20
-13.5305929342548
30
0
41
1
10
18.4346552484149
20
-13.5373870811316
30
0
41
1
10
18.3945120743164
20
-13.5575628892681
30
0
41
1
10
18.3706492449546
20
-13.572705824113
30
0
41
1
10
18.3384485985236
20
-13.6020541936744
30
0
41
1
10
18.327547536721
20
-13.6144671494717
30
0
41
1
10
18.3107528233848
20
-13.6412444005163
30
0
41
1
10
18.3047876424864
20
-13.6560623084005
30
0
41
1
10
18.3014051282393
20
-13.6763815355162
30
0
41
1
10
18.3009658877195
20
-13.6821693599753
30
0
41
1
10
18.301035930223
20
-13.6878573566553
30
0
0
SPLINE
5
238
100
AcDbEntity
8
1
62
256
6
ByLayer
370
-1
48
1
60
0
100
AcDbSpline
70
4
71
3
72
8
73
4
40
0
40
0
40
0
40
0
40
1
40
1
40
1
40
1
41
1
10
19.7322376262141
20
-14.0966279818323
30
0
41
1
10
19.7379382050568
20
-14.0921666109877
30
0
41
1
10
19.743638767207
20
-14.0877052667519
30
0
41
1
10
19.7493393133248
20
-14.0832439480714
30
0
0
SPLINE
5
239
100
AcDbEntity
8
1
62
256
6
ByLayer
370
-1
48
1
60
0
100
AcDbSpline
70
4
71
3
72
34
73
30
40
0
40
0
40
0
40
0
40
0.0514465755209383
40
0.0514465755209383
40
0.135786144735419
40
0.135786144735419
40
0.203131635218879
40
0.203131635218879
40
0.270315608875128
40
0.270315608875128
40
0.337431278535977
40
0.337431278535977
40
0.40451589762557
40
0.40451589762557
40
0.499929883689684
40
0.499929883689684
40
0.599210771748195
40
0.599210771748195
40
0.697083019894238
40
0.697083019894238
40
0.780957226922732
40
0.780957226922732
40
0.847546414393228
40
0.847546414393228
40
0.898875235580317
40
0.898875235580317
40
0.980803570703512
40
0.980803570703512
40
1
40
1
40
1
40
1
41
1
10
20.1136237555038
20
-14.7708385929558
30
0
41
1
10
20.0993148554393
20
-14.7750366567543
30
0
41
1
10
20.0857208594611
20
-14.7818757573317
30
0
41
1
10
20.0532409724
20
-14.803984712558
30
0
41
1
10
20.0357790923159
20
-14.822110881176
30
0
41
1
10
20.0089915213488
20
-14.8578469123844
30
0
41
1
10
19.9985352205552
20
-14.8751277906352
30
0
41
1
10
19.9802401446726
20
-14.9110817366217
30
0
41
1
10
19.9723401430684
20
-14.9298732207651
30
0
41
1
10
19.958776046994
20
-14.9683553233138
30
0
41
1
10
19.953082853592
20
-14.9881309717996
30
0
41
1
10
19.9437219640529
20
-15.028248332945
30
0
41
1
10
19.9400386502286
20
-15.0486597908715
30
0
41
1
10
19.9334389174205
20
-15.098429829929
30
0
41
1
10
19.9314760847281
20
-15.1280942539526
30
0
41
1
10
19.9312957951875
20
-15.1884929238086
30
0
41
1
10
19.9332316892548
20
-15.2194161462405
30
0
41
1
10
19.9411924745076
20
-15.2799079036419
30
0
41
1
10
19.9471809714448
20
-15.3096931189735
30
0
41
1
10
19.9623748052154
20
-15.363324955301
30
0
41
1
10
19.9710416154843
20
-15.3875759846765
30
0
41
1
10
19.9899333587625
20
-15.4290657822628
30
0
41
1
10
19.999522245359
20
-15.4468331371202
30
0
41
1
10
20.0189710624216
20
-15.4762801163826
30
0
41
1
10
20.0283185826426
20
-15.4884955200009
30
0
41
1
10
20.0548830612841
20
-15.5172934480166
30
0
41
1
10
20.07404432823
20
-15.5327838051235
30
0
41
1
10
20.1006386476285
20
-15.5450491493546
30
0
41
1
10
20.1059162384691
20
-15.5471044079283
30
0
41
1
10
20.1113015755322
20
-15.5487904419205
30
0
0
SPLINE
5
23A
100
AcDbEntity
8
1
62
256
6
ByLayer
370
-1
48
1
60
0
100
AcDbSpline
70
4
71
3
72
8
73
4
40
0
40
0
40
0
40
0
40
1
40
1
40
1
40
1
41
1
10
20.1347845851564
20
-14.764630271062
30
0
41
1
10
20.1277309989325
20
-14.7666996988824
30
0
41
1
10
20.1206773893688
20
-14.76876913934
30
0
41
1
10
20.1136237555036
20
-14.7708385929558
30
0
0
SPLINE
5
23B
100
AcDbEntity
8
1
62
256
6
ByLayer
370
-1
48
1
60
0
100
AcDbSpline
70
4
71
3
72
22
73
18
40
0
40
0
40
0
40
0
40
0.0973712659848349
40
0.0973712659848349
40
0.180296832630997
40
0.180296832630997
40
0.307445080803534
40
0.307445080803534
40
0.411978418515545
40
0.411978418515545
40
0.51618521001189
40
0.51618521001189
40
0.620250145292907
40
0.620250145292907
40
0.829289859627391
40
0.829289859627391
40
1
40
1
40
1
40
1
41
1
10
19.7493393133248
20
-14.0832439480715
30
0
41
1
10
19.7617645705799
20
-14.0750548418157
30
0
41
1
10
19.7763775829974
20
-14.0692436059395
30
0
41
1
10
19.8045649872068
20
-14.064096282219
30
0
41
1
10
19.818281564142
20
-14.0638208635525
30
0
41
1
10
19.8523228441654
20
-14.0674504754186
30
0
41
1
10
19.872867910017
20
-14.0735882387079
30
0
41
1
10
19.9080998759508
20
-14.0887355685354
30
0
41
1
10
19.9234740597658
20
-14.0971572178987
30
0
41
1
10
19.9527648851892
20
-14.1159094128141
30
0
41
1
10
19.9667780658833
20
-14.1262962917967
30
0
41
1
10
19.9935390984474
20
-14.1484176114187
30
0
41
1
10
20.0063341277184
20
-14.1601911752808
30
0
41
1
10
20.0430757620029
20
-14.1971005655972
30
0
41
1
10
20.065469190681
20
-14.2238967076441
30
0
41
1
10
20.1024146715873
20
-14.2749212091376
30
0
41
1
10
20.1177193098552
20
-14.2988369930169
30
0
41
1
10
20.1316437885252
20
-14.3234525481004
30
0
0
SPLINE
5
23C
100
AcDbEntity
8
1
62
256
6
ByLayer
370
-1
48
1
60
0
100
AcDbSpline
70
4
71
3
72
24
73
20
40
0
40
0
40
0
40
0
40
0.0380198325535733
40
0.0380198325535733
40
0.246834654676381
40
0.246834654676381
40
0.404726505664484
40
0.404726505664484
40
0.526150637963791
40
0.526150637963791
40
0.621531995504416
40
0.621531995504416
40
0.77689053833256
40
0.77689053833256
40
0.87368421389826
40
0.87368421389826
40
0.971746172255087
40
0.971746172255087
40
1
40
1
40
1
40
1
41
1
10
20.1316437885252
20
-14.3234525481004
30
0
41
1
10
20.1347484705496
20
-14.3289409741451
30
0
41
1
10
20.137785528015
20
-14.3344668604184
30
0
41
1
10
20.1570266435948
20
-14.3705191856214
30
0
41
1
10
20.1712923354716
20
-14.4021523097986
30
0
41
1
10
20.1919979498783
20
-14.459067710708
30
0
41
1
10
20.1995326990485
20
-14.4841244446151
30
0
41
1
10
20.2096566786074
20
-14.5290143367864
30
0
41
1
10
20.2130009229446
20
-14.548791061352
30
0
41
1
10
20.2164623656009
20
-14.5842069639357
30
0
41
1
10
20.2171217323185
20
-14.5998829432042
30
0
41
1
10
20.2158854152355
20
-14.6405977619438
30
0
41
1
10
20.2121492276021
20
-14.6659954708383
30
0
41
1
10
20.198434659289
20
-14.7037897970631
30
0
41
1
10
20.1911501003774
20
-14.7177330021223
30
0
41
1
10
20.1722613708666
20
-14.7417197922234
30
0
41
1
10
20.1602631733799
20
-14.7519816066278
30
0
41
1
10
20.1429843311512
20
-14.7611902465777
30
0
41
1
10
20.13892990311
20
-14.7630364414495
30
0
41
1
10
20.1347845851565
20
-14.764630271062
30
0
0
SPLINE
5
23D
100
AcDbEntity
8
1
62
256
6
ByLayer
370
-1
48
1
60
0
100
AcDbSpline
70
4
71
3
72
8
73
4
40
0
40
0
40
0
40
0
40
1
40
1
40
1
40
1
41
1
10
17.2528518410126
20
-14.7708385929552
30
0
41
1
10
17.2471736364727
20
-14.7687691393393
30
0
41
1
10
17.2414954792274
20
-14.7666996988817
30
0
41
1
10
17.2358173674035
20
-14.7646302710613
30
0
0
SPLINE
5
23E
100
AcDbEntity
8
1
62
256
6
ByLayer
370
-1
48
1
60
0
100
AcDbSpline
70
4
71
3
72
8
73
4
40
0
40
0
40
0
40
0
40
1
40
1
40
1
40
1
41
1
10
17.6253305045508
20
-14.0832439480708
30
0
41
1
10
17.6296412967189
20
-14.0877052667512
30
0
41
1
10
17.6339521269238
20
-14.092166610987
30
0
41
1
10
17.6382629967343
20
-14.0966279818317
30
0
0
SPLINE
5
23F
100
AcDbEntity
8
1
62
256
6
ByLayer
370
-1
48
1
60
0
100
AcDbSpline
70
4
71
3
72
22
73
18
40
0
40
0
40
0
40
0
40
0.0973712659848126
40
0.0973712659848126
40
0.18029683263104
40
0.18029683263104
40
0.30744508080358
40
0.30744508080358
40
0.411978418515608
40
0.411978418515608
40
0.516185210011986
40
0.516185210011986
40
0.620250145292994
40
0.620250145292994
40
0.829289859627486
40
0.829289859627486
40
1
40
1
40
1
40
1
41
1
10
17.2358173674036
20
-14.7646302710613
30
0
41
1
10
17.2246065801478
20
-14.7592434140341
30
0
41
1
10
17.2143218625543
20
-14.7507275095547
30
0
41
1
10
17.1991061213599
20
-14.7308550835213
30
0
41
1
10
17.1934028825139
20
-14.7199182544938
30
0
41
1
10
17.1825660560129
20
-14.6903444825237
30
0
41
1
10
17.1790637033372
20
-14.6702724639389
30
0
41
1
10
17.1766718019173
20
-14.6332897299356
30
0
41
1
10
17.1770441182695
20
-14.6161467567088
30
0
41
1
10
17.1798968930139
20
-14.5820045797855
30
0
41
1
10
17.1823820885099
20
-14.5648955991055
30
0
41
1
10
17.1889573265392
20
-14.530986292717
30
0
41
1
10
17.1930588456523
20
-14.5141259634738
30
0
41
1
10
17.2073403198221
20
-14.4640491160799
30
0
41
1
10
17.2195188164133
20
-14.4312253209521
30
0
41
1
10
17.2451774229282
20
-14.3734659625772
30
0
41
1
10
17.2580747414599
20
-14.3480681031847
30
0
41
1
10
17.272146174595
20
-14.3234525481012
30
0
0
SPLINE
5
240
100
AcDbEntity
8
1
62
256
6
ByLayer
370
-1
48
1
60
0
100
AcDbSpline
70
4
71
3
72
24
73
20
40
0
40
0
40
0
40
0
40
0.0380198325536671
40
0.0380198325536671
40
0.246834654676487
40
0.246834654676487
40
0.404726505664578
40
0.404726505664578
40
0.526150637963832
40
0.526150637963832
40
0.621531995504453
40
0.621531995504453
40
0.776890538332693
40
0.776890538332693
40
0.873684213898402
40
0.873684213898402
40
0.971746172255164
40
0.971746172255164
40
1
40
1
40
1
40
1
41
1
10
17.272146174595
20
-14.3234525481012
30
0
41
1
10
17.2752836224341
20
-14.3179641220565
30
0
41
1
10
17.2784811478452
20
-14.3125123172987
30
0
41
1
10
17.2995921811285
20
-14.2774215655388
30
0
41
1
10
17.3192566257818
20
-14.2488163428597
30
0
41
1
10
17.3567678666873
20
-14.2014658759354
30
0
41
1
10
17.3739606421116
20
-14.1819316836908
30
0
41
1
10
17.4061723652068
20
-14.1497077473565
30
0
41
1
10
17.4208299890151
20
-14.1364278743976
30
0
41
1
10
17.4481056344248
20
-14.114701256512
30
0
41
1
10
17.4605331609806
20
-14.1057940691464
30
0
41
1
10
17.4939795371101
20
-14.0850356454466
30
0
41
1
10
17.5160220622861
20
-14.0744783473783
30
0
41
1
10
17.5519353981348
20
-14.0652512343785
30
0
41
1
10
17.566032267852
20
-14.0636149685423
30
0
41
1
10
17.592662094453
20
-14.0658196852148
30
0
41
1
10
17.6055189095759
20
-14.069855034337
30
0
41
1
10
17.61947129313
20
-14.0786025591212
30
0
41
1
10
17.6224874870635
20
-14.0808210064585
30
0
41
1
10
17.6253305045508
20
-14.0832439480708
30
0
0
SPLINE
5
241
100
AcDbEntity
8
1
62
256
6
ByLayer
370
-1
48
1
60
0
100
AcDbSpline
70
4
71
3
72
8
73
4
40
0
40
0
40
0
40
0
40
1
40
1
40
1
40
1
41
1
10
17.6319157903309
20
-16.2230010530434
30
0
41
1
10
17.6275778835498
20
-16.227597318328
30
0
41
1
10
17.6232400165265
20
-16.232193559287
30
0
41
1
10
17.618902187686
20
-16.2367897768834
30
0
0
SPLINE
5
242
100
AcDbEntity
8
1
62
256
6
ByLayer
370
-1
48
1
60
0
100
AcDbSpline
70
4
71
3
72
34
73
30
40
0
40
0
40
0
40
0
40
0.0514465755209139
40
0.0514465755209139
40
0.135786144735374
40
0.135786144735374
40
0.203131635218828
40
0.203131635218828
40
0.27031560887505
40
0.27031560887505
40
0.33743127853587
40
0.33743127853587
40
0.404515897625449
40
0.404515897625449
40
0.499929883689695
40
0.499929883689695
40
0.59921077174821
40
0.59921077174821
40
0.69708301989426
40
0.69708301989426
40
0.780957226922753
40
0.780957226922753
40
0.847546414393253
40
0.847546414393253
40
0.898875235580356
40
0.898875235580356
40
0.980803570703525
40
0.980803570703525
40
1
40
1
40
1
40
1
41
1
10
17.2505296610413
20
-15.5487904419199
30
0
41
1
10
17.2620742641882
20
-15.5443187332034
30
0
41
1
10
17.2729079691548
20
-15.537206384263
30
0
41
1
10
17.2985415000755
20
-15.514419690494
30
0
41
1
10
17.3120534179811
20
-15.4959025048801
30
0
41
1
10
17.3325433759321
20
-15.4595430566334
30
0
41
1
10
17.3404408976171
20
-15.4420088782053
30
0
41
1
10
17.3541529049162
20
-15.4056012423786
30
0
41
1
10
17.3600129632619
20
-15.3866078189637
30
0
41
1
10
17.3700179368763
20
-15.3477733896562
30
0
41
1
10
17.374184049152
20
-15.3278465714509
30
0
41
1
10
17.3810120614795
20
-15.2874784742241
30
0
41
1
10
17.3836852178067
20
-15.2669670181883
30
0
41
1
10
17.3884764120467
20
-15.2170179472094
30
0
41
1
10
17.3899044668881
20
-15.18730058414
30
0
41
1
10
17.3900847564287
20
-15.126901914284
30
0
41
1
10
17.3887278392819
20
-15.0960360062783
30
0
41
1
10
17.3830472116586
20
-15.0357699675917
30
0
41
1
10
17.3787505117493
20
-15.0061522276338
30
0
41
1
10
17.3676964244114
20
-14.9529301955374
30
0
41
1
10
17.3613467329063
20
-14.9289085437552
30
0
41
1
10
17.3473092953091
20
-14.8878992864726
30
0
41
1
10
17.3401272378672
20
-14.8703701898725
30
0
41
1
10
17.3253731384226
20
-14.8413879528777
30
0
41
1
10
17.3182268557287
20
-14.8293904554687
30
0
41
1
10
17.2976979023198
20
-14.8011899997422
30
0
41
1
10
17.2826927936781
20
-14.7861110715202
30
0
41
1
10
17.2614318864497
20
-14.774373695586
30
0
41
1
10
17.2571949146229
20
-14.7724214505862
30
0
41
1
10
17.2528518410128
20
-14.7708385929552
30
0
0
SPLINE
5
243
100
AcDbEntity
8
1
62
256
6
ByLayer
370
-1
48
1
60
0
100
AcDbSpline
70
4
71
3
72
8
73
4
40
0
40
0
40
0
40
0
40
1
40
1
40
1
40
1
41
1
10
17.2334569158544
20
-15.5554034538929
30
0
41
1
10
17.239147784801
20
-15.5531991271565
30
0
41
1
10
17.244838699238
20
-15.5509947899757
30
0
41
1
10
17.2505296610413
20
-15.5487904419199
30
0
0
SPLINE
5
244
100
AcDbEntity
8
1
62
256
6
ByLayer
370
-1
48
1
60
0
100
AcDbSpline
70
4
71
3
72
22
73
18
40
0
40
0
40
0
40
0
40
0.0973712659848483
40
0.0973712659848483
40
0.180296832631008
40
0.180296832631008
40
0.307445080803464
40
0.307445080803464
40
0.411978418515477
40
0.411978418515477
40
0.51618521001184
40
0.51618521001184
40
0.620250145292876
40
0.620250145292876
40
0.829289859627331
40
0.829289859627331
40
1
40
1
40
1
40
1
41
1
10
17.618902187686
20
-16.2367897768834
30
0
41
1
10
17.6092435942726
20
-16.2452527623651
30
0
41
1
10
17.5973772536443
20
-16.2513358984022
30
0
41
1
10
17.5737118713208
20
-16.256930868792
30
0
41
1
10
17.5619118478624
20
-16.2573960120557
30
0
41
1
10
17.5321147875803
20
-16.2541865465044
30
0
41
1
10
17.5136656881994
20
-16.2482562683696
30
0
41
1
10
17.4815632439744
20
-16.2334187380089
30
0
41
1
10
17.4673715223399
20
-16.2251141436423
30
0
41
1
10
17.4400986885601
20
-16.2065617149511
30
0
41
1
10
17.4269276911743
20
-16.1962582058775
30
0
41
1
10
17.4016047721854
20
-16.1742792488464
30
0
41
1
10
17.389407894457
20
-16.1625648975561
30
0
41
1
10
17.3541837587958
20
-16.1258057283625
30
0
41
1
10
17.3324404172462
20
-16.0990739401257
30
0
41
1
10
17.2962173484775
20
-16.0481209520824
30
0
41
1
10
17.2810673520003
20
-16.0242204765948
30
0
41
1
10
17.2671428733305
20
-15.9996049215113
30
0
0
SPLINE
5
245
100
AcDbEntity
8
1
62
256
6
ByLayer
370
-1
48
1
60
0
100
AcDbSpline
70
4
71
3
72
24
73
20
40
0
40
0
40
0
40
0
40
0.038019832553486
40
0.038019832553486
40
0.246834654676306
40
0.246834654676306
40
0.404726505664409
40
0.404726505664409
40
0.526150637963714
40
0.526150637963714
40
0.621531995504357
40
0.621531995504357
40
0.776890538332502
40
0.776890538332502
40
0.873684213898239
40
0.873684213898239
40
0.971746172255083
40
0.971746172255083
40
1
40
1
40
1
40
1
41
1
10
17.2671428733305
20
-15.9996049215113
30
0
41
1
10
17.264038191306
20
-15.9941164954667
30
0
41
1
10
17.2609933332161
20
-15.9885898369893
30
0
41
1
10
17.2416508297216
20
-15.9525274751339
30
0
41
1
10
17.2270690857601
20
-15.9208630641415
30
0
41
1
10
17.2053170438005
20
-15.8638440746558
30
0
41
1
10
17.1971692743619
20
-15.8387266562832
30
0
41
1
10
17.185567459289
20
-15.7936904693433
30
0
41
1
10
17.1814466410259
20
-15.7738368697116
30
0
41
1
10
17.1762688177332
20
-15.7382510581592
30
0
41
1
10
17.1747372690118
20
-15.722488739333
30
0
41
1
10
17.1732864491275
20
-15.6815079139389
30
0
41
1
10
17.1749276090158
20
-15.6559028128169
30
0
41
1
10
17.1841881802326
20
-15.6176675738729
30
0
41
1
10
17.1894629109766
20
-15.6035254107132
30
0
41
1
10
17.2037856085732
20
-15.579086617276
30
0
41
1
10
17.2131451197706
20
-15.5685635924753
30
0
41
1
10
17.2268899274675
20
-15.5590051092855
30
0
41
1
10
17.2301301811185
20
-15.5570783171802
30
0
41
1
10
17.2334569158544
20
-15.5554034538929
30
0
0
SPLINE
5
246
100
AcDbEntity
8
1
62
256
6
ByLayer
370
-1
48
1
60
0
100
AcDbSpline
70
4
71
2
72
6
73
3
40
0
40
0
40
0
40
1
40
1
40
1
41
0.973497289157292
10
21.7986152156672
20
-10.4737538504855
30
0
41
1.01271682324434
10
21.720124259252
20
-10.4460063060325
30
0
41
1.08358774580744
10
21.6369330934499
20
-10.4460063060325
30
0
0
SPLINE
5
247
100
AcDbEntity
8
1
62
256
6
ByLayer
370
-1
48
1
60
0
100
AcDbSpline
70
4
71
3
72
12
73
8
40
0
40
0
40
0
40
0
40
0.316693507174356
40
0.316693507174356
40
0.68748053590468
40
0.68748053590468
40
1
40
1
40
1
40
1
41
1
10
19.0458069432658
20
-7.58374951689035
30
0
41
1
10
19.1331772857282
20
-7.61996656170436
30
0
41
1
10
19.2160974108112
20
-7.66936211528051
30
0
41
1
10
19.3753534067201
20
-7.7989502169803
30
0
41
1
10
19.4505140567015
20
-7.8848890700379
30
0
41
1
10
19.5577835621023
20
-8.05971736566687
30
0
41
1
10
19.5959419480509
20
-8.14787867405019
30
0
41
1
10
19.6210767119616
20
-8.23896772983218
30
0
0
SPLINE
5
248
100
AcDbEntity
8
1
62
256
6
ByLayer
370
-1
48
1
60
0
100
AcDbSpline
70
4
71
3
72
10
73
6
40
0
40
0
40
0
40
0
40
0.638091248905405
40
0.638091248905405
40
1
40
1
40
1
40
1
41
1
10
22.5629415402829
20
-10.8782378881457
30
0
41
1
10
22.5510416434287
20
-10.8501862033025
30
0
41
1
10
22.5379210807517
20
-10.8253979150585
30
0
41
1
10
22.5189299822369
20
-10.7936215777802
30
0
41
1
10
22.5122741444278
20
-10.7833728456193
30
0
41
1
10
22.5064967719873
20
-10.7747102138975
30
0
0
SPLINE
5
249
100
AcDbEntity
8
1
62
256
6
ByLayer
370
-1
48
1
60
0
100
AcDbSpline
70
4
71
3
72
10
73
6
40
0
40
0
40
0
40
0
40
0.7222546172588
40
0.7222546172588
40
1
40
1
40
1
40
1
41
1
10
22.5629415402829
20
-10.8782378881457
30
0
41
1
10
22.5878044089832
20
-10.9281432816088
30
0
41
1
10
22.6045140084586
20
-10.983114672832
30
0
41
1
10
22.6144798375644
20
-11.0601972177824
30
0
41
1
10
22.6158817075812
20
-11.0820301695047
30
0
41
1
10
22.6158752303872
20
-11.1038194745332
30
0
0
SPLINE
5
24A
100
AcDbEntity
8
1
62
256
6
ByLayer
370
-1
48
1
60
0
100
AcDbSpline
70
4
71
3
72
8
73
4
40
0
40
0
40
0
40
0
40
1
40
1
40
1
40
1
41
1
10
22.6159601741298
20
-11.1048018958012
30
0
41
1
10
22.6159320339901
20
-11.1044747761005
30
0
41
1
10
22.6159037199938
20
-11.1041473005457
30
0
41
1
10
22.6158752303872
20
-11.1038194745343
30
0
0
SPLINE
5
24B
100
AcDbEntity
8
1
62
256
6
ByLayer
370
-1
48
1
60
0
100
AcDbSpline
70
4
71
3
72
12
73
8
40
0
40
0
40
0
40
0
40
0.404644073901376
40
0.404644073901376
40
0.809285947755734
40
0.809285947755734
40
1
40
1
40
1
40
1
41
1
10
22.1419124947729
20
-10.6103645394536
30
0
41
1
10
22.1970162522349
20
-10.6103645394536
30
0
41
1
10
22.2528588889994
20
-10.6200248735899
30
0
41
1
10
22.3567727471119
20
-10.6570649671647
30
0
41
1
10
22.4062769044033
20
-10.6849552873753
30
0
41
1
10
22.4697006094825
20
-10.7365615267005
30
0
41
1
10
22.4889117024505
20
-10.7549469176893
30
0
41
1
10
22.5064967719893
20
-10.7747102138994
30
0
0
SPLINE
5
24C
100
AcDbEntity
8
1
62
256
6
ByLayer
370
-1
48
1
60
0
100
AcDbSpline
70
4
71
1
72
5
73
3
40
0
40
0
40
0.880667773215183
40
1
40
1
41
1.08358774580744
10
16.3223787135555
20
-7.35808870602231
30
0
41
1.08358774580744
10
16.7863651023334
20
-7.49187870942538
30
0
41
1.08358774580744
10
16.8492361765963
20
-7.51000751975909
30
0
0
SPLINE
5
24D
100
AcDbEntity
8
1
62
256
6
ByLayer
370
-1
48
1
60
0
100
AcDbSpline
70
4
71
3
72
14
73
10
40
0
40
0
40
0
40
0
40
0.314392366702153
40
0.314392366702153
40
0.632200716155378
40
0.632200716155378
40
0.91251319620215
40
0.91251319620215
40
1
40
1
40
1
40
1
41
1
10
12.0802092458879
20
-19.1461466756122
30
0
41
1
10
12.0694094004891
20
-19.1462454250453
30
0
41
1
10
12.0583717649898
20
-19.1448188038591
30
0
41
1
10
12.037469231604
20
-19.1380943142361
30
0
41
1
10
12.0273574054561
20
-19.1326094137108
30
0
41
1
10
12.0110161553926
20
-19.1192513101974
30
0
41
1
10
12.0042651809732
20
-19.1116142785713
30
0
41
1
10
11.9968933306468
20
-19.1007431142965
30
0
41
1
10
11.9952283087191
20
-19.0980651065485
30
0
41
1
10
11.99366255701
20
-19.0953328613372
30
0
0
SPLINE
5
24E
100
AcDbEntity
8
1
62
256
6
ByLayer
370
-1
48
1
60
0
100
AcDbSpline
70
4
71
3
72
22
73
18
40
0
40
0
40
0
40
0
40
0.153101873520362
40
0.153101873520362
40
0.442621285364929
40
0.442621285364929
40
0.707385074439727
40
0.707385074439727
40
0.843532608240199
40
0.843532608240199
40
0.926352665771254
40
0.926352665771254
40
0.963706736955307
40
0.963706736955307
40
0.977863955360688
40
0.977863955360688
40
1
40
1
40
1
40
1
41
1
10
18.6430881819353
20
-18.8744368571207
30
0
41
1
10
18.6345208759389
20
-18.8552525092707
30
0
41
1
10
18.6257632940175
20
-18.8361558625998
30
0
41
1
10
18.5997598045787
20
-18.7813082498237
30
0
41
1
10
18.5819316381258
20
-18.7458079687278
30
0
41
1
10
18.5449651078688
20
-18.6795542199474
30
0
41
1
10
18.5261561405872
20
-18.6484156662079
30
0
41
1
10
18.4932416652191
20
-18.6047184141111
30
0
41
1
10
18.4812336644534
20
-18.5903357504176
30
0
41
1
10
18.459168310745
20
-18.5703562364384
30
0
41
1
10
18.4500419463918
20
-18.5633619682313
30
0
41
1
10
18.4352399811259
20
-18.5565146360347
30
0
41
1
10
18.4303219523494
20
-18.5548526460608
30
0
41
1
10
18.4233572672871
20
-18.5537873238146
30
0
41
1
10
18.4214044359088
20
-18.5536219489491
30
0
41
1
10
18.4164164899913
20
-18.5535862736124
30
0
41
1
10
18.4133466819648
20
-18.5539396076429
30
0
41
1
10
18.410390751966
20
-18.5546873620589
30
0
0
SPLINE
5
24F
100
AcDbEntity
8
1
62
256
6
ByLayer
370
-1
48
1
60
0
100
AcDbSpline
70
4
71
3
72
22
73
18
40
0
40
0
40
0
40
0
40
0.023632471762999
40
0.023632471762999
40
0.0629814022064372
40
0.0629814022064372
40
0.0762359204463771
40
0.0762359204463771
40
0.134099172814634
40
0.134099172814634
40
0.288877504287527
40
0.288877504287527
40
0.442933094377618
40
0.442933094377618
40
0.668543354429525
40
0.668543354429525
40
1
40
1
40
1
40
1
41
1
10
17.8096810006668
20
-18.7066474455065
30
0
41
1
10
17.8048603126284
20
-18.7078669232243
30
0
41
1
10
17.8002291787089
20
-18.7102046880172
30
0
41
1
10
17.7895654155027
20
-18.7181566642687
30
0
41
1
10
17.7842194794058
20
-18.7249622904156
30
0
41
1
10
17.7784088962162
20
-18.7345142531445
30
0
41
1
10
17.7770319942069
20
-18.7370106560991
30
0
41
1
10
17.7701353246638
20
-18.7505635998658
30
0
41
1
10
17.7660313521866
20
-18.7623598372483
30
0
41
1
10
17.7536393261232
20
-18.8059633780867
30
0
41
1
10
17.7493634207151
20
-18.8389576176781
30
0
41
1
10
17.7434459980975
20
-18.904453368943
30
0
41
1
10
17.7421098094922
20
-18.9372938616649
30
0
41
1
10
17.7408526368658
20
-19.0181408041998
30
0
41
1
10
17.7419225957108
20
-19.0661949430045
30
0
41
1
10
17.7469556094879
20
-19.1846287430548
30
0
41
1
10
17.7520884836566
20
-19.2549818639536
30
0
41
1
10
17.75841255023
20
-19.32517583131
30
0
0
SPLINE
5
250
100
AcDbEntity
8
1
62
256
6
ByLayer
370
-1
48
1
60
0
100
AcDbSpline
70
4
71
3
72
8
73
4
40
0
40
0
40
0
40
0
40
1
40
1
40
1
40
1
41
1
10
15.260976931751
20
-13.2632267888129
30
0
41
1
10
15.3345523706873
20
-13.2736308444865
30
0
41
1
10
15.4083524744079
20
-13.2826999751518
30
0
41
1
10
15.4823619932004
20
-13.2892516737503
30
0
0
SPLINE
5
251
100
AcDbEntity
8
1
62
256
6
ByLayer
370
-1
48
1
60
0
100
AcDbSpline
70
4
71
3
72
8
73
4
40
0
40
0
40
0
40
0
40
1
40
1
40
1
40
1
41
1
10
15.6155187444905
20
-13.365415536243
30
0
41
1
10
15.4973245659294
20
-13.37439962608
30
0
41
1
10
15.3782222970034
20
-13.3698379644938
30
0
41
1
10
15.2600537157981
20
-13.3611675096409
30
0
0
SPLINE
5
252
100
AcDbEntity
8
1
62
256
6
ByLayer
370
-1
48
1
60
0
100
AcDbSpline
70
4
71
3
72
20
73
16
40
0
40
0
40
0
40
0
40
0.314859192648751
40
0.314859192648751
40
0.531558880441057
40
0.531558880441057
40
0.682135903694815
40
0.682135903694815
40
0.839619845966499
40
0.839619845966499
40
0.903112673775987
40
0.903112673775987
40
0.967902128209799
40
0.967902128209799
40
1
40
1
40
1
40
1
41
1
10
17.6685879285388
20
-19.3293781306323
30
0
41
1
10
17.6661299534973
20
-19.2569576130215
30
0
41
1
10
17.6654674212187
20
-19.1844044725196
30
0
41
1
10
17.6696017940326
20
-19.0621168398826
30
0
41
1
10
17.6727423090866
20
-19.0122453961506
30
0
41
1
10
17.6824363132362
20
-18.9282588960886
30
0
41
1
10
17.6876466492521
20
-18.8938994405616
30
0
41
1
10
17.7027928976937
20
-18.8247626608724
30
0
41
1
10
17.7127613313441
20
-18.789493027342
30
0
41
1
10
17.7346936327861
20
-18.7438105523763
30
0
41
1
10
17.7420524732499
20
-18.7310107902375
30
0
41
1
10
17.7599273365455
20
-18.707781534293
30
0
41
1
10
17.7708467189389
20
-18.6970868423054
30
0
41
1
10
17.7899117809285
20
-18.6860819994132
30
0
41
1
10
17.7968266725142
20
-18.6832124728158
30
0
41
1
10
17.8039401737759
20
-18.6814129877182
30
0
0
SPLINE
5
253
100
AcDbEntity
8
1
62
256
6
ByLayer
370
-1
48
1
60
0
100
AcDbSpline
70
4
71
3
72
18
73
14
40
0
40
0
40
0
40
0
40
0.0414544517087503
40
0.0414544517087503
40
0.13291092246809
40
0.13291092246809
40
0.263177731540007
40
0.263177731540007
40
0.458562667326528
40
0.458562667326528
40
0.817425847463271
40
0.817425847463271
40
1
40
1
40
1
40
1
41
1
10
18.4046499250793
20
-18.5294529042793
30
0
41
1
10
18.409041812966
20
-18.528341899092
30
0
41
1
10
18.4135449251837
20
-18.5276214034926
30
0
41
1
10
18.4279077787238
20
-18.5265682780668
30
0
41
1
10
18.4379677357987
20
-18.5277252675144
30
0
41
1
10
18.461151780109
20
-18.5336695756177
30
0
41
1
10
18.4741680123741
20
-18.5397520897172
30
0
41
1
10
18.5044317445689
20
-18.5578173927634
30
0
41
1
10
18.5210287829256
20
-18.5714084067863
30
0
41
1
10
18.5648346601554
20
-18.6126446055983
30
0
41
1
10
18.5898670006496
20
-18.6429932907068
30
0
41
1
10
18.6250539885731
20
-18.6903107833325
30
0
41
1
10
18.6364851804154
20
-18.7066463962703
30
0
41
1
10
18.6475645945122
20
-18.7232151510687
30
0
0
SPLINE
5
254
100
AcDbEntity
8
1
62
256
6
ByLayer
370
-1
48
1
60
0
100
AcDbSpline
70
4
71
3
72
14
73
10
40
0
40
0
40
0
40
0
40
0.314392366702128
40
0.314392366702128
40
0.63220071615532
40
0.63220071615532
40
0.912513196201935
40
0.912513196201935
40
1
40
1
40
1
40
1
41
1
10
18.4434207653743
20
-7.43259612780423
30
0
41
1
10
18.4490353707494
20
-7.42292253185121
30
0
41
1
10
18.4560118249302
20
-7.41382650066495
30
0
41
1
10
18.472484390875
20
-7.39868283284778
30
0
41
1
10
18.4822623135576
20
-7.39251198264262
30
0
41
1
10
18.5017069630802
20
-7.38486546955878
30
0
41
1
10
18.5114572579859
20
-7.38280288668156
30
0
41
1
10
18.5241565204493
20
-7.3818608885702
30
0
41
1
10
18.5272052613852
20
-7.38176334208055
30
0
41
1
10
18.5302456229699
20
-7.38178231352916
30
0
0
SPLINE
5
255
100
AcDbEntity
8
1
62
256
6
ByLayer
370
-1
48
1
60
0
100
AcDbSpline
70
4
71
3
72
10
73
6
40
0
40
0
40
0
40
0
40
0.388885978132952
40
0.388885978132952
40
1
40
1
40
1
40
1
41
1
10
15.6155187444905
20
-13.365415536243
30
0
41
1
10
15.5985141960922
20
-13.3554317231666
30
0
41
1
10
15.5812641463506
20
-13.3454119769482
30
0
41
1
10
15.5368538359104
20
-13.3198655482122
30
0
41
1
10
15.5094084598382
20
-13.3043120632845
30
0
41
1
10
15.482361993178
20
-13.2892516737484
30
0
0
SPLINE
5
256
100
AcDbEntity
8
1
62
256
6
ByLayer
370
-1
48
1
60
0
100
AcDbSpline
70
4
71
3
72
22
73
18
40
0
40
0
40
0
40
0
40
0.153101873520372
40
0.153101873520372
40
0.442621285364937
40
0.442621285364937
40
0.707385074439677
40
0.707385074439677
40
0.843532608240134
40
0.843532608240134
40
0.926352665771263
40
0.926352665771263
40
0.963706736955235
40
0.963706736955235
40
0.97786395536066
40
0.97786395536066
40
1
40
1
40
1
40
1
41
1
10
15.4823619931782
20
-13.2892516737483
30
0
41
1
10
15.5033580806994
20
-13.2911103540835
30
0
41
1
10
15.5243741353426
20
-13.292758476291
30
0
41
1
10
15.5851646057904
20
-13.2967427324795
30
0
41
1
10
15.6250155731825
20
-13.2984431723968
30
0
41
1
10
15.7012576805561
20
-13.2983625747205
30
0
41
1
10
15.7378165356936
20
-13.297060555914
30
0
41
1
10
15.7924199228209
20
-13.2894895157391
30
0
41
1
10
15.8109866668662
20
-13.2859628680178
30
0
41
1
10
15.8395042616978
20
-13.2763196603379
30
0
41
1
10
15.8501971491948
20
-13.2717086666763
30
0
41
1
10
15.8636357649794
20
-13.2620249158456
30
0
41
1
10
15.8675685294481
20
-13.2585067774777
30
0
41
1
10
15.8720193967523
20
-13.2528927322965
30
0
41
1
10
15.8731516172248
20
-13.2512532184162
30
0
41
1
10
15.8757077870356
20
-13.2468758907034
30
0
41
1
10
15.8769551379324
20
-13.2439978325366
30
0
41
1
10
15.8778023966076
20
-13.2410266765926
30
0
0
SPLINE
5
257
100
AcDbEntity
8
1
62
256
6
ByLayer
370
-1
48
1
60
0
100
AcDbSpline
70
4
71
3
72
22
73
18
40
0
40
0
40
0
40
0
40
0.0236324717629717
40
0.0236324717629717
40
0.0629814022064171
40
0.0629814022064171
40
0.0762359204463503
40
0.0762359204463503
40
0.134099172814606
40
0.134099172814606
40
0.288877504287533
40
0.288877504287533
40
0.442933094377626
40
0.442933094377626
40
0.668543354429543
40
0.668543354429543
40
1
40
1
40
1
40
1
41
1
10
16.0499839260151
20
-12.6372226795765
30
0
41
1
10
16.051365680577
20
-12.6323771602559
30
0
41
1
10
16.0516805619054
20
-12.6271502165798
30
0
41
1
10
16.0501751882617
20
-12.6138546326581
30
0
41
1
10
16.0469728809042
20
-12.6058067315125
30
0
41
1
10
16.0416213647681
20
-12.5960025756833
30
0
41
1
10
16.0401510117631
20
-12.5935651069029
30
0
41
1
10
16.0318755866993
20
-12.5808418475787
30
0
41
1
10
16.0237114818734
20
-12.5714407591703
30
0
41
1
10
15.9921271434199
20
-12.5391383105977
30
0
41
1
10
15.9656447466225
20
-12.5191901216616
30
0
41
1
10
15.9117729444384
20
-12.4818570462896
30
0
41
1
10
15.8839346584369
20
-12.464574934955
30
0
41
1
10
15.8143719726928
20
-12.4238209626942
30
0
41
1
10
15.7721038629319
20
-12.4011991196675
30
0
41
1
10
15.6667144679257
20
-12.3475579325136
30
0
41
1
10
15.6030226874646
20
-12.3175829335136
30
0
41
1
10
15.5388638228262
20
-12.2887365741784
30
0
0
SPLINE
5
258
100
AcDbEntity
8
1
62
256
6
ByLayer
370
-1
48
1
60
0
100
AcDbSpline
70
4
71
3
72
8
73
4
40
0
40
0
40
0
40
0
40
1
40
1
40
1
40
1
41
1
10
21.9643199496892
20
-13.1091865674519
30
0
41
1
10
21.9196517905226
20
-13.168151679757
30
0
41
1
10
21.8760046274379
20
-13.2279808410214
30
0
41
1
10
21.834389202021
20
-13.289251673767
30
0
0
SPLINE
5
259
100
AcDbEntity
8
1
62
256
6
ByLayer
370
-1
48
1
60
0
100
AcDbSpline
70
4
71
3
72
8
73
4
40
0
40
0
40
0
40
0
40
1
40
1
40
1
40
1
41
1
10
21.7089405050403
20
-13.3654155362429
30
0
41
1
10
21.7606587935918
20
-13.2570198067773
30
0
41
1
10
21.8243875822836
20
-13.1545658904016
30
0
41
1
10
21.8911520028613
20
-13.0549774512521
30
0
0
SPLINE
5
25A
100
AcDbEntity
8
1
62
256
6
ByLayer
370
-1
48
1
60
0
100
AcDbSpline
70
4
71
3
72
20
73
16
40
0
40
0
40
0
40
0
40
0.314859192648773
40
0.314859192648773
40
0.531558880441055
40
0.531558880441055
40
0.68213590369481
40
0.68213590369481
40
0.839619845966511
40
0.839619845966511
40
0.903112673776006
40
0.903112673776006
40
0.967902128209794
40
0.967902128209794
40
1
40
1
40
1
40
1
41
1
10
15.5903176362541
20
-12.2030021946601
30
0
41
1
10
15.6533258695278
20
-12.2368769205954
30
0
41
1
10
15.7155451851449
20
-12.272396328554
30
0
41
1
10
15.8177770835161
20
-12.3368810902451
30
0
41
1
10
15.8587386648399
20
-12.3644581661398
30
0
41
1
10
15.9255072263796
20
-12.414772991326
30
0
41
1
10
15.9521974835875
20
-12.436451349731
30
0
41
1
10
16.0035602707922
20
-12.4841710811778
30
0
41
1
10
16.0286363924768
20
-12.5104860191964
30
0
41
1
10
16.0565837434044
20
-12.552501859379
30
0
41
1
10
16.0638045673854
20
-12.5653413872093
30
0
41
1
10
16.0746382317724
20
-12.5926170479623
30
0
41
1
10
16.0782746306601
20
-12.6075398061124
30
0
41
1
10
16.0780831384016
20
-12.6297791939854
30
0
41
1
10
16.0770567023975
20
-12.6372871495288
30
0
41
1
10
16.0750177584251
20
-12.6444372923147
30
0
0
SPLINE
5
25B
100
AcDbEntity
8
1
62
256
6
ByLayer
370
-1
48
1
60
0
100
AcDbSpline
70
4
71
3
72
18
73
14
40
0
40
0
40
0
40
0
40
0.0414544517087691
40
0.0414544517087691
40
0.13291092246809
40
0.13291092246809
40
0.263177731540069
40
0.263177731540069
40
0.458562667326513
40
0.458562667326513
40
0.81742584746328
40
0.81742584746328
40
1
40
1
40
1
40
1
41
1
10
15.902836229008
20
-13.2482412893301
30
0
41
1
10
15.9015773815002
20
-13.2526557997567
30
0
41
1
10
15.8999295568597
20
-13.256973792115
30
0
41
1
10
15.8936118590746
20
-13.2701267329242
30
0
41
1
10
15.8875707791618
20
-13.2783965017122
30
0
41
1
10
15.870852577748
20
-13.2958238279558
30
0
41
1
10
15.8591248661194
20
-13.3042420705458
30
0
41
1
10
15.8285108029279
20
-13.3218630706646
30
0
41
1
10
15.8085794620804
20
-13.3296936509075
30
0
41
1
10
15.7513973991905
20
-13.3476922518547
30
0
41
1
10
15.7129341299352
20
-13.3546012860849
30
0
41
1
10
15.6548950263022
20
-13.361995493308
30
0
41
1
10
15.635217950446
20
-13.3639181745691
30
0
41
1
10
15.6155187444934
20
-13.3654155362671
30
0
0
SPLINE
5
25C
100
AcDbEntity
8
1
62
256
6
ByLayer
370
-1
48
1
60
0
100
AcDbSpline
70
4
71
3
72
10
73
6
40
0
40
0
40
0
40
0
40
0.638746828356591
40
0.638746828356591
40
1
40
1
40
1
40
1
41
1
10
15.4823619931899
20
-13.2892516737381
30
0
41
1
10
15.3601676216458
20
-13.2212097051621
30
0
41
1
10
15.2371598907615
20
-13.1520525460075
30
0
41
1
10
15.0446528290113
20
-13.0430928105364
30
0
41
1
10
14.9749987265551
20
-13.003513249312
30
0
41
1
10
14.9054120070357
20
-12.9638214123955
30
0
0
SPLINE
5
25D
100
AcDbEntity
8
1
62
256
6
ByLayer
370
-1
48
1
60
0
100
AcDbSpline
70
4
71
3
72
14
73
10
40
0
40
0
40
0
40
0
40
0.249103078948839
40
0.249103078948839
40
0.498160925944147
40
0.498160925944147
40
0.745586162481356
40
0.745586162481356
40
1
40
1
40
1
40
1
41
1
10
18.0646026677718
20
-19.909765127744
30
0
41
1
10
18.0469698255524
20
-19.9097772564838
30
0
41
1
10
18.0296082023914
20
-19.9098136830408
30
0
41
1
10
17.996143086648
20
-19.9099327283793
30
0
41
1
10
17.979923165304
20
-19.9100157454389
30
0
41
1
10
17.9492547817675
20
-19.9102242321061
30
0
41
1
10
17.9346924688132
20
-19.9103501169919
30
0
41
1
10
17.9072086381828
20
-19.9106448333624
30
0
41
1
10
17.8942479036757
20
-19.9108158196503
30
0
41
1
10
17.8825404981718
20
-19.9110049243194
30
0
0
SPLINE
5
25E
100
AcDbEntity
8
1
62
256
6
ByLayer
370
-1
48
1
60
0
100
AcDbSpline
70
4
71
3
72
14
73
10
40
0
40
0
40
0
40
0
40
0.233926408286284
40
0.233926408286284
40
0.467719442169531
40
0.467719442169531
40
0.7014440044121
40
0.7014440044121
40
1
40
1
40
1
40
1
41
1
10
14.422768818746
20
-13.0242736852967
30
0
41
1
10
14.4274960298209
20
-13.0127696678218
30
0
41
1
10
14.4328703206518
20
-13.0004846523895
30
0
41
1
10
14.4446525714601
20
-12.9749173960118
30
0
41
1
10
14.4511010056759
20
-12.9615462895849
30
0
41
1
10
14.4648241573415
20
-12.9341985022785
30
0
41
1
10
14.4721443067652
20
-12.9201307119918
30
0
41
1
10
14.4894947618166
20
-12.8878677488671
30
0
41
1
10
14.4998069117529
20
-12.8694359463466
30
0
41
1
10
14.5103857412472
20
-12.8512088634162
30
0
0
SPLINE
5
25F
100
AcDbEntity
8
1
62
256
6
ByLayer
370
-1
48
1
60
0
100
AcDbSpline
70
4
71
3
72
10
73
6
40
0
40
0
40
0
40
0
40
0.736240194588431
40
0.736240194588431
40
1
40
1
40
1
40
1
41
1
10
14.408160481812
20
-19.1952304175787
30
0
41
1
10
14.3850280109508
20
-19.1913952690794
30
0
41
1
10
14.3593268814237
20
-19.1914470722542
30
0
41
1
10
14.3242172355903
20
-19.2007509682506
30
0
41
1
10
14.3147760547218
20
-19.204163872433
30
0
41
1
10
14.3055872369554
20
-19.2086460210471
30
0
0
SPLINE
5
260
100
AcDbEntity
8
1
62
256
6
ByLayer
370
-1
48
1
60
0
100
AcDbSpline
70
4
71
3
72
14
73
10
40
0
40
0
40
0
40
0
40
0.314392366702118
40
0.314392366702118
40
0.632200716155283
40
0.632200716155283
40
0.912513196202064
40
0.912513196202064
40
1
40
1
40
1
40
1
41
1
10
25.2379374790258
20
-18.856199694226
30
0
41
1
10
25.2436409799393
20
-18.865821584771
30
0
41
1
10
25.2481088962937
20
-18.8763811576474
30
0
41
1
10
25.2529853615416
20
-18.8982898449723
30
0
41
1
10
25.2533556432638
20
-18.9099488978614
30
0
41
1
10
25.2499493386349
20
-18.9309260188888
30
0
41
1
10
25.246654386071
20
-18.9405987980218
30
0
41
1
10
25.2408003963022
20
-18.9523641614483
30
0
41
1
10
25.2392798266103
20
-18.9551272933575
30
0
41
1
10
25.2376593103081
20
-18.957827322776
30
0
0
SPLINE
5
261
100
AcDbEntity
8
1
62
256
6
ByLayer
370
-1
48
1
60
0
100
AcDbSpline
70
4
71
3
72
10
73
6
40
0
40
0
40
0
40
0
40
0.388885978132905
40
0.388885978132905
40
1
40
1
40
1
40
1
41
1
10
21.7089405050403
20
-13.365415536243
30
0
41
1
10
21.7259997075621
20
-13.3554317231666
30
0
41
1
10
21.7428684913558
20
-13.3454119769482
30
0
41
1
10
21.7852905203556
20
-13.3198655482122
30
0
41
1
10
21.8105623699276
20
-13.3043120632845
30
0
41
1
10
21.8343892020335
20
-13.2892516737484
30
0
0
SPLINE
5
262
100
AcDbEntity
8
1
62
256
6
ByLayer
370
-1
48
1
60
0
100
AcDbSpline
70
4
71
3
72
8
73
4
40
0
40
0
40
0
40
0
40
1
40
1
40
1
40
1
41
1
10
18.6430881819262
20
-18.8744368571003
30
0
41
1
10
18.6459178413147
20
-18.8259684323835
30
0
41
1
10
18.6474246500298
20
-18.7743432004352
30
0
41
1
10
18.6475645944932
20
-18.7232151510835
30
0
0
SPLINE
5
263
100
AcDbEntity
8
1
62
256
6
ByLayer
370
-1
48
1
60
0
100
AcDbSpline
70
4
71
3
72
22
73
18
40
0
40
0
40
0
40
0
40
0.153101873520357
40
0.153101873520357
40
0.442621285364901
40
0.442621285364901
40
0.707385074439679
40
0.707385074439679
40
0.843532608240162
40
0.843532608240162
40
0.926352665771244
40
0.926352665771244
40
0.963706736955242
40
0.963706736955242
40
0.977863955360656
40
0.977863955360656
40
1
40
1
40
1
40
1
41
1
10
21.8343892020336
20
-13.2892516737485
30
0
41
1
10
21.8225831380495
20
-13.3066338671178
30
0
41
1
10
21.810945823213
20
-13.3241387758614
30
0
41
1
10
21.7779479566358
20
-13.3751645354895
30
0
41
1
10
21.7570890302272
20
-13.4090700248923
30
0
41
1
10
21.7200099148846
20
-13.4756037504744
30
0
41
1
10
21.7033016058407
20
-13.508138870112
30
0
41
1
10
21.6831204579201
20
-13.5595440264252
30
0
41
1
10
21.6770662693092
20
-13.5774991377123
30
0
41
1
10
21.6713539784117
20
-13.6071890267724
30
0
41
1
10
21.6700566529589
20
-13.6188187244864
30
0
41
1
10
21.6717264230321
20
-13.6353776221883
30
0
41
1
10
21.6727957491171
20
-13.6405653810584
30
0
41
1
10
21.6753913409705
20
-13.6472521713546
30
0
41
1
10
21.6762310233923
20
-13.6490587912765
30
0
41
1
10
21.6787003261876
20
-13.653475200731
30
0
41
1
10
21.6805350238756
20
-13.6560010359779
30
0
41
1
10
21.6826436951994
20
-13.6582244375059
30
0
0
SPLINE
5
264
100
AcDbEntity
8
1
62
256
6
ByLayer
370
-1
48
1
60
0
100
AcDbSpline
70
4
71
3
72
22
73
18
40
0
40
0
40
0
40
0
40
0.0236324717629997
40
0.0236324717629997
40
0.0629814022064248
40
0.0629814022064248
40
0.0762359204463804
40
0.0762359204463804
40
0.134099172814612
40
0.134099172814612
40
0.288877504287508
40
0.288877504287508
40
0.4429330943776
40
0.4429330943776
40
0.668543354429521
40
0.668543354429521
40
1
40
1
40
1
40
1
41
1
10
22.1111719170908
20
-14.1100683510744
30
0
41
1
10
22.1146108505673
20
-14.1136943926771
30
0
41
1
10
22.11889337378
20
-14.116580509848
30
0
41
1
10
22.1309105303489
20
-14.1219103218329
30
0
41
1
10
22.1393010270633
20
-14.1231382777083
30
0
41
1
10
22.1502292751617
20
-14.123369243463
30
0
41
1
10
22.1530143717238
20
-14.123304666988
30
0
41
1
10
22.1678447463328
20
-14.1224439636428
30
0
41
1
10
22.1798013966979
20
-14.1200205455536
30
0
41
1
10
22.2226057761443
20
-14.1086130688467
30
0
41
1
10
22.2524389583774
20
-14.0954830424022
30
0
41
1
10
22.3103707996467
20
-14.067151766487
30
0
41
1
10
22.338600977032
20
-14.0515076685365
30
0
41
1
10
22.4070787162898
20
-14.0112020974034
30
0
41
1
10
22.4468692166684
20
-13.9856420251549
30
0
41
1
10
22.5437334851491
20
-13.9205324231837
30
0
41
1
10
22.6001976586436
20
-13.87996415639
30
0
41
1
10
22.655929414004
20
-13.8384256491599
30
0
0
SPLINE
5
265
100
AcDbEntity
8
1
62
256
6
ByLayer
370
-1
48
1
60
0
100
AcDbSpline
70
4
71
3
72
8
73
4
40
0
40
0
40
0
40
0
40
1
40
1
40
1
40
1
41
1
10
18.7279089056201
20
-19.0799246983835
30
0
41
1
10
18.7012254604781
20
-19.0107573942425
30
0
41
1
10
18.6732872460859
20
-18.9420601393564
30
0
41
1
10
18.6430881819262
20
-18.8744368571003
30
0
0
SPLINE
5
266
100
AcDbEntity
8
1
62
256
6
ByLayer
370
-1
48
1
60
0
100
AcDbSpline
70
4
71
3
72
8
73
4
40
0
40
0
40
0
40
0
40
1
40
1
40
1
40
1
41
1
10
18.6475645944932
20
-18.7232151510835
30
0
41
1
10
18.7140404845028
20
-18.8226267907122
30
0
41
1
10
18.769413964737
20
-18.929642368674
30
0
41
1
10
18.8208181253645
20
-19.0379012626765
30
0
0
SPLINE
5
267
100
AcDbEntity
8
1
62
256
6
ByLayer
370
-1
48
1
60
0
100
AcDbSpline
70
4
71
3
72
20
73
16
40
0
40
0
40
0
40
0
40
0.314859192648749
40
0.314859192648749
40
0.531558880441061
40
0.531558880441061
40
0.682135903694806
40
0.682135903694806
40
0.839619845966524
40
0.839619845966524
40
0.903112673776014
40
0.903112673776014
40
0.967902128209815
40
0.967902128209815
40
1
40
1
40
1
40
1
41
1
10
22.7131182792311
20
-13.921665898277
30
0
41
1
10
22.6525680209989
20
-13.9602116899526
30
0
41
1
10
22.5910112376602
20
-13.9972454224959
30
0
41
1
10
22.4846449664753
20
-14.0550482934417
30
0
41
1
10
22.4405428700975
20
-14.0773426612791
30
0
41
1
10
22.364080304408
20
-14.1110143361548
30
0
41
1
10
22.3321797111844
20
-14.1236954332769
30
0
41
1
10
22.2656706755381
20
-14.1451124815192
30
0
41
1
10
22.230626120203
20
-14.154067177031
30
0
41
1
10
22.1807464678334
20
-14.1577338118142
30
0
41
1
10
22.1661668033887
20
-14.1576940461227
30
0
41
1
10
22.137458275706
20
-14.1536476413142
30
0
41
1
10
22.122902494425
20
-14.1494195751516
30
0
41
1
10
22.1040289246938
20
-14.1381850301709
30
0
41
1
10
22.0981404691122
20
-14.1335466012248
30
0
41
1
10
22.0930659118229
20
-14.1281959435366
30
0
0
SPLINE
5
268
100
AcDbEntity
8
1
62
256
6
ByLayer
370
-1
48
1
60
0
100
AcDbSpline
70
4
71
3
72
18
73
14
40
0
40
0
40
0
40
0
40
0.0414544517088114
40
0.0414544517088114
40
0.132910922468122
40
0.132910922468122
40
0.263177731540061
40
0.263177731540061
40
0.458562667326528
40
0.458562667326528
40
0.817425847463279
40
0.817425847463279
40
1
40
1
40
1
40
1
41
1
10
21.6645376899367
20
-13.6763520299601
30
0
41
1
10
21.6614046495577
20
-13.6730485247208
30
0
41
1
10
21.6585493619805
20
-13.6694510279619
30
0
41
1
10
21.6505042062255
20
-13.6573512125785
30
0
41
1
10
21.6464853290636
20
-13.6479244543428
30
0
41
1
10
21.6400194861669
20
-13.6245528199959
30
0
41
1
10
21.6387309655305
20
-13.6100520633065
30
0
41
1
10
21.6390812965272
20
-13.5743657601415
30
0
41
1
10
21.642415599018
20
-13.5529441658757
30
0
41
1
10
21.655791784678
20
-13.4937093661164
30
0
41
1
10
21.6692227134392
20
-13.4564516467777
30
0
41
1
10
21.6920748291486
20
-13.401739946929
30
0
41
1
10
21.7003207131625
20
-13.3834816527301
30
0
41
1
10
21.7089405050183
20
-13.3654155362336
30
0
0
SPLINE
5
269
100
AcDbEntity
8
1
62
256
6
ByLayer
370
-1
48
1
60
0
100
AcDbSpline
70
4
71
3
72
10
73
6
40
0
40
0
40
0
40
0
40
0.638746828356568
40
0.638746828356568
40
1
40
1
40
1
40
1
41
1
10
21.8343892020355
20
-13.2892516737644
30
0
41
1
10
21.9420374509429
20
-13.2212097051885
30
0
41
1
10
22.0530751267824
20
-13.1520525460075
30
0
41
1
10
22.2297904029304
20
-13.0430928105364
30
0
41
1
10
22.2943564729328
20
-13.003513249312
30
0
41
1
10
22.3594677408742
20
-12.9638214123954
30
0
0
SPLINE
5
26A
100
AcDbEntity
8
1
62
256
6
ByLayer
370
-1
48
1
60
0
100
AcDbSpline
70
4
71
3
72
12
73
8
40
0
40
0
40
0
40
0
40
0.197891272102656
40
0.197891272102656
40
0.598376100017378
40
0.598376100017378
40
1
40
1
40
1
40
1
41
1
10
18.643088181935
20
-18.8744368571186
30
0
41
1
10
18.6406619106922
20
-18.9159957618957
30
0
41
1
10
18.6383633667019
20
-18.957807241704
30
0
41
1
10
18.6317486846002
20
-19.0847997521583
30
0
41
1
10
18.6277697552683
20
-19.1705999837498
30
0
41
1
10
18.6205677692145
20
-19.3434251122705
30
0
41
1
10
18.6173460501069
20
-19.4305215744537
30
0
41
1
10
18.6145002076586
20
-19.5179938477128
30
0
0
SPLINE
5
26B
100
AcDbEntity
8
1
62
256
6
ByLayer
370
-1
48
1
60
0
100
AcDbSpline
70
4
71
3
72
14
73
10
40
0
40
0
40
0
40
0
40
0.249103078948829
40
0.249103078948829
40
0.498160925944185
40
0.498160925944185
40
0.745586162481416
40
0.745586162481416
40
1
40
1
40
1
40
1
41
1
10
14.8355209392558
20
-12.291008302396
30
0
41
1
10
14.8445805434206
20
-12.2753988102006
30
0
41
1
10
14.8539060451878
20
-12.259816730178
30
0
41
1
10
14.8726894957331
20
-12.229357563043
30
0
41
1
10
14.8822125311149
20
-12.214374643248
30
0
41
1
10
14.9010712527602
20
-12.1855976389627
30
0
41
1
10
14.9104710117955
20
-12.1716998408913
30
0
41
1
10
14.9291570043256
20
-12.1449738988449
30
0
41
1
10
14.9384986053632
20
-12.1320925546408
30
0
41
1
10
14.9475104078356
20
-12.1201558463204
30
0
0
SPLINE
5
26C
100
AcDbEntity
8
1
62
256
6
ByLayer
370
-1
48
1
60
0
100
AcDbSpline
70
4
71
3
72
14
73
10
40
0
40
0
40
0
40
0
40
0.233926408286312
40
0.233926408286312
40
0.467719442169531
40
0.467719442169531
40
0.701444004412118
40
0.701444004412118
40
1
40
1
40
1
40
1
41
1
10
22.547747565023
20
-12.5106057345014
30
0
41
1
10
22.5524126720496
20
-12.5217911380239
30
0
41
1
10
22.5577204885621
20
-12.5337922011644
30
0
41
1
10
22.5693641125112
20
-12.558871613688
30
0
41
1
10
22.5757399125793
20
-12.5720370504344
30
0
41
1
10
22.5893142539853
20
-12.5990563893608
30
0
41
1
10
22.5965577316698
20
-12.6130002572136
30
0
41
1
10
22.6137320826154
20
-12.6450760982067
30
0
41
1
10
22.6239434355361
20
-12.6634700097219
30
0
41
1
10
22.6344224074629
20
-12.681725417923
30
0
0
SPLINE
5
26D
100
AcDbEntity
8
1
62
256
6
ByLayer
370
-1
48
1
60
0
100
AcDbSpline
70
4
71
3
72
10
73
6
40
0
40
0
40
0
40
0
40
0.736240194588468
40
0.736240194588468
40
1
40
1
40
1
40
1
41
1
10
17.2324711443468
20
-9.45485061846517
30
0
41
1
10
17.2403600965543
20
-9.43971474534428
30
0
41
1
10
17.246366545719
20
-9.42031915136533
30
0
41
1
10
17.2478942468049
20
-9.38866525257015
30
0
41
1
10
17.2476409758951
20
-9.37964684088567
30
0
41
1
10
17.2465080095566
20
-9.37024340004723
30
0
0
SPLINE
5
26E
100
AcDbEntity
8
1
62
256
6
ByLayer
370
-1
48
1
60
0
100
AcDbSpline
70
4
71
3
72
8
73
4
40
0
40
0
40
0
40
0
40
1
40
1
40
1
40
1
41
1
10
10.6015870713589
20
-19.9952171124155
30
0
41
1
10
10.5957850254569
20
-19.9993226229282
30
0
41
1
10
10.5899830259293
20
-20.0034282259728
30
0
41
1
10
10.5841810705933
20
-20.0075339171853
30
0
0
SPLINE
5
26F
100
AcDbEntity
8
1
62
256
6
ByLayer
370
-1
48
1
60
0
100
AcDbSpline
70
4
71
3
72
8
73
4
40
0
40
0
40
0
40
0
40
1
40
1
40
1
40
1
41
1
10
11.7405062494784
20
-20.0228880975367
30
0
41
1
10
11.7406762585177
20
-20.0271638051898
30
0
41
1
10
11.7408462662698
20
-20.0314396040164
30
0
41
1
10
11.7410162727949
20
-20.0357154897166
30
0
0
SPLINE
5
270
100
AcDbEntity
8
1
62
256
6
ByLayer
370
-1
48
1
60
0
100
AcDbSpline
70
4
71
3
72
10
73
6
40
0
40
0
40
0
40
0
40
0.870856746088889
40
0.870856746088889
40
1
40
1
40
1
40
1
41
1
10
11.0996842916988
20
-20.0172210545436
30
0
41
1
10
11.1042227170705
20
-20.0094386949182
30
0
41
1
10
11.1065114310673
20
-20.001618267485
30
0
41
1
10
11.1070982402769
20
-19.9931209551341
30
0
41
1
10
11.1071362341012
20
-19.9920343947085
30
0
41
1
10
11.1071382255881
20
-19.9909543244786
30
0
0
SPLINE
5
271
100
AcDbEntity
8
1
62
256
6
ByLayer
370
-1
48
1
60
0
100
AcDbSpline
70
4
71
3
72
8
73
4
40
0
40
0
40
0
40
0
40
1
40
1
40
1
40
1
41
1
10
11.0922449755212
20
-20.0299781475582
30
0
41
1
10
11.0947247283434
20
-20.025725694732
30
0
41
1
10
11.097204500091
20
-20.0214733289575
30
0
41
1
10
11.0996842916988
20
-20.0172210545436
30
0
0
SPLINE
5
272
100
AcDbEntity
8
1
62
256
6
ByLayer
370
-1
48
1
60
0
100
AcDbSpline
70
4
71
3
72
24
73
20
40
0
40
0
40
0
40
0
40
0.104000448201769
40
0.104000448201769
40
0.192499055460994
40
0.192499055460994
40
0.328500518746673
40
0.328500518746673
40
0.438682575665389
40
0.438682575665389
40
0.548533158171894
40
0.548533158171894
40
0.658237202770017
40
0.658237202770017
40
0.767870673661237
40
0.767870673661237
40
0.988088331634844
40
0.988088331634844
40
1
40
1
40
1
40
1
41
1
10
11.7410162727949
20
-20.0357154897166
30
0
41
1
10
11.7400666349156
20
-20.0435401655997
30
0
41
1
10
11.7361592430609
20
-20.0512968571111
30
0
41
1
10
11.7242598388459
20
-20.0640487298774
30
0
41
1
10
11.7168690430289
20
-20.0694461623202
30
0
41
1
10
11.6953975997814
20
-20.0814078923069
30
0
41
1
10
11.6795760815088
20
-20.0873079839478
30
0
41
1
10
11.6493108683374
20
-20.0960142559985
30
0
41
1
10
11.6349318054442
20
-20.0992669335158
30
0
41
1
10
11.6056258959306
20
-20.1047780968707
30
0
41
1
10
11.5906058075966
20
-20.1070551285771
30
0
41
1
10
11.5603215419754
20
-20.1108843599604
30
0
41
1
10
11.5450017799741
20
-20.1124429014585
30
0
41
1
10
11.5142894430272
20
-20.1149953415813
30
0
41
1
10
11.4988596385883
20
-20.115991771047
30
0
41
1
10
11.4525582581519
20
-20.1182803141322
30
0
41
1
10
11.4215901386031
20
-20.1188846255572
30
0
41
1
10
11.3894306501832
20
-20.1186926147267
30
0
41
1
10
11.3877773408015
20
-20.1186803697197
30
0
41
1
10
11.3861251729154
20
-20.1186657589431
30
0
0
SPLINE
5
273
100
AcDbEntity
8
1
62
256
6
ByLayer
370
-1
48
1
60
0
100
AcDbSpline
70
4
71
3
72
22
73
18
40
0
40
0
40
0
40
0
40
0.208266363443438
40
0.208266363443438
40
0.317899168106055
40
0.317899168106055
40
0.427584739862339
40
0.427584739862339
40
0.537377253733373
40
0.537377253733373
40
0.647402228731245
40
0.647402228731245
40
0.811583680502421
40
0.811583680502421
40
0.906636022131528
40
0.906636022131528
40
1
40
1
40
1
40
1
41
1
10
11.3861251729154
20
-20.1186657589431
30
0
41
1
10
11.3573160419384
20
-20.1184109883601
30
0
41
1
10
11.3287645573309
20
-20.1174500541826
30
0
41
1
10
11.2862967639978
20
-20.1147671667209
30
0
41
1
10
11.2718064375431
20
-20.1136145381151
30
0
41
1
10
11.2433848974503
20
-20.1107802500447
30
0
41
1
10
11.2294215279004
20
-20.1090959410275
30
0
41
1
10
11.2023015229883
20
-20.1050652535526
30
0
41
1
10
11.1890998629229
20
-20.10271300531
30
0
41
1
10
11.1639270860439
20
-20.0971329407165
30
0
41
1
10
11.1518862806711
20
-20.0938896973315
30
0
41
1
10
11.1246036556157
20
-20.084380010045
30
0
41
1
10
11.1101422232903
20
-20.0772288581884
30
0
41
1
10
11.095152966335
20
-20.0629658322832
30
0
41
1
10
11.091279103215
20
-20.0569454403915
30
0
41
1
10
11.0883375194076
20
-20.0440505761759
30
0
41
1
10
11.0891864110579
20
-20.037024903383
30
0
41
1
10
11.0922449755209
20
-20.0299781475605
30
0
0
SPLINE
5
274
100
AcDbEntity
8
1
62
256
6
ByLayer
370
-1
48
1
60
0
100
AcDbSpline
70
4
71
3
72
10
73
6
40
0
40
0
40
0
40
0
40
0.680481829738502
40
0.680481829738502
40
1
40
1
40
1
40
1
41
1
10
12.3514453214489
20
-20.0106918036537
30
0
41
1
10
12.3436764468396
20
-20.0030154374554
30
0
41
1
10
12.3339021655888
20
-19.9954318482636
30
0
41
1
10
12.3181665619047
20
-19.9850375658324
30
0
41
1
10
12.31291336163
20
-19.9818075429848
30
0
41
1
10
12.307472029972
20
-19.9786672369442
30
0
0
SPLINE
5
275
100
AcDbEntity
8
1
62
256
6
ByLayer
370
-1
48
1
60
0
100
AcDbSpline
70
4
71
3
72
12
73
8
40
0
40
0
40
0
40
0
40
0.190335113103822
40
0.190335113103822
40
0.838836721110575
40
0.838836721110575
40
1
40
1
40
1
40
1
41
1
10
11.7716673806682
20
-19.9704279032477
30
0
41
1
10
11.7681157340149
20
-19.9733329036709
30
0
41
1
10
11.7647800144154
20
-19.9763304822825
30
0
41
1
10
11.7513258372579
20
-19.9898060220056
30
0
41
1
10
11.74361235025
20
-20.0014995690328
30
0
41
1
10
11.7406431241316
20
-20.016673506056
30
0
41
1
10
11.7403826213221
20
-20.0197788637257
30
0
41
1
10
11.7405062494782
20
-20.0228880975367
30
0
0
SPLINE
5
276
100
AcDbEntity
8
1
62
256
6
ByLayer
370
-1
48
1
60
0
100
AcDbSpline
70
4
71
3
72
8
73
4
40
0
40
0
40
0
40
0
40
1
40
1
40
1
40
1
41
1
10
12.3641799402543
20
-20.0232751538889
30
0
41
1
10
12.3599351000666
20
-20.0190806148748
30
0
41
1
10
12.3556902276619
20
-20.0148861633529
30
0
41
1
10
12.3514453214489
20
-20.0106918036538
30
0
0
SPLINE
5
277
100
AcDbEntity
8
1
62
256
6
ByLayer
370
-1
48
1
60
0
100
AcDbSpline
70
4
71
3
72
20
73
16
40
0
40
0
40
0
40
0
40
0.0608157493557137
40
0.0608157493557137
40
0.214920488749272
40
0.214920488749272
40
0.368561615651485
40
0.368561615651485
40
0.521997789162804
40
0.521997789162804
40
0.675335255652159
40
0.675335255652159
40
0.983339895798837
40
0.983339895798837
40
1
40
1
40
1
40
1
41
1
10
12.8301687674739
20
-20.0481307988589
30
0
41
1
10
12.8301928877695
20
-20.0500504571401
30
0
41
1
10
12.8299564924971
20
-20.0518624786427
30
0
41
1
10
12.8283214076754
20
-20.0579300920902
30
0
41
1
10
12.825695464964
20
-20.061699818523
30
0
41
1
10
12.818422772195
20
-20.0683249285552
30
0
41
1
10
12.8137567696242
20
-20.0712022804711
30
0
41
1
10
12.8029071184219
20
-20.0762870630685
30
0
41
1
10
12.7967037754348
20
-20.0785031331506
30
0
41
1
10
12.7830802588763
20
-20.0824109429617
30
0
41
1
10
12.7756433533842
20
-20.084106863307
30
0
41
1
10
12.7517535399772
20
-20.0885436996916
30
0
41
1
10
12.7336823419329
20
-20.0906504193825
30
0
41
1
10
12.7129168000678
20
-20.0920812327782
30
0
41
1
10
12.7118435354863
20
-20.092152595653
30
0
41
1
10
12.7107652952096
20
-20.0922217140915
30
0
0
SPLINE
5
278
100
AcDbEntity
8
1
62
256
6
ByLayer
370
-1
48
1
60
0
100
AcDbSpline
70
4
71
3
72
22
73
18
40
0
40
0
40
0
40
0
40
0.208266363442325
40
0.208266363442325
40
0.31789916810508
40
0.31789916810508
40
0.427584739861546
40
0.427584739861546
40
0.537377253732717
40
0.537377253732717
40
0.647402228730739
40
0.647402228730739
40
0.811583680502152
40
0.811583680502152
40
0.906636022131471
40
0.906636022131471
40
1
40
1
40
1
40
1
41
1
10
12.7107652952096
20
-20.0922217140915
30
0
41
1
10
12.6919638370688
20
-20.0934269439977
30
0
41
1
10
12.6716051100128
20
-20.093966996889
30
0
41
1
10
12.6384504713377
20
-20.0936066752537
30
0
41
1
10
12.6265974959397
20
-20.0932634482697
30
0
41
1
10
12.6021308281073
20
-20.0920548824517
30
0
41
1
10
12.5894897830604
20
-20.0911887231108
30
0
41
1
10
12.563453761726
20
-20.0887935517075
30
0
41
1
10
12.5500157742129
20
-20.087261378475
30
0
41
1
10
12.5224294835037
20
-20.0833064956736
30
0
41
1
10
12.5082027730052
20
-20.0808729220764
30
0
41
1
10
12.4723875178538
20
-20.0733099232123
30
0
41
1
10
12.4498858952667
20
-20.0673007825733
30
0
41
1
10
12.4160816254218
20
-20.0545496618734
30
0
41
1
10
12.4037847949418
20
-20.0490314992931
30
0
41
1
10
12.3819516212256
20
-20.03690928121
30
0
41
1
10
12.3721243011983
20
-20.03016565882
30
0
41
1
10
12.364179940255
20
-20.0232751538912
30
0
0
SPLINE
5
279
100
AcDbEntity
8
1
62
256
6
ByLayer
370
-1
48
1
60
0
100
AcDbSpline
70
4
71
3
72
24
73
20
40
0
40
0
40
0
40
0
40
0.104000448201589
40
0.104000448201589
40
0.192499055460718
40
0.192499055460718
40
0.328500518746286
40
0.328500518746286
40
0.438682575664872
40
0.438682575664872
40
0.548533158171217
40
0.548533158171217
40
0.658237202769235
40
0.658237202769235
40
0.76787067366027
40
0.76787067366027
40
0.988088331633419
40
0.988088331633419
40
1
40
1
40
1
40
1
41
1
10
10.5841810705933
20
-20.0075339171853
30
0
41
1
10
10.5728477431017
20
-20.0149859964983
30
0
41
1
10
10.5599274176716
20
-20.0222294420784
30
0
41
1
10
10.5356968061297
20
-20.0338755919426
30
0
41
1
10
10.5241613564345
20
-20.0386925668403
30
0
41
1
10
10.4959830658826
20
-20.0491293336794
30
0
41
1
10
10.4794127073993
20
-20.0540325829682
30
0
41
1
10
10.451766719843
20
-20.0609545393402
30
0
41
1
10
10.4400152417465
20
-20.0634013246498
30
0
41
1
10
10.4179848177584
20
-20.0673280829101
30
0
41
1
10
10.4076318919798
20
-20.0688214431691
30
0
41
1
10
10.3881992434648
20
-20.071114192965
30
0
41
1
10
10.3790836335901
20
-20.0719170975942
30
0
41
1
10
10.3619961588816
20
-20.0729905736417
30
0
41
1
10
10.3540037978014
20
-20.0732618896849
30
0
41
1
10
10.331593509778
20
-20.0734221009619
30
0
41
1
10
10.3186970018582
20
-20.0726661802223
30
0
41
1
10
10.307303098904
20
-20.0711220520159
30
0
41
1
10
10.3067230552247
20
-20.0710404678503
30
0
41
1
10
10.3061491276151
20
-20.0709567386353
30
0
0
SPLINE
5
27A
100
AcDbEntity
8
1
62
256
6
ByLayer
370
-1
48
1
60
0
100
AcDbSpline
70
4
71
3
72
14
73
10
40
0
40
0
40
0
40
0
40
0.447435525514808
40
0.447435525514808
40
0.682968574429567
40
0.682968574429567
40
0.918614987172653
40
0.918614987172653
40
1
40
1
40
1
40
1
41
1
10
10.3061491276151
20
-20.0709567386353
30
0
41
1
10
10.2961414547791
20
-20.069496738146
30
0
41
1
10
10.2879483635677
20
-20.0673935209114
30
0
41
1
10
10.2786341160621
20
-20.0630984512387
30
0
41
1
10
10.2759962791244
20
-20.0614120724332
30
0
41
1
10
10.2720401776457
20
-20.0575677085934
30
0
41
1
10
10.2707171087126
20
-20.0554059212663
30
0
41
1
10
10.2699869900481
20
-20.0521021779146
30
0
41
1
10
10.2698922748364
20
-20.0512184496387
30
0
41
1
10
10.2698980676548
20
-20.0502953090788
30
0
0
SPLINE
5
27B
100
AcDbEntity
8
1
62
256
6
ByLayer
370
-1
48
1
60
0
100
AcDbSpline
70
4
71
3
72
10
73
6
40
0
40
0
40
0
40
0
40
0.736240194588418
40
0.736240194588418
40
1
40
1
40
1
40
1
41
1
10
24.1218780704473
20
-16.7849469883642
30
0
41
1
10
24.1238209560103
20
-16.8027106734289
30
0
41
1
10
24.1304855667515
20
-16.8208716874985
30
0
41
1
10
24.1485426426917
20
-16.8418124534959
30
0
41
1
10
24.1542769813032
20
-16.847058490185
30
0
41
1
10
24.1609408461053
20
-16.8516477425988
30
0
0
SPLINE
5
27C
100
AcDbEntity
8
1
62
256
6
ByLayer
370
-1
48
1
60
0
100
AcDbSpline
70
4
71
3
72
14
73
10
40
0
40
0
40
0
40
0
40
0.249103078948826
40
0.249103078948826
40
0.498160925944216
40
0.498160925944216
40
0.745586162481426
40
0.745586162481426
40
1
40
1
40
1
40
1
41
1
10
22.9564885315244
20
-13.2427965424112
30
0
41
1
10
22.9654626186635
20
-13.2584302920863
30
0
41
1
10
22.9747026204537
20
-13.274085225223
30
0
41
1
10
22.9933186775002
20
-13.3047824830348
30
0
41
1
10
23.0027592378229
20
-13.3199314369491
30
0
41
1
10
23.0214592849627
20
-13.3491254145688
30
0
41
1
10
23.0307822745217
20
-13.3632749824119
30
0
41
1
10
23.0493203485771
20
-13.3905903571992
30
0
41
1
10
23.0585904975875
20
-13.4038136739792
30
0
41
1
10
23.067535920043
20
-13.4161285916377
30
0
0
SPLINE
5
27D
100
AcDbEntity
8
1
62
256
6
ByLayer
370
-1
48
1
60
0
100
AcDbSpline
70
4
71
3
72
14
73
10
40
0
40
0
40
0
40
0
40
0.233926408286291
40
0.233926408286291
40
0.467719442169609
40
0.467719442169609
40
0.701444004412189
40
0.701444004412189
40
1
40
1
40
1
40
1
41
1
10
18.9038528511152
20
-19.9103024152394
30
0
41
1
10
18.8891955131738
20
-19.9101431082632
30
0
41
1
10
18.8738211616944
20
-19.9100011321173
30
0
41
1
10
18.8423337831923
20
-19.9097572101902
30
0
41
1
10
18.826110906319
20
-19.90965437535
30
0
41
1
10
18.7933858818302
20
-19.90949015116
30
0
41
1
10
18.7767744659534
20
-19.909428189943
30
0
41
1
10
18.739157511206
20
-19.9093346288773
30
0
41
1
10
18.7180078684916
20
-19.9093156833746
30
0
41
1
10
18.6974181354365
20
-19.9093298460099
30
0
0
LINE
5
49
100
AcDbEntity
8
1
62
256
6
ByLayer
370
-1
48
1
60
0
100
AcDbLine
10
11.107138
20
-19.991182
30
0
11
11.107129
21
-19.975017
31
0
39
0
210
0
220
0
230
1
0
LINE
5
4B
100
AcDbEntity
8
1
62
256
6
ByLayer
370
-1
48
1
60
0
100
AcDbLine
10
11.375816
20
-19.20882
30
0
11
12.064545
21
-19.271338
31
0
39
0
210
0
220
0
230
1
0
LINE
5
4C
100
AcDbEntity
8
1
62
256
6
ByLayer
370
-1
48
1
60
0
100
AcDbLine
10
14.985191
20
-19.843905
30
0
11
15.740467
21
-19.912463
31
0
39
0
210
0
220
0
230
1
0
LINE
5
4D
100
AcDbEntity
8
1
62
256
6
ByLayer
370
-1
48
1
60
0
100
AcDbLine
10
13.14297
20
-19.405836
30
0
11
13.809447
21
-19.466334
31
0
39
0
210
0
220
0
230
1
0
LINE
5
4E
100
AcDbEntity
8
1
62
256
6
ByLayer
370
-1
48
1
60
0
100
AcDbLine
10
18.54979
20
-7.257196
30
0
11
17.861606
21
-7.194728
31
0
39
0
210
0
220
0
230
1
0
LINE
5
4F
100
AcDbEntity
8
1
62
256
6
ByLayer
370
-1
48
1
60
0
100
AcDbLine
10
17.962948
20
-8.416378
30
0
11
17.296826
21
-8.355912
31
0
39
0
210
0
220
0
230
1
0
LINE
5
50
100
AcDbEntity
8
1
62
256
6
ByLayer
370
-1
48
1
60
0
100
AcDbLine
10
18.957178
20
-12.448728
30
0
11
18.742127
21
-12.42744
31
0
39
0
210
0
220
0
230
1
0
LINE
5
51
100
AcDbEntity
8
1
62
256
6
ByLayer
370
-1
48
1
60
0
100
AcDbLine
10
18.205241
20
-17.850931
30
0
11
18.420293
21
-17.872219
31
0
39
0
210
0
220
0
230
1
0
LINE
5
52
100
AcDbEntity
8
1
62
256
6
ByLayer
370
-1
48
1
60
0
100
AcDbLine
10
17.475007
20
-14.107057
30
0
11
17.72216
21
-14.131523
31
0
39
0
210
0
220
0
230
1
0
LINE
5
53
100
AcDbEntity
8
1
62
256
6
ByLayer
370
-1
48
1
60
0
100
AcDbLine
10
17.776224
20
-16.186354
30
0
11
17.533565
21
-16.162333
31
0
39
0
210
0
220
0
230
1
0
LINE
5
54
100
AcDbEntity
8
1
62
256
6
ByLayer
370
-1
48
1
60
0
100
AcDbLine
10
19.31831
20
-14.106585
30
0
11
19.561322
21
-14.130641
31
0
39
0
210
0
220
0
230
1
0
LINE
5
55
100
AcDbEntity
8
1
62
256
6
ByLayer
370
-1
48
1
60
0
100
AcDbLine
10
19.62392
20
-16.186317
30
0
11
19.376869
21
-16.161861
31
0
39
0
210
0
220
0
230
1
0
LINE
5
56
100
AcDbEntity
8
80
62
256
6
ByLayer
370
-1
48
1
60
0
100
AcDbLine
10
0
20
0
30
0
11
-5
21
0
31
0
39
0
210
0
220
0
230
1
0
LINE
5
57
100
AcDbEntity
8
81
62
256
6
ByLayer
370
-1
48
1
60
0
100
AcDbLine
10
26.699398
20
-19.9125
30
0
11
31.699398
21
-19.9125
31
0
39
0
210
0
220
0
230
1
0
LINE
5
58
100
AcDbEntity
8
1
62
256
6
ByLayer
370
-1
48
1
60
0
100
AcDbLine
10
18.855166
20
-6.183827
30
0
11
19.90586
21
-8.041234
31
0
39
0
210
0
220
0
230
1
0
LINE
5
59
100
AcDbEntity
8
1
62
256
6
ByLayer
370
-1
48
1
60
0
100
AcDbLine
10
10.396484
20
-19.350341
30
0
11
6.912841
21
-19.350341
31
0
39
0
210
0
220
0
230
1
0
LINE
5
5A
100
AcDbEntity
8
1
62
256
6
ByLayer
370
-1
48
1
60
0
100
AcDbLine
10
16.566243
20
-8.557408
30
0
11
16.568
21
-8.749221
31
0
39
0
210
0
220
0
230
1
0
LINE
5
5B
100
AcDbEntity
8
1
62
256
6
ByLayer
370
-1
48
1
60
0
100
AcDbLine
10
5.600998
20
12.455833
30
0
11
23.203686
21
-4.535615
31
0
39
0
210
0
220
0
230
1
0
LINE
5
5C
100
AcDbEntity
8
1
62
256
6
ByLayer
370
-1
48
1
60
0
100
AcDbLine
10
3.982961
20
-16.420461
30
0
11
4.411459
21
12.456749
31
0
39
0
210
0
220
0
230
1
0
LINE
5
5D
100
AcDbEntity
8
1
62
256
6
ByLayer
370
-1
48
1
60
0
100
AcDbLine
10
11.982181
20
-16.771324
30
0
11
10.515565
21
-19.336916
31
0
39
0
210
0
220
0
230
1
0
LINE
5
5E
100
AcDbEntity
8
1
62
256
6
ByLayer
370
-1
48
1
60
0
100
AcDbLine
10
21.227039
20
-10.122268
30
0
11
21.726557
21
-10.34513
31
0
39
0
210
0
220
0
230
1
0
LINE
5
5F
100
AcDbEntity
8
1
62
256
6
ByLayer
370
-1
48
1
60
0
100
AcDbLine
10
12.386872
20
-16.159169
30
0
11
15.096543
21
-11.419064
31
0
39
0
210
0
220
0
230
1
0
LINE
5
60
100
AcDbEntity
8
1
62
256
6
ByLayer
370
-1
48
1
60
0
100
AcDbLine
10
10.396484
20
-19.350341
30
0
11
10.515565
21
-19.336916
31
0
39
0
210
0
220
0
230
1
0
LINE
5
61
100
AcDbEntity
8
1
62
256
6
ByLayer
370
-1
48
1
60
0
100
AcDbLine
10
21.941972
20
-10.345142
30
0
11
21.941449
21
-10.520271
31
0
39
0
210
0
220
0
230
1
0
LINE
5
62
100
AcDbEntity
8
1
62
256
6
ByLayer
370
-1
48
1
60
0
100
AcDbLine
10
0
20
-12.4375
30
0
11
0
21
12.4375
31
0
39
0
210
0
220
0
230
1
0
LINE
5
63
100
AcDbEntity
8
1
62
256
6
ByLayer
370
-1
48
1
60
0
100
AcDbLine
10
6.912841
20
-19.350341
30
0
11
3.982961
21
-16.420461
31
0
39
0
210
0
220
0
230
1
0
LINE
5
64
100
AcDbEntity
8
1
62
256
6
ByLayer
370
-1
48
1
60
0
100
AcDbLine
10
16.539223
20
-8.527894
30
0
11
16.566243
21
-8.557408
31
0
39
0
210
0
220
0
230
1
0
LINE
5
65
100
AcDbEntity
8
1
62
256
6
ByLayer
370
-1
48
1
60
0
100
AcDbLine
10
0
20
12.4375
30
0
11
4.411459
21
12.456749
31
0
39
0
210
0
220
0
230
1
0
LINE
5
66
100
AcDbEntity
8
1
62
256
6
ByLayer
370
-1
48
1
60
0
100
AcDbLine
10
3.982961
20
-16.420461
30
0
11
0
21
-12.4375
31
0
39
0
210
0
220
0
230
1
0
LINE
5
67
100
AcDbEntity
8
1
62
256
6
ByLayer
370
-1
48
1
60
0
100
AcDbLine
10
19.798865
20
-6.937376
30
0
11
21.726557
21
-10.34513
31
0
39
0
210
0
220
0
230
1
0
LINE
5
68
100
AcDbEntity
8
1
62
256
6
ByLayer
370
-1
48
1
60
0
100
AcDbLine
10
16.566243
20
-8.557408
30
0
11
10.396484
21
-19.350341
31
0
39
0
210
0
220
0
230
1
0
LINE
5
69
100
AcDbEntity
8
1
62
256
6
ByLayer
370
-1
48
1
60
0
100
AcDbLine
10
21.726557
20
-10.34513
30
0
11
23.186345
21
-10.34513
31
0
39
0
210
0
220
0
230
1
0
LINE
5
6A
100
AcDbEntity
8
1
62
256
6
ByLayer
370
-1
48
1
60
0
100
AcDbLine
10
23.186345
20
-10.34513
30
0
11
23.203686
21
-4.535615
31
0
39
0
210
0
220
0
230
1
0
LINE
5
6B
100
AcDbEntity
8
1
62
256
6
ByLayer
370
-1
48
1
60
0
100
AcDbLine
10
4.411459
20
12.456749
30
0
11
5.600998
21
12.455833
31
0
39
0
210
0
220
0
230
1
0
LINE
5
6C
100
AcDbEntity
8
1
62
256
6
ByLayer
370
-1
48
1
60
0
100
AcDbLine
10
15.447101
20
-10.710042
30
0
11
16.568
21
-8.749221
31
0
39
0
210
0
220
0
230
1
0
LINE
5
6D
100
AcDbEntity
8
1
62
256
6
ByLayer
370
-1
48
1
60
0
100
AcDbLine
10
21.339079
20
-10.320281
30
0
11
21.670837
21
-10.320281
31
0
39
0
210
0
220
0
230
1
0
LINE
5
6E
100
AcDbEntity
8
1
62
256
6
ByLayer
370
-1
48
1
60
0
100
AcDbLine
10
19.874241
20
-15.529845
30
0
11
19.855163
21
-15.523435
31
0
39
0
210
0
220
0
230
1
0
LINE
5
6F
100
AcDbEntity
8
1
62
256
6
ByLayer
370
-1
48
1
60
0
100
AcDbLine
10
18.805002
20
-16.586621
30
0
11
19.061141
21
-16.611977
31
0
39
0
210
0
220
0
230
1
0
LINE
5
70
100
AcDbEntity
8
1
62
256
6
ByLayer
370
-1
48
1
60
0
100
AcDbLine
10
19.855163
20
-15.523435
30
0
11
20.111302
21
-15.54879
31
0
39
0
210
0
220
0
230
1
0
LINE
5
71
100
AcDbEntity
8
1
62
256
6
ByLayer
370
-1
48
1
60
0
100
AcDbLine
10
19.874241
20
-15.529845
30
0
11
20.132424
21
-15.555403
31
0
39
0
210
0
220
0
230
1
0
LINE
5
72
100
AcDbEntity
8
1
62
256
6
ByLayer
370
-1
48
1
60
0
100
AcDbLine
10
19.857485
20
-14.745483
30
0
11
19.876602
21
-14.739072
31
0
39
0
210
0
220
0
230
1
0
LINE
5
73
100
AcDbEntity
8
1
62
256
6
ByLayer
370
-1
48
1
60
0
100
AcDbLine
10
19.857485
20
-14.745483
30
0
11
20.113624
21
-14.770839
31
0
39
0
210
0
220
0
230
1
0
LINE
5
74
100
AcDbEntity
8
1
62
256
6
ByLayer
370
-1
48
1
60
0
100
AcDbLine
10
19.876602
20
-14.739072
30
0
11
20.134785
21
-14.76463
31
0
39
0
210
0
220
0
230
1
0
LINE
5
75
100
AcDbEntity
8
1
62
256
6
ByLayer
370
-1
48
1
60
0
100
AcDbLine
10
18.809023
20
-16.606618
30
0
11
19.067206
21
-16.632176
31
0
39
0
210
0
220
0
230
1
0
LINE
5
76
100
AcDbEntity
8
1
62
256
6
ByLayer
370
-1
48
1
60
0
100
AcDbLine
10
18.813671
20
-13.682296
30
0
11
18.817811
21
-13.662299
31
0
39
0
210
0
220
0
230
1
0
LINE
5
77
100
AcDbEntity
8
1
62
256
6
ByLayer
370
-1
48
1
60
0
100
AcDbLine
10
18.809023
20
-16.606618
30
0
11
18.805002
21
-16.586621
31
0
39
0
210
0
220
0
230
1
0
LINE
5
78
100
AcDbEntity
8
1
62
256
6
ByLayer
370
-1
48
1
60
0
100
AcDbLine
10
17.438231
20
-16.203828
30
0
11
17.631916
21
-16.223001
31
0
39
0
210
0
220
0
230
1
0
LINE
5
79
100
AcDbEntity
8
1
62
256
6
ByLayer
370
-1
48
1
60
0
100
AcDbLine
10
18.813671
20
-13.682296
30
0
11
19.06981
21
-13.707652
31
0
39
0
210
0
220
0
230
1
0
LINE
5
7A
100
AcDbEntity
8
1
62
256
6
ByLayer
370
-1
48
1
60
0
100
AcDbLine
10
18.817811
20
-13.662299
30
0
11
19.075994
21
-13.687857
31
0
39
0
210
0
220
0
230
1
0
LINE
5
7B
100
AcDbEntity
8
1
62
256
6
ByLayer
370
-1
48
1
60
0
100
AcDbLine
10
17.505395
20
-14.083475
30
0
11
17.638263
21
-14.096628
31
0
39
0
210
0
220
0
230
1
0
LINE
5
7C
100
AcDbEntity
8
1
62
256
6
ByLayer
370
-1
48
1
60
0
100
AcDbLine
10
17.527503
20
-14.07356
30
0
11
17.625331
21
-14.083244
31
0
39
0
210
0
220
0
230
1
0
LINE
5
7D
100
AcDbEntity
8
1
62
256
6
ByLayer
370
-1
48
1
60
0
100
AcDbLine
10
17.463436
20
-16.2214
30
0
11
17.618902
21
-16.23679
31
0
39
0
210
0
220
0
230
1
0
LINE
5
7E
100
AcDbEntity
8
SK1
62
256
6
ByLayer
370
-1
48
1
60
0
100
AcDbLine
10
0
20
-12.4375
30
0
11
-144.650602
21
-12.4375
31
0
39
0
210
0
220
0
230
1
0
LINE
5
80
100
AcDbEntity
8
1
62
256
6
ByLayer
370
-1
48
1
60
0
100
AcDbLine
10
21.636933
20
-10.446006
30
0
11
21.410235
21
-10.446006
31
0
39
0
210
0
220
0
230
1
0
LINE
5
81
100
AcDbEntity
8
1
62
256
6
ByLayer
370
-1
48
1
60
0
100
AcDbLine
10
21.636933
20
-10.446006
30
0
11
22.141912
21
-10.610365
31
0
39
0
210
0
220
0
230
1
0
LINE
5
82
100
AcDbEntity
8
1
62
256
6
ByLayer
370
-1
48
1
60
0
100
AcDbLine
10
16.849236
20
-7.510008
30
0
11
17.624374
21
-7.510008
31
0
39
0
210
0
220
0
230
1
0
LINE
5
83
100
AcDbEntity
8
1
62
256
6
ByLayer
370
-1
48
1
60
0
100
AcDbLine
10
22.702771
20
-11.936282
30
0
11
22.703418
21
-11.63883
31
0
39
0
210
0
220
0
230
1
0
LINE
5
84
100
AcDbEntity
8
1
62
256
6
ByLayer
370
-1
48
1
60
0
100
AcDbLine
10
22.506497
20
-10.77471
30
0
11
21.596218
21
-10.77471
31
0
39
0
210
0
220
0
230
1
0
LINE
5
85
100
AcDbEntity
8
1
62
256
6
ByLayer
370
-1
48
1
60
0
100
AcDbLine
10
22.562942
20
-10.878238
30
0
11
21.654825
21
-10.878238
31
0
39
0
210
0
220
0
230
1
0
LINE
5
86
100
AcDbEntity
8
1
62
256
6
ByLayer
370
-1
48
1
60
0
100
AcDbLine
10
22.615876
20
-11.103819
30
0
11
21.782505
21
-11.103819
31
0
39
0
210
0
220
0
230
1
0
LINE
5
87
100
AcDbEntity
8
1
62
256
6
ByLayer
370
-1
48
1
60
0
100
AcDbLine
10
22.633012
20
-11.209854
30
0
11
21.842416
21
-11.209854
31
0
39
0
210
0
220
0
230
1
0
LINE
5
88
100
AcDbEntity
8
1
62
256
6
ByLayer
370
-1
48
1
60
0
100
AcDbLine
10
22.689737
20
-11.453508
30
0
11
21.980375
21
-11.453508
31
0
39
0
210
0
220
0
230
1
0
LINE
5
89
100
AcDbEntity
8
1
62
256
6
ByLayer
370
-1
48
1
60
0
100
AcDbLine
10
22.703418
20
-11.63883
30
0
11
22.085183
21
-11.63883
31
0
39
0
210
0
220
0
230
1
0
LINE
5
8A
100
AcDbEntity
8
1
62
256
6
ByLayer
370
-1
48
1
60
0
100
AcDbLine
10
22.630519
20
-12.35496
30
0
11
22.482791
21
-12.35496
31
0
39
0
210
0
220
0
230
1
0
LINE
5
8B
100
AcDbEntity
8
1
62
256
6
ByLayer
370
-1
48
1
60
0
100
AcDbLine
10
22.612928
20
-12.458488
30
0
11
22.612528
21
-12.64227
31
0
39
0
210
0
220
0
230
1
0
LINE
5
8C
100
AcDbEntity
8
1
62
256
6
ByLayer
370
-1
48
1
60
0
100
AcDbLine
10
22.612928
20
-12.458488
30
0
11
22.526002
21
-12.458488
31
0
39
0
210
0
220
0
230
1
0
LINE
5
8D
100
AcDbEntity
8
1
62
256
6
ByLayer
370
-1
48
1
60
0
100
AcDbLine
10
22.688288
20
-12.11957
30
0
11
22.35732
21
-12.11957
31
0
39
0
210
0
220
0
230
1
0
LINE
5
8E
100
AcDbEntity
8
1
62
256
6
ByLayer
370
-1
48
1
60
0
100
AcDbLine
10
22.702771
20
-11.936282
30
0
11
22.253601
21
-11.936282
31
0
39
0
210
0
220
0
230
1
0
LINE
5
8F
100
AcDbEntity
8
1
62
256
6
ByLayer
370
-1
48
1
60
0
100
AcDbLine
10
21.503244
20
-10.610365
30
0
11
22.141912
21
-10.610365
31
0
39
0
210
0
220
0
230
1
0
LINE
5
90
100
AcDbEntity
8
1
62
256
6
ByLayer
370
-1
48
1
60
0
100
AcDbLine
10
17.634511
20
-7.346464
30
0
11
16.323928
21
-7.346464
31
0
39
0
210
0
220
0
230
1
0
LINE
5
91
100
AcDbEntity
8
1
62
256
6
ByLayer
370
-1
48
1
60
0
100
AcDbLine
10
12.599806
20
-16.075368
30
0
11
12.885804
21
-15.750616
31
0
39
0
210
0
220
0
230
1
0
LINE
5
92
100
AcDbEntity
8
1
62
256
6
ByLayer
370
-1
48
1
60
0
100
AcDbLine
10
13.882565
20
-19.44972
30
0
11
14.088493
21
-19.326679
31
0
39
0
210
0
220
0
230
1
0
LINE
5
93
100
AcDbEntity
8
1
62
256
6
ByLayer
370
-1
48
1
60
0
100
AcDbLine
10
13.184136
20
-19.11298
30
0
11
13.757248
21
-19.449469
31
0
39
0
210
0
220
0
230
1
0
LINE
5
94
100
AcDbEntity
8
1
62
256
6
ByLayer
370
-1
48
1
60
0
100
AcDbLine
10
13.11313
20
-18.959091
30
0
11
13.119296
21
-19.012521
31
0
39
0
210
0
220
0
230
1
0
LINE
5
95
100
AcDbEntity
8
1
62
256
6
ByLayer
370
-1
48
1
60
0
100
AcDbLine
10
12.999077
20
-18.829738
30
0
11
13.048289
21
-18.858632
31
0
39
0
210
0
220
0
230
1
0
LINE
5
96
100
AcDbEntity
8
1
62
256
6
ByLayer
370
-1
48
1
60
0
100
AcDbLine
10
12.177036
20
-19.245779
30
0
11
12.873759
21
-18.829487
31
0
39
0
210
0
220
0
230
1
0
LINE
5
97
100
AcDbEntity
8
1
62
256
6
ByLayer
370
-1
48
1
60
0
100
AcDbLine
10
11.963067
20
-19.232961
30
0
11
11.98424
21
-19.245392
31
0
39
0
210
0
220
0
230
1
0
LINE
5
98
100
AcDbEntity
8
1
62
256
6
ByLayer
370
-1
48
1
60
0
100
AcDbLine
10
11.838528
20
-17.398507
30
0
11
12.162306
21
-16.79254
31
0
39
0
210
0
220
0
230
1
0
LINE
5
99
100
AcDbEntity
8
1
62
256
6
ByLayer
370
-1
48
1
60
0
100
AcDbLine
10
11.814964
20
-17.500106
30
0
11
11.862035
21
-19.060833
31
0
39
0
210
0
220
0
230
1
0
LINE
5
9A
100
AcDbEntity
8
1
62
256
6
ByLayer
370
-1
48
1
60
0
100
AcDbLine
10
12.973801
20
-15.620077
30
0
11
14.30457
21
-13.29106
31
0
39
0
210
0
220
0
230
1
0
LINE
5
9B
100
AcDbEntity
8
1
62
256
6
ByLayer
370
-1
48
1
60
0
100
AcDbLine
10
17.688405
20
-19.913257
30
0
11
15.758
21
-19.913257
31
0
39
0
210
0
220
0
230
1
0
LINE
5
9C
100
AcDbEntity
8
1
62
256
6
ByLayer
370
-1
48
1
60
0
100
AcDbLine
10
14.992318
20
-19.494692
30
0
11
15.659592
21
-19.886466
31
0
39
0
210
0
220
0
230
1
0
LINE
5
9D
100
AcDbEntity
8
1
62
256
6
ByLayer
370
-1
48
1
60
0
100
AcDbLine
10
12.2869
20
-17.620705
30
0
11
12.694581
21
-17.617316
31
0
39
0
210
0
220
0
230
1
0
LINE
5
9E
100
AcDbEntity
8
1
62
256
6
ByLayer
370
-1
48
1
60
0
100
AcDbLine
10
12.916333
20
-17.747513
30
0
11
13.12655
21
-18.113686
31
0
39
0
210
0
220
0
230
1
0
LINE
5
9F
100
AcDbEntity
8
1
62
256
6
ByLayer
370
-1
48
1
60
0
100
AcDbLine
10
11.923213
20
-17.87455
30
0
11
11.955736
21
-18.952903
31
0
39
0
210
0
220
0
230
1
0
LINE
5
A0
100
AcDbEntity
8
1
62
256
6
ByLayer
370
-1
48
1
60
0
100
AcDbLine
10
12.215881
20
-19.105641
30
0
11
13.110053
21
-18.571375
31
0
39
0
210
0
220
0
230
1
0
LINE
5
A1
100
AcDbEntity
8
1
62
256
6
ByLayer
370
-1
48
1
60
0
100
AcDbLine
10
18.410391
20
-18.554687
30
0
11
17.809681
21
-18.706647
31
0
39
0
210
0
220
0
230
1
0
LINE
5
A2
100
AcDbEntity
8
1
62
256
6
ByLayer
370
-1
48
1
60
0
100
AcDbLine
10
17.758413
20
-19.325176
30
0
11
17.778353
21
-19.912688
31
0
39
0
210
0
220
0
230
1
0
LINE
5
A3
100
AcDbEntity
8
1
62
256
6
ByLayer
370
-1
48
1
60
0
100
AcDbLine
10
14.772323
20
-19.371854
30
0
11
12.885804
21
-15.750616
31
0
39
0
210
0
220
0
230
1
0
LINE
5
A4
100
AcDbEntity
8
1
62
256
6
ByLayer
370
-1
48
1
60
0
100
AcDbLine
10
14.351985
20
-13.196531
30
0
11
15.260977
21
-13.263227
31
0
39
0
210
0
220
0
230
1
0
LINE
5
A5
100
AcDbEntity
8
1
62
256
6
ByLayer
370
-1
48
1
60
0
100
AcDbLine
10
15.260054
20
-13.361168
30
0
11
14.30457
21
-13.29106
31
0
39
0
210
0
220
0
230
1
0
LINE
5
A6
100
AcDbEntity
8
1
62
256
6
ByLayer
370
-1
48
1
60
0
100
AcDbLine
10
12.973801
20
-15.620077
30
0
11
14.992318
21
-19.494692
31
0
39
0
210
0
220
0
230
1
0
LINE
5
A7
100
AcDbEntity
8
1
62
256
6
ByLayer
370
-1
48
1
60
0
100
AcDbLine
10
17.688405
20
-19.913257
30
0
11
17.668588
21
-19.329378
31
0
39
0
210
0
220
0
230
1
0
LINE
5
A8
100
AcDbEntity
8
1
62
256
6
ByLayer
370
-1
48
1
60
0
100
AcDbLine
10
17.80394
20
-18.681413
30
0
11
18.40465
21
-18.529453
31
0
39
0
210
0
220
0
230
1
0
LINE
5
A9
100
AcDbEntity
8
1
62
256
6
ByLayer
370
-1
48
1
60
0
100
AcDbLine
10
12.599806
20
-16.075368
30
0
11
13.070277
21
-16.978454
31
0
39
0
210
0
220
0
230
1
0
LINE
5
AA
100
AcDbEntity
8
1
62
256
6
ByLayer
370
-1
48
1
60
0
100
AcDbLine
10
13.070277
20
-16.978454
30
0
11
14.40816
21
-19.19523
31
0
39
0
210
0
220
0
230
1
0
LINE
5
AB
100
AcDbEntity
8
1
62
256
6
ByLayer
370
-1
48
1
60
0
100
AcDbLine
10
12.776825
20
-17.15334
30
0
11
12.162306
21
-16.79254
31
0
39
0
210
0
220
0
230
1
0
LINE
5
AC
100
AcDbEntity
8
1
62
256
6
ByLayer
370
-1
48
1
60
0
100
AcDbLine
10
14.088493
20
-19.326679
30
0
11
12.776825
21
-17.15334
31
0
39
0
210
0
220
0
230
1
0
LINE
5
AD
100
AcDbEntity
8
1
62
256
6
ByLayer
370
-1
48
1
60
0
100
AcDbLine
10
12.188955
20
-16.744346
30
0
11
12.803474
21
-17.105146
31
0
39
0
210
0
220
0
230
1
0
LINE
5
AE
100
AcDbEntity
8
1
62
256
6
ByLayer
370
-1
48
1
60
0
100
AcDbLine
10
12.803474
20
-17.105146
30
0
11
12.41208
21
-16.35385
31
0
39
0
210
0
220
0
230
1
0
LINE
5
AF
100
AcDbEntity
8
1
62
256
6
ByLayer
370
-1
48
1
60
0
100
AcDbLine
10
18.064603
20
-19.909765
30
0
11
17.809681
21
-18.706647
31
0
39
0
210
0
220
0
230
1
0
LINE
5
B0
100
AcDbEntity
8
1
62
256
6
ByLayer
370
-1
48
1
60
0
100
AcDbLine
10
17.88254
20
-19.911005
30
0
11
17.758413
21
-19.325176
31
0
39
0
210
0
220
0
230
1
0
LINE
5
B1
100
AcDbEntity
8
1
62
256
6
ByLayer
370
-1
48
1
60
0
100
AcDbLine
10
18.6145
20
-19.517994
30
0
11
18.410391
21
-18.554687
31
0
39
0
210
0
220
0
230
1
0
LINE
5
B2
100
AcDbEntity
8
1
62
256
6
ByLayer
370
-1
48
1
60
0
100
AcDbLine
10
14.422769
20
-13.024274
30
0
11
15.260977
21
-13.263227
31
0
39
0
210
0
220
0
230
1
0
LINE
5
B3
100
AcDbEntity
8
1
62
256
6
ByLayer
370
-1
48
1
60
0
100
AcDbLine
10
14.510386
20
-12.851209
30
0
11
14.905412
21
-12.963821
31
0
39
0
210
0
220
0
230
1
0
LINE
5
B4
100
AcDbEntity
8
1
62
256
6
ByLayer
370
-1
48
1
60
0
100
AcDbLine
10
12.288647
20
-18.608133
30
0
11
12.88486
21
-18.251896
31
0
39
0
210
0
220
0
230
1
0
LINE
5
B5
100
AcDbEntity
8
1
62
256
6
ByLayer
370
-1
48
1
60
0
100
AcDbLine
10
12.266962
20
-17.889112
30
0
11
12.288647
21
-18.608133
31
0
39
0
210
0
220
0
230
1
0
LINE
5
B6
100
AcDbEntity
8
1
62
256
6
ByLayer
370
-1
48
1
60
0
100
AcDbLine
10
12.037223
20
-18.903568
30
0
11
12.184734
21
-18.604861
31
0
39
0
210
0
220
0
230
1
0
LINE
5
B7
100
AcDbEntity
8
1
62
256
6
ByLayer
370
-1
48
1
60
0
100
AcDbLine
10
12.184734
20
-18.604861
30
0
11
12.163049
21
-17.88584
31
0
39
0
210
0
220
0
230
1
0
LINE
5
B8
100
AcDbEntity
8
1
62
256
6
ByLayer
370
-1
48
1
60
0
100
AcDbLine
10
12.351194
20
-18.702595
30
0
11
12.203684
21
-19.001301
31
0
39
0
210
0
220
0
230
1
0
LINE
5
B9
100
AcDbEntity
8
1
62
256
6
ByLayer
370
-1
48
1
60
0
100
AcDbLine
10
12.947407
20
-18.346358
30
0
11
12.351194
21
-18.702595
31
0
39
0
210
0
220
0
230
1
0
LINE
5
BA
100
AcDbEntity
8
1
62
256
6
ByLayer
370
-1
48
1
60
0
100
AcDbLine
10
12.203684
20
-19.001301
30
0
11
12.215881
21
-19.105641
31
0
39
0
210
0
220
0
230
1
0
LINE
5
BB
100
AcDbEntity
8
1
62
256
6
ByLayer
370
-1
48
1
60
0
100
AcDbLine
10
11.955736
20
-18.952903
30
0
11
12.037223
21
-18.903568
31
0
39
0
210
0
220
0
230
1
0
LINE
5
BC
100
AcDbEntity
8
1
62
256
6
ByLayer
370
-1
48
1
60
0
100
AcDbLine
10
12.163049
20
-17.88584
30
0
11
11.923213
21
-17.87455
31
0
39
0
210
0
220
0
230
1
0
LINE
5
BD
100
AcDbEntity
8
1
62
256
6
ByLayer
370
-1
48
1
60
0
100
AcDbLine
10
12.88486
20
-18.251896
30
0
11
12.674643
21
-17.885723
31
0
39
0
210
0
220
0
230
1
0
LINE
5
BE
100
AcDbEntity
8
1
62
256
6
ByLayer
370
-1
48
1
60
0
100
AcDbLine
10
12.674643
20
-17.885723
30
0
11
12.266962
21
-17.889112
31
0
39
0
210
0
220
0
230
1
0
LINE
5
BF
100
AcDbEntity
8
1
62
256
6
ByLayer
370
-1
48
1
60
0
100
AcDbLine
10
13.110053
20
-18.571375
30
0
11
12.947407
21
-18.346358
31
0
39
0
210
0
220
0
230
1
0
LINE
5
C0
100
AcDbEntity
8
1
62
256
6
ByLayer
370
-1
48
1
60
0
100
AcDbLine
10
20.741524
20
-9.445771
30
0
11
21.025698
21
-9.787859
31
0
39
0
210
0
220
0
230
1
0
LINE
5
C1
100
AcDbEntity
8
1
62
256
6
ByLayer
370
-1
48
1
60
0
100
AcDbLine
10
17.24698
20
-8.881357
30
0
11
17.238133
21
-9.128514
31
0
39
0
210
0
220
0
230
1
0
LINE
5
C2
100
AcDbEntity
8
1
62
256
6
ByLayer
370
-1
48
1
60
0
100
AcDbLine
10
17.888216
20
-8.433342
30
0
11
17.313262
21
-8.769831
31
0
39
0
210
0
220
0
230
1
0
LINE
5
C3
100
AcDbEntity
8
1
62
256
6
ByLayer
370
-1
48
1
60
0
100
AcDbLine
10
18.050399
20
-8.44972
30
0
11
18.003838
21
-8.427561
31
0
39
0
210
0
220
0
230
1
0
LINE
5
C4
100
AcDbEntity
8
1
62
256
6
ByLayer
370
-1
48
1
60
0
100
AcDbLine
10
18.215391
20
-8.415045
30
0
11
18.166021
21
-8.443939
31
0
39
0
210
0
220
0
230
1
0
LINE
5
C5
100
AcDbEntity
8
1
62
256
6
ByLayer
370
-1
48
1
60
0
100
AcDbLine
10
18.311603
20
-7.467304
30
0
11
18.281674
21
-8.303519
31
0
39
0
210
0
220
0
230
1
0
LINE
5
C6
100
AcDbEntity
8
1
62
256
6
ByLayer
370
-1
48
1
60
0
100
AcDbLine
10
18.434817
20
-7.283295
30
0
11
18.413576
21
-7.295726
31
0
39
0
210
0
220
0
230
1
0
LINE
5
C7
100
AcDbEntity
8
1
62
256
6
ByLayer
370
-1
48
1
60
0
100
AcDbLine
10
19.987493
20
-8.121726
30
0
11
20.307964
21
-8.723816
31
0
39
0
210
0
220
0
230
1
0
LINE
5
C8
100
AcDbEntity
8
1
62
256
6
ByLayer
370
-1
48
1
60
0
100
AcDbLine
10
19.917561
20
-8.04815
30
0
11
18.627617
21
-7.282359
31
0
39
0
210
0
220
0
230
1
0
LINE
5
C9
100
AcDbEntity
8
1
62
256
6
ByLayer
370
-1
48
1
60
0
100
AcDbLine
10
21.112974
20
-9.920712
30
0
11
22.430993
21
-12.249729
31
0
39
0
210
0
220
0
230
1
0
LINE
5
CA
100
AcDbEntity
8
1
62
256
6
ByLayer
370
-1
48
1
60
0
100
AcDbLine
10
15.082324
20
-11.929893
30
0
11
16.052172
21
-10.232533
31
0
39
0
210
0
220
0
230
1
0
LINE
5
CB
100
AcDbEntity
8
1
62
256
6
ByLayer
370
-1
48
1
60
0
100
AcDbLine
10
16.793884
20
-9.767563
30
0
11
16.124465
21
-10.159337
31
0
39
0
210
0
220
0
230
1
0
LINE
5
CC
100
AcDbEntity
8
1
62
256
6
ByLayer
370
-1
48
1
60
0
100
AcDbLine
10
19.570957
20
-8.406223
30
0
11
19.358738
21
-8.771214
31
0
39
0
210
0
220
0
230
1
0
LINE
5
CD
100
AcDbEntity
8
1
62
256
6
ByLayer
370
-1
48
1
60
0
100
AcDbLine
10
19.136273
20
-8.90141
30
0
11
18.728607
21
-8.899203
31
0
39
0
210
0
220
0
230
1
0
LINE
5
CE
100
AcDbEntity
8
1
62
256
6
ByLayer
370
-1
48
1
60
0
100
AcDbLine
10
19.556958
20
-7.95081
30
0
11
18.665697
21
-7.421702
31
0
39
0
210
0
220
0
230
1
0
LINE
5
CF
100
AcDbEntity
8
1
62
256
6
ByLayer
370
-1
48
1
60
0
100
AcDbLine
10
18.404716
20
-7.57444
30
0
11
18.366304
21
-8.647634
31
0
39
0
210
0
220
0
230
1
0
LINE
5
D0
100
AcDbEntity
8
1
62
256
6
ByLayer
370
-1
48
1
60
0
100
AcDbLine
10
15.877802
20
-13.241027
30
0
11
16.049984
21
-12.637223
31
0
39
0
210
0
220
0
230
1
0
LINE
5
D1
100
AcDbEntity
8
1
62
256
6
ByLayer
370
-1
48
1
60
0
100
AcDbLine
10
15.538864
20
-12.288737
30
0
11
15.027709
21
-12.013928
31
0
39
0
210
0
220
0
230
1
0
LINE
5
D2
100
AcDbEntity
8
1
62
256
6
ByLayer
370
-1
48
1
60
0
100
AcDbLine
10
16.989051
20
-9.644726
30
0
11
21.025698
21
-9.787859
31
0
39
0
210
0
220
0
230
1
0
LINE
5
D3
100
AcDbEntity
8
1
62
256
6
ByLayer
370
-1
48
1
60
0
100
AcDbLine
10
22.477894
20
-12.343119
30
0
11
21.96432
21
-13.109187
31
0
39
0
210
0
220
0
230
1
0
LINE
5
D4
100
AcDbEntity
8
1
62
256
6
ByLayer
370
-1
48
1
60
0
100
AcDbLine
10
21.891152
20
-13.054977
30
0
11
22.430993
21
-12.249729
31
0
39
0
210
0
220
0
230
1
0
LINE
5
D5
100
AcDbEntity
8
1
62
256
6
ByLayer
370
-1
48
1
60
0
100
AcDbLine
10
21.112974
20
-9.920712
30
0
11
16.793884
21
-9.767563
31
0
39
0
210
0
220
0
230
1
0
LINE
5
D6
100
AcDbEntity
8
1
62
256
6
ByLayer
370
-1
48
1
60
0
100
AcDbLine
10
15.082324
20
-11.929893
30
0
11
15.590318
21
-12.203002
31
0
39
0
210
0
220
0
230
1
0
LINE
5
D7
100
AcDbEntity
8
1
62
256
6
ByLayer
370
-1
48
1
60
0
100
AcDbLine
10
16.075018
20
-12.644437
30
0
11
15.902836
21
-13.248241
31
0
39
0
210
0
220
0
230
1
0
LINE
5
D8
100
AcDbEntity
8
1
62
256
6
ByLayer
370
-1
48
1
60
0
100
AcDbLine
10
20.741524
20
-9.445771
30
0
11
19.734841
21
-9.410076
31
0
39
0
210
0
220
0
230
1
0
LINE
5
D9
100
AcDbEntity
8
1
62
256
6
ByLayer
370
-1
48
1
60
0
100
AcDbLine
10
19.734841
20
-9.410076
30
0
11
17.232471
21
-9.454851
31
0
39
0
210
0
220
0
230
1
0
LINE
5
DA
100
AcDbEntity
8
1
62
256
6
ByLayer
370
-1
48
1
60
0
100
AcDbLine
10
19.69147
20
-9.084616
30
0
11
20.307964
21
-8.723816
31
0
39
0
210
0
220
0
230
1
0
LINE
5
DB
100
AcDbEntity
8
1
62
256
6
ByLayer
370
-1
48
1
60
0
100
AcDbLine
10
17.238133
20
-9.128514
30
0
11
19.69147
21
-9.084616
31
0
39
0
210
0
220
0
230
1
0
LINE
5
DC
100
AcDbEntity
8
1
62
256
6
ByLayer
370
-1
48
1
60
0
100
AcDbLine
10
20.33435
20
-8.771856
30
0
11
19.717856
21
-9.132656
31
0
39
0
210
0
220
0
230
1
0
LINE
5
DD
100
AcDbEntity
8
1
62
256
6
ByLayer
370
-1
48
1
60
0
100
AcDbLine
10
19.717856
20
-9.132656
30
0
11
20.555336
21
-9.162352
31
0
39
0
210
0
220
0
230
1
0
LINE
5
DE
100
AcDbEntity
8
1
62
256
6
ByLayer
370
-1
48
1
60
0
100
AcDbLine
10
14.835521
20
-12.291008
30
0
11
16.049984
21
-12.637223
31
0
39
0
210
0
220
0
230
1
0
LINE
5
DF
100
AcDbEntity
8
1
62
256
6
ByLayer
370
-1
48
1
60
0
100
AcDbLine
10
14.94751
20
-12.120156
30
0
11
15.538864
21
-12.288737
31
0
39
0
210
0
220
0
230
1
0
LINE
5
E0
100
AcDbEntity
8
1
62
256
6
ByLayer
370
-1
48
1
60
0
100
AcDbLine
10
14.905412
20
-12.963821
30
0
11
15.877802
21
-13.241027
31
0
39
0
210
0
220
0
230
1
0
LINE
5
E1
100
AcDbEntity
8
1
62
256
6
ByLayer
370
-1
48
1
60
0
100
AcDbLine
10
22.547748
20
-12.510606
30
0
11
21.96432
21
-13.109187
31
0
39
0
210
0
220
0
230
1
0
LINE
5
E2
100
AcDbEntity
8
1
62
256
6
ByLayer
370
-1
48
1
60
0
100
AcDbLine
10
22.634422
20
-12.681725
30
0
11
22.359468
21
-12.963821
31
0
39
0
210
0
220
0
230
1
0
LINE
5
E3
100
AcDbEntity
8
1
62
256
6
ByLayer
370
-1
48
1
60
0
100
AcDbLine
10
18.735758
20
-7.912688
30
0
11
18.710146
21
-8.628269
31
0
39
0
210
0
220
0
230
1
0
LINE
5
E4
100
AcDbEntity
8
1
62
256
6
ByLayer
370
-1
48
1
60
0
100
AcDbLine
10
19.33003
20
-8.265485
30
0
11
18.735758
21
-7.912688
31
0
39
0
210
0
220
0
230
1
0
LINE
5
E5
100
AcDbEntity
8
1
62
256
6
ByLayer
370
-1
48
1
60
0
100
AcDbLine
10
18.652933
20
-7.524445
30
0
11
18.798819
21
-7.819153
31
0
39
0
210
0
220
0
230
1
0
LINE
5
E6
100
AcDbEntity
8
1
62
256
6
ByLayer
370
-1
48
1
60
0
100
AcDbLine
10
18.798819
20
-7.819153
30
0
11
19.393092
21
-8.17195
31
0
39
0
210
0
220
0
230
1
0
LINE
5
E7
100
AcDbEntity
8
1
62
256
6
ByLayer
370
-1
48
1
60
0
100
AcDbLine
10
18.631824
20
-7.916886
30
0
11
18.485938
21
-7.622178
31
0
39
0
210
0
220
0
230
1
0
LINE
5
E8
100
AcDbEntity
8
1
62
256
6
ByLayer
370
-1
48
1
60
0
100
AcDbLine
10
18.606212
20
-8.632467
30
0
11
18.631824
21
-7.916886
31
0
39
0
210
0
220
0
230
1
0
LINE
5
E9
100
AcDbEntity
8
1
62
256
6
ByLayer
370
-1
48
1
60
0
100
AcDbLine
10
18.485938
20
-7.622178
30
0
11
18.404716
21
-7.57444
31
0
39
0
210
0
220
0
230
1
0
LINE
5
EA
100
AcDbEntity
8
1
62
256
6
ByLayer
370
-1
48
1
60
0
100
AcDbLine
10
18.665697
20
-7.421702
30
0
11
18.652933
21
-7.524445
31
0
39
0
210
0
220
0
230
1
0
LINE
5
EB
100
AcDbEntity
8
1
62
256
6
ByLayer
370
-1
48
1
60
0
100
AcDbLine
10
19.393092
20
-8.17195
30
0
11
19.556958
21
-7.95081
31
0
39
0
210
0
220
0
230
1
0
LINE
5
EC
100
AcDbEntity
8
1
62
256
6
ByLayer
370
-1
48
1
60
0
100
AcDbLine
10
18.710146
20
-8.628269
30
0
11
19.117812
21
-8.630476
31
0
39
0
210
0
220
0
230
1
0
LINE
5
ED
100
AcDbEntity
8
1
62
256
6
ByLayer
370
-1
48
1
60
0
100
AcDbLine
10
19.117812
20
-8.630476
30
0
11
19.33003
21
-8.265485
31
0
39
0
210
0
220
0
230
1
0
LINE
5
EE
100
AcDbEntity
8
1
62
256
6
ByLayer
370
-1
48
1
60
0
100
AcDbLine
10
18.366304
20
-8.647634
30
0
11
18.606212
21
-8.632467
31
0
39
0
210
0
220
0
230
1
0
LINE
5
EF
100
AcDbEntity
8
1
62
256
6
ByLayer
370
-1
48
1
60
0
100
AcDbLine
10
17.88254
20
-19.911005
30
0
11
17.778353
21
-19.912688
31
0
39
0
210
0
220
0
230
1
0
LINE
5
F0
100
AcDbEntity
8
1
62
256
6
ByLayer
370
-1
48
1
60
0
100
AcDbLine
10
12.41208
20
-16.35385
30
0
11
12.188955
21
-16.744346
31
0
39
0
210
0
220
0
230
1
0
LINE
5
F1
100
AcDbEntity
8
1
62
256
6
ByLayer
370
-1
48
1
60
0
100
AcDbLine
10
14.351985
20
-13.196531
30
0
11
14.422769
21
-13.024274
31
0
39
0
210
0
220
0
230
1
0
LINE
5
F2
100
AcDbEntity
8
1
62
256
6
ByLayer
370
-1
48
1
60
0
100
AcDbLine
10
14.45807
20
-19.211363
30
0
11
14.772323
21
-19.371854
31
0
39
0
210
0
220
0
230
1
0
LINE
5
F3
100
AcDbEntity
8
1
62
256
6
ByLayer
370
-1
48
1
60
0
100
AcDbLine
10
11.273769
20
-19.170391
30
0
11
11.294942
21
-19.182822
31
0
39
0
210
0
220
0
230
1
0
LINE
5
F4
100
AcDbEntity
8
1
62
256
6
ByLayer
370
-1
48
1
60
0
100
AcDbLine
10
14.078174
20
-19.332858
30
0
11
14.904316
21
-19.817907
31
0
39
0
210
0
220
0
230
1
0
LINE
5
F5
100
AcDbEntity
8
1
62
256
6
ByLayer
370
-1
48
1
60
0
100
AcDbLine
10
12.51729
20
-19.052449
30
0
11
13.090402
21
-19.388937
31
0
39
0
210
0
220
0
230
1
0
LINE
5
F6
100
AcDbEntity
8
1
62
256
6
ByLayer
370
-1
48
1
60
0
100
AcDbLine
10
12.509224
20
-19.047295
30
0
11
12.51729
21
-19.052449
31
0
39
0
210
0
220
0
230
1
0
LINE
5
F7
100
AcDbEntity
8
1
62
256
6
ByLayer
370
-1
48
1
60
0
100
AcDbLine
10
15.736443
20
-10.203874
30
0
11
16.052172
21
-10.232533
31
0
39
0
210
0
220
0
230
1
0
LINE
5
F8
100
AcDbEntity
8
1
62
256
6
ByLayer
370
-1
48
1
60
0
100
AcDbLine
10
16.124465
20
-10.159337
30
0
11
15.779788
21
-10.12805
31
0
39
0
210
0
220
0
230
1
0
LINE
5
F9
100
AcDbEntity
8
1
62
256
6
ByLayer
370
-1
48
1
60
0
100
AcDbLine
10
22.305991
20
-19.903432
30
0
11
22.022279
21
-19.9121
31
0
39
0
210
0
220
0
230
1
0
LINE
5
FA
100
AcDbEntity
8
1
62
256
6
ByLayer
370
-1
48
1
60
0
100
AcDbLine
10
24.571289
20
-17.098352
30
0
11
24.354575
21
-16.972455
31
0
39
0
210
0
220
0
230
1
0
LINE
5
FB
100
AcDbEntity
8
1
62
256
6
ByLayer
370
-1
48
1
60
0
100
AcDbLine
10
24.634384
20
-17.883643
30
0
11
24.636226
21
-17.210665
31
0
39
0
210
0
220
0
230
1
0
LINE
5
FC
100
AcDbEntity
8
1
62
256
6
ByLayer
370
-1
48
1
60
0
100
AcDbLine
10
24.534177
20
-18.020335
30
0
11
24.578581
21
-17.989427
31
0
39
0
210
0
220
0
230
1
0
LINE
5
FD
100
AcDbEntity
8
1
62
256
6
ByLayer
370
-1
48
1
60
0
100
AcDbLine
10
24.478216
20
-18.183907
30
0
11
24.478375
21
-18.126119
31
0
39
0
210
0
220
0
230
1
0
LINE
5
FE
100
AcDbEntity
8
1
62
256
6
ByLayer
370
-1
48
1
60
0
100
AcDbLine
10
25.276371
20
-18.722172
30
0
11
24.543153
21
-18.29622
31
0
39
0
210
0
220
0
230
1
0
LINE
5
FF
100
AcDbEntity
8
1
62
256
6
ByLayer
370
-1
48
1
60
0
100
AcDbLine
10
25.376205
20
-18.919823
30
0
11
25.376273
21
-18.894961
31
0
39
0
210
0
220
0
230
1
0
LINE
5
100
100
AcDbEntity
8
1
62
256
6
ByLayer
370
-1
48
1
60
0
100
AcDbLine
10
23.806316
20
-19.902979
30
0
11
23.097999
21
-19.901041
31
0
39
0
210
0
220
0
230
1
0
LINE
5
101
100
AcDbEntity
8
1
62
256
6
ByLayer
370
-1
48
1
60
0
100
AcDbLine
10
23.909102
20
-19.875799
30
0
11
25.275359
21
-19.092063
31
0
39
0
210
0
220
0
230
1
0
LINE
5
102
100
AcDbEntity
8
1
62
256
6
ByLayer
370
-1
48
1
60
0
100
AcDbLine
10
21.885249
20
-19.913257
30
0
11
19.23646
21
-19.913257
31
0
39
0
210
0
220
0
230
1
0
LINE
5
103
100
AcDbEntity
8
1
62
256
6
ByLayer
370
-1
48
1
60
0
100
AcDbLine
10
23.201295
20
-13.610896
30
0
11
24.161852
21
-15.308256
31
0
39
0
210
0
220
0
230
1
0
LINE
5
104
100
AcDbEntity
8
1
62
256
6
ByLayer
370
-1
48
1
60
0
100
AcDbLine
10
24.185822
20
-16.191791
30
0
11
24.187966
21
-15.408243
31
0
39
0
210
0
220
0
230
1
0
LINE
5
105
100
AcDbEntity
8
1
62
256
6
ByLayer
370
-1
48
1
60
0
100
AcDbLine
10
23.771177
20
-19.395984
30
0
11
23.556178
21
-19.032609
31
0
39
0
210
0
220
0
230
1
0
LINE
5
106
100
AcDbEntity
8
1
62
256
6
ByLayer
370
-1
48
1
60
0
100
AcDbLine
10
23.556891
20
-18.772216
30
0
11
23.773876
21
-18.410023
31
0
39
0
210
0
220
0
230
1
0
LINE
5
107
100
AcDbEntity
8
1
62
256
6
ByLayer
370
-1
48
1
60
0
100
AcDbLine
10
24.186476
20
-19.600966
30
0
11
25.130464
21
-19.059459
31
0
39
0
210
0
220
0
230
1
0
LINE
5
108
100
AcDbEntity
8
1
62
256
6
ByLayer
370
-1
48
1
60
0
100
AcDbLine
10
25.1313
20
-18.753983
30
0
11
24.190291
21
-18.207317
31
0
39
0
210
0
220
0
230
1
0
LINE
5
109
100
AcDbEntity
8
1
62
256
6
ByLayer
370
-1
48
1
60
0
100
AcDbLine
10
21.682644
20
-13.658224
30
0
11
22.111172
21
-14.110068
31
0
39
0
210
0
220
0
230
1
0
LINE
5
10A
100
AcDbEntity
8
1
62
256
6
ByLayer
370
-1
48
1
60
0
100
AcDbLine
10
22.655929
20
-13.838426
30
0
11
23.147144
21
-13.525723
31
0
39
0
210
0
220
0
230
1
0
LINE
5
10B
100
AcDbEntity
8
1
62
256
6
ByLayer
370
-1
48
1
60
0
100
AcDbLine
10
24.172408
20
-16.433995
30
0
11
22.022279
21
-19.9121
31
0
39
0
210
0
220
0
230
1
0
LINE
5
10C
100
AcDbEntity
8
1
62
256
6
ByLayer
370
-1
48
1
60
0
100
AcDbLine
10
19.123327
20
-19.912688
30
0
11
18.727909
21
-19.079925
31
0
39
0
210
0
220
0
230
1
0
LINE
5
10D
100
AcDbEntity
8
1
62
256
6
ByLayer
370
-1
48
1
60
0
100
AcDbLine
10
18.820818
20
-19.037901
30
0
11
19.23646
21
-19.913257
31
0
39
0
210
0
220
0
230
1
0
LINE
5
10E
100
AcDbEntity
8
1
62
256
6
ByLayer
370
-1
48
1
60
0
100
AcDbLine
10
21.885249
20
-19.913257
30
0
11
24.185822
21
-16.191791
31
0
39
0
210
0
220
0
230
1
0
LINE
5
10F
100
AcDbEntity
8
1
62
256
6
ByLayer
370
-1
48
1
60
0
100
AcDbLine
10
23.201295
20
-13.610896
30
0
11
22.713118
21
-13.921666
31
0
39
0
210
0
220
0
230
1
0
LINE
5
110
100
AcDbEntity
8
1
62
256
6
ByLayer
370
-1
48
1
60
0
100
AcDbLine
10
22.093066
20
-14.128196
30
0
11
21.664538
21
-13.676352
31
0
39
0
210
0
220
0
230
1
0
LINE
5
111
100
AcDbEntity
8
1
62
256
6
ByLayer
370
-1
48
1
60
0
100
AcDbLine
10
22.305991
20
-19.903432
30
0
11
22.842203
21
-19.036042
31
0
39
0
210
0
220
0
230
1
0
LINE
5
112
100
AcDbEntity
8
1
62
256
6
ByLayer
370
-1
48
1
60
0
100
AcDbLine
10
22.842203
20
-19.036042
30
0
11
24.121878
21
-16.784947
31
0
39
0
210
0
220
0
230
1
0
LINE
5
113
100
AcDbEntity
8
1
62
256
6
ByLayer
370
-1
48
1
60
0
100
AcDbLine
10
23.099974
20
-19.179441
30
0
11
23.097999
21
-19.901041
31
0
39
0
210
0
220
0
230
1
0
LINE
5
114
100
AcDbEntity
8
1
62
256
6
ByLayer
370
-1
48
1
60
0
100
AcDbLine
10
24.354575
20
-16.972455
30
0
11
23.099974
21
-19.179441
31
0
39
0
210
0
220
0
230
1
0
LINE
5
115
100
AcDbEntity
8
1
62
256
6
ByLayer
370
-1
48
1
60
0
100
AcDbLine
10
23.042432
20
-19.900964
30
0
11
23.044407
21
-19.179364
31
0
39
0
210
0
220
0
230
1
0
LINE
5
116
100
AcDbEntity
8
1
62
256
6
ByLayer
370
-1
48
1
60
0
100
AcDbLine
10
23.044407
20
-19.179364
30
0
11
22.598321
21
-19.900964
31
0
39
0
210
0
220
0
230
1
0
LINE
5
117
100
AcDbEntity
8
1
62
256
6
ByLayer
370
-1
48
1
60
0
100
AcDbLine
10
22.956489
20
-13.242797
30
0
11
22.111172
21
-14.110068
31
0
39
0
210
0
220
0
230
1
0
LINE
5
118
100
AcDbEntity
8
1
62
256
6
ByLayer
370
-1
48
1
60
0
100
AcDbLine
10
23.067536
20
-13.416129
30
0
11
22.655929
21
-13.838426
31
0
39
0
210
0
220
0
230
1
0
LINE
5
119
100
AcDbEntity
8
1
62
256
6
ByLayer
370
-1
48
1
60
0
100
AcDbLine
10
22.359468
20
-12.963821
30
0
11
21.682644
21
-13.658224
31
0
39
0
210
0
220
0
230
1
0
LINE
5
11A
100
AcDbEntity
8
1
62
256
6
ByLayer
370
-1
48
1
60
0
100
AcDbLine
10
18.903853
20
-19.910302
30
0
11
18.727909
21
-19.079925
31
0
39
0
210
0
220
0
230
1
0
LINE
5
11B
100
AcDbEntity
8
1
62
256
6
ByLayer
370
-1
48
1
60
0
100
AcDbLine
10
18.697418
20
-19.90933
30
0
11
18.6145
21
-19.517994
31
0
39
0
210
0
220
0
230
1
0
LINE
5
11C
100
AcDbEntity
8
1
62
256
6
ByLayer
370
-1
48
1
60
0
100
AcDbLine
10
24.619699
20
-18.903459
30
0
11
23.992255
21
-18.538955
31
0
39
0
210
0
220
0
230
1
0
LINE
5
11D
100
AcDbEntity
8
1
62
256
6
ByLayer
370
-1
48
1
60
0
100
AcDbLine
10
23.990269
20
-19.264524
30
0
11
24.619699
21
-18.903459
31
0
39
0
210
0
220
0
230
1
0
LINE
5
11E
100
AcDbEntity
8
1
62
256
6
ByLayer
370
-1
48
1
60
0
100
AcDbLine
10
25.035333
20
-19.003655
30
0
11
24.675864
21
-19.001656
31
0
39
0
210
0
220
0
230
1
0
LINE
5
11F
100
AcDbEntity
8
1
62
256
6
ByLayer
370
-1
48
1
60
0
100
AcDbLine
10
24.675864
20
-19.001656
30
0
11
24.046435
21
-19.36272
31
0
39
0
210
0
220
0
230
1
0
LINE
5
120
100
AcDbEntity
8
1
62
256
6
ByLayer
370
-1
48
1
60
0
100
AcDbLine
10
24.676399
20
-18.806189
30
0
11
25.035868
21
-18.808189
31
0
39
0
210
0
220
0
230
1
0
LINE
5
121
100
AcDbEntity
8
1
62
256
6
ByLayer
370
-1
48
1
60
0
100
AcDbLine
10
24.048956
20
-18.441685
30
0
11
24.676399
21
-18.806189
31
0
39
0
210
0
220
0
230
1
0
LINE
5
122
100
AcDbEntity
8
1
62
256
6
ByLayer
370
-1
48
1
60
0
100
AcDbLine
10
25.035868
20
-18.808189
30
0
11
25.1313
21
-18.753983
31
0
39
0
210
0
220
0
230
1
0
LINE
5
123
100
AcDbEntity
8
1
62
256
6
ByLayer
370
-1
48
1
60
0
100
AcDbLine
10
25.130464
20
-19.059459
30
0
11
25.035333
21
-19.003655
31
0
39
0
210
0
220
0
230
1
0
LINE
5
124
100
AcDbEntity
8
1
62
256
6
ByLayer
370
-1
48
1
60
0
100
AcDbLine
10
24.046435
20
-19.36272
30
0
11
24.186476
21
-19.600966
31
0
39
0
210
0
220
0
230
1
0
LINE
5
125
100
AcDbEntity
8
1
62
256
6
ByLayer
370
-1
48
1
60
0
100
AcDbLine
10
23.992255
20
-18.538955
30
0
11
23.775271
21
-18.901148
31
0
39
0
210
0
220
0
230
1
0
LINE
5
126
100
AcDbEntity
8
1
62
256
6
ByLayer
370
-1
48
1
60
0
100
AcDbLine
10
23.775271
20
-18.901148
30
0
11
23.990269
21
-19.264524
31
0
39
0
210
0
220
0
230
1
0
LINE
5
127
100
AcDbEntity
8
1
62
256
6
ByLayer
370
-1
48
1
60
0
100
AcDbLine
10
24.190291
20
-18.207317
30
0
11
24.048956
21
-18.441685
31
0
39
0
210
0
220
0
230
1
0
LINE
5
128
100
AcDbEntity
8
1
62
256
6
ByLayer
370
-1
48
1
60
0
100
AcDbLine
10
14.510386
20
-12.851209
30
0
11
14.835521
21
-12.291008
31
0
39
0
210
0
220
0
230
1
0
LINE
5
129
100
AcDbEntity
8
1
62
256
6
ByLayer
370
-1
48
1
60
0
100
AcDbLine
10
14.94751
20
-12.120156
30
0
11
15.027709
21
-12.013928
31
0
39
0
210
0
220
0
230
1
0
LINE
5
12A
100
AcDbEntity
8
1
62
256
6
ByLayer
370
-1
48
1
60
0
100
AcDbLine
10
20.555336
20
-9.162352
30
0
11
20.33435
21
-8.771856
31
0
39
0
210
0
220
0
230
1
0
LINE
5
12B
100
AcDbEntity
8
1
62
256
6
ByLayer
370
-1
48
1
60
0
100
AcDbLine
10
22.477894
20
-12.343119
30
0
11
22.547748
21
-12.510606
31
0
39
0
210
0
220
0
230
1
0
LINE
5
12C
100
AcDbEntity
8
1
62
256
6
ByLayer
370
-1
48
1
60
0
100
AcDbLine
10
17.207391
20
-9.484235
30
0
11
16.989051
21
-9.644726
31
0
39
0
210
0
220
0
230
1
0
LINE
5
12D
100
AcDbEntity
8
1
62
256
6
ByLayer
370
-1
48
1
60
0
100
AcDbLine
10
17.553229
20
-8.354938
30
0
11
17.51736
21
-8.375931
31
0
39
0
210
0
220
0
230
1
0
LINE
5
12E
100
AcDbEntity
8
1
62
256
6
ByLayer
370
-1
48
1
60
0
100
AcDbLine
10
17.625332
20
-7.405009
30
0
11
17.617544
21
-8.243234
31
0
39
0
210
0
220
0
230
1
0
LINE
5
12F
100
AcDbEntity
8
1
62
256
6
ByLayer
370
-1
48
1
60
0
100
AcDbLine
10
17.745519
20
-7.220725
30
0
11
17.724279
21
-7.233156
31
0
39
0
210
0
220
0
230
1
0
LINE
5
130
100
AcDbEntity
8
1
62
256
6
ByLayer
370
-1
48
1
60
0
100
AcDbLine
10
17.888216
20
-8.433342
30
0
11
17.221369
21
-8.372811
31
0
39
0
210
0
220
0
230
1
0
LINE
5
131
100
AcDbEntity
8
1
62
256
6
ByLayer
370
-1
48
1
60
0
100
AcDbLine
10
17.313262
20
-8.769831
30
0
11
16.646416
21
-8.709299
31
0
39
0
210
0
220
0
230
1
0
LINE
5
132
100
AcDbEntity
8
1
62
256
6
ByLayer
370
-1
48
1
60
0
100
AcDbLine
10
17.24698
20
-8.881357
30
0
11
16.5821
21
-8.821004
31
0
39
0
210
0
220
0
230
1
0
LINE
5
133
100
AcDbEntity
8
1
62
256
6
ByLayer
370
-1
48
1
60
0
100
AcDbLine
10
17.246508
20
-9.370243
30
0
11
16.577562
21
-9.309521
31
0
39
0
210
0
220
0
230
1
0
LINE
5
134
100
AcDbEntity
8
1
62
256
6
ByLayer
370
-1
48
1
60
0
100
AcDbLine
10
17.207391
20
-9.484235
30
0
11
16.513246
21
-9.421226
31
0
39
0
210
0
220
0
230
1
0
LINE
5
135
100
AcDbEntity
8
1
62
256
6
ByLayer
370
-1
48
1
60
0
100
AcDbLine
10
18.434817
20
-7.283295
30
0
11
17.745519
21
-7.220725
31
0
39
0
210
0
220
0
230
1
0
LINE
5
136
100
AcDbEntity
8
1
62
256
6
ByLayer
370
-1
48
1
60
0
100
AcDbLine
10
18.413576
20
-7.295726
30
0
11
17.724279
21
-7.233156
31
0
39
0
210
0
220
0
230
1
0
LINE
5
137
100
AcDbEntity
8
1
62
256
6
ByLayer
370
-1
48
1
60
0
100
AcDbLine
10
18.311603
20
-7.467304
30
0
11
17.625332
21
-7.405009
31
0
39
0
210
0
220
0
230
1
0
LINE
5
138
100
AcDbEntity
8
1
62
256
6
ByLayer
370
-1
48
1
60
0
100
AcDbLine
10
18.281674
20
-8.303519
30
0
11
17.617544
21
-8.243234
31
0
39
0
210
0
220
0
230
1
0
LINE
5
139
100
AcDbEntity
8
1
62
256
6
ByLayer
370
-1
48
1
60
0
100
AcDbLine
10
18.215391
20
-8.415045
30
0
11
17.553229
21
-8.354938
31
0
39
0
210
0
220
0
230
1
0
LINE
5
13A
100
AcDbEntity
8
1
62
256
6
ByLayer
370
-1
48
1
60
0
100
AcDbLine
10
18.166021
20
-8.443939
30
0
11
18.008126
21
-8.429606
31
0
39
0
210
0
220
0
230
1
0
LINE
5
13B
100
AcDbEntity
8
1
62
256
6
ByLayer
370
-1
48
1
60
0
100
AcDbLine
10
14.45807
20
-19.211363
30
0
11
14.329686
21
-19.199709
31
0
39
0
210
0
220
0
230
1
0
LINE
5
13C
100
AcDbEntity
8
1
62
256
6
ByLayer
370
-1
48
1
60
0
100
AcDbLine
10
12.999077
20
-18.829738
30
0
11
12.893162
21
-18.820124
31
0
39
0
210
0
220
0
230
1
0
LINE
5
13D
100
AcDbEntity
8
1
62
256
6
ByLayer
370
-1
48
1
60
0
100
AcDbLine
10
13.048289
20
-18.858632
30
0
11
12.854431
21
-18.841035
31
0
39
0
210
0
220
0
230
1
0
LINE
5
13E
100
AcDbEntity
8
1
62
256
6
ByLayer
370
-1
48
1
60
0
100
AcDbLine
10
13.11313
20
-18.959091
30
0
11
12.717027
21
-18.923136
31
0
39
0
210
0
220
0
230
1
0
LINE
5
13F
100
AcDbEntity
8
1
62
256
6
ByLayer
370
-1
48
1
60
0
100
AcDbLine
10
13.119296
20
-19.012521
30
0
11
12.640215
21
-18.969034
31
0
39
0
210
0
220
0
230
1
0
LINE
5
140
100
AcDbEntity
8
1
62
256
6
ByLayer
370
-1
48
1
60
0
100
AcDbLine
10
13.184136
20
-19.11298
30
0
11
12.51729
21
-19.052449
31
0
39
0
210
0
220
0
230
1
0
LINE
5
141
100
AcDbEntity
8
1
62
256
6
ByLayer
370
-1
48
1
60
0
100
AcDbLine
10
13.757248
20
-19.449469
30
0
11
13.090402
21
-19.388937
31
0
39
0
210
0
220
0
230
1
0
LINE
5
142
100
AcDbEntity
8
1
62
256
6
ByLayer
370
-1
48
1
60
0
100
AcDbLine
10
15.659592
20
-19.886466
30
0
11
14.904316
21
-19.817907
31
0
39
0
210
0
220
0
230
1
0
LINE
5
143
100
AcDbEntity
8
1
62
256
6
ByLayer
370
-1
48
1
60
0
100
AcDbLine
10
11.862035
20
-19.060833
30
0
11
11.175763
21
-18.998539
31
0
39
0
210
0
220
0
230
1
0
LINE
5
144
100
AcDbEntity
8
1
62
256
6
ByLayer
370
-1
48
1
60
0
100
AcDbLine
10
11.963067
20
-19.232961
30
0
11
11.273769
21
-19.170391
31
0
39
0
210
0
220
0
230
1
0
LINE
5
145
100
AcDbEntity
8
1
62
256
6
ByLayer
370
-1
48
1
60
0
100
AcDbLine
10
11.98424
20
-19.245392
30
0
11
11.294942
21
-19.182822
31
0
39
0
210
0
220
0
230
1
0
LINE
5
146
100
AcDbEntity
8
1
62
256
6
ByLayer
370
-1
48
1
60
0
100
AcDbLine
10
11.838528
20
-17.398507
30
0
11
11.634247
21
-17.379963
31
0
39
0
210
0
220
0
230
1
0
LINE
5
147
100
AcDbEntity
8
1
62
256
6
ByLayer
370
-1
48
1
60
0
100
AcDbLine
10
11.577874
20
-17.478585
30
0
11
11.814964
21
-17.500106
31
0
39
0
210
0
220
0
230
1
0
LINE
5
148
100
AcDbEntity
8
1
62
256
6
ByLayer
370
-1
48
1
60
0
100
AcDbLine
10
16.513246
20
-9.421226
30
0
11
16.018227
21
-9.710933
31
0
39
0
210
0
220
0
230
1
0
LINE
5
149
100
AcDbEntity
8
1
62
256
6
ByLayer
370
-1
48
1
60
0
100
AcDbLine
10
16.5821
20
-8.821004
30
0
11
16.577562
21
-9.309521
31
0
39
0
210
0
220
0
230
1
0
LINE
5
14A
100
AcDbEntity
8
1
62
256
6
ByLayer
370
-1
48
1
60
0
100
AcDbLine
10
17.221369
20
-8.372811
30
0
11
16.646416
21
-8.709299
31
0
39
0
210
0
220
0
230
1
0
LINE
5
14B
100
AcDbEntity
8
1
62
256
6
ByLayer
370
-1
48
1
60
0
100
AcDbLine
10
11.172667
20
-18.187442
30
0
11
11.175763
21
-18.998539
31
0
39
0
210
0
220
0
230
1
0
LINE
5
14C
100
AcDbEntity
8
1
62
256
6
ByLayer
370
-1
48
1
60
0
100
AcDbLine
10
11.740477
20
-19.969505
30
0
11
11.740506
21
-20.022888
31
0
39
0
210
0
220
0
230
1
0
LINE
5
14D
100
AcDbEntity
8
1
62
256
6
ByLayer
370
-1
48
1
60
0
100
AcDbLine
10
10.584174
20
-19.994739
30
0
11
10.584181
21
-20.007534
31
0
39
0
210
0
220
0
230
1
0
LINE
5
14E
100
AcDbEntity
8
1
62
256
6
ByLayer
370
-1
48
1
60
0
100
AcDbLine
10
12.351428
20
-19.979512
30
0
11
12.351445
21
-20.010692
31
0
39
0
210
0
220
0
230
1
0
LINE
5
14F
100
AcDbEntity
8
1
62
256
6
ByLayer
370
-1
48
1
60
0
100
AcDbLine
10
12.364156
20
-19.979904
30
0
11
12.36418
21
-20.023275
31
0
39
0
210
0
220
0
230
1
0
LINE
5
150
100
AcDbEntity
8
1
62
256
6
ByLayer
370
-1
48
1
60
0
100
AcDbLine
10
10.601586
20
-19.993721
30
0
11
10.601587
21
-19.995217
31
0
39
0
210
0
220
0
230
1
0
LINE
5
151
100
AcDbEntity
8
1
62
256
6
ByLayer
370
-1
48
1
60
0
100
AcDbLine
10
16.412848
20
-8.274815
30
0
11
16.849236
21
-7.510008
31
0
39
0
210
0
220
0
230
1
0
LINE
5
152
100
AcDbEntity
8
SK1
62
256
6
ByLayer
370
-1
48
1
60
0
100
AcDbLine
10
0
20
-12.4375
30
0
11
0
21
12.4375
31
0
39
0
210
0
220
0
230
1
0
LINE
5
153
100
AcDbEntity
8
SK1
62
256
6
ByLayer
370
-1
48
1
60
0
100
AcDbLine
10
-144.650602
20
-12.4375
30
0
11
-144.650602
21
12.4375
31
0
39
0
210
0
220
0
230
1
0
LINE
5
154
100
AcDbEntity
8
SK1
62
256
6
ByLayer
370
-1
48
1
60
0
100
AcDbLine
10
-144.650602
20
12.4375
30
0
11
0
21
12.4375
31
0
39
0
210
0
220
0
230
1
0
LINE
5
155
100
AcDbEntity
8
1
62
256
6
ByLayer
370
-1
48
1
60
0
100
AcDbLine
10
19.123327
20
-19.912688
30
0
11
18.903853
21
-19.910302
31
0
39
0
210
0
220
0
230
1
0
LINE
5
156
100
AcDbEntity
8
1
62
256
6
ByLayer
370
-1
48
1
60
0
100
AcDbLine
10
22.634422
20
-12.681725
30
0
11
22.956489
21
-13.242797
31
0
39
0
210
0
220
0
230
1
0
LINE
5
157
100
AcDbEntity
8
1
62
256
6
ByLayer
370
-1
48
1
60
0
100
AcDbLine
10
22.598321
20
-19.900964
30
0
11
23.042432
21
-19.900964
31
0
39
0
210
0
220
0
230
1
0
LINE
5
158
100
AcDbEntity
8
1
62
256
6
ByLayer
370
-1
48
1
60
0
100
AcDbLine
10
18.697418
20
-19.90933
30
0
11
18.064603
21
-19.909765
31
0
39
0
210
0
220
0
230
1
0
LINE
5
159
100
AcDbEntity
8
1
62
256
6
ByLayer
370
-1
48
1
60
0
100
AcDbLine
10
23.067536
20
-13.416129
30
0
11
23.147144
21
-13.525723
31
0
39
0
210
0
220
0
230
1
0
LINE
5
15A
100
AcDbEntity
8
1
62
256
6
ByLayer
370
-1
48
1
60
0
100
AcDbLine
10
24.12317
20
-16.741801
30
0
11
24.172408
21
-16.433995
31
0
39
0
210
0
220
0
230
1
0
MTEXT
5
27E
100
AcDbEntity
8
SK6
62
256
6
ByLayer
370
-1
48
1
60
0
100
AcDbMText
10
-95.058735
20
-2.976702
30
0
210
0
220
0
230
1
1
\W00.724;\fsimplex.shx,bigfont.shx;266LFG-3225-16 
40
3.5
41
0
44
1.084337
50
0
71
7
72
5
7
DEFAULT
0
DIMENSION
5
2B1
100
AcDbEntity
8
2
62
256
6
ByLayer
370
-3
48
1
60
0
100
AcDbDimension
2
DimnDraft3D1
10
26.699398
20
-34.1625
30
0
11
10.720752
21
-34.1625
31
0
70
32
71
5
72
1
41
1
210
0
220
0
230
1
3
Standard
100
AcDbAlignedDimension
13
0
23
-13.9375
33
0
14
26.699398
24
-21.4125
34
0
50
0
100
AcDbRotatedDimension
1001
ACAD
1000
DSTYLE
1002
{
1070
   279
1070
     0
1070
   172
1070
     1
1070
   173
1070
     1
1070
   340
1005
27F
1070
   271
1070
     3
1070
   272
1070
     3
1070
    77
1070
     1
1070
    73
1070
     0
1070
   171
1070
     4
1070
   274
1070
     4
1070
   177
1070
     2
1070
   176
1070
     2
1070
   178
1070
     7
1070
    78
1070
     8
1070
    41
1041
3.0
1070
   147
1041
2.25
1070
    42
1041
1.5
1070
    44
1041
3.0
1070
   140
1041
4.5
1070
   343
1005
2B2
1070
   344
1005
2B2
1002
}
0
DIMENSION
5
2C7
100
AcDbEntity
8
SK2
62
256
6
ByLayer
370
-3
48
1
60
0
100
AcDbDimension
2
DimnDraft3D2
10
26.699398
20
-44.1625
30
0
11
-62.131523
21
-44.1625
31
0
70
32
71
5
72
1
41
1
210
0
220
0
230
1
3
Standard
100
AcDbAlignedDimension
13
-144.650602
23
-13.9375
33
0
14
26.699398
24
-21.4125
34
0
50
0
100
AcDbRotatedDimension
1001
ACAD
1000
DSTYLE
1002
{
1070
   279
1070
     0
1070
   172
1070
     1
1070
   173
1070
     1
1070
   340
1005
27F
1070
   271
1070
     3
1070
   272
1070
     3
1070
    77
1070
     1
1070
    73
1070
     0
1070
   171
1070
     4
1070
   274
1070
     4
1070
   177
1070
     2
1070
   176
1070
     2
1070
   178
1070
     7
1070
    78
1070
     8
1070
    41
1041
3.0
1070
   147
1041
2.25
1070
    42
1041
1.5
1070
    44
1041
3.0
1070
   140
1041
4.5
1070
   343
1005
2B2
1070
   344
1005
2B2
1002
}
0
DIMENSION
5
2D5
100
AcDbEntity
8
SK2
62
256
6
ByLayer
370
-3
48
1
60
0
100
AcDbDimension
2
DimnDraft3D3
10
-154.400602
20
-12.4375
30
0
11
-154.400602
21
-2.628947
31
0
70
32
71
5
72
1
41
1
210
0
220
0
230
1
3
Standard
100
AcDbAlignedDimension
13
-146.150602
23
12.4375
33
0
14
-146.150602
24
-12.4375
34
0
50
90
100
AcDbRotatedDimension
1001
ACAD
1000
DSTYLE
1002
{
1070
    74
1070
     0
1070
   279
1070
     0
1070
   172
1070
     1
1070
   173
1070
     1
1070
   340
1005
27F
1070
   271
1070
     3
1070
   272
1070
     3
1070
    77
1070
     1
1070
    73
1070
     0
1070
   171
1070
     4
1070
   274
1070
     4
1070
   177
1070
     2
1070
   176
1070
     2
1070
   178
1070
     7
1070
    78
1070
     8
1070
    41
1041
3.0
1070
   147
1041
2.25
1070
    42
1041
1.5
1070
    44
1041
3.0
1070
   140
1041
4.5
1070
   343
1005
2B2
1070
   344
1005
2B2
1002
}
0
DIMENSION
5
2E3
100
AcDbEntity
8
2
62
256
6
ByLayer
370
-3
48
1
60
0
100
AcDbDimension
2
DimnDraft3D4
10
40.949398
20
-19.9125
30
0
11
40.949398
21
-6.366447
31
0
70
32
71
5
72
1
41
1
210
0
220
0
230
1
3
Standard
100
AcDbAlignedDimension
13
1.5
23
12.4375
33
0
14
28.199398
24
-19.9125
34
0
50
90
100
AcDbRotatedDimension
1001
ACAD
1000
DSTYLE
1002
{
1070
    74
1070
     0
1070
   279
1070
     0
1070
   172
1070
     1
1070
   173
1070
     1
1070
   340
1005
27F
1070
   271
1070
     3
1070
   272
1070
     3
1070
    77
1070
     1
1070
    73
1070
     0
1070
   171
1070
     4
1070
   274
1070
     4
1070
   177
1070
     2
1070
   176
1070
     2
1070
   178
1070
     7
1070
    78
1070
     8
1070
    41
1041
3.0
1070
   147
1041
2.25
1070
    42
1041
1.5
1070
    44
1041
3.0
1070
   140
1041
4.5
1070
   343
1005
2B2
1070
   344
1005
2B2
1002
}
0
ENDSEC
0
SECTION
2
OBJECTS
0
DICTIONARY
5
313
330
0
100
AcDbDictionary
280
0
281
1
3
ACAD_GROUP
350
314
3
ACAD_MLINESTYLE
350
315
0
DICTIONARY
5
314
330
0
100
AcDbDictionary
280
0
281
1
0
DICTIONARY
5
315
330
0
100
AcDbDictionary
280
0
281
1
3
Standard
350
18
0
MLINESTYLE
5
18
330
315
100
AcDbMlineStyle
2
Standard
70
0
3

62
256
51
90
52
90
71
2
49
-0.5
62
256
6
ByLayer
49
0.5
62
256
6
ByLayer
0
RASTERVARIABLES
5
302
330

100
AcDbRasterVariables
90
0
70
1
71
1
72
1
0
ENDSEC
0
EOF
