0
SECTION
2
HEADER
9
$ACADVER
1
AC1015
9
$DWGCODEPAGE
3
ANSI_1252
9
$HANDSEED
5
31f
9
$ANGBASE
50
0
9
$ANGDIR
70
0
9
$ATTMODE
70
1
9
$AUNITS
70
0
9
$AUPREC
70
0
9
$CECOLOR
62
256
9
$CELTSCALE
40
1
9
$CELTYPE
6
ByLayer
9
$CELWEIGHT
370
-1
9
$CLAYER
8
0
9
$CMLJUST
70
0
9
$CMLSCALE
40
1
9
$CMLSTYLE
2
Standard
9
$DIMSTYLE
2
Standard
9
$TEXTSIZE
40
0.2
9
$TEXTSTYLE
7
Standard
9
$LUNITS
70
2
9
$LUPREC
70
4
9
$EXTNAMES
290
1
9
$INSUNITS
70
4
9
$LTSCALE
40
1
9
$LWDISPLAY
290
0
9
$PDMODE
70
0
9
$PDSIZE
40
0
9
$PLINEGEN
70
0
0
ENDSEC
0
SECTION
2
CLASSES
0
CLASS
1
RASTERVARIABLES
2
AcDbRasterVariables
3
ISM
90
0
280
0
281
0
0
ENDSEC
0
SECTION
2
TABLES
0
TABLE
2
VPORT
5
315
100
AcDbSymbolTable
0
VPORT
5
1
100
AcDbSymbolTableRecord
100
AcDbViewportTableRecord
2
*Active
70
0
10
0
20
0
11
1
21
1
12
-1
22
1
13
0
23
0
14
0.5
24
0.5
15
10
25
10
16
0
26
0
36
1
17
0
27
0
37
0
0
ENDTAB
0
TABLE
2
LTYPE
5
316
100
AcDbSymbolTable
0
LTYPE
5
14
100
AcDbSymbolTableRecord
100
AcDbLinetypeTableRecord
70
0
2
ByBlock
3

72
65
73
0
40
0
0
LTYPE
5
15
100
AcDbSymbolTableRecord
100
AcDbLinetypeTableRecord
70
0
2
ByLayer
3

72
65
73
0
40
0
0
LTYPE
5
16
100
AcDbSymbolTableRecord
100
AcDbLinetypeTableRecord
70
0
2
CONTINUOUS
3
Solid line
72
65
73
0
40
0
0
LTYPE
5
3B
100
AcDbSymbolTableRecord
100
AcDbLinetypeTableRecord
70
0
2
DASHED
3
__ __ __ __ __ __ __ __ __
72
65
73
2
40
25.72
49
12.86
74
0
49
-12.86
74
0
0
LTYPE
5
3C
100
AcDbSymbolTableRecord
100
AcDbLinetypeTableRecord
70
0
2
HIDDEN
3
_ _ _ _ _ _ _ _ _ _ _ _ _ _ _
72
65
73
2
40
0.5
49
0.25
74
0
49
-0.25
74
0
0
LTYPE
5
3D
100
AcDbSymbolTableRecord
100
AcDbLinetypeTableRecord
70
0
2
PHANTOM
3
____ _ _ ____ _ _ _____ _ _ ____
72
65
73
6
40
50.5
49
18
74
0
49
-6.5
74
0
49
6.5
74
0
49
-6.5
74
0
49
6.5
74
0
49
-6.5
74
0
0
LTYPE
5
3E
100
AcDbSymbolTableRecord
100
AcDbLinetypeTableRecord
70
0
2
CENTER
3
____ _ ____ _ ____ _ ____
72
65
73
4
40
47.5
49
22
74
0
49
-8.5
74
0
49
8.5
74
0
49
-8.5
74
0
0
LTYPE
5
3F
100
AcDbSymbolTableRecord
100
AcDbLinetypeTableRecord
70
0
2
DOT
3
.........................
72
65
73
2
40
10
49
0
74
0
49
-10
74
0
0
LTYPE
5
40
100
AcDbSymbolTableRecord
100
AcDbLinetypeTableRecord
70
0
2
DASHDOT
3
_._._._._._._._._._._._._._._._.
72
65
73
4
40
70
49
31
74
0
49
-13
74
0
49
13
74
0
49
-13
74
0
0
ENDTAB
0
TABLE
2
LAYER
5
317
100
AcDbSymbolTable
0
LAYER
5
10
100
AcDbSymbolTableRecord
100
AcDbLayerTableRecord
2
0
70
0
62
7
6
CONTINUOUS
290
1
370
-3
390
0
0
LAYER
5
42
100
AcDbSymbolTableRecord
100
AcDbLayerTableRecord
2
80
70
0
62
-6
6
CONTINUOUS
290
1
370
-3
390
0
0
LAYER
5
44
100
AcDbSymbolTableRecord
100
AcDbLayerTableRecord
2
81
70
0
62
-3
6
CONTINUOUS
290
1
370
-3
390
0
0
LAYER
5
46
100
AcDbSymbolTableRecord
100
AcDbLayerTableRecord
2
2
70
0
62
7
6
CONTINUOUS
290
1
370
-3
390
0
0
LAYER
5
4A
100
AcDbSymbolTableRecord
100
AcDbLayerTableRecord
2
1
70
0
62
4
6
CONTINUOUS
290
1
370
-3
390
0
0
LAYER
5
302
100
AcDbSymbolTableRecord
100
AcDbLayerTableRecord
2
SK1
70
0
62
4
6
CONTINUOUS
290
1
370
-3
390
0
0
LAYER
5
303
100
AcDbSymbolTableRecord
100
AcDbLayerTableRecord
2
SK6
70
0
62
5
6
CONTINUOUS
290
1
370
-3
390
0
0
LAYER
5
304
100
AcDbSymbolTableRecord
100
AcDbLayerTableRecord
2
SK2
70
0
62
7
6
CONTINUOUS
290
1
370
-3
390
0
0
ENDTAB
0
TABLE
2
STYLE
5
318
100
AcDbSymbolTable
0
STYLE
5
11
100
AcDbSymbolTableRecord
100
AcDbTextStyleTableRecord
2
Standard
3
txt
70
0
71
0
40
0
41
1
42
0
50
0
0
STYLE
5
27E
100
AcDbSymbolTableRecord
100
AcDbTextStyleTableRecord
2
DEFAULT
3
simplex.shx
70
0
71
0
40
0
41
1
42
0
50
0
0
STYLE
5
2A1
100
AcDbSymbolTableRecord
100
AcDbTextStyleTableRecord
2
DWGDirectTextStyle
3
SIMPLEX
70
0
71
0
40
0
41
1
42
0
50
0
0
ENDTAB
0
TABLE
2
DIMSTYLE
5
319
100
AcDbSymbolTable
100
AcDbDimStyleTable
0
DIMSTYLE
105
27
100
AcDbSymbolTableRecord
100
AcDbDimStyleTableRecord
2
Standard
70
0
3
<>
41
0.18
42
0.0625
44
0.18
140
0.18
147
0.09
73
0
74
0
77
1
271
2
275
0
278
52
280
0
340
11
0
ENDTAB
0
TABLE
2
VIEW
5
31a
100
AcDbSymbolTable
0
ENDTAB
0
TABLE
2
UCS
5
31b
100
AcDbSymbolTable
0
ENDTAB
0
TABLE
2
APPID
5
31c
100
AcDbSymbolTable
0
APPID
5
12
100
AcDbSymbolTableRecord
100
AcDbRegAppTableRecord
2
ACAD
70
0
0
ENDTAB
0
TABLE
2
BLOCK_RECORD
5
31d
100
AcDbSymbolTable
0
BLOCK_RECORD
5
1F
100
AcDbSymbolTableRecord
100
AcDbBlockTableRecord
2
*Model_Space
340
0
70
0
0
BLOCK_RECORD
5
1B
100
AcDbSymbolTableRecord
100
AcDbBlockTableRecord
2
*Paper_Space
340
0
70
0
0
BLOCK_RECORD
5
23
100
AcDbSymbolTableRecord
100
AcDbBlockTableRecord
2
*Paper_Space0
340
0
70
0
0
BLOCK_RECORD
5
2A3
100
AcDbSymbolTableRecord
100
AcDbBlockTableRecord
2
DimnDraft3D1
340
0
70
0
0
BLOCK_RECORD
5
2B1
100
AcDbSymbolTableRecord
100
AcDbBlockTableRecord
2
_CLOSED
340
0
70
0
0
BLOCK_RECORD
5
2B8
100
AcDbSymbolTableRecord
100
AcDbBlockTableRecord
2
DimnDraft3D2
340
0
70
0
0
BLOCK_RECORD
5
2C7
100
AcDbSymbolTableRecord
100
AcDbBlockTableRecord
2
DimnDraft3D3
340
0
70
0
0
BLOCK_RECORD
5
2D5
100
AcDbSymbolTableRecord
100
AcDbBlockTableRecord
2
DimnDraft3D4
340
0
70
0
0
ENDTAB
0
ENDSEC
0
SECTION
2
BLOCKS
0
BLOCK
5
20
100
AcDbEntity
8
0
100
AcDbBlockBegin
2
*Model_Space
70
0
10
0
20
0
30
0
3
*Model_Space
0
ENDBLK
5
21
100
AcDbEntity
8
0
100
AcDbBlockEnd
0
BLOCK
5
1C
100
AcDbEntity
8
0
100
AcDbBlockBegin
2
*Paper_Space
70
0
10
0
20
0
30
0
3
*Paper_Space
0
ENDBLK
5
1D
100
AcDbEntity
8
0
100
AcDbBlockEnd
0
BLOCK
5
24
100
AcDbEntity
8
0
100
AcDbBlockBegin
2
*Paper_Space0
70
0
10
0
20
0
30
0
3
*Paper_Space0
0
ENDBLK
5
25
100
AcDbEntity
8
0
100
AcDbBlockEnd
0
BLOCK
5
2AE
100
AcDbEntity
8
0
100
AcDbBlockBegin
2
DimnDraft3D1
70
0
10
0
20
0
30
0
3
DimnDraft3D1
0
MTEXT
5
2A4
100
AcDbEntity
8
2
62
256
6
ByLayer
370
-1
48
1
60
0
100
AcDbMText
10
10.845752
20
-28.5375
30
0
210
0
220
0
230
1
1
\W01.000;\fsimplex.shx,bigfont.shx;25 
40
4.5
41
0
44
1.084337
50
0
71
7
72
5
7
DEFAULT
0
LINE
5
2A5
100
AcDbEntity
8
2
62
256
6
ByLayer
370
-1
48
1
60
0
100
AcDbLine
10
0
20
-11.4375
30
0
11
0
21
-32.6625
31
0
39
0
210
0
220
0
230
1
0
LINE
5
2A6
100
AcDbEntity
8
2
62
256
6
ByLayer
370
-1
48
1
60
0
100
AcDbLine
10
24.699398
20
-16.9125
30
0
11
24.699398
21
-32.6625
31
0
39
0
210
0
220
0
230
1
0
LINE
5
2A7
100
AcDbEntity
8
2
62
256
6
ByLayer
370
-1
48
1
60
0
100
AcDbLine
10
0
20
-29.6625
30
0
11
24.699398
21
-29.6625
31
0
39
0
210
0
220
0
230
1
0
LINE
5
2A8
100
AcDbEntity
8
2
62
256
6
ByLayer
370
-1
48
1
60
0
100
AcDbLine
10
0
20
-29.6625
30
0
11
2.999999
21
-29.267543
31
0
39
0
210
0
220
0
230
1
0
LINE
5
2A9
100
AcDbEntity
8
2
62
256
6
ByLayer
370
-1
48
1
60
0
100
AcDbLine
10
0
20
-29.6625
30
0
11
3.000001
21
-30.057457
31
0
39
0
210
0
220
0
230
1
0
LINE
5
2AA
100
AcDbEntity
8
2
62
256
6
ByLayer
370
-1
48
1
60
0
100
AcDbLine
10
2.999999
20
-29.267543
30
0
11
3.000001
21
-30.057457
31
0
39
0
210
0
220
0
230
1
0
LINE
5
2AB
100
AcDbEntity
8
2
62
256
6
ByLayer
370
-1
48
1
60
0
100
AcDbLine
10
24.699398
20
-29.6625
30
0
11
21.699399
21
-30.057457
31
0
39
0
210
0
220
0
230
1
0
LINE
5
2AC
100
AcDbEntity
8
2
62
256
6
ByLayer
370
-1
48
1
60
0
100
AcDbLine
10
24.699398
20
-29.6625
30
0
11
21.699397
21
-29.267543
31
0
39
0
210
0
220
0
230
1
0
LINE
5
2AD
100
AcDbEntity
8
2
62
256
6
ByLayer
370
-1
48
1
60
0
100
AcDbLine
10
21.699399
20
-30.057457
30
0
11
21.699397
21
-29.267543
31
0
39
0
210
0
220
0
230
1
0
ENDBLK
5
2AF
100
AcDbEntity
8
0
100
AcDbBlockEnd
0
BLOCK
5
2B2
100
AcDbEntity
8
0
100
AcDbBlockBegin
2
_CLOSED
70
0
10
0
20
0
30
0
3
_CLOSED
0
LINE
5
2B4
100
AcDbEntity
8
0
62
256
6
ByLayer
370
-2
48
1
60
0
100
AcDbLine
10
-1
20
0.166667
30
0
11
0
21
0
31
0
39
0
210
0
220
0
230
1
0
LINE
5
2B5
100
AcDbEntity
8
0
62
256
6
ByLayer
370
-2
48
1
60
0
100
AcDbLine
10
0
20
0
30
0
11
-1
21
-0.166667
31
0
39
0
210
0
220
0
230
1
0
LINE
5
2B6
100
AcDbEntity
8
0
62
256
6
ByLayer
370
-2
48
1
60
0
100
AcDbLine
10
-1
20
0.166667
30
0
11
-1
21
-0.166667
31
0
39
0
210
0
220
0
230
1
0
LINE
5
2B7
100
AcDbEntity
8
0
62
256
6
ByLayer
370
-2
48
1
60
0
100
AcDbLine
10
0
20
0
30
0
11
-1
21
0
31
0
39
0
210
0
220
0
230
1
0
ENDBLK
5
2B3
100
AcDbEntity
8
0
100
AcDbBlockEnd
0
BLOCK
5
2C4
100
AcDbEntity
8
0
100
AcDbBlockBegin
2
DimnDraft3D2
70
0
10
0
20
0
30
0
3
DimnDraft3D2
0
MTEXT
5
2B9
100
AcDbEntity
8
SK2
62
256
6
ByLayer
370
-1
48
1
60
0
100
AcDbMText
10
-41.069023
20
-38.5375
30
0
210
0
220
0
230
1
1
\W01.000;\fsimplex.shx,bigfont.shx;126 
40
4.5
41
0
44
1.084337
50
0
71
7
72
5
7
DEFAULT
0
LINE
5
2BB
100
AcDbEntity
8
SK2
62
256
6
ByLayer
370
-1
48
1
60
0
100
AcDbLine
10
-101.650602
20
-11.4375
30
0
11
-101.650602
21
-42.6625
31
0
39
0
210
0
220
0
230
1
0
LINE
5
2BC
100
AcDbEntity
8
SK2
62
256
6
ByLayer
370
-1
48
1
60
0
100
AcDbLine
10
24.699398
20
-16.9125
30
0
11
24.699398
21
-42.6625
31
0
39
0
210
0
220
0
230
1
0
LINE
5
2BD
100
AcDbEntity
8
SK2
62
256
6
ByLayer
370
-1
48
1
60
0
100
AcDbLine
10
-101.650602
20
-39.6625
30
0
11
24.699398
21
-39.6625
31
0
39
0
210
0
220
0
230
1
0
LINE
5
2BE
100
AcDbEntity
8
SK2
62
256
6
ByLayer
370
-1
48
1
60
0
100
AcDbLine
10
-101.650602
20
-39.6625
30
0
11
-98.650603
21
-39.267543
31
0
39
0
210
0
220
0
230
1
0
LINE
5
2BF
100
AcDbEntity
8
SK2
62
256
6
ByLayer
370
-1
48
1
60
0
100
AcDbLine
10
-101.650602
20
-39.6625
30
0
11
-98.650601
21
-40.057457
31
0
39
0
210
0
220
0
230
1
0
LINE
5
2C0
100
AcDbEntity
8
SK2
62
256
6
ByLayer
370
-1
48
1
60
0
100
AcDbLine
10
-98.650603
20
-39.267543
30
0
11
-98.650601
21
-40.057457
31
0
39
0
210
0
220
0
230
1
0
LINE
5
2C1
100
AcDbEntity
8
SK2
62
256
6
ByLayer
370
-1
48
1
60
0
100
AcDbLine
10
24.699398
20
-39.6625
30
0
11
21.699399
21
-40.057457
31
0
39
0
210
0
220
0
230
1
0
LINE
5
2C2
100
AcDbEntity
8
SK2
62
256
6
ByLayer
370
-1
48
1
60
0
100
AcDbLine
10
24.699398
20
-39.6625
30
0
11
21.699397
21
-39.267543
31
0
39
0
210
0
220
0
230
1
0
LINE
5
2C3
100
AcDbEntity
8
SK2
62
256
6
ByLayer
370
-1
48
1
60
0
100
AcDbLine
10
21.699399
20
-40.057457
30
0
11
21.699397
21
-39.267543
31
0
39
0
210
0
220
0
230
1
0
ENDBLK
5
2C5
100
AcDbEntity
8
0
100
AcDbBlockEnd
0
BLOCK
5
2D2
100
AcDbEntity
8
0
100
AcDbBlockBegin
2
DimnDraft3D3
70
0
10
0
20
0
30
0
3
DimnDraft3D3
0
MTEXT
5
2C8
100
AcDbEntity
8
SK2
62
256
6
ByLayer
370
-1
48
1
60
0
100
AcDbMText
10
-112.525602
20
-1.503947
30
0
210
0
220
0
230
1
1
\W01.000;\fsimplex.shx,bigfont.shx;20 
40
4.5
41
0
44
1.084337
50
90
71
7
72
5
7
DEFAULT
0
LINE
5
2C9
100
AcDbEntity
8
SK2
62
256
6
ByLayer
370
-1
48
1
60
0
100
AcDbLine
10
-103.150602
20
9.9375
30
0
11
-114.400602
21
9.9375
31
0
39
0
210
0
220
0
230
1
0
LINE
5
2CA
100
AcDbEntity
8
SK2
62
256
6
ByLayer
370
-1
48
1
60
0
100
AcDbLine
10
-103.150602
20
-9.9375
30
0
11
-114.400602
21
-9.9375
31
0
39
0
210
0
220
0
230
1
0
LINE
5
2CB
100
AcDbEntity
8
SK2
62
256
6
ByLayer
370
-1
48
1
60
0
100
AcDbLine
10
-111.400602
20
9.9375
30
0
11
-111.400602
21
-9.9375
31
0
39
0
210
0
220
0
230
1
0
LINE
5
2CC
100
AcDbEntity
8
SK2
62
256
6
ByLayer
370
-1
48
1
60
0
100
AcDbLine
10
-111.400602
20
9.9375
30
0
11
-111.005644
21
6.937501
31
0
39
0
210
0
220
0
230
1
0
LINE
5
2CD
100
AcDbEntity
8
SK2
62
256
6
ByLayer
370
-1
48
1
60
0
100
AcDbLine
10
-111.400602
20
9.9375
30
0
11
-111.795559
21
6.937499
31
0
39
0
210
0
220
0
230
1
0
LINE
5
2CE
100
AcDbEntity
8
SK2
62
256
6
ByLayer
370
-1
48
1
60
0
100
AcDbLine
10
-111.005644
20
6.937501
30
0
11
-111.795559
21
6.937499
31
0
39
0
210
0
220
0
230
1
0
LINE
5
2CF
100
AcDbEntity
8
SK2
62
256
6
ByLayer
370
-1
48
1
60
0
100
AcDbLine
10
-111.400602
20
-9.9375
30
0
11
-111.795559
21
-6.937501
31
0
39
0
210
0
220
0
230
1
0
LINE
5
2D0
100
AcDbEntity
8
SK2
62
256
6
ByLayer
370
-1
48
1
60
0
100
AcDbLine
10
-111.400602
20
-9.9375
30
0
11
-111.005644
21
-6.937499
31
0
39
0
210
0
220
0
230
1
0
LINE
5
2D1
100
AcDbEntity
8
SK2
62
256
6
ByLayer
370
-1
48
1
60
0
100
AcDbLine
10
-111.795559
20
-6.937501
30
0
11
-111.005644
21
-6.937499
31
0
39
0
210
0
220
0
230
1
0
ENDBLK
5
2D3
100
AcDbEntity
8
0
100
AcDbBlockEnd
0
BLOCK
5
2E0
100
AcDbEntity
8
0
100
AcDbBlockBegin
2
DimnDraft3D4
70
0
10
0
20
0
30
0
3
DimnDraft3D4
0
MTEXT
5
2D6
100
AcDbEntity
8
2
62
256
6
ByLayer
370
-1
48
1
60
0
100
AcDbMText
10
37.824398
20
-4.241447
30
0
210
0
220
0
230
1
1
\W01.000;\fsimplex.shx,bigfont.shx;25 
40
4.5
41
0
44
1.084337
50
90
71
7
72
5
7
DEFAULT
0
LINE
5
2D7
100
AcDbEntity
8
2
62
256
6
ByLayer
370
-1
48
1
60
0
100
AcDbLine
10
1.5
20
9.9375
30
0
11
41.949398
21
9.9375
31
0
39
0
210
0
220
0
230
1
0
LINE
5
2D8
100
AcDbEntity
8
2
62
256
6
ByLayer
370
-1
48
1
60
0
100
AcDbLine
10
26.199398
20
-15.4125
30
0
11
41.949398
21
-15.4125
31
0
39
0
210
0
220
0
230
1
0
LINE
5
2D9
100
AcDbEntity
8
2
62
256
6
ByLayer
370
-1
48
1
60
0
100
AcDbLine
10
38.949398
20
9.9375
30
0
11
38.949398
21
-15.4125
31
0
39
0
210
0
220
0
230
1
0
LINE
5
2DA
100
AcDbEntity
8
2
62
256
6
ByLayer
370
-1
48
1
60
0
100
AcDbLine
10
38.949398
20
9.9375
30
0
11
39.344356
21
6.937501
31
0
39
0
210
0
220
0
230
1
0
LINE
5
2DB
100
AcDbEntity
8
2
62
256
6
ByLayer
370
-1
48
1
60
0
100
AcDbLine
10
38.949398
20
9.9375
30
0
11
38.554441
21
6.937499
31
0
39
0
210
0
220
0
230
1
0
LINE
5
2DC
100
AcDbEntity
8
2
62
256
6
ByLayer
370
-1
48
1
60
0
100
AcDbLine
10
39.344356
20
6.937501
30
0
11
38.554441
21
6.937499
31
0
39
0
210
0
220
0
230
1
0
LINE
5
2DD
100
AcDbEntity
8
2
62
256
6
ByLayer
370
-1
48
1
60
0
100
AcDbLine
10
38.949398
20
-15.4125
30
0
11
38.554441
21
-12.412501
31
0
39
0
210
0
220
0
230
1
0
LINE
5
2DE
100
AcDbEntity
8
2
62
256
6
ByLayer
370
-1
48
1
60
0
100
AcDbLine
10
38.949398
20
-15.4125
30
0
11
39.344356
21
-12.412499
31
0
39
0
210
0
220
0
230
1
0
LINE
5
2DF
100
AcDbEntity
8
2
62
256
6
ByLayer
370
-1
48
1
60
0
100
AcDbLine
10
38.554441
20
-12.412501
30
0
11
39.344356
21
-12.412499
31
0
39
0
210
0
220
0
230
1
0
ENDBLK
5
2E1
100
AcDbEntity
8
0
100
AcDbBlockEnd
0
ENDSEC
0
SECTION
2
ENTITIES
0
ELLIPSE
5
15B
100
AcDbEntity
8
1
62
256
6
ByLayer
370
-1
48
1
60
0
100
AcDbEllipse
10
16.173953
20
-2.452173
30
0
11
-0.162543294864796
21
-1.64197432297052
31
0
210
0
220
0
230
1
40
0.984662
41
1.67693262933211
42
-1.59753142449085
0
ELLIPSE
5
15C
100
AcDbEntity
8
1
62
256
6
ByLayer
370
-1
48
1
60
0
100
AcDbEllipse
10
15.351851
20
-2.37079
30
0
11
0.1625432948648
21
1.64197432297052
31
0
210
0
220
0
230
1
40
0.984662
41
-1.35893418721624
42
-1.0378588398645
0
ELLIPSE
5
15D
100
AcDbEntity
8
1
62
256
6
ByLayer
370
-1
48
1
60
0
100
AcDbEllipse
10
14.129403
20
-7.430967
30
0
11
-1.08030563150602
21
-2.6288518390504
31
0
210
0
220
0
230
1
40
0.404754
41
-1.88187489710283
42
-1.59926189489476
0
ELLIPSE
5
15E
100
AcDbEntity
8
1
62
256
6
ByLayer
370
-1
48
1
60
0
100
AcDbEllipse
10
17.869258
20
-2.619912
30
0
11
-6.17367847592258
21
2.17780916582346
31
0
210
0
220
0
230
1
40
0.084923
41
-1.38623361216955
42
-1.37129028399586
0
ELLIPSE
5
15F
100
AcDbEntity
8
1
62
256
6
ByLayer
370
-1
48
1
60
0
100
AcDbEllipse
10
15.925662
20
-3.152069
30
0
11
0.163118636092607
21
1.64778628540054
31
0
210
0
220
0
230
1
40
0.984662
41
1.09050574269854
42
2.22539590413125
0
ELLIPSE
5
160
100
AcDbEntity
8
1
62
256
6
ByLayer
370
-1
48
1
60
0
100
AcDbEllipse
10
14.929948
20
-2.329025
30
0
11
-0.162543294864796
21
-1.64197432297052
31
0
210
0
220
0
230
1
40
0.984662
41
1.4082536186924
42
1.89698289101564
0
ELLIPSE
5
161
100
AcDbEntity
8
1
62
256
6
ByLayer
370
-1
48
1
60
0
100
AcDbEllipse
10
14.912586
20
-2.327306
30
0
11
-0.162543294864797
21
-1.64197432297053
31
0
210
0
220
0
230
1
40
0.984662
41
1.40827845746471
42
2.74090299469914
0
ELLIPSE
5
162
100
AcDbEntity
8
1
62
256
6
ByLayer
370
-1
48
1
60
0
100
AcDbEllipse
10
15.172419
20
-3.578841
30
0
11
-0.208520514880174
21
-2.1064254390231
31
0
210
0
220
0
230
1
40
0.984662
41
1.88241829184339
42
2.54289838283163
0
ELLIPSE
5
163
100
AcDbEntity
8
1
62
256
6
ByLayer
370
-1
48
1
60
0
100
AcDbEllipse
10
21.36557
20
-2.966104
30
0
11
-4.60966553457939
21
1.73358190512469
31
0
210
0
220
0
230
1
40
0.221124
41
0.361365533177766
42
0.773224132335353
0
ELLIPSE
5
164
100
AcDbEntity
8
1
62
256
6
ByLayer
370
-1
48
1
60
0
100
AcDbEllipse
10
10.664483
20
-13.492249
30
0
11
-1.08030563160756
21
-2.6288518394866
31
0
210
0
220
0
230
1
40
0.404754
41
-2.16448789928099
42
-1.88187489711646
0
ELLIPSE
5
165
100
AcDbEntity
8
1
62
256
6
ByLayer
370
-1
48
1
60
0
100
AcDbEllipse
10
15.594322
20
-3.620606
30
0
11
-0.197022175593691
21
-1.99027190663093
31
0
210
0
220
0
230
1
40
0.984662
41
1.81584635951606
42
2.47092466409969
0
ELLIPSE
5
166
100
AcDbEntity
8
1
62
256
6
ByLayer
370
-1
48
1
60
0
100
AcDbEllipse
10
16.473684
20
-10.639185
30
0
11
-0.268442714246404
21
-2.71174547278464
31
0
210
0
220
0
230
1
40
0.984662
41
-3.14153303983026
42
0
0
ELLIPSE
5
167
100
AcDbEntity
8
1
62
256
6
ByLayer
370
-1
48
1
60
0
100
AcDbEllipse
10
15.691721
20
-11.918844
30
0
11
-0.334789202943546
21
0.198289421908033
31
0
210
0
220
0
230
1
40
0.494673
41
-0.815285064496122
42
-0.152897912345013
0
ELLIPSE
5
168
100
AcDbEntity
8
1
62
256
6
ByLayer
370
-1
48
1
60
0
100
AcDbEllipse
10
16.430365
20
-9.151278
30
0
11
-0.388113116813989
21
-0.00038045030799982
31
0
210
0
220
0
230
1
40
0.497203
41
3.08247600625899
42
-2.04288598964793
0
ELLIPSE
5
169
100
AcDbEntity
8
1
62
256
6
ByLayer
370
-1
48
1
60
0
100
AcDbEllipse
10
16.421511
20
-12.11764
30
0
11
-0.388113116813989
21
-0.000380450307986721
31
0
210
0
220
0
230
1
40
0.497203
41
1.68583207080393
42
-3.086419081496
0
ELLIPSE
5
16A
100
AcDbEntity
8
1
62
256
6
ByLayer
370
-1
48
1
60
0
100
AcDbEllipse
10
17.160154
20
-9.350073
30
0
11
-0.334789202942892
21
0.198289421906867
31
0
210
0
220
0
230
1
40
0.494673
41
1.57842127978199
42
2.32630559314453
0
ELLIPSE
5
16B
100
AcDbEntity
8
1
62
256
6
ByLayer
370
-1
48
1
60
0
100
AcDbEllipse
10
17.152487
20
-11.918844
30
0
11
-0.335790509926891
21
-0.198599298572256
31
0
210
0
220
0
230
1
40
0.492091
41
-2.55058598128517
42
-1.58029449206671
0
ELLIPSE
5
16C
100
AcDbEntity
8
1
62
256
6
ByLayer
370
-1
48
1
60
0
100
AcDbEllipse
10
17.693297
20
-9.892868
30
0
11
-0.191488483430393
21
0.34213690719194
31
0
210
0
220
0
230
1
40
0.487198
41
3.09379216279882
42
-0.91897564949177
0
ELLIPSE
5
16D
100
AcDbEntity
8
1
62
256
6
ByLayer
370
-1
48
1
60
0
100
AcDbEllipse
10
17.688869
20
-11.376049
30
0
11
-0.193857669878153
21
-0.341952608842199
31
0
210
0
220
0
230
1
40
0.484716
41
0.89794782611344
42
-3.09182378148312
0
ELLIPSE
5
16E
100
AcDbEntity
8
1
62
256
6
ByLayer
370
-1
48
1
60
0
100
AcDbEllipse
10
16.425938
20
-10.634459
30
0
11
0.127108856584271
21
1.28402392056293
31
0
210
0
220
0
230
1
40
0.984662
41
0.76732467027792
42
1.36610928308859
0
ELLIPSE
5
16F
100
AcDbEntity
8
1
62
256
6
ByLayer
370
-1
48
1
60
0
100
AcDbEllipse
10
16.438737
20
-10.631505
30
0
11
-0.264066187850114
21
-2.90908732946141
31
0
210
0
220
0
230
1
40
0.984685
41
-0.770245922570359
42
0
0
ELLIPSE
5
170
100
AcDbEntity
8
1
62
256
6
ByLayer
370
-1
48
1
60
0
100
AcDbEllipse
10
16.438737
20
-10.631505
30
0
11
-0.264066187850114
21
-2.90908732946141
31
0
210
0
220
0
230
1
40
0.984685
41
0
42
0.0919247418532686
0
ELLIPSE
5
171
100
AcDbEntity
8
1
62
256
6
ByLayer
370
-1
48
1
60
0
100
AcDbEllipse
10
16.438737
20
-10.631505
30
0
11
-0.264066187850114
21
-2.90908732946141
31
0
210
0
220
0
230
1
40
0.984685
41
2.2161322122727
42
-2.37147652622668
0
ELLIPSE
5
172
100
AcDbEntity
8
1
62
256
6
ByLayer
370
-1
48
1
60
0
100
AcDbEllipse
10
16.438737
20
-10.631505
30
0
11
-0.264066187850114
21
-2.90908732946141
31
0
210
0
220
0
230
1
40
0.984685
41
0.091924979846025
42
0.880660998939201
0
ELLIPSE
5
173
100
AcDbEntity
8
1
62
256
6
ByLayer
370
-1
48
1
60
0
100
AcDbEllipse
10
16.425938
20
-10.634459
30
0
11
-0.12710885658427
21
-1.28402392056295
31
0
210
0
220
0
230
1
40
0.984662
41
-0.107609258492605
42
0.620766087096134
0
ELLIPSE
5
174
100
AcDbEntity
8
1
62
256
6
ByLayer
370
-1
48
1
60
0
100
AcDbEllipse
10
16.425938
20
-10.634459
30
0
11
-0.12710885658427
21
-1.28402392056295
31
0
210
0
220
0
230
1
40
0.984662
41
2.71516118948939
42
-2.89058537899346
0
ELLIPSE
5
175
100
AcDbEntity
8
1
62
256
6
ByLayer
370
-1
48
1
60
0
100
AcDbEllipse
10
9.63056
20
-14.446077
30
0
11
-3.09999952421012
21
-0.00171752643495761
31
0
210
0
220
0
230
1
40
0.053315
41
-1.42334176594957
42
-1.30965251025348
0
ELLIPSE
5
176
100
AcDbEntity
8
1
62
256
6
ByLayer
370
-1
48
1
60
0
100
AcDbEllipse
10
9.393897
20
-14.509639
30
0
11
0.0180802375823473
21
0.199181085971951
31
0
210
0
220
0
230
1
40
0.984685
41
2.70713969510988
42
-3.14158796552847
0
ELLIPSE
5
177
100
AcDbEntity
8
1
62
256
6
ByLayer
370
-1
48
1
60
0
100
AcDbEllipse
10
16.482403
20
-10.635469
30
0
11
-0.272104028280548
21
-2.9976362646461
31
0
210
0
220
0
230
1
40
0.984685
41
-0.37901944994247
42
0
0
ELLIPSE
5
178
100
AcDbEntity
8
1
62
256
6
ByLayer
370
-1
48
1
60
0
100
AcDbEllipse
10
16.482403
20
-10.635469
30
0
11
-0.272104028280548
21
-2.9976362646461
31
0
210
0
220
0
230
1
40
0.984685
41
0
42
0.0919249144870165
0
ELLIPSE
5
179
100
AcDbEntity
8
1
62
256
6
ByLayer
370
-1
48
1
60
0
100
AcDbEllipse
10
16.482403
20
-10.635469
30
0
11
-0.272104028280548
21
-2.9976362646461
31
0
210
0
220
0
230
1
40
0.984685
41
0.0919249049210892
42
-2.76270299697778
0
ELLIPSE
5
17A
100
AcDbEntity
8
1
62
256
6
ByLayer
370
-1
48
1
60
0
100
AcDbEllipse
10
13.003271
20
-15.144724
30
0
11
0.0180802375823473
21
0.199181085971951
31
0
210
0
220
0
230
1
40
0.984685
41
2.7071396951099
42
3.14158718612364
0
ELLIPSE
5
17B
100
AcDbEntity
8
1
62
256
6
ByLayer
370
-1
48
1
60
0
100
AcDbEllipse
10
11.154722
20
-14.776368
30
0
11
-0.011752154428526
21
-0.129467705881768
31
0
210
0
220
0
230
1
40
0.984685
41
-0.434452958479913
42
1.01564223020316E-05
0
ELLIPSE
5
17C
100
AcDbEntity
8
1
62
256
6
ByLayer
370
-1
48
1
60
0
100
AcDbEllipse
10
15.843526
20
-2.893909
30
0
11
0.0180802375823473
21
0.199181085971951
31
0
210
0
220
0
230
1
40
0.984685
41
1.19043037739659E-05
42
0.612744592716626
0
ELLIPSE
5
17D
100
AcDbEntity
8
1
62
256
6
ByLayer
370
-1
48
1
60
0
100
AcDbEllipse
10
15.285074
20
-3.98538
30
0
11
0.0117521544285258
21
0.129467705881768
31
0
210
0
220
0
230
1
40
0.984685
41
1.07325121687993E-05
42
0.612744592716649
0
ELLIPSE
5
17E
100
AcDbEntity
8
1
62
256
6
ByLayer
370
-1
48
1
60
0
100
AcDbEllipse
10
16.425938
20
-10.634459
30
0
11
-0.12710885658427
21
-1.28402392056295
31
0
210
0
220
0
230
1
40
0.984662
41
-1.13783855735627
42
-0.533818023580834
0
ELLIPSE
5
17F
100
AcDbEntity
8
1
62
256
6
ByLayer
370
-1
48
1
60
0
100
AcDbEllipse
10
15.489524
20
-3.742369
30
0
11
-0.011752154428526
21
-0.129467705881768
31
0
210
0
220
0
230
1
40
0.984685
41
0.612744592716558
42
1.65328798638686
0
ELLIPSE
5
180
100
AcDbEntity
8
1
62
256
6
ByLayer
370
-1
48
1
60
0
100
AcDbEllipse
10
15.822286
20
-2.90634
30
0
11
0.0180802375823473
21
0.199181085971951
31
0
210
0
220
0
230
1
40
0.984685
41
0.61274459271661
42
1.65328798638696
0
ELLIPSE
5
181
100
AcDbEntity
8
1
62
256
6
ByLayer
370
-1
48
1
60
0
100
AcDbEllipse
10
15.292817
20
-4.682085
30
0
11
-0.00204550558750678
21
-0.320084952839901
31
0
210
0
220
0
230
1
40
0.17433
41
-1.73783972723318
42
-0.941297790823586
0
ELLIPSE
5
182
100
AcDbEntity
8
1
62
256
6
ByLayer
370
-1
48
1
60
0
100
AcDbEllipse
10
15.111448
20
-4.868739
30
0
11
-0.10461357520888
21
0.108175544672084
31
0
210
0
220
0
230
1
40
0.746721
41
3.04066759850184
42
-2.89770941803529
0
ELLIPSE
5
183
100
AcDbEntity
8
1
62
256
6
ByLayer
370
-1
48
1
60
0
100
AcDbEllipse
10
19.08693
20
-5.418348
30
0
11
-0.0885856203364861
21
0.152801635034428
31
0
210
0
220
0
230
1
40
0.121299
41
-1.65643696714256
42
-0.621456720743464
0
ELLIPSE
5
184
100
AcDbEntity
8
1
62
256
6
ByLayer
370
-1
48
1
60
0
100
AcDbEllipse
10
15.372987
20
-4.382039
30
0
11
-0.0535420620004198
21
-0.119078904487208
31
0
210
0
220
0
230
1
40
0.958693
41
-2.20960672955481
42
-1.16906333588869
0
ELLIPSE
5
185
100
AcDbEntity
8
1
62
256
6
ByLayer
370
-1
48
1
60
0
100
AcDbEllipse
10
15.94794
20
-4.04555
30
0
11
-0.0535420619904202
21
-0.119078904492362
31
0
210
0
220
0
230
1
40
0.958693
41
3.12085890061656
42
-2.20960672964544
0
ELLIPSE
5
186
100
AcDbEntity
8
1
62
256
6
ByLayer
370
-1
48
1
60
0
100
AcDbEllipse
10
16.106297
20
-3.831731
30
0
11
-0.0535420619857068
21
-0.119078904496031
31
0
210
0
220
0
230
1
40
0.958693
41
-0.0207337530154933
42
0.931985923896282
0
ELLIPSE
5
187
100
AcDbEntity
8
1
62
256
6
ByLayer
370
-1
48
1
60
0
100
AcDbEllipse
10
16.155667
20
-3.802837
30
0
11
-0.0535420620078269
21
-0.11907890447969
31
0
210
0
220
0
230
1
40
0.958693
41
0.931985924092841
42
1.97252931779216
0
ELLIPSE
5
188
100
AcDbEntity
8
1
62
256
6
ByLayer
370
-1
48
1
60
0
100
AcDbEllipse
10
16.50546
20
-2.968354
30
0
11
-0.0823724030766509
21
-0.183198314594648
31
0
210
0
220
0
230
1
40
0.958693
41
-2.20960672956203
42
-1.169063335888
0
ELLIPSE
5
189
100
AcDbEntity
8
1
62
256
6
ByLayer
370
-1
48
1
60
0
100
AcDbEllipse
10
16.526701
20
-2.955923
30
0
11
-0.0823724030862887
21
-0.183198314587705
31
0
210
0
220
0
230
1
40
0.958693
41
3.03303518400276
42
-2.20960672949774
0
ELLIPSE
5
18A
100
AcDbEntity
8
1
62
256
6
ByLayer
370
-1
48
1
60
0
100
AcDbEllipse
10
14.222472
20
-5.832521
30
0
11
0.0180802375823473
21
0.199181085971951
31
0
210
0
220
0
230
1
40
0.984685
41
0.612744592716563
42
1.13634336831485
0
ELLIPSE
5
18B
100
AcDbEntity
8
1
62
256
6
ByLayer
370
-1
48
1
60
0
100
AcDbEllipse
10
17.148542
20
-4.150382
30
0
11
-0.138398498626077
21
-0.213648907270896
31
0
210
0
220
0
230
1
40
0.952315
41
0.547449270962318
42
1.6213633310675
0
ELLIPSE
5
18C
100
AcDbEntity
8
1
62
256
6
ByLayer
370
-1
48
1
60
0
100
AcDbEllipse
10
17.36076
20
-3.785391
30
0
11
-0.138398498626077
21
-0.213648907270896
31
0
210
0
220
0
230
1
40
0.952315
41
1.62136333106761
42
1.92630059604856
0
ELLIPSE
5
18D
100
AcDbEntity
8
1
62
256
6
ByLayer
370
-1
48
1
60
0
100
AcDbEllipse
10
16.740876
20
-4.148175
30
0
11
-0.138398498626077
21
-0.213648907270896
31
0
210
0
220
0
230
1
40
0.952315
41
0.242512005981346
42
0.547449270962347
0
ELLIPSE
5
18E
100
AcDbEntity
8
1
62
256
6
ByLayer
370
-1
48
1
60
0
100
AcDbEllipse
10
17.070757
20
-4.284163
30
0
11
-0.48545052882408
21
-0.833793599927043
31
0
210
0
220
0
230
1
40
0.325762
41
2.31654122000189
42
3.13882244233704
0
ELLIPSE
5
18F
100
AcDbEntity
8
1
62
256
6
ByLayer
370
-1
48
1
60
0
100
AcDbEllipse
10
17.297963
20
-4.151191
30
0
11
-0.931731499562407
21
-0.000583048788394616
31
0
210
0
220
0
230
1
40
0.349309
41
-0.0127205576568025
42
0.809560664664483
0
ELLIPSE
5
190
100
AcDbEntity
8
1
62
256
6
ByLayer
370
-1
48
1
60
0
100
AcDbEllipse
10
18.760759
20
-4.304102
30
0
11
-2.31605436251679
21
1.3736945895663
31
0
210
0
220
0
230
1
40
0.315635
41
0.00298511003758339
42
0.17058078479847
0
ELLIPSE
5
191
100
AcDbEntity
8
1
62
256
6
ByLayer
370
-1
48
1
60
0
100
AcDbEllipse
10
16.426956
20
-5.669949
30
0
11
-0.111418399244577
21
-2.78797895113534
31
0
210
0
220
0
230
1
40
0.293981
41
2.98390838987987
42
-3.13168124239891
0
ELLIPSE
5
192
100
AcDbEntity
8
1
62
256
6
ByLayer
370
-1
48
1
60
0
100
AcDbEllipse
10
17.773417
20
-4.6377
30
0
11
0.0113395985135379
21
0.319799020488731
31
0
210
0
220
0
230
1
40
0.174084
41
1.56119816859218
42
2.59617841502503
0
ELLIPSE
5
193
100
AcDbEntity
8
1
62
256
6
ByLayer
370
-1
48
1
60
0
100
AcDbEllipse
10
17.773417
20
-4.6377
30
0
11
0.00572482928562401
21
-0.319948787042005
31
0
210
0
220
0
230
1
40
0.256832
41
-1.74207351478785
42
-0.556928889643699
0
ELLIPSE
5
194
100
AcDbEntity
8
1
62
256
6
ByLayer
370
-1
48
1
60
0
100
AcDbEllipse
10
17.773417
20
-4.6377
30
0
11
0.161632485826136
21
-0.276179180108972
31
0
210
0
220
0
230
1
40
0.142623
41
-1.84680470892618
42
-1.67227178372672
0
ELLIPSE
5
195
100
AcDbEntity
8
1
62
256
6
ByLayer
370
-1
48
1
60
0
100
AcDbEllipse
10
19.865108
20
-8.552613
30
0
11
-0.124592254826947
21
0.0835270617053962
31
0
210
0
220
0
230
1
40
0.084588
41
-2.43318214818983
42
-1.72439265866673
0
ELLIPSE
5
196
100
AcDbEntity
8
1
62
256
6
ByLayer
370
-1
48
1
60
0
100
AcDbEllipse
10
13.876792
20
-8.745877
30
0
11
-0.144249644291542
21
0.0411344152962395
31
0
210
0
220
0
230
1
40
0.032944
41
-1.74293776391148
42
-1.56840483871189
0
ELLIPSE
5
197
100
AcDbEntity
8
1
62
256
6
ByLayer
370
-1
48
1
60
0
100
AcDbEllipse
10
14.048974
20
-8.142073
30
0
11
-0.144249644291542
21
0.0411344152962395
31
0
210
0
220
0
230
1
40
0.032944
41
-1.74293776391141
42
-1.56840483871179
0
ELLIPSE
5
198
100
AcDbEntity
8
1
62
256
6
ByLayer
370
-1
48
1
60
0
100
AcDbEllipse
10
13.564274
20
-7.700638
30
0
11
-0.0710291567746932
21
-0.132116838018006
31
0
210
0
220
0
230
1
40
0.160766
41
0.930395554479901
42
1.6391850440025
0
ELLIPSE
5
199
100
AcDbEntity
8
1
62
256
6
ByLayer
370
-1
48
1
60
0
100
AcDbEllipse
10
17.414538
20
-3.820227
30
0
11
0.265139820720223
21
-0.19647105503979
31
0
210
0
220
0
230
1
40
0.340178
41
1.07395708266926
42
1.89623830500413
0
ELLIPSE
5
19A
100
AcDbEntity
8
1
62
256
6
ByLayer
370
-1
48
1
60
0
100
AcDbEllipse
10
17.414538
20
-3.820227
30
0
11
-0.285282473313292
21
0.165873175710393
31
0
210
0
220
0
230
1
40
0.015422
41
-2.14212784185023
42
-1.26110651584013
0
ELLIPSE
5
19B
100
AcDbEntity
8
1
62
256
6
ByLayer
370
-1
48
1
60
0
100
AcDbEllipse
10
16.794653
20
-4.183011
30
0
11
-0.00178662304630266
21
-0.329995163567726
31
0
210
0
220
0
230
1
40
0.260526
41
-1.73604471176735
42
-0.855023385757793
0
ELLIPSE
5
19C
100
AcDbEntity
8
1
62
256
6
ByLayer
370
-1
48
1
60
0
100
AcDbEllipse
10
16.794653
20
-4.183011
30
0
11
-0.0208215068507398
21
0.329342473502075
31
0
210
0
220
0
230
1
40
0.570502
41
1.38076587295057
42
2.20304709528556
0
ELLIPSE
5
19D
100
AcDbEntity
8
1
62
256
6
ByLayer
370
-1
48
1
60
0
100
AcDbEllipse
10
16.743909
20
-3.118711
30
0
11
-0.289490861284526
21
1.13451434725423
31
0
210
0
220
0
230
1
40
0.214503
41
1.35157267426254
42
1.51916834773039
0
ELLIPSE
5
19E
100
AcDbEntity
8
1
62
256
6
ByLayer
370
-1
48
1
60
0
100
AcDbEllipse
10
16.743909
20
-3.118711
30
0
11
-0.748650921538362
21
0.868263981812937
31
0
210
0
220
0
230
1
40
0.006448
41
1.28886022608421
42
1.4564559198795
0
ELLIPSE
5
19F
100
AcDbEntity
8
1
62
256
6
ByLayer
370
-1
48
1
60
0
100
AcDbEllipse
10
17.202319
20
-4.185218
30
0
11
-0.285282473313292
21
0.165873175710393
31
0
210
0
220
0
230
1
40
0.015422
41
-2.14212784185035
42
-1.261106515841
0
ELLIPSE
5
1A0
100
AcDbEntity
8
1
62
256
6
ByLayer
370
-1
48
1
60
0
100
AcDbEllipse
10
17.202319
20
-4.185218
30
0
11
0.00178662304630247
21
0.329995163567726
31
0
210
0
220
0
230
1
40
0.260526
41
1.40554794182244
42
2.28656926783202
0
ELLIPSE
5
1A1
100
AcDbEntity
8
1
62
256
6
ByLayer
370
-1
48
1
60
0
100
AcDbEllipse
10
17.414538
20
-3.820227
30
0
11
0.168459357975663
21
0.283763008002149
31
0
210
0
220
0
230
1
40
0.304906
41
1.20981229166575
42
1.55887814206458
0
ELLIPSE
5
1A2
100
AcDbEntity
8
1
62
256
6
ByLayer
370
-1
48
1
60
0
100
AcDbEllipse
10
16.794653
20
-4.183011
30
0
11
0.329788829487308
21
-0.0118037259113879
31
0
210
0
220
0
230
1
40
0.162283
41
1.83573697622903
42
2.1848028266279
0
ELLIPSE
5
1A3
100
AcDbEntity
8
1
62
256
6
ByLayer
370
-1
48
1
60
0
100
AcDbEllipse
10
16.820265
20
-3.46743
30
0
11
0.168459357975663
21
0.283763008002149
31
0
210
0
220
0
230
1
40
0.304906
41
1.20981229166573
42
1.55887814206458
0
ELLIPSE
5
1A4
100
AcDbEntity
8
1
62
256
6
ByLayer
370
-1
48
1
60
0
100
AcDbEllipse
10
16.820265
20
-3.46743
30
0
11
0.329788829487308
21
-0.0118037259113879
31
0
210
0
220
0
230
1
40
0.162283
41
1.83573697622911
42
2.18480282662801
0
ELLIPSE
5
1A5
100
AcDbEntity
8
1
62
256
6
ByLayer
370
-1
48
1
60
0
100
AcDbEllipse
10
16.820265
20
-3.46743
30
0
11
0.295747720360011
21
0.14640111304856
31
0
210
0
220
0
230
1
40
0.435879
41
1.4292267844189
42
2.0306461807298
0
ELLIPSE
5
1A6
100
AcDbEntity
8
1
62
256
6
ByLayer
370
-1
48
1
60
0
100
AcDbEllipse
10
16.674379
20
-3.172722
30
0
11
-0.295747720360011
21
-0.14640111304856
31
0
210
0
220
0
230
1
40
0.435879
41
-1.71236586917091
42
-1.11094647286
0
ELLIPSE
5
1A7
100
AcDbEntity
8
1
62
256
6
ByLayer
370
-1
48
1
60
0
100
AcDbEllipse
10
15.662361
20
-15.410893
30
0
11
-0.150100272210534
21
0.000410293036323976
31
0
210
0
220
0
230
1
40
0.015511
41
1.7452319737585
42
2.45402146317816
0
ELLIPSE
5
1A8
100
AcDbEntity
8
1
62
256
6
ByLayer
370
-1
48
1
60
0
100
AcDbEllipse
10
10.244516
20
-12.24939
30
0
11
-0.162018972073839
21
-0.275952627615931
31
0
210
0
220
0
230
1
40
0.158144
41
-1.49641015156249
42
-1.32187722636304
0
ELLIPSE
5
1A9
100
AcDbEntity
8
1
62
256
6
ByLayer
370
-1
48
1
60
0
100
AcDbEllipse
10
10.46764
20
-11.858894
30
0
11
-0.189809549114321
21
-0.325785750379893
31
0
210
0
220
0
230
1
40
0.134321
41
-2.54311175778385
42
-1.50813151135987
0
ELLIPSE
5
1AA
100
AcDbEntity
8
1
62
256
6
ByLayer
370
-1
48
1
60
0
100
AcDbEllipse
10
12.278526
20
-8.788696
30
0
11
-0.0840311247653211
21
-0.143872957392218
31
0
210
0
220
0
230
1
40
0.142448
41
1.63742825114499
42
2.34621774089447
0
ELLIPSE
5
1AB
100
AcDbEntity
8
1
62
256
6
ByLayer
370
-1
48
1
60
0
100
AcDbEllipse
10
12.966274
20
-14.992327
30
0
11
-0.242365818349901
21
0.141207362961456
31
0
210
0
220
0
230
1
40
0.0396
41
-1.65536506617132
42
-0.620384819654882
0
ELLIPSE
5
1AC
100
AcDbEntity
8
1
62
256
6
ByLayer
370
-1
48
1
60
0
100
AcDbEllipse
10
10.008828
20
-12.998494
30
0
11
-0.0605925147914074
21
0.191821580193753
31
0
210
0
220
0
230
1
40
0.960533
41
0.75399921328325
42
1.28425214636846
0
ELLIPSE
5
1AD
100
AcDbEntity
8
1
62
256
6
ByLayer
370
-1
48
1
60
0
100
AcDbEllipse
10
14.449542
20
-4.808656
30
0
11
-0.0117521544285259
21
-0.129467705881769
31
0
210
0
220
0
230
1
40
0.984685
41
0.612744592716589
42
1.65328798638689
0
ELLIPSE
5
1AE
100
AcDbEntity
8
1
62
256
6
ByLayer
370
-1
48
1
60
0
100
AcDbEllipse
10
14.71012
20
-4.321869
30
0
11
-0.011752154428526
21
-0.129467705881768
31
0
210
0
220
0
230
1
40
0.984685
41
-2.5288480608732
42
-1.4883046672029
0
ELLIPSE
5
1AF
100
AcDbEntity
8
1
62
256
6
ByLayer
370
-1
48
1
60
0
100
AcDbEllipse
10
9.372724
20
-14.497208
30
0
11
0.0180802375823473
21
0.199181085971951
31
0
210
0
220
0
230
1
40
0.984685
41
1.66659630143946
42
2.70713969510975
0
ELLIPSE
5
1B0
100
AcDbEntity
8
1
62
256
6
ByLayer
370
-1
48
1
60
0
100
AcDbEllipse
10
12.185279
20
-14.80768
30
0
11
-0.279747322419474
21
-0.155773091093747
31
0
210
0
220
0
230
1
40
0.099584
41
-2.0700205738682
42
-1.27347863750198
0
ELLIPSE
5
1B1
100
AcDbEntity
8
1
62
256
6
ByLayer
370
-1
48
1
60
0
100
AcDbEllipse
10
12.361511
20
-14.821006
30
0
11
-0.161057566583009
21
-0.0288747065039845
31
0
210
0
220
0
230
1
40
0.77681
41
-2.3449469989667
42
-2.00013870801255
0
ELLIPSE
5
1B2
100
AcDbEntity
8
1
62
256
6
ByLayer
370
-1
48
1
60
0
100
AcDbEllipse
10
10.947757
20
-11.117713
30
0
11
-0.0889732261450738
21
-0.152712070485529
31
0
210
0
220
0
230
1
40
0.134321
41
0.59848089580413
42
1.63346114225679
0
ELLIPSE
5
1B3
100
AcDbEntity
8
1
62
256
6
ByLayer
370
-1
48
1
60
0
100
AcDbEllipse
10
11.817589
20
-14.836538
30
0
11
-0.0393851345149582
21
0.124684027144115
31
0
210
0
220
0
230
1
40
0.960533
41
2.32479554082166
42
-2.91784637268413
0
ELLIPSE
5
1B4
100
AcDbEntity
8
1
62
256
6
ByLayer
370
-1
48
1
60
0
100
AcDbEllipse
10
11.244477
20
-14.50005
30
0
11
-0.0393851345058206
21
0.124684027149372
31
0
210
0
220
0
230
1
40
0.960533
41
1.37207586398475
42
2.32479554089599
0
ELLIPSE
5
1B5
100
AcDbEntity
8
1
62
256
6
ByLayer
370
-1
48
1
60
0
100
AcDbEllipse
10
10.987948
20
-14.471563
30
0
11
-0.0393851344821055
21
0.124684027160764
31
0
210
0
220
0
230
1
40
0.960533
41
-1.76951678939183
42
-0.816797112507338
0
ELLIPSE
5
1B6
100
AcDbEntity
8
1
62
256
6
ByLayer
370
-1
48
1
60
0
100
AcDbEllipse
10
10.938736
20
-14.442669
30
0
11
-0.0393851345141441
21
0.124684027144863
31
0
210
0
220
0
230
1
40
0.960533
41
-0.816797112759157
42
0.223746280912605
0
ELLIPSE
5
1B7
100
AcDbEntity
8
1
62
256
6
ByLayer
370
-1
48
1
60
0
100
AcDbEllipse
10
10.077071
20
-14.571653
30
0
11
-0.0605925146290277
21
0.191821580228445
31
0
210
0
220
0
230
1
40
0.960533
41
2.32479554088173
42
-2.9178463726339
0
ELLIPSE
5
1B8
100
AcDbEntity
8
1
62
256
6
ByLayer
370
-1
48
1
60
0
100
AcDbEllipse
10
10.055899
20
-14.559222
30
0
11
-0.0605925146229469
21
0.191821580230366
31
0
210
0
220
0
230
1
40
0.960533
41
1.28425214724565
42
2.3247955409033
0
ELLIPSE
5
1B9
100
AcDbEntity
8
1
62
256
6
ByLayer
370
-1
48
1
60
0
100
AcDbEllipse
10
13.758547
20
-15.213282
30
0
11
0.0180802375823473
21
0.199181085971951
31
0
210
0
220
0
230
1
40
0.984685
41
2.7071396951099
42
-3.05244683647151
0
ELLIPSE
5
1BA
100
AcDbEntity
8
1
62
256
6
ByLayer
370
-1
48
1
60
0
100
AcDbEllipse
10
10.705472
20
-13.369541
30
0
11
0.118305764501743
21
-0.225396863522229
31
0
210
0
220
0
230
1
40
0.956983
41
1.61029446388621
42
2.68420852399134
0
ELLIPSE
5
1BB
100
AcDbEntity
8
1
62
256
6
ByLayer
370
-1
48
1
60
0
100
AcDbEllipse
10
10.297791
20
-13.372931
30
0
11
0.118305764501743
21
-0.225396863522229
31
0
210
0
220
0
230
1
40
0.956983
41
2.68420852399127
42
2.98914578897231
0
ELLIPSE
5
1BC
100
AcDbEntity
8
1
62
256
6
ByLayer
370
-1
48
1
60
0
100
AcDbEllipse
10
10.915689
20
-13.735715
30
0
11
0.118305764501743
21
-0.225396863522229
31
0
210
0
220
0
230
1
40
0.956983
41
1.30535719890517
42
1.61029446388621
0
ELLIPSE
5
1BD
100
AcDbEntity
8
1
62
256
6
ByLayer
370
-1
48
1
60
0
100
AcDbEllipse
10
10.854899
20
-13.368299
30
0
11
-0.931737083215587
21
-0.00318186459456974
31
0
210
0
220
0
230
1
40
0.351013
41
-0.812894846561315
42
0.00938637575969111
0
ELLIPSE
5
1BE
100
AcDbEntity
8
1
62
256
6
ByLayer
370
-1
48
1
60
0
100
AcDbEllipse
10
10.628421
20
-13.235328
30
0
11
-0.480039673599809
21
0.836978963717785
31
0
210
0
220
0
230
1
40
0.327324
41
-3.13575152717855
42
-2.31347030484802
0
ELLIPSE
5
1BF
100
AcDbEntity
8
1
62
256
6
ByLayer
370
-1
48
1
60
0
100
AcDbEllipse
10
9.99222
20
-11.844587
30
0
11
-0.0938360329218998
21
2.80143478015014
31
0
210
0
220
0
230
1
40
0.29273
41
3.13446637235791
42
-2.98112325974417
0
ELLIPSE
5
1C0
100
AcDbEntity
8
1
62
256
6
ByLayer
370
-1
48
1
60
0
100
AcDbEllipse
10
12.318546
20
-13.210434
30
0
11
-2.3223593991124
21
-1.38920876283246
31
0
210
0
220
0
230
1
40
0.314059
41
-0.173471786748575
42
-0.00587611186176704
0
ELLIPSE
5
1C1
100
AcDbEntity
8
1
62
256
6
ByLayer
370
-1
48
1
60
0
100
AcDbEllipse
10
10.859035
20
-12.61019
30
0
11
-0.283797838351282
21
-0.147847174295418
31
0
210
0
220
0
230
1
40
0.095227
41
-2.45854301848218
42
-1.42356277204927
0
ELLIPSE
5
1C2
100
AcDbEntity
8
1
62
256
6
ByLayer
370
-1
48
1
60
0
100
AcDbEllipse
10
10.859035
20
-12.61019
30
0
11
0.273970542679929
21
0.165348546239951
31
0
210
0
220
0
230
1
40
0.018074
41
0.67948922568091
42
1.86463385082692
0
ELLIPSE
5
1C3
100
AcDbEntity
8
1
62
256
6
ByLayer
370
-1
48
1
60
0
100
AcDbEllipse
10
10.859035
20
-12.61019
30
0
11
0.162018972073848
21
0.275952627615926
31
0
210
0
220
0
230
1
40
0.158144
41
1.6451825020273
42
1.81971542722679
0
ELLIPSE
5
1C4
100
AcDbEntity
8
1
62
256
6
ByLayer
370
-1
48
1
60
0
100
AcDbEllipse
10
13.23401
20
-8.858803
30
0
11
-0.0109765333732292
21
-0.1495978466259
31
0
210
0
220
0
230
1
40
0.174315
41
1.5677834473041
42
2.27657293682703
0
ELLIPSE
5
1C5
100
AcDbEntity
8
1
62
256
6
ByLayer
370
-1
48
1
60
0
100
AcDbEllipse
10
16.378606
20
-14.027089
30
0
11
0.0367863585044432
21
-0.145419269108267
31
0
210
0
220
0
230
1
40
0.164735
41
1.33837117999088
42
1.51290410519047
0
ELLIPSE
5
1C6
100
AcDbEntity
8
1
62
256
6
ByLayer
370
-1
48
1
60
0
100
AcDbEllipse
10
15.777896
20
-14.179049
30
0
11
0.0367863585044432
21
-0.145419269108267
31
0
210
0
220
0
230
1
40
0.164735
41
1.33837117999104
42
1.51290410519054
0
ELLIPSE
5
1C7
100
AcDbEntity
8
1
62
256
6
ByLayer
370
-1
48
1
60
0
100
AcDbEllipse
10
15.642544
20
-14.827014
30
0
11
0.149913678706951
21
0.00508811719096741
31
0
210
0
220
0
230
1
40
0.021972
41
-1.39692958113923
42
-0.688140091617048
0
ELLIPSE
5
1C8
100
AcDbEntity
8
1
62
256
6
ByLayer
370
-1
48
1
60
0
100
AcDbEllipse
10
10.351741
20
-13.344613
30
0
11
0.0155171404431601
21
0.329634977440907
31
0
210
0
220
0
230
1
40
0.571905
41
0.900781516255314
42
1.72306273859037
0
ELLIPSE
5
1C9
100
AcDbEntity
8
1
62
256
6
ByLayer
370
-1
48
1
60
0
100
AcDbEllipse
10
10.351741
20
-13.344613
30
0
11
0.00274347164033022
21
-0.329988595808035
31
0
210
0
220
0
230
1
40
0.26032
41
-2.31872159180219
42
-1.43770026579285
0
ELLIPSE
5
1CA
100
AcDbEntity
8
1
62
256
6
ByLayer
370
-1
48
1
60
0
100
AcDbEllipse
10
10.969639
20
-13.707398
30
0
11
0.286191286725687
21
0.164300174687356
31
0
210
0
220
0
230
1
40
0.011457
41
0.983935267128292
42
1.86495659313893
0
ELLIPSE
5
1CB
100
AcDbEntity
8
1
62
256
6
ByLayer
370
-1
48
1
60
0
100
AcDbEllipse
10
10.969639
20
-13.707398
30
0
11
-0.267449075294889
21
-0.19331578343195
31
0
210
0
220
0
230
1
40
0.316515
41
1.26476442462773
42
2.08704564696276
0
ELLIPSE
5
1CC
100
AcDbEntity
8
1
62
256
6
ByLayer
370
-1
48
1
60
0
100
AcDbEllipse
10
10.295098
20
-14.435508
30
0
11
-0.753175289977433
21
-0.876144468853412
31
0
210
0
220
0
230
1
40
0.022981
41
-1.47589422039936
42
-1.30829855378618
0
ELLIPSE
5
1CD
100
AcDbEntity
8
1
62
256
6
ByLayer
370
-1
48
1
60
0
100
AcDbEllipse
10
10.295098
20
-14.435508
30
0
11
-0.289730892886068
21
-1.14560442905434
31
0
210
0
220
0
230
1
40
0.218276
41
-1.54349118603958
42
-1.37589550979285
0
ELLIPSE
5
1CE
100
AcDbEntity
8
1
62
256
6
ByLayer
370
-1
48
1
60
0
100
AcDbEllipse
10
10.759422
20
-13.341224
30
0
11
0.00274347164033022
21
-0.329988595808035
31
0
210
0
220
0
230
1
40
0.26032
41
-2.31872159180231
42
-1.43770026579281
0
ELLIPSE
5
1CF
100
AcDbEntity
8
1
62
256
6
ByLayer
370
-1
48
1
60
0
100
AcDbEllipse
10
10.759422
20
-13.341224
30
0
11
-0.286191286725687
21
-0.164300174687356
31
0
210
0
220
0
230
1
40
0.011457
41
-2.15765738646151
42
-1.2766360604509
0
ELLIPSE
5
1D0
100
AcDbEntity
8
1
62
256
6
ByLayer
370
-1
48
1
60
0
100
AcDbEllipse
10
10.351741
20
-13.344613
30
0
11
-0.32985002043205
21
-0.00994806619279515
31
0
210
0
220
0
230
1
40
0.131594
41
0.957824129353295
42
1.30688997975213
0
ELLIPSE
5
1D1
100
AcDbEntity
8
1
62
256
6
ByLayer
370
-1
48
1
60
0
100
AcDbEllipse
10
10.969639
20
-13.707398
30
0
11
-0.169262396137934
21
0.283284735299389
31
0
210
0
220
0
230
1
40
0.289738
41
1.55477985776529
42
1.90384570816415
0
ELLIPSE
5
1D2
100
AcDbEntity
8
1
62
256
6
ByLayer
370
-1
48
1
60
0
100
AcDbEllipse
10
10.373426
20
-14.063634
30
0
11
-0.32985002043205
21
-0.00994806619279515
31
0
210
0
220
0
230
1
40
0.131594
41
0.95782412935324
42
1.30688997975212
0
ELLIPSE
5
1D3
100
AcDbEntity
8
1
62
256
6
ByLayer
370
-1
48
1
60
0
100
AcDbEllipse
10
10.373426
20
-14.063634
30
0
11
-0.169262396137934
21
0.283284735299389
31
0
210
0
220
0
230
1
40
0.289738
41
1.55477985776527
42
1.90384570816422
0
ELLIPSE
5
1D4
100
AcDbEntity
8
1
62
256
6
ByLayer
370
-1
48
1
60
0
100
AcDbEllipse
10
10.373426
20
-14.063634
30
0
11
-0.295887399852021
21
0.14611860459507
31
0
210
0
220
0
230
1
40
0.410668
41
1.0957602660872
42
1.69717966239803
0
ELLIPSE
5
1D5
100
AcDbEntity
8
1
62
256
6
ByLayer
370
-1
48
1
60
0
100
AcDbEllipse
10
10.225915
20
-14.362341
30
0
11
0.295887399852021
21
-0.14611860459507
31
0
210
0
220
0
230
1
40
0.410668
41
-2.04583238750269
42
-1.44441299119186
0
ELLIPSE
5
1D6
100
AcDbEntity
8
1
62
256
6
ByLayer
370
-1
48
1
60
0
100
AcDbEllipse
10
9.63117
20
-15.544512
30
0
11
-1.69999973908298
21
-0.000941869335299342
31
0
210
0
220
0
230
1
40
0.053315
41
0
42
6.28318530717959
0
ELLIPSE
5
1D7
100
AcDbEntity
8
1
62
256
6
ByLayer
370
-1
48
1
60
0
100
AcDbEllipse
10
9.63117
20
-15.544512
30
0
11
1.40969978363824
21
0.000781031295274158
31
0
210
0
220
0
230
1
40
0.053315
41
1.39632586168702
42
2.44352341288326
0
ELLIPSE
5
1D8
100
AcDbEntity
8
1
62
256
6
ByLayer
370
-1
48
1
60
0
100
AcDbEllipse
10
9.63117
20
-15.544512
30
0
11
1.40969978363824
21
0.000781031295274158
31
0
210
0
220
0
230
1
40
0.053315
41
2.44352341288326
42
-2.79246434309973
0
ELLIPSE
5
1D9
100
AcDbEntity
8
1
62
256
6
ByLayer
370
-1
48
1
60
0
100
AcDbEllipse
10
9.63117
20
-15.544512
30
0
11
1.40969978363824
21
0.000781031295274158
31
0
210
0
220
0
230
1
40
0.053315
41
-2.79246434309973
42
-1.74526679190279
0
ELLIPSE
5
1DA
100
AcDbEntity
8
1
62
256
6
ByLayer
370
-1
48
1
60
0
100
AcDbEllipse
10
9.63117
20
-15.544512
30
0
11
1.40969978363824
21
0.000781031295274158
31
0
210
0
220
0
230
1
40
0.053315
41
-1.74526679190279
42
-0.698069240706515
0
ELLIPSE
5
1DB
100
AcDbEntity
8
1
62
256
6
ByLayer
370
-1
48
1
60
0
100
AcDbEllipse
10
9.63117
20
-15.544512
30
0
11
1.40969978363824
21
0.000781031295274158
31
0
210
0
220
0
230
1
40
0.053315
41
-0.698069240706515
42
0.349128310490041
0
ELLIPSE
5
1DC
100
AcDbEntity
8
1
62
256
6
ByLayer
370
-1
48
1
60
0
100
AcDbEllipse
10
9.63117
20
-15.544512
30
0
11
1.40969978363824
21
0.000781031295274158
31
0
210
0
220
0
230
1
40
0.053315
41
0.349128310490041
42
1.39632586168702
0
ELLIPSE
5
1DD
100
AcDbEntity
8
1
62
256
6
ByLayer
370
-1
48
1
60
0
100
AcDbEllipse
10
16.699393
20
-10.661529
30
0
11
0.165143987582636
21
1.66824591213804
31
0
210
0
220
0
230
1
40
0.984662
41
0.0971673114977478
42
1.14436486269443
0
ELLIPSE
5
1DE
100
AcDbEntity
8
1
62
256
6
ByLayer
370
-1
48
1
60
0
100
AcDbEllipse
10
16.699393
20
-10.661529
30
0
11
0.165143987582636
21
1.66824591213804
31
0
210
0
220
0
230
1
40
0.984662
41
1.14436486269443
42
2.19156241389101
0
ELLIPSE
5
1DF
100
AcDbEntity
8
1
62
256
6
ByLayer
370
-1
48
1
60
0
100
AcDbEllipse
10
16.699393
20
-10.661529
30
0
11
0.165143987582636
21
1.66824591213804
31
0
210
0
220
0
230
1
40
0.984662
41
2.19156241389101
42
-3.04442534209197
0
ELLIPSE
5
1E0
100
AcDbEntity
8
1
62
256
6
ByLayer
370
-1
48
1
60
0
100
AcDbEllipse
10
16.699393
20
-10.661529
30
0
11
0.165143987582636
21
1.66824591213804
31
0
210
0
220
0
230
1
40
0.984662
41
-3.04442534209197
42
-1.99722779089538
0
ELLIPSE
5
1E1
100
AcDbEntity
8
1
62
256
6
ByLayer
370
-1
48
1
60
0
100
AcDbEllipse
10
16.699393
20
-10.661529
30
0
11
0.165143987582636
21
1.66824591213804
31
0
210
0
220
0
230
1
40
0.984662
41
-1.99722779089538
42
-0.95003023969877
0
ELLIPSE
5
1E2
100
AcDbEntity
8
1
62
256
6
ByLayer
370
-1
48
1
60
0
100
AcDbEllipse
10
16.699393
20
-10.661529
30
0
11
0.165143987582636
21
1.66824591213804
31
0
210
0
220
0
230
1
40
0.984662
41
-0.95003023969877
42
0.0971673114977468
0
ELLIPSE
5
1E3
100
AcDbEntity
8
1
62
256
6
ByLayer
370
-1
48
1
60
0
100
AcDbEllipse
10
17.152487
20
-11.918844
30
0
11
-0.335790509924206
21
-0.198599298572596
31
0
210
0
220
0
230
1
40
0.492091
41
-1.58029449207611
42
-0.170021030608709
0
ELLIPSE
5
1E4
100
AcDbEntity
8
1
62
256
6
ByLayer
370
-1
48
1
60
0
100
AcDbEllipse
10
22.36851
20
-12.452897
30
0
11
-0.27679228240424
21
0.16060513036223
31
0
210
0
220
0
230
1
40
0.074719
41
0.767263538798308
42
1.56380547512906
0
ELLIPSE
5
1E5
100
AcDbEntity
8
1
62
256
6
ByLayer
370
-1
48
1
60
0
100
AcDbEllipse
10
22.218956
20
-12.238874
30
0
11
-0.0456617357258342
21
-0.124163624657705
31
0
210
0
220
0
230
1
40
0.697969
41
-1.29670867771033
42
-0.951900386345176
0
ELLIPSE
5
1E6
100
AcDbEntity
8
1
62
256
6
ByLayer
370
-1
48
1
60
0
100
AcDbEllipse
10
19.859205
20
-15.410893
30
0
11
-0.176125829962348
21
0.000349642819538712
31
0
210
0
220
0
230
1
40
0.013275
41
1.7192384498362
42
2.75421869631544
0
ELLIPSE
5
1E7
100
AcDbEntity
8
1
62
256
6
ByLayer
370
-1
48
1
60
0
100
AcDbEllipse
10
22.504221
20
-12.710304
30
0
11
-0.132004968944
21
0.000359883336860988
31
0
210
0
220
0
230
1
40
0.984689
41
3.14158196932919
42
-2.10105994417973
0
ELLIPSE
5
1E8
100
AcDbEntity
8
1
62
256
6
ByLayer
370
-1
48
1
60
0
100
AcDbEllipse
10
22.502379
20
-13.383282
30
0
11
-0.132004968941759
21
0.000359883290115165
31
0
210
0
220
0
230
1
40
0.984689
41
2.18886229204932
42
3.14158196898167
0
ELLIPSE
5
1E9
100
AcDbEntity
8
1
62
256
6
ByLayer
370
-1
48
1
60
0
100
AcDbEllipse
10
22.61038
20
-13.62648
30
0
11
-0.132004968947861
21
0.000359883392387647
31
0
210
0
220
0
230
1
40
0.984689
41
-0.95273036075276
42
-1.06838464678655E-05
0
ELLIPSE
5
1EA
100
AcDbEntity
8
1
62
256
6
ByLayer
370
-1
48
1
60
0
100
AcDbEllipse
10
22.610221
20
-13.684268
30
0
11
-0.132004968947049
21
0.000359883278138137
31
0
210
0
220
0
230
1
40
0.984689
41
-1.0684697172179E-05
42
1.04053270895954
0
ELLIPSE
5
1EB
100
AcDbEntity
8
1
62
256
6
ByLayer
370
-1
48
1
60
0
100
AcDbEllipse
10
23.173189
20
-14.394406
30
0
11
-0.203084567608951
21
0.000553666622596895
31
0
210
0
220
0
230
1
40
0.984689
41
3.14158196908961
42
-2.10105994442729
0
ELLIPSE
5
1EC
100
AcDbEntity
8
1
62
256
6
ByLayer
370
-1
48
1
60
0
100
AcDbEllipse
10
23.173121
20
-14.419268
30
0
11
-0.203084567605539
21
0.000553666658126577
31
0
210
0
220
0
230
1
40
0.984689
41
2.10103857558957
42
3.14158196926169
0
ELLIPSE
5
1ED
100
AcDbEntity
8
1
62
256
6
ByLayer
370
-1
48
1
60
0
100
AcDbEllipse
10
21.991005
20
-10.908243
30
0
11
0.0180802375823473
21
0.199181085971951
31
0
210
0
220
0
230
1
40
0.984685
41
-1.48165050967658
42
-0.958051734078236
0
ELLIPSE
5
1EE
100
AcDbEntity
8
1
62
256
6
ByLayer
370
-1
48
1
60
0
100
AcDbEllipse
10
21.776119
20
-14.403053
30
0
11
-0.254558441227157
21
3.11733884545897E-17
31
0
210
0
220
0
230
1
40
0.99988
41
-0.53969407310823
42
0.53421998580698
0
ELLIPSE
5
1EF
100
AcDbEntity
8
1
62
256
6
ByLayer
370
-1
48
1
60
0
100
AcDbEllipse
10
21.991118
20
-14.766428
30
0
11
-0.254558441227157
21
3.11733884545897E-17
31
0
210
0
220
0
230
1
40
0.99988
41
0.534219985806961
42
0.83915734788335
0
ELLIPSE
5
1F0
100
AcDbEntity
8
1
62
256
6
ByLayer
370
-1
48
1
60
0
100
AcDbEllipse
10
21.993104
20
-14.04086
30
0
11
-0.254558441227157
21
3.11733884545897E-17
31
0
210
0
220
0
230
1
40
0.99988
41
-0.844631240838778
42
-0.539694073108255
0
ELLIPSE
5
1F1
100
AcDbEntity
8
1
62
256
6
ByLayer
370
-1
48
1
60
0
100
AcDbEllipse
10
21.696465
20
-14.269823
30
0
11
-0.491325860452951
21
0.830376881119192
31
0
210
0
220
0
230
1
40
0.342013
41
2.31470180314884
42
3.13698302547835
0
ELLIPSE
5
1F2
100
AcDbEntity
8
1
62
256
6
ByLayer
370
-1
48
1
60
0
100
AcDbEllipse
10
21.695737
20
-14.535765
30
0
11
-0.495864210015733
21
-0.827675111816465
31
0
210
0
220
0
230
1
40
0.342013
41
-3.13698290375697
42
-2.3147016814182
0
ELLIPSE
5
1F3
100
AcDbEntity
8
1
62
256
6
ByLayer
370
-1
48
1
60
0
100
AcDbEllipse
10
20.787277
20
-15.766164
30
0
11
-2.45249889609828
21
-1.40681163511514
31
0
210
0
220
0
230
1
40
0.300608
41
-3.13729915435374
42
-2.96970347943334
0
ELLIPSE
5
1F4
100
AcDbEntity
8
1
62
256
6
ByLayer
370
-1
48
1
60
0
100
AcDbEllipse
10
20.794754
20
-13.034471
30
0
11
-2.44476099316076
21
1.42021441494805
31
0
210
0
220
0
230
1
40
0.300609
41
2.96970337074817
42
3.13729904540075
0
ELLIPSE
5
1F5
100
AcDbEntity
8
1
62
256
6
ByLayer
370
-1
48
1
60
0
100
AcDbEllipse
10
21.099968
20
-14.684407
30
0
11
0.272189295186316
21
-0.168264635577344
31
0
210
0
220
0
230
1
40
0.078857
41
-2.76238866899408
42
-1.72740842256115
0
ELLIPSE
5
1F6
100
AcDbEntity
8
1
62
256
6
ByLayer
370
-1
48
1
60
0
100
AcDbEllipse
10
21.099968
20
-14.684407
30
0
11
-0.278191912985563
21
0.158143161563922
31
0
210
0
220
0
230
1
40
0.013504
41
-1.56314420785068
42
-0.377999582707393
0
ELLIPSE
5
1F7
100
AcDbEntity
8
1
62
256
6
ByLayer
370
-1
48
1
60
0
100
AcDbEllipse
10
21.099968
20
-14.684407
30
0
11
-0.319998801299914
21
0.000875880481828284
31
0
210
0
220
0
230
1
40
0.015521
41
-1.57077508380575
42
-1.39624215860636
0
ELLIPSE
5
1F8
100
AcDbEntity
8
1
62
256
6
ByLayer
370
-1
48
1
60
0
100
AcDbEllipse
10
16.794774
20
-14.535537
30
0
11
0.135500750613122
21
0.0643393082281785
31
0
210
0
220
0
230
1
40
0.089727
41
-2.12893318312621
42
-1.42014369360349
0
ELLIPSE
5
1F9
100
AcDbEntity
8
1
62
256
6
ByLayer
370
-1
48
1
60
0
100
AcDbEllipse
10
19.638494
20
-9.173988
30
0
11
0.108836897204721
21
0.103220781855443
31
0
210
0
220
0
230
1
40
0.131791
41
-1.45540601772904
42
-1.28087309252937
0
ELLIPSE
5
1FA
100
AcDbEntity
8
1
62
256
6
ByLayer
370
-1
48
1
60
0
100
AcDbEllipse
10
20.067022
20
-9.625832
30
0
11
0.108836897204721
21
0.103220781855443
31
0
210
0
220
0
230
1
40
0.131791
41
-1.45540601772885
42
-1.28087309252949
0
ELLIPSE
5
1FB
100
AcDbEntity
8
1
62
256
6
ByLayer
370
-1
48
1
60
0
100
AcDbEllipse
10
20.687074
20
-9.419302
30
0
11
-0.0805518628637624
21
0.126536150522993
31
0
210
0
220
0
230
1
40
0.138793
41
-1.67753375611269
42
-0.968744266589823
0
ELLIPSE
5
1FC
100
AcDbEntity
8
1
62
256
6
ByLayer
370
-1
48
1
60
0
100
AcDbEllipse
10
21.990262
20
-14.769646
30
0
11
-0.284491903543768
21
-0.167225467013979
31
0
210
0
220
0
230
1
40
0.329409
41
0.752335948646945
42
1.57461717098191
0
ELLIPSE
5
1FD
100
AcDbEntity
8
1
62
256
6
ByLayer
370
-1
48
1
60
0
100
AcDbEllipse
10
21.990262
20
-14.769646
30
0
11
0.284010899060889
21
0.168041093827152
31
0
210
0
220
0
230
1
40
0.013348
41
1.56287435652415
42
2.44389568253461
0
ELLIPSE
5
1FE
100
AcDbEntity
8
1
62
256
6
ByLayer
370
-1
48
1
60
0
100
AcDbEllipse
10
21.992248
20
-14.044077
30
0
11
-0.283086776769781
21
0.169593268787697
31
0
210
0
220
0
230
1
40
0.013326
41
-1.56283785193281
42
-0.681816525926195
0
ELLIPSE
5
1FF
100
AcDbEntity
8
1
62
256
6
ByLayer
370
-1
48
1
60
0
100
AcDbEllipse
10
21.992248
20
-14.044077
30
0
11
0.28259193885026
21
-0.170416537040426
31
0
210
0
220
0
230
1
40
0.354474
41
1.5838753958375
42
2.40615661817251
0
ELLIPSE
5
200
100
AcDbEntity
8
1
62
256
6
ByLayer
370
-1
48
1
60
0
100
AcDbEllipse
10
23.156998
20
-14.420159
30
0
11
-1.20713076432578
21
0.289513299989795
31
0
210
0
220
0
230
1
40
0.065395
41
-1.62220687411767
42
-1.4546111969409
0
ELLIPSE
5
201
100
AcDbEntity
8
1
62
256
6
ByLayer
370
-1
48
1
60
0
100
AcDbEllipse
10
23.156998
20
-14.420159
30
0
11
-1.20875917733766
21
-0.275308280217066
31
0
210
0
220
0
230
1
40
0.044146
41
1.45992325653931
42
1.62751892847101
0
ELLIPSE
5
202
100
AcDbEntity
8
1
62
256
6
ByLayer
370
-1
48
1
60
0
100
AcDbEllipse
10
21.775264
20
-14.40627
30
0
11
0.284010899060889
21
0.168041093827152
31
0
210
0
220
0
230
1
40
0.013348
41
1.56287435652419
42
2.44389568253461
0
ELLIPSE
5
203
100
AcDbEntity
8
1
62
256
6
ByLayer
370
-1
48
1
60
0
100
AcDbEllipse
10
21.775264
20
-14.40627
30
0
11
0.283086776769781
21
-0.169593268787698
31
0
210
0
220
0
230
1
40
0.013326
41
1.57875480165696
42
2.45977612766512
0
ELLIPSE
5
204
100
AcDbEntity
8
1
62
256
6
ByLayer
370
-1
48
1
60
0
100
AcDbEllipse
10
21.990262
20
-14.769646
30
0
11
0.164202282649771
21
-0.286247463521696
31
0
210
0
220
0
230
1
40
0.007742
41
1.23518361224083
42
1.58424946263735
0
ELLIPSE
5
205
100
AcDbEntity
8
1
62
256
6
ByLayer
370
-1
48
1
60
0
100
AcDbEllipse
10
21.992248
20
-14.044077
30
0
11
-0.165766666325404
21
-0.285344374984618
31
0
210
0
220
0
230
1
40
0.007779
41
-1.93329407388758
42
-1.58422822348673
0
ELLIPSE
5
206
100
AcDbEntity
8
1
62
256
6
ByLayer
370
-1
48
1
60
0
100
AcDbEllipse
10
22.619692
20
-14.408581
30
0
11
0.164202282649771
21
-0.286247463521696
31
0
210
0
220
0
230
1
40
0.007742
41
1.2351836122389
42
1.58424946263743
0
ELLIPSE
5
207
100
AcDbEntity
8
1
62
256
6
ByLayer
370
-1
48
1
60
0
100
AcDbEllipse
10
22.619692
20
-14.408581
30
0
11
-0.165766666325404
21
-0.285344374984618
31
0
210
0
220
0
230
1
40
0.007779
41
-1.93329407388548
42
-1.58422822348664
0
ELLIPSE
5
208
100
AcDbEntity
8
1
62
256
6
ByLayer
370
-1
48
1
60
0
100
AcDbEllipse
10
22.619692
20
-14.408581
30
0
11
-0.00183525231900525
21
-0.329994896701336
31
0
210
0
220
0
230
1
40
0.179002
41
1.28586323075626
42
1.88728262706724
0
ELLIPSE
5
209
100
AcDbEntity
8
1
62
256
6
ByLayer
370
-1
48
1
60
0
100
AcDbEllipse
10
22.97916
20
-14.41058
30
0
11
0.00183525231900521
21
0.329994896701336
31
0
210
0
220
0
230
1
40
0.179002
41
-1.85572942283345
42
-1.25431002652262
0
ELLIPSE
5
20A
100
AcDbEntity
8
1
62
256
6
ByLayer
370
-1
48
1
60
0
100
AcDbEllipse
10
13.05628
20
-7.427528
30
0
11
-0.0759965875516877
21
-0.129443220899828
31
0
210
0
220
0
230
1
40
0.158036
41
0.936339048741864
42
1.64512853868544
0
ELLIPSE
5
20B
100
AcDbEntity
8
1
62
256
6
ByLayer
370
-1
48
1
60
0
100
AcDbEllipse
10
18.389911
20
-4.2769
30
0
11
-0.161632485826141
21
0.276179180108969
31
0
210
0
220
0
230
1
40
0.142623
41
1.29478794466352
42
1.46932086986304
0
ELLIPSE
5
20C
100
AcDbEntity
8
1
62
256
6
ByLayer
370
-1
48
1
60
0
100
AcDbEllipse
10
18.610897
20
-4.667396
30
0
11
-0.188982656711981
21
0.325976821394055
31
0
210
0
220
0
230
1
40
0.121299
41
1.48515568641305
42
2.52013593284533
0
ELLIPSE
5
20D
100
AcDbEntity
8
1
62
256
6
ByLayer
370
-1
48
1
60
0
100
AcDbEllipse
10
20.404949
20
-7.747365
30
0
11
-0.083718767595647
21
0.143968152942872
31
0
210
0
220
0
230
1
40
0.128583
41
-2.3705952681571
42
-1.66180577889185
0
ELLIPSE
5
20E
100
AcDbEntity
8
1
62
256
6
ByLayer
370
-1
48
1
60
0
100
AcDbEllipse
10
14.76784
20
-5.265199
30
0
11
-0.243081776416282
21
-0.140924866097614
31
0
210
0
220
0
230
1
40
0.053924
41
1.64683880889381
42
2.68181905540285
0
ELLIPSE
5
20F
100
AcDbEntity
8
1
62
256
6
ByLayer
370
-1
48
1
60
0
100
AcDbEllipse
10
17.816645
20
-3.721714
30
0
11
-0.0823724033668646
21
-0.183198314542153
31
0
210
0
220
0
230
1
40
0.958693
41
2.50278225230552
42
3.03303518533077
0
ELLIPSE
5
210
100
AcDbEntity
8
1
62
256
6
ByLayer
370
-1
48
1
60
0
100
AcDbEllipse
10
17.886703
20
-10.634459
30
0
11
-0.00153284667850724
21
-0.394041092525749
31
0
210
0
220
0
230
1
40
0.482349
41
-2.97919341973042
42
-1.56891995827978
0
ELLIPSE
5
211
100
AcDbEntity
8
1
62
256
6
ByLayer
370
-1
48
1
60
0
100
AcDbEllipse
10
16.425938
20
-10.634459
30
0
11
-0.12710885658427
21
-1.28402392056295
31
0
210
0
220
0
230
1
40
0.984662
41
1.66796363829279
42
2.71516118948936
0
ELLIPSE
5
212
100
AcDbEntity
8
1
62
256
6
ByLayer
370
-1
48
1
60
0
100
AcDbEllipse
10
16.425938
20
-10.634459
30
0
11
-0.12710885658427
21
-1.28402392056295
31
0
210
0
220
0
230
1
40
0.984662
41
0.620766087096161
42
1.66796363829275
0
ELLIPSE
5
213
100
AcDbEntity
8
1
62
256
6
ByLayer
370
-1
48
1
60
0
100
AcDbEllipse
10
17.886703
20
-10.634459
30
0
11
-0.00153284668092282
21
-0.394041092523769
31
0
210
0
220
0
230
1
40
0.482349
41
-1.56891995826511
42
-0.158646496808612
0
ELLIPSE
5
214
100
AcDbEntity
8
1
62
256
6
ByLayer
370
-1
48
1
60
0
100
AcDbEllipse
10
17.160154
20
-9.350073
30
0
11
-0.33478920294289
21
0.198289421907632
31
0
210
0
220
0
230
1
40
0.494673
41
0.168147818325065
42
1.57842127978569
0
ELLIPSE
5
215
100
AcDbEntity
8
1
62
256
6
ByLayer
370
-1
48
1
60
0
100
AcDbEllipse
10
16.688735
20
-10.660474
30
0
11
-0.268442714246405
21
-2.71174547278465
31
0
210
0
220
0
230
1
40
0.984662
41
0
42
6.28318530717959
0
ELLIPSE
5
216
100
AcDbEntity
8
1
62
256
6
ByLayer
370
-1
48
1
60
0
100
AcDbEllipse
10
16.699393
20
-10.661529
30
0
11
-0.177319958034322
21
-1.79124471596784
31
0
210
0
220
0
230
1
40
0.984662
41
0
42
6.28318530717959
0
ELLIPSE
5
217
100
AcDbEntity
8
1
62
256
6
ByLayer
370
-1
48
1
60
0
100
AcDbEllipse
10
20.651421
20
-8.074075
30
0
11
1.53075794227797E-17
21
0.25
31
0
210
0
220
0
230
1
40
0.173648
41
0.502338150264082
42
1.09015436395412
0
ELLIPSE
5
218
100
AcDbEntity
8
1
62
256
6
ByLayer
370
-1
48
1
60
0
100
AcDbEllipse
10
20.480026
20
-6.277334
30
0
11
1.10214571844014E-16
21
1.8
31
0
210
0
220
0
230
1
40
0.173648
41
-2.63925450332543
42
-2.41236170056615
0
ELLIPSE
5
219
100
AcDbEntity
8
1
62
256
6
ByLayer
370
-1
48
1
60
0
100
AcDbEllipse
10
20.659362
20
-7.433149
30
0
11
1.53075794227797E-17
21
0.25
31
0
210
0
220
0
230
1
40
0.173648
41
-2.41236170056626
42
-1.58333030586885
0
ELLIPSE
5
21A
100
AcDbEntity
8
1
62
256
6
ByLayer
370
-1
48
1
60
0
100
AcDbEllipse
10
20.654861
20
-6.493825
30
0
11
1.53075794227797E-17
21
0.25
31
0
210
0
220
0
230
1
40
0.173648
41
2.03075104594593
42
2.61418654517759
0
ELLIPSE
5
21B
100
AcDbEntity
8
1
62
256
6
ByLayer
370
-1
48
1
60
0
100
AcDbEllipse
10
20.475699
20
-8.265262
30
0
11
1.10214571844014E-16
21
1.8
31
0
210
0
220
0
230
1
40
0.173648
41
-0.754298911171547
42
-0.527406108412298
0
ELLIPSE
5
21C
100
AcDbEntity
8
1
62
256
6
ByLayer
370
-1
48
1
60
0
100
AcDbEllipse
10
20.66001
20
-7.135696
30
0
11
1.53075794227797E-17
21
0.25
31
0
210
0
220
0
230
1
40
0.173648
41
-1.58333030586885
42
-0.754298911171774
0
ELLIPSE
5
21D
100
AcDbEntity
8
1
62
256
6
ByLayer
370
-1
48
1
60
0
100
AcDbEllipse
10
16.657341
20
-10.651349
30
0
11
-0.278473250631775
21
-3.06780285504269
31
0
210
0
220
0
230
1
40
0.984685
41
0
42
6.28318530717959
0
ELLIPSE
5
21E
100
AcDbEntity
8
1
62
256
6
ByLayer
370
-1
48
1
60
0
100
AcDbEllipse
10
21.097993
20
-15.406007
30
0
11
0.319998801299914
21
-0.000875880481823207
31
0
210
0
220
0
230
1
40
0.015521
41
1.57081756978404
42
1.74535049498343
0
ELLIPSE
5
21F
100
AcDbEntity
8
1
62
256
6
ByLayer
370
-1
48
1
60
0
100
AcDbEllipse
10
22.159778
20
-11.689427
30
0
11
-0.00056188095255118
21
-0.283036697867634
31
0
210
0
220
0
230
1
40
0.092036
41
0.527646107682994
42
1.56262635411729
0
ELLIPSE
5
220
100
AcDbEntity
8
1
62
256
6
ByLayer
370
-1
48
1
60
0
100
AcDbEllipse
10
20.653882
20
-15.406007
30
0
11
-0.375735103937664
21
0.000745904681904512
31
0
210
0
220
0
230
1
40
0.013275
41
-1.4223542037159
42
-0.387373957273875
0
ELLIPSE
5
221
100
AcDbEntity
8
1
62
256
6
ByLayer
370
-1
48
1
60
0
100
AcDbEllipse
10
21.806864
20
-15.203004
30
0
11
-0.20308456761077
21
0.000553666733436464
31
0
210
0
220
0
230
1
40
0.984689
41
1.57078564284262
42
2.10103857595498
0
ELLIPSE
5
222
100
AcDbEntity
8
1
62
256
6
ByLayer
370
-1
48
1
60
0
100
AcDbEllipse
10
17.210416
20
-15.410893
30
0
11
-0.166222918830525
21
0.000370480982121946
31
0
210
0
220
0
230
1
40
0.014047
41
1.01936750181183
42
1.72815699125084
0
ELLIPSE
5
223
100
AcDbEntity
8
1
62
256
6
ByLayer
370
-1
48
1
60
0
100
AcDbEllipse
10
21.175251
20
-9.108532
30
0
11
-0.0758145711384243
21
0.129549340896844
31
0
210
0
220
0
230
1
40
0.142526
41
-1.67219908330468
42
-0.963409593696997
0
POINT
5
41
100
AcDbEntity
8
80
62
256
6
ByLayer
370
-1
48
1
60
0
100
AcDbPoint
10
0
20
0
30
0
39
0
210
0
220
0
230
1
50
360
0
POINT
5
43
100
AcDbEntity
8
81
62
256
6
ByLayer
370
-1
48
1
60
0
100
AcDbPoint
10
24.699398
20
-15.4125
30
0
39
0
210
0
220
0
230
1
50
360
0
POINT
5
45
100
AcDbEntity
8
2
62
256
6
ByLayer
370
-1
48
1
60
0
100
AcDbPoint
10
24.699398
20
15.4125
30
0
39
0
210
0
220
0
230
1
50
360
0
POINT
5
47
100
AcDbEntity
8
2
62
256
6
ByLayer
370
-1
48
1
60
0
100
AcDbPoint
10
24.743198
20
15.411017
30
0
39
0
210
0
220
0
230
1
50
360
0
POINT
5
48
100
AcDbEntity
8
2
62
256
6
ByLayer
370
-1
48
1
60
0
100
AcDbPoint
10
23.376231
20
14.407392
30
0
39
0
210
0
220
0
230
1
50
360
0
SPLINE
5
224
100
AcDbEntity
8
1
62
256
6
ByLayer
370
-1
48
1
60
0
100
AcDbSpline
70
4
71
1
72
4
73
2
40
0
40
0
40
1
40
1
41
1
10
20.3064658132128
20
-6.13903202784257
30
0
41
1
10
19.7981232566243
20
-5.97357917104327
30
0
0
SPLINE
5
225
100
AcDbEntity
8
1
62
256
6
ByLayer
370
-1
48
1
60
0
100
AcDbSpline
70
4
71
3
72
11
73
7
40
0
40
0
40
0
40
0
40
0.186978792981383
40
0.531587385950677
40
0.857751945785795
40
1
40
1
40
1
40
1
41
1
10
12.2663969371012
20
-14.9454420232263
30
0
41
1
10
12.2134683360586
20
-14.9927960437924
30
0
41
1
10
12.0598032906221
20
-15.1234765551651
30
0
41
1
10
11.7918471737816
20
-15.3099543568887
30
0
41
1
10
11.5230756659327
20
-15.4637508712156
30
0
41
1
10
11.3597089512408
20
-15.5339230212494
30
0
41
1
10
11.3094092793823
20
-15.5538810453638
30
0
0
SPLINE
5
226
100
AcDbEntity
8
1
62
256
6
ByLayer
370
-1
48
1
60
0
100
AcDbSpline
70
4
71
3
72
11
73
7
40
0
40
0
40
0
40
0
40
0.0353575436463393
40
0.461449792549228
40
0.875333737408949
40
1
40
1
40
1
40
1
41
1
10
7.75605395508455
20
-15.4650768492421
30
0
41
1
10
7.74449273097264
20
-15.4602693808494
30
0
41
1
10
7.59429428046337
20
-15.3962633663892
30
0
41
1
10
7.33394771007985
20
-15.2228814302243
30
0
41
1
10
7.06468983317578
20
-15.0139582079437
30
0
41
1
10
6.92290188088333
20
-14.8859328060202
30
0
41
1
10
6.89070840475318
20
-14.8556237325971
30
0
0
SPLINE
5
227
100
AcDbEntity
8
1
62
256
6
ByLayer
370
-1
48
1
60
0
100
AcDbSpline
70
4
71
3
72
8
73
4
40
0
40
0
40
0
40
0
40
1
40
1
40
1
40
1
41
1
10
16.513570928188
20
-1.95449344089323
30
0
41
1
10
16.6684416641074
20
-2.03134213514949
30
0
41
1
10
16.8192927718532
20
-2.10721321952275
30
0
41
1
10
16.9666708514538
20
-2.18198654327307
30
0
0
SPLINE
5
228
100
AcDbEntity
8
1
62
256
6
ByLayer
370
-1
48
1
60
0
100
AcDbSpline
70
4
71
1
72
5
73
3
40
0
40
0
40
0.741271820428719
40
1
40
1
41
1.08358774580744
10
14.3223787135554
20
-2.85808870602231
30
0
41
1.08358774580744
10
14.7129233042902
20
-2.97070184163834
30
0
41
1.08358774580744
10
14.8492361765962
20
-3.01000751975911
30
0
0
SPLINE
5
229
100
AcDbEntity
8
1
62
256
6
ByLayer
370
-1
48
1
60
0
100
AcDbSpline
70
4
71
2
72
6
73
3
40
0
40
0
40
0
40
1
40
1
40
1
41
0.973497289157285
10
19.7986152156672
20
-5.97375385048552
30
0
41
1.01271682324434
10
19.720124259252
20
-5.94600630603246
30
0
41
1.08358774580744
10
19.63693309345
20
-5.94600630603246
30
0
0
SPLINE
5
22A
100
AcDbEntity
8
1
62
256
6
ByLayer
370
-1
48
1
60
0
100
AcDbSpline
70
4
71
3
72
14
73
10
40
0
40
0
40
0
40
0
40
0.447435525515748
40
0.447435525515748
40
0.682968574430566
40
0.682968574430566
40
0.918614987173726
40
0.918614987173726
40
1
40
1
40
1
40
1
41
1
10
8.30614912761513
20
-15.5709567386353
30
0
41
1
10
8.29614145477916
20
-15.569496738146
30
0
41
1
10
8.28794836356772
20
-15.5673935209115
30
0
41
1
10
8.27863411606216
20
-15.5630984512387
30
0
41
1
10
8.27599627912434
20
-15.5614120724332
30
0
41
1
10
8.27204017764572
20
-15.5575677085933
30
0
41
1
10
8.27071710871263
20
-15.5554059212662
30
0
41
1
10
8.2699869900481
20
-15.5521021779146
30
0
41
1
10
8.26989227483648
20
-15.5512184496386
30
0
41
1
10
8.26989806765482
20
-15.5502953090787
30
0
0
SPLINE
5
22B
100
AcDbEntity
8
1
62
256
6
ByLayer
370
-1
48
1
60
0
100
AcDbSpline
70
4
71
3
72
20
73
16
40
0
40
0
40
0
40
0
40
0.0608157493560758
40
0.0608157493560758
40
0.21492048874952
40
0.21492048874952
40
0.368561615651641
40
0.368561615651641
40
0.521997789162855
40
0.521997789162855
40
0.675335255652065
40
0.675335255652065
40
0.983339895798549
40
0.983339895798549
40
1
40
1
40
1
40
1
41
1
10
10.8301687674738
20
-15.5481307988589
30
0
41
1
10
10.8301928877696
20
-15.5500504571401
30
0
41
1
10
10.8299564924971
20
-15.5518624786427
30
0
41
1
10
10.8283214076754
20
-15.5579300920902
30
0
41
1
10
10.825695464964
20
-15.561699818523
30
0
41
1
10
10.818422772195
20
-15.5683249285552
30
0
41
1
10
10.8137567696242
20
-15.5712022804711
30
0
41
1
10
10.8029071184219
20
-15.5762870630685
30
0
41
1
10
10.7967037754348
20
-15.5785031331505
30
0
41
1
10
10.7830802588763
20
-15.5824109429617
30
0
41
1
10
10.7756433533843
20
-15.584106863307
30
0
41
1
10
10.7517535399773
20
-15.5885436996916
30
0
41
1
10
10.733682341933
20
-15.5906504193825
30
0
41
1
10
10.7129168000678
20
-15.5920812327782
30
0
41
1
10
10.7118435354864
20
-15.592152595653
30
0
41
1
10
10.7107652952097
20
-15.5922217140914
30
0
0
SPLINE
5
22C
100
AcDbEntity
8
1
62
256
6
ByLayer
370
-1
48
1
60
0
100
AcDbSpline
70
4
71
3
72
10
73
6
40
0
40
0
40
0
40
0
40
0.870856746088042
40
0.870856746088042
40
1
40
1
40
1
40
1
41
1
10
9.09968429169885
20
-15.5172210545436
30
0
41
1
10
9.10422271707057
20
-15.5094386949182
30
0
41
1
10
9.10651143106739
20
-15.5016182674849
30
0
41
1
10
9.10709824027708
20
-15.493120955134
30
0
41
1
10
9.10713623410132
20
-15.4920343947084
30
0
41
1
10
9.10713822558824
20
-15.4909543244785
30
0
0
SPLINE
5
22D
100
AcDbEntity
8
1
62
256
6
ByLayer
370
-1
48
1
60
0
100
AcDbSpline
70
4
71
3
72
10
73
6
40
0
40
0
40
0
40
0
40
0.680481829739661
40
0.680481829739661
40
1
40
1
40
1
40
1
41
1
10
10.3514453214488
20
-15.5106918036537
30
0
41
1
10
10.3436764468396
20
-15.5030154374553
30
0
41
1
10
10.3339021655887
20
-15.4954318482635
30
0
41
1
10
10.3181665619046
20
-15.4850375658323
30
0
41
1
10
10.3129133616299
20
-15.4818075429848
30
0
41
1
10
10.3074720299721
20
-15.4786672369442
30
0
0
SPLINE
5
22E
100
AcDbEntity
8
1
62
256
6
ByLayer
370
-1
48
1
60
0
100
AcDbSpline
70
4
71
3
72
12
73
8
40
0
40
0
40
0
40
0
40
0.190335113104465
40
0.190335113104465
40
0.838836721110699
40
0.838836721110699
40
1
40
1
40
1
40
1
41
1
10
9.77166738066833
20
-15.4704279032476
30
0
41
1
10
9.76811573401503
20
-15.4733329036708
30
0
41
1
10
9.76478001441555
20
-15.4763304822825
30
0
41
1
10
9.75132583725807
20
-15.4898060220056
30
0
41
1
10
9.74361235025009
20
-15.5014995690328
30
0
41
1
10
9.74064312413174
20
-15.516673506056
30
0
41
1
10
9.74038262132228
20
-15.5197788637257
30
0
41
1
10
9.74050624947836
20
-15.5228880975367
30
0
0
SPLINE
5
22F
100
AcDbEntity
8
1
62
256
6
ByLayer
370
-1
48
1
60
0
100
AcDbSpline
70
4
71
3
72
14
73
10
40
0
40
0
40
0
40
0
40
0.314392366702081
40
0.314392366702081
40
0.63220071615518
40
0.63220071615518
40
0.912513196202063
40
0.912513196202063
40
1
40
1
40
1
40
1
41
1
10
16.4434207653742
20
-2.93259612780423
30
0
41
1
10
16.4490353707495
20
-2.92292253185121
30
0
41
1
10
16.4560118249302
20
-2.91382650066492
30
0
41
1
10
16.472484390875
20
-2.89868283284778
30
0
41
1
10
16.4822623135576
20
-2.89251198264259
30
0
41
1
10
16.5017069630801
20
-2.88486546955875
30
0
41
1
10
16.511457257986
20
-2.88280288668156
30
0
41
1
10
16.5241565204493
20
-2.8818608885702
30
0
41
1
10
16.5272052613852
20
-2.88176334208055
30
0
41
1
10
16.5302456229699
20
-2.88178231352916
30
0
0
SPLINE
5
230
100
AcDbEntity
8
1
62
256
6
ByLayer
370
-1
48
1
60
0
100
AcDbSpline
70
4
71
3
72
10
73
6
40
0
40
0
40
0
40
0
40
0.388885978133017
40
0.388885978133017
40
1
40
1
40
1
40
1
41
1
10
13.6155187444905
20
-8.86541553624303
30
0
41
1
10
13.5985141960922
20
-8.85543172316659
30
0
41
1
10
13.5812641463505
20
-8.84541197694816
30
0
41
1
10
13.5368538359104
20
-8.81986554821216
30
0
41
1
10
13.5094084598382
20
-8.80431206328453
30
0
41
1
10
13.4823619931781
20
-8.78925167374842
30
0
0
SPLINE
5
231
100
AcDbEntity
8
1
62
256
6
ByLayer
370
-1
48
1
60
0
100
AcDbSpline
70
4
71
3
72
22
73
18
40
0
40
0
40
0
40
0
40
0.153101873520372
40
0.153101873520372
40
0.442621285364938
40
0.442621285364938
40
0.70738507443968
40
0.70738507443968
40
0.84353260824017
40
0.84353260824017
40
0.92635266577124
40
0.92635266577124
40
0.963706736955257
40
0.963706736955257
40
0.977863955360661
40
0.977863955360661
40
1
40
1
40
1
40
1
41
1
10
13.4823619931781
20
-8.78925167374831
30
0
41
1
10
13.5033580806993
20
-8.79111035408351
30
0
41
1
10
13.5243741353426
20
-8.792758476291
30
0
41
1
10
13.5851646057903
20
-8.79674273247952
30
0
41
1
10
13.6250155731825
20
-8.79844317239682
30
0
41
1
10
13.7012576805561
20
-8.7983625747205
30
0
41
1
10
13.7378165356936
20
-8.79706055591404
30
0
41
1
10
13.7924199228209
20
-8.78948951573909
30
0
41
1
10
13.8109866668663
20
-8.78596286801778
30
0
41
1
10
13.8395042616978
20
-8.77631966033789
30
0
41
1
10
13.8501971491949
20
-8.77170866667629
30
0
41
1
10
13.8636357649793
20
-8.76202491584559
30
0
41
1
10
13.8675685294481
20
-8.75850677747766
30
0
41
1
10
13.8720193967523
20
-8.75289273229652
30
0
41
1
10
13.8731516172248
20
-8.7512532184162
30
0
41
1
10
13.8757077870356
20
-8.74687589070336
30
0
41
1
10
13.8769551379324
20
-8.74399783253656
30
0
41
1
10
13.8778023966075
20
-8.74102667659253
30
0
0
SPLINE
5
232
100
AcDbEntity
8
1
62
256
6
ByLayer
370
-1
48
1
60
0
100
AcDbSpline
70
4
71
3
72
22
73
18
40
0
40
0
40
0
40
0
40
0.02363247176298
40
0.02363247176298
40
0.0629814022064221
40
0.0629814022064221
40
0.0762359204463648
40
0.0762359204463648
40
0.13409917281462
40
0.13409917281462
40
0.288877504287524
40
0.288877504287524
40
0.442933094377612
40
0.442933094377612
40
0.668543354429518
40
0.668543354429518
40
1
40
1
40
1
40
1
41
1
10
14.0499839260151
20
-8.13722267957647
30
0
41
1
10
14.051365680577
20
-8.13237716025594
30
0
41
1
10
14.0516805619054
20
-8.12715021657982
30
0
41
1
10
14.0501751882617
20
-8.11385463265813
30
0
41
1
10
14.0469728809042
20
-8.10580673151253
30
0
41
1
10
14.0416213647682
20
-8.09600257568334
30
0
41
1
10
14.0401510117631
20
-8.09356510690293
30
0
41
1
10
14.0318755866992
20
-8.08084184757868
30
0
41
1
10
14.0237114818734
20
-8.07144075917032
30
0
41
1
10
13.9921271434199
20
-8.03913831059768
30
0
41
1
10
13.9656447466224
20
-8.01919012166158
30
0
41
1
10
13.9117729444384
20
-7.98185704628958
30
0
41
1
10
13.8839346584369
20
-7.96457493495504
30
0
41
1
10
13.8143719726928
20
-7.92382096269421
30
0
41
1
10
13.7721038629319
20
-7.90119911966747
30
0
41
1
10
13.6667144679257
20
-7.84755793251361
30
0
41
1
10
13.6030226874646
20
-7.81758293351362
30
0
41
1
10
13.5388638228262
20
-7.78873657417844
30
0
0
SPLINE
5
233
100
AcDbEntity
8
1
62
256
6
ByLayer
370
-1
48
1
60
0
100
AcDbSpline
70
4
71
3
72
8
73
4
40
0
40
0
40
0
40
0
40
1
40
1
40
1
40
1
41
1
10
19.9643199496892
20
-8.60918656745193
30
0
41
1
10
19.9196517905225
20
-8.66815167975699
30
0
41
1
10
19.876004627438
20
-8.72798084102141
30
0
41
1
10
19.834389202021
20
-8.78925167376696
30
0
0
SPLINE
5
234
100
AcDbEntity
8
1
62
256
6
ByLayer
370
-1
48
1
60
0
100
AcDbSpline
70
4
71
3
72
8
73
4
40
0
40
0
40
0
40
0
40
1
40
1
40
1
40
1
41
1
10
19.7089405050403
20
-8.86541553624295
30
0
41
1
10
19.7606587935918
20
-8.75701980677727
30
0
41
1
10
19.8243875822836
20
-8.65456589040164
30
0
41
1
10
19.8911520028613
20
-8.55497745125203
30
0
0
SPLINE
5
235
100
AcDbEntity
8
1
62
256
6
ByLayer
370
-1
48
1
60
0
100
AcDbSpline
70
4
71
3
72
20
73
16
40
0
40
0
40
0
40
0
40
0.314859192648761
40
0.314859192648761
40
0.531558880441061
40
0.531558880441061
40
0.682135903694833
40
0.682135903694833
40
0.839619845966511
40
0.839619845966511
40
0.90311267377601
40
0.90311267377601
40
0.967902128209802
40
0.967902128209802
40
1
40
1
40
1
40
1
41
1
10
13.5903176362541
20
-7.70300219466014
30
0
41
1
10
13.6533258695278
20
-7.73687692059539
30
0
41
1
10
13.715545185145
20
-7.77239632855398
30
0
41
1
10
13.8177770835161
20
-7.83688109024513
30
0
41
1
10
13.8587386648399
20
-7.86445816613977
30
0
41
1
10
13.9255072263796
20
-7.91477299132603
30
0
41
1
10
13.9521974835874
20
-7.93645134973102
30
0
41
1
10
14.0035602707922
20
-7.98417108117781
30
0
41
1
10
14.0286363924768
20
-8.01048601919643
30
0
41
1
10
14.0565837434044
20
-8.05250185937899
30
0
41
1
10
14.0638045673853
20
-8.06534138720926
30
0
41
1
10
14.0746382317723
20
-8.09261704796228
30
0
41
1
10
14.07827463066
20
-8.10753980611244
30
0
41
1
10
14.0780831384016
20
-8.1297791939854
30
0
41
1
10
14.0770567023975
20
-8.13728714952882
30
0
41
1
10
14.0750177584251
20
-8.14443729231471
30
0
0
SPLINE
5
236
100
AcDbEntity
8
1
62
256
6
ByLayer
370
-1
48
1
60
0
100
AcDbSpline
70
4
71
3
72
18
73
14
40
0
40
0
40
0
40
0
40
0.041454451708769
40
0.041454451708769
40
0.132910922468121
40
0.132910922468121
40
0.263177731540041
40
0.263177731540041
40
0.458562667326531
40
0.458562667326531
40
0.817425847463272
40
0.817425847463272
40
1
40
1
40
1
40
1
41
1
10
13.902836229008
20
-8.74824128933011
30
0
41
1
10
13.9015773815002
20
-8.75265579975667
30
0
41
1
10
13.8999295568597
20
-8.75697379211499
30
0
41
1
10
13.8936118590746
20
-8.77012673292418
30
0
41
1
10
13.8875707791618
20
-8.77839650171222
30
0
41
1
10
13.870852577748
20
-8.79582382795579
30
0
41
1
10
13.8591248661194
20
-8.80424207054577
30
0
41
1
10
13.8285108029279
20
-8.82186307066462
30
0
41
1
10
13.8085794620803
20
-8.82969365090747
30
0
41
1
10
13.7513973991905
20
-8.84769225185471
30
0
41
1
10
13.7129341299352
20
-8.85460128608486
30
0
41
1
10
13.6548950263023
20
-8.86199549330803
30
0
41
1
10
13.6352179504461
20
-8.86391817456908
30
0
41
1
10
13.6155187444934
20
-8.86541553626711
30
0
0
SPLINE
5
237
100
AcDbEntity
8
1
62
256
6
ByLayer
370
-1
48
1
60
0
100
AcDbSpline
70
4
71
3
72
10
73
6
40
0
40
0
40
0
40
0
40
0.638746828356577
40
0.638746828356577
40
1
40
1
40
1
40
1
41
1
10
13.4823619931899
20
-8.78925167373808
30
0
41
1
10
13.3601676216458
20
-8.72120970516212
30
0
41
1
10
13.2371598907615
20
-8.65205254600755
30
0
41
1
10
13.0446528290113
20
-8.54309281053642
30
0
41
1
10
12.974998726555
20
-8.50351324931196
30
0
41
1
10
12.9054120070357
20
-8.46382141239542
30
0
0
SPLINE
5
238
100
AcDbEntity
8
1
62
256
6
ByLayer
370
-1
48
1
60
0
100
AcDbSpline
70
4
71
3
72
14
73
10
40
0
40
0
40
0
40
0
40
0.249103078948813
40
0.249103078948813
40
0.498160925944165
40
0.498160925944165
40
0.745586162481389
40
0.745586162481389
40
1
40
1
40
1
40
1
41
1
10
16.0646026677718
20
-15.409765127744
30
0
41
1
10
16.0469698255524
20
-15.4097772564837
30
0
41
1
10
16.0296082023914
20
-15.4098136830408
30
0
41
1
10
15.9961430866479
20
-15.4099327283793
30
0
41
1
10
15.979923165304
20
-15.4100157454389
30
0
41
1
10
15.9492547817675
20
-15.4102242321061
30
0
41
1
10
15.9346924688131
20
-15.4103501169919
30
0
41
1
10
15.9072086381827
20
-15.4106448333624
30
0
41
1
10
15.8942479036757
20
-15.4108158196503
30
0
41
1
10
15.8825404981717
20
-15.4110049243194
30
0
0
SPLINE
5
239
100
AcDbEntity
8
1
62
256
6
ByLayer
370
-1
48
1
60
0
100
AcDbSpline
70
4
71
3
72
14
73
10
40
0
40
0
40
0
40
0
40
0.233926408286293
40
0.233926408286293
40
0.467719442169553
40
0.467719442169553
40
0.701444004412135
40
0.701444004412135
40
1
40
1
40
1
40
1
41
1
10
12.422768818746
20
-8.52427368529672
30
0
41
1
10
12.4274960298209
20
-8.51276966782177
30
0
41
1
10
12.4328703206518
20
-8.5004846523895
30
0
41
1
10
12.4446525714601
20
-8.47491739601176
30
0
41
1
10
12.4511010056759
20
-8.46154628958485
30
0
41
1
10
12.4648241573416
20
-8.43419850227846
30
0
41
1
10
12.4721443067652
20
-8.42013071199176
30
0
41
1
10
12.4894947618166
20
-8.38786774886714
30
0
41
1
10
12.4998069117528
20
-8.36943594634661
30
0
41
1
10
12.5103857412472
20
-8.35120886341622
30
0
0
SPLINE
5
23A
100
AcDbEntity
8
1
62
256
6
ByLayer
370
-1
48
1
60
0
100
AcDbSpline
70
4
71
3
72
10
73
6
40
0
40
0
40
0
40
0
40
0.736240194588519
40
0.736240194588519
40
1
40
1
40
1
40
1
41
1
10
12.408160481812
20
-14.6952304175787
30
0
41
1
10
12.3850280109507
20
-14.6913952690794
30
0
41
1
10
12.3593268814238
20
-14.6914470722542
30
0
41
1
10
12.3242172355903
20
-14.7007509682506
30
0
41
1
10
12.3147760547218
20
-14.704163872433
30
0
41
1
10
12.3055872369554
20
-14.7086460210471
30
0
0
SPLINE
5
23B
100
AcDbEntity
8
1
62
256
6
ByLayer
370
-1
48
1
60
0
100
AcDbSpline
70
4
71
3
72
14
73
10
40
0
40
0
40
0
40
0
40
0.314392366702016
40
0.314392366702016
40
0.632200716155269
40
0.632200716155269
40
0.912513196202116
40
0.912513196202116
40
1
40
1
40
1
40
1
41
1
10
10.0802092458879
20
-14.6461466756122
30
0
41
1
10
10.0694094004891
20
-14.6462454250454
30
0
41
1
10
10.0583717649898
20
-14.6448188038592
30
0
41
1
10
10.037469231604
20
-14.6380943142361
30
0
41
1
10
10.0273574054561
20
-14.6326094137107
30
0
41
1
10
10.0110161553927
20
-14.6192513101974
30
0
41
1
10
10.0042651809732
20
-14.6116142785713
30
0
41
1
10
9.99689333064677
20
-14.6007431142965
30
0
41
1
10
9.99522830871911
20
-14.5980651065485
30
0
41
1
10
9.99366255701005
20
-14.5953328613372
30
0
0
SPLINE
5
23C
100
AcDbEntity
8
1
62
256
6
ByLayer
370
-1
48
1
60
0
100
AcDbSpline
70
4
71
3
72
22
73
18
40
0
40
0
40
0
40
0
40
0.153101873520355
40
0.153101873520355
40
0.442621285364911
40
0.442621285364911
40
0.707385074439692
40
0.707385074439692
40
0.843532608240156
40
0.843532608240156
40
0.926352665771239
40
0.926352665771239
40
0.963706736955235
40
0.963706736955235
40
0.977863955360651
40
0.977863955360651
40
1
40
1
40
1
40
1
41
1
10
16.6430881819354
20
-14.3744368571207
30
0
41
1
10
16.6345208759389
20
-14.3552525092707
30
0
41
1
10
16.6257632940175
20
-14.3361558625997
30
0
41
1
10
16.5997598045787
20
-14.2813082498237
30
0
41
1
10
16.5819316381258
20
-14.2458079687278
30
0
41
1
10
16.5449651078688
20
-14.1795542199474
30
0
41
1
10
16.5261561405872
20
-14.1484156662079
30
0
41
1
10
16.4932416652191
20
-14.1047184141111
30
0
41
1
10
16.4812336644533
20
-14.0903357504175
30
0
41
1
10
16.459168310745
20
-14.0703562364384
30
0
41
1
10
16.4500419463918
20
-14.0633619682313
30
0
41
1
10
16.435239981126
20
-14.0565146360347
30
0
41
1
10
16.4303219523494
20
-14.0548526460608
30
0
41
1
10
16.4233572672871
20
-14.0537873238146
30
0
41
1
10
16.4214044359088
20
-14.0536219489491
30
0
41
1
10
16.4164164899913
20
-14.0535862736124
30
0
41
1
10
16.4133466819648
20
-14.0539396076429
30
0
41
1
10
16.4103907519659
20
-14.0546873620589
30
0
0
SPLINE
5
23D
100
AcDbEntity
8
1
62
256
6
ByLayer
370
-1
48
1
60
0
100
AcDbSpline
70
4
71
3
72
22
73
18
40
0
40
0
40
0
40
0
40
0.0236324717630014
40
0.0236324717630014
40
0.0629814022064373
40
0.0629814022064373
40
0.0762359204463771
40
0.0762359204463771
40
0.134099172814627
40
0.134099172814627
40
0.288877504287535
40
0.288877504287535
40
0.442933094377618
40
0.442933094377618
40
0.668543354429525
40
0.668543354429525
40
1
40
1
40
1
40
1
41
1
10
15.8096810006667
20
-14.2066474455065
30
0
41
1
10
15.8048603126283
20
-14.2078669232243
30
0
41
1
10
15.8002291787089
20
-14.2102046880172
30
0
41
1
10
15.7895654155027
20
-14.2181566642687
30
0
41
1
10
15.7842194794058
20
-14.2249622904156
30
0
41
1
10
15.7784088962162
20
-14.2345142531445
30
0
41
1
10
15.7770319942068
20
-14.2370106560991
30
0
41
1
10
15.7701353246638
20
-14.2505635998658
30
0
41
1
10
15.7660313521866
20
-14.2623598372483
30
0
41
1
10
15.7536393261232
20
-14.3059633780867
30
0
41
1
10
15.749363420715
20
-14.3389576176781
30
0
41
1
10
15.7434459980975
20
-14.404453368943
30
0
41
1
10
15.7421098094922
20
-14.4372938616649
30
0
41
1
10
15.7408526368658
20
-14.5181408041998
30
0
41
1
10
15.7419225957108
20
-14.5661949430045
30
0
41
1
10
15.7469556094879
20
-14.6846287430548
30
0
41
1
10
15.7520884836566
20
-14.7549818639536
30
0
41
1
10
15.7584125502299
20
-14.82517583131
30
0
0
SPLINE
5
23E
100
AcDbEntity
8
1
62
256
6
ByLayer
370
-1
48
1
60
0
100
AcDbSpline
70
4
71
3
72
8
73
4
40
0
40
0
40
0
40
0
40
1
40
1
40
1
40
1
41
1
10
13.260976931751
20
-8.76322678881286
30
0
41
1
10
13.3345523706872
20
-8.77363084448649
30
0
41
1
10
13.4083524744079
20
-8.78269997515179
30
0
41
1
10
13.4823619932004
20
-8.7892516737503
30
0
0
SPLINE
5
23F
100
AcDbEntity
8
1
62
256
6
ByLayer
370
-1
48
1
60
0
100
AcDbSpline
70
4
71
3
72
8
73
4
40
0
40
0
40
0
40
0
40
1
40
1
40
1
40
1
41
1
10
13.6155187444904
20
-8.86541553624303
30
0
41
1
10
13.4973245659294
20
-8.87439962607999
30
0
41
1
10
13.3782222970034
20
-8.86983796449383
30
0
41
1
10
13.2600537157981
20
-8.86116750964086
30
0
0
SPLINE
5
240
100
AcDbEntity
8
1
62
256
6
ByLayer
370
-1
48
1
60
0
100
AcDbSpline
70
4
71
3
72
20
73
16
40
0
40
0
40
0
40
0
40
0.314859192648761
40
0.314859192648761
40
0.531558880441062
40
0.531558880441062
40
0.682135903694815
40
0.682135903694815
40
0.839619845966504
40
0.839619845966504
40
0.903112673776005
40
0.903112673776005
40
0.967902128209802
40
0.967902128209802
40
1
40
1
40
1
40
1
41
1
10
15.6685879285387
20
-14.8293781306323
30
0
41
1
10
15.6661299534973
20
-14.7569576130215
30
0
41
1
10
15.6654674212188
20
-14.6844044725196
30
0
41
1
10
15.6696017940325
20
-14.5621168398826
30
0
41
1
10
15.6727423090866
20
-14.5122453961506
30
0
41
1
10
15.6824363132362
20
-14.4282588960886
30
0
41
1
10
15.6876466492521
20
-14.3938994405616
30
0
41
1
10
15.7027928976937
20
-14.3247626608725
30
0
41
1
10
15.7127613313442
20
-14.289493027342
30
0
41
1
10
15.7346936327861
20
-14.2438105523763
30
0
41
1
10
15.7420524732499
20
-14.2310107902375
30
0
41
1
10
15.7599273365455
20
-14.207781534293
30
0
41
1
10
15.7708467189389
20
-14.1970868423054
30
0
41
1
10
15.7899117809285
20
-14.1860819994131
30
0
41
1
10
15.7968266725142
20
-14.1832124728158
30
0
41
1
10
15.8039401737759
20
-14.1814129877182
30
0
0
SPLINE
5
241
100
AcDbEntity
8
1
62
256
6
ByLayer
370
-1
48
1
60
0
100
AcDbSpline
70
4
71
3
72
18
73
14
40
0
40
0
40
0
40
0
40
0.0414544517087561
40
0.0414544517087561
40
0.132910922468099
40
0.132910922468099
40
0.263177731540052
40
0.263177731540052
40
0.45856266732653
40
0.45856266732653
40
0.817425847463282
40
0.817425847463282
40
1
40
1
40
1
40
1
41
1
10
16.4046499250792
20
-14.0294529042793
30
0
41
1
10
16.4090418129659
20
-14.028341899092
30
0
41
1
10
16.4135449251837
20
-14.0276214034926
30
0
41
1
10
16.4279077787238
20
-14.0265682780668
30
0
41
1
10
16.4379677357987
20
-14.0277252675144
30
0
41
1
10
16.461151780109
20
-14.0336695756177
30
0
41
1
10
16.4741680123741
20
-14.0397520897172
30
0
41
1
10
16.5044317445689
20
-14.0578173927634
30
0
41
1
10
16.5210287829256
20
-14.0714084067863
30
0
41
1
10
16.5648346601553
20
-14.1126446055983
30
0
41
1
10
16.5898670006496
20
-14.1429932907068
30
0
41
1
10
16.6250539885731
20
-14.1903107833324
30
0
41
1
10
16.6364851804154
20
-14.2066463962703
30
0
41
1
10
16.6475645945122
20
-14.2232151510687
30
0
0
SPLINE
5
242
100
AcDbEntity
8
1
62
256
6
ByLayer
370
-1
48
1
60
0
100
AcDbSpline
70
4
71
3
72
8
73
4
40
0
40
0
40
0
40
0
40
1
40
1
40
1
40
1
41
1
10
8.60158707135901
20
-15.4952171124154
30
0
41
1
10
8.59578502545702
20
-15.4993226229282
30
0
41
1
10
8.58998302592937
20
-15.5034282259727
30
0
41
1
10
8.58418107059339
20
-15.5075339171853
30
0
0
SPLINE
5
243
100
AcDbEntity
8
1
62
256
6
ByLayer
370
-1
48
1
60
0
100
AcDbSpline
70
4
71
3
72
24
73
20
40
0
40
0
40
0
40
0
40
0.104000448201632
40
0.104000448201632
40
0.192499055460794
40
0.192499055460794
40
0.328500518746325
40
0.328500518746325
40
0.43868257566494
40
0.43868257566494
40
0.54853315817134
40
0.54853315817134
40
0.658237202769383
40
0.658237202769383
40
0.767870673660493
40
0.767870673660493
40
0.988088331633811
40
0.988088331633811
40
1
40
1
40
1
40
1
41
1
10
8.58418107059333
20
-15.5075339171853
30
0
41
1
10
8.5728477431017
20
-15.5149859964983
30
0
41
1
10
8.55992741767159
20
-15.5222294420784
30
0
41
1
10
8.53569680612978
20
-15.5338755919426
30
0
41
1
10
8.52416135643455
20
-15.5386925668403
30
0
41
1
10
8.49598306588263
20
-15.5491293336794
30
0
41
1
10
8.47941270739932
20
-15.5540325829681
30
0
41
1
10
8.45176671984296
20
-15.5609545393402
30
0
41
1
10
8.44001524174655
20
-15.5634013246498
30
0
41
1
10
8.41798481775839
20
-15.5673280829101
30
0
41
1
10
8.40763189197986
20
-15.5688214431691
30
0
41
1
10
8.38819924346478
20
-15.571114192965
30
0
41
1
10
8.37908363359014
20
-15.5719170975943
30
0
41
1
10
8.36199615888165
20
-15.5729905736417
30
0
41
1
10
8.35400379780145
20
-15.5732618896849
30
0
41
1
10
8.33159350977803
20
-15.5734221009619
30
0
41
1
10
8.31869700185811
20
-15.5726661802223
30
0
41
1
10
8.30730309890399
20
-15.5711220520159
30
0
41
1
10
8.30672305522472
20
-15.5710404678503
30
0
41
1
10
8.30614912761513
20
-15.5709567386353
30
0
0
SPLINE
5
244
100
AcDbEntity
8
1
62
256
6
ByLayer
370
-1
48
1
60
0
100
AcDbSpline
70
4
71
3
72
8
73
4
40
0
40
0
40
0
40
0
40
1
40
1
40
1
40
1
41
1
10
10.3641799402543
20
-15.5232751538889
30
0
41
1
10
10.3599351000666
20
-15.5190806148747
30
0
41
1
10
10.3556902276619
20
-15.5148861633529
30
0
41
1
10
10.3514453214489
20
-15.5106918036537
30
0
0
SPLINE
5
245
100
AcDbEntity
8
1
62
256
6
ByLayer
370
-1
48
1
60
0
100
AcDbSpline
70
4
71
3
72
8
73
4
40
0
40
0
40
0
40
0
40
1
40
1
40
1
40
1
41
1
10
9.74050624947844
20
-15.5228880975367
30
0
41
1
10
9.74067625851782
20
-15.5271638051898
30
0
41
1
10
9.74084626626984
20
-15.5314396040164
30
0
41
1
10
9.74101627279504
20
-15.5357154897165
30
0
0
SPLINE
5
246
100
AcDbEntity
8
1
62
256
6
ByLayer
370
-1
48
1
60
0
100
AcDbSpline
70
4
71
3
72
8
73
4
40
0
40
0
40
0
40
0
40
1
40
1
40
1
40
1
41
1
10
9.09224497552123
20
-15.5299781475582
30
0
41
1
10
9.09472472834352
20
-15.5257256947319
30
0
41
1
10
9.0972045000911
20
-15.5214733289575
30
0
41
1
10
9.09968429169888
20
-15.5172210545436
30
0
0
SPLINE
5
247
100
AcDbEntity
8
1
62
256
6
ByLayer
370
-1
48
1
60
0
100
AcDbSpline
70
4
71
3
72
24
73
20
40
0
40
0
40
0
40
0
40
0.10400044820173
40
0.10400044820173
40
0.192499055460936
40
0.192499055460936
40
0.32850051874665
40
0.32850051874665
40
0.438682575665356
40
0.438682575665356
40
0.548533158171874
40
0.548533158171874
40
0.658237202770008
40
0.658237202770008
40
0.767870673661174
40
0.767870673661174
40
0.988088331634676
40
0.988088331634676
40
1
40
1
40
1
40
1
41
1
10
9.74101627279495
20
-15.5357154897165
30
0
41
1
10
9.74006663491565
20
-15.5435401655997
30
0
41
1
10
9.73615924306091
20
-15.5512968571111
30
0
41
1
10
9.72425983884602
20
-15.5640487298774
30
0
41
1
10
9.71686904302902
20
-15.5694461623201
30
0
41
1
10
9.69539759978142
20
-15.5814078923069
30
0
41
1
10
9.67957608150886
20
-15.5873079839478
30
0
41
1
10
9.64931086833741
20
-15.5960142559985
30
0
41
1
10
9.63493180544424
20
-15.5992669335158
30
0
41
1
10
9.60562589593061
20
-15.6047780968706
30
0
41
1
10
9.5906058075966
20
-15.6070551285771
30
0
41
1
10
9.56032154197547
20
-15.6108843599604
30
0
41
1
10
9.54500177997409
20
-15.6124429014585
30
0
41
1
10
9.51428944302725
20
-15.6149953415813
30
0
41
1
10
9.49885963858833
20
-15.615991771047
30
0
41
1
10
9.45255825815201
20
-15.6182803141322
30
0
41
1
10
9.42159013860316
20
-15.6188846255571
30
0
41
1
10
9.38943065018321
20
-15.6186926147267
30
0
41
1
10
9.38777734080145
20
-15.6186803697197
30
0
41
1
10
9.38612517291537
20
-15.6186657589431
30
0
0
SPLINE
5
248
100
AcDbEntity
8
1
62
256
6
ByLayer
370
-1
48
1
60
0
100
AcDbSpline
70
4
71
3
72
22
73
18
40
0
40
0
40
0
40
0
40
0.208266363443273
40
0.208266363443273
40
0.317899168105907
40
0.317899168105907
40
0.427584739862174
40
0.427584739862174
40
0.537377253733219
40
0.537377253733219
40
0.647402228731126
40
0.647402228731126
40
0.811583680502346
40
0.811583680502346
40
0.906636022131464
40
0.906636022131464
40
1
40
1
40
1
40
1
41
1
10
9.38612517291537
20
-15.6186657589431
30
0
41
1
10
9.35731604193842
20
-15.61841098836
30
0
41
1
10
9.32876455733094
20
-15.6174500541825
30
0
41
1
10
9.28629676399783
20
-15.6147671667208
30
0
41
1
10
9.27180643754323
20
-15.6136145381151
30
0
41
1
10
9.24338489745037
20
-15.6107802500447
30
0
41
1
10
9.22942152790048
20
-15.6090959410275
30
0
41
1
10
9.20230152298831
20
-15.6050652535526
30
0
41
1
10
9.189099862923
20
-15.60271300531
30
0
41
1
10
9.16392708604397
20
-15.5971329407165
30
0
41
1
10
9.15188628067114
20
-15.5938896973315
30
0
41
1
10
9.12460365561577
20
-15.584380010045
30
0
41
1
10
9.11014222329038
20
-15.5772288581884
30
0
41
1
10
9.09515296633509
20
-15.5629658322832
30
0
41
1
10
9.09127910321504
20
-15.5569454403915
30
0
41
1
10
9.08833751940765
20
-15.5440505761758
30
0
41
1
10
9.08918641105797
20
-15.5370249033829
30
0
41
1
10
9.09224497552097
20
-15.5299781475605
30
0
0
SPLINE
5
249
100
AcDbEntity
8
1
62
256
6
ByLayer
370
-1
48
1
60
0
100
AcDbSpline
70
4
71
3
72
22
73
18
40
0
40
0
40
0
40
0
40
0.208266363441973
40
0.208266363441973
40
0.31789916810468
40
0.31789916810468
40
0.427584739861049
40
0.427584739861049
40
0.537377253732156
40
0.537377253732156
40
0.647402228730102
40
0.647402228730102
40
0.811583680501849
40
0.811583680501849
40
0.906636022131117
40
0.906636022131117
40
1
40
1
40
1
40
1
41
1
10
10.7107652952097
20
-15.5922217140914
30
0
41
1
10
10.691963837069
20
-15.5934269439977
30
0
41
1
10
10.671605110013
20
-15.593966996889
30
0
41
1
10
10.6384504713379
20
-15.5936066752536
30
0
41
1
10
10.6265974959398
20
-15.5932634482697
30
0
41
1
10
10.6021308281075
20
-15.5920548824517
30
0
41
1
10
10.5894897830606
20
-15.5911887231108
30
0
41
1
10
10.5634537617262
20
-15.5887935517075
30
0
41
1
10
10.5500157742131
20
-15.5872613784751
30
0
41
1
10
10.5224294835039
20
-15.5833064956736
30
0
41
1
10
10.5082027730055
20
-15.5808729220764
30
0
41
1
10
10.472387517854
20
-15.5733099232123
30
0
41
1
10
10.4498858952668
20
-15.5673007825733
30
0
41
1
10
10.416081625422
20
-15.5545496618735
30
0
41
1
10
10.4037847949419
20
-15.5490314992932
30
0
41
1
10
10.3819516212257
20
-15.5369092812101
30
0
41
1
10
10.3721243011984
20
-15.5301656588199
30
0
41
1
10
10.364179940255
20
-15.5232751538912
30
0
0
SPLINE
5
24A
100
AcDbEntity
8
1
62
256
6
ByLayer
370
-1
48
1
60
0
100
AcDbSpline
70
4
71
3
72
30
73
26
40
0
40
0
40
0
40
0
40
0.0515194889309798
40
0.0515194889309798
40
0.0928771460763073
40
0.0928771460763073
40
0.148185150442147
40
0.148185150442147
40
0.203338923043197
40
0.203338923043197
40
0.287955708682569
40
0.287955708682569
40
0.372427214532461
40
0.372427214532461
40
0.435367147735078
40
0.435367147735078
40
0.49897102078284
40
0.49897102078284
40
0.701334348038861
40
0.701334348038861
40
0.838887327921197
40
0.838887327921197
40
0.925006664596966
40
0.925006664596966
40
1
40
1
40
1
40
1
41
1
10
16.3030127589541
20
-9.20765205734963
30
0
41
1
10
16.3043495192247
20
-9.22103721624509
30
0
41
1
10
16.3030732199504
20
-9.23510923947131
30
0
41
1
10
16.2974511269538
20
-9.2600915924298
30
0
41
1
10
16.2937354764148
20
-9.27124428344251
30
0
41
1
10
16.2830701552821
20
-9.29678936818132
30
0
41
1
10
16.2754069230951
20
-9.31114508195776
30
0
41
1
10
16.258094829679
20
-9.33891683988614
30
0
41
1
10
16.2483903091907
20
-9.35242894144915
30
0
41
1
10
16.222014921314
20
-9.38552456065827
30
0
41
1
10
16.20427325976
20
-9.40466518199202
30
0
41
1
10
16.166708577045
20
-9.44089290355498
30
0
41
1
10
16.1467573306896
20
-9.45810021327355
30
0
41
1
10
16.1106732216979
20
-9.48637566379495
30
0
41
1
10
16.0948026211303
20
-9.49793344792738
30
0
41
1
10
16.0622855400557
20
-9.52000395007528
30
0
41
1
10
16.0455892754315
20
-9.53053350245224
30
0
41
1
10
15.9755097669035
20
-9.57154027397172
30
0
41
1
10
15.9192392743238
20
-9.59704647734782
30
0
41
1
10
15.8260141283172
20
-9.6247319943553
30
0
41
1
10
15.787737395852
20
-9.63202870764616
30
0
41
1
10
15.7284492385325
20
-9.63301397042525
30
0
41
1
10
15.7058999282559
20
-9.63072644380898
30
0
41
1
10
15.6676647011701
20
-9.61874931382809
30
0
41
1
10
15.6509571835216
20
-9.60976534791325
30
0
41
1
10
15.6382629967343
20
-9.59662798183206
30
0
0
SPLINE
5
24B
100
AcDbEntity
8
1
62
256
6
ByLayer
370
-1
48
1
60
0
100
AcDbSpline
70
4
71
3
72
8
73
4
40
0
40
0
40
0
40
0
40
1
40
1
40
1
40
1
41
1
10
16.3010359302228
20
-9.18785735665537
30
0
41
1
10
16.3016948545675
20
-9.19445555261422
30
0
41
1
10
16.302353797226
20
-9.20105378566919
30
0
41
1
10
16.3030127589541
20
-9.20765205734963
30
0
0
SPLINE
5
24C
100
AcDbEntity
8
1
62
256
6
ByLayer
370
-1
48
1
60
0
100
AcDbSpline
70
4
71
3
72
30
73
26
40
0
40
0
40
0
40
0
40
0.0511772287528858
40
0.0511772287528858
40
0.135075241067766
40
0.135075241067766
40
0.271834780652425
40
0.271834780652425
40
0.469061266910918
40
0.469061266910918
40
0.500636061959843
40
0.500636061959843
40
0.599800502489239
40
0.599800502489239
40
0.697557955314564
40
0.697557955314564
40
0.781333785463134
40
0.781333785463134
40
0.847844869822118
40
0.847844869822118
40
0.899113486931178
40
0.899113486931178
40
0.93907791306919
40
0.93907791306919
40
1
40
1
40
1
40
1
41
1
10
17.732237626214
20
-9.59662798183206
30
0
41
1
10
17.7206735140797
20
-9.60567825446998
30
0
41
1
10
17.7072250092969
20
-9.61277455293728
30
0
41
1
10
17.6701165262796
20
-9.62670112220715
30
0
41
1
10
17.6447839924655
20
-9.63091362733911
30
0
41
1
10
17.5783443715901
20
-9.63433857293975
30
0
41
1
10
17.5358202581286
20
-9.6290352785044
30
0
41
1
10
17.435842736613
20
-9.60593023682478
30
0
41
1
10
17.377880498211
20
-9.5831079724033
30
0
41
1
10
17.3162412552708
20
-9.55011148284001
30
0
41
1
10
17.3077470242255
20
-9.54534650153059
30
0
41
1
10
17.2731515971993
20
-9.52503214782462
30
0
41
1
10
17.2480081764788
20
-9.50808482654708
30
0
41
1
10
17.2012543436895
20
-9.47185262564312
30
0
41
1
10
17.1794387319047
20
-9.45248601375022
30
0
41
1
10
17.1426920450129
20
-9.414297913566
30
0
41
1
10
17.1271085051396
20
-9.3956794148327
30
0
41
1
10
17.1027489970467
20
-9.36071007985132
30
0
41
1
10
17.093166133944
20
-9.34458580601986
30
0
41
1
10
17.0792766391538
20
-9.31509764873169
30
0
41
1
10
17.0742318496464
20
-9.30187047016827
30
0
41
1
10
17.067762288103
20
-9.27789519091783
30
0
41
1
10
17.0657723071924
20
-9.26718100306798
30
0
41
1
10
17.0635925232789
20
-9.24016287503315
30
0
41
1
10
17.0648808075898
20
-9.22342968354363
30
0
41
1
10
17.0698100439653
20
-9.20765205734963
30
0
0
SPLINE
5
24D
100
AcDbEntity
8
1
62
256
6
ByLayer
370
-1
48
1
60
0
100
AcDbSpline
70
4
71
3
72
8
73
4
40
0
40
0
40
0
40
0
40
1
40
1
40
1
40
1
41
1
10
17.0698100439653
20
-9.20765205734963
30
0
41
1
10
17.0718714719889
20
-9.20105378566916
30
0
41
1
10
17.0739329037844
20
-9.19445555261422
30
0
41
1
10
17.0759943392016
20
-9.18785735665537
30
0
0
SPLINE
5
24E
100
AcDbEntity
8
1
62
256
6
ByLayer
370
-1
48
1
60
0
100
AcDbSpline
70
4
71
3
72
24
73
20
40
0
40
0
40
0
40
0
40
0.0974021566269923
40
0.0974021566269923
40
0.180354031075326
40
0.180354031075326
40
0.307542616517224
40
0.307542616517224
40
0.412109117009587
40
0.412109117009587
40
0.516348967690841
40
0.516348967690841
40
0.6204469171534
40
0.6204469171534
40
0.724476829459967
40
0.724476829459967
40
0.93331090138613
40
0.93331090138613
40
1
40
1
40
1
40
1
41
1
10
17.0759943392017
20
-9.18785735665537
30
0
41
1
10
17.0790125483005
20
-9.17414445375937
30
0
41
1
10
17.0788914171958
20
-9.15968136332344
30
0
41
1
10
17.072854826954
20
-9.13443779023484
30
0
41
1
10
17.0677843886698
20
-9.1231306802423
30
0
41
1
10
17.051103659242
20
-9.09697644698093
30
0
41
1
10
17.0372893217337
20
-9.08293844910827
30
0
41
1
10
17.0092757462901
20
-9.06094814519906
30
0
41
1
10
16.9953557043724
20
-9.05216829383718
30
0
41
1
10
16.9663321622147
20
-9.03667842871718
30
0
41
1
10
16.9511376895423
20
-9.0299146420642
30
0
41
1
10
16.9200298133043
20
-9.01805547400235
30
0
41
1
10
16.9040612136392
20
-9.01293910233619
30
0
41
1
10
16.871668304443
20
-9.004124871562
30
0
41
1
10
16.8552071853579
20
-9.00041747989769
30
0
41
1
10
16.8053216048264
20
-8.99117624066875
30
0
41
1
10
16.7713177310974
20
-8.98750103747898
30
0
41
1
10
16.7262808221671
20
-8.98560526468623
30
0
41
1
10
16.7153437606453
20
-8.98537636139574
30
0
41
1
10
16.704396632193
20
-8.98537636139574
30
0
0
SPLINE
5
24F
100
AcDbEntity
8
1
62
256
6
ByLayer
370
-1
48
1
60
0
100
AcDbSpline
70
4
71
3
72
22
73
18
40
0
40
0
40
0
40
0
40
0.142057608739141
40
0.142057608739141
40
0.351004812992683
40
0.351004812992683
40
0.487763342941823
40
0.487763342941823
40
0.591529353509377
40
0.591529353509377
40
0.758694969227017
40
0.758694969227017
40
0.85877663180886
40
0.85877663180886
40
0.960359919517379
40
0.960359919517379
40
1
40
1
40
1
40
1
41
1
10
16.704396632193
20
-8.98537636139574
30
0
41
1
10
16.681103635343
20
-8.98537636139574
30
0
41
1
10
16.6577274656831
20
-8.98640950460074
30
0
41
1
10
16.6001557651375
20
-8.99158957681036
30
0
41
1
10
16.5658635260165
20
-8.99696932500592
30
0
41
1
10
16.5101202808138
20
-9.01031125268736
30
0
41
1
10
16.4882270435203
20
-9.01677042489976
30
0
41
1
10
16.4506352217134
20
-9.03059293425483
30
0
41
1
10
16.4346552484149
20
-9.03738708113164
30
0
41
1
10
16.3945120743163
20
-9.05756288926807
30
0
41
1
10
16.3706492449545
20
-9.07270582411303
30
0
41
1
10
16.3384485985235
20
-9.10205419367443
30
0
41
1
10
16.3275475367208
20
-9.11446714947175
30
0
41
1
10
16.3107528233846
20
-9.14124440051629
30
0
41
1
10
16.3047876424863
20
-9.15606230840058
30
0
41
1
10
16.3014051282391
20
-9.17638153551619
30
0
41
1
10
16.3009658877193
20
-9.18216935997529
30
0
41
1
10
16.3010359302228
20
-9.18785735665537
30
0
0
SPLINE
5
250
100
AcDbEntity
8
1
62
256
6
ByLayer
370
-1
48
1
60
0
100
AcDbSpline
70
4
71
3
72
8
73
4
40
0
40
0
40
0
40
0
40
1
40
1
40
1
40
1
41
1
10
15.6319157903313
20
-11.7230010530438
30
0
41
1
10
15.6275778835502
20
-11.7275973183284
30
0
41
1
10
15.6232400165269
20
-11.7321935592874
30
0
41
1
10
15.6189021876863
20
-11.7367897768838
30
0
0
SPLINE
5
251
100
AcDbEntity
8
1
62
256
6
ByLayer
370
-1
48
1
60
0
100
AcDbSpline
70
4
71
3
72
34
73
30
40
0
40
0
40
0
40
0
40
0.0514465755209391
40
0.0514465755209391
40
0.135786144735391
40
0.135786144735391
40
0.203131635218841
40
0.203131635218841
40
0.270315608875063
40
0.270315608875063
40
0.337431278535891
40
0.337431278535891
40
0.404515897625471
40
0.404515897625471
40
0.499929883690796
40
0.499929883690796
40
0.599210771748099
40
0.599210771748099
40
0.697083019894181
40
0.697083019894181
40
0.780957226922695
40
0.780957226922695
40
0.847546414393203
40
0.847546414393203
40
0.898875235580292
40
0.898875235580292
40
0.980803570703499
40
0.980803570703499
40
1
40
1
40
1
40
1
41
1
10
15.2505296610416
20
-11.0487904419202
30
0
41
1
10
15.2620742641885
20
-11.0443187332037
30
0
41
1
10
15.2729079691552
20
-11.0372063842633
30
0
41
1
10
15.2985415000758
20
-11.0144196904943
30
0
41
1
10
15.3120534179814
20
-10.9959025048804
30
0
41
1
10
15.3325433759324
20
-10.9595430566337
30
0
41
1
10
15.3404408976174
20
-10.9420088782056
30
0
41
1
10
15.3541529049165
20
-10.9056012423789
30
0
41
1
10
15.3600129632622
20
-10.886607818964
30
0
41
1
10
15.3700179368765
20
-10.8477733896564
30
0
41
1
10
15.3741840491525
20
-10.8278465714512
30
0
41
1
10
15.3810120614799
20
-10.7874784742243
30
0
41
1
10
15.383685217807
20
-10.7669670181885
30
0
41
1
10
15.3884764120471
20
-10.7170179472093
30
0
41
1
10
15.3899044668884
20
-10.6873005841395
30
0
41
1
10
15.390084756429
20
-10.6269019142835
30
0
41
1
10
15.388727839282
20
-10.5960360062783
30
0
41
1
10
15.3830472116587
20
-10.535769967592
30
0
41
1
10
15.3787505117493
20
-10.5061522276341
30
0
41
1
10
15.3676964244114
20
-10.4529301955378
30
0
41
1
10
15.3613467329063
20
-10.4289085437555
30
0
41
1
10
15.3473092953092
20
-10.3878992864729
30
0
41
1
10
15.3401272378673
20
-10.3703701898729
30
0
41
1
10
15.3253731384226
20
-10.341387952878
30
0
41
1
10
15.3182268557288
20
-10.329390455469
30
0
41
1
10
15.2976979023198
20
-10.3011899997426
30
0
41
1
10
15.2826927936782
20
-10.2861110715205
30
0
41
1
10
15.2614318864497
20
-10.2743736955864
30
0
41
1
10
15.257194914623
20
-10.2724214505865
30
0
41
1
10
15.2528518410128
20
-10.2708385929555
30
0
0
SPLINE
5
252
100
AcDbEntity
8
1
62
256
6
ByLayer
370
-1
48
1
60
0
100
AcDbSpline
70
4
71
3
72
8
73
4
40
0
40
0
40
0
40
0
40
1
40
1
40
1
40
1
41
1
10
15.2334569158547
20
-11.0554034538933
30
0
41
1
10
15.2391477848013
20
-11.0531991271569
30
0
41
1
10
15.2448386992383
20
-11.0509947899761
30
0
41
1
10
15.2505296610416
20
-11.0487904419203
30
0
0
SPLINE
5
253
100
AcDbEntity
8
1
62
256
6
ByLayer
370
-1
48
1
60
0
100
AcDbSpline
70
4
71
3
72
22
73
18
40
0
40
0
40
0
40
0
40
0.0973712659846976
40
0.0973712659846976
40
0.180296832630703
40
0.180296832630703
40
0.307445080802989
40
0.307445080802989
40
0.411978418514823
40
0.411978418514823
40
0.516185210011002
40
0.516185210011002
40
0.620250145291815
40
0.620250145291815
40
0.829289859625942
40
0.829289859625942
40
1
40
1
40
1
40
1
41
1
10
15.6189021876863
20
-11.7367897768838
30
0
41
1
10
15.6092435942729
20
-11.7452527623655
30
0
41
1
10
15.5973772536447
20
-11.7513358984026
30
0
41
1
10
15.5737118713212
20
-11.7569308687924
30
0
41
1
10
15.5619118478627
20
-11.757396012056
30
0
41
1
10
15.5321147875807
20
-11.7541865465047
30
0
41
1
10
15.5136656881998
20
-11.74825626837
30
0
41
1
10
15.4815632439747
20
-11.7334187380093
30
0
41
1
10
15.4673715223403
20
-11.7251141436427
30
0
41
1
10
15.4400986885605
20
-11.7065617149515
30
0
41
1
10
15.4269276911746
20
-11.6962582058779
30
0
41
1
10
15.4016047721858
20
-11.6742792488468
30
0
41
1
10
15.3894078944573
20
-11.6625648975565
30
0
41
1
10
15.3541837587962
20
-11.6258057283629
30
0
41
1
10
15.3324404172465
20
-11.5990739401261
30
0
41
1
10
15.2962173484777
20
-11.5481209520827
30
0
41
1
10
15.2810673520005
20
-11.5242204765948
30
0
41
1
10
15.2671428733304
20
-11.499604921511
30
0
0
SPLINE
5
254
100
AcDbEntity
8
1
62
256
6
ByLayer
370
-1
48
1
60
0
100
AcDbSpline
70
4
71
3
72
24
73
20
40
0
40
0
40
0
40
0
40
0.0380198325518706
40
0.0380198325518706
40
0.246834654674988
40
0.246834654674988
40
0.40472650566342
40
0.40472650566342
40
0.526150637962957
40
0.526150637962957
40
0.621531995503779
40
0.621531995503779
40
0.776890538332205
40
0.776890538332205
40
0.873684213898083
40
0.873684213898083
40
0.971746172255091
40
0.971746172255091
40
1
40
1
40
1
40
1
41
1
10
15.2671428733304
20
-11.499604921511
30
0
41
1
10
15.2640381913061
20
-11.4941164954666
30
0
41
1
10
15.2609933332163
20
-11.4885898369895
30
0
41
1
10
15.241650829722
20
-11.4525274751343
30
0
41
1
10
15.2270690857606
20
-11.4208630641419
30
0
41
1
10
15.2053170438009
20
-11.3638440746563
30
0
41
1
10
15.1971692743623
20
-11.3387266562837
30
0
41
1
10
15.1855674592894
20
-11.2936904693437
30
0
41
1
10
15.1814466410262
20
-11.273836869712
30
0
41
1
10
15.1762688177336
20
-11.2382510581596
30
0
41
1
10
15.1747372690122
20
-11.2224887393334
30
0
41
1
10
15.1732864491278
20
-11.1815079139393
30
0
41
1
10
15.1749276090162
20
-11.1559028128173
30
0
41
1
10
15.184188180233
20
-11.1176675738733
30
0
41
1
10
15.189462910977
20
-11.1035254107136
30
0
41
1
10
15.2037856085735
20
-11.0790866172764
30
0
41
1
10
15.213145119771
20
-11.0685635924757
30
0
41
1
10
15.2268899274679
20
-11.0590051092859
30
0
41
1
10
15.2301301811189
20
-11.0570783171805
30
0
41
1
10
15.2334569158547
20
-11.0554034538933
30
0
0
SPLINE
5
255
100
AcDbEntity
8
1
62
256
6
ByLayer
370
-1
48
1
60
0
100
AcDbSpline
70
4
71
3
72
14
73
10
40
0
40
0
40
0
40
0
40
0.314392366702094
40
0.314392366702094
40
0.632200716155275
40
0.632200716155275
40
0.912513196202079
40
0.912513196202079
40
1
40
1
40
1
40
1
41
1
10
23.2379374790258
20
-14.356199694226
30
0
41
1
10
23.2436409799392
20
-14.365821584771
30
0
41
1
10
23.2481088962937
20
-14.3763811576474
30
0
41
1
10
23.2529853615416
20
-14.3982898449723
30
0
41
1
10
23.2533556432638
20
-14.4099488978613
30
0
41
1
10
23.2499493386349
20
-14.4309260188888
30
0
41
1
10
23.246654386071
20
-14.4405987980218
30
0
41
1
10
23.2408003963022
20
-14.4523641614483
30
0
41
1
10
23.2392798266103
20
-14.4551272933575
30
0
41
1
10
23.2376593103081
20
-14.457827322776
30
0
0
SPLINE
5
256
100
AcDbEntity
8
1
62
256
6
ByLayer
370
-1
48
1
60
0
100
AcDbSpline
70
4
71
3
72
10
73
6
40
0
40
0
40
0
40
0
40
0.38888597813298
40
0.38888597813298
40
1
40
1
40
1
40
1
41
1
10
19.7089405050403
20
-8.86541553624303
30
0
41
1
10
19.7259997075621
20
-8.85543172316659
30
0
41
1
10
19.7428684913558
20
-8.84541197694816
30
0
41
1
10
19.7852905203556
20
-8.81986554821216
30
0
41
1
10
19.8105623699275
20
-8.8043120632845
30
0
41
1
10
19.8343892020335
20
-8.7892516737484
30
0
0
SPLINE
5
257
100
AcDbEntity
8
1
62
256
6
ByLayer
370
-1
48
1
60
0
100
AcDbSpline
70
4
71
3
72
8
73
4
40
0
40
0
40
0
40
0
40
1
40
1
40
1
40
1
41
1
10
16.6430881819263
20
-14.3744368571003
30
0
41
1
10
16.6459178413147
20
-14.3259684323835
30
0
41
1
10
16.6474246500298
20
-14.2743432004352
30
0
41
1
10
16.6475645944932
20
-14.2232151510835
30
0
0
SPLINE
5
258
100
AcDbEntity
8
1
62
256
6
ByLayer
370
-1
48
1
60
0
100
AcDbSpline
70
4
71
3
72
22
73
18
40
0
40
0
40
0
40
0
40
0.153101873520339
40
0.153101873520339
40
0.442621285364885
40
0.442621285364885
40
0.707385074439666
40
0.707385074439666
40
0.84353260824015
40
0.84353260824015
40
0.926352665771231
40
0.926352665771231
40
0.96370673695525
40
0.96370673695525
40
0.977863955360653
40
0.977863955360653
40
1
40
1
40
1
40
1
41
1
10
19.8343892020336
20
-8.78925167374851
30
0
41
1
10
19.8225831380495
20
-8.80663386711777
30
0
41
1
10
19.810945823213
20
-8.82413877586137
30
0
41
1
10
19.7779479566358
20
-8.87516453548952
30
0
41
1
10
19.7570890302272
20
-8.90907002489229
30
0
41
1
10
19.7200099148845
20
-8.97560375047439
30
0
41
1
10
19.7033016058406
20
-9.00813887011196
30
0
41
1
10
19.6831204579201
20
-9.05954402642524
30
0
41
1
10
19.6770662693092
20
-9.07749913771229
30
0
41
1
10
19.6713539784117
20
-9.1071890267724
30
0
41
1
10
19.6700566529589
20
-9.11881872448643
30
0
41
1
10
19.6717264230321
20
-9.13537762218834
30
0
41
1
10
19.672795749117
20
-9.14056538105842
30
0
41
1
10
19.6753913409705
20
-9.14725217135461
30
0
41
1
10
19.6762310233923
20
-9.14905879127653
30
0
41
1
10
19.6787003261875
20
-9.15347520073104
30
0
41
1
10
19.6805350238756
20
-9.15600103597788
30
0
41
1
10
19.6826436951993
20
-9.15822443750591
30
0
0
SPLINE
5
259
100
AcDbEntity
8
1
62
256
6
ByLayer
370
-1
48
1
60
0
100
AcDbSpline
70
4
71
3
72
22
73
18
40
0
40
0
40
0
40
0
40
0.0236324717629722
40
0.0236324717629722
40
0.0629814022064121
40
0.0629814022064121
40
0.0762359204463683
40
0.0762359204463683
40
0.134099172814621
40
0.134099172814621
40
0.288877504287517
40
0.288877504287517
40
0.442933094377611
40
0.442933094377611
40
0.668543354429516
40
0.668543354429516
40
1
40
1
40
1
40
1
41
1
10
20.1111719170908
20
-9.61006835107435
30
0
41
1
10
20.1146108505673
20
-9.61369439267708
30
0
41
1
10
20.11889337378
20
-9.61658050984801
30
0
41
1
10
20.1309105303489
20
-9.6219103218329
30
0
41
1
10
20.1393010270633
20
-9.62313827770828
30
0
41
1
10
20.1502292751617
20
-9.62336924346303
30
0
41
1
10
20.1530143717238
20
-9.62330466698805
30
0
41
1
10
20.1678447463328
20
-9.62244396364275
30
0
41
1
10
20.1798013966979
20
-9.62002054555362
30
0
41
1
10
20.2226057761443
20
-9.60861306884667
30
0
41
1
10
20.2524389583774
20
-9.59548304240218
30
0
41
1
10
20.3103707996468
20
-9.56715176648697
30
0
41
1
10
20.338600977032
20
-9.55150766853652
30
0
41
1
10
20.4070787162898
20
-9.51120209740338
30
0
41
1
10
20.4468692166684
20
-9.48564202515493
30
0
41
1
10
20.5437334851491
20
-9.42053242318369
30
0
41
1
10
20.6001976586436
20
-9.37996415638997
30
0
41
1
10
20.655929414004
20
-9.33842564915986
30
0
0
SPLINE
5
25A
100
AcDbEntity
8
1
62
256
6
ByLayer
370
-1
48
1
60
0
100
AcDbSpline
70
4
71
3
72
8
73
4
40
0
40
0
40
0
40
0
40
1
40
1
40
1
40
1
41
1
10
16.72790890562
20
-14.5799246983835
30
0
41
1
10
16.7012254604781
20
-14.5107573942425
30
0
41
1
10
16.6732872460859
20
-14.4420601393564
30
0
41
1
10
16.6430881819263
20
-14.3744368571003
30
0
0
SPLINE
5
25B
100
AcDbEntity
8
1
62
256
6
ByLayer
370
-1
48
1
60
0
100
AcDbSpline
70
4
71
3
72
8
73
4
40
0
40
0
40
0
40
0
40
1
40
1
40
1
40
1
41
1
10
16.6475645944932
20
-14.2232151510834
30
0
41
1
10
16.7140404845027
20
-14.3226267907121
30
0
41
1
10
16.7694139647369
20
-14.429642368674
30
0
41
1
10
16.8208181253645
20
-14.5379012626765
30
0
0
SPLINE
5
25C
100
AcDbEntity
8
1
62
256
6
ByLayer
370
-1
48
1
60
0
100
AcDbSpline
70
4
71
3
72
20
73
16
40
0
40
0
40
0
40
0
40
0.314859192648756
40
0.314859192648756
40
0.531558880441072
40
0.531558880441072
40
0.682135903694838
40
0.682135903694838
40
0.839619845966516
40
0.839619845966516
40
0.903112673776005
40
0.903112673776005
40
0.967902128209804
40
0.967902128209804
40
1
40
1
40
1
40
1
41
1
10
20.7131182792311
20
-9.42166589827701
30
0
41
1
10
20.6525680209989
20
-9.46021168995256
30
0
41
1
10
20.5910112376602
20
-9.49724542249592
30
0
41
1
10
20.4846449664753
20
-9.5550482934417
30
0
41
1
10
20.4405428700974
20
-9.57734266127912
30
0
41
1
10
20.364080304408
20
-9.6110143361548
30
0
41
1
10
20.3321797111844
20
-9.62369543327685
30
0
41
1
10
20.265670675538
20
-9.64511248151919
30
0
41
1
10
20.230626120203
20
-9.65406717703098
30
0
41
1
10
20.1807464678334
20
-9.65773381181418
30
0
41
1
10
20.1661668033887
20
-9.65769404612269
30
0
41
1
10
20.1374582757061
20
-9.65364764131417
30
0
41
1
10
20.122902494425
20
-9.6494195751516
30
0
41
1
10
20.1040289246938
20
-9.63818503017089
30
0
41
1
10
20.0981404691122
20
-9.63354660122479
30
0
41
1
10
20.0930659118229
20
-9.62819594353655
30
0
0
SPLINE
5
25D
100
AcDbEntity
8
1
62
256
6
ByLayer
370
-1
48
1
60
0
100
AcDbSpline
70
4
71
3
72
18
73
14
40
0
40
0
40
0
40
0
40
0.0414544517087648
40
0.0414544517087648
40
0.132910922468122
40
0.132910922468122
40
0.263177731540057
40
0.263177731540057
40
0.458562667326538
40
0.458562667326538
40
0.817425847463275
40
0.817425847463275
40
1
40
1
40
1
40
1
41
1
10
19.6645376899367
20
-9.17635202996007
30
0
41
1
10
19.6614046495577
20
-9.1730485247208
30
0
41
1
10
19.6585493619804
20
-9.16945102796186
30
0
41
1
10
19.6505042062255
20
-9.1573512125785
30
0
41
1
10
19.6464853290635
20
-9.14792445434281
30
0
41
1
10
19.6400194861669
20
-9.12455281999593
30
0
41
1
10
19.6387309655304
20
-9.11005206330648
30
0
41
1
10
19.6390812965271
20
-9.07436576014146
30
0
41
1
10
19.642415599018
20
-9.05294416587566
30
0
41
1
10
19.6557917846781
20
-8.99370936611643
30
0
41
1
10
19.6692227134391
20
-8.95645164677774
30
0
41
1
10
19.6920748291486
20
-8.90173994692898
30
0
41
1
10
19.7003207131625
20
-8.88348165273013
30
0
41
1
10
19.7089405050183
20
-8.8654155362336
30
0
0
SPLINE
5
25E
100
AcDbEntity
8
1
62
256
6
ByLayer
370
-1
48
1
60
0
100
AcDbSpline
70
4
71
3
72
10
73
6
40
0
40
0
40
0
40
0
40
0.638746828356587
40
0.638746828356587
40
1
40
1
40
1
40
1
41
1
10
19.8343892020354
20
-8.78925167376443
30
0
41
1
10
19.9420374509429
20
-8.72120970518847
30
0
41
1
10
20.0530751267824
20
-8.65205254600755
30
0
41
1
10
20.2297904029304
20
-8.54309281053642
30
0
41
1
10
20.2943564729328
20
-8.50351324931196
30
0
41
1
10
20.3594677408743
20
-8.46382141239542
30
0
0
SPLINE
5
25F
100
AcDbEntity
8
1
62
256
6
ByLayer
370
-1
48
1
60
0
100
AcDbSpline
70
4
71
3
72
12
73
8
40
0
40
0
40
0
40
0
40
0.197891272102658
40
0.197891272102658
40
0.598376100017387
40
0.598376100017387
40
1
40
1
40
1
40
1
41
1
10
16.643088181935
20
-14.3744368571186
30
0
41
1
10
16.6406619106921
20
-14.4159957618957
30
0
41
1
10
16.6383633667019
20
-14.457807241704
30
0
41
1
10
16.6317486846002
20
-14.5847997521583
30
0
41
1
10
16.6277697552682
20
-14.6705999837498
30
0
41
1
10
16.6205677692145
20
-14.8434251122705
30
0
41
1
10
16.6173460501069
20
-14.9305215744537
30
0
41
1
10
16.6145002076585
20
-15.0179938477128
30
0
0
SPLINE
5
260
100
AcDbEntity
8
1
62
256
6
ByLayer
370
-1
48
1
60
0
100
AcDbSpline
70
4
71
3
72
14
73
10
40
0
40
0
40
0
40
0
40
0.249103078948801
40
0.249103078948801
40
0.498160925944193
40
0.498160925944193
40
0.745586162481393
40
0.745586162481393
40
1
40
1
40
1
40
1
41
1
10
12.8355209392558
20
-7.79100830239602
30
0
41
1
10
12.8445805434206
20
-7.77539881020058
30
0
41
1
10
12.8539060451877
20
-7.75981673017805
30
0
41
1
10
12.8726894957331
20
-7.72935756304301
30
0
41
1
10
12.8822125311149
20
-7.71437464324799
30
0
41
1
10
12.9010712527602
20
-7.68559763896272
30
0
41
1
10
12.9104710117954
20
-7.67169984089131
30
0
41
1
10
12.9291570043256
20
-7.64497389884491
30
0
41
1
10
12.9384986053632
20
-7.63209255464079
30
0
41
1
10
12.9475104078356
20
-7.62015584632044
30
0
0
SPLINE
5
261
100
AcDbEntity
8
1
62
256
6
ByLayer
370
-1
48
1
60
0
100
AcDbSpline
70
4
71
3
72
14
73
10
40
0
40
0
40
0
40
0
40
0.23392640828627
40
0.23392640828627
40
0.467719442169554
40
0.467719442169554
40
0.701444004412147
40
0.701444004412147
40
1
40
1
40
1
40
1
41
1
10
20.547747565023
20
-8.01060573450141
30
0
41
1
10
20.5524126720496
20
-8.02179113802393
30
0
41
1
10
20.5577204885622
20
-8.03379220116437
30
0
41
1
10
20.5693641125113
20
-8.05887161368798
30
0
41
1
10
20.5757399125794
20
-8.0720370504344
30
0
41
1
10
20.5893142539853
20
-8.09905638936081
30
0
41
1
10
20.5965577316698
20
-8.11300025721357
30
0
41
1
10
20.6137320826154
20
-8.14507609820666
30
0
41
1
10
20.6239434355361
20
-8.16347000972189
30
0
41
1
10
20.6344224074629
20
-8.18172541792296
30
0
0
SPLINE
5
262
100
AcDbEntity
8
1
62
256
6
ByLayer
370
-1
48
1
60
0
100
AcDbSpline
70
4
71
3
72
10
73
6
40
0
40
0
40
0
40
0
40
0.736240194588483
40
0.736240194588483
40
1
40
1
40
1
40
1
41
1
10
15.2324711443467
20
-4.95485061846517
30
0
41
1
10
15.2403600965543
20
-4.93971474534428
30
0
41
1
10
15.246366545719
20
-4.92031915136533
30
0
41
1
10
15.2478942468049
20
-4.88866525257015
30
0
41
1
10
15.2476409758951
20
-4.87964684088567
30
0
41
1
10
15.2465080095565
20
-4.87024340004723
30
0
0
SPLINE
5
263
100
AcDbEntity
8
1
62
256
6
ByLayer
370
-1
48
1
60
0
100
AcDbSpline
70
4
71
3
72
8
73
4
40
0
40
0
40
0
40
0
40
1
40
1
40
1
40
1
41
1
10
17.7322376262141
20
-9.596627981832
30
0
41
1
10
17.7379382050568
20
-9.59216661098736
30
0
41
1
10
17.743638767207
20
-9.58770526675161
30
0
41
1
10
17.7493393133249
20
-9.58324394807116
30
0
0
SPLINE
5
264
100
AcDbEntity
8
1
62
256
6
ByLayer
370
-1
48
1
60
0
100
AcDbSpline
70
4
71
3
72
34
73
30
40
0
40
0
40
0
40
0
40
0.0514465755209201
40
0.0514465755209201
40
0.135786144735365
40
0.135786144735365
40
0.203131635218802
40
0.203131635218802
40
0.27031560887502
40
0.27031560887502
40
0.337431278535847
40
0.337431278535847
40
0.404515897625427
40
0.404515897625427
40
0.499929883690796
40
0.499929883690796
40
0.599210771748107
40
0.599210771748107
40
0.697083019894183
40
0.697083019894183
40
0.780957226922699
40
0.780957226922699
40
0.847546414393215
40
0.847546414393215
40
0.898875235580308
40
0.898875235580308
40
0.980803570703511
40
0.980803570703511
40
1
40
1
40
1
40
1
41
1
10
18.1136237555037
20
-10.2708385929555
30
0
41
1
10
18.0993148554393
20
-10.2750366567541
30
0
41
1
10
18.0857208594611
20
-10.2818757573315
30
0
41
1
10
18.0532409724
20
-10.3039847125577
30
0
41
1
10
18.0357790923159
20
-10.3221108811758
30
0
41
1
10
18.0089915213487
20
-10.3578469123842
30
0
41
1
10
17.9985352205553
20
-10.3751277906349
30
0
41
1
10
17.9802401446726
20
-10.4110817366214
30
0
41
1
10
17.9723401430684
20
-10.4298732207649
30
0
41
1
10
17.958776046994
20
-10.4683553233135
30
0
41
1
10
17.953082853592
20
-10.4881309717993
30
0
41
1
10
17.9437219640528
20
-10.5282483329447
30
0
41
1
10
17.9400386502286
20
-10.5486597908712
30
0
41
1
10
17.9334389174204
20
-10.5984298299292
30
0
41
1
10
17.9314760847281
20
-10.6280942539531
30
0
41
1
10
17.9312957951875
20
-10.6884929238091
30
0
41
1
10
17.9332316892553
20
-10.7194161462407
30
0
41
1
10
17.9411924745079
20
-10.7799079036417
30
0
41
1
10
17.9471809714451
20
-10.8096931189732
30
0
41
1
10
17.9623748052158
20
-10.8633249553007
30
0
41
1
10
17.9710416154846
20
-10.8875759846763
30
0
41
1
10
17.9899333587628
20
-10.9290657822625
30
0
41
1
10
17.9995222453594
20
-10.94683313712
30
0
41
1
10
18.018971062422
20
-10.9762801163824
30
0
41
1
10
18.0283185826429
20
-10.9884955200006
30
0
41
1
10
18.0548830612845
20
-11.0172934480163
30
0
41
1
10
18.0740443282303
20
-11.0327838051233
30
0
41
1
10
18.1006386476289
20
-11.0450491493544
30
0
41
1
10
18.1059162384694
20
-11.0471044079281
30
0
41
1
10
18.1113015755326
20
-11.0487904419203
30
0
0
SPLINE
5
265
100
AcDbEntity
8
1
62
256
6
ByLayer
370
-1
48
1
60
0
100
AcDbSpline
70
4
71
3
72
8
73
4
40
0
40
0
40
0
40
0
40
1
40
1
40
1
40
1
41
1
10
18.1347845851565
20
-10.2646302710617
30
0
41
1
10
18.1277309989325
20
-10.2666996988821
30
0
41
1
10
18.1206773893687
20
-10.2687691393397
30
0
41
1
10
18.1136237555037
20
-10.2708385929555
30
0
0
SPLINE
5
266
100
AcDbEntity
8
1
62
256
6
ByLayer
370
-1
48
1
60
0
100
AcDbSpline
70
4
71
3
72
22
73
18
40
0
40
0
40
0
40
0
40
0.0973712659846727
40
0.0973712659846727
40
0.180296832630727
40
0.180296832630727
40
0.307445080803038
40
0.307445080803038
40
0.411978418514881
40
0.411978418514881
40
0.516185210011068
40
0.516185210011068
40
0.620250145291897
40
0.620250145291897
40
0.829289859626059
40
0.829289859626059
40
1
40
1
40
1
40
1
41
1
10
17.7493393133249
20
-9.58324394807119
30
0
41
1
10
17.7617645705799
20
-9.57505484181536
30
0
41
1
10
17.7763775829973
20
-9.56924360593919
30
0
41
1
10
17.8045649872068
20
-9.56409628221869
30
0
41
1
10
17.818281564142
20
-9.56382086355217
30
0
41
1
10
17.8523228441654
20
-9.5674504754183
30
0
41
1
10
17.8728679100169
20
-9.5735882387076
30
0
41
1
10
17.9080998759507
20
-9.5887355685351
30
0
41
1
10
17.9234740597658
20
-9.59715721789837
30
0
41
1
10
17.9527648851892
20
-9.61590941281378
30
0
41
1
10
17.9667780658833
20
-9.62629629179634
30
0
41
1
10
17.9935390984474
20
-9.64841761141844
30
0
41
1
10
18.0063341277184
20
-9.66019117528052
30
0
41
1
10
18.0430757620029
20
-9.69710056559686
30
0
41
1
10
18.065469190681
20
-9.72389670764377
30
0
41
1
10
18.1024146715874
20
-9.77492120913746
30
0
41
1
10
18.1177193098554
20
-9.79883699301706
30
0
41
1
10
18.1316437885255
20
-9.82345254810082
30
0
0
SPLINE
5
267
100
AcDbEntity
8
1
62
256
6
ByLayer
370
-1
48
1
60
0
100
AcDbSpline
70
4
71
3
72
24
73
20
40
0
40
0
40
0
40
0
40
0.0380198325519928
40
0.0380198325519928
40
0.2468346546751
40
0.2468346546751
40
0.404726505663489
40
0.404726505663489
40
0.526150637963014
40
0.526150637963014
40
0.621531995503824
40
0.621531995503824
40
0.776890538332207
40
0.776890538332207
40
0.873684213898071
40
0.873684213898071
40
0.971746172255054
40
0.971746172255054
40
1
40
1
40
1
40
1
41
1
10
18.1316437885255
20
-9.82345254810082
30
0
41
1
10
18.1347484705498
20
-9.82894097414521
30
0
41
1
10
18.1377855280151
20
-9.83446686041836
30
0
41
1
10
18.1570266435948
20
-9.87051918562102
30
0
41
1
10
18.1712923354717
20
-9.90215230979825
30
0
41
1
10
18.1919979498783
20
-9.95906771070764
30
0
41
1
10
18.1995326990485
20
-9.98412444461474
30
0
41
1
10
18.2096566786074
20
-10.029014336786
30
0
41
1
10
18.2130009229446
20
-10.0487910613516
30
0
41
1
10
18.2164623656008
20
-10.0842069639353
30
0
41
1
10
18.2171217323185
20
-10.0998829432039
30
0
41
1
10
18.2158854152354
20
-10.1405977619435
30
0
41
1
10
18.2121492276021
20
-10.1659954708379
30
0
41
1
10
18.198434659289
20
-10.2037897970628
30
0
41
1
10
18.1911501003773
20
-10.217733002122
30
0
41
1
10
18.1722613708666
20
-10.2417197922231
30
0
41
1
10
18.1602631733799
20
-10.2519816066275
30
0
41
1
10
18.1429843311512
20
-10.2611902465774
30
0
41
1
10
18.13892990311
20
-10.2630364414492
30
0
41
1
10
18.1347845851565
20
-10.2646302710617
30
0
0
SPLINE
5
268
100
AcDbEntity
8
1
62
256
6
ByLayer
370
-1
48
1
60
0
100
AcDbSpline
70
4
71
3
72
8
73
4
40
0
40
0
40
0
40
0
40
1
40
1
40
1
40
1
41
1
10
17.0611406575912
20
-12.1119769775261
30
0
41
1
10
17.063162291381
20
-12.1187101436466
30
0
41
1
10
17.0651839291663
20
-12.1254432734248
30
0
41
1
10
17.0672055707884
20
-12.1321763682996
30
0
0
SPLINE
5
269
100
AcDbEntity
8
1
62
256
6
ByLayer
370
-1
48
1
60
0
100
AcDbSpline
70
4
71
3
72
34
73
30
40
0
40
0
40
0
40
0
40
0.0514465755209351
40
0.0514465755209351
40
0.135786144735402
40
0.135786144735402
40
0.203131635218849
40
0.203131635218849
40
0.27031560887508
40
0.27031560887508
40
0.337431278535912
40
0.337431278535912
40
0.404515897625498
40
0.404515897625498
40
0.499929883690796
40
0.499929883690796
40
0.599210771748119
40
0.599210771748119
40
0.697083019894192
40
0.697083019894192
40
0.780957226922732
40
0.780957226922732
40
0.847546414393232
40
0.847546414393232
40
0.898875235580333
40
0.898875235580333
40
0.980803570703505
40
0.980803570703505
40
1
40
1
40
1
40
1
41
1
10
16.29434337258
20
-12.1119769775261
30
0
41
1
10
16.2957608588603
20
-12.0983181737127
30
0
41
1
10
16.294569384981
20
-12.0839729021234
30
0
41
1
10
16.2866027753917
20
-12.0469207698132
30
0
41
1
10
16.2767834563425
20
-12.0239955705694
30
0
41
1
10
16.2547672664205
20
-11.9849700920138
30
0
41
1
10
16.2432517550917
20
-11.9681165167789
30
0
41
1
10
16.218141693804
20
-11.9358230359495
30
0
41
1
10
16.2044644865304
20
-11.9202761208663
30
0
41
1
10
16.1756325297999
20
-11.8905106706047
30
0
41
1
10
16.1604136048854
20
-11.8762271464195
30
0
41
1
10
16.1288884930335
20
-11.8489689444036
30
0
41
1
10
16.112527202129
20
-11.8359474392094
30
0
41
1
10
16.0719552944056
20
-11.8060512388921
30
0
41
1
10
16.0472136747625
20
-11.7897665204332
30
0
41
1
10
15.9957840844904
20
-11.7595671855052
30
0
41
1
10
15.9688929118457
20
-11.7456772559906
30
0
41
1
10
15.9151013931971
20
-11.7217562775658
30
0
41
1
10
15.8880270647169
20
-11.7115888871891
30
0
41
1
10
15.8379272116688
20
-11.6967598573926
30
0
41
1
10
15.8147235840823
20
-11.6914713931388
30
0
41
1
10
15.7736892847792
20
-11.6856717409892
30
0
41
1
10
15.7556239768047
20
-11.6843860473493
30
0
41
1
10
15.7244555926873
20
-11.6851243387765
30
0
41
1
10
15.7110842852323
20
-11.6864629730356
30
0
41
1
10
15.6779570117654
20
-11.6932904872857
30
0
41
1
10
15.6584108246572
20
-11.7009144801834
30
0
41
1
10
15.6388137358546
20
-11.7162477645923
30
0
41
1
10
15.6352337138636
20
-11.7194855195115
30
0
41
1
10
15.6319157903313
20
-11.7230010530437
30
0
0
SPLINE
5
26A
100
AcDbEntity
8
1
62
256
6
ByLayer
370
-1
48
1
60
0
100
AcDbSpline
70
4
71
3
72
8
73
4
40
0
40
0
40
0
40
0
40
1
40
1
40
1
40
1
41
1
10
16.2922471618095
20
-12.1321763682996
30
0
41
1
10
16.2929458799494
20
-12.1254432734248
30
0
41
1
10
16.2936446166181
20
-12.1187101436466
30
0
41
1
10
16.29434337258
20
-12.1119769775261
30
0
0
SPLINE
5
26B
100
AcDbEntity
8
1
62
256
6
ByLayer
370
-1
48
1
60
0
100
AcDbSpline
70
4
71
3
72
22
73
18
40
0
40
0
40
0
40
0
40
0.0973712659846946
40
0.0973712659846946
40
0.180296832630728
40
0.180296832630728
40
0.307445080803063
40
0.307445080803063
40
0.411978418514949
40
0.411978418514949
40
0.516185210011117
40
0.516185210011117
40
0.620250145291987
40
0.620250145291987
40
0.829289859626136
40
0.829289859626136
40
1
40
1
40
1
40
1
41
1
10
17.0672055707883
20
-12.1321763682996
30
0
41
1
10
17.0701410965516
20
-12.1461631504216
30
0
41
1
10
17.0699328094114
20
-12.1608981410183
30
0
41
1
10
17.0637441792253
20
-12.1865893607763
30
0
41
1
10
17.0586056713512
20
-12.1980861953659
30
0
41
1
10
17.0417675474408
20
-12.2246605749422
30
0
41
1
10
17.027868783971
20
-12.2389060579694
30
0
41
1
10
16.9997230020202
20
-12.2612061613455
30
0
41
1
10
16.9857501951237
20
-12.2701030677041
30
0
41
1
10
16.9566335824214
20
-12.2857926990483
30
0
41
1
10
16.9413984811938
20
-12.2926398556091
30
0
41
1
10
16.9102193809632
20
-12.304641386262
30
0
41
1
10
16.8942200598929
20
-12.3098169705009
30
0
41
1
10
16.8454731993737
20
-12.3232097592624
30
0
41
1
10
16.811876404797
20
-12.3293339430584
30
0
41
1
10
16.7503559355819
20
-12.3361760701153
30
0
41
1
10
16.7223859414684
20
-12.3376811082162
30
0
41
1
10
16.6943900296631
20
-12.3376811082162
30
0
0
SPLINE
5
26C
100
AcDbEntity
8
1
62
256
6
ByLayer
370
-1
48
1
60
0
100
AcDbSpline
70
4
71
3
72
24
73
20
40
0
40
0
40
0
40
0
40
0.0380198325521518
40
0.0380198325521518
40
0.246834654675293
40
0.246834654675293
40
0.404726505663617
40
0.404726505663617
40
0.526150637963112
40
0.526150637963112
40
0.62153199550391
40
0.62153199550391
40
0.776890538332286
40
0.776890538332286
40
0.873684213898157
40
0.873684213898157
40
0.971746172255177
40
0.971746172255177
40
1
40
1
40
1
40
1
41
1
10
16.6943900296631
20
-12.3376811082162
30
0
41
1
10
16.6881478997997
20
-12.3376811082162
30
0
41
1
10
16.6819016159867
20
-12.3376058683945
30
0
41
1
10
16.6413973852518
20
-12.3366292399727
30
0
41
1
10
16.6069931705948
20
-12.3335544082518
30
0
41
1
10
16.5472066739531
20
-12.3238340914024
30
0
41
1
10
16.5215596189561
20
-12.3182205230416
30
0
41
1
10
16.477007163031
20
-12.3053351250516
30
0
41
1
10
16.4578404339966
20
-12.2987229608457
30
0
41
1
10
16.424528774976
20
-12.2847788126946
30
0
41
1
10
16.4101336086969
20
-12.2778805114552
30
0
41
1
10
16.3738928441994
20
-12.2575251064336
30
0
41
1
10
16.3524439650393
20
-12.2423736072662
30
0
41
1
10
16.3235642018593
20
-12.2131450249625
30
0
41
1
10
16.3137371488022
20
-12.2005396485886
30
0
41
1
10
16.2991470038407
20
-12.1736701368109
30
0
41
1
10
16.2943303567706
20
-12.1589811576899
30
0
41
1
10
16.2923557636474
20
-12.1405002280959
30
0
41
1
10
16.2921727361699
20
-12.1363146900365
30
0
41
1
10
16.2922471618095
20
-12.1321763682996
30
0
0
SPLINE
5
26D
100
AcDbEntity
8
1
62
256
6
ByLayer
370
-1
48
1
60
0
100
AcDbSpline
70
4
71
3
72
8
73
4
40
0
40
0
40
0
40
0
40
1
40
1
40
1
40
1
41
1
10
18.1113015755327
20
-11.0487904419203
30
0
41
1
10
18.1183424521343
20
-11.0509947899761
30
0
41
1
10
18.1253833045064
20
-11.0531991271569
30
0
41
1
10
18.1324241336076
20
-11.0554034538933
30
0
0
SPLINE
5
26E
100
AcDbEntity
8
1
62
256
6
ByLayer
370
-1
48
1
60
0
100
AcDbSpline
70
4
71
3
72
34
73
30
40
0
40
0
40
0
40
0
40
0.051446575520918
40
0.051446575520918
40
0.135786144735376
40
0.135786144735376
40
0.20313163521882
40
0.20313163521882
40
0.270315608875027
40
0.270315608875027
40
0.337431278535863
40
0.337431278535863
40
0.404515897625449
40
0.404515897625449
40
0.499929883690805
40
0.499929883690805
40
0.599210771748131
40
0.599210771748131
40
0.697083019894193
40
0.697083019894193
40
0.780957226922726
40
0.780957226922726
40
0.847546414393226
40
0.847546414393226
40
0.89887523558032
40
0.89887523558032
40
0.980803570703514
40
0.980803570703514
40
1
40
1
40
1
40
1
41
1
10
17.7258904198111
20
-11.7230010530438
30
0
41
1
10
17.7143811544857
20
-11.7136771354879
30
0
41
1
10
17.700975830134
20
-11.7063075886576
30
0
41
1
10
17.6639525115538
20
-11.6917032808449
30
0
41
1
10
17.6386462935098
20
-11.6870997587171
30
0
41
1
10
17.5929913391287
20
-11.684122019889
30
0
41
1
10
17.5722989165606
20
-11.6846759729936
30
0
41
1
10
17.531185313682
20
-11.6885632830709
30
0
41
1
10
17.5106280764335
20
-11.6919088217668
30
0
41
1
10
17.4700115848586
20
-11.7008016374333
30
0
41
1
10
17.4498630071053
20
-11.7063693465936
30
0
41
1
10
17.41024344432
20
-11.7193538737639
30
0
41
1
10
17.3907039183398
20
-11.7267938255507
30
0
41
1
10
17.3444365470923
20
-11.7467571802521
30
0
41
1
10
17.3179994836824
20
-11.76016335534
30
0
41
1
10
17.2663896038696
20
-11.790362690268
30
0
41
1
10
17.2411448368324
20
-11.8073673259718
30
0
41
1
10
17.1941740246217
20
-11.8438252455906
30
0
41
1
10
17.1722422945648
20
-11.8633593328587
30
0
41
1
10
17.1352664020711
20
-11.9019572372741
30
0
41
1
10
17.1195710253715
20
-11.9208051135991
30
0
41
1
10
17.095001316506
20
-11.956254988884
30
0
41
1
10
17.0853214805507
20
-11.9726175209729
30
0
41
1
10
17.071254554687
20
-12.0025704205287
30
0
41
1
10
17.0661301486895
20
-12.0160155053013
30
0
41
1
10
17.0565495912477
20
-12.0513422114225
30
0
41
1
10
17.0540865919333
20
-12.0742508469847
30
0
41
1
10
17.0584171164443
20
-12.1015854914763
30
0
41
1
10
17.0595943757868
20
-12.1068269981823
30
0
41
1
10
17.0611406575912
20
-12.1119769775261
30
0
0
SPLINE
5
26F
100
AcDbEntity
8
1
62
256
6
ByLayer
370
-1
48
1
60
0
100
AcDbSpline
70
4
71
3
72
8
73
4
40
0
40
0
40
0
40
0
40
1
40
1
40
1
40
1
41
1
10
17.7429109964604
20
-11.7367897768838
30
0
41
1
10
17.737237487015
20
-11.7321935592874
30
0
41
1
10
17.7315639616833
20
-11.7275973183284
30
0
41
1
10
17.7258904198111
20
-11.7230010530438
30
0
0
SPLINE
5
270
100
AcDbEntity
8
1
62
256
6
ByLayer
370
-1
48
1
60
0
100
AcDbSpline
70
4
71
3
72
22
73
18
40
0
40
0
40
0
40
0
40
0.0973712659846983
40
0.0973712659846983
40
0.180296832630709
40
0.180296832630709
40
0.307445080802984
40
0.307445080802984
40
0.411978418514806
40
0.411978418514806
40
0.516185210010968
40
0.516185210010968
40
0.620250145291781
40
0.620250145291781
40
0.82928985962588
40
0.82928985962588
40
1
40
1
40
1
40
1
41
1
10
18.1324241336076
20
-11.0554034538933
30
0
41
1
10
18.1464015847051
20
-11.0610641901464
30
0
41
1
10
18.1594329740877
20
-11.0698519947866
30
0
41
1
10
18.1791707371682
20
-11.0901720674894
30
0
41
1
10
18.1867905294908
20
-11.101298621114
30
0
41
1
10
18.2018715757332
20
-11.131292539399
30
0
41
1
10
18.2074698948796
20
-11.1515720431382
30
0
41
1
10
18.2129913180082
20
-11.1888645766084
30
0
41
1
10
18.2138014638365
20
-11.2061246048319
30
0
41
1
10
18.2129666807358
20
-11.2404665479794
30
0
41
1
10
18.2113236685482
20
-11.2576588985683
30
0
41
1
10
18.2061865440941
20
-11.2917105675477
30
0
41
1
10
18.2026831765235
20
-11.3086301093628
30
0
41
1
10
18.1899192009771
20
-11.3588571778794
30
0
41
1
10
18.1783907915143
20
-11.3917453268172
30
0
41
1
10
18.1534545971368
20
-11.4495761986427
30
0
41
1
10
18.140711920396
20
-11.4749893664273
30
0
41
1
10
18.1266404872606
20
-11.4996049215111
30
0
0
SPLINE
5
271
100
AcDbEntity
8
1
62
256
6
ByLayer
370
-1
48
1
60
0
100
AcDbSpline
70
4
71
3
72
24
73
20
40
0
40
0
40
0
40
0
40
0.0380198325517961
40
0.0380198325517961
40
0.246834654674902
40
0.246834654674902
40
0.404726505663371
40
0.404726505663371
40
0.526150637962918
40
0.526150637962918
40
0.621531995503733
40
0.621531995503733
40
0.776890538332149
40
0.776890538332149
40
0.873684213898026
40
0.873684213898026
40
0.971746172255043
40
0.971746172255043
40
1
40
1
40
1
40
1
41
1
10
18.1266404872606
20
-11.4996049215111
30
0
41
1
10
18.1235030394217
20
-11.5050933475554
30
0
41
1
10
18.1202977133862
20
-11.5105443801089
30
0
41
1
10
18.0990852921884
20
-11.545625095216
30
0
41
1
10
18.0791047954505
20
-11.5741990310799
30
0
41
1
10
18.040547126992
20
-11.6214459094281
30
0
41
1
10
18.0227413312993
20
-11.6409194172071
30
0
41
1
10
17.9890517726901
20
-11.6729970587728
30
0
41
1
10
17.9736175749558
20
-11.6862000566655
30
0
41
1
10
17.9446255489098
20
-11.7077567655825
30
0
41
1
10
17.9313258403502
20
-11.7165776133905
30
0
41
1
10
17.8951923272533
20
-11.7370700304358
30
0
41
1
10
17.8710547743324
20
-11.7474199362765
30
0
41
1
10
17.8306874413874
20
-11.7562061365573
30
0
41
1
10
17.8145807435025
20
-11.7576434442929
30
0
41
1
10
17.7833848849872
20
-11.7549867242843
30
0
41
1
10
17.767889383575
20
-11.7506901647658
30
0
41
1
10
17.7504029654891
20
-11.7415927967417
30
0
41
1
10
17.7465725971655
20
-11.7392937521709
30
0
41
1
10
17.7429109964604
20
-11.7367897768838
30
0
0
SPLINE
5
272
100
AcDbEntity
8
1
62
256
6
ByLayer
370
-1
48
1
60
0
100
AcDbSpline
70
4
71
3
72
8
73
4
40
0
40
0
40
0
40
0
40
1
40
1
40
1
40
1
41
1
10
15.2528518410127
20
-10.2708385929555
30
0
41
1
10
15.2471736364727
20
-10.2687691393397
30
0
41
1
10
15.2414954792275
20
-10.2666996988821
30
0
41
1
10
15.2358173674036
20
-10.2646302710617
30
0
0
SPLINE
5
273
100
AcDbEntity
8
1
62
256
6
ByLayer
370
-1
48
1
60
0
100
AcDbSpline
70
4
71
3
72
8
73
4
40
0
40
0
40
0
40
0
40
1
40
1
40
1
40
1
41
1
10
15.6253305045508
20
-9.58324394807116
30
0
41
1
10
15.6296412967189
20
-9.58770526675161
30
0
41
1
10
15.6339521269238
20
-9.59216661098736
30
0
41
1
10
15.6382629967343
20
-9.59662798183203
30
0
0
SPLINE
5
274
100
AcDbEntity
8
1
62
256
6
ByLayer
370
-1
48
1
60
0
100
AcDbSpline
70
4
71
3
72
22
73
18
40
0
40
0
40
0
40
0
40
0.0973712659846913
40
0.0973712659846913
40
0.180296832630714
40
0.180296832630714
40
0.307445080803034
40
0.307445080803034
40
0.411978418514888
40
0.411978418514888
40
0.516185210011089
40
0.516185210011089
40
0.620250145291931
40
0.620250145291931
40
0.829289859626095
40
0.829289859626095
40
1
40
1
40
1
40
1
41
1
10
15.2358173674036
20
-10.2646302710617
30
0
41
1
10
15.2246065801477
20
-10.2592434140344
30
0
41
1
10
15.2143218625542
20
-10.2507275095551
30
0
41
1
10
15.1991061213598
20
-10.2308550835217
30
0
41
1
10
15.193402882514
20
-10.2199182544942
30
0
41
1
10
15.1825660560128
20
-10.1903444825241
30
0
41
1
10
15.1790637033372
20
-10.1702724639393
30
0
41
1
10
15.1766718019172
20
-10.133289729936
30
0
41
1
10
15.1770441182695
20
-10.1161467567092
30
0
41
1
10
15.1798968930139
20
-10.0820045797859
30
0
41
1
10
15.1823820885098
20
-10.0648955991059
30
0
41
1
10
15.1889573265391
20
-10.0309862927175
30
0
41
1
10
15.1930588456523
20
-10.0141259634742
30
0
41
1
10
15.2073403198221
20
-9.9640491160803
30
0
41
1
10
15.2195188164133
20
-9.93122532095254
30
0
41
1
10
15.2451774229283
20
-9.87346596257737
30
0
41
1
10
15.25807474146
20
-9.84806810318463
30
0
41
1
10
15.2721461745954
20
-9.82345254810087
30
0
0
SPLINE
5
275
100
AcDbEntity
8
1
62
256
6
ByLayer
370
-1
48
1
60
0
100
AcDbSpline
70
4
71
3
72
24
73
20
40
0
40
0
40
0
40
0
40
0.0380198325520606
40
0.0380198325520606
40
0.246834654675153
40
0.246834654675153
40
0.404726505663544
40
0.404726505663544
40
0.526150637963038
40
0.526150637963038
40
0.621531995503841
40
0.621531995503841
40
0.776890538332229
40
0.776890538332229
40
0.873684213898089
40
0.873684213898089
40
0.97174617225508
40
0.97174617225508
40
1
40
1
40
1
40
1
41
1
10
15.2721461745954
20
-9.82345254810087
30
0
41
1
10
15.2752836224343
20
-9.81796412205645
30
0
41
1
10
15.2784811478453
20
-9.81251231729891
30
0
41
1
10
15.2995921811285
20
-9.77742156553921
30
0
41
1
10
15.3192566257817
20
-9.74881634286012
30
0
41
1
10
15.3567678666871
20
-9.70146587593578
30
0
41
1
10
15.3739606421115
20
-9.68193168369123
30
0
41
1
10
15.4061723652068
20
-9.6497077473569
30
0
41
1
10
15.420829989015
20
-9.63642787439804
30
0
41
1
10
15.4481056344247
20
-9.61470125651238
30
0
41
1
10
15.4605331609805
20
-9.60579406914678
30
0
41
1
10
15.49397953711
20
-9.58503564544699
30
0
41
1
10
15.516022062286
20
-9.57447834737866
30
0
41
1
10
15.5519353981347
20
-9.56525123437882
30
0
41
1
10
15.5660322678519
20
-9.56361496854268
30
0
41
1
10
15.5926620944529
20
-9.56581968521516
30
0
41
1
10
15.6055189095758
20
-9.56985503433737
30
0
41
1
10
15.6194712931299
20
-9.57860255912161
30
0
41
1
10
15.6224874870634
20
-9.58082100645893
30
0
41
1
10
15.6253305045508
20
-9.58324394807116
30
0
0
SPLINE
5
276
100
AcDbEntity
8
1
62
256
6
ByLayer
370
-1
48
1
60
0
100
AcDbSpline
70
4
71
3
72
12
73
8
40
0
40
0
40
0
40
0
40
0.404644073901332
40
0.404644073901332
40
0.809285947755712
40
0.809285947755712
40
1
40
1
40
1
40
1
41
1
10
20.1419124947728
20
-6.11036453945357
30
0
41
1
10
20.1970162522348
20
-6.11036453945357
30
0
41
1
10
20.2528588889994
20
-6.1200248735899
30
0
41
1
10
20.3567727471119
20
-6.15706496716476
30
0
41
1
10
20.4062769044032
20
-6.18495528737535
30
0
41
1
10
20.4697006094825
20
-6.23656152670051
30
0
41
1
10
20.4889117024505
20
-6.25494691768932
30
0
41
1
10
20.5064967719893
20
-6.27471021389945
30
0
0
SPLINE
5
277
100
AcDbEntity
8
1
62
256
6
ByLayer
370
-1
48
1
60
0
100
AcDbSpline
70
4
71
3
72
10
73
6
40
0
40
0
40
0
40
0
40
0.638091248905416
40
0.638091248905416
40
1
40
1
40
1
40
1
41
1
10
20.5629415402829
20
-6.37823788814572
30
0
41
1
10
20.5510416434286
20
-6.35018620330249
30
0
41
1
10
20.5379210807516
20
-6.32539791505855
30
0
41
1
10
20.5189299822368
20
-6.29362157778027
30
0
41
1
10
20.5122741444277
20
-6.28337284561937
30
0
41
1
10
20.5064967719872
20
-6.27471021389755
30
0
0
SPLINE
5
278
100
AcDbEntity
8
1
62
256
6
ByLayer
370
-1
48
1
60
0
100
AcDbSpline
70
4
71
3
72
10
73
6
40
0
40
0
40
0
40
0
40
0.722254617258794
40
0.722254617258794
40
1
40
1
40
1
40
1
41
1
10
20.5629415402829
20
-6.37823788814572
30
0
41
1
10
20.5878044089831
20
-6.42814328160887
30
0
41
1
10
20.6045140084586
20
-6.48311467283199
30
0
41
1
10
20.6144798375644
20
-6.56019721778245
30
0
41
1
10
20.6158817075811
20
-6.58203016950469
30
0
41
1
10
20.6158752303872
20
-6.60381947453325
30
0
0
SPLINE
5
279
100
AcDbEntity
8
1
62
256
6
ByLayer
370
-1
48
1
60
0
100
AcDbSpline
70
4
71
3
72
8
73
4
40
0
40
0
40
0
40
0
40
1
40
1
40
1
40
1
41
1
10
20.6159601741297
20
-6.60480189580124
30
0
41
1
10
20.6159320339901
20
-6.60447477610049
30
0
41
1
10
20.6159037199938
20
-6.60414730054575
30
0
41
1
10
20.6158752303871
20
-6.60381947453433
30
0
0
SPLINE
5
27A
100
AcDbEntity
8
1
62
256
6
ByLayer
370
-1
48
1
60
0
100
AcDbSpline
70
4
71
3
72
14
73
10
40
0
40
0
40
0
40
0
40
0.233926408286289
40
0.233926408286289
40
0.467719442169549
40
0.467719442169549
40
0.701444004412128
40
0.701444004412128
40
1
40
1
40
1
40
1
41
1
10
16.9038528511152
20
-15.4103024152394
30
0
41
1
10
16.8891955131738
20
-15.4101431082632
30
0
41
1
10
16.8738211616944
20
-15.4100011321173
30
0
41
1
10
16.8423337831923
20
-15.4097572101902
30
0
41
1
10
16.826110906319
20
-15.40965437535
30
0
41
1
10
16.7933858818302
20
-15.40949015116
30
0
41
1
10
16.7767744659535
20
-15.409428189943
30
0
41
1
10
16.739157511206
20
-15.4093346288773
30
0
41
1
10
16.7180078684916
20
-15.4093156833746
30
0
41
1
10
16.6974181354365
20
-15.4093298460099
30
0
0
SPLINE
5
27B
100
AcDbEntity
8
1
62
256
6
ByLayer
370
-1
48
1
60
0
100
AcDbSpline
70
4
71
3
72
14
73
10
40
0
40
0
40
0
40
0
40
0.24910307894882
40
0.24910307894882
40
0.498160925944205
40
0.498160925944205
40
0.745586162481421
40
0.745586162481421
40
1
40
1
40
1
40
1
41
1
10
20.9564885315244
20
-8.74279654241124
30
0
41
1
10
20.9654626186635
20
-8.75843029208627
30
0
41
1
10
20.9747026204537
20
-8.77408522522296
30
0
41
1
10
20.9933186775002
20
-8.80478248303481
30
0
41
1
10
21.0027592378228
20
-8.81993143694913
30
0
41
1
10
21.0214592849626
20
-8.84912541456876
30
0
41
1
10
21.0307822745217
20
-8.86327498241187
30
0
41
1
10
21.0493203485771
20
-8.89059035719924
30
0
41
1
10
21.0585904975875
20
-8.90381367397924
30
0
41
1
10
21.067535920043
20
-8.91612859163769
30
0
0
SPLINE
5
27C
100
AcDbEntity
8
1
62
256
6
ByLayer
370
-1
48
1
60
0
100
AcDbSpline
70
4
71
3
72
10
73
6
40
0
40
0
40
0
40
0
40
0.73624019458849
40
0.73624019458849
40
1
40
1
40
1
40
1
41
1
10
22.1218780704473
20
-12.2849469883642
30
0
41
1
10
22.1238209560103
20
-12.3027106734289
30
0
41
1
10
22.1304855667515
20
-12.3208716874984
30
0
41
1
10
22.1485426426917
20
-12.3418124534959
30
0
41
1
10
22.1542769813032
20
-12.3470584901851
30
0
41
1
10
22.1609408461053
20
-12.3516477425988
30
0
0
LINE
5
49
100
AcDbEntity
8
1
62
256
6
ByLayer
370
-1
48
1
60
0
100
AcDbLine
10
16.957178
20
-7.948728
30
0
11
16.742127
21
-7.92744
31
0
39
0
210
0
220
0
230
1
0
LINE
5
4B
100
AcDbEntity
8
1
62
256
6
ByLayer
370
-1
48
1
60
0
100
AcDbLine
10
16.205241
20
-13.350931
30
0
11
16.420293
21
-13.372219
31
0
39
0
210
0
220
0
230
1
0
LINE
5
4C
100
AcDbEntity
8
1
62
256
6
ByLayer
370
-1
48
1
60
0
100
AcDbLine
10
15.475007
20
-9.607057
30
0
11
15.72216
21
-9.631523
31
0
39
0
210
0
220
0
230
1
0
LINE
5
4D
100
AcDbEntity
8
1
62
256
6
ByLayer
370
-1
48
1
60
0
100
AcDbLine
10
15.776224
20
-11.686354
30
0
11
15.533565
21
-11.662333
31
0
39
0
210
0
220
0
230
1
0
LINE
5
4E
100
AcDbEntity
8
1
62
256
6
ByLayer
370
-1
48
1
60
0
100
AcDbLine
10
17.31831
20
-9.606585
30
0
11
17.561322
21
-9.630641
31
0
39
0
210
0
220
0
230
1
0
LINE
5
4F
100
AcDbEntity
8
1
62
256
6
ByLayer
370
-1
48
1
60
0
100
AcDbLine
10
17.62392
20
-11.686317
30
0
11
17.376869
21
-11.661861
31
0
39
0
210
0
220
0
230
1
0
LINE
5
50
100
AcDbEntity
8
1
62
256
6
ByLayer
370
-1
48
1
60
0
100
AcDbLine
10
9.107138
20
-15.491182
30
0
11
9.107129
21
-15.475017
31
0
39
0
210
0
220
0
230
1
0
LINE
5
51
100
AcDbEntity
8
1
62
256
6
ByLayer
370
-1
48
1
60
0
100
AcDbLine
10
9.375816
20
-14.70882
30
0
11
10.064545
21
-14.771338
31
0
39
0
210
0
220
0
230
1
0
LINE
5
52
100
AcDbEntity
8
1
62
256
6
ByLayer
370
-1
48
1
60
0
100
AcDbLine
10
12.985191
20
-15.343905
30
0
11
13.740467
21
-15.412463
31
0
39
0
210
0
220
0
230
1
0
LINE
5
53
100
AcDbEntity
8
1
62
256
6
ByLayer
370
-1
48
1
60
0
100
AcDbLine
10
11.14297
20
-14.905836
30
0
11
11.809447
21
-14.966334
31
0
39
0
210
0
220
0
230
1
0
LINE
5
54
100
AcDbEntity
8
1
62
256
6
ByLayer
370
-1
48
1
60
0
100
AcDbLine
10
16.54979
20
-2.757196
30
0
11
15.861606
21
-2.694728
31
0
39
0
210
0
220
0
230
1
0
LINE
5
55
100
AcDbEntity
8
1
62
256
6
ByLayer
370
-1
48
1
60
0
100
AcDbLine
10
15.962948
20
-3.916378
30
0
11
15.296826
21
-3.855912
31
0
39
0
210
0
220
0
230
1
0
LINE
5
56
100
AcDbEntity
8
80
62
256
6
ByLayer
370
-1
48
1
60
0
100
AcDbLine
10
0
20
0
30
0
11
-5
21
0
31
0
39
0
210
0
220
0
230
1
0
LINE
5
57
100
AcDbEntity
8
81
62
256
6
ByLayer
370
-1
48
1
60
0
100
AcDbLine
10
24.699398
20
-15.4125
30
0
11
29.699398
21
-15.4125
31
0
39
0
210
0
220
0
230
1
0
LINE
5
58
100
AcDbEntity
8
1
62
256
6
ByLayer
370
-1
48
1
60
0
100
AcDbLine
10
21.206235
20
0.818301
30
0
11
21.186345
21
-5.84513
31
0
39
0
210
0
220
0
230
1
0
LINE
5
59
100
AcDbEntity
8
1
62
256
6
ByLayer
370
-1
48
1
60
0
100
AcDbLine
10
4.912841
20
-14.850341
30
0
11
8.396484
21
-14.850341
31
0
39
0
210
0
220
0
230
1
0
LINE
5
5A
100
AcDbEntity
8
1
62
256
6
ByLayer
370
-1
48
1
60
0
100
AcDbLine
10
19.339079
20
-5.820281
30
0
11
19.670837
21
-5.820281
31
0
39
0
210
0
220
0
230
1
0
LINE
5
5B
100
AcDbEntity
8
1
62
256
6
ByLayer
370
-1
48
1
60
0
100
AcDbLine
10
14.539223
20
-4.027894
30
0
11
14.566243
21
-4.057408
31
0
39
0
210
0
220
0
230
1
0
LINE
5
5C
100
AcDbEntity
8
1
62
256
6
ByLayer
370
-1
48
1
60
0
100
AcDbLine
10
13.447101
20
-6.210042
30
0
11
14.568
21
-4.249221
31
0
39
0
210
0
220
0
230
1
0
LINE
5
5D
100
AcDbEntity
8
1
62
256
6
ByLayer
370
-1
48
1
60
0
100
AcDbLine
10
16.855166
20
-1.683827
30
0
11
17.90586
21
-3.541234
31
0
39
0
210
0
220
0
230
1
0
LINE
5
5E
100
AcDbEntity
8
1
62
256
6
ByLayer
370
-1
48
1
60
0
100
AcDbLine
10
3.986516
20
9.954895
30
0
11
5.389437
21
9.953815
31
0
39
0
210
0
220
0
230
1
0
LINE
5
5F
100
AcDbEntity
8
1
62
256
6
ByLayer
370
-1
48
1
60
0
100
AcDbLine
10
19.227039
20
-5.622268
30
0
11
19.726557
21
-5.84513
31
0
39
0
210
0
220
0
230
1
0
LINE
5
60
100
AcDbEntity
8
1
62
256
6
ByLayer
370
-1
48
1
60
0
100
AcDbLine
10
3.637367
20
-13.574867
30
0
11
3.986516
21
9.954895
31
0
39
0
210
0
220
0
230
1
0
LINE
5
61
100
AcDbEntity
8
1
62
256
6
ByLayer
370
-1
48
1
60
0
100
AcDbLine
10
0
20
9.9375
30
0
11
3.986516
21
9.954895
31
0
39
0
210
0
220
0
230
1
0
LINE
5
62
100
AcDbEntity
8
1
62
256
6
ByLayer
370
-1
48
1
60
0
100
AcDbLine
10
3.637367
20
-13.574867
30
0
11
0
21
-9.9375
31
0
39
0
210
0
220
0
230
1
0
LINE
5
63
100
AcDbEntity
8
1
62
256
6
ByLayer
370
-1
48
1
60
0
100
AcDbLine
10
9.982181
20
-12.271324
30
0
11
8.515565
21
-14.836916
31
0
39
0
210
0
220
0
230
1
0
LINE
5
64
100
AcDbEntity
8
1
62
256
6
ByLayer
370
-1
48
1
60
0
100
AcDbLine
10
17.798865
20
-2.437376
30
0
11
19.726557
21
-5.84513
31
0
39
0
210
0
220
0
230
1
0
LINE
5
65
100
AcDbEntity
8
1
62
256
6
ByLayer
370
-1
48
1
60
0
100
AcDbLine
10
19.941449
20
-6.020271
30
0
11
19.941972
21
-5.845142
31
0
39
0
210
0
220
0
230
1
0
LINE
5
66
100
AcDbEntity
8
1
62
256
6
ByLayer
370
-1
48
1
60
0
100
AcDbLine
10
14.566243
20
-4.057408
30
0
11
8.396484
21
-14.850341
31
0
39
0
210
0
220
0
230
1
0
LINE
5
67
100
AcDbEntity
8
1
62
256
6
ByLayer
370
-1
48
1
60
0
100
AcDbLine
10
5.389437
20
9.953815
30
0
11
21.206235
21
0.818301
31
0
39
0
210
0
220
0
230
1
0
LINE
5
68
100
AcDbEntity
8
1
62
256
6
ByLayer
370
-1
48
1
60
0
100
AcDbLine
10
4.912841
20
-14.850341
30
0
11
3.637367
21
-13.574867
31
0
39
0
210
0
220
0
230
1
0
LINE
5
69
100
AcDbEntity
8
1
62
256
6
ByLayer
370
-1
48
1
60
0
100
AcDbLine
10
0
20
-9.9375
30
0
11
0
21
9.9375
31
0
39
0
210
0
220
0
230
1
0
LINE
5
6A
100
AcDbEntity
8
1
62
256
6
ByLayer
370
-1
48
1
60
0
100
AcDbLine
10
8.515565
20
-14.836916
30
0
11
8.396484
21
-14.850341
31
0
39
0
210
0
220
0
230
1
0
LINE
5
6B
100
AcDbEntity
8
1
62
256
6
ByLayer
370
-1
48
1
60
0
100
AcDbLine
10
10.386872
20
-11.659169
30
0
11
13.096543
21
-6.919064
31
0
39
0
210
0
220
0
230
1
0
LINE
5
6C
100
AcDbEntity
8
1
62
256
6
ByLayer
370
-1
48
1
60
0
100
AcDbLine
10
19.726557
20
-5.84513
30
0
11
21.186345
21
-5.84513
31
0
39
0
210
0
220
0
230
1
0
LINE
5
6D
100
AcDbEntity
8
1
62
256
6
ByLayer
370
-1
48
1
60
0
100
AcDbLine
10
14.566243
20
-4.057408
30
0
11
14.568
21
-4.249221
31
0
39
0
210
0
220
0
230
1
0
LINE
5
6E
100
AcDbEntity
8
1
62
256
6
ByLayer
370
-1
48
1
60
0
100
AcDbLine
10
14.412848
20
-3.774815
30
0
11
14.849236
21
-3.010008
31
0
39
0
210
0
220
0
230
1
0
LINE
5
6F
100
AcDbEntity
8
1
62
256
6
ByLayer
370
-1
48
1
60
0
100
AcDbLine
10
20.703418
20
-7.13883
30
0
11
20.085183
21
-7.13883
31
0
39
0
210
0
220
0
230
1
0
LINE
5
70
100
AcDbEntity
8
1
62
256
6
ByLayer
370
-1
48
1
60
0
100
AcDbLine
10
20.702771
20
-7.436282
30
0
11
20.253601
21
-7.436282
31
0
39
0
210
0
220
0
230
1
0
LINE
5
71
100
AcDbEntity
8
1
62
256
6
ByLayer
370
-1
48
1
60
0
100
AcDbLine
10
20.689737
20
-6.953508
30
0
11
19.980375
21
-6.953508
31
0
39
0
210
0
220
0
230
1
0
LINE
5
72
100
AcDbEntity
8
1
62
256
6
ByLayer
370
-1
48
1
60
0
100
AcDbLine
10
20.633012
20
-6.709854
30
0
11
19.842416
21
-6.709854
31
0
39
0
210
0
220
0
230
1
0
LINE
5
73
100
AcDbEntity
8
1
62
256
6
ByLayer
370
-1
48
1
60
0
100
AcDbLine
10
20.615876
20
-6.603819
30
0
11
19.782505
21
-6.603819
31
0
39
0
210
0
220
0
230
1
0
LINE
5
74
100
AcDbEntity
8
1
62
256
6
ByLayer
370
-1
48
1
60
0
100
AcDbLine
10
20.506497
20
-6.27471
30
0
11
19.596218
21
-6.27471
31
0
39
0
210
0
220
0
230
1
0
LINE
5
75
100
AcDbEntity
8
1
62
256
6
ByLayer
370
-1
48
1
60
0
100
AcDbLine
10
20.562942
20
-6.378238
30
0
11
19.654825
21
-6.378238
31
0
39
0
210
0
220
0
230
1
0
LINE
5
76
100
AcDbEntity
8
1
62
256
6
ByLayer
370
-1
48
1
60
0
100
AcDbLine
10
14.849236
20
-3.010008
30
0
11
15.624374
21
-3.010008
31
0
39
0
210
0
220
0
230
1
0
LINE
5
77
100
AcDbEntity
8
1
62
256
6
ByLayer
370
-1
48
1
60
0
100
AcDbLine
10
19.503244
20
-6.110365
30
0
11
20.141912
21
-6.110365
31
0
39
0
210
0
220
0
230
1
0
LINE
5
78
100
AcDbEntity
8
1
62
256
6
ByLayer
370
-1
48
1
60
0
100
AcDbLine
10
20.688288
20
-7.61957
30
0
11
20.35732
21
-7.61957
31
0
39
0
210
0
220
0
230
1
0
LINE
5
79
100
AcDbEntity
8
1
62
256
6
ByLayer
370
-1
48
1
60
0
100
AcDbLine
10
15.634511
20
-2.846464
30
0
11
14.323928
21
-2.846464
31
0
39
0
210
0
220
0
230
1
0
LINE
5
7A
100
AcDbEntity
8
1
62
256
6
ByLayer
370
-1
48
1
60
0
100
AcDbLine
10
20.630519
20
-7.85496
30
0
11
20.482791
21
-7.85496
31
0
39
0
210
0
220
0
230
1
0
LINE
5
7B
100
AcDbEntity
8
1
62
256
6
ByLayer
370
-1
48
1
60
0
100
AcDbLine
10
20.612928
20
-7.958488
30
0
11
20.526002
21
-7.958488
31
0
39
0
210
0
220
0
230
1
0
LINE
5
7C
100
AcDbEntity
8
1
62
256
6
ByLayer
370
-1
48
1
60
0
100
AcDbLine
10
19.636933
20
-5.946006
30
0
11
19.410235
21
-5.946006
31
0
39
0
210
0
220
0
230
1
0
LINE
5
7D
100
AcDbEntity
8
1
62
256
6
ByLayer
370
-1
48
1
60
0
100
AcDbLine
10
20.612928
20
-7.958488
30
0
11
20.612528
21
-8.14227
31
0
39
0
210
0
220
0
230
1
0
LINE
5
7E
100
AcDbEntity
8
1
62
256
6
ByLayer
370
-1
48
1
60
0
100
AcDbLine
10
15.527503
20
-9.57356
30
0
11
15.625331
21
-9.583244
31
0
39
0
210
0
220
0
230
1
0
LINE
5
7F
100
AcDbEntity
8
1
62
256
6
ByLayer
370
-1
48
1
60
0
100
AcDbLine
10
15.463436
20
-11.7214
30
0
11
15.618902
21
-11.73679
31
0
39
0
210
0
220
0
230
1
0
LINE
5
80
100
AcDbEntity
8
1
62
256
6
ByLayer
370
-1
48
1
60
0
100
AcDbLine
10
15.505395
20
-9.583475
30
0
11
15.638263
21
-9.596628
31
0
39
0
210
0
220
0
230
1
0
LINE
5
81
100
AcDbEntity
8
1
62
256
6
ByLayer
370
-1
48
1
60
0
100
AcDbLine
10
15.438231
20
-11.703828
30
0
11
15.631916
21
-11.723001
31
0
39
0
210
0
220
0
230
1
0
LINE
5
82
100
AcDbEntity
8
1
62
256
6
ByLayer
370
-1
48
1
60
0
100
AcDbLine
10
8.584174
20
-15.494739
30
0
11
8.584181
21
-15.507534
31
0
39
0
210
0
220
0
230
1
0
LINE
5
83
100
AcDbEntity
8
1
62
256
6
ByLayer
370
-1
48
1
60
0
100
AcDbLine
10
10.364156
20
-15.479904
30
0
11
10.36418
21
-15.523275
31
0
39
0
210
0
220
0
230
1
0
LINE
5
84
100
AcDbEntity
8
1
62
256
6
ByLayer
370
-1
48
1
60
0
100
AcDbLine
10
8.601586
20
-15.493721
30
0
11
8.601587
21
-15.495217
31
0
39
0
210
0
220
0
230
1
0
LINE
5
85
100
AcDbEntity
8
1
62
256
6
ByLayer
370
-1
48
1
60
0
100
AcDbLine
10
9.740477
20
-15.469505
30
0
11
9.740506
21
-15.522888
31
0
39
0
210
0
220
0
230
1
0
LINE
5
86
100
AcDbEntity
8
1
62
256
6
ByLayer
370
-1
48
1
60
0
100
AcDbLine
10
10.351428
20
-15.479512
30
0
11
10.351445
21
-15.510692
31
0
39
0
210
0
220
0
230
1
0
LINE
5
87
100
AcDbEntity
8
1
62
256
6
ByLayer
370
-1
48
1
60
0
100
AcDbLine
10
9.838528
20
-12.898507
30
0
11
9.634247
21
-12.879963
31
0
39
0
210
0
220
0
230
1
0
LINE
5
88
100
AcDbEntity
8
1
62
256
6
ByLayer
370
-1
48
1
60
0
100
AcDbLine
10
13.736443
20
-5.703874
30
0
11
14.052172
21
-5.732533
31
0
39
0
210
0
220
0
230
1
0
LINE
5
89
100
AcDbEntity
8
1
62
256
6
ByLayer
370
-1
48
1
60
0
100
AcDbLine
10
9.172667
20
-13.687442
30
0
11
9.175763
21
-14.498539
31
0
39
0
210
0
220
0
230
1
0
LINE
5
8A
100
AcDbEntity
8
1
62
256
6
ByLayer
370
-1
48
1
60
0
100
AcDbLine
10
9.577874
20
-12.978585
30
0
11
9.814964
21
-13.000106
31
0
39
0
210
0
220
0
230
1
0
LINE
5
8B
100
AcDbEntity
8
1
62
256
6
ByLayer
370
-1
48
1
60
0
100
AcDbLine
10
12.078174
20
-14.832858
30
0
11
12.904316
21
-15.317907
31
0
39
0
210
0
220
0
230
1
0
LINE
5
8C
100
AcDbEntity
8
1
62
256
6
ByLayer
370
-1
48
1
60
0
100
AcDbLine
10
12.45807
20
-14.711363
30
0
11
12.329686
21
-14.699709
31
0
39
0
210
0
220
0
230
1
0
LINE
5
8D
100
AcDbEntity
8
1
62
256
6
ByLayer
370
-1
48
1
60
0
100
AcDbLine
10
14.124465
20
-5.659337
30
0
11
13.779788
21
-5.62805
31
0
39
0
210
0
220
0
230
1
0
LINE
5
8E
100
AcDbEntity
8
1
62
256
6
ByLayer
370
-1
48
1
60
0
100
AcDbLine
10
14.513246
20
-4.921226
30
0
11
14.018227
21
-5.210933
31
0
39
0
210
0
220
0
230
1
0
LINE
5
8F
100
AcDbEntity
8
1
62
256
6
ByLayer
370
-1
48
1
60
0
100
AcDbLine
10
10.999077
20
-14.329738
30
0
11
10.893162
21
-14.320124
31
0
39
0
210
0
220
0
230
1
0
LINE
5
90
100
AcDbEntity
8
1
62
256
6
ByLayer
370
-1
48
1
60
0
100
AcDbLine
10
11.048289
20
-14.358632
30
0
11
10.854431
21
-14.341035
31
0
39
0
210
0
220
0
230
1
0
LINE
5
91
100
AcDbEntity
8
1
62
256
6
ByLayer
370
-1
48
1
60
0
100
AcDbLine
10
10.509224
20
-14.547295
30
0
11
10.51729
21
-14.552449
31
0
39
0
210
0
220
0
230
1
0
LINE
5
92
100
AcDbEntity
8
1
62
256
6
ByLayer
370
-1
48
1
60
0
100
AcDbLine
10
11.119296
20
-14.512521
30
0
11
10.640215
21
-14.469034
31
0
39
0
210
0
220
0
230
1
0
LINE
5
93
100
AcDbEntity
8
1
62
256
6
ByLayer
370
-1
48
1
60
0
100
AcDbLine
10
11.11313
20
-14.459091
30
0
11
10.717027
21
-14.423136
31
0
39
0
210
0
220
0
230
1
0
LINE
5
94
100
AcDbEntity
8
1
62
256
6
ByLayer
370
-1
48
1
60
0
100
AcDbLine
10
16.166021
20
-3.943939
30
0
11
16.008126
21
-3.929606
31
0
39
0
210
0
220
0
230
1
0
LINE
5
95
100
AcDbEntity
8
1
62
256
6
ByLayer
370
-1
48
1
60
0
100
AcDbLine
10
15.553229
20
-3.854938
30
0
11
15.51736
21
-3.875931
31
0
39
0
210
0
220
0
230
1
0
LINE
5
96
100
AcDbEntity
8
1
62
256
6
ByLayer
370
-1
48
1
60
0
100
AcDbLine
10
15.625332
20
-2.905009
30
0
11
15.617544
21
-3.743234
31
0
39
0
210
0
220
0
230
1
0
LINE
5
97
100
AcDbEntity
8
1
62
256
6
ByLayer
370
-1
48
1
60
0
100
AcDbLine
10
15.745519
20
-2.720725
30
0
11
15.724279
21
-2.733156
31
0
39
0
210
0
220
0
230
1
0
LINE
5
98
100
AcDbEntity
8
1
62
256
6
ByLayer
370
-1
48
1
60
0
100
AcDbLine
10
15.888216
20
-3.933342
30
0
11
15.221369
21
-3.872811
31
0
39
0
210
0
220
0
230
1
0
LINE
5
99
100
AcDbEntity
8
1
62
256
6
ByLayer
370
-1
48
1
60
0
100
AcDbLine
10
15.313262
20
-4.269831
30
0
11
14.646416
21
-4.209299
31
0
39
0
210
0
220
0
230
1
0
LINE
5
9A
100
AcDbEntity
8
1
62
256
6
ByLayer
370
-1
48
1
60
0
100
AcDbLine
10
15.24698
20
-4.381357
30
0
11
14.5821
21
-4.321004
31
0
39
0
210
0
220
0
230
1
0
LINE
5
9B
100
AcDbEntity
8
1
62
256
6
ByLayer
370
-1
48
1
60
0
100
AcDbLine
10
15.246508
20
-4.870243
30
0
11
14.577562
21
-4.809521
31
0
39
0
210
0
220
0
230
1
0
LINE
5
9C
100
AcDbEntity
8
1
62
256
6
ByLayer
370
-1
48
1
60
0
100
AcDbLine
10
15.207391
20
-4.984235
30
0
11
14.513246
21
-4.921226
31
0
39
0
210
0
220
0
230
1
0
LINE
5
9D
100
AcDbEntity
8
1
62
256
6
ByLayer
370
-1
48
1
60
0
100
AcDbLine
10
18.741524
20
-4.945771
30
0
11
19.025698
21
-5.287859
31
0
39
0
210
0
220
0
230
1
0
LINE
5
9E
100
AcDbEntity
8
1
62
256
6
ByLayer
370
-1
48
1
60
0
100
AcDbLine
10
15.24698
20
-4.381357
30
0
11
15.238133
21
-4.628514
31
0
39
0
210
0
220
0
230
1
0
LINE
5
9F
100
AcDbEntity
8
1
62
256
6
ByLayer
370
-1
48
1
60
0
100
AcDbLine
10
15.888216
20
-3.933342
30
0
11
15.313262
21
-4.269831
31
0
39
0
210
0
220
0
230
1
0
LINE
5
A0
100
AcDbEntity
8
1
62
256
6
ByLayer
370
-1
48
1
60
0
100
AcDbLine
10
16.050399
20
-3.94972
30
0
11
16.003838
21
-3.927561
31
0
39
0
210
0
220
0
230
1
0
LINE
5
A1
100
AcDbEntity
8
1
62
256
6
ByLayer
370
-1
48
1
60
0
100
AcDbLine
10
16.215391
20
-3.915045
30
0
11
16.166021
21
-3.943939
31
0
39
0
210
0
220
0
230
1
0
LINE
5
A2
100
AcDbEntity
8
1
62
256
6
ByLayer
370
-1
48
1
60
0
100
AcDbLine
10
16.311603
20
-2.967304
30
0
11
16.281674
21
-3.803519
31
0
39
0
210
0
220
0
230
1
0
LINE
5
A3
100
AcDbEntity
8
1
62
256
6
ByLayer
370
-1
48
1
60
0
100
AcDbLine
10
16.434817
20
-2.783295
30
0
11
16.413576
21
-2.795726
31
0
39
0
210
0
220
0
230
1
0
LINE
5
A4
100
AcDbEntity
8
1
62
256
6
ByLayer
370
-1
48
1
60
0
100
AcDbLine
10
17.987493
20
-3.621726
30
0
11
18.307964
21
-4.223816
31
0
39
0
210
0
220
0
230
1
0
LINE
5
A5
100
AcDbEntity
8
1
62
256
6
ByLayer
370
-1
48
1
60
0
100
AcDbLine
10
17.917561
20
-3.54815
30
0
11
16.627617
21
-2.782359
31
0
39
0
210
0
220
0
230
1
0
LINE
5
A6
100
AcDbEntity
8
1
62
256
6
ByLayer
370
-1
48
1
60
0
100
AcDbLine
10
19.112974
20
-5.420712
30
0
11
20.430993
21
-7.749729
31
0
39
0
210
0
220
0
230
1
0
LINE
5
A7
100
AcDbEntity
8
1
62
256
6
ByLayer
370
-1
48
1
60
0
100
AcDbLine
10
13.082324
20
-7.429893
30
0
11
14.052172
21
-5.732533
31
0
39
0
210
0
220
0
230
1
0
LINE
5
A8
100
AcDbEntity
8
1
62
256
6
ByLayer
370
-1
48
1
60
0
100
AcDbLine
10
14.793884
20
-5.267563
30
0
11
14.124465
21
-5.659337
31
0
39
0
210
0
220
0
230
1
0
LINE
5
A9
100
AcDbEntity
8
1
62
256
6
ByLayer
370
-1
48
1
60
0
100
AcDbLine
10
17.570957
20
-3.906223
30
0
11
17.358738
21
-4.271214
31
0
39
0
210
0
220
0
230
1
0
LINE
5
AA
100
AcDbEntity
8
1
62
256
6
ByLayer
370
-1
48
1
60
0
100
AcDbLine
10
17.136273
20
-4.40141
30
0
11
16.728607
21
-4.399203
31
0
39
0
210
0
220
0
230
1
0
LINE
5
AB
100
AcDbEntity
8
1
62
256
6
ByLayer
370
-1
48
1
60
0
100
AcDbLine
10
17.556958
20
-3.45081
30
0
11
16.665697
21
-2.921702
31
0
39
0
210
0
220
0
230
1
0
LINE
5
AC
100
AcDbEntity
8
1
62
256
6
ByLayer
370
-1
48
1
60
0
100
AcDbLine
10
16.404716
20
-3.07444
30
0
11
16.366304
21
-4.147634
31
0
39
0
210
0
220
0
230
1
0
LINE
5
AD
100
AcDbEntity
8
1
62
256
6
ByLayer
370
-1
48
1
60
0
100
AcDbLine
10
13.877802
20
-8.741027
30
0
11
14.049984
21
-8.137223
31
0
39
0
210
0
220
0
230
1
0
LINE
5
AE
100
AcDbEntity
8
1
62
256
6
ByLayer
370
-1
48
1
60
0
100
AcDbLine
10
13.538864
20
-7.788737
30
0
11
13.027709
21
-7.513928
31
0
39
0
210
0
220
0
230
1
0
LINE
5
AF
100
AcDbEntity
8
1
62
256
6
ByLayer
370
-1
48
1
60
0
100
AcDbLine
10
14.989051
20
-5.144726
30
0
11
19.025698
21
-5.287859
31
0
39
0
210
0
220
0
230
1
0
LINE
5
B0
100
AcDbEntity
8
1
62
256
6
ByLayer
370
-1
48
1
60
0
100
AcDbLine
10
20.477894
20
-7.843119
30
0
11
19.96432
21
-8.609187
31
0
39
0
210
0
220
0
230
1
0
LINE
5
B1
100
AcDbEntity
8
1
62
256
6
ByLayer
370
-1
48
1
60
0
100
AcDbLine
10
19.891152
20
-8.554977
30
0
11
20.430993
21
-7.749729
31
0
39
0
210
0
220
0
230
1
0
LINE
5
B2
100
AcDbEntity
8
1
62
256
6
ByLayer
370
-1
48
1
60
0
100
AcDbLine
10
19.112974
20
-5.420712
30
0
11
14.793884
21
-5.267563
31
0
39
0
210
0
220
0
230
1
0
LINE
5
B3
100
AcDbEntity
8
1
62
256
6
ByLayer
370
-1
48
1
60
0
100
AcDbLine
10
13.082324
20
-7.429893
30
0
11
13.590318
21
-7.703002
31
0
39
0
210
0
220
0
230
1
0
LINE
5
B4
100
AcDbEntity
8
1
62
256
6
ByLayer
370
-1
48
1
60
0
100
AcDbLine
10
14.075018
20
-8.144437
30
0
11
13.902836
21
-8.748241
31
0
39
0
210
0
220
0
230
1
0
LINE
5
B5
100
AcDbEntity
8
1
62
256
6
ByLayer
370
-1
48
1
60
0
100
AcDbLine
10
18.741524
20
-4.945771
30
0
11
17.734841
21
-4.910076
31
0
39
0
210
0
220
0
230
1
0
LINE
5
B6
100
AcDbEntity
8
1
62
256
6
ByLayer
370
-1
48
1
60
0
100
AcDbLine
10
17.734841
20
-4.910076
30
0
11
15.232471
21
-4.954851
31
0
39
0
210
0
220
0
230
1
0
LINE
5
B7
100
AcDbEntity
8
1
62
256
6
ByLayer
370
-1
48
1
60
0
100
AcDbLine
10
17.69147
20
-4.584616
30
0
11
18.307964
21
-4.223816
31
0
39
0
210
0
220
0
230
1
0
LINE
5
B8
100
AcDbEntity
8
1
62
256
6
ByLayer
370
-1
48
1
60
0
100
AcDbLine
10
15.238133
20
-4.628514
30
0
11
17.69147
21
-4.584616
31
0
39
0
210
0
220
0
230
1
0
LINE
5
B9
100
AcDbEntity
8
1
62
256
6
ByLayer
370
-1
48
1
60
0
100
AcDbLine
10
18.33435
20
-4.271856
30
0
11
17.717856
21
-4.632656
31
0
39
0
210
0
220
0
230
1
0
LINE
5
BA
100
AcDbEntity
8
1
62
256
6
ByLayer
370
-1
48
1
60
0
100
AcDbLine
10
17.717856
20
-4.632656
30
0
11
18.555336
21
-4.662352
31
0
39
0
210
0
220
0
230
1
0
LINE
5
BB
100
AcDbEntity
8
1
62
256
6
ByLayer
370
-1
48
1
60
0
100
AcDbLine
10
12.835521
20
-7.791008
30
0
11
14.049984
21
-8.137223
31
0
39
0
210
0
220
0
230
1
0
LINE
5
BC
100
AcDbEntity
8
1
62
256
6
ByLayer
370
-1
48
1
60
0
100
AcDbLine
10
12.94751
20
-7.620156
30
0
11
13.538864
21
-7.788737
31
0
39
0
210
0
220
0
230
1
0
LINE
5
BD
100
AcDbEntity
8
1
62
256
6
ByLayer
370
-1
48
1
60
0
100
AcDbLine
10
12.905412
20
-8.463821
30
0
11
13.877802
21
-8.741027
31
0
39
0
210
0
220
0
230
1
0
LINE
5
BE
100
AcDbEntity
8
1
62
256
6
ByLayer
370
-1
48
1
60
0
100
AcDbLine
10
20.547748
20
-8.010606
30
0
11
19.96432
21
-8.609187
31
0
39
0
210
0
220
0
230
1
0
LINE
5
BF
100
AcDbEntity
8
1
62
256
6
ByLayer
370
-1
48
1
60
0
100
AcDbLine
10
20.634422
20
-8.181725
30
0
11
20.359468
21
-8.463821
31
0
39
0
210
0
220
0
230
1
0
LINE
5
C0
100
AcDbEntity
8
1
62
256
6
ByLayer
370
-1
48
1
60
0
100
AcDbLine
10
16.735758
20
-3.412688
30
0
11
16.710146
21
-4.128269
31
0
39
0
210
0
220
0
230
1
0
LINE
5
C1
100
AcDbEntity
8
1
62
256
6
ByLayer
370
-1
48
1
60
0
100
AcDbLine
10
17.33003
20
-3.765485
30
0
11
16.735758
21
-3.412688
31
0
39
0
210
0
220
0
230
1
0
LINE
5
C2
100
AcDbEntity
8
1
62
256
6
ByLayer
370
-1
48
1
60
0
100
AcDbLine
10
16.652933
20
-3.024445
30
0
11
16.798819
21
-3.319153
31
0
39
0
210
0
220
0
230
1
0
LINE
5
C3
100
AcDbEntity
8
1
62
256
6
ByLayer
370
-1
48
1
60
0
100
AcDbLine
10
16.798819
20
-3.319153
30
0
11
17.393092
21
-3.67195
31
0
39
0
210
0
220
0
230
1
0
LINE
5
C4
100
AcDbEntity
8
1
62
256
6
ByLayer
370
-1
48
1
60
0
100
AcDbLine
10
16.631824
20
-3.416886
30
0
11
16.485938
21
-3.122178
31
0
39
0
210
0
220
0
230
1
0
LINE
5
C5
100
AcDbEntity
8
1
62
256
6
ByLayer
370
-1
48
1
60
0
100
AcDbLine
10
16.606212
20
-4.132467
30
0
11
16.631824
21
-3.416886
31
0
39
0
210
0
220
0
230
1
0
LINE
5
C6
100
AcDbEntity
8
1
62
256
6
ByLayer
370
-1
48
1
60
0
100
AcDbLine
10
16.485938
20
-3.122178
30
0
11
16.404716
21
-3.07444
31
0
39
0
210
0
220
0
230
1
0
LINE
5
C7
100
AcDbEntity
8
1
62
256
6
ByLayer
370
-1
48
1
60
0
100
AcDbLine
10
16.665697
20
-2.921702
30
0
11
16.652933
21
-3.024445
31
0
39
0
210
0
220
0
230
1
0
LINE
5
C8
100
AcDbEntity
8
1
62
256
6
ByLayer
370
-1
48
1
60
0
100
AcDbLine
10
17.393092
20
-3.67195
30
0
11
17.556958
21
-3.45081
31
0
39
0
210
0
220
0
230
1
0
LINE
5
C9
100
AcDbEntity
8
1
62
256
6
ByLayer
370
-1
48
1
60
0
100
AcDbLine
10
16.710146
20
-4.128269
30
0
11
17.117812
21
-4.130476
31
0
39
0
210
0
220
0
230
1
0
LINE
5
CA
100
AcDbEntity
8
1
62
256
6
ByLayer
370
-1
48
1
60
0
100
AcDbLine
10
17.117812
20
-4.130476
30
0
11
17.33003
21
-3.765485
31
0
39
0
210
0
220
0
230
1
0
LINE
5
CB
100
AcDbEntity
8
1
62
256
6
ByLayer
370
-1
48
1
60
0
100
AcDbLine
10
16.366304
20
-4.147634
30
0
11
16.606212
21
-4.132467
31
0
39
0
210
0
220
0
230
1
0
LINE
5
CC
100
AcDbEntity
8
1
62
256
6
ByLayer
370
-1
48
1
60
0
100
AcDbLine
10
15.88254
20
-15.411005
30
0
11
15.778353
21
-15.412688
31
0
39
0
210
0
220
0
230
1
0
LINE
5
CD
100
AcDbEntity
8
1
62
256
6
ByLayer
370
-1
48
1
60
0
100
AcDbLine
10
10.41208
20
-11.85385
30
0
11
10.188955
21
-12.244346
31
0
39
0
210
0
220
0
230
1
0
LINE
5
CE
100
AcDbEntity
8
1
62
256
6
ByLayer
370
-1
48
1
60
0
100
AcDbLine
10
12.351985
20
-8.696531
30
0
11
12.422769
21
-8.524274
31
0
39
0
210
0
220
0
230
1
0
LINE
5
CF
100
AcDbEntity
8
1
62
256
6
ByLayer
370
-1
48
1
60
0
100
AcDbLine
10
12.45807
20
-14.711363
30
0
11
12.772323
21
-14.871854
31
0
39
0
210
0
220
0
230
1
0
LINE
5
D0
100
AcDbEntity
8
1
62
256
6
ByLayer
370
-1
48
1
60
0
100
AcDbLine
10
10.51729
20
-14.552449
30
0
11
11.090402
21
-14.888937
31
0
39
0
210
0
220
0
230
1
0
LINE
5
D1
100
AcDbEntity
8
1
62
256
6
ByLayer
370
-1
48
1
60
0
100
AcDbLine
10
11.184136
20
-14.61298
30
0
11
10.51729
21
-14.552449
31
0
39
0
210
0
220
0
230
1
0
LINE
5
D2
100
AcDbEntity
8
1
62
256
6
ByLayer
370
-1
48
1
60
0
100
AcDbLine
10
11.757248
20
-14.949469
30
0
11
11.090402
21
-14.888937
31
0
39
0
210
0
220
0
230
1
0
LINE
5
D3
100
AcDbEntity
8
1
62
256
6
ByLayer
370
-1
48
1
60
0
100
AcDbLine
10
14.5821
20
-4.321004
30
0
11
14.577562
21
-4.809521
31
0
39
0
210
0
220
0
230
1
0
LINE
5
D4
100
AcDbEntity
8
1
62
256
6
ByLayer
370
-1
48
1
60
0
100
AcDbLine
10
15.221369
20
-3.872811
30
0
11
14.646416
21
-4.209299
31
0
39
0
210
0
220
0
230
1
0
LINE
5
D5
100
AcDbEntity
8
1
62
256
6
ByLayer
370
-1
48
1
60
0
100
AcDbLine
10
16.434817
20
-2.783295
30
0
11
15.745519
21
-2.720725
31
0
39
0
210
0
220
0
230
1
0
LINE
5
D6
100
AcDbEntity
8
1
62
256
6
ByLayer
370
-1
48
1
60
0
100
AcDbLine
10
16.413576
20
-2.795726
30
0
11
15.724279
21
-2.733156
31
0
39
0
210
0
220
0
230
1
0
LINE
5
D7
100
AcDbEntity
8
1
62
256
6
ByLayer
370
-1
48
1
60
0
100
AcDbLine
10
16.311603
20
-2.967304
30
0
11
15.625332
21
-2.905009
31
0
39
0
210
0
220
0
230
1
0
LINE
5
D8
100
AcDbEntity
8
1
62
256
6
ByLayer
370
-1
48
1
60
0
100
AcDbLine
10
16.281674
20
-3.803519
30
0
11
15.617544
21
-3.743234
31
0
39
0
210
0
220
0
230
1
0
LINE
5
D9
100
AcDbEntity
8
1
62
256
6
ByLayer
370
-1
48
1
60
0
100
AcDbLine
10
16.215391
20
-3.915045
30
0
11
15.553229
21
-3.854938
31
0
39
0
210
0
220
0
230
1
0
LINE
5
DA
100
AcDbEntity
8
1
62
256
6
ByLayer
370
-1
48
1
60
0
100
AcDbLine
10
9.273769
20
-14.670391
30
0
11
9.294942
21
-14.682822
31
0
39
0
210
0
220
0
230
1
0
LINE
5
DB
100
AcDbEntity
8
1
62
256
6
ByLayer
370
-1
48
1
60
0
100
AcDbLine
10
13.659592
20
-15.386466
30
0
11
12.904316
21
-15.317907
31
0
39
0
210
0
220
0
230
1
0
LINE
5
DC
100
AcDbEntity
8
1
62
256
6
ByLayer
370
-1
48
1
60
0
100
AcDbLine
10
9.862035
20
-14.560833
30
0
11
9.175763
21
-14.498539
31
0
39
0
210
0
220
0
230
1
0
LINE
5
DD
100
AcDbEntity
8
1
62
256
6
ByLayer
370
-1
48
1
60
0
100
AcDbLine
10
9.963067
20
-14.732961
30
0
11
9.273769
21
-14.670391
31
0
39
0
210
0
220
0
230
1
0
LINE
5
DE
100
AcDbEntity
8
1
62
256
6
ByLayer
370
-1
48
1
60
0
100
AcDbLine
10
9.98424
20
-14.745392
30
0
11
9.294942
21
-14.682822
31
0
39
0
210
0
220
0
230
1
0
LINE
5
DF
100
AcDbEntity
8
1
62
256
6
ByLayer
370
-1
48
1
60
0
100
AcDbLine
10
10.599806
20
-11.575368
30
0
11
10.885804
21
-11.250616
31
0
39
0
210
0
220
0
230
1
0
LINE
5
E0
100
AcDbEntity
8
1
62
256
6
ByLayer
370
-1
48
1
60
0
100
AcDbLine
10
11.882565
20
-14.94972
30
0
11
12.088493
21
-14.826679
31
0
39
0
210
0
220
0
230
1
0
LINE
5
E1
100
AcDbEntity
8
1
62
256
6
ByLayer
370
-1
48
1
60
0
100
AcDbLine
10
11.184136
20
-14.61298
30
0
11
11.757248
21
-14.949469
31
0
39
0
210
0
220
0
230
1
0
LINE
5
E2
100
AcDbEntity
8
1
62
256
6
ByLayer
370
-1
48
1
60
0
100
AcDbLine
10
11.11313
20
-14.459091
30
0
11
11.119296
21
-14.512521
31
0
39
0
210
0
220
0
230
1
0
LINE
5
E3
100
AcDbEntity
8
1
62
256
6
ByLayer
370
-1
48
1
60
0
100
AcDbLine
10
10.999077
20
-14.329738
30
0
11
11.048289
21
-14.358632
31
0
39
0
210
0
220
0
230
1
0
LINE
5
E4
100
AcDbEntity
8
1
62
256
6
ByLayer
370
-1
48
1
60
0
100
AcDbLine
10
10.177036
20
-14.745779
30
0
11
10.873759
21
-14.329487
31
0
39
0
210
0
220
0
230
1
0
LINE
5
E5
100
AcDbEntity
8
1
62
256
6
ByLayer
370
-1
48
1
60
0
100
AcDbLine
10
9.963067
20
-14.732961
30
0
11
9.98424
21
-14.745392
31
0
39
0
210
0
220
0
230
1
0
LINE
5
E6
100
AcDbEntity
8
1
62
256
6
ByLayer
370
-1
48
1
60
0
100
AcDbLine
10
9.838528
20
-12.898507
30
0
11
10.162306
21
-12.29254
31
0
39
0
210
0
220
0
230
1
0
LINE
5
E7
100
AcDbEntity
8
1
62
256
6
ByLayer
370
-1
48
1
60
0
100
AcDbLine
10
9.814964
20
-13.000106
30
0
11
9.862035
21
-14.560833
31
0
39
0
210
0
220
0
230
1
0
LINE
5
E8
100
AcDbEntity
8
1
62
256
6
ByLayer
370
-1
48
1
60
0
100
AcDbLine
10
10.973801
20
-11.120077
30
0
11
12.30457
21
-8.79106
31
0
39
0
210
0
220
0
230
1
0
LINE
5
E9
100
AcDbEntity
8
1
62
256
6
ByLayer
370
-1
48
1
60
0
100
AcDbLine
10
15.688405
20
-15.413257
30
0
11
13.758
21
-15.413257
31
0
39
0
210
0
220
0
230
1
0
LINE
5
EA
100
AcDbEntity
8
1
62
256
6
ByLayer
370
-1
48
1
60
0
100
AcDbLine
10
12.992318
20
-14.994692
30
0
11
13.659592
21
-15.386466
31
0
39
0
210
0
220
0
230
1
0
LINE
5
EB
100
AcDbEntity
8
1
62
256
6
ByLayer
370
-1
48
1
60
0
100
AcDbLine
10
10.2869
20
-13.120705
30
0
11
10.694581
21
-13.117316
31
0
39
0
210
0
220
0
230
1
0
LINE
5
EC
100
AcDbEntity
8
1
62
256
6
ByLayer
370
-1
48
1
60
0
100
AcDbLine
10
10.916333
20
-13.247513
30
0
11
11.12655
21
-13.613686
31
0
39
0
210
0
220
0
230
1
0
LINE
5
ED
100
AcDbEntity
8
1
62
256
6
ByLayer
370
-1
48
1
60
0
100
AcDbLine
10
9.923213
20
-13.37455
30
0
11
9.955736
21
-14.452903
31
0
39
0
210
0
220
0
230
1
0
LINE
5
EE
100
AcDbEntity
8
1
62
256
6
ByLayer
370
-1
48
1
60
0
100
AcDbLine
10
10.215881
20
-14.605641
30
0
11
11.110053
21
-14.071375
31
0
39
0
210
0
220
0
230
1
0
LINE
5
EF
100
AcDbEntity
8
1
62
256
6
ByLayer
370
-1
48
1
60
0
100
AcDbLine
10
16.410391
20
-14.054687
30
0
11
15.809681
21
-14.206647
31
0
39
0
210
0
220
0
230
1
0
LINE
5
F0
100
AcDbEntity
8
1
62
256
6
ByLayer
370
-1
48
1
60
0
100
AcDbLine
10
15.758413
20
-14.825176
30
0
11
15.778353
21
-15.412688
31
0
39
0
210
0
220
0
230
1
0
LINE
5
F1
100
AcDbEntity
8
1
62
256
6
ByLayer
370
-1
48
1
60
0
100
AcDbLine
10
12.772323
20
-14.871854
30
0
11
10.885804
21
-11.250616
31
0
39
0
210
0
220
0
230
1
0
LINE
5
F2
100
AcDbEntity
8
1
62
256
6
ByLayer
370
-1
48
1
60
0
100
AcDbLine
10
12.351985
20
-8.696531
30
0
11
13.260977
21
-8.763227
31
0
39
0
210
0
220
0
230
1
0
LINE
5
F3
100
AcDbEntity
8
1
62
256
6
ByLayer
370
-1
48
1
60
0
100
AcDbLine
10
13.260054
20
-8.861168
30
0
11
12.30457
21
-8.79106
31
0
39
0
210
0
220
0
230
1
0
LINE
5
F4
100
AcDbEntity
8
1
62
256
6
ByLayer
370
-1
48
1
60
0
100
AcDbLine
10
10.973801
20
-11.120077
30
0
11
12.992318
21
-14.994692
31
0
39
0
210
0
220
0
230
1
0
LINE
5
F5
100
AcDbEntity
8
1
62
256
6
ByLayer
370
-1
48
1
60
0
100
AcDbLine
10
15.688405
20
-15.413257
30
0
11
15.668588
21
-14.829378
31
0
39
0
210
0
220
0
230
1
0
LINE
5
F6
100
AcDbEntity
8
1
62
256
6
ByLayer
370
-1
48
1
60
0
100
AcDbLine
10
15.80394
20
-14.181413
30
0
11
16.40465
21
-14.029453
31
0
39
0
210
0
220
0
230
1
0
LINE
5
F7
100
AcDbEntity
8
1
62
256
6
ByLayer
370
-1
48
1
60
0
100
AcDbLine
10
10.599806
20
-11.575368
30
0
11
11.070277
21
-12.478454
31
0
39
0
210
0
220
0
230
1
0
LINE
5
F8
100
AcDbEntity
8
1
62
256
6
ByLayer
370
-1
48
1
60
0
100
AcDbLine
10
11.070277
20
-12.478454
30
0
11
12.40816
21
-14.69523
31
0
39
0
210
0
220
0
230
1
0
LINE
5
F9
100
AcDbEntity
8
1
62
256
6
ByLayer
370
-1
48
1
60
0
100
AcDbLine
10
10.776825
20
-12.65334
30
0
11
10.162306
21
-12.29254
31
0
39
0
210
0
220
0
230
1
0
LINE
5
FA
100
AcDbEntity
8
1
62
256
6
ByLayer
370
-1
48
1
60
0
100
AcDbLine
10
12.088493
20
-14.826679
30
0
11
10.776825
21
-12.65334
31
0
39
0
210
0
220
0
230
1
0
LINE
5
FB
100
AcDbEntity
8
1
62
256
6
ByLayer
370
-1
48
1
60
0
100
AcDbLine
10
10.188955
20
-12.244346
30
0
11
10.803474
21
-12.605146
31
0
39
0
210
0
220
0
230
1
0
LINE
5
FC
100
AcDbEntity
8
1
62
256
6
ByLayer
370
-1
48
1
60
0
100
AcDbLine
10
10.803474
20
-12.605146
30
0
11
10.41208
21
-11.85385
31
0
39
0
210
0
220
0
230
1
0
LINE
5
FD
100
AcDbEntity
8
1
62
256
6
ByLayer
370
-1
48
1
60
0
100
AcDbLine
10
16.064603
20
-15.409765
30
0
11
15.809681
21
-14.206647
31
0
39
0
210
0
220
0
230
1
0
LINE
5
FE
100
AcDbEntity
8
1
62
256
6
ByLayer
370
-1
48
1
60
0
100
AcDbLine
10
15.88254
20
-15.411005
30
0
11
15.758413
21
-14.825176
31
0
39
0
210
0
220
0
230
1
0
LINE
5
FF
100
AcDbEntity
8
1
62
256
6
ByLayer
370
-1
48
1
60
0
100
AcDbLine
10
16.6145
20
-15.017994
30
0
11
16.410391
21
-14.054687
31
0
39
0
210
0
220
0
230
1
0
LINE
5
100
100
AcDbEntity
8
1
62
256
6
ByLayer
370
-1
48
1
60
0
100
AcDbLine
10
12.422769
20
-8.524274
30
0
11
13.260977
21
-8.763227
31
0
39
0
210
0
220
0
230
1
0
LINE
5
101
100
AcDbEntity
8
1
62
256
6
ByLayer
370
-1
48
1
60
0
100
AcDbLine
10
12.510386
20
-8.351209
30
0
11
12.905412
21
-8.463821
31
0
39
0
210
0
220
0
230
1
0
LINE
5
102
100
AcDbEntity
8
1
62
256
6
ByLayer
370
-1
48
1
60
0
100
AcDbLine
10
10.288647
20
-14.108133
30
0
11
10.88486
21
-13.751896
31
0
39
0
210
0
220
0
230
1
0
LINE
5
103
100
AcDbEntity
8
1
62
256
6
ByLayer
370
-1
48
1
60
0
100
AcDbLine
10
10.266962
20
-13.389112
30
0
11
10.288647
21
-14.108133
31
0
39
0
210
0
220
0
230
1
0
LINE
5
104
100
AcDbEntity
8
1
62
256
6
ByLayer
370
-1
48
1
60
0
100
AcDbLine
10
10.037223
20
-14.403568
30
0
11
10.184734
21
-14.104861
31
0
39
0
210
0
220
0
230
1
0
LINE
5
105
100
AcDbEntity
8
1
62
256
6
ByLayer
370
-1
48
1
60
0
100
AcDbLine
10
10.184734
20
-14.104861
30
0
11
10.163049
21
-13.38584
31
0
39
0
210
0
220
0
230
1
0
LINE
5
106
100
AcDbEntity
8
1
62
256
6
ByLayer
370
-1
48
1
60
0
100
AcDbLine
10
10.351194
20
-14.202595
30
0
11
10.203684
21
-14.501301
31
0
39
0
210
0
220
0
230
1
0
LINE
5
107
100
AcDbEntity
8
1
62
256
6
ByLayer
370
-1
48
1
60
0
100
AcDbLine
10
10.947407
20
-13.846358
30
0
11
10.351194
21
-14.202595
31
0
39
0
210
0
220
0
230
1
0
LINE
5
108
100
AcDbEntity
8
1
62
256
6
ByLayer
370
-1
48
1
60
0
100
AcDbLine
10
10.203684
20
-14.501301
30
0
11
10.215881
21
-14.605641
31
0
39
0
210
0
220
0
230
1
0
LINE
5
109
100
AcDbEntity
8
1
62
256
6
ByLayer
370
-1
48
1
60
0
100
AcDbLine
10
9.955736
20
-14.452903
30
0
11
10.037223
21
-14.403568
31
0
39
0
210
0
220
0
230
1
0
LINE
5
10A
100
AcDbEntity
8
1
62
256
6
ByLayer
370
-1
48
1
60
0
100
AcDbLine
10
10.163049
20
-13.38584
30
0
11
9.923213
21
-13.37455
31
0
39
0
210
0
220
0
230
1
0
LINE
5
10B
100
AcDbEntity
8
1
62
256
6
ByLayer
370
-1
48
1
60
0
100
AcDbLine
10
10.88486
20
-13.751896
30
0
11
10.674643
21
-13.385723
31
0
39
0
210
0
220
0
230
1
0
LINE
5
10C
100
AcDbEntity
8
1
62
256
6
ByLayer
370
-1
48
1
60
0
100
AcDbLine
10
10.674643
20
-13.385723
30
0
11
10.266962
21
-13.389112
31
0
39
0
210
0
220
0
230
1
0
LINE
5
10D
100
AcDbEntity
8
1
62
256
6
ByLayer
370
-1
48
1
60
0
100
AcDbLine
10
11.110053
20
-14.071375
30
0
11
10.947407
21
-13.846358
31
0
39
0
210
0
220
0
230
1
0
LINE
5
10E
100
AcDbEntity
8
1
62
256
6
ByLayer
370
-1
48
1
60
0
100
AcDbLine
10
16.809023
20
-12.106618
30
0
11
16.805002
21
-12.086621
31
0
39
0
210
0
220
0
230
1
0
LINE
5
10F
100
AcDbEntity
8
1
62
256
6
ByLayer
370
-1
48
1
60
0
100
AcDbLine
10
20.305991
20
-15.403432
30
0
11
20.022279
21
-15.4121
31
0
39
0
210
0
220
0
230
1
0
LINE
5
110
100
AcDbEntity
8
1
62
256
6
ByLayer
370
-1
48
1
60
0
100
AcDbLine
10
22.571289
20
-12.598352
30
0
11
22.354575
21
-12.472455
31
0
39
0
210
0
220
0
230
1
0
LINE
5
111
100
AcDbEntity
8
1
62
256
6
ByLayer
370
-1
48
1
60
0
100
AcDbLine
10
22.634384
20
-13.383643
30
0
11
22.636226
21
-12.710665
31
0
39
0
210
0
220
0
230
1
0
LINE
5
112
100
AcDbEntity
8
1
62
256
6
ByLayer
370
-1
48
1
60
0
100
AcDbLine
10
22.534177
20
-13.520335
30
0
11
22.578581
21
-13.489427
31
0
39
0
210
0
220
0
230
1
0
LINE
5
113
100
AcDbEntity
8
1
62
256
6
ByLayer
370
-1
48
1
60
0
100
AcDbLine
10
22.478216
20
-13.683907
30
0
11
22.478375
21
-13.626119
31
0
39
0
210
0
220
0
230
1
0
LINE
5
114
100
AcDbEntity
8
1
62
256
6
ByLayer
370
-1
48
1
60
0
100
AcDbLine
10
23.276371
20
-14.222172
30
0
11
22.543153
21
-13.79622
31
0
39
0
210
0
220
0
230
1
0
LINE
5
115
100
AcDbEntity
8
1
62
256
6
ByLayer
370
-1
48
1
60
0
100
AcDbLine
10
23.376205
20
-14.419823
30
0
11
23.376273
21
-14.394961
31
0
39
0
210
0
220
0
230
1
0
LINE
5
116
100
AcDbEntity
8
1
62
256
6
ByLayer
370
-1
48
1
60
0
100
AcDbLine
10
21.806316
20
-15.402979
30
0
11
21.097999
21
-15.401041
31
0
39
0
210
0
220
0
230
1
0
LINE
5
117
100
AcDbEntity
8
1
62
256
6
ByLayer
370
-1
48
1
60
0
100
AcDbLine
10
21.909102
20
-15.375799
30
0
11
23.275359
21
-14.592063
31
0
39
0
210
0
220
0
230
1
0
LINE
5
118
100
AcDbEntity
8
1
62
256
6
ByLayer
370
-1
48
1
60
0
100
AcDbLine
10
19.885249
20
-15.413257
30
0
11
17.23646
21
-15.413257
31
0
39
0
210
0
220
0
230
1
0
LINE
5
119
100
AcDbEntity
8
1
62
256
6
ByLayer
370
-1
48
1
60
0
100
AcDbLine
10
21.201295
20
-9.110896
30
0
11
22.161852
21
-10.808256
31
0
39
0
210
0
220
0
230
1
0
LINE
5
11A
100
AcDbEntity
8
1
62
256
6
ByLayer
370
-1
48
1
60
0
100
AcDbLine
10
22.185822
20
-11.691791
30
0
11
22.187966
21
-10.908243
31
0
39
0
210
0
220
0
230
1
0
LINE
5
11B
100
AcDbEntity
8
1
62
256
6
ByLayer
370
-1
48
1
60
0
100
AcDbLine
10
21.771177
20
-14.895984
30
0
11
21.556178
21
-14.532609
31
0
39
0
210
0
220
0
230
1
0
LINE
5
11C
100
AcDbEntity
8
1
62
256
6
ByLayer
370
-1
48
1
60
0
100
AcDbLine
10
21.556891
20
-14.272216
30
0
11
21.773876
21
-13.910023
31
0
39
0
210
0
220
0
230
1
0
LINE
5
11D
100
AcDbEntity
8
1
62
256
6
ByLayer
370
-1
48
1
60
0
100
AcDbLine
10
22.186476
20
-15.100966
30
0
11
23.130464
21
-14.559459
31
0
39
0
210
0
220
0
230
1
0
LINE
5
11E
100
AcDbEntity
8
1
62
256
6
ByLayer
370
-1
48
1
60
0
100
AcDbLine
10
23.1313
20
-14.253983
30
0
11
22.190291
21
-13.707317
31
0
39
0
210
0
220
0
230
1
0
LINE
5
11F
100
AcDbEntity
8
1
62
256
6
ByLayer
370
-1
48
1
60
0
100
AcDbLine
10
19.682644
20
-9.158224
30
0
11
20.111172
21
-9.610068
31
0
39
0
210
0
220
0
230
1
0
LINE
5
120
100
AcDbEntity
8
1
62
256
6
ByLayer
370
-1
48
1
60
0
100
AcDbLine
10
20.655929
20
-9.338426
30
0
11
21.147144
21
-9.025723
31
0
39
0
210
0
220
0
230
1
0
LINE
5
121
100
AcDbEntity
8
1
62
256
6
ByLayer
370
-1
48
1
60
0
100
AcDbLine
10
22.172408
20
-11.933995
30
0
11
20.022279
21
-15.4121
31
0
39
0
210
0
220
0
230
1
0
LINE
5
122
100
AcDbEntity
8
1
62
256
6
ByLayer
370
-1
48
1
60
0
100
AcDbLine
10
17.123327
20
-15.412688
30
0
11
16.727909
21
-14.579925
31
0
39
0
210
0
220
0
230
1
0
LINE
5
123
100
AcDbEntity
8
1
62
256
6
ByLayer
370
-1
48
1
60
0
100
AcDbLine
10
16.820818
20
-14.537901
30
0
11
17.23646
21
-15.413257
31
0
39
0
210
0
220
0
230
1
0
LINE
5
124
100
AcDbEntity
8
1
62
256
6
ByLayer
370
-1
48
1
60
0
100
AcDbLine
10
19.885249
20
-15.413257
30
0
11
22.185822
21
-11.691791
31
0
39
0
210
0
220
0
230
1
0
LINE
5
125
100
AcDbEntity
8
1
62
256
6
ByLayer
370
-1
48
1
60
0
100
AcDbLine
10
21.201295
20
-9.110896
30
0
11
20.713118
21
-9.421666
31
0
39
0
210
0
220
0
230
1
0
LINE
5
126
100
AcDbEntity
8
1
62
256
6
ByLayer
370
-1
48
1
60
0
100
AcDbLine
10
20.093066
20
-9.628196
30
0
11
19.664538
21
-9.176352
31
0
39
0
210
0
220
0
230
1
0
LINE
5
127
100
AcDbEntity
8
1
62
256
6
ByLayer
370
-1
48
1
60
0
100
AcDbLine
10
20.305991
20
-15.403432
30
0
11
20.842203
21
-14.536042
31
0
39
0
210
0
220
0
230
1
0
LINE
5
128
100
AcDbEntity
8
1
62
256
6
ByLayer
370
-1
48
1
60
0
100
AcDbLine
10
20.842203
20
-14.536042
30
0
11
22.121878
21
-12.284947
31
0
39
0
210
0
220
0
230
1
0
LINE
5
129
100
AcDbEntity
8
1
62
256
6
ByLayer
370
-1
48
1
60
0
100
AcDbLine
10
21.099974
20
-14.679441
30
0
11
21.097999
21
-15.401041
31
0
39
0
210
0
220
0
230
1
0
LINE
5
12A
100
AcDbEntity
8
1
62
256
6
ByLayer
370
-1
48
1
60
0
100
AcDbLine
10
22.354575
20
-12.472455
30
0
11
21.099974
21
-14.679441
31
0
39
0
210
0
220
0
230
1
0
LINE
5
12B
100
AcDbEntity
8
1
62
256
6
ByLayer
370
-1
48
1
60
0
100
AcDbLine
10
21.042432
20
-15.400964
30
0
11
21.044407
21
-14.679364
31
0
39
0
210
0
220
0
230
1
0
LINE
5
12C
100
AcDbEntity
8
1
62
256
6
ByLayer
370
-1
48
1
60
0
100
AcDbLine
10
21.044407
20
-14.679364
30
0
11
20.598321
21
-15.400964
31
0
39
0
210
0
220
0
230
1
0
LINE
5
12D
100
AcDbEntity
8
1
62
256
6
ByLayer
370
-1
48
1
60
0
100
AcDbLine
10
20.956489
20
-8.742797
30
0
11
20.111172
21
-9.610068
31
0
39
0
210
0
220
0
230
1
0
LINE
5
12E
100
AcDbEntity
8
1
62
256
6
ByLayer
370
-1
48
1
60
0
100
AcDbLine
10
21.067536
20
-8.916129
30
0
11
20.655929
21
-9.338426
31
0
39
0
210
0
220
0
230
1
0
LINE
5
12F
100
AcDbEntity
8
1
62
256
6
ByLayer
370
-1
48
1
60
0
100
AcDbLine
10
20.359468
20
-8.463821
30
0
11
19.682644
21
-9.158224
31
0
39
0
210
0
220
0
230
1
0
LINE
5
130
100
AcDbEntity
8
1
62
256
6
ByLayer
370
-1
48
1
60
0
100
AcDbLine
10
16.903853
20
-15.410302
30
0
11
16.727909
21
-14.579925
31
0
39
0
210
0
220
0
230
1
0
LINE
5
131
100
AcDbEntity
8
1
62
256
6
ByLayer
370
-1
48
1
60
0
100
AcDbLine
10
16.697418
20
-15.40933
30
0
11
16.6145
21
-15.017994
31
0
39
0
210
0
220
0
230
1
0
LINE
5
132
100
AcDbEntity
8
1
62
256
6
ByLayer
370
-1
48
1
60
0
100
AcDbLine
10
22.619699
20
-14.403459
30
0
11
21.992255
21
-14.038955
31
0
39
0
210
0
220
0
230
1
0
LINE
5
133
100
AcDbEntity
8
1
62
256
6
ByLayer
370
-1
48
1
60
0
100
AcDbLine
10
21.990269
20
-14.764524
30
0
11
22.619699
21
-14.403459
31
0
39
0
210
0
220
0
230
1
0
LINE
5
134
100
AcDbEntity
8
1
62
256
6
ByLayer
370
-1
48
1
60
0
100
AcDbLine
10
23.035333
20
-14.503655
30
0
11
22.675864
21
-14.501656
31
0
39
0
210
0
220
0
230
1
0
LINE
5
135
100
AcDbEntity
8
1
62
256
6
ByLayer
370
-1
48
1
60
0
100
AcDbLine
10
22.675864
20
-14.501656
30
0
11
22.046435
21
-14.86272
31
0
39
0
210
0
220
0
230
1
0
LINE
5
136
100
AcDbEntity
8
1
62
256
6
ByLayer
370
-1
48
1
60
0
100
AcDbLine
10
22.676399
20
-14.306189
30
0
11
23.035868
21
-14.308189
31
0
39
0
210
0
220
0
230
1
0
LINE
5
137
100
AcDbEntity
8
1
62
256
6
ByLayer
370
-1
48
1
60
0
100
AcDbLine
10
22.048956
20
-13.941685
30
0
11
22.676399
21
-14.306189
31
0
39
0
210
0
220
0
230
1
0
LINE
5
138
100
AcDbEntity
8
1
62
256
6
ByLayer
370
-1
48
1
60
0
100
AcDbLine
10
23.035868
20
-14.308189
30
0
11
23.1313
21
-14.253983
31
0
39
0
210
0
220
0
230
1
0
LINE
5
139
100
AcDbEntity
8
1
62
256
6
ByLayer
370
-1
48
1
60
0
100
AcDbLine
10
23.130464
20
-14.559459
30
0
11
23.035333
21
-14.503655
31
0
39
0
210
0
220
0
230
1
0
LINE
5
13A
100
AcDbEntity
8
1
62
256
6
ByLayer
370
-1
48
1
60
0
100
AcDbLine
10
22.046435
20
-14.86272
30
0
11
22.186476
21
-15.100966
31
0
39
0
210
0
220
0
230
1
0
LINE
5
13B
100
AcDbEntity
8
1
62
256
6
ByLayer
370
-1
48
1
60
0
100
AcDbLine
10
21.992255
20
-14.038955
30
0
11
21.775271
21
-14.401148
31
0
39
0
210
0
220
0
230
1
0
LINE
5
13C
100
AcDbEntity
8
1
62
256
6
ByLayer
370
-1
48
1
60
0
100
AcDbLine
10
21.775271
20
-14.401148
30
0
11
21.990269
21
-14.764524
31
0
39
0
210
0
220
0
230
1
0
LINE
5
13D
100
AcDbEntity
8
1
62
256
6
ByLayer
370
-1
48
1
60
0
100
AcDbLine
10
22.190291
20
-13.707317
30
0
11
22.048956
21
-13.941685
31
0
39
0
210
0
220
0
230
1
0
LINE
5
13E
100
AcDbEntity
8
1
62
256
6
ByLayer
370
-1
48
1
60
0
100
AcDbLine
10
12.510386
20
-8.351209
30
0
11
12.835521
21
-7.791008
31
0
39
0
210
0
220
0
230
1
0
LINE
5
13F
100
AcDbEntity
8
1
62
256
6
ByLayer
370
-1
48
1
60
0
100
AcDbLine
10
12.94751
20
-7.620156
30
0
11
13.027709
21
-7.513928
31
0
39
0
210
0
220
0
230
1
0
LINE
5
140
100
AcDbEntity
8
1
62
256
6
ByLayer
370
-1
48
1
60
0
100
AcDbLine
10
18.555336
20
-4.662352
30
0
11
18.33435
21
-4.271856
31
0
39
0
210
0
220
0
230
1
0
LINE
5
141
100
AcDbEntity
8
1
62
256
6
ByLayer
370
-1
48
1
60
0
100
AcDbLine
10
20.477894
20
-7.843119
30
0
11
20.547748
21
-8.010606
31
0
39
0
210
0
220
0
230
1
0
LINE
5
142
100
AcDbEntity
8
1
62
256
6
ByLayer
370
-1
48
1
60
0
100
AcDbLine
10
15.207391
20
-4.984235
30
0
11
14.989051
21
-5.144726
31
0
39
0
210
0
220
0
230
1
0
LINE
5
143
100
AcDbEntity
8
1
62
256
6
ByLayer
370
-1
48
1
60
0
100
AcDbLine
10
17.857485
20
-10.245483
30
0
11
18.113624
21
-10.270839
31
0
39
0
210
0
220
0
230
1
0
LINE
5
144
100
AcDbEntity
8
1
62
256
6
ByLayer
370
-1
48
1
60
0
100
AcDbLine
10
17.876602
20
-10.239072
30
0
11
18.134785
21
-10.26463
31
0
39
0
210
0
220
0
230
1
0
LINE
5
145
100
AcDbEntity
8
1
62
256
6
ByLayer
370
-1
48
1
60
0
100
AcDbLine
10
17.857485
20
-10.245483
30
0
11
17.876602
21
-10.239072
31
0
39
0
210
0
220
0
230
1
0
LINE
5
146
100
AcDbEntity
8
1
62
256
6
ByLayer
370
-1
48
1
60
0
100
AcDbLine
10
17.874241
20
-11.029845
30
0
11
17.855163
21
-11.023435
31
0
39
0
210
0
220
0
230
1
0
LINE
5
147
100
AcDbEntity
8
1
62
256
6
ByLayer
370
-1
48
1
60
0
100
AcDbLine
10
16.805002
20
-12.086621
30
0
11
17.061141
21
-12.111977
31
0
39
0
210
0
220
0
230
1
0
LINE
5
148
100
AcDbEntity
8
1
62
256
6
ByLayer
370
-1
48
1
60
0
100
AcDbLine
10
16.809023
20
-12.106618
30
0
11
17.067206
21
-12.132176
31
0
39
0
210
0
220
0
230
1
0
LINE
5
149
100
AcDbEntity
8
1
62
256
6
ByLayer
370
-1
48
1
60
0
100
AcDbLine
10
17.855163
20
-11.023435
30
0
11
18.111302
21
-11.04879
31
0
39
0
210
0
220
0
230
1
0
LINE
5
14A
100
AcDbEntity
8
1
62
256
6
ByLayer
370
-1
48
1
60
0
100
AcDbLine
10
17.874241
20
-11.029845
30
0
11
18.132424
21
-11.055403
31
0
39
0
210
0
220
0
230
1
0
LINE
5
14B
100
AcDbEntity
8
1
62
256
6
ByLayer
370
-1
48
1
60
0
100
AcDbLine
10
16.813671
20
-9.182296
30
0
11
16.817811
21
-9.162299
31
0
39
0
210
0
220
0
230
1
0
LINE
5
14C
100
AcDbEntity
8
1
62
256
6
ByLayer
370
-1
48
1
60
0
100
AcDbLine
10
16.813671
20
-9.182296
30
0
11
17.06981
21
-9.207652
31
0
39
0
210
0
220
0
230
1
0
LINE
5
14D
100
AcDbEntity
8
1
62
256
6
ByLayer
370
-1
48
1
60
0
100
AcDbLine
10
16.817811
20
-9.162299
30
0
11
17.075994
21
-9.187857
31
0
39
0
210
0
220
0
230
1
0
LINE
5
14E
100
AcDbEntity
8
1
62
256
6
ByLayer
370
-1
48
1
60
0
100
AcDbLine
10
19.636933
20
-5.946006
30
0
11
20.141912
21
-6.110365
31
0
39
0
210
0
220
0
230
1
0
LINE
5
14F
100
AcDbEntity
8
1
62
256
6
ByLayer
370
-1
48
1
60
0
100
AcDbLine
10
20.702771
20
-7.436282
30
0
11
20.703418
21
-7.13883
31
0
39
0
210
0
220
0
230
1
0
LINE
5
150
100
AcDbEntity
8
SK1
62
256
6
ByLayer
370
-1
48
1
60
0
100
AcDbLine
10
0
20
-9.9375
30
0
11
-101.650602
21
-9.9375
31
0
39
0
210
0
220
0
230
1
0
LINE
5
152
100
AcDbEntity
8
SK1
62
256
6
ByLayer
370
-1
48
1
60
0
100
AcDbLine
10
-101.650602
20
-9.9375
30
0
11
-101.650602
21
9.9375
31
0
39
0
210
0
220
0
230
1
0
LINE
5
153
100
AcDbEntity
8
SK1
62
256
6
ByLayer
370
-1
48
1
60
0
100
AcDbLine
10
-101.650602
20
9.9375
30
0
11
0
21
9.9375
31
0
39
0
210
0
220
0
230
1
0
LINE
5
154
100
AcDbEntity
8
SK1
62
256
6
ByLayer
370
-1
48
1
60
0
100
AcDbLine
10
0
20
-9.9375
30
0
11
0
21
9.9375
31
0
39
0
210
0
220
0
230
1
0
LINE
5
155
100
AcDbEntity
8
1
62
256
6
ByLayer
370
-1
48
1
60
0
100
AcDbLine
10
17.123327
20
-15.412688
30
0
11
16.903853
21
-15.410302
31
0
39
0
210
0
220
0
230
1
0
LINE
5
156
100
AcDbEntity
8
1
62
256
6
ByLayer
370
-1
48
1
60
0
100
AcDbLine
10
20.598321
20
-15.400964
30
0
11
21.042432
21
-15.400964
31
0
39
0
210
0
220
0
230
1
0
LINE
5
157
100
AcDbEntity
8
1
62
256
6
ByLayer
370
-1
48
1
60
0
100
AcDbLine
10
20.634422
20
-8.181725
30
0
11
20.956489
21
-8.742797
31
0
39
0
210
0
220
0
230
1
0
LINE
5
158
100
AcDbEntity
8
1
62
256
6
ByLayer
370
-1
48
1
60
0
100
AcDbLine
10
16.697418
20
-15.40933
30
0
11
16.064603
21
-15.409765
31
0
39
0
210
0
220
0
230
1
0
LINE
5
159
100
AcDbEntity
8
1
62
256
6
ByLayer
370
-1
48
1
60
0
100
AcDbLine
10
21.067536
20
-8.916129
30
0
11
21.147144
21
-9.025723
31
0
39
0
210
0
220
0
230
1
0
LINE
5
15A
100
AcDbEntity
8
1
62
256
6
ByLayer
370
-1
48
1
60
0
100
AcDbLine
10
22.12317
20
-12.241801
30
0
11
22.172408
21
-11.933995
31
0
39
0
210
0
220
0
230
1
0
MTEXT
5
27D
100
AcDbEntity
8
SK6
62
256
6
ByLayer
370
-1
48
1
60
0
100
AcDbMText
10
-66.392068
20
-2.977629
30
0
210
0
220
0
230
1
1
\W00.724;\fsimplex.shx,bigfont.shx;266LFG-2020-16 
40
3.5
41
0
44
1.084337
50
0
71
7
72
5
7
DEFAULT
0
DIMENSION
5
2B0
100
AcDbEntity
8
2
62
256
6
ByLayer
370
-3
48
1
60
0
100
AcDbDimension
2
DimnDraft3D1
10
24.699398
20
-29.6625
30
0
11
9.720752
21
-29.6625
31
0
70
32
71
5
72
1
41
1
210
0
220
0
230
1
3
Standard
100
AcDbAlignedDimension
13
0
23
-11.4375
33
0
14
24.699398
24
-16.9125
34
0
50
0
100
AcDbRotatedDimension
1001
ACAD
1000
DSTYLE
1002
{
1070
   279
1070
     0
1070
   172
1070
     1
1070
   173
1070
     1
1070
   340
1005
27E
1070
   271
1070
     3
1070
   272
1070
     3
1070
    77
1070
     1
1070
    73
1070
     0
1070
   171
1070
     4
1070
   274
1070
     4
1070
   177
1070
     2
1070
   176
1070
     2
1070
   178
1070
     7
1070
    78
1070
     8
1070
    41
1041
3.0
1070
   147
1041
2.25
1070
    42
1041
1.5
1070
    44
1041
3.0
1070
   140
1041
4.5
1070
   343
1005
2B1
1070
   344
1005
2B1
1002
}
0
DIMENSION
5
2C6
100
AcDbEntity
8
SK2
62
256
6
ByLayer
370
-3
48
1
60
0
100
AcDbDimension
2
DimnDraft3D2
10
24.699398
20
-39.6625
30
0
11
-42.194023
21
-39.6625
31
0
70
32
71
5
72
1
41
1
210
0
220
0
230
1
3
Standard
100
AcDbAlignedDimension
13
-101.650602
23
-11.4375
33
0
14
24.699398
24
-16.9125
34
0
50
0
100
AcDbRotatedDimension
1001
ACAD
1000
DSTYLE
1002
{
1070
   279
1070
     0
1070
   172
1070
     1
1070
   173
1070
     1
1070
   340
1005
27E
1070
   271
1070
     3
1070
   272
1070
     3
1070
    77
1070
     1
1070
    73
1070
     0
1070
   171
1070
     4
1070
   274
1070
     4
1070
   177
1070
     2
1070
   176
1070
     2
1070
   178
1070
     7
1070
    78
1070
     8
1070
    41
1041
3.0
1070
   147
1041
2.25
1070
    42
1041
1.5
1070
    44
1041
3.0
1070
   140
1041
4.5
1070
   343
1005
2B1
1070
   344
1005
2B1
1002
}
0
DIMENSION
5
2D4
100
AcDbEntity
8
SK2
62
256
6
ByLayer
370
-3
48
1
60
0
100
AcDbDimension
2
DimnDraft3D3
10
-111.400602
20
-9.9375
30
0
11
-111.400602
21
-2.628947
31
0
70
32
71
5
72
1
41
1
210
0
220
0
230
1
3
Standard
100
AcDbAlignedDimension
13
-103.150602
23
9.9375
33
0
14
-103.150602
24
-9.9375
34
0
50
90
100
AcDbRotatedDimension
1001
ACAD
1000
DSTYLE
1002
{
1070
    74
1070
     0
1070
   279
1070
     0
1070
   172
1070
     1
1070
   173
1070
     1
1070
   340
1005
27E
1070
   271
1070
     3
1070
   272
1070
     3
1070
    77
1070
     1
1070
    73
1070
     0
1070
   171
1070
     4
1070
   274
1070
     4
1070
   177
1070
     2
1070
   176
1070
     2
1070
   178
1070
     7
1070
    78
1070
     8
1070
    41
1041
3.0
1070
   147
1041
2.25
1070
    42
1041
1.5
1070
    44
1041
3.0
1070
   140
1041
4.5
1070
   343
1005
2B1
1070
   344
1005
2B1
1002
}
0
DIMENSION
5
2E2
100
AcDbEntity
8
2
62
256
6
ByLayer
370
-3
48
1
60
0
100
AcDbDimension
2
DimnDraft3D4
10
38.949398
20
-15.4125
30
0
11
38.949398
21
-5.366447
31
0
70
32
71
5
72
1
41
1
210
0
220
0
230
1
3
Standard
100
AcDbAlignedDimension
13
1.5
23
9.9375
33
0
14
26.199398
24
-15.4125
34
0
50
90
100
AcDbRotatedDimension
1001
ACAD
1000
DSTYLE
1002
{
1070
    74
1070
     0
1070
   279
1070
     0
1070
   172
1070
     1
1070
   173
1070
     1
1070
   340
1005
27E
1070
   271
1070
     3
1070
   272
1070
     3
1070
    77
1070
     1
1070
    73
1070
     0
1070
   171
1070
     4
1070
   274
1070
     4
1070
   177
1070
     2
1070
   176
1070
     2
1070
   178
1070
     7
1070
    78
1070
     8
1070
    41
1041
3.0
1070
   147
1041
2.25
1070
    42
1041
1.5
1070
    44
1041
3.0
1070
   140
1041
4.5
1070
   343
1005
2B1
1070
   344
1005
2B1
1002
}
0
ENDSEC
0
SECTION
2
OBJECTS
0
DICTIONARY
5
312
330
0
100
AcDbDictionary
280
0
281
1
3
ACAD_GROUP
350
313
3
ACAD_MLINESTYLE
350
314
0
DICTIONARY
5
313
330
0
100
AcDbDictionary
280
0
281
1
0
DICTIONARY
5
314
330
0
100
AcDbDictionary
280
0
281
1
3
Standard
350
18
0
MLINESTYLE
5
18
330
314
100
AcDbMlineStyle
2
Standard
70
0
3

62
256
51
90
52
90
71
2
49
-0.5
62
256
6
ByLayer
49
0.5
62
256
6
ByLayer
0
RASTERVARIABLES
5
301
330

100
AcDbRasterVariables
90
0
70
1
71
1
72
1
0
ENDSEC
0
EOF
