0
SECTION
2
HEADER
9
$ACADVER
1
AC1015
9
$DWGCODEPAGE
3
ANSI_1252
9
$HANDSEED
5
325
9
$ANGBASE
50
0
9
$ANGDIR
70
0
9
$ATTMODE
70
1
9
$AUNITS
70
0
9
$AUPREC
70
0
9
$CECOLOR
62
256
9
$CELTSCALE
40
1
9
$CELTYPE
6
ByLayer
9
$CELWEIGHT
370
-1
9
$CLAYER
8
0
9
$CMLJUST
70
0
9
$CMLSCALE
40
1
9
$CMLSTYLE
2
Standard
9
$DIMSTYLE
2
Standard
9
$TEXTSIZE
40
0.2
9
$TEXTSTYLE
7
Standard
9
$LUNITS
70
2
9
$LUPREC
70
4
9
$EXTNAMES
290
1
9
$INSUNITS
70
4
9
$LTSCALE
40
1
9
$LWDISPLAY
290
0
9
$PDMODE
70
0
9
$PDSIZE
40
0
9
$PLINEGEN
70
0
0
ENDSEC
0
SECTION
2
CLASSES
0
CLASS
1
RASTERVARIABLES
2
AcDbRasterVariables
3
ISM
90
0
280
0
281
0
0
ENDSEC
0
SECTION
2
TABLES
0
TABLE
2
VPORT
5
31b
100
AcDbSymbolTable
0
VPORT
5
1
100
AcDbSymbolTableRecord
100
AcDbViewportTableRecord
2
*Active
70
0
10
0
20
0
11
1
21
1
12
-1
22
1
13
0
23
0
14
0.5
24
0.5
15
10
25
10
16
0
26
0
36
1
17
0
27
0
37
0
0
ENDTAB
0
TABLE
2
LTYPE
5
31c
100
AcDbSymbolTable
0
LTYPE
5
14
100
AcDbSymbolTableRecord
100
AcDbLinetypeTableRecord
70
0
2
ByBlock
3

72
65
73
0
40
0
0
LTYPE
5
15
100
AcDbSymbolTableRecord
100
AcDbLinetypeTableRecord
70
0
2
ByLayer
3

72
65
73
0
40
0
0
LTYPE
5
16
100
AcDbSymbolTableRecord
100
AcDbLinetypeTableRecord
70
0
2
CONTINUOUS
3
Solid line
72
65
73
0
40
0
0
LTYPE
5
3B
100
AcDbSymbolTableRecord
100
AcDbLinetypeTableRecord
70
0
2
DASHED
3
__ __ __ __ __ __ __ __ __
72
65
73
2
40
25.72
49
12.86
74
0
49
-12.86
74
0
0
LTYPE
5
3C
100
AcDbSymbolTableRecord
100
AcDbLinetypeTableRecord
70
0
2
HIDDEN
3
_ _ _ _ _ _ _ _ _ _ _ _ _ _ _
72
65
73
2
40
0.5
49
0.25
74
0
49
-0.25
74
0
0
LTYPE
5
3D
100
AcDbSymbolTableRecord
100
AcDbLinetypeTableRecord
70
0
2
PHANTOM
3
____ _ _ ____ _ _ _____ _ _ ____
72
65
73
6
40
50.5
49
18
74
0
49
-6.5
74
0
49
6.5
74
0
49
-6.5
74
0
49
6.5
74
0
49
-6.5
74
0
0
LTYPE
5
3E
100
AcDbSymbolTableRecord
100
AcDbLinetypeTableRecord
70
0
2
CENTER
3
____ _ ____ _ ____ _ ____
72
65
73
4
40
47.5
49
22
74
0
49
-8.5
74
0
49
8.5
74
0
49
-8.5
74
0
0
LTYPE
5
3F
100
AcDbSymbolTableRecord
100
AcDbLinetypeTableRecord
70
0
2
DOT
3
.........................
72
65
73
2
40
10
49
0
74
0
49
-10
74
0
0
LTYPE
5
40
100
AcDbSymbolTableRecord
100
AcDbLinetypeTableRecord
70
0
2
DASHDOT
3
_._._._._._._._._._._._._._._._.
72
65
73
4
40
70
49
31
74
0
49
-13
74
0
49
13
74
0
49
-13
74
0
0
ENDTAB
0
TABLE
2
LAYER
5
31d
100
AcDbSymbolTable
0
LAYER
5
10
100
AcDbSymbolTableRecord
100
AcDbLayerTableRecord
2
0
70
0
62
7
6
CONTINUOUS
290
1
370
-3
390
0
0
LAYER
5
42
100
AcDbSymbolTableRecord
100
AcDbLayerTableRecord
2
80
70
0
62
-6
6
CONTINUOUS
290
1
370
-3
390
0
0
LAYER
5
44
100
AcDbSymbolTableRecord
100
AcDbLayerTableRecord
2
81
70
0
62
-3
6
CONTINUOUS
290
1
370
-3
390
0
0
LAYER
5
46
100
AcDbSymbolTableRecord
100
AcDbLayerTableRecord
2
2
70
0
62
7
6
CONTINUOUS
290
1
370
-3
390
0
0
LAYER
5
4A
100
AcDbSymbolTableRecord
100
AcDbLayerTableRecord
2
1
70
0
62
4
6
CONTINUOUS
290
1
370
-3
390
0
0
LAYER
5
308
100
AcDbSymbolTableRecord
100
AcDbLayerTableRecord
2
SK1
70
0
62
4
6
CONTINUOUS
290
1
370
-3
390
0
0
LAYER
5
309
100
AcDbSymbolTableRecord
100
AcDbLayerTableRecord
2
SK6
70
0
62
5
6
CONTINUOUS
290
1
370
-3
390
0
0
LAYER
5
30a
100
AcDbSymbolTableRecord
100
AcDbLayerTableRecord
2
SK2
70
0
62
7
6
CONTINUOUS
290
1
370
-3
390
0
0
ENDTAB
0
TABLE
2
STYLE
5
31e
100
AcDbSymbolTable
0
STYLE
5
11
100
AcDbSymbolTableRecord
100
AcDbTextStyleTableRecord
2
Standard
3
txt
70
0
71
0
40
0
41
1
42
0
50
0
0
STYLE
5
284
100
AcDbSymbolTableRecord
100
AcDbTextStyleTableRecord
2
DEFAULT
3
simplex.shx
70
0
71
0
40
0
41
1
42
0
50
0
0
STYLE
5
2A7
100
AcDbSymbolTableRecord
100
AcDbTextStyleTableRecord
2
DWGDirectTextStyle
3
SIMPLEX
70
0
71
0
40
0
41
1
42
0
50
0
0
ENDTAB
0
TABLE
2
DIMSTYLE
5
31f
100
AcDbSymbolTable
100
AcDbDimStyleTable
0
DIMSTYLE
105
27
100
AcDbSymbolTableRecord
100
AcDbDimStyleTableRecord
2
Standard
70
0
3
<>
41
0.18
42
0.0625
44
0.18
140
0.18
147
0.09
73
0
74
0
77
1
271
2
275
0
278
52
280
0
340
11
0
ENDTAB
0
TABLE
2
VIEW
5
320
100
AcDbSymbolTable
0
ENDTAB
0
TABLE
2
UCS
5
321
100
AcDbSymbolTable
0
ENDTAB
0
TABLE
2
APPID
5
322
100
AcDbSymbolTable
0
APPID
5
12
100
AcDbSymbolTableRecord
100
AcDbRegAppTableRecord
2
ACAD
70
0
0
ENDTAB
0
TABLE
2
BLOCK_RECORD
5
323
100
AcDbSymbolTable
0
BLOCK_RECORD
5
1F
100
AcDbSymbolTableRecord
100
AcDbBlockTableRecord
2
*Model_Space
340
0
70
0
0
BLOCK_RECORD
5
1B
100
AcDbSymbolTableRecord
100
AcDbBlockTableRecord
2
*Paper_Space
340
0
70
0
0
BLOCK_RECORD
5
23
100
AcDbSymbolTableRecord
100
AcDbBlockTableRecord
2
*Paper_Space0
340
0
70
0
0
BLOCK_RECORD
5
2A9
100
AcDbSymbolTableRecord
100
AcDbBlockTableRecord
2
DimnDraft3D1
340
0
70
0
0
BLOCK_RECORD
5
2B7
100
AcDbSymbolTableRecord
100
AcDbBlockTableRecord
2
_CLOSED
340
0
70
0
0
BLOCK_RECORD
5
2BE
100
AcDbSymbolTableRecord
100
AcDbBlockTableRecord
2
DimnDraft3D2
340
0
70
0
0
BLOCK_RECORD
5
2CD
100
AcDbSymbolTableRecord
100
AcDbBlockTableRecord
2
DimnDraft3D3
340
0
70
0
0
BLOCK_RECORD
5
2DB
100
AcDbSymbolTableRecord
100
AcDbBlockTableRecord
2
DimnDraft3D4
340
0
70
0
0
ENDTAB
0
ENDSEC
0
SECTION
2
BLOCKS
0
BLOCK
5
20
100
AcDbEntity
8
0
100
AcDbBlockBegin
2
*Model_Space
70
0
10
0
20
0
30
0
3
*Model_Space
0
ENDBLK
5
21
100
AcDbEntity
8
0
100
AcDbBlockEnd
0
BLOCK
5
1C
100
AcDbEntity
8
0
100
AcDbBlockBegin
2
*Paper_Space
70
0
10
0
20
0
30
0
3
*Paper_Space
0
ENDBLK
5
1D
100
AcDbEntity
8
0
100
AcDbBlockEnd
0
BLOCK
5
24
100
AcDbEntity
8
0
100
AcDbBlockBegin
2
*Paper_Space0
70
0
10
0
20
0
30
0
3
*Paper_Space0
0
ENDBLK
5
25
100
AcDbEntity
8
0
100
AcDbBlockEnd
0
BLOCK
5
2B4
100
AcDbEntity
8
0
100
AcDbBlockBegin
2
DimnDraft3D1
70
0
10
0
20
0
30
0
3
DimnDraft3D1
0
MTEXT
5
2AA
100
AcDbEntity
8
2
62
256
6
ByLayer
370
-1
48
1
60
0
100
AcDbMText
10
9.741133
20
-19.1875
30
0
210
0
220
0
230
1
1
\W01.000;\fsimplex.shx,bigfont.shx;21 
40
4.5
41
0
44
1.084337
50
0
71
7
72
5
7
DEFAULT
0
LINE
5
2AB
100
AcDbEntity
8
2
62
256
6
ByLayer
370
-1
48
1
60
0
100
AcDbLine
10
0
20
-7.4375
30
0
11
0
21
-23.3125
31
0
39
0
210
0
220
0
230
1
0
LINE
5
2AC
100
AcDbEntity
8
2
62
256
6
ByLayer
370
-1
48
1
60
0
100
AcDbLine
10
21.36516
20
-7.5625
30
0
11
21.36516
21
-23.3125
31
0
39
0
210
0
220
0
230
1
0
LINE
5
2AD
100
AcDbEntity
8
2
62
256
6
ByLayer
370
-1
48
1
60
0
100
AcDbLine
10
0
20
-20.3125
30
0
11
21.36516
21
-20.3125
31
0
39
0
210
0
220
0
230
1
0
LINE
5
2AE
100
AcDbEntity
8
2
62
256
6
ByLayer
370
-1
48
1
60
0
100
AcDbLine
10
0
20
-20.3125
30
0
11
2.999999
21
-19.917543
31
0
39
0
210
0
220
0
230
1
0
LINE
5
2AF
100
AcDbEntity
8
2
62
256
6
ByLayer
370
-1
48
1
60
0
100
AcDbLine
10
0
20
-20.3125
30
0
11
3.000001
21
-20.707457
31
0
39
0
210
0
220
0
230
1
0
LINE
5
2B0
100
AcDbEntity
8
2
62
256
6
ByLayer
370
-1
48
1
60
0
100
AcDbLine
10
2.999999
20
-19.917543
30
0
11
3.000001
21
-20.707457
31
0
39
0
210
0
220
0
230
1
0
LINE
5
2B1
100
AcDbEntity
8
2
62
256
6
ByLayer
370
-1
48
1
60
0
100
AcDbLine
10
21.36516
20
-20.3125
30
0
11
18.365162
21
-20.707457
31
0
39
0
210
0
220
0
230
1
0
LINE
5
2B2
100
AcDbEntity
8
2
62
256
6
ByLayer
370
-1
48
1
60
0
100
AcDbLine
10
21.36516
20
-20.3125
30
0
11
18.365159
21
-19.917543
31
0
39
0
210
0
220
0
230
1
0
LINE
5
2B3
100
AcDbEntity
8
2
62
256
6
ByLayer
370
-1
48
1
60
0
100
AcDbLine
10
18.365162
20
-20.707457
30
0
11
18.365159
21
-19.917543
31
0
39
0
210
0
220
0
230
1
0
ENDBLK
5
2B5
100
AcDbEntity
8
0
100
AcDbBlockEnd
0
BLOCK
5
2B8
100
AcDbEntity
8
0
100
AcDbBlockBegin
2
_CLOSED
70
0
10
0
20
0
30
0
3
_CLOSED
0
LINE
5
2BA
100
AcDbEntity
8
0
62
256
6
ByLayer
370
-2
48
1
60
0
100
AcDbLine
10
-1
20
0.166667
30
0
11
0
21
0
31
0
39
0
210
0
220
0
230
1
0
LINE
5
2BB
100
AcDbEntity
8
0
62
256
6
ByLayer
370
-2
48
1
60
0
100
AcDbLine
10
0
20
0
30
0
11
-1
21
-0.166667
31
0
39
0
210
0
220
0
230
1
0
LINE
5
2BC
100
AcDbEntity
8
0
62
256
6
ByLayer
370
-2
48
1
60
0
100
AcDbLine
10
-1
20
0.166667
30
0
11
-1
21
-0.166667
31
0
39
0
210
0
220
0
230
1
0
LINE
5
2BD
100
AcDbEntity
8
0
62
256
6
ByLayer
370
-2
48
1
60
0
100
AcDbLine
10
0
20
0
30
0
11
-1
21
0
31
0
39
0
210
0
220
0
230
1
0
ENDBLK
5
2B9
100
AcDbEntity
8
0
100
AcDbBlockEnd
0
BLOCK
5
2CA
100
AcDbEntity
8
0
100
AcDbBlockBegin
2
DimnDraft3D2
70
0
10
0
20
0
30
0
3
DimnDraft3D2
0
MTEXT
5
2BF
100
AcDbEntity
8
SK2
62
256
6
ByLayer
370
-1
48
1
60
0
100
AcDbMText
10
-43.853261
20
-29.1875
30
0
210
0
220
0
230
1
1
\W01.000;\fsimplex.shx,bigfont.shx;125 
40
4.5
41
0
44
1.084337
50
0
71
7
72
5
7
DEFAULT
0
LINE
5
2C1
100
AcDbEntity
8
SK2
62
256
6
ByLayer
370
-1
48
1
60
0
100
AcDbLine
10
-103.88484
20
-7.4375
30
0
11
-103.88484
21
-33.3125
31
0
39
0
210
0
220
0
230
1
0
LINE
5
2C2
100
AcDbEntity
8
SK2
62
256
6
ByLayer
370
-1
48
1
60
0
100
AcDbLine
10
21.36516
20
-7.5625
30
0
11
21.36516
21
-33.3125
31
0
39
0
210
0
220
0
230
1
0
LINE
5
2C3
100
AcDbEntity
8
SK2
62
256
6
ByLayer
370
-1
48
1
60
0
100
AcDbLine
10
-103.88484
20
-30.3125
30
0
11
21.36516
21
-30.3125
31
0
39
0
210
0
220
0
230
1
0
LINE
5
2C4
100
AcDbEntity
8
SK2
62
256
6
ByLayer
370
-1
48
1
60
0
100
AcDbLine
10
-103.88484
20
-30.3125
30
0
11
-100.884841
21
-29.917543
31
0
39
0
210
0
220
0
230
1
0
LINE
5
2C5
100
AcDbEntity
8
SK2
62
256
6
ByLayer
370
-1
48
1
60
0
100
AcDbLine
10
-103.88484
20
-30.3125
30
0
11
-100.884838
21
-30.707457
31
0
39
0
210
0
220
0
230
1
0
LINE
5
2C6
100
AcDbEntity
8
SK2
62
256
6
ByLayer
370
-1
48
1
60
0
100
AcDbLine
10
-100.884841
20
-29.917543
30
0
11
-100.884838
21
-30.707457
31
0
39
0
210
0
220
0
230
1
0
LINE
5
2C7
100
AcDbEntity
8
SK2
62
256
6
ByLayer
370
-1
48
1
60
0
100
AcDbLine
10
21.36516
20
-30.3125
30
0
11
18.365162
21
-30.707457
31
0
39
0
210
0
220
0
230
1
0
LINE
5
2C8
100
AcDbEntity
8
SK2
62
256
6
ByLayer
370
-1
48
1
60
0
100
AcDbLine
10
21.36516
20
-30.3125
30
0
11
18.365159
21
-29.917543
31
0
39
0
210
0
220
0
230
1
0
LINE
5
2C9
100
AcDbEntity
8
SK2
62
256
6
ByLayer
370
-1
48
1
60
0
100
AcDbLine
10
18.365162
20
-30.707457
30
0
11
18.365159
21
-29.917543
31
0
39
0
210
0
220
0
230
1
0
ENDBLK
5
2CB
100
AcDbEntity
8
0
100
AcDbBlockEnd
0
BLOCK
5
2D8
100
AcDbEntity
8
0
100
AcDbBlockBegin
2
DimnDraft3D3
70
0
10
0
20
0
30
0
3
DimnDraft3D3
0
MTEXT
5
2CE
100
AcDbEntity
8
SK2
62
256
6
ByLayer
370
-1
48
1
60
0
100
AcDbMText
10
-114.75984
20
-0.941447
30
0
210
0
220
0
230
1
1
\W01.000;\fsimplex.shx,bigfont.shx;12 
40
4.5
41
0
44
1.084337
50
90
71
7
72
5
7
DEFAULT
0
LINE
5
2CF
100
AcDbEntity
8
SK2
62
256
6
ByLayer
370
-1
48
1
60
0
100
AcDbLine
10
-105.38484
20
5.9375
30
0
11
-116.63484
21
5.9375
31
0
39
0
210
0
220
0
230
1
0
LINE
5
2D0
100
AcDbEntity
8
SK2
62
256
6
ByLayer
370
-1
48
1
60
0
100
AcDbLine
10
-105.38484
20
-5.9375
30
0
11
-116.63484
21
-5.9375
31
0
39
0
210
0
220
0
230
1
0
LINE
5
2D1
100
AcDbEntity
8
SK2
62
256
6
ByLayer
370
-1
48
1
60
0
100
AcDbLine
10
-113.63484
20
17.1875
30
0
11
-113.63484
21
-17.1875
31
0
39
0
210
0
220
0
230
1
0
LINE
5
2D2
100
AcDbEntity
8
SK2
62
256
6
ByLayer
370
-1
48
1
60
0
100
AcDbLine
10
-113.63484
20
5.9375
30
0
11
-114.029797
21
8.937499
31
0
39
0
210
0
220
0
230
1
0
LINE
5
2D3
100
AcDbEntity
8
SK2
62
256
6
ByLayer
370
-1
48
1
60
0
100
AcDbLine
10
-113.63484
20
5.9375
30
0
11
-113.239882
21
8.937501
31
0
39
0
210
0
220
0
230
1
0
LINE
5
2D4
100
AcDbEntity
8
SK2
62
256
6
ByLayer
370
-1
48
1
60
0
100
AcDbLine
10
-114.029797
20
8.937499
30
0
11
-113.239882
21
8.937501
31
0
39
0
210
0
220
0
230
1
0
LINE
5
2D5
100
AcDbEntity
8
SK2
62
256
6
ByLayer
370
-1
48
1
60
0
100
AcDbLine
10
-113.63484
20
-5.9375
30
0
11
-113.239882
21
-8.937499
31
0
39
0
210
0
220
0
230
1
0
LINE
5
2D6
100
AcDbEntity
8
SK2
62
256
6
ByLayer
370
-1
48
1
60
0
100
AcDbLine
10
-113.63484
20
-5.9375
30
0
11
-114.029797
21
-8.937501
31
0
39
0
210
0
220
0
230
1
0
LINE
5
2D7
100
AcDbEntity
8
SK2
62
256
6
ByLayer
370
-1
48
1
60
0
100
AcDbLine
10
-113.239882
20
-8.937499
30
0
11
-114.029797
21
-8.937501
31
0
39
0
210
0
220
0
230
1
0
ENDBLK
5
2D9
100
AcDbEntity
8
0
100
AcDbBlockEnd
0
BLOCK
5
2E6
100
AcDbEntity
8
0
100
AcDbBlockBegin
2
DimnDraft3D4
70
0
10
0
20
0
30
0
3
DimnDraft3D4
0
MTEXT
5
2DC
100
AcDbEntity
8
2
62
256
6
ByLayer
370
-1
48
1
60
0
100
AcDbMText
10
34.49016
20
-1.003947
30
0
210
0
220
0
230
1
1
\W01.000;\fsimplex.shx,bigfont.shx;12 
40
4.5
41
0
44
1.084337
50
90
71
7
72
5
7
DEFAULT
0
LINE
5
2DD
100
AcDbEntity
8
2
62
256
6
ByLayer
370
-1
48
1
60
0
100
AcDbLine
10
1.5
20
5.9375
30
0
11
38.61516
21
5.9375
31
0
39
0
210
0
220
0
230
1
0
LINE
5
2DE
100
AcDbEntity
8
2
62
256
6
ByLayer
370
-1
48
1
60
0
100
AcDbLine
10
22.86516
20
-6.0625
30
0
11
38.61516
21
-6.0625
31
0
39
0
210
0
220
0
230
1
0
LINE
5
2DF
100
AcDbEntity
8
2
62
256
6
ByLayer
370
-1
48
1
60
0
100
AcDbLine
10
35.61516
20
17.1875
30
0
11
35.61516
21
-17.3125
31
0
39
0
210
0
220
0
230
1
0
LINE
5
2E0
100
AcDbEntity
8
2
62
256
6
ByLayer
370
-1
48
1
60
0
100
AcDbLine
10
35.61516
20
5.9375
30
0
11
35.220203
21
8.937499
31
0
39
0
210
0
220
0
230
1
0
LINE
5
2E1
100
AcDbEntity
8
2
62
256
6
ByLayer
370
-1
48
1
60
0
100
AcDbLine
10
35.61516
20
5.9375
30
0
11
36.010118
21
8.937501
31
0
39
0
210
0
220
0
230
1
0
LINE
5
2E2
100
AcDbEntity
8
2
62
256
6
ByLayer
370
-1
48
1
60
0
100
AcDbLine
10
35.220203
20
8.937499
30
0
11
36.010118
21
8.937501
31
0
39
0
210
0
220
0
230
1
0
LINE
5
2E3
100
AcDbEntity
8
2
62
256
6
ByLayer
370
-1
48
1
60
0
100
AcDbLine
10
35.61516
20
-6.0625
30
0
11
36.010118
21
-9.062499
31
0
39
0
210
0
220
0
230
1
0
LINE
5
2E4
100
AcDbEntity
8
2
62
256
6
ByLayer
370
-1
48
1
60
0
100
AcDbLine
10
35.61516
20
-6.0625
30
0
11
35.220203
21
-9.062501
31
0
39
0
210
0
220
0
230
1
0
LINE
5
2E5
100
AcDbEntity
8
2
62
256
6
ByLayer
370
-1
48
1
60
0
100
AcDbLine
10
36.010118
20
-9.062499
30
0
11
35.220203
21
-9.062501
31
0
39
0
210
0
220
0
230
1
0
ENDBLK
5
2E7
100
AcDbEntity
8
0
100
AcDbBlockEnd
0
ENDSEC
0
SECTION
2
ENTITIES
0
ELLIPSE
5
160
100
AcDbEntity
8
1
62
256
6
ByLayer
370
-1
48
1
60
0
100
AcDbEllipse
10
14.53517
20
6.729948
30
0
11
-6.17415275757371
21
2.1779931618039
31
0
210
0
220
0
230
1
40
0.084929
41
-1.38621878388824
42
-1.37127657545157
0
ELLIPSE
5
161
100
AcDbEntity
8
1
62
256
6
ByLayer
370
-1
48
1
60
0
100
AcDbEllipse
10
12.017613
20
6.97921
30
0
11
0.162543294864814
21
1.64197432297052
31
0
210
0
220
0
230
1
40
0.984662
41
-1.35893418721621
42
-1.03785883986449
0
ELLIPSE
5
162
100
AcDbEntity
8
1
62
256
6
ByLayer
370
-1
48
1
60
0
100
AcDbEllipse
10
10.795166
20
1.919033
30
0
11
-1.0803056317258
21
-2.62885184007135
31
0
210
0
220
0
230
1
40
0.404754
41
-1.88187489715542
42
-1.59926189504654
0
ELLIPSE
5
163
100
AcDbEntity
8
1
62
256
6
ByLayer
370
-1
48
1
60
0
100
AcDbEllipse
10
12.839716
20
6.897827
30
0
11
-0.162543294864815
21
-1.64197432297052
31
0
210
0
220
0
230
1
40
0.984662
41
1.67693262933213
42
-1.59753142449081
0
ELLIPSE
5
164
100
AcDbEntity
8
1
62
256
6
ByLayer
370
-1
48
1
60
0
100
AcDbEllipse
10
12.260084
20
5.729394
30
0
11
-0.197022175593714
21
-1.99027190663093
31
0
210
0
220
0
230
1
40
0.984662
41
1.81584635951608
42
2.47092466409972
0
ELLIPSE
5
165
100
AcDbEntity
8
1
62
256
6
ByLayer
370
-1
48
1
60
0
100
AcDbEllipse
10
12.591424
20
6.197931
30
0
11
0.163118636092621
21
1.64778628540054
31
0
210
0
220
0
230
1
40
0.984662
41
1.09050574269858
42
2.22539590413136
0
ELLIPSE
5
166
100
AcDbEntity
8
1
62
256
6
ByLayer
370
-1
48
1
60
0
100
AcDbEllipse
10
11.59571
20
7.020975
30
0
11
-0.162543294864815
21
-1.64197432297052
31
0
210
0
220
0
230
1
40
0.984662
41
1.40825361869242
42
1.89698289101567
0
ELLIPSE
5
167
100
AcDbEntity
8
1
62
256
6
ByLayer
370
-1
48
1
60
0
100
AcDbEllipse
10
11.578348
20
7.022694
30
0
11
-0.162543294864815
21
-1.64197432297052
31
0
210
0
220
0
230
1
40
0.984662
41
1.4082784574647
42
2.74090299469914
0
ELLIPSE
5
168
100
AcDbEntity
8
1
62
256
6
ByLayer
370
-1
48
1
60
0
100
AcDbEllipse
10
11.838181
20
5.771159
30
0
11
-0.208520514880199
21
-2.1064254390231
31
0
210
0
220
0
230
1
40
0.984662
41
1.88241829184342
42
2.54289838283166
0
ELLIPSE
5
169
100
AcDbEntity
8
1
62
256
6
ByLayer
370
-1
48
1
60
0
100
AcDbEllipse
10
18.031332
20
6.383896
30
0
11
-4.60966553494752
21
1.73358190521211
31
0
210
0
220
0
230
1
40
0.221124
41
0.361365533164737
42
0.773224132303711
0
ELLIPSE
5
16A
100
AcDbEntity
8
1
62
256
6
ByLayer
370
-1
48
1
60
0
100
AcDbEllipse
10
7.330246
20
-4.142249
30
0
11
-1.08030563158614
21
-2.62885183917596
31
0
210
0
220
0
230
1
40
0.404754
41
-2.16448789924073
42
-1.88187489705197
0
ELLIPSE
5
16B
100
AcDbEntity
8
1
62
256
6
ByLayer
370
-1
48
1
60
0
100
AcDbEllipse
10
13.139446
20
-1.289185
30
0
11
-0.268442714246435
21
-2.71174547278463
31
0
210
0
220
0
230
1
40
0.984662
41
-3.14153303983028
42
-2.48260597102616E-16
0
ELLIPSE
5
16C
100
AcDbEntity
8
1
62
256
6
ByLayer
370
-1
48
1
60
0
100
AcDbEllipse
10
13.354498
20
-1.310474
30
0
11
-0.268442714246434
21
-2.71174547278462
31
0
210
0
220
0
230
1
40
0.984662
41
0
42
6.28318530717959
0
ELLIPSE
5
16D
100
AcDbEntity
8
1
62
256
6
ByLayer
370
-1
48
1
60
0
100
AcDbEllipse
10
13.365156
20
-1.311529
30
0
11
-0.177319958034341
21
-1.79124471596782
31
0
210
0
220
0
230
1
40
0.984662
41
0
42
6.28318530717959
0
ELLIPSE
5
16E
100
AcDbEntity
8
1
62
256
6
ByLayer
370
-1
48
1
60
0
100
AcDbEllipse
10
13.818249
20
-2.568844
30
0
11
-0.335790509926896
21
-0.198599298572216
31
0
210
0
220
0
230
1
40
0.492091
41
-2.55058598128497
42
-1.58029449206652
0
ELLIPSE
5
16F
100
AcDbEntity
8
1
62
256
6
ByLayer
370
-1
48
1
60
0
100
AcDbEllipse
10
13.0917
20
-1.284459
30
0
11
-0.127108856584286
21
-1.28402392056294
31
0
210
0
220
0
230
1
40
0.984662
41
0.620766087096136
42
1.66796363829273
0
ELLIPSE
5
170
100
AcDbEntity
8
1
62
256
6
ByLayer
370
-1
48
1
60
0
100
AcDbEllipse
10
14.552465
20
-1.284459
30
0
11
-0.00153284668127141
21
-0.394041092524309
31
0
210
0
220
0
230
1
40
0.482349
41
-1.5689199582634
42
-0.158646496808756
0
ELLIPSE
5
171
100
AcDbEntity
8
1
62
256
6
ByLayer
370
-1
48
1
60
0
100
AcDbEllipse
10
13.365156
20
-1.311529
30
0
11
0.165143987582652
21
1.66824591213807
31
0
210
0
220
0
230
1
40
0.984662
41
0.0971673114978068
42
1.14436486269443
0
ELLIPSE
5
172
100
AcDbEntity
8
1
62
256
6
ByLayer
370
-1
48
1
60
0
100
AcDbEllipse
10
13.365156
20
-1.311529
30
0
11
0.165143987582652
21
1.66824591213807
31
0
210
0
220
0
230
1
40
0.984662
41
1.14436486269443
42
2.19156241389102
0
ELLIPSE
5
173
100
AcDbEntity
8
1
62
256
6
ByLayer
370
-1
48
1
60
0
100
AcDbEllipse
10
13.365156
20
-1.311529
30
0
11
0.165143987582652
21
1.66824591213807
31
0
210
0
220
0
230
1
40
0.984662
41
2.19156241389102
42
-3.04442534209199
0
ELLIPSE
5
174
100
AcDbEntity
8
1
62
256
6
ByLayer
370
-1
48
1
60
0
100
AcDbEllipse
10
13.365156
20
-1.311529
30
0
11
0.165143987582652
21
1.66824591213807
31
0
210
0
220
0
230
1
40
0.984662
41
-3.04442534209199
42
-1.99722779089537
0
ELLIPSE
5
175
100
AcDbEntity
8
1
62
256
6
ByLayer
370
-1
48
1
60
0
100
AcDbEllipse
10
13.365156
20
-1.311529
30
0
11
0.165143987582652
21
1.66824591213807
31
0
210
0
220
0
230
1
40
0.984662
41
-1.99722779089537
42
-0.950030239698779
0
ELLIPSE
5
176
100
AcDbEntity
8
1
62
256
6
ByLayer
370
-1
48
1
60
0
100
AcDbEllipse
10
13.365156
20
-1.311529
30
0
11
0.165143987582652
21
1.66824591213807
31
0
210
0
220
0
230
1
40
0.984662
41
-0.950030239698779
42
0.0971673114978066
0
ELLIPSE
5
177
100
AcDbEntity
8
1
62
256
6
ByLayer
370
-1
48
1
60
0
100
AcDbEllipse
10
13.0917
20
-1.284459
30
0
11
0.127108856584287
21
1.28402392056297
31
0
210
0
220
0
230
1
40
0.984662
41
0.767324670277957
42
1.3661092830886
0
ELLIPSE
5
178
100
AcDbEntity
8
1
62
256
6
ByLayer
370
-1
48
1
60
0
100
AcDbEllipse
10
13.0917
20
-1.284459
30
0
11
-0.127108856584286
21
-1.28402392056294
31
0
210
0
220
0
230
1
40
0.984662
41
-1.13783855735627
42
-0.533818023580832
0
ELLIPSE
5
179
100
AcDbEntity
8
1
62
256
6
ByLayer
370
-1
48
1
60
0
100
AcDbEllipse
10
12.357483
20
-2.568844
30
0
11
-0.334789202943452
21
0.198289421907834
31
0
210
0
220
0
230
1
40
0.494673
41
-0.815285064496646
42
-0.152897912345376
0
ELLIPSE
5
17A
100
AcDbEntity
8
1
62
256
6
ByLayer
370
-1
48
1
60
0
100
AcDbEllipse
10
14.354632
20
-2.026049
30
0
11
-0.193857669878141
21
-0.341952608842205
31
0
210
0
220
0
230
1
40
0.484716
41
0.897947826113423
42
-3.09182378148324
0
ELLIPSE
5
17B
100
AcDbEntity
8
1
62
256
6
ByLayer
370
-1
48
1
60
0
100
AcDbEllipse
10
14.359059
20
-0.542868
30
0
11
-0.191488483430387
21
0.342136907191937
31
0
210
0
220
0
230
1
40
0.487198
41
3.09379216279888
42
-0.918975649491788
0
ELLIPSE
5
17C
100
AcDbEntity
8
1
62
256
6
ByLayer
370
-1
48
1
60
0
100
AcDbEllipse
10
14.552465
20
-1.284459
30
0
11
-0.00153284667894173
21
-0.394041092524982
31
0
210
0
220
0
230
1
40
0.482349
41
-2.97919341973033
42
-1.56891995827732
0
ELLIPSE
5
17D
100
AcDbEntity
8
1
62
256
6
ByLayer
370
-1
48
1
60
0
100
AcDbEllipse
10
13.0917
20
-1.284459
30
0
11
-0.127108856584286
21
-1.28402392056294
31
0
210
0
220
0
230
1
40
0.984662
41
1.6679636382928
42
2.7151611894894
0
ELLIPSE
5
17E
100
AcDbEntity
8
1
62
256
6
ByLayer
370
-1
48
1
60
0
100
AcDbEllipse
10
13.825917
20
-7.3E-05
30
0
11
-0.33478920294286
21
0.198289421906904
31
0
210
0
220
0
230
1
40
0.494673
41
1.57842127978192
42
2.32630559314447
0
ELLIPSE
5
17F
100
AcDbEntity
8
1
62
256
6
ByLayer
370
-1
48
1
60
0
100
AcDbEllipse
10
13.087273
20
-2.76764
30
0
11
-0.388113116813991
21
-0.000380450307987068
31
0
210
0
220
0
230
1
40
0.497203
41
1.68583207080397
42
-3.0864190814959
0
ELLIPSE
5
180
100
AcDbEntity
8
1
62
256
6
ByLayer
370
-1
48
1
60
0
100
AcDbEllipse
10
13.096127
20
0.198722
30
0
11
-0.388113116813991
21
-0.000380450307985861
31
0
210
0
220
0
230
1
40
0.497203
41
3.08247600625896
42
-2.04288598964794
0
ELLIPSE
5
181
100
AcDbEntity
8
1
62
256
6
ByLayer
370
-1
48
1
60
0
100
AcDbEllipse
10
13.825917
20
-7.3E-05
30
0
11
-0.334789202941959
21
0.198289421907604
31
0
210
0
220
0
230
1
40
0.494673
41
0.168147818325547
42
1.57842127978828
0
ELLIPSE
5
182
100
AcDbEntity
8
1
62
256
6
ByLayer
370
-1
48
1
60
0
100
AcDbEllipse
10
13.0917
20
-1.284459
30
0
11
-0.127108856584286
21
-1.28402392056294
31
0
210
0
220
0
230
1
40
0.984662
41
2.71516118948941
42
-2.89058537899343
0
ELLIPSE
5
183
100
AcDbEntity
8
1
62
256
6
ByLayer
370
-1
48
1
60
0
100
AcDbEllipse
10
13.0917
20
-1.284459
30
0
11
-0.127108856584286
21
-1.28402392056294
31
0
210
0
220
0
230
1
40
0.984662
41
-0.107609258492602
42
0.620766087096145
0
ELLIPSE
5
184
100
AcDbEntity
8
1
62
256
6
ByLayer
370
-1
48
1
60
0
100
AcDbEllipse
10
13.818249
20
-2.568844
30
0
11
-0.335790509928324
21
-0.198599298572686
31
0
210
0
220
0
230
1
40
0.492091
41
-1.58029449206473
42
-0.170021030607882
0
ELLIPSE
5
185
100
AcDbEntity
8
1
62
256
6
ByLayer
370
-1
48
1
60
0
100
AcDbEllipse
10
17.320623
20
2.856175
30
0
11
1.53075794227797E-17
21
0.25
31
0
210
0
220
0
230
1
40
0.173648
41
2.03075104594607
42
2.61418654517758
0
ELLIPSE
5
186
100
AcDbEntity
8
1
62
256
6
ByLayer
370
-1
48
1
60
0
100
AcDbEllipse
10
17.141461
20
1.084738
30
0
11
1.10214571844014E-16
21
1.8
31
0
210
0
220
0
230
1
40
0.173648
41
-0.754298911171547
42
-0.527406108412293
0
ELLIPSE
5
187
100
AcDbEntity
8
1
62
256
6
ByLayer
370
-1
48
1
60
0
100
AcDbEllipse
10
17.325772
20
2.214304
30
0
11
1.53075794227797E-17
21
0.25
31
0
210
0
220
0
230
1
40
0.173648
41
-1.58333030586886
42
-0.75429891117154
0
ELLIPSE
5
188
100
AcDbEntity
8
1
62
256
6
ByLayer
370
-1
48
1
60
0
100
AcDbEllipse
10
17.317183
20
1.275925
30
0
11
1.53075794227797E-17
21
0.25
31
0
210
0
220
0
230
1
40
0.173648
41
0.502338150264091
42
1.09015436395411
0
ELLIPSE
5
189
100
AcDbEntity
8
1
62
256
6
ByLayer
370
-1
48
1
60
0
100
AcDbEllipse
10
17.145788
20
3.072666
30
0
11
1.10214571844014E-16
21
1.8
31
0
210
0
220
0
230
1
40
0.173648
41
-2.63925450332543
42
-2.41236170056615
0
ELLIPSE
5
18A
100
AcDbEntity
8
1
62
256
6
ByLayer
370
-1
48
1
60
0
100
AcDbEllipse
10
17.325125
20
1.916851
30
0
11
1.53075794227797E-17
21
0.25
31
0
210
0
220
0
230
1
40
0.173648
41
-2.41236170056626
42
-1.58333030586885
0
ELLIPSE
5
18B
100
AcDbEntity
8
1
62
256
6
ByLayer
370
-1
48
1
60
0
100
AcDbEllipse
10
13.148165
20
-1.285469
30
0
11
-0.272104028280546
21
-2.9976362646461
31
0
210
0
220
0
230
1
40
0.984685
41
-0.379019449942479
42
-2.24751875285626E-16
0
ELLIPSE
5
18C
100
AcDbEntity
8
1
62
256
6
ByLayer
370
-1
48
1
60
0
100
AcDbEllipse
10
13.148165
20
-1.285469
30
0
11
-0.272104028280546
21
-2.9976362646461
31
0
210
0
220
0
230
1
40
0.984685
41
0
42
0.0919249144870165
0
ELLIPSE
5
18D
100
AcDbEntity
8
1
62
256
6
ByLayer
370
-1
48
1
60
0
100
AcDbEllipse
10
13.148165
20
-1.285469
30
0
11
-0.272104028280546
21
-2.9976362646461
31
0
210
0
220
0
230
1
40
0.984685
41
0.0919249049210837
42
-2.76270299697779
0
ELLIPSE
5
18E
100
AcDbEntity
8
1
62
256
6
ByLayer
370
-1
48
1
60
0
100
AcDbEllipse
10
13.1045
20
-1.281505
30
0
11
-0.264066187850112
21
-2.90908732946141
31
0
210
0
220
0
230
1
40
0.984685
41
-0.770245922570354
42
-2.31593037816484E-16
0
ELLIPSE
5
18F
100
AcDbEntity
8
1
62
256
6
ByLayer
370
-1
48
1
60
0
100
AcDbEllipse
10
13.1045
20
-1.281505
30
0
11
-0.264066187850112
21
-2.90908732946141
31
0
210
0
220
0
230
1
40
0.984685
41
0
42
0.0919247418532687
0
ELLIPSE
5
190
100
AcDbEntity
8
1
62
256
6
ByLayer
370
-1
48
1
60
0
100
AcDbEllipse
10
13.1045
20
-1.281505
30
0
11
-0.264066187850112
21
-2.90908732946141
31
0
210
0
220
0
230
1
40
0.984685
41
2.2161322122727
42
-2.37147652622668
0
ELLIPSE
5
191
100
AcDbEntity
8
1
62
256
6
ByLayer
370
-1
48
1
60
0
100
AcDbEllipse
10
13.1045
20
-1.281505
30
0
11
-0.264066187850112
21
-2.90908732946141
31
0
210
0
220
0
230
1
40
0.984685
41
0.0919249798460308
42
0.880660998939208
0
ELLIPSE
5
192
100
AcDbEntity
8
1
62
256
6
ByLayer
370
-1
48
1
60
0
100
AcDbEllipse
10
8.851041
20
-5.45768
30
0
11
-0.279747322425771
21
-0.155773091097595
31
0
210
0
220
0
230
1
40
0.099584
41
-2.07002057386501
42
-1.27347863751771
0
ELLIPSE
5
193
100
AcDbEntity
8
1
62
256
6
ByLayer
370
-1
48
1
60
0
100
AcDbEllipse
10
9.027273
20
-5.471006
30
0
11
-0.161057566781384
21
-0.0288747069233967
31
0
210
0
220
0
230
1
40
0.77681
41
-2.34494700114373
42
-2.00013871061978
0
ELLIPSE
5
194
100
AcDbEntity
8
1
62
256
6
ByLayer
370
-1
48
1
60
0
100
AcDbEllipse
10
7.613519
20
-1.767713
30
0
11
-0.0889732261527867
21
-0.152712070502385
31
0
210
0
220
0
230
1
40
0.134321
41
0.598480895818398
42
1.63346114217131
0
ELLIPSE
5
195
100
AcDbEntity
8
1
62
256
6
ByLayer
370
-1
48
1
60
0
100
AcDbEllipse
10
8.483351
20
-5.486538
30
0
11
-0.0393851345187462
21
0.124684027141698
31
0
210
0
220
0
230
1
40
0.960533
41
2.32479554078597
42
-2.91784637271477
0
ELLIPSE
5
196
100
AcDbEntity
8
1
62
256
6
ByLayer
370
-1
48
1
60
0
100
AcDbEllipse
10
7.910239
20
-5.15005
30
0
11
-0.0393851345065458
21
0.12468402714876
31
0
210
0
220
0
230
1
40
0.960533
41
1.37207586397757
42
2.32479554089194
0
ELLIPSE
5
197
100
AcDbEntity
8
1
62
256
6
ByLayer
370
-1
48
1
60
0
100
AcDbEllipse
10
7.653711
20
-5.121563
30
0
11
-0.0393851344910099
21
0.124684027156245
31
0
210
0
220
0
230
1
40
0.960533
41
-1.76951678947275
42
-0.816797112576193
0
ELLIPSE
5
198
100
AcDbEntity
8
1
62
256
6
ByLayer
370
-1
48
1
60
0
100
AcDbEllipse
10
7.604499
20
-5.092669
30
0
11
-0.0393851345183261
21
0.124684027142504
31
0
210
0
220
0
230
1
40
0.960533
41
-0.816797112796985
42
0.223746280879088
0
ELLIPSE
5
199
100
AcDbEntity
8
1
62
256
6
ByLayer
370
-1
48
1
60
0
100
AcDbEllipse
10
6.742833
20
-5.221653
30
0
11
-0.0605925146383417
21
0.191821580222657
31
0
210
0
220
0
230
1
40
0.960533
41
2.32479554082514
42
-2.91784637268303
0
ELLIPSE
5
19A
100
AcDbEntity
8
1
62
256
6
ByLayer
370
-1
48
1
60
0
100
AcDbEllipse
10
6.721661
20
-5.209222
30
0
11
-0.0605925146556842
21
0.191821580213763
31
0
210
0
220
0
230
1
40
0.960533
41
1.28425214704953
42
2.32479554073932
0
ELLIPSE
5
19B
100
AcDbEntity
8
1
62
256
6
ByLayer
370
-1
48
1
60
0
100
AcDbEllipse
10
10.424309
20
-5.863282
30
0
11
0.0180802375823473
21
0.199181085971951
31
0
210
0
220
0
230
1
40
0.984685
41
2.70713969510988
42
-3.0524468364715
0
ELLIPSE
5
19C
100
AcDbEntity
8
1
62
256
6
ByLayer
370
-1
48
1
60
0
100
AcDbEllipse
10
7.371234
20
-4.019541
30
0
11
0.118305764501743
21
-0.225396863522229
31
0
210
0
220
0
230
1
40
0.956983
41
1.61029446388621
42
2.68420852399129
0
ELLIPSE
5
19D
100
AcDbEntity
8
1
62
256
6
ByLayer
370
-1
48
1
60
0
100
AcDbEllipse
10
6.963553
20
-4.022931
30
0
11
0.118305764501743
21
-0.225396863522229
31
0
210
0
220
0
230
1
40
0.956983
41
2.68420852399133
42
2.98914578897236
0
ELLIPSE
5
19E
100
AcDbEntity
8
1
62
256
6
ByLayer
370
-1
48
1
60
0
100
AcDbEllipse
10
7.581451
20
-4.385715
30
0
11
0.118305764501743
21
-0.225396863522229
31
0
210
0
220
0
230
1
40
0.956983
41
1.30535719890513
42
1.61029446388618
0
ELLIPSE
5
19F
100
AcDbEntity
8
1
62
256
6
ByLayer
370
-1
48
1
60
0
100
AcDbEllipse
10
7.520661
20
-4.018299
30
0
11
-0.931737083198008
21
-0.00318186459781869
31
0
210
0
220
0
230
1
40
0.351013
41
-0.81289484657066
42
0.00938637575907237
0
ELLIPSE
5
1A0
100
AcDbEntity
8
1
62
256
6
ByLayer
370
-1
48
1
60
0
100
AcDbEllipse
10
7.294183
20
-3.885328
30
0
11
-0.480039673585433
21
0.836978963699873
31
0
210
0
220
0
230
1
40
0.327324
41
-3.13575152717757
42
-2.31347030483647
0
ELLIPSE
5
1A1
100
AcDbEntity
8
1
62
256
6
ByLayer
370
-1
48
1
60
0
100
AcDbEllipse
10
6.657982
20
-2.494587
30
0
11
-0.093836033289919
21
2.80143478665889
31
0
210
0
220
0
230
1
40
0.29273
41
3.13446637235069
42
-2.9811232599468
0
ELLIPSE
5
1A2
100
AcDbEntity
8
1
62
256
6
ByLayer
370
-1
48
1
60
0
100
AcDbEllipse
10
8.984308
20
-3.860434
30
0
11
-2.32235940270481
21
-1.38920876479871
31
0
210
0
220
0
230
1
40
0.314059
41
-0.173471786598914
42
-0.00587611183958402
0
ELLIPSE
5
1A3
100
AcDbEntity
8
1
62
256
6
ByLayer
370
-1
48
1
60
0
100
AcDbEllipse
10
7.524797
20
-3.26019
30
0
11
-0.283797838351282
21
-0.147847174295418
31
0
210
0
220
0
230
1
40
0.095227
41
-2.45854301848161
42
-1.42356277204926
0
ELLIPSE
5
1A4
100
AcDbEntity
8
1
62
256
6
ByLayer
370
-1
48
1
60
0
100
AcDbEllipse
10
7.524797
20
-3.26019
30
0
11
0.273970542679929
21
0.165348546239951
31
0
210
0
220
0
230
1
40
0.018074
41
0.679489225683602
42
1.86463385082619
0
ELLIPSE
5
1A5
100
AcDbEntity
8
1
62
256
6
ByLayer
370
-1
48
1
60
0
100
AcDbEllipse
10
7.524797
20
-3.26019
30
0
11
0.162018972073848
21
0.275952627615926
31
0
210
0
220
0
230
1
40
0.158144
41
1.64518250202728
42
1.8197154272267
0
ELLIPSE
5
1A6
100
AcDbEntity
8
1
62
256
6
ByLayer
370
-1
48
1
60
0
100
AcDbEllipse
10
9.899772
20
0.491197
30
0
11
-0.0109765333732289
21
-0.1495978466259
31
0
210
0
220
0
230
1
40
0.174315
41
1.56778344730409
42
2.27657293682665
0
ELLIPSE
5
1A7
100
AcDbEntity
8
1
62
256
6
ByLayer
370
-1
48
1
60
0
100
AcDbEllipse
10
13.044368
20
-4.677089
30
0
11
0.0367863585044429
21
-0.145419269108267
31
0
210
0
220
0
230
1
40
0.164735
41
1.33837117999107
42
1.51290410519053
0
ELLIPSE
5
1A8
100
AcDbEntity
8
1
62
256
6
ByLayer
370
-1
48
1
60
0
100
AcDbEllipse
10
12.443658
20
-4.829049
30
0
11
0.0367863585044429
21
-0.145419269108267
31
0
210
0
220
0
230
1
40
0.164735
41
1.33837117999094
42
1.51290410519053
0
ELLIPSE
5
1A9
100
AcDbEntity
8
1
62
256
6
ByLayer
370
-1
48
1
60
0
100
AcDbEllipse
10
12.308306
20
-5.477014
30
0
11
0.149913678706951
21
0.00508811719096757
31
0
210
0
220
0
230
1
40
0.021972
41
-1.39692958113942
42
-0.688140091616734
0
ELLIPSE
5
1AA
100
AcDbEntity
8
1
62
256
6
ByLayer
370
-1
48
1
60
0
100
AcDbEllipse
10
7.017503
20
-3.994613
30
0
11
0.0155171404431603
21
0.329634977440907
31
0
210
0
220
0
230
1
40
0.571905
41
0.900781516255327
42
1.72306273859038
0
ELLIPSE
5
1AB
100
AcDbEntity
8
1
62
256
6
ByLayer
370
-1
48
1
60
0
100
AcDbEllipse
10
7.017503
20
-3.994613
30
0
11
0.00274347164033022
21
-0.329988595808035
31
0
210
0
220
0
230
1
40
0.26032
41
-2.3187215918023
42
-1.43770026579284
0
ELLIPSE
5
1AC
100
AcDbEntity
8
1
62
256
6
ByLayer
370
-1
48
1
60
0
100
AcDbEllipse
10
7.635401
20
-4.357398
30
0
11
0.286191286725687
21
0.164300174687356
31
0
210
0
220
0
230
1
40
0.011457
41
0.983935267129249
42
1.86495659313775
0
ELLIPSE
5
1AD
100
AcDbEntity
8
1
62
256
6
ByLayer
370
-1
48
1
60
0
100
AcDbEllipse
10
7.635401
20
-4.357398
30
0
11
-0.267449075294889
21
-0.19331578343195
31
0
210
0
220
0
230
1
40
0.316515
41
1.26476442462769
42
2.08704564696272
0
ELLIPSE
5
1AE
100
AcDbEntity
8
1
62
256
6
ByLayer
370
-1
48
1
60
0
100
AcDbEllipse
10
6.96086
20
-5.085509
30
0
11
-0.753175217336418
21
-0.87614438569734
31
0
210
0
220
0
230
1
40
0.022981
41
-1.47589424495254
42
-1.30829856279436
0
ELLIPSE
5
1AF
100
AcDbEntity
8
1
62
256
6
ByLayer
370
-1
48
1
60
0
100
AcDbEllipse
10
6.96086
20
-5.085508
30
0
11
-0.289730896860353
21
-1.14560444177515
31
0
210
0
220
0
230
1
40
0.218276
41
-1.5434911834856
42
-1.37589550910276
0
ELLIPSE
5
1B0
100
AcDbEntity
8
1
62
256
6
ByLayer
370
-1
48
1
60
0
100
AcDbEllipse
10
7.425184
20
-3.991224
30
0
11
0.00274347164033022
21
-0.329988595808035
31
0
210
0
220
0
230
1
40
0.26032
41
-2.31872159180219
42
-1.43770026579287
0
ELLIPSE
5
1B1
100
AcDbEntity
8
1
62
256
6
ByLayer
370
-1
48
1
60
0
100
AcDbEllipse
10
7.425184
20
-3.991224
30
0
11
-0.286191286725687
21
-0.164300174687356
31
0
210
0
220
0
230
1
40
0.011457
41
-2.15765738646159
42
-1.27663606045146
0
ELLIPSE
5
1B2
100
AcDbEntity
8
1
62
256
6
ByLayer
370
-1
48
1
60
0
100
AcDbEllipse
10
7.017503
20
-3.994613
30
0
11
-0.32985002043205
21
-0.00994806619279515
31
0
210
0
220
0
230
1
40
0.131594
41
0.957824129353285
42
1.30688997975219
0
ELLIPSE
5
1B3
100
AcDbEntity
8
1
62
256
6
ByLayer
370
-1
48
1
60
0
100
AcDbEllipse
10
7.635401
20
-4.357398
30
0
11
-0.169262396137935
21
0.283284735299389
31
0
210
0
220
0
230
1
40
0.289738
41
1.55477985776532
42
1.90384570816417
0
ELLIPSE
5
1B4
100
AcDbEntity
8
1
62
256
6
ByLayer
370
-1
48
1
60
0
100
AcDbEllipse
10
7.039188
20
-4.713634
30
0
11
-0.32985002043205
21
-0.00994806619279515
31
0
210
0
220
0
230
1
40
0.131594
41
0.957824129353225
42
1.30688997975206
0
ELLIPSE
5
1B5
100
AcDbEntity
8
1
62
256
6
ByLayer
370
-1
48
1
60
0
100
AcDbEllipse
10
7.039188
20
-4.713634
30
0
11
-0.169262396137935
21
0.283284735299389
31
0
210
0
220
0
230
1
40
0.289738
41
1.55477985776533
42
1.90384570816422
0
ELLIPSE
5
1B6
100
AcDbEntity
8
1
62
256
6
ByLayer
370
-1
48
1
60
0
100
AcDbEllipse
10
7.039188
20
-4.713634
30
0
11
-0.295887399852021
21
0.14611860459507
31
0
210
0
220
0
230
1
40
0.410668
41
1.09576026608714
42
1.69717966239799
0
ELLIPSE
5
1B7
100
AcDbEntity
8
1
62
256
6
ByLayer
370
-1
48
1
60
0
100
AcDbEllipse
10
6.891678
20
-5.012341
30
0
11
0.295887399852021
21
-0.14611860459507
31
0
210
0
220
0
230
1
40
0.410668
41
-2.04583238750265
42
-1.44441299119177
0
ELLIPSE
5
1B8
100
AcDbEntity
8
1
62
256
6
ByLayer
370
-1
48
1
60
0
100
AcDbEllipse
10
11.958579
20
4.667915
30
0
11
-0.00204550559009275
21
-0.320084952865873
31
0
210
0
220
0
230
1
40
0.17433
41
-1.73783972717668
42
-0.941297790830771
0
ELLIPSE
5
1B9
100
AcDbEntity
8
1
62
256
6
ByLayer
370
-1
48
1
60
0
100
AcDbEllipse
10
11.77721
20
4.481261
30
0
11
-0.104613574995079
21
0.108175544516307
31
0
210
0
220
0
230
1
40
0.746721
41
3.04066759863906
42
-2.89770941759775
0
ELLIPSE
5
1BA
100
AcDbEntity
8
1
62
256
6
ByLayer
370
-1
48
1
60
0
100
AcDbEllipse
10
15.752692
20
3.931652
30
0
11
-0.0885856203373892
21
0.152801635036071
31
0
210
0
220
0
230
1
40
0.121299
41
-1.65643696714068
42
-0.621456720756489
0
ELLIPSE
5
1BB
100
AcDbEntity
8
1
62
256
6
ByLayer
370
-1
48
1
60
0
100
AcDbEllipse
10
12.038749
20
4.967961
30
0
11
-0.053542061996677
21
-0.119078904488648
31
0
210
0
220
0
230
1
40
0.958693
41
-2.20960672958849
42
-1.16906333591996
0
ELLIPSE
5
1BC
100
AcDbEntity
8
1
62
256
6
ByLayer
370
-1
48
1
60
0
100
AcDbEllipse
10
12.613702
20
5.30445
30
0
11
-0.0535420619714121
21
-0.119078904505834
31
0
210
0
220
0
230
1
40
0.958693
41
3.12085890044946
42
-2.20960672983068
0
ELLIPSE
5
1BD
100
AcDbEntity
8
1
62
256
6
ByLayer
370
-1
48
1
60
0
100
AcDbEllipse
10
12.772059
20
5.518269
30
0
11
-0.0535420619836044
21
-0.119078904497677
31
0
210
0
220
0
230
1
40
0.958693
41
-0.0207337530344342
42
0.931985923874718
0
ELLIPSE
5
1BE
100
AcDbEntity
8
1
62
256
6
ByLayer
370
-1
48
1
60
0
100
AcDbEllipse
10
12.821429
20
5.547163
30
0
11
-0.0535420619996557
21
-0.119078904486204
31
0
210
0
220
0
230
1
40
0.958693
41
0.931985924025653
42
1.97252931770284
0
ELLIPSE
5
1BF
100
AcDbEntity
8
1
62
256
6
ByLayer
370
-1
48
1
60
0
100
AcDbEllipse
10
13.171222
20
6.381646
30
0
11
-0.0823724030829611
21
-0.183198314589127
31
0
210
0
220
0
230
1
40
0.958693
41
-2.20960672952893
42
-1.16906333584114
0
ELLIPSE
5
1C0
100
AcDbEntity
8
1
62
256
6
ByLayer
370
-1
48
1
60
0
100
AcDbEllipse
10
13.192463
20
6.394077
30
0
11
-0.0823724030925131
21
-0.183198314583492
31
0
210
0
220
0
230
1
40
0.958693
41
3.03303518403763
42
-2.20960672945911
0
ELLIPSE
5
1C1
100
AcDbEntity
8
1
62
256
6
ByLayer
370
-1
48
1
60
0
100
AcDbEllipse
10
10.888234
20
3.517479
30
0
11
0.0180802375823473
21
0.199181085971951
31
0
210
0
220
0
230
1
40
0.984685
41
0.612744592716669
42
1.1363433683149
0
ELLIPSE
5
1C2
100
AcDbEntity
8
1
62
256
6
ByLayer
370
-1
48
1
60
0
100
AcDbEllipse
10
13.814304
20
5.199618
30
0
11
-0.138398498626076
21
-0.213648907270896
31
0
210
0
220
0
230
1
40
0.952315
41
0.547449270962451
42
1.62136333106755
0
ELLIPSE
5
1C3
100
AcDbEntity
8
1
62
256
6
ByLayer
370
-1
48
1
60
0
100
AcDbEllipse
10
14.026522
20
5.564609
30
0
11
-0.138398498626076
21
-0.213648907270896
31
0
210
0
220
0
230
1
40
0.952315
41
1.6213633310675
42
1.92630059604846
0
ELLIPSE
5
1C4
100
AcDbEntity
8
1
62
256
6
ByLayer
370
-1
48
1
60
0
100
AcDbEllipse
10
13.406638
20
5.201825
30
0
11
-0.138398498626076
21
-0.213648907270896
31
0
210
0
220
0
230
1
40
0.952315
41
0.242512005981404
42
0.547449270962451
0
ELLIPSE
5
1C5
100
AcDbEntity
8
1
62
256
6
ByLayer
370
-1
48
1
60
0
100
AcDbEllipse
10
13.736519
20
5.065837
30
0
11
-0.485450528823287
21
-0.83379359992566
31
0
210
0
220
0
230
1
40
0.325762
41
2.31654122000117
42
3.13882244233711
0
ELLIPSE
5
1C6
100
AcDbEntity
8
1
62
256
6
ByLayer
370
-1
48
1
60
0
100
AcDbEllipse
10
13.963725
20
5.198809
30
0
11
-0.931731499548914
21
-0.000583048786212214
31
0
210
0
220
0
230
1
40
0.349309
41
-0.0127205576562689
42
0.809560664671528
0
ELLIPSE
5
1C7
100
AcDbEntity
8
1
62
256
6
ByLayer
370
-1
48
1
60
0
100
AcDbEllipse
10
15.426521
20
5.045898
30
0
11
-2.31605436639716
21
1.37369459171562
31
0
210
0
220
0
230
1
40
0.315635
41
0.00298511002007072
42
0.170580784642405
0
ELLIPSE
5
1C8
100
AcDbEntity
8
1
62
256
6
ByLayer
370
-1
48
1
60
0
100
AcDbEllipse
10
13.092718
20
3.680051
30
0
11
-0.111418399185173
21
-2.78797895032207
31
0
210
0
220
0
230
1
40
0.293981
41
2.98390838985395
42
-3.13168124240021
0
ELLIPSE
5
1C9
100
AcDbEntity
8
1
62
256
6
ByLayer
370
-1
48
1
60
0
100
AcDbEllipse
10
14.439179
20
4.7123
30
0
11
0.0113395985135381
21
0.319799020488731
31
0
210
0
220
0
230
1
40
0.174084
41
1.56119816859219
42
2.5961784150246
0
ELLIPSE
5
1CA
100
AcDbEntity
8
1
62
256
6
ByLayer
370
-1
48
1
60
0
100
AcDbEllipse
10
14.439179
20
4.7123
30
0
11
0.0057248292856243
21
-0.319948787042005
31
0
210
0
220
0
230
1
40
0.256832
41
-1.74207351478788
42
-0.55692888964356
0
ELLIPSE
5
1CB
100
AcDbEntity
8
1
62
256
6
ByLayer
370
-1
48
1
60
0
100
AcDbEllipse
10
14.439179
20
4.7123
30
0
11
0.161632485826136
21
-0.276179180108972
31
0
210
0
220
0
230
1
40
0.142623
41
-1.84680470892621
42
-1.67227178372681
0
ELLIPSE
5
1CC
100
AcDbEntity
8
1
62
256
6
ByLayer
370
-1
48
1
60
0
100
AcDbEllipse
10
16.53087
20
0.797387
30
0
11
-0.124592254826947
21
0.0835270617053965
31
0
210
0
220
0
230
1
40
0.084588
41
-2.43318214818904
42
-1.72439265866659
0
ELLIPSE
5
1CD
100
AcDbEntity
8
1
62
256
6
ByLayer
370
-1
48
1
60
0
100
AcDbEllipse
10
10.542554
20
0.604123
30
0
11
-0.144249644291542
21
0.0411344152962392
31
0
210
0
220
0
230
1
40
0.032944
41
-1.74293776391121
42
-1.56840483871189
0
ELLIPSE
5
1CE
100
AcDbEntity
8
1
62
256
6
ByLayer
370
-1
48
1
60
0
100
AcDbEllipse
10
10.714736
20
1.207927
30
0
11
-0.144249644291542
21
0.0411344152962392
31
0
210
0
220
0
230
1
40
0.032944
41
-1.74293776391124
42
-1.56840483871189
0
ELLIPSE
5
1CF
100
AcDbEntity
8
1
62
256
6
ByLayer
370
-1
48
1
60
0
100
AcDbEllipse
10
10.230036
20
1.649362
30
0
11
-0.071029156774693
21
-0.132116838018006
31
0
210
0
220
0
230
1
40
0.160766
41
0.930395554479537
42
1.63918504400251
0
ELLIPSE
5
1D0
100
AcDbEntity
8
1
62
256
6
ByLayer
370
-1
48
1
60
0
100
AcDbEllipse
10
14.0803
20
5.529773
30
0
11
0.265139820720223
21
-0.19647105503979
31
0
210
0
220
0
230
1
40
0.340178
41
1.07395708266918
42
1.89623830500426
0
ELLIPSE
5
1D1
100
AcDbEntity
8
1
62
256
6
ByLayer
370
-1
48
1
60
0
100
AcDbEllipse
10
14.0803
20
5.529773
30
0
11
-0.285282473313292
21
0.165873175710392
31
0
210
0
220
0
230
1
40
0.015422
41
-2.14212784185034
42
-1.26110651584021
0
ELLIPSE
5
1D2
100
AcDbEntity
8
1
62
256
6
ByLayer
370
-1
48
1
60
0
100
AcDbEllipse
10
13.460415
20
5.166989
30
0
11
-0.00178662304630266
21
-0.329995163567726
31
0
210
0
220
0
230
1
40
0.260526
41
-1.73604471176733
42
-0.855023385757901
0
ELLIPSE
5
1D3
100
AcDbEntity
8
1
62
256
6
ByLayer
370
-1
48
1
60
0
100
AcDbEllipse
10
13.460415
20
5.166989
30
0
11
-0.0208215068507398
21
0.329342473502075
31
0
210
0
220
0
230
1
40
0.570502
41
1.38076587295059
42
2.20304709528556
0
ELLIPSE
5
1D4
100
AcDbEntity
8
1
62
256
6
ByLayer
370
-1
48
1
60
0
100
AcDbEllipse
10
13.409672
20
6.231289
30
0
11
-0.289490858995125
21
1.13451434028577
31
0
210
0
220
0
230
1
40
0.214503
41
1.35157267490506
42
1.51916834939851
0
ELLIPSE
5
1D5
100
AcDbEntity
8
1
62
256
6
ByLayer
370
-1
48
1
60
0
100
AcDbEllipse
10
13.409672
20
6.231289
30
0
11
-0.748651170329686
21
0.868264268961698
31
0
210
0
220
0
230
1
40
0.006448
41
1.28886019188556
42
1.45645583206657
0
ELLIPSE
5
1D6
100
AcDbEntity
8
1
62
256
6
ByLayer
370
-1
48
1
60
0
100
AcDbEllipse
10
13.868081
20
5.164782
30
0
11
-0.285282473313292
21
0.165873175710392
31
0
210
0
220
0
230
1
40
0.015422
41
-2.14212784184874
42
-1.26110651584186
0
ELLIPSE
5
1D7
100
AcDbEntity
8
1
62
256
6
ByLayer
370
-1
48
1
60
0
100
AcDbEllipse
10
13.868081
20
5.164782
30
0
11
0.00178662304630247
21
0.329995163567726
31
0
210
0
220
0
230
1
40
0.260526
41
1.4055479418225
42
2.28656926783191
0
ELLIPSE
5
1D8
100
AcDbEntity
8
1
62
256
6
ByLayer
370
-1
48
1
60
0
100
AcDbEllipse
10
14.0803
20
5.529773
30
0
11
0.168459357975663
21
0.283763008002149
31
0
210
0
220
0
230
1
40
0.304906
41
1.20981229166565
42
1.55887814206454
0
ELLIPSE
5
1D9
100
AcDbEntity
8
1
62
256
6
ByLayer
370
-1
48
1
60
0
100
AcDbEllipse
10
13.460415
20
5.166989
30
0
11
0.329788829487308
21
-0.0118037259113876
31
0
210
0
220
0
230
1
40
0.162283
41
1.83573697622907
42
2.18480282662796
0
ELLIPSE
5
1DA
100
AcDbEntity
8
1
62
256
6
ByLayer
370
-1
48
1
60
0
100
AcDbEllipse
10
13.486027
20
5.88257
30
0
11
0.168459357975663
21
0.283763008002149
31
0
210
0
220
0
230
1
40
0.304906
41
1.20981229166575
42
1.55887814206458
0
ELLIPSE
5
1DB
100
AcDbEntity
8
1
62
256
6
ByLayer
370
-1
48
1
60
0
100
AcDbEllipse
10
13.486027
20
5.88257
30
0
11
0.329788829487308
21
-0.0118037259113876
31
0
210
0
220
0
230
1
40
0.162283
41
1.83573697622911
42
2.18480282662794
0
ELLIPSE
5
1DC
100
AcDbEntity
8
1
62
256
6
ByLayer
370
-1
48
1
60
0
100
AcDbEllipse
10
13.486027
20
5.88257
30
0
11
0.295747720360011
21
0.14640111304856
31
0
210
0
220
0
230
1
40
0.435879
41
1.42922678441903
42
2.03064618072983
0
ELLIPSE
5
1DD
100
AcDbEntity
8
1
62
256
6
ByLayer
370
-1
48
1
60
0
100
AcDbEllipse
10
13.340141
20
6.177278
30
0
11
-0.295747720360011
21
-0.14640111304856
31
0
210
0
220
0
230
1
40
0.435879
41
-1.71236586917081
42
-1.11094647285999
0
ELLIPSE
5
1DE
100
AcDbEntity
8
1
62
256
6
ByLayer
370
-1
48
1
60
0
100
AcDbEllipse
10
12.328123
20
-6.060893
30
0
11
-0.150100272177171
21
0.000410293035855027
31
0
210
0
220
0
230
1
40
0.015511
41
1.74523197361295
42
2.45402146316199
0
ELLIPSE
5
1DF
100
AcDbEntity
8
1
62
256
6
ByLayer
370
-1
48
1
60
0
100
AcDbEllipse
10
6.910278
20
-2.89939
30
0
11
-0.162018972073839
21
-0.275952627615931
31
0
210
0
220
0
230
1
40
0.158144
41
-1.49641015156252
42
-1.32187722636304
0
ELLIPSE
5
1E0
100
AcDbEntity
8
1
62
256
6
ByLayer
370
-1
48
1
60
0
100
AcDbEllipse
10
7.133402
20
-2.508894
30
0
11
-0.189809549119453
21
-0.325785750391101
31
0
210
0
220
0
230
1
40
0.134321
41
-2.54311175777815
42
-1.5081315113858
0
ELLIPSE
5
1E1
100
AcDbEntity
8
1
62
256
6
ByLayer
370
-1
48
1
60
0
100
AcDbEllipse
10
8.944289
20
0.561304
30
0
11
-0.0840311248085965
21
-0.143872957452146
31
0
210
0
220
0
230
1
40
0.142448
41
1.63742825143264
42
2.34621774090223
0
ELLIPSE
5
1E2
100
AcDbEntity
8
1
62
256
6
ByLayer
370
-1
48
1
60
0
100
AcDbEllipse
10
9.632036
20
-5.642327
30
0
11
-0.242365818406074
21
0.141207362996363
31
0
210
0
220
0
230
1
40
0.0396
41
-1.65536506597386
42
-0.620384819680687
0
ELLIPSE
5
1E3
100
AcDbEntity
8
1
62
256
6
ByLayer
370
-1
48
1
60
0
100
AcDbEllipse
10
6.67459
20
-3.648494
30
0
11
-0.0605925145668972
21
0.191821580237664
31
0
210
0
220
0
230
1
40
0.960533
41
0.753999214387395
42
1.2842521475268
0
ELLIPSE
5
1E4
100
AcDbEntity
8
1
62
256
6
ByLayer
370
-1
48
1
60
0
100
AcDbEllipse
10
12.509288
20
6.456091
30
0
11
0.0180802375823473
21
0.199181085971951
31
0
210
0
220
0
230
1
40
0.984685
41
1.19043038371053E-05
42
0.612744592716689
0
ELLIPSE
5
1E5
100
AcDbEntity
8
1
62
256
6
ByLayer
370
-1
48
1
60
0
100
AcDbEllipse
10
6.059659
20
-5.159639
30
0
11
0.0180802375823473
21
0.199181085971951
31
0
210
0
220
0
230
1
40
0.984685
41
2.70713969510987
42
-3.14158796552847
0
ELLIPSE
5
1E6
100
AcDbEntity
8
1
62
256
6
ByLayer
370
-1
48
1
60
0
100
AcDbEllipse
10
9.669033
20
-5.794724
30
0
11
0.0180802375823473
21
0.199181085971951
31
0
210
0
220
0
230
1
40
0.984685
41
2.70713969510988
42
3.14158718612363
0
ELLIPSE
5
1E7
100
AcDbEntity
8
1
62
256
6
ByLayer
370
-1
48
1
60
0
100
AcDbEllipse
10
7.820484
20
-5.426368
30
0
11
-0.0117521544285258
21
-0.129467705881769
31
0
210
0
220
0
230
1
40
0.984685
41
-0.434452958479901
42
1.01564223020316E-05
0
ELLIPSE
5
1E8
100
AcDbEntity
8
1
62
256
6
ByLayer
370
-1
48
1
60
0
100
AcDbEllipse
10
19.034272
20
-3.102897
30
0
11
-0.276792282371231
21
0.160605130345551
31
0
210
0
220
0
230
1
40
0.074719
41
0.767263538816181
42
1.56380547522395
0
ELLIPSE
5
1E9
100
AcDbEntity
8
1
62
256
6
ByLayer
370
-1
48
1
60
0
100
AcDbEllipse
10
18.884718
20
-2.888874
30
0
11
-0.0456617358701571
21
-0.12416362473464
31
0
210
0
220
0
230
1
40
0.697969
41
-1.29670867670072
42
-0.951900385606919
0
ELLIPSE
5
1EA
100
AcDbEntity
8
1
62
256
6
ByLayer
370
-1
48
1
60
0
100
AcDbEllipse
10
16.524968
20
-6.060893
30
0
11
-0.1761258299742
21
0.000349642819686604
31
0
210
0
220
0
230
1
40
0.013275
41
1.71923844988905
42
2.75421869631541
0
ELLIPSE
5
1EB
100
AcDbEntity
8
1
62
256
6
ByLayer
370
-1
48
1
60
0
100
AcDbEllipse
10
19.169983
20
-3.360304
30
0
11
-0.132004968942453
21
0.000359883355299383
31
0
210
0
220
0
230
1
40
0.984689
41
3.14158196946727
42
-2.10105994403554
0
ELLIPSE
5
1EC
100
AcDbEntity
8
1
62
256
6
ByLayer
370
-1
48
1
60
0
100
AcDbEllipse
10
19.168141
20
-4.033282
30
0
11
-0.132004968948868
21
0.000359883405361189
31
0
210
0
220
0
230
1
40
0.984689
41
2.18886229293799
42
3.14158196983997
0
ELLIPSE
5
1ED
100
AcDbEntity
8
1
62
256
6
ByLayer
370
-1
48
1
60
0
100
AcDbEllipse
10
19.276142
20
-4.27648
30
0
11
-0.132004968945826
21
0.000359883358785591
31
0
210
0
220
0
230
1
40
0.984689
41
-0.952730361011423
42
-1.06840968005668E-05
0
ELLIPSE
5
1EE
100
AcDbEntity
8
1
62
256
6
ByLayer
370
-1
48
1
60
0
100
AcDbEllipse
10
19.275984
20
-4.334268
30
0
11
-0.132004968949277
21
0.000359883250529125
31
0
210
0
220
0
230
1
40
0.984689
41
-1.0684903575398E-05
42
1.04053270874395
0
ELLIPSE
5
1EF
100
AcDbEntity
8
1
62
256
6
ByLayer
370
-1
48
1
60
0
100
AcDbEllipse
10
19.838951
20
-5.044406
30
0
11
-0.2030845676027
21
0.000553666720086882
31
0
210
0
220
0
230
1
40
0.984689
41
3.14158196956203
42
-2.10105994393757
0
ELLIPSE
5
1F0
100
AcDbEntity
8
1
62
256
6
ByLayer
370
-1
48
1
60
0
100
AcDbEllipse
10
19.838883
20
-5.069268
30
0
11
-0.20308456760377
21
0.000553666619823458
31
0
210
0
220
0
230
1
40
0.984689
41
2.10103857539858
42
3.14158196907641
0
ELLIPSE
5
1F1
100
AcDbEntity
8
1
62
256
6
ByLayer
370
-1
48
1
60
0
100
AcDbEllipse
10
18.656767
20
-1.558243
30
0
11
0.0180802375823473
21
0.199181085971951
31
0
210
0
220
0
230
1
40
0.984685
41
-1.48165050967656
42
-0.95805173407828
0
ELLIPSE
5
1F2
100
AcDbEntity
8
1
62
256
6
ByLayer
370
-1
48
1
60
0
100
AcDbEllipse
10
18.44154
20
-5.053052
30
0
11
-0.254558441227157
21
3.11733884545897E-17
31
0
210
0
220
0
230
1
40
0.99988
41
-0.539694073108224
42
0.534219985806983
0
ELLIPSE
5
1F3
100
AcDbEntity
8
1
62
256
6
ByLayer
370
-1
48
1
60
0
100
AcDbEllipse
10
18.656538
20
-5.416427
30
0
11
-0.254558441227157
21
3.11733884545897E-17
31
0
210
0
220
0
230
1
40
0.99988
41
0.534219985806958
42
0.839157347883352
0
ELLIPSE
5
1F4
100
AcDbEntity
8
1
62
256
6
ByLayer
370
-1
48
1
60
0
100
AcDbEllipse
10
18.658525
20
-4.690859
30
0
11
-0.254558441227157
21
3.11733884545897E-17
31
0
210
0
220
0
230
1
40
0.99988
41
-0.844631240838778
42
-0.539694073108252
0
ELLIPSE
5
1F5
100
AcDbEntity
8
1
62
256
6
ByLayer
370
-1
48
1
60
0
100
AcDbEllipse
10
18.362227
20
-4.919823
30
0
11
-0.491325860450067
21
0.830376881111661
31
0
210
0
220
0
230
1
40
0.342013
41
2.31470180314475
42
3.13698302547805
0
ELLIPSE
5
1F6
100
AcDbEntity
8
1
62
256
6
ByLayer
370
-1
48
1
60
0
100
AcDbEllipse
10
18.361499
20
-5.185765
30
0
11
-0.495864210013537
21
-0.827675111810682
31
0
210
0
220
0
230
1
40
0.342013
41
-3.1369829037568
42
-2.31470168141505
0
ELLIPSE
5
1F7
100
AcDbEntity
8
1
62
256
6
ByLayer
370
-1
48
1
60
0
100
AcDbEllipse
10
17.453039
20
-6.416164
30
0
11
-2.45249889910155
21
-1.40681163699355
31
0
210
0
220
0
230
1
40
0.300608
41
-3.13729915437029
42
-2.96970347955554
0
ELLIPSE
5
1F8
100
AcDbEntity
8
1
62
256
6
ByLayer
370
-1
48
1
60
0
100
AcDbEllipse
10
17.460516
20
-3.684471
30
0
11
-2.44476099306665
21
1.42021441489056
31
0
210
0
220
0
230
1
40
0.300609
41
2.96970337074453
42
3.13729904540041
0
ELLIPSE
5
1F9
100
AcDbEntity
8
1
62
256
6
ByLayer
370
-1
48
1
60
0
100
AcDbEllipse
10
17.76573
20
-5.334407
30
0
11
0.272189295186316
21
-0.168264635577344
31
0
210
0
220
0
230
1
40
0.078857
41
-2.76238866899412
42
-1.72740842256115
0
ELLIPSE
5
1FA
100
AcDbEntity
8
1
62
256
6
ByLayer
370
-1
48
1
60
0
100
AcDbEllipse
10
17.76573
20
-5.334407
30
0
11
-0.278191912985563
21
0.158143161563922
31
0
210
0
220
0
230
1
40
0.013504
41
-1.56314420785058
42
-0.377999582704077
0
ELLIPSE
5
1FB
100
AcDbEntity
8
1
62
256
6
ByLayer
370
-1
48
1
60
0
100
AcDbEllipse
10
17.76573
20
-5.334407
30
0
11
-0.319998801299914
21
0.000875880481827857
31
0
210
0
220
0
230
1
40
0.015521
41
-1.57077508380579
42
-1.39624215860631
0
ELLIPSE
5
1FC
100
AcDbEntity
8
1
62
256
6
ByLayer
370
-1
48
1
60
0
100
AcDbEllipse
10
13.460536
20
-5.185537
30
0
11
0.135500750613122
21
0.0643393082281785
31
0
210
0
220
0
230
1
40
0.089727
41
-2.12893318312631
42
-1.42014369360375
0
ELLIPSE
5
1FD
100
AcDbEntity
8
1
62
256
6
ByLayer
370
-1
48
1
60
0
100
AcDbEllipse
10
16.304256
20
0.176012
30
0
11
0.108836897204721
21
0.103220781855443
31
0
210
0
220
0
230
1
40
0.131791
41
-1.45540601772888
42
-1.28087309252938
0
ELLIPSE
5
1FE
100
AcDbEntity
8
1
62
256
6
ByLayer
370
-1
48
1
60
0
100
AcDbEllipse
10
16.732784
20
-0.275832
30
0
11
0.108836897204721
21
0.103220781855443
31
0
210
0
220
0
230
1
40
0.131791
41
-1.45540601772876
42
-1.28087309252936
0
ELLIPSE
5
1FF
100
AcDbEntity
8
1
62
256
6
ByLayer
370
-1
48
1
60
0
100
AcDbEllipse
10
17.352836
20
-0.069302
30
0
11
-0.0805518628637625
21
0.126536150522993
31
0
210
0
220
0
230
1
40
0.138793
41
-1.67753375611272
42
-0.968744266589435
0
ELLIPSE
5
200
100
AcDbEntity
8
1
62
256
6
ByLayer
370
-1
48
1
60
0
100
AcDbEllipse
10
18.656025
20
-5.419646
30
0
11
-0.284491903543768
21
-0.167225467013979
31
0
210
0
220
0
230
1
40
0.329409
41
0.752335948646931
42
1.57461717098196
0
ELLIPSE
5
201
100
AcDbEntity
8
1
62
256
6
ByLayer
370
-1
48
1
60
0
100
AcDbEllipse
10
18.656025
20
-5.419646
30
0
11
0.284010899060889
21
0.168041093827152
31
0
210
0
220
0
230
1
40
0.013348
41
1.56287435652416
42
2.44389568253353
0
ELLIPSE
5
202
100
AcDbEntity
8
1
62
256
6
ByLayer
370
-1
48
1
60
0
100
AcDbEllipse
10
18.658011
20
-4.694077
30
0
11
-0.283086776769781
21
0.169593268787697
31
0
210
0
220
0
230
1
40
0.013326
41
-1.56283785193285
42
-0.681816525925977
0
ELLIPSE
5
203
100
AcDbEntity
8
1
62
256
6
ByLayer
370
-1
48
1
60
0
100
AcDbEllipse
10
18.658011
20
-4.694077
30
0
11
0.28259193885026
21
-0.170416537040426
31
0
210
0
220
0
230
1
40
0.354474
41
1.58387539583755
42
2.40615661817253
0
ELLIPSE
5
204
100
AcDbEntity
8
1
62
256
6
ByLayer
370
-1
48
1
60
0
100
AcDbEllipse
10
19.82276
20
-5.070159
30
0
11
-1.20713080184668
21
0.289513309189641
31
0
210
0
220
0
230
1
40
0.065395
41
-1.62220687010919
42
-1.45461119815276
0
ELLIPSE
5
205
100
AcDbEntity
8
1
62
256
6
ByLayer
370
-1
48
1
60
0
100
AcDbEllipse
10
19.82276
20
-5.070159
30
0
11
-1.2087591538789
21
-0.275308274801589
31
0
210
0
220
0
230
1
40
0.044146
41
1.4599232556748
42
1.62751893086541
0
ELLIPSE
5
206
100
AcDbEntity
8
1
62
256
6
ByLayer
370
-1
48
1
60
0
100
AcDbEllipse
10
18.441026
20
-5.05627
30
0
11
0.284010899060889
21
0.168041093827152
31
0
210
0
220
0
230
1
40
0.013348
41
1.56287435652422
42
2.44389568253221
0
ELLIPSE
5
207
100
AcDbEntity
8
1
62
256
6
ByLayer
370
-1
48
1
60
0
100
AcDbEllipse
10
18.441026
20
-5.05627
30
0
11
0.283086776769781
21
-0.169593268787697
31
0
210
0
220
0
230
1
40
0.013326
41
1.57875480165689
42
2.45977612766748
0
ELLIPSE
5
208
100
AcDbEntity
8
1
62
256
6
ByLayer
370
-1
48
1
60
0
100
AcDbEllipse
10
18.656025
20
-5.419646
30
0
11
0.164202282649771
21
-0.286247463521696
31
0
210
0
220
0
230
1
40
0.007742
41
1.23518361223708
42
1.58424946263747
0
ELLIPSE
5
209
100
AcDbEntity
8
1
62
256
6
ByLayer
370
-1
48
1
60
0
100
AcDbEllipse
10
18.658011
20
-4.694077
30
0
11
-0.165766666325404
21
-0.285344374984618
31
0
210
0
220
0
230
1
40
0.007779
41
-1.9332940738878
42
-1.58422822348674
0
ELLIPSE
5
20A
100
AcDbEntity
8
1
62
256
6
ByLayer
370
-1
48
1
60
0
100
AcDbEllipse
10
19.285454
20
-5.058581
30
0
11
0.164202282649771
21
-0.286247463521696
31
0
210
0
220
0
230
1
40
0.007742
41
1.2351836122389
42
1.58424946263739
0
ELLIPSE
5
20B
100
AcDbEntity
8
1
62
256
6
ByLayer
370
-1
48
1
60
0
100
AcDbEllipse
10
19.285454
20
-5.058581
30
0
11
-0.165766666325404
21
-0.285344374984618
31
0
210
0
220
0
230
1
40
0.007779
41
-1.9332940738875
42
-1.58422822348671
0
ELLIPSE
5
20C
100
AcDbEntity
8
1
62
256
6
ByLayer
370
-1
48
1
60
0
100
AcDbEllipse
10
19.285454
20
-5.058581
30
0
11
-0.00183525231900525
21
-0.329994896701336
31
0
210
0
220
0
230
1
40
0.179002
41
1.28586323075641
42
1.8872826270671
0
ELLIPSE
5
20D
100
AcDbEntity
8
1
62
256
6
ByLayer
370
-1
48
1
60
0
100
AcDbEllipse
10
19.644923
20
-5.06058
30
0
11
0.00183525231900521
21
0.329994896701336
31
0
210
0
220
0
230
1
40
0.179002
41
-1.85572942283347
42
-1.25431002652255
0
ELLIPSE
5
20E
100
AcDbEntity
8
1
62
256
6
ByLayer
370
-1
48
1
60
0
100
AcDbEllipse
10
9.722042
20
1.922472
30
0
11
-0.0759965876310901
21
-0.129443221066538
31
0
210
0
220
0
230
1
40
0.158036
41
0.936339048809067
42
1.64512853791676
0
ELLIPSE
5
20F
100
AcDbEntity
8
1
62
256
6
ByLayer
370
-1
48
1
60
0
100
AcDbEllipse
10
15.055673
20
5.0731
30
0
11
-0.16163248582614
21
0.276179180108969
31
0
210
0
220
0
230
1
40
0.142623
41
1.29478794466348
42
1.46932086986301
0
ELLIPSE
5
210
100
AcDbEntity
8
1
62
256
6
ByLayer
370
-1
48
1
60
0
100
AcDbEllipse
10
15.276659
20
4.682604
30
0
11
-0.188982656718185
21
0.325976821407269
31
0
210
0
220
0
230
1
40
0.121299
41
1.48515568644454
42
2.52013593283936
0
ELLIPSE
5
211
100
AcDbEntity
8
1
62
256
6
ByLayer
370
-1
48
1
60
0
100
AcDbEllipse
10
17.070712
20
1.602635
30
0
11
-0.0837187675978753
21
0.143968152946332
31
0
210
0
220
0
230
1
40
0.128583
41
-2.37059526813696
42
-1.66180577889333
0
ELLIPSE
5
212
100
AcDbEntity
8
1
62
256
6
ByLayer
370
-1
48
1
60
0
100
AcDbEllipse
10
11.433603
20
4.084801
30
0
11
-0.243081776425353
21
-0.140924866102345
31
0
210
0
220
0
230
1
40
0.053924
41
1.64683880892322
42
2.68181905540169
0
ELLIPSE
5
213
100
AcDbEntity
8
1
62
256
6
ByLayer
370
-1
48
1
60
0
100
AcDbEllipse
10
14.482408
20
5.628286
30
0
11
-0.0823724033171875
21
-0.183198314551554
31
0
210
0
220
0
230
1
40
0.958693
41
2.50278225205148
42
3.03303518509361
0
ELLIPSE
5
214
100
AcDbEntity
8
1
62
256
6
ByLayer
370
-1
48
1
60
0
100
AcDbEllipse
10
12.155286
20
5.607631
30
0
11
-0.0117521544285258
21
-0.129467705881768
31
0
210
0
220
0
230
1
40
0.984685
41
0.612744592716558
42
1.65328798638694
0
ELLIPSE
5
215
100
AcDbEntity
8
1
62
256
6
ByLayer
370
-1
48
1
60
0
100
AcDbEllipse
10
12.488048
20
6.44366
30
0
11
0.0180802375823473
21
0.199181085971951
31
0
210
0
220
0
230
1
40
0.984685
41
0.612744592716628
42
1.65328798638693
0
ELLIPSE
5
216
100
AcDbEntity
8
1
62
256
6
ByLayer
370
-1
48
1
60
0
100
AcDbEllipse
10
11.115304
20
4.541344
30
0
11
-0.0117521544285258
21
-0.129467705881769
31
0
210
0
220
0
230
1
40
0.984685
41
0.612744592716721
42
1.6532879863869
0
ELLIPSE
5
217
100
AcDbEntity
8
1
62
256
6
ByLayer
370
-1
48
1
60
0
100
AcDbEllipse
10
11.375882
20
5.028131
30
0
11
-0.0117521544285258
21
-0.129467705881769
31
0
210
0
220
0
230
1
40
0.984685
41
-2.5288480608732
42
-1.4883046672029
0
ELLIPSE
5
218
100
AcDbEntity
8
1
62
256
6
ByLayer
370
-1
48
1
60
0
100
AcDbEllipse
10
11.950836
20
5.36462
30
0
11
0.0117521544285258
21
0.129467705881768
31
0
210
0
220
0
230
1
40
0.984685
41
1.07325121236997E-05
42
0.612744592716602
0
ELLIPSE
5
219
100
AcDbEntity
8
1
62
256
6
ByLayer
370
-1
48
1
60
0
100
AcDbEllipse
10
6.038486
20
-5.147208
30
0
11
0.0180802375823473
21
0.199181085971951
31
0
210
0
220
0
230
1
40
0.984685
41
1.66659630143947
42
2.70713969510981
0
ELLIPSE
5
21A
100
AcDbEntity
8
1
62
256
6
ByLayer
370
-1
48
1
60
0
100
AcDbEllipse
10
6.296697
20
-6.194513
30
0
11
1.40969978363835
21
0.000781031295274221
31
0
210
0
220
0
230
1
40
0.053315
41
1.39632586168693
42
2.44352341288341
0
ELLIPSE
5
21B
100
AcDbEntity
8
1
62
256
6
ByLayer
370
-1
48
1
60
0
100
AcDbEllipse
10
6.296697
20
-6.194513
30
0
11
1.40969978363835
21
0.000781031295274221
31
0
210
0
220
0
230
1
40
0.053315
41
2.44352341288341
42
-2.79246434309959
0
ELLIPSE
5
21C
100
AcDbEntity
8
1
62
256
6
ByLayer
370
-1
48
1
60
0
100
AcDbEllipse
10
6.296697
20
-6.194513
30
0
11
1.40969978363835
21
0.000781031295274221
31
0
210
0
220
0
230
1
40
0.053315
41
-2.79246434309959
42
-1.74526679190285
0
ELLIPSE
5
21D
100
AcDbEntity
8
1
62
256
6
ByLayer
370
-1
48
1
60
0
100
AcDbEllipse
10
6.296697
20
-6.194513
30
0
11
1.40969978363835
21
0.000781031295274221
31
0
210
0
220
0
230
1
40
0.053315
41
-1.74526679190285
42
-0.698069240706383
0
ELLIPSE
5
21E
100
AcDbEntity
8
1
62
256
6
ByLayer
370
-1
48
1
60
0
100
AcDbEllipse
10
6.296697
20
-6.194513
30
0
11
1.40969978363835
21
0.000781031295274221
31
0
210
0
220
0
230
1
40
0.053315
41
-0.698069240706383
42
0.349128310490214
0
ELLIPSE
5
21F
100
AcDbEntity
8
1
62
256
6
ByLayer
370
-1
48
1
60
0
100
AcDbEllipse
10
6.296697
20
-6.194513
30
0
11
1.40969978363835
21
0.000781031295274221
31
0
210
0
220
0
230
1
40
0.053315
41
0.349128310490214
42
1.39632586168693
0
ELLIPSE
5
220
100
AcDbEntity
8
1
62
256
6
ByLayer
370
-1
48
1
60
0
100
AcDbEllipse
10
6.296086
20
-5.096077
30
0
11
-3.09999952421012
21
-0.00171752643495761
31
0
210
0
220
0
230
1
40
0.053315
41
-1.42341872732595
42
-1.30973130217745
0
ELLIPSE
5
221
100
AcDbEntity
8
1
62
256
6
ByLayer
370
-1
48
1
60
0
100
AcDbEllipse
10
6.296697
20
-6.194513
30
0
11
-1.69999973908297
21
-0.000941869335299336
31
0
210
0
220
0
230
1
40
0.053315
41
0
42
6.28318530717959
0
ELLIPSE
5
222
100
AcDbEntity
8
1
62
256
6
ByLayer
370
-1
48
1
60
0
100
AcDbEllipse
10
18.82554
20
-2.339427
30
0
11
-0.000561880951528166
21
-0.283036697882265
31
0
210
0
220
0
230
1
40
0.092036
41
0.527646107688074
42
1.56262635407545
0
ELLIPSE
5
223
100
AcDbEntity
8
1
62
256
6
ByLayer
370
-1
48
1
60
0
100
AcDbEllipse
10
17.319644
20
-6.056007
30
0
11
-0.375735103944089
21
0.000745904681986514
31
0
210
0
220
0
230
1
40
0.013275
41
-1.42235420370256
42
-0.387373957274587
0
ELLIPSE
5
224
100
AcDbEntity
8
1
62
256
6
ByLayer
370
-1
48
1
60
0
100
AcDbEllipse
10
18.472626
20
-5.853004
30
0
11
-0.203084567610796
21
0.000553666735275205
31
0
210
0
220
0
230
1
40
0.984689
41
1.57078564285176
42
2.10103857596414
0
ELLIPSE
5
225
100
AcDbEntity
8
1
62
256
6
ByLayer
370
-1
48
1
60
0
100
AcDbEllipse
10
17.763755
20
-6.056007
30
0
11
0.319998801299914
21
-0.000875880481823207
31
0
210
0
220
0
230
1
40
0.015521
41
1.570817569784
42
1.74535049498348
0
ELLIPSE
5
226
100
AcDbEntity
8
1
62
256
6
ByLayer
370
-1
48
1
60
0
100
AcDbEllipse
10
17.841013
20
0.241468
30
0
11
-0.0758145711188013
21
0.12954934085572
31
0
210
0
220
0
230
1
40
0.142526
41
-1.67219908351603
42
-0.963409593704685
0
ELLIPSE
5
227
100
AcDbEntity
8
1
62
256
6
ByLayer
370
-1
48
1
60
0
100
AcDbEllipse
10
13.323103
20
-1.301349
30
0
11
-0.278473250631769
21
-3.06780285504269
31
0
210
0
220
0
230
1
40
0.984685
41
0
42
6.28318530717959
0
ELLIPSE
5
228
100
AcDbEntity
8
1
62
256
6
ByLayer
370
-1
48
1
60
0
100
AcDbEllipse
10
13.876178
20
-6.060893
30
0
11
-0.166222918804959
21
0.000370480982184402
31
0
210
0
220
0
230
1
40
0.014047
41
1.0193675017752
42
1.72815699132539
0
POINT
5
41
100
AcDbEntity
8
80
62
256
6
ByLayer
370
-1
48
1
60
0
100
AcDbPoint
10
0
20
0
30
0
39
0
210
0
220
0
230
1
50
360
0
POINT
5
43
100
AcDbEntity
8
81
62
256
6
ByLayer
370
-1
48
1
60
0
100
AcDbPoint
10
21.36516
20
-6.0625
30
0
39
0
210
0
220
0
230
1
50
360
0
POINT
5
45
100
AcDbEntity
8
2
62
256
6
ByLayer
370
-1
48
1
60
0
100
AcDbPoint
10
21.36516
20
6.0625
30
0
39
0
210
0
220
0
230
1
50
360
0
POINT
5
47
100
AcDbEntity
8
2
62
256
6
ByLayer
370
-1
48
1
60
0
100
AcDbPoint
10
21.408961
20
6.061017
30
0
39
0
210
0
220
0
230
1
50
360
0
POINT
5
48
100
AcDbEntity
8
2
62
256
6
ByLayer
370
-1
48
1
60
0
100
AcDbPoint
10
20.041993
20
5.057392
30
0
39
0
210
0
220
0
230
1
50
360
0
SPLINE
5
229
100
AcDbEntity
8
1
62
256
6
ByLayer
370
-1
48
1
60
0
100
AcDbSpline
70
4
71
1
72
4
73
2
40
0
40
0
40
1
40
1
41
1
10
16.9722279832128
20
3.21096797215745
30
0
41
1
10
16.4638854266242
20
3.37642082895673
30
0
0
SPLINE
5
22A
100
AcDbEntity
8
1
62
256
6
ByLayer
370
-1
48
1
60
0
100
AcDbSpline
70
4
71
3
72
11
73
7
40
0
40
0
40
0
40
0
40
0.186978792986106
40
0.531587385953366
40
0.85775194578658
40
1
40
1
40
1
40
1
41
1
10
8.93215910710603
20
-5.59544202322192
30
0
41
1
10
8.87923050606184
20
-5.64279604378959
30
0
41
1
10
8.72556546062378
20
-5.77347655516385
30
0
41
1
10
8.45760934378171
20
-5.95995435688874
30
0
41
1
10
8.1888378359327
20
-6.11375087121556
30
0
41
1
10
8.0254711212408
20
-6.18392302124937
30
0
41
1
10
7.97517144938229
20
-6.2038810453638
30
0
0
SPLINE
5
22B
100
AcDbEntity
8
1
62
256
6
ByLayer
370
-1
48
1
60
0
100
AcDbSpline
70
4
71
3
72
11
73
7
40
0
40
0
40
0
40
0
40
0.035357543646494
40
0.461449792549874
40
0.875333737410081
40
1
40
1
40
1
40
1
41
1
10
4.42181612508477
20
-6.11507684924214
30
0
41
1
10
4.4102549009728
20
-6.1102693808495
30
0
41
1
10
4.26005645046314
20
-6.04626336638924
30
0
41
1
10
3.99970988008008
20
-5.87288143022431
30
0
41
1
10
3.73045200317614
20
-5.66395820794403
30
0
41
1
10
3.58866405088406
20
-5.53593280602087
30
0
41
1
10
3.55647057475423
20
-5.50562373259802
30
0
0
SPLINE
5
22C
100
AcDbEntity
8
1
62
256
6
ByLayer
370
-1
48
1
60
0
100
AcDbSpline
70
4
71
3
72
8
73
4
40
0
40
0
40
0
40
0
40
1
40
1
40
1
40
1
41
1
10
13.179333098188
20
7.39550655910685
30
0
41
1
10
13.3342038341074
20
7.31865786485056
30
0
41
1
10
13.4850549418532
20
7.2427867804773
30
0
41
1
10
13.6324330214538
20
7.16801345672698
30
0
0
SPLINE
5
22D
100
AcDbEntity
8
1
62
256
6
ByLayer
370
-1
48
1
60
0
100
AcDbSpline
70
4
71
3
72
8
73
4
40
0
40
0
40
0
40
0
40
1
40
1
40
1
40
1
41
1
10
13.7269028275912
20
-2.76197697752613
30
0
41
1
10
13.728924461381
20
-2.76871014364656
30
0
41
1
10
13.7309460991663
20
-2.77544327342477
30
0
41
1
10
13.7329677407884
20
-2.78217636829956
30
0
0
SPLINE
5
22E
100
AcDbEntity
8
1
62
256
6
ByLayer
370
-1
48
1
60
0
100
AcDbSpline
70
4
71
3
72
34
73
30
40
0
40
0
40
0
40
0
40
0.051446575520935
40
0.051446575520935
40
0.135786144735392
40
0.135786144735392
40
0.203131635218841
40
0.203131635218841
40
0.270315608875059
40
0.270315608875059
40
0.337431278535874
40
0.337431278535874
40
0.404515897625463
40
0.404515897625463
40
0.499929883690741
40
0.499929883690741
40
0.599210771748146
40
0.599210771748146
40
0.697083019894225
40
0.697083019894225
40
0.78095722692275
40
0.78095722692275
40
0.847546414393261
40
0.847546414393261
40
0.898875235580389
40
0.898875235580389
40
0.980803570703558
40
0.980803570703558
40
1
40
1
40
1
40
1
41
1
10
12.96010554258
20
-2.76197697752613
30
0
41
1
10
12.9615230288603
20
-2.74831817371268
30
0
41
1
10
12.960331554981
20
-2.73397290212341
30
0
41
1
10
12.9523649453917
20
-2.6969207698132
30
0
41
1
10
12.9425456263425
20
-2.67399557056939
30
0
41
1
10
12.9205294364205
20
-2.63497009201373
30
0
41
1
10
12.9090139250917
20
-2.61811651677888
30
0
41
1
10
12.883903863804
20
-2.58582303594955
30
0
41
1
10
12.8702266565304
20
-2.57027612086634
30
0
41
1
10
12.8413946997999
20
-2.54051067060476
30
0
41
1
10
12.8261757748855
20
-2.52622714641947
30
0
41
1
10
12.7946506630335
20
-2.49896894440363
30
0
41
1
10
12.7782893721291
20
-2.48594743920941
30
0
41
1
10
12.7377174644056
20
-2.45605123889209
30
0
41
1
10
12.7129758447626
20
-2.43976652043318
30
0
41
1
10
12.6615462544904
20
-2.40956718550518
30
0
41
1
10
12.6346550818458
20
-2.39567725599065
30
0
41
1
10
12.5808635631971
20
-2.37175627756585
30
0
41
1
10
12.5537892347169
20
-2.36158888718913
30
0
41
1
10
12.5036893816688
20
-2.34675985739267
30
0
41
1
10
12.4804857540823
20
-2.34147139313879
30
0
41
1
10
12.4394514547792
20
-2.33567174098923
30
0
41
1
10
12.4213861468047
20
-2.33438604734937
30
0
41
1
10
12.3902177626873
20
-2.33512433877649
30
0
41
1
10
12.3768464552323
20
-2.33646297303557
30
0
41
1
10
12.3437191817653
20
-2.34329048728568
30
0
41
1
10
12.3241729946572
20
-2.35091448018338
30
0
41
1
10
12.3045759058546
20
-2.36624776459235
30
0
41
1
10
12.3009958838636
20
-2.36948551951153
30
0
41
1
10
12.2976779603313
20
-2.37300105304371
30
0
0
SPLINE
5
22F
100
AcDbEntity
8
1
62
256
6
ByLayer
370
-1
48
1
60
0
100
AcDbSpline
70
4
71
3
72
8
73
4
40
0
40
0
40
0
40
0
40
1
40
1
40
1
40
1
41
1
10
12.9580093318095
20
-2.78217636829956
30
0
41
1
10
12.9587080499494
20
-2.77544327342474
30
0
41
1
10
12.9594067866181
20
-2.76871014364656
30
0
41
1
10
12.96010554258
20
-2.76197697752616
30
0
0
SPLINE
5
230
100
AcDbEntity
8
1
62
256
6
ByLayer
370
-1
48
1
60
0
100
AcDbSpline
70
4
71
3
72
22
73
18
40
0
40
0
40
0
40
0
40
0.097371265984675
40
0.097371265984675
40
0.180296832630694
40
0.180296832630694
40
0.307445080802986
40
0.307445080802986
40
0.411978418514813
40
0.411978418514813
40
0.516185210010954
40
0.516185210010954
40
0.620250145291759
40
0.620250145291759
40
0.829289859625867
40
0.829289859625867
40
1
40
1
40
1
40
1
41
1
10
13.7329677407884
20
-2.78217636829956
30
0
41
1
10
13.7359032665517
20
-2.79616315042154
30
0
41
1
10
13.7356949794114
20
-2.81089814101833
30
0
41
1
10
13.7295063492253
20
-2.83658936077626
30
0
41
1
10
13.7243678413512
20
-2.84808619536591
30
0
41
1
10
13.7075297174409
20
-2.87466057494217
30
0
41
1
10
13.693630953971
20
-2.88890605796936
30
0
41
1
10
13.6654851720202
20
-2.91120616134549
30
0
41
1
10
13.6515123651237
20
-2.92010306770402
30
0
41
1
10
13.6223957524215
20
-2.93579269904828
30
0
41
1
10
13.6071606511938
20
-2.94263985560909
30
0
41
1
10
13.5759815509633
20
-2.95464138626193
30
0
41
1
10
13.559982229893
20
-2.95981697050084
30
0
41
1
10
13.5112353693738
20
-2.9732097592624
30
0
41
1
10
13.4776385747971
20
-2.97933394305841
30
0
41
1
10
13.416118105582
20
-2.98617607011533
30
0
41
1
10
13.3881481114685
20
-2.98768110821615
30
0
41
1
10
13.360152199663
20
-2.98768110821615
30
0
0
SPLINE
5
231
100
AcDbEntity
8
1
62
256
6
ByLayer
370
-1
48
1
60
0
100
AcDbSpline
70
4
71
3
72
24
73
20
40
0
40
0
40
0
40
0
40
0.0380198325518144
40
0.0380198325518144
40
0.246834654674903
40
0.246834654674903
40
0.40472650566334
40
0.40472650566334
40
0.52615063796289
40
0.52615063796289
40
0.621531995503711
40
0.621531995503711
40
0.776890538332163
40
0.776890538332163
40
0.873684213898044
40
0.873684213898044
40
0.971746172255067
40
0.971746172255067
40
1
40
1
40
1
40
1
41
1
10
13.360152199663
20
-2.98768110821615
30
0
41
1
10
13.3539100697998
20
-2.98768110821615
30
0
41
1
10
13.3476637859868
20
-2.9876058683945
30
0
41
1
10
13.307159555252
20
-2.98662923997273
30
0
41
1
10
13.2727553405949
20
-2.98355440825179
30
0
41
1
10
13.2129688439533
20
-2.97383409140241
30
0
41
1
10
13.1873217889562
20
-2.9682205230416
30
0
41
1
10
13.1427693330311
20
-2.95533512505162
30
0
41
1
10
13.1236026039967
20
-2.94872296084574
30
0
41
1
10
13.0902909449761
20
-2.93477881269462
30
0
41
1
10
13.075895778697
20
-2.92788051145524
30
0
41
1
10
13.0396550141994
20
-2.90752510643367
30
0
41
1
10
13.0182061350394
20
-2.89237360726619
30
0
41
1
10
12.9893263718593
20
-2.86314502496256
30
0
41
1
10
12.9794993188022
20
-2.85053964858866
30
0
41
1
10
12.9649091738407
20
-2.82367013681096
30
0
41
1
10
12.9600925267706
20
-2.80898115768991
30
0
41
1
10
12.9581179336474
20
-2.79050022809594
30
0
41
1
10
12.9579349061699
20
-2.7863146900365
30
0
41
1
10
12.9580093318095
20
-2.78217636829956
30
0
0
SPLINE
5
232
100
AcDbEntity
8
1
62
256
6
ByLayer
370
-1
48
1
60
0
100
AcDbSpline
70
4
71
3
72
8
73
4
40
0
40
0
40
0
40
0
40
1
40
1
40
1
40
1
41
1
10
14.7770637455326
20
-1.69879044192027
30
0
41
1
10
14.7841046221343
20
-1.70099478997605
30
0
41
1
10
14.7911454745064
20
-1.70319912715689
30
0
41
1
10
14.7981863036076
20
-1.70540345389324
30
0
0
SPLINE
5
233
100
AcDbEntity
8
1
62
256
6
ByLayer
370
-1
48
1
60
0
100
AcDbSpline
70
4
71
3
72
34
73
30
40
0
40
0
40
0
40
0
40
0.0514465755209351
40
0.0514465755209351
40
0.135786144735391
40
0.135786144735391
40
0.203131635218849
40
0.203131635218849
40
0.270315608875071
40
0.270315608875071
40
0.337431278535892
40
0.337431278535892
40
0.404515897625477
40
0.404515897625477
40
0.499929883690742
40
0.499929883690742
40
0.599210771748128
40
0.599210771748128
40
0.697083019894217
40
0.697083019894217
40
0.780957226922744
40
0.780957226922744
40
0.847546414393259
40
0.847546414393259
40
0.898875235580366
40
0.898875235580366
40
0.980803570703569
40
0.980803570703569
40
1
40
1
40
1
40
1
41
1
10
14.3916525898111
20
-2.37300105304376
30
0
41
1
10
14.3801433244857
20
-2.36367713548785
30
0
41
1
10
14.3667380001339
20
-2.3563075886575
30
0
41
1
10
14.3297146815538
20
-2.34170328084488
30
0
41
1
10
14.3044084635098
20
-2.33709975871707
30
0
41
1
10
14.2587535091287
20
-2.33412201988898
30
0
41
1
10
14.2380610865606
20
-2.33467597299355
30
0
41
1
10
14.196947483682
20
-2.33856328307081
30
0
41
1
10
14.1763902464335
20
-2.34190882176679
30
0
41
1
10
14.1357737548586
20
-2.35080163743331
30
0
41
1
10
14.1156251771052
20
-2.35636934659354
30
0
41
1
10
14.07600561432
20
-2.36935387376386
30
0
41
1
10
14.0564660883398
20
-2.37679382555072
30
0
41
1
10
14.0101987170923
20
-2.396757180252
30
0
41
1
10
13.9837616536824
20
-2.41016335533996
30
0
41
1
10
13.9321517738697
20
-2.44036269026793
30
0
41
1
10
13.9069070068324
20
-2.45736732597183
30
0
41
1
10
13.8599361946217
20
-2.49382524559067
30
0
41
1
10
13.8380044645649
20
-2.51335933285867
30
0
41
1
10
13.8010285720711
20
-2.55195723727414
30
0
41
1
10
13.7853331953715
20
-2.57080511359914
30
0
41
1
10
13.7607634865061
20
-2.60625498888402
30
0
41
1
10
13.7510836505508
20
-2.62261752097294
30
0
41
1
10
13.737016724687
20
-2.65257042052866
30
0
41
1
10
13.7318923186895
20
-2.66601550530137
30
0
41
1
10
13.7223117612477
20
-2.70134221142257
30
0
41
1
10
13.7198487619333
20
-2.72425084698477
30
0
41
1
10
13.7241792864443
20
-2.75158549147633
30
0
41
1
10
13.7253565457869
20
-2.75682699818231
30
0
41
1
10
13.7269028275912
20
-2.7619769775261
30
0
0
SPLINE
5
234
100
AcDbEntity
8
1
62
256
6
ByLayer
370
-1
48
1
60
0
100
AcDbSpline
70
4
71
3
72
8
73
4
40
0
40
0
40
0
40
0
40
1
40
1
40
1
40
1
41
1
10
14.4086731664604
20
-2.38678977688377
30
0
41
1
10
14.402999657015
20
-2.38219355928734
30
0
41
1
10
14.3973261316833
20
-2.37759731832836
30
0
41
1
10
14.3916525898111
20
-2.37300105304376
30
0
0
SPLINE
5
235
100
AcDbEntity
8
1
62
256
6
ByLayer
370
-1
48
1
60
0
100
AcDbSpline
70
4
71
3
72
22
73
18
40
0
40
0
40
0
40
0
40
0.0973712659847001
40
0.0973712659847001
40
0.18029683263071
40
0.18029683263071
40
0.307445080803008
40
0.307445080803008
40
0.411978418514851
40
0.411978418514851
40
0.516185210011043
40
0.516185210011043
40
0.620250145291872
40
0.620250145291872
40
0.829289859626021
40
0.829289859626021
40
1
40
1
40
1
40
1
41
1
10
14.7981863036076
20
-1.70540345389327
30
0
41
1
10
14.8121637547051
20
-1.71106419014643
30
0
41
1
10
14.8251951440877
20
-1.71985199478661
30
0
41
1
10
14.8449329071682
20
-1.74017206748937
30
0
41
1
10
14.8525526994908
20
-1.75129862111396
30
0
41
1
10
14.8676337457332
20
-1.78129253939895
30
0
41
1
10
14.8732320648796
20
-1.80157204313818
30
0
41
1
10
14.8787534880082
20
-1.83886457660836
30
0
41
1
10
14.8795636338365
20
-1.85612460483188
30
0
41
1
10
14.8787288507358
20
-1.89046654797937
30
0
41
1
10
14.8770858385481
20
-1.90765889856831
30
0
41
1
10
14.8719487140941
20
-1.94171056754774
30
0
41
1
10
14.8684453465235
20
-1.95863010936281
30
0
41
1
10
14.855681370977
20
-2.00885717787938
30
0
41
1
10
14.8441529615143
20
-2.04174532681728
30
0
41
1
10
14.8192167671368
20
-2.09957619864275
30
0
41
1
10
14.8064740903959
20
-2.12498936642726
30
0
41
1
10
14.7924026572606
20
-2.14960492151104
30
0
0
SPLINE
5
236
100
AcDbEntity
8
1
62
256
6
ByLayer
370
-1
48
1
60
0
100
AcDbSpline
70
4
71
3
72
24
73
20
40
0
40
0
40
0
40
0
40
0.0380198325519469
40
0.0380198325519469
40
0.246834654675062
40
0.246834654675062
40
0.404726505663445
40
0.404726505663445
40
0.526150637962993
40
0.526150637962993
40
0.621531995503809
40
0.621531995503809
40
0.776890538332239
40
0.776890538332239
40
0.873684213898117
40
0.873684213898117
40
0.971746172255138
40
0.971746172255138
40
1
40
1
40
1
40
1
41
1
10
14.7924026572606
20
-2.14960492151104
30
0
41
1
10
14.7892652094216
20
-2.15509334755544
30
0
41
1
10
14.7860598833861
20
-2.16054438010892
30
0
41
1
10
14.7648474621884
20
-2.19562509521606
30
0
41
1
10
14.7448669654505
20
-2.22419903107996
30
0
41
1
10
14.706309296992
20
-2.27144590942808
30
0
41
1
10
14.6885035012992
20
-2.29091941720711
30
0
41
1
10
14.65481394269
20
-2.32299705877281
30
0
41
1
10
14.6393797449558
20
-2.33620005666555
30
0
41
1
10
14.6103877189097
20
-2.35775676558248
30
0
41
1
10
14.5970880103502
20
-2.36657761339049
30
0
41
1
10
14.5609544972532
20
-2.38707003043578
30
0
41
1
10
14.5368169443323
20
-2.39741993627652
30
0
41
1
10
14.4964496113873
20
-2.4062061365573
30
0
41
1
10
14.4803429135024
20
-2.40764344429289
30
0
41
1
10
14.4491470549872
20
-2.4049867242843
30
0
41
1
10
14.433651553575
20
-2.40069016476582
30
0
41
1
10
14.4161651354891
20
-2.39159279674166
30
0
41
1
10
14.4123347671654
20
-2.3892937521708
30
0
41
1
10
14.4086731664604
20
-2.38678977688377
30
0
0
SPLINE
5
237
100
AcDbEntity
8
1
62
256
6
ByLayer
370
-1
48
1
60
0
100
AcDbSpline
70
4
71
3
72
30
73
26
40
0
40
0
40
0
40
0
40
0.0515194889309757
40
0.0515194889309757
40
0.0928771460763222
40
0.0928771460763222
40
0.148185150442198
40
0.148185150442198
40
0.203338923043267
40
0.203338923043267
40
0.287955708682666
40
0.287955708682666
40
0.372427214532597
40
0.372427214532597
40
0.435367147735149
40
0.435367147735149
40
0.498971020782832
40
0.498971020782832
40
0.701334348038893
40
0.701334348038893
40
0.838887327921289
40
0.838887327921289
40
0.925006664597018
40
0.925006664597018
40
1
40
1
40
1
40
1
41
1
10
12.9687749289541
20
0.142347942650389
30
0
41
1
10
12.9701116892246
20
0.128962783754929
30
0
41
1
10
12.9688353899503
20
0.114890760528681
30
0
41
1
10
12.9632132969538
20
0.0899084075702206
30
0
41
1
10
12.9594976464148
20
0.078755716557481
30
0
41
1
10
12.948832325282
20
0.053210631818672
30
0
41
1
10
12.941169093095
20
0.0388549180422046
30
0
41
1
10
12.9238569996789
20
0.0110831601138273
30
0
41
1
10
12.9141524791906
20
-0.0024289414491534
30
0
41
1
10
12.8877770913139
20
-0.0355245606583026
30
0
41
1
10
12.8700354297599
20
-0.0546651819920498
30
0
41
1
10
12.8324707470449
20
-0.0908929035550443
30
0
41
1
10
12.8125195006895
20
-0.108100213273588
30
0
41
1
10
12.7764353916978
20
-0.136375663794979
30
0
41
1
10
12.7605647911302
20
-0.147933447927386
30
0
41
1
10
12.7280477100556
20
-0.170003950075255
30
0
41
1
10
12.7113514454315
20
-0.180533502452192
30
0
41
1
10
12.6412719369035
20
-0.221540273971669
30
0
41
1
10
12.5850014443238
20
-0.247046477347766
30
0
41
1
10
12.4917762983171
20
-0.27473199435525
30
0
41
1
10
12.4534995658519
20
-0.282028707646106
30
0
41
1
10
12.3942114085325
20
-0.283013970425202
30
0
41
1
10
12.3716620982559
20
-0.280726443808902
30
0
41
1
10
12.3334268711701
20
-0.268749313828039
30
0
41
1
10
12.3167193535216
20
-0.259765347913231
30
0
41
1
10
12.3040251667343
20
-0.246627981832034
30
0
0
SPLINE
5
238
100
AcDbEntity
8
1
62
256
6
ByLayer
370
-1
48
1
60
0
100
AcDbSpline
70
4
71
3
72
8
73
4
40
0
40
0
40
0
40
0
40
1
40
1
40
1
40
1
41
1
10
12.9667981002228
20
0.162142643344623
30
0
41
1
10
12.9674570245675
20
0.155544447385779
30
0
41
1
10
12.968115967226
20
0.148946214330834
30
0
41
1
10
12.9687749289541
20
0.14234794265036
30
0
0
SPLINE
5
239
100
AcDbEntity
8
1
62
256
6
ByLayer
370
-1
48
1
60
0
100
AcDbSpline
70
4
71
3
72
30
73
26
40
0
40
0
40
0
40
0
40
0.0511772287528774
40
0.0511772287528774
40
0.135075241067785
40
0.135075241067785
40
0.271834780652438
40
0.271834780652438
40
0.469061266910942
40
0.469061266910942
40
0.500636061959897
40
0.500636061959897
40
0.599800502489309
40
0.599800502489309
40
0.697557955314611
40
0.697557955314611
40
0.781333785463176
40
0.781333785463176
40
0.847844869822142
40
0.847844869822142
40
0.899113486931194
40
0.899113486931194
40
0.939077913069197
40
0.939077913069197
40
1
40
1
40
1
40
1
41
1
10
14.397999796214
20
-0.246627981832063
30
0
41
1
10
14.3864356840797
20
-0.255678254469956
30
0
41
1
10
14.3729871792969
20
-0.262774552937259
30
0
41
1
10
14.3358786962796
20
-0.276701122207157
30
0
41
1
10
14.3105461624655
20
-0.280913627339118
30
0
41
1
10
14.2441065415901
20
-0.28433857293976
30
0
41
1
10
14.2015824281286
20
-0.279035278504409
30
0
41
1
10
14.101604906613
20
-0.255930236824781
30
0
41
1
10
14.043642668211
20
-0.233107972403275
30
0
41
1
10
13.9820034252708
20
-0.200111482839986
30
0
41
1
10
13.9735091942254
20
-0.195346501530565
30
0
41
1
10
13.9389137671992
20
-0.175032147824595
30
0
41
1
10
13.9137703464787
20
-0.158084826547054
30
0
41
1
10
13.8670165136895
20
-0.1218526256431
30
0
41
1
10
13.8452009019046
20
-0.102486013750166
30
0
41
1
10
13.8084542150129
20
-0.0642979135659516
30
0
41
1
10
13.7928706751396
20
-0.045679414832648
30
0
41
1
10
13.7685111670466
20
-0.0107100798512931
30
0
41
1
10
13.758928303944
20
0.0054141939801582
30
0
41
1
10
13.7450388091537
20
0.0349023512683289
30
0
41
1
10
13.7399940196463
20
0.0481295298317548
30
0
41
1
10
13.733524458103
20
0.072104809082191
30
0
41
1
10
13.7315344771924
20
0.0828189969320476
30
0
41
1
10
13.7293546932789
20
0.109837124966873
30
0
41
1
10
13.7306429775897
20
0.126570316456394
30
0
41
1
10
13.7355722139653
20
0.142347942650389
30
0
0
SPLINE
5
23A
100
AcDbEntity
8
1
62
256
6
ByLayer
370
-1
48
1
60
0
100
AcDbSpline
70
4
71
3
72
8
73
4
40
0
40
0
40
0
40
0
40
1
40
1
40
1
40
1
41
1
10
13.7355722139653
20
0.142347942650389
30
0
41
1
10
13.737633641989
20
0.148946214330834
30
0
41
1
10
13.7396950737844
20
0.155544447385779
30
0
41
1
10
13.7417565092017
20
0.162142643344623
30
0
0
SPLINE
5
23B
100
AcDbEntity
8
1
62
256
6
ByLayer
370
-1
48
1
60
0
100
AcDbSpline
70
4
71
3
72
24
73
20
40
0
40
0
40
0
40
0
40
0.0974021566269799
40
0.0974021566269799
40
0.180354031075312
40
0.180354031075312
40
0.307542616517181
40
0.307542616517181
40
0.412109117009538
40
0.412109117009538
40
0.516348967690746
40
0.516348967690746
40
0.620446917153265
40
0.620446917153265
40
0.724476829459811
40
0.724476829459811
40
0.933310901385942
40
0.933310901385942
40
1
40
1
40
1
40
1
41
1
10
13.7417565092016
20
0.162142643344623
30
0
41
1
10
13.7447747183004
20
0.175855546240626
30
0
41
1
10
13.7446535871957
20
0.190318636676579
30
0
41
1
10
13.738616996954
20
0.215562209765182
30
0
41
1
10
13.7335465586698
20
0.226869319757725
30
0
41
1
10
13.7168658292419
20
0.253023553019091
30
0
41
1
10
13.7030514917337
20
0.267061550891725
30
0
41
1
10
13.6750379162901
20
0.28905185480096
30
0
41
1
10
13.6611178743724
20
0.29783170616281
30
0
41
1
10
13.6320943322147
20
0.313321571282842
30
0
41
1
10
13.6168998595423
20
0.320085357935824
30
0
41
1
10
13.5857919833043
20
0.33194452599767
30
0
41
1
10
13.5698233836392
20
0.337060897663804
30
0
41
1
10
13.537430474443
20
0.345875128438024
30
0
41
1
10
13.5209693553579
20
0.349582520102302
30
0
41
1
10
13.4710837748264
20
0.358823759331244
30
0
41
1
10
13.4370799010974
20
0.362498962521045
30
0
41
1
10
13.3920429921671
20
0.364394735313795
30
0
41
1
10
13.3811059306453
20
0.364623638604286
30
0
41
1
10
13.3701588021929
20
0.364623638604286
30
0
0
SPLINE
5
23C
100
AcDbEntity
8
1
62
256
6
ByLayer
370
-1
48
1
60
0
100
AcDbSpline
70
4
71
3
72
22
73
18
40
0
40
0
40
0
40
0
40
0.14205760873896
40
0.14205760873896
40
0.351004812992499
40
0.351004812992499
40
0.487763342941677
40
0.487763342941677
40
0.591529353509241
40
0.591529353509241
40
0.758694969226968
40
0.758694969226968
40
0.858776631808789
40
0.858776631808789
40
0.960359919517324
40
0.960359919517324
40
1
40
1
40
1
40
1
41
1
10
13.3701588021929
20
0.364623638604286
30
0
41
1
10
13.3468658053429
20
0.364623638604286
30
0
41
1
10
13.3234896356831
20
0.363590495399279
30
0
41
1
10
13.2659179351375
20
0.358410423189639
30
0
41
1
10
13.2316256960165
20
0.353030674994102
30
0
41
1
10
13.1758824508138
20
0.339688747312664
30
0
41
1
10
13.1539892135203
20
0.333229575100262
30
0
41
1
10
13.1163973917135
20
0.319407065745196
30
0
41
1
10
13.1004174184148
20
0.312612918868382
30
0
41
1
10
13.0602742443163
20
0.292437110731953
30
0
41
1
10
13.0364114149545
20
0.277294175886993
30
0
41
1
10
13.0042107685235
20
0.247945806325561
30
0
41
1
10
12.9933097067208
20
0.235532850528273
30
0
41
1
10
12.9765149933846
20
0.208755599483737
30
0
41
1
10
12.9705498124862
20
0.193937691599444
30
0
41
1
10
12.9671672982391
20
0.173618464483837
30
0
41
1
10
12.9667280577192
20
0.167830640024732
30
0
41
1
10
12.9667981002228
20
0.162142643344623
30
0
0
SPLINE
5
23D
100
AcDbEntity
8
1
62
256
6
ByLayer
370
-1
48
1
60
0
100
AcDbSpline
70
4
71
3
72
8
73
4
40
0
40
0
40
0
40
0
40
1
40
1
40
1
40
1
41
1
10
14.397999796214
20
-0.246627981832006
30
0
41
1
10
14.4037003750568
20
-0.242166610987368
30
0
41
1
10
14.409400937207
20
-0.237705266751618
30
0
41
1
10
14.4151014833248
20
-0.233243948071163
30
0
0
SPLINE
5
23E
100
AcDbEntity
8
1
62
256
6
ByLayer
370
-1
48
1
60
0
100
AcDbSpline
70
4
71
3
72
34
73
30
40
0
40
0
40
0
40
0
40
0.05144657552093
40
0.05144657552093
40
0.135786144735389
40
0.135786144735389
40
0.203131635218833
40
0.203131635218833
40
0.270315608875053
40
0.270315608875053
40
0.337431278535876
40
0.337431278535876
40
0.404515897625452
40
0.404515897625452
40
0.499929883690749
40
0.499929883690749
40
0.59921077174813
40
0.59921077174813
40
0.697083019894224
40
0.697083019894224
40
0.780957226922747
40
0.780957226922747
40
0.847546414393264
40
0.847546414393264
40
0.898875235580368
40
0.898875235580368
40
0.980803570703558
40
0.980803570703558
40
1
40
1
40
1
40
1
41
1
10
14.7793859255037
20
-0.920838592955505
30
0
41
1
10
14.7650770254392
20
-0.925036656754031
30
0
41
1
10
14.7514830294611
20
-0.931875757331483
30
0
41
1
10
14.7190031424
20
-0.953984712557713
30
0
41
1
10
14.7015412623159
20
-0.972110881175752
30
0
41
1
10
14.6747536913487
20
-1.00784691238417
30
0
41
1
10
14.6642973905552
20
-1.02512779063491
30
0
41
1
10
14.6460023146725
20
-1.06108173662145
30
0
41
1
10
14.6381023130684
20
-1.07987322076488
30
0
41
1
10
14.6245382169939
20
-1.11835532331349
30
0
41
1
10
14.618845023592
20
-1.13813097179928
30
0
41
1
10
14.6094841340528
20
-1.17824833294472
30
0
41
1
10
14.6058008202286
20
-1.19865979087115
30
0
41
1
10
14.5992010874204
20
-1.24842982992914
30
0
41
1
10
14.597238254728
20
-1.27809425395307
30
0
41
1
10
14.5970579651875
20
-1.33849292380907
30
0
41
1
10
14.5989938592553
20
-1.36941614624064
30
0
41
1
10
14.606954644508
20
-1.42990790364166
30
0
41
1
10
14.6129431414452
20
-1.45969311897321
30
0
41
1
10
14.6281369752159
20
-1.51332495530073
30
0
41
1
10
14.6368037854847
20
-1.53757598467627
30
0
41
1
10
14.6556955287629
20
-1.57906578226249
30
0
41
1
10
14.6652844153594
20
-1.59683313712
30
0
41
1
10
14.684733232422
20
-1.62628011638236
30
0
41
1
10
14.694080752643
20
-1.63849552000062
30
0
41
1
10
14.7206452312846
20
-1.6672934480163
30
0
41
1
10
14.7398064982304
20
-1.68278380512325
30
0
41
1
10
14.766400817629
20
-1.69504914935436
30
0
41
1
10
14.7716784084694
20
-1.69710440792807
30
0
41
1
10
14.7770637455326
20
-1.69879044192027
30
0
0
SPLINE
5
23F
100
AcDbEntity
8
1
62
256
6
ByLayer
370
-1
48
1
60
0
100
AcDbSpline
70
4
71
3
72
8
73
4
40
0
40
0
40
0
40
0
40
1
40
1
40
1
40
1
41
1
10
14.8005467551564
20
-0.914630271061696
30
0
41
1
10
14.7934931689325
20
-0.916699698882098
30
0
41
1
10
14.7864395593687
20
-0.918769139339673
30
0
41
1
10
14.7793859255037
20
-0.920838592955505
30
0
0
SPLINE
5
240
100
AcDbEntity
8
1
62
256
6
ByLayer
370
-1
48
1
60
0
100
AcDbSpline
70
4
71
3
72
22
73
18
40
0
40
0
40
0
40
0
40
0.0973712659846853
40
0.0973712659846853
40
0.180296832630727
40
0.180296832630727
40
0.307445080803038
40
0.307445080803038
40
0.41197841851487
40
0.41197841851487
40
0.516185210011034
40
0.516185210011034
40
0.620250145291838
40
0.620250145291838
40
0.829289859625964
40
0.829289859625964
40
1
40
1
40
1
40
1
41
1
10
14.4151014833248
20
-0.233243948071163
30
0
41
1
10
14.4275267405798
20
-0.225054841815364
30
0
41
1
10
14.4421397529973
20
-0.21924360593917
30
0
41
1
10
14.4703271572068
20
-0.214096282218662
30
0
41
1
10
14.484043734142
20
-0.213820863552144
30
0
41
1
10
14.5180850141654
20
-0.217450475418275
30
0
41
1
10
14.5386300800169
20
-0.223588238707549
30
0
41
1
10
14.5738620459507
20
-0.238735568535077
30
0
41
1
10
14.5892362297658
20
-0.247157217898348
30
0
41
1
10
14.6185270551891
20
-0.265909412813755
30
0
41
1
10
14.6325402358832
20
-0.276296291796314
30
0
41
1
10
14.6593012684474
20
-0.298417611418415
30
0
41
1
10
14.6720962977183
20
-0.310191175280494
30
0
41
1
10
14.7088379320029
20
-0.347100565596833
30
0
41
1
10
14.731231360681
20
-0.373896707643752
30
0
41
1
10
14.7681768415874
20
-0.424921209137437
30
0
41
1
10
14.7834814798554
20
-0.448836993017068
30
0
41
1
10
14.7974059585255
20
-0.473452548100823
30
0
0
SPLINE
5
241
100
AcDbEntity
8
1
62
256
6
ByLayer
370
-1
48
1
60
0
100
AcDbSpline
70
4
71
3
72
24
73
20
40
0
40
0
40
0
40
0
40
0.0380198325518683
40
0.0380198325518683
40
0.246834654674972
40
0.246834654674972
40
0.404726505663392
40
0.404726505663392
40
0.526150637962925
40
0.526150637962925
40
0.621531995503743
40
0.621531995503743
40
0.776890538332157
40
0.776890538332157
40
0.873684213898053
40
0.873684213898053
40
0.971746172255077
40
0.971746172255077
40
1
40
1
40
1
40
1
41
1
10
14.7974059585255
20
-0.473452548100823
30
0
41
1
10
14.8005106405498
20
-0.478940974145218
30
0
41
1
10
14.8035476980151
20
-0.484466860418337
30
0
41
1
10
14.8227888135947
20
-0.520519185620998
30
0
41
1
10
14.8370545054716
20
-0.552152309798231
30
0
41
1
10
14.8577601198782
20
-0.60906771070762
30
0
41
1
10
14.8652948690484
20
-0.634124444614685
30
0
41
1
10
14.8754188486074
20
-0.679014336786025
30
0
41
1
10
14.8787630929445
20
-0.698791061351585
30
0
41
1
10
14.8822245356008
20
-0.734206963935321
30
0
41
1
10
14.8828839023185
20
-0.749882943203886
30
0
41
1
10
14.8816475852354
20
-0.790597761943474
30
0
41
1
10
14.8779113976021
20
-0.815995470837919
30
0
41
1
10
14.864196829289
20
-0.853789797062831
30
0
41
1
10
14.8569122703773
20
-0.86773300212198
30
0
41
1
10
14.8380235408666
20
-0.891719792223057
30
0
41
1
10
14.8260253433799
20
-0.901981606627487
30
0
41
1
10
14.8087465011511
20
-0.911190246577377
30
0
41
1
10
14.8046920731099
20
-0.913036441449208
30
0
41
1
10
14.8005467551564
20
-0.914630271061696
30
0
0
SPLINE
5
242
100
AcDbEntity
8
1
62
256
6
ByLayer
370
-1
48
1
60
0
100
AcDbSpline
70
4
71
3
72
8
73
4
40
0
40
0
40
0
40
0
40
1
40
1
40
1
40
1
41
1
10
11.9186140110127
20
-0.920838592955505
30
0
41
1
10
11.9129358064728
20
-0.918769139339673
30
0
41
1
10
11.9072576492275
20
-0.916699698882098
30
0
41
1
10
11.9015795374036
20
-0.914630271061696
30
0
0
SPLINE
5
243
100
AcDbEntity
8
1
62
256
6
ByLayer
370
-1
48
1
60
0
100
AcDbSpline
70
4
71
3
72
8
73
4
40
0
40
0
40
0
40
0
40
1
40
1
40
1
40
1
41
1
10
12.2910926745508
20
-0.233243948071163
30
0
41
1
10
12.2954034667189
20
-0.237705266751618
30
0
41
1
10
12.2997142969237
20
-0.242166610987368
30
0
41
1
10
12.3040251667343
20
-0.246627981832006
30
0
0
SPLINE
5
244
100
AcDbEntity
8
1
62
256
6
ByLayer
370
-1
48
1
60
0
100
AcDbSpline
70
4
71
3
72
22
73
18
40
0
40
0
40
0
40
0
40
0.0973712659846885
40
0.0973712659846885
40
0.180296832630699
40
0.180296832630699
40
0.307445080802973
40
0.307445080802973
40
0.411978418514782
40
0.411978418514782
40
0.516185210010933
40
0.516185210010933
40
0.620250145291721
40
0.620250145291721
40
0.829289859625795
40
0.829289859625795
40
1
40
1
40
1
40
1
41
1
10
11.9015795374036
20
-0.914630271061696
30
0
41
1
10
11.8903687501478
20
-0.909243414034449
30
0
41
1
10
11.8800840325543
20
-0.900727509555139
30
0
41
1
10
11.8648682913598
20
-0.880855083521709
30
0
41
1
10
11.859165052514
20
-0.869918254494252
30
0
41
1
10
11.8483282260128
20
-0.840344482524102
30
0
41
1
10
11.8448258733372
20
-0.820272463939375
30
0
41
1
10
11.8424339719172
20
-0.783289729936087
30
0
41
1
10
11.8428062882695
20
-0.766146756709247
30
0
41
1
10
11.8456590630139
20
-0.732004579785951
30
0
41
1
10
11.8481442585098
20
-0.714895599106001
30
0
41
1
10
11.8547194965391
20
-0.680986292717535
30
0
41
1
10
11.8588210156522
20
-0.664125963474277
30
0
41
1
10
11.873102489822
20
-0.614049116080395
30
0
41
1
10
11.8852809864132
20
-0.581225320952655
30
0
41
1
10
11.9109395929283
20
-0.523465962577433
30
0
41
1
10
11.92383691146
20
-0.498068103184636
30
0
41
1
10
11.9379083445954
20
-0.473452548100823
30
0
0
SPLINE
5
245
100
AcDbEntity
8
1
62
256
6
ByLayer
370
-1
48
1
60
0
100
AcDbSpline
70
4
71
3
72
24
73
20
40
0
40
0
40
0
40
0
40
0.0380198325516538
40
0.0380198325516538
40
0.246834654674726
40
0.246834654674726
40
0.404726505663194
40
0.404726505663194
40
0.526150637962776
40
0.526150637962776
40
0.621531995503621
40
0.621531995503621
40
0.776890538332073
40
0.776890538332073
40
0.873684213897994
40
0.873684213897994
40
0.971746172255039
40
0.971746172255039
40
1
40
1
40
1
40
1
41
1
10
11.9379083445954
20
-0.473452548100823
30
0
41
1
10
11.9410457924343
20
-0.467964122056486
30
0
41
1
10
11.9442433178452
20
-0.462512317298973
30
0
41
1
10
11.9653543511284
20
-0.427421565539362
30
0
41
1
10
11.9850187957816
20
-0.398816342860272
30
0
41
1
10
12.022530036687
20
-0.351465875935929
30
0
41
1
10
12.0397228121114
20
-0.331931683691352
30
0
41
1
10
12.0719345352066
20
-0.299707747356962
30
0
41
1
10
12.0865921590149
20
-0.286427874398129
30
0
41
1
10
12.1138678044246
20
-0.264701256512438
30
0
41
1
10
12.1262953309804
20
-0.255794069146844
30
0
41
1
10
12.1597417071099
20
-0.235035645447027
30
0
41
1
10
12.1817842322859
20
-0.224478347378692
30
0
41
1
10
12.2176975681346
20
-0.215251234378826
30
0
41
1
10
12.2317944378519
20
-0.213614968542686
30
0
41
1
10
12.2584242644529
20
-0.215819685215138
30
0
41
1
10
12.2712810795758
20
-0.219855034337343
30
0
41
1
10
12.2852334631299
20
-0.228602559121612
30
0
41
1
10
12.2882496570634
20
-0.230821006458939
30
0
41
1
10
12.2910926745508
20
-0.233243948071163
30
0
0
SPLINE
5
246
100
AcDbEntity
8
1
62
256
6
ByLayer
370
-1
48
1
60
0
100
AcDbSpline
70
4
71
3
72
8
73
4
40
0
40
0
40
0
40
0
40
1
40
1
40
1
40
1
41
1
10
12.2976779603313
20
-2.37300105304376
30
0
41
1
10
12.2933400535502
20
-2.37759731832836
30
0
41
1
10
12.2890021865269
20
-2.38219355928734
30
0
41
1
10
12.2846643576863
20
-2.38678977688377
30
0
0
SPLINE
5
247
100
AcDbEntity
8
1
62
256
6
ByLayer
370
-1
48
1
60
0
100
AcDbSpline
70
4
71
3
72
34
73
30
40
0
40
0
40
0
40
0
40
0.0514465755209275
40
0.0514465755209275
40
0.135786144735408
40
0.135786144735408
40
0.203131635218866
40
0.203131635218866
40
0.270315608875104
40
0.270315608875104
40
0.337431278535945
40
0.337431278535945
40
0.404515897625536
40
0.404515897625536
40
0.499929883690754
40
0.499929883690754
40
0.599210771748138
40
0.599210771748138
40
0.697083019894233
40
0.697083019894233
40
0.780957226922758
40
0.780957226922758
40
0.847546414393281
40
0.847546414393281
40
0.898875235580388
40
0.898875235580388
40
0.980803570703581
40
0.980803570703581
40
1
40
1
40
1
40
1
41
1
10
11.9162918310417
20
-1.69879044192027
30
0
41
1
10
11.9278364341885
20
-1.69431873320372
30
0
41
1
10
11.9386701391552
20
-1.6872063842633
30
0
41
1
10
11.9643036700759
20
-1.66441969049433
30
0
41
1
10
11.9778155879814
20
-1.64590250488038
30
0
41
1
10
11.9983055459324
20
-1.60954305663364
30
0
41
1
10
12.0062030676174
20
-1.59200887820558
30
0
41
1
10
12.0199150749165
20
-1.55560124237888
30
0
41
1
10
12.0257751332622
20
-1.53660781896397
30
0
41
1
10
12.0357801068766
20
-1.49777338965637
30
0
41
1
10
12.0399462191525
20
-1.47784657145112
30
0
41
1
10
12.0467742314799
20
-1.43747847422429
30
0
41
1
10
12.049447387807
20
-1.4169670181885
30
0
41
1
10
12.0542385820471
20
-1.36701794720926
30
0
41
1
10
12.0556666368885
20
-1.33730058413951
30
0
41
1
10
12.055846926429
20
-1.27690191428354
30
0
41
1
10
12.054490009282
20
-1.2460360062783
30
0
41
1
10
12.0488093816587
20
-1.18576996759205
30
0
41
1
10
12.0445126817493
20
-1.15615222763409
30
0
41
1
10
12.0334585944114
20
-1.10293019553777
30
0
41
1
10
12.0271089029063
20
-1.07890854375555
30
0
41
1
10
12.0130714653092
20
-1.03789928647291
30
0
41
1
10
12.0058894078672
20
-1.02037018987286
30
0
41
1
10
11.9911353084226
20
-0.991387952878029
30
0
41
1
10
11.9839890257287
20
-0.97939045546903
30
0
41
1
10
11.9634600723198
20
-0.951189999742553
30
0
41
1
10
11.9484549636782
20
-0.936111071520486
30
0
41
1
10
11.9271940564497
20
-0.924373695586382
30
0
41
1
10
11.922957084623
20
-0.92242145058654
30
0
41
1
10
11.9186140110128
20
-0.920838592955505
30
0
0
SPLINE
5
248
100
AcDbEntity
8
1
62
256
6
ByLayer
370
-1
48
1
60
0
100
AcDbSpline
70
4
71
3
72
8
73
4
40
0
40
0
40
0
40
0
40
1
40
1
40
1
40
1
41
1
10
11.8992190858547
20
-1.70540345389324
30
0
41
1
10
11.9049099548014
20
-1.70319912715689
30
0
41
1
10
11.9106008692383
20
-1.70099478997608
30
0
41
1
10
11.9162918310417
20
-1.6987904419203
30
0
0
SPLINE
5
249
100
AcDbEntity
8
1
62
256
6
ByLayer
370
-1
48
1
60
0
100
AcDbSpline
70
4
71
3
72
22
73
18
40
0
40
0
40
0
40
0
40
0.0973712659847105
40
0.0973712659847105
40
0.180296832630698
40
0.180296832630698
40
0.307445080802949
40
0.307445080802949
40
0.411978418514746
40
0.411978418514746
40
0.516185210010882
40
0.516185210010882
40
0.620250145291669
40
0.620250145291669
40
0.8292898596257
40
0.8292898596257
40
1
40
1
40
1
40
1
41
1
10
12.2846643576863
20
-2.38678977688377
30
0
41
1
10
12.275005764273
20
-2.39525276236554
30
0
41
1
10
12.2631394236447
20
-2.40133589840258
30
0
41
1
10
12.2394740413212
20
-2.40693086879241
30
0
41
1
10
12.2276740178628
20
-2.40739601205604
30
0
41
1
10
12.1978769575807
20
-2.40418654650475
30
0
41
1
10
12.1794278581999
20
-2.39825626836998
30
0
41
1
10
12.1473254139748
20
-2.38341873800937
30
0
41
1
10
12.1331336923403
20
-2.37511414364275
30
0
41
1
10
12.1058608585606
20
-2.35656171495157
30
0
41
1
10
12.0926898611747
20
-2.34625820587797
30
0
41
1
10
12.0673669421859
20
-2.32427924884686
30
0
41
1
10
12.0551700644574
20
-2.3125648975566
30
0
41
1
10
12.0199459287963
20
-2.27580572836297
30
0
41
1
10
11.9982025872466
20
-2.24907394012618
30
0
41
1
10
11.9619795184777
20
-2.19812095208272
30
0
41
1
10
11.9468295220005
20
-2.17422047659485
30
0
41
1
10
11.9329050433304
20
-2.14960492151104
30
0
0
SPLINE
5
24A
100
AcDbEntity
8
1
62
256
6
ByLayer
370
-1
48
1
60
0
100
AcDbSpline
70
4
71
3
72
24
73
20
40
0
40
0
40
0
40
0
40
0.0380198325515418
40
0.0380198325515418
40
0.246834654674573
40
0.246834654674573
40
0.404726505663066
40
0.404726505663066
40
0.526150637962665
40
0.526150637962665
40
0.621531995503532
40
0.621531995503532
40
0.776890538332039
40
0.776890538332039
40
0.873684213897937
40
0.873684213897937
40
0.971746172254954
40
0.971746172254954
40
1
40
1
40
1
40
1
41
1
10
11.9329050433304
20
-2.14960492151104
30
0
41
1
10
11.9298003613061
20
-2.1441164954667
30
0
41
1
10
11.9267555032164
20
-2.13858983698958
30
0
41
1
10
11.9074129997221
20
-2.10252747513451
30
0
41
1
10
11.8928312557606
20
-2.07086306414209
30
0
41
1
10
11.8710792138009
20
-2.01384407465648
30
0
41
1
10
11.8629314443623
20
-1.98872665628383
30
0
41
1
10
11.8513296292894
20
-1.94369046934384
30
0
41
1
10
11.8472088110263
20
-1.92383686971215
30
0
41
1
10
11.8420309877336
20
-1.88825105815968
30
0
41
1
10
11.8404994390122
20
-1.87248873933353
30
0
41
1
10
11.8390486191278
20
-1.83150791393939
30
0
41
1
10
11.8406897790162
20
-1.80590281281732
30
0
41
1
10
11.849950350233
20
-1.76766757387338
30
0
41
1
10
11.855225080977
20
-1.75352541071362
30
0
41
1
10
11.8695477785735
20
-1.72908661727644
30
0
41
1
10
11.878907289771
20
-1.71856359247573
30
0
41
1
10
11.8926520974678
20
-1.70900510928593
30
0
41
1
10
11.8958923511189
20
-1.70707831718056
30
0
41
1
10
11.8992190858547
20
-1.70540345389324
30
0
0
SPLINE
5
24B
100
AcDbEntity
8
1
62
256
6
ByLayer
370
-1
48
1
60
0
100
AcDbSpline
70
4
71
2
72
6
73
3
40
0
40
0
40
0
40
1
40
1
40
1
41
0.973497289157289
10
16.4643773856672
20
3.37624614951445
30
0
41
1.01271682324434
10
16.385886429252
20
3.40399369396757
30
0
41
1.08358774580744
10
16.3026952634499
20
3.40399369396755
30
0
0
SPLINE
5
24C
100
AcDbEntity
8
1
62
256
6
ByLayer
370
-1
48
1
60
0
100
AcDbSpline
70
4
71
3
72
12
73
8
40
0
40
0
40
0
40
0
40
0.316693507174365
40
0.316693507174365
40
0.687480535904726
40
0.687480535904726
40
1
40
1
40
1
40
1
41
1
10
13.7115691132657
20
6.26625048310959
30
0
41
1
10
13.7989394557281
20
6.23003343829569
30
0
41
1
10
13.8818595808111
20
6.18063788471949
30
0
41
1
10
14.0411155767201
20
6.05104978301969
30
0
41
1
10
14.1162762267014
20
5.96511092996209
30
0
41
1
10
14.2235457321022
20
5.79028263433312
30
0
41
1
10
14.2617041180508
20
5.70212132594983
30
0
41
1
10
14.2868388819616
20
5.61103227016787
30
0
0
SPLINE
5
24D
100
AcDbEntity
8
1
62
256
6
ByLayer
370
-1
48
1
60
0
100
AcDbSpline
70
4
71
3
72
10
73
6
40
0
40
0
40
0
40
0
40
0.638091248905412
40
0.638091248905412
40
1
40
1
40
1
40
1
41
1
10
17.2287037102828
20
2.97176211185428
30
0
41
1
10
17.2168038134286
20
2.99981379669751
30
0
41
1
10
17.2036832507516
20
3.02460208494145
30
0
41
1
10
17.1846921522368
20
3.05637842221975
30
0
41
1
10
17.1780363144277
20
3.06662715438065
30
0
41
1
10
17.1722589419872
20
3.07528978610245
30
0
0
SPLINE
5
24E
100
AcDbEntity
8
1
62
256
6
ByLayer
370
-1
48
1
60
0
100
AcDbSpline
70
4
71
3
72
10
73
6
40
0
40
0
40
0
40
0
40
0.722254617258796
40
0.722254617258796
40
1
40
1
40
1
40
1
41
1
10
17.2287037102828
20
2.97176211185428
30
0
41
1
10
17.2535665789831
20
2.92185671839113
30
0
41
1
10
17.2702761784585
20
2.86688532716803
30
0
41
1
10
17.2802420075644
20
2.78980278221755
30
0
41
1
10
17.2816438775811
20
2.76796983049533
30
0
41
1
10
17.2816374003872
20
2.74618052546677
30
0
0
SPLINE
5
24F
100
AcDbEntity
8
1
62
256
6
ByLayer
370
-1
48
1
60
0
100
AcDbSpline
70
4
71
3
72
8
73
4
40
0
40
0
40
0
40
0
40
1
40
1
40
1
40
1
41
1
10
17.2817223441296
20
2.74519810419878
30
0
41
1
10
17.28169420399
20
2.74552522389951
30
0
41
1
10
17.2816658899938
20
2.74585269945425
30
0
41
1
10
17.2816374003871
20
2.74618052546566
30
0
0
SPLINE
5
250
100
AcDbEntity
8
1
62
256
6
ByLayer
370
-1
48
1
60
0
100
AcDbSpline
70
4
71
3
72
12
73
8
40
0
40
0
40
0
40
0
40
0.404644073901335
40
0.404644073901335
40
0.809285947755712
40
0.809285947755712
40
1
40
1
40
1
40
1
41
1
10
16.8076746647728
20
3.23963546054642
30
0
41
1
10
16.8627784222348
20
3.23963546054642
30
0
41
1
10
16.9186210589993
20
3.2299751264101
30
0
41
1
10
17.0225349171119
20
3.19293503283524
30
0
41
1
10
17.0720390744032
20
3.16504471262468
30
0
41
1
10
17.1354627794824
20
3.11343847329951
30
0
41
1
10
17.1546738724505
20
3.09505308231067
30
0
41
1
10
17.1722589419892
20
3.07528978610057
30
0
0
SPLINE
5
251
100
AcDbEntity
8
1
62
256
6
ByLayer
370
-1
48
1
60
0
100
AcDbSpline
70
4
71
1
72
5
73
3
40
0
40
0
40
0.741271820428705
40
1
40
1
41
1.08358774580744
10
10.9881408835554
20
6.4919112939777
30
0
41
1.08358774580744
10
11.3786854742901
20
6.37929815836165
30
0
41
1.08358774580744
10
11.5149983465962
20
6.33999248024087
30
0
0
SPLINE
5
252
100
AcDbEntity
8
1
62
256
6
ByLayer
370
-1
48
1
60
0
100
AcDbSpline
70
4
71
3
72
14
73
10
40
0
40
0
40
0
40
0
40
0.314392366702027
40
0.314392366702027
40
0.632200716155268
40
0.632200716155268
40
0.912513196202129
40
0.912513196202129
40
1
40
1
40
1
40
1
41
1
10
6.74597141588791
20
-5.29614667561219
30
0
41
1
10
6.73517157048911
20
-5.29624542504533
30
0
41
1
10
6.72413393498977
20
-5.29481880385916
30
0
41
1
10
6.70323140160394
20
-5.28809431423605
30
0
41
1
10
6.69311957545611
20
-5.28260941371073
30
0
41
1
10
6.67677832539266
20
-5.26925131019738
30
0
41
1
10
6.67002735097316
20
-5.2616142785713
30
0
41
1
10
6.66265550064679
20
-5.25074311429648
30
0
41
1
10
6.6609904787191
20
-5.24806510654849
30
0
41
1
10
6.65942472701005
20
-5.2453328613372
30
0
0
SPLINE
5
253
100
AcDbEntity
8
1
62
256
6
ByLayer
370
-1
48
1
60
0
100
AcDbSpline
70
4
71
3
72
22
73
18
40
0
40
0
40
0
40
0
40
0.153101873520353
40
0.153101873520353
40
0.44262128536491
40
0.44262128536491
40
0.707385074439693
40
0.707385074439693
40
0.843532608240162
40
0.843532608240162
40
0.926352665771248
40
0.926352665771248
40
0.963706736955239
40
0.963706736955239
40
0.977863955360654
40
0.977863955360654
40
1
40
1
40
1
40
1
41
1
10
13.3088503519353
20
-5.02443685712069
30
0
41
1
10
13.3002830459389
20
-5.00525250927072
30
0
41
1
10
13.2915254640174
20
-4.98615586259973
30
0
41
1
10
13.2655219745787
20
-4.93130824982367
30
0
41
1
10
13.2476938081258
20
-4.89580796872778
30
0
41
1
10
13.2107272778688
20
-4.8295542199474
30
0
41
1
10
13.1919183105872
20
-4.79841566620786
30
0
41
1
10
13.1590038352191
20
-4.7547184141111
30
0
41
1
10
13.1469958344533
20
-4.74033575041753
30
0
41
1
10
13.124930480745
20
-4.72035623643836
30
0
41
1
10
13.1158041163918
20
-4.71336196823125
30
0
41
1
10
13.101002151126
20
-4.70651463603471
30
0
41
1
10
13.0960841223494
20
-4.70485264606077
30
0
41
1
10
13.089119437287
20
-4.70378732381457
30
0
41
1
10
13.0871666059088
20
-4.70362194894906
30
0
41
1
10
13.0821786599913
20
-4.70358627361242
30
0
41
1
10
13.0791088519648
20
-4.70393960764289
30
0
41
1
10
13.0761529219659
20
-4.70468736205891
30
0
0
SPLINE
5
254
100
AcDbEntity
8
1
62
256
6
ByLayer
370
-1
48
1
60
0
100
AcDbSpline
70
4
71
3
72
22
73
18
40
0
40
0
40
0
40
0
40
0.0236324717630002
40
0.0236324717630002
40
0.0629814022064358
40
0.0629814022064358
40
0.0762359204463779
40
0.0762359204463779
40
0.134099172814628
40
0.134099172814628
40
0.288877504287533
40
0.288877504287533
40
0.44293309437762
40
0.44293309437762
40
0.668543354429527
40
0.668543354429527
40
1
40
1
40
1
40
1
41
1
10
12.4754431706667
20
-4.85664744550652
30
0
41
1
10
12.4706224826283
20
-4.85786692322432
30
0
41
1
10
12.4659913487088
20
-4.86020468801721
30
0
41
1
10
12.4553275855027
20
-4.86815666426867
30
0
41
1
10
12.4499816494058
20
-4.87496229041557
30
0
41
1
10
12.4441710662161
20
-4.88451425314443
30
0
41
1
10
12.4427941642068
20
-4.88701065609908
30
0
41
1
10
12.4358974946638
20
-4.90056359986579
30
0
41
1
10
12.4317935221866
20
-4.91235983724832
30
0
41
1
10
12.4194014961232
20
-4.95596337808675
30
0
41
1
10
12.415125590715
20
-4.9889576176781
30
0
41
1
10
12.4092081680975
20
-5.05445336894297
30
0
41
1
10
12.4078719794922
20
-5.08729386166493
30
0
41
1
10
12.4066148068658
20
-5.16814080419974
30
0
41
1
10
12.4076847657108
20
-5.21619494300447
30
0
41
1
10
12.4127177794879
20
-5.33462874305479
30
0
41
1
10
12.4178506536566
20
-5.40498186395362
30
0
41
1
10
12.42417472023
20
-5.47517583130994
30
0
0
SPLINE
5
255
100
AcDbEntity
8
1
62
256
6
ByLayer
370
-1
48
1
60
0
100
AcDbSpline
70
4
71
3
72
8
73
4
40
0
40
0
40
0
40
0
40
1
40
1
40
1
40
1
41
1
10
9.92673910175097
20
0.586773211187165
30
0
41
1
10
10.0003145406872
20
0.576369155513532
30
0
41
1
10
10.0741146444079
20
0.567300024848237
30
0
41
1
10
10.1481241632004
20
0.560748326249723
30
0
0
SPLINE
5
256
100
AcDbEntity
8
1
62
256
6
ByLayer
370
-1
48
1
60
0
100
AcDbSpline
70
4
71
3
72
8
73
4
40
0
40
0
40
0
40
0
40
1
40
1
40
1
40
1
41
1
10
10.2812809144904
20
0.48458446375696
30
0
41
1
10
10.1630867359294
20
0.475600373920002
30
0
41
1
10
10.0439844670034
20
0.480162035506197
30
0
41
1
10
9.9258158857981
20
0.488832490359158
30
0
0
SPLINE
5
257
100
AcDbEntity
8
1
62
256
6
ByLayer
370
-1
48
1
60
0
100
AcDbSpline
70
4
71
3
72
20
73
16
40
0
40
0
40
0
40
0
40
0.314859192648759
40
0.314859192648759
40
0.53155888044106
40
0.53155888044106
40
0.682135903694816
40
0.682135903694816
40
0.839619845966503
40
0.839619845966503
40
0.903112673776006
40
0.903112673776006
40
0.967902128209801
40
0.967902128209801
40
1
40
1
40
1
40
1
41
1
10
12.3343500985387
20
-5.47937813063228
30
0
41
1
10
12.3318921234972
20
-5.40695761302146
30
0
41
1
10
12.3312295912187
20
-5.33440447251954
30
0
41
1
10
12.3353639640325
20
-5.21211683988258
30
0
41
1
10
12.3385044790866
20
-5.16224539615052
30
0
41
1
10
12.3481984832362
20
-5.07825889608861
30
0
41
1
10
12.3534088192521
20
-5.04389944056155
30
0
41
1
10
12.3685550676937
20
-4.97476266087244
30
0
41
1
10
12.3785235013441
20
-4.93949302734202
30
0
41
1
10
12.4004558027861
20
-4.89381055237624
30
0
41
1
10
12.4078146432499
20
-4.8810107902375
30
0
41
1
10
12.4256895065455
20
-4.857781534293
30
0
41
1
10
12.4366088889389
20
-4.8470868423054
30
0
41
1
10
12.4556739509285
20
-4.83608199941315
30
0
41
1
10
12.4625888425142
20
-4.8332124728158
30
0
41
1
10
12.4697023437759
20
-4.83141298771818
30
0
0
SPLINE
5
258
100
AcDbEntity
8
1
62
256
6
ByLayer
370
-1
48
1
60
0
100
AcDbSpline
70
4
71
3
72
18
73
14
40
0
40
0
40
0
40
0
40
0.0414544517087557
40
0.0414544517087557
40
0.132910922468098
40
0.132910922468098
40
0.263177731540052
40
0.263177731540052
40
0.458562667326532
40
0.458562667326532
40
0.817425847463283
40
0.817425847463283
40
1
40
1
40
1
40
1
41
1
10
13.0704120950792
20
-4.67945290427926
30
0
41
1
10
13.0748039829659
20
-4.67834189909198
30
0
41
1
10
13.0793070951837
20
-4.67762140349259
30
0
41
1
10
13.0936699487238
20
-4.67656827806675
30
0
41
1
10
13.1037299057987
20
-4.6777252675144
30
0
41
1
10
13.126913950109
20
-4.68366957561773
30
0
41
1
10
13.1399301823741
20
-4.68975208971719
30
0
41
1
10
13.1701939145689
20
-4.70781739276336
30
0
41
1
10
13.1867909529256
20
-4.72140840678631
30
0
41
1
10
13.2305968301553
20
-4.76264460559827
30
0
41
1
10
13.2556291706496
20
-4.79299329070682
30
0
41
1
10
13.290816158573
20
-4.84031078333243
30
0
41
1
10
13.3022473504154
20
-4.85664639627024
30
0
41
1
10
13.3133267645122
20
-4.87321515106871
30
0
0
SPLINE
5
259
100
AcDbEntity
8
1
62
256
6
ByLayer
370
-1
48
1
60
0
100
AcDbSpline
70
4
71
3
72
14
73
10
40
0
40
0
40
0
40
0
40
0.31439236670207
40
0.31439236670207
40
0.632200716155184
40
0.632200716155184
40
0.912513196202062
40
0.912513196202062
40
1
40
1
40
1
40
1
41
1
10
13.1091829353742
20
6.41740387219579
30
0
41
1
10
13.1147975407495
20
6.42707746814881
30
0
41
1
10
13.1217739949302
20
6.43617349933507
30
0
41
1
10
13.138246560875
20
6.45131716715224
30
0
41
1
10
13.1480244835576
20
6.45748801735741
30
0
41
1
10
13.1674691330801
20
6.46513453044125
30
0
41
1
10
13.177219427986
20
6.46719711331843
30
0
41
1
10
13.1899186904493
20
6.46813911142979
30
0
41
1
10
13.1929674313852
20
6.46823665791948
30
0
41
1
10
13.1960077929699
20
6.46821768647087
30
0
0
SPLINE
5
25A
100
AcDbEntity
8
1
62
256
6
ByLayer
370
-1
48
1
60
0
100
AcDbSpline
70
4
71
3
72
10
73
6
40
0
40
0
40
0
40
0
40
0.388885978133012
40
0.388885978133012
40
1
40
1
40
1
40
1
41
1
10
10.2812809144905
20
0.484584463756988
30
0
41
1
10
10.2642763660922
20
0.494568276833405
30
0
41
1
10
10.2470263163505
20
0.504588023051838
30
0
41
1
10
10.2026160059104
20
0.530134451787859
30
0
41
1
10
10.1751706298382
20
0.545687936715495
30
0
41
1
10
10.1481241631781
20
0.560748326251598
30
0
0
SPLINE
5
25B
100
AcDbEntity
8
1
62
256
6
ByLayer
370
-1
48
1
60
0
100
AcDbSpline
70
4
71
3
72
22
73
18
40
0
40
0
40
0
40
0
40
0.153101873520372
40
0.153101873520372
40
0.442621285364939
40
0.442621285364939
40
0.70738507443968
40
0.70738507443968
40
0.84353260824017
40
0.84353260824017
40
0.926352665771237
40
0.926352665771237
40
0.963706736955259
40
0.963706736955259
40
0.977863955360658
40
0.977863955360658
40
1
40
1
40
1
40
1
41
1
10
10.1481241631781
20
0.560748326251684
30
0
41
1
10
10.1691202506993
20
0.55888964591648
30
0
41
1
10
10.1901363053426
20
0.557241523709024
30
0
41
1
10
10.2509267757903
20
0.553257267520507
30
0
41
1
10
10.2907777431825
20
0.551556827603207
30
0
41
1
10
10.3670198505561
20
0.551637425279523
30
0
41
1
10
10.4035787056936
20
0.552939444085951
30
0
41
1
10
10.4581820928209
20
0.560510484260931
30
0
41
1
10
10.4767488368662
20
0.564037131982246
30
0
41
1
10
10.5052664316978
20
0.573680339662104
30
0
41
1
10
10.5159593191949
20
0.578291333323705
30
0
41
1
10
10.5293979349793
20
0.587975084154436
30
0
41
1
10
10.533330699448
20
0.591493222522331
30
0
41
1
10
10.5377815667522
20
0.597107267703507
30
0
41
1
10
10.5389137872248
20
0.598746781583799
30
0
41
1
10
10.5414699570356
20
0.603124109296658
30
0
41
1
10
10.5427173079324
20
0.606002167463458
30
0
41
1
10
10.5435645666076
20
0.608973323407469
30
0
0
SPLINE
5
25C
100
AcDbEntity
8
1
62
256
6
ByLayer
370
-1
48
1
60
0
100
AcDbSpline
70
4
71
3
72
22
73
18
40
0
40
0
40
0
40
0
40
0.0236324717629824
40
0.0236324717629824
40
0.0629814022064243
40
0.0629814022064243
40
0.0762359204463636
40
0.0762359204463636
40
0.134099172814619
40
0.134099172814619
40
0.288877504287523
40
0.288877504287523
40
0.442933094377612
40
0.442933094377612
40
0.668543354429519
40
0.668543354429519
40
1
40
1
40
1
40
1
41
1
10
10.715746096015
20
1.21277732042356
30
0
41
1
10
10.717127850577
20
1.21762283974408
30
0
41
1
10
10.7174427319054
20
1.22284978342017
30
0
41
1
10
10.7159373582617
20
1.23614536734189
30
0
41
1
10
10.7127350509042
20
1.24419326848749
30
0
41
1
10
10.7073835347682
20
1.25399742431668
30
0
41
1
10
10.7059131817631
20
1.25643489309707
30
0
41
1
10
10.6976377566992
20
1.26915815242131
30
0
41
1
10
10.6894736518734
20
1.27855924082971
30
0
41
1
10
10.6578893134199
20
1.31086168940234
30
0
41
1
10
10.6314069166224
20
1.33080987833844
30
0
41
1
10
10.5775351144384
20
1.36814295371045
30
0
41
1
10
10.5496968284369
20
1.38542506504498
30
0
41
1
10
10.4801341426928
20
1.42617903730581
30
0
41
1
10
10.4378660329319
20
1.44880088033256
30
0
41
1
10
10.3324766379257
20
1.50244206748641
30
0
41
1
10
10.2687848574646
20
1.5324170664864
30
0
41
1
10
10.2046259928262
20
1.56126342582155
30
0
0
SPLINE
5
25D
100
AcDbEntity
8
1
62
256
6
ByLayer
370
-1
48
1
60
0
100
AcDbSpline
70
4
71
3
72
8
73
4
40
0
40
0
40
0
40
0
40
1
40
1
40
1
40
1
41
1
10
16.6300821196892
20
0.740813432548094
30
0
41
1
10
16.5854139605225
20
0.681848320243034
30
0
41
1
10
16.541766797438
20
0.622019158978617
30
0
41
1
10
16.500151372021
20
0.560748326233039
30
0
0
SPLINE
5
25E
100
AcDbEntity
8
1
62
256
6
ByLayer
370
-1
48
1
60
0
100
AcDbSpline
70
4
71
3
72
8
73
4
40
0
40
0
40
0
40
0
40
1
40
1
40
1
40
1
41
1
10
16.3747026750403
20
0.484584463757073
30
0
41
1
10
16.4264209635918
20
0.592980193222758
30
0
41
1
10
16.4901497522836
20
0.695434109598352
30
0
41
1
10
16.5569141728613
20
0.795022548747966
30
0
0
SPLINE
5
25F
100
AcDbEntity
8
1
62
256
6
ByLayer
370
-1
48
1
60
0
100
AcDbSpline
70
4
71
3
72
20
73
16
40
0
40
0
40
0
40
0
40
0.31485919264876
40
0.31485919264876
40
0.53155888044106
40
0.53155888044106
40
0.682135903694828
40
0.682135903694828
40
0.839619845966509
40
0.839619845966509
40
0.903112673776005
40
0.903112673776005
40
0.967902128209798
40
0.967902128209798
40
1
40
1
40
1
40
1
41
1
10
10.2560798062541
20
1.64699780533985
30
0
41
1
10
10.3190880395277
20
1.6131230794046
30
0
41
1
10
10.3813073551449
20
1.57760367144601
30
0
41
1
10
10.4835392535161
20
1.51311890975487
30
0
41
1
10
10.5245008348399
20
1.48554183386023
30
0
41
1
10
10.5912693963796
20
1.43522700867399
30
0
41
1
10
10.6179596535874
20
1.41354865026898
30
0
41
1
10
10.6693224407923
20
1.36582891882222
30
0
41
1
10
10.6943985624768
20
1.33951398080356
30
0
41
1
10
10.7223459134044
20
1.297498140621
30
0
41
1
10
10.7295667373853
20
1.28465861279076
30
0
41
1
10
10.7404004017723
20
1.25738295203774
30
0
41
1
10
10.74403680066
20
1.24246019388758
30
0
41
1
10
10.7438453084016
20
1.22022080601462
30
0
41
1
10
10.7428188723975
20
1.21271285047118
30
0
41
1
10
10.7407799284251
20
1.20556270768532
30
0
0
SPLINE
5
260
100
AcDbEntity
8
1
62
256
6
ByLayer
370
-1
48
1
60
0
100
AcDbSpline
70
4
71
3
72
18
73
14
40
0
40
0
40
0
40
0
40
0.0414544517087739
40
0.0414544517087739
40
0.132910922468122
40
0.132910922468122
40
0.263177731540045
40
0.263177731540045
40
0.458562667326533
40
0.458562667326533
40
0.817425847463274
40
0.817425847463274
40
1
40
1
40
1
40
1
41
1
10
10.568598399008
20
0.601758710669884
30
0
41
1
10
10.5673395515002
20
0.597344200243327
30
0
41
1
10
10.5656917268598
20
0.593026207885032
30
0
41
1
10
10.5593740290746
20
0.57987326707584
30
0
41
1
10
10.5533329491618
20
0.5716034982878
30
0
41
1
10
10.536614747748
20
0.554176172044208
30
0
41
1
10
10.5248870361194
20
0.545757929454254
30
0
41
1
10
10.4942729729279
20
0.528136929335403
30
0
41
1
10
10.4743416320803
20
0.52030634909255
30
0
41
1
10
10.4171595691905
20
0.502307748145284
30
0
41
1
10
10.3786962999352
20
0.495398713915137
30
0
41
1
10
10.3206571963022
20
0.488004506691993
30
0
41
1
10
10.3009801204461
20
0.486081825430944
30
0
41
1
10
10.2812809144934
20
0.484584463732887
30
0
0
SPLINE
5
261
100
AcDbEntity
8
1
62
256
6
ByLayer
370
-1
48
1
60
0
100
AcDbSpline
70
4
71
3
72
10
73
6
40
0
40
0
40
0
40
0
40
0.638746828356578
40
0.638746828356578
40
1
40
1
40
1
40
1
41
1
10
10.1481241631899
20
0.560748326261944
30
0
41
1
10
10.0259297916458
20
0.628790294837899
30
0
41
1
10
9.90292206076145
20
0.697947453992441
30
0
41
1
10
9.71041499901131
20
0.806907189463573
30
0
41
1
10
9.64076089655504
20
0.846486750688058
30
0
41
1
10
9.57117417703574
20
0.886178587604576
30
0
0
SPLINE
5
262
100
AcDbEntity
8
1
62
256
6
ByLayer
370
-1
48
1
60
0
100
AcDbSpline
70
4
71
3
72
14
73
10
40
0
40
0
40
0
40
0
40
0.249103078948811
40
0.249103078948811
40
0.498160925944161
40
0.498160925944161
40
0.745586162481395
40
0.745586162481395
40
1
40
1
40
1
40
1
41
1
10
12.7303648377718
20
-6.05976512774396
30
0
41
1
10
12.7127319955524
20
-6.05977725648376
30
0
41
1
10
12.6953703723914
20
-6.0598136830408
30
0
41
1
10
12.6619052566479
20
-6.05993272837924
30
0
41
1
10
12.645685335304
20
-6.06001574543888
30
0
41
1
10
12.6150169517675
20
-6.06022423210604
30
0
41
1
10
12.6004546388131
20
-6.06035011699191
30
0
41
1
10
12.5729708081828
20
-6.06064483336237
30
0
41
1
10
12.5600100736757
20
-6.06081581965034
30
0
41
1
10
12.5483026681717
20
-6.06100492431938
30
0
0
SPLINE
5
263
100
AcDbEntity
8
1
62
256
6
ByLayer
370
-1
48
1
60
0
100
AcDbSpline
70
4
71
3
72
14
73
10
40
0
40
0
40
0
40
0
40
0.23392640828629
40
0.23392640828629
40
0.467719442169559
40
0.467719442169559
40
0.701444004412136
40
0.701444004412136
40
1
40
1
40
1
40
1
41
1
10
9.08853098874602
20
0.825726314703303
30
0
41
1
10
9.09325819982087
20
0.837230332178251
30
0
41
1
10
9.09863249065182
20
0.84951534761052
30
0
41
1
10
9.11041474146009
20
0.875082603988261
30
0
41
1
10
9.11686317567595
20
0.888453710415178
30
0
41
1
10
9.13058632734158
20
0.91580149772156
30
0
41
1
10
9.13790647676524
20
0.929869288008263
30
0
41
1
10
9.15525693181661
20
0.962132251132857
30
0
41
1
10
9.16556908175284
20
0.98056405365341
30
0
41
1
10
9.17614791124723
20
0.998791136583804
30
0
0
SPLINE
5
264
100
AcDbEntity
8
1
62
256
6
ByLayer
370
-1
48
1
60
0
100
AcDbSpline
70
4
71
3
72
10
73
6
40
0
40
0
40
0
40
0
40
0.736240194588507
40
0.736240194588507
40
1
40
1
40
1
40
1
41
1
10
9.07392265181196
20
-5.3452304175787
30
0
41
1
10
9.05079018095077
20
-5.34139526907938
30
0
41
1
10
9.02508905142378
20
-5.34144707225417
30
0
41
1
10
8.9899794055903
20
-5.35075096825059
30
0
41
1
10
8.98053822472181
20
-5.35416387243293
30
0
41
1
10
8.97134940695543
20
-5.35864602104706
30
0
0
SPLINE
5
265
100
AcDbEntity
8
1
62
256
6
ByLayer
370
-1
48
1
60
0
100
AcDbSpline
70
4
71
3
72
14
73
10
40
0
40
0
40
0
40
0
40
0.314392366702099
40
0.314392366702099
40
0.632200716155286
40
0.632200716155286
40
0.912513196202094
40
0.912513196202094
40
1
40
1
40
1
40
1
41
1
10
19.9036996490258
20
-5.00619969422595
30
0
41
1
10
19.9094031499392
20
-5.015821584771
30
0
41
1
10
19.9138710662937
20
-5.02638115764745
30
0
41
1
10
19.9187475315416
20
-5.04828984497226
30
0
41
1
10
19.9191178132638
20
-5.05994889786135
30
0
41
1
10
19.9157115086349
20
-5.08092601888885
30
0
41
1
10
19.912416556071
20
-5.0905987980218
30
0
41
1
10
19.9065625663022
20
-5.10236416144832
30
0
41
1
10
19.9050419966103
20
-5.10512729335753
30
0
41
1
10
19.9034214803081
20
-5.10782732277602
30
0
0
SPLINE
5
266
100
AcDbEntity
8
1
62
256
6
ByLayer
370
-1
48
1
60
0
100
AcDbSpline
70
4
71
3
72
10
73
6
40
0
40
0
40
0
40
0
40
0.388885978132982
40
0.388885978132982
40
1
40
1
40
1
40
1
41
1
10
16.3747026750403
20
0.484584463756988
30
0
41
1
10
16.3917618775621
20
0.494568276833434
30
0
41
1
10
16.4086306613558
20
0.504588023051866
30
0
41
1
10
16.4510526903556
20
0.530134451787859
30
0
41
1
10
16.4763245399275
20
0.545687936715495
30
0
41
1
10
16.5001513720335
20
0.560748326251598
30
0
0
SPLINE
5
267
100
AcDbEntity
8
1
62
256
6
ByLayer
370
-1
48
1
60
0
100
AcDbSpline
70
4
71
3
72
8
73
4
40
0
40
0
40
0
40
0
40
1
40
1
40
1
40
1
41
1
10
13.3088503519262
20
-5.02443685710031
30
0
41
1
10
13.3116800113147
20
-4.97596843238347
30
0
41
1
10
13.3131868200298
20
-4.92434320043515
30
0
41
1
10
13.3133267644931
20
-4.87321515108351
30
0
0
SPLINE
5
268
100
AcDbEntity
8
1
62
256
6
ByLayer
370
-1
48
1
60
0
100
AcDbSpline
70
4
71
3
72
22
73
18
40
0
40
0
40
0
40
0
40
0.153101873520339
40
0.153101873520339
40
0.44262128536489
40
0.44262128536489
40
0.707385074439671
40
0.707385074439671
40
0.843532608240152
40
0.843532608240152
40
0.926352665771235
40
0.926352665771235
40
0.96370673695525
40
0.96370673695525
40
0.977863955360654
40
0.977863955360654
40
1
40
1
40
1
40
1
41
1
10
16.5001513720336
20
0.560748326251513
30
0
41
1
10
16.4883453080495
20
0.543366132882255
30
0
41
1
10
16.476707993213
20
0.525861224138652
30
0
41
1
10
16.4437101266358
20
0.474835464510505
30
0
41
1
10
16.4228512002272
20
0.440929975107707
30
0
41
1
10
16.3857720848845
20
0.374396249525603
30
0
41
1
10
16.3690637758406
20
0.341861129888031
30
0
41
1
10
16.3488826279201
20
0.29045597357478
30
0
41
1
10
16.3428284393092
20
0.2725008622877
30
0
41
1
10
16.3371161484117
20
0.242810973227591
30
0
41
1
10
16.3358188229589
20
0.231181275513592
30
0
41
1
10
16.337488593032
20
0.214622377811679
30
0
41
1
10
16.338557919117
20
0.2094346189416
30
0
41
1
10
16.3411535109705
20
0.202747828645414
30
0
41
1
10
16.3419931933923
20
0.200941208723464
30
0
41
1
10
16.3444624961875
20
0.196524799268957
30
0
41
1
10
16.3462971938756
20
0.193998964022114
30
0
41
1
10
16.3484058651994
20
0.191775562494115
30
0
0
SPLINE
5
269
100
AcDbEntity
8
1
62
256
6
ByLayer
370
-1
48
1
60
0
100
AcDbSpline
70
4
71
3
72
22
73
18
40
0
40
0
40
0
40
0
40
0.0236324717629759
40
0.0236324717629759
40
0.0629814022064146
40
0.0629814022064146
40
0.0762359204463702
40
0.0762359204463702
40
0.134099172814621
40
0.134099172814621
40
0.288877504287519
40
0.288877504287519
40
0.442933094377611
40
0.442933094377611
40
0.668543354429517
40
0.668543354429517
40
1
40
1
40
1
40
1
41
1
10
16.7769340870908
20
-0.260068351074352
30
0
41
1
10
16.7803730205673
20
-0.263694392677053
30
0
41
1
10
16.78465554378
20
-0.266580509848012
30
0
41
1
10
16.7966727003489
20
-0.271910321832905
30
0
41
1
10
16.8050631970633
20
-0.273138277708284
30
0
41
1
10
16.8159914451617
20
-0.273369243463009
30
0
41
1
10
16.8187765417238
20
-0.273304666988025
30
0
41
1
10
16.8336069163328
20
-0.272443963642758
30
0
41
1
10
16.8455635666979
20
-0.270020545553592
30
0
41
1
10
16.8883679461443
20
-0.258613068846671
30
0
41
1
10
16.9182011283774
20
-0.245483042402185
30
0
41
1
10
16.9761329696468
20
-0.21715176648695
30
0
41
1
10
17.004363147032
20
-0.201507668536493
30
0
41
1
10
17.0728408862898
20
-0.161202097403361
30
0
41
1
10
17.1126313866684
20
-0.135642025154908
30
0
41
1
10
17.2094956551491
20
-0.0705324231836926
30
0
41
1
10
17.2659598286436
20
-0.0299641563899513
30
0
41
1
10
17.321691584004
20
0.0115743508401351
30
0
0
SPLINE
5
26A
100
AcDbEntity
8
1
62
256
6
ByLayer
370
-1
48
1
60
0
100
AcDbSpline
70
4
71
3
72
8
73
4
40
0
40
0
40
0
40
0
40
1
40
1
40
1
40
1
41
1
10
13.39367107562
20
-5.22992469838348
30
0
41
1
10
13.3669876304781
20
-5.16075739424247
30
0
41
1
10
13.3390494160859
20
-5.09206013935639
30
0
41
1
10
13.3088503519262
20
-5.02443685710031
30
0
0
SPLINE
5
26B
100
AcDbEntity
8
1
62
256
6
ByLayer
370
-1
48
1
60
0
100
AcDbSpline
70
4
71
3
72
8
73
4
40
0
40
0
40
0
40
0
40
1
40
1
40
1
40
1
41
1
10
13.3133267644931
20
-4.87321515108343
30
0
41
1
10
13.3798026545027
20
-4.97262679071216
30
0
41
1
10
13.4351761347369
20
-5.07964236867397
30
0
41
1
10
13.4865802953645
20
-5.18790126267652
30
0
0
SPLINE
5
26C
100
AcDbEntity
8
1
62
256
6
ByLayer
370
-1
48
1
60
0
100
AcDbSpline
70
4
71
3
72
20
73
16
40
0
40
0
40
0
40
0
40
0.314859192648757
40
0.314859192648757
40
0.531558880441071
40
0.531558880441071
40
0.682135903694837
40
0.682135903694837
40
0.839619845966516
40
0.839619845966516
40
0.903112673776005
40
0.903112673776005
40
0.967902128209804
40
0.967902128209804
40
1
40
1
40
1
40
1
41
1
10
17.3788804492311
20
-0.07166589827699
30
0
41
1
10
17.3183301909989
20
-0.110211689952564
30
0
41
1
10
17.2567734076602
20
-0.147245422495899
30
0
41
1
10
17.1504071364753
20
-0.205048293441678
30
0
41
1
10
17.1063050400974
20
-0.227342661279124
30
0
41
1
10
17.029842474408
20
-0.261014336154773
30
0
41
1
10
16.9979418811844
20
-0.273695433276828
30
0
41
1
10
16.931432845538
20
-0.295112481519169
30
0
41
1
10
16.896388290203
20
-0.304067177030959
30
0
41
1
10
16.8465086378334
20
-0.307733811814188
30
0
41
1
10
16.8319289733888
20
-0.307694046122663
30
0
41
1
10
16.8032204457061
20
-0.303647641314143
30
0
41
1
10
16.788664664425
20
-0.299419575151575
30
0
41
1
10
16.7697910946938
20
-0.288185030170894
30
0
41
1
10
16.7639026391122
20
-0.283546601224799
30
0
41
1
10
16.7588280818229
20
-0.278195943536531
30
0
0
SPLINE
5
26D
100
AcDbEntity
8
1
62
256
6
ByLayer
370
-1
48
1
60
0
100
AcDbSpline
70
4
71
3
72
18
73
14
40
0
40
0
40
0
40
0
40
0.0414544517087606
40
0.0414544517087606
40
0.132910922468119
40
0.132910922468119
40
0.263177731540051
40
0.263177731540051
40
0.458562667326532
40
0.458562667326532
40
0.817425847463273
40
0.817425847463273
40
1
40
1
40
1
40
1
41
1
10
16.3302998599366
20
0.173647970039951
30
0
41
1
10
16.3271668195578
20
0.176951475279225
30
0
41
1
10
16.3243115319804
20
0.180548972038167
30
0
41
1
10
16.3162663762255
20
0.192648787421518
30
0
41
1
10
16.3122474990635
20
0.202075545657209
30
0
41
1
10
16.3057816561669
20
0.225447180004096
30
0
41
1
10
16.3044931355304
20
0.23994793669354
30
0
41
1
10
16.3048434665271
20
0.275634239858562
30
0
41
1
10
16.308177769018
20
0.297055834124336
30
0
41
1
10
16.321553954678
20
0.35629063388356
30
0
41
1
10
16.3349848834391
20
0.393548353222258
30
0
41
1
10
16.3578369991486
20
0.448260053071039
30
0
41
1
10
16.3660828831624
20
0.466518347269897
30
0
41
1
10
16.3747026750183
20
0.484584463766396
30
0
0
SPLINE
5
26E
100
AcDbEntity
8
1
62
256
6
ByLayer
370
-1
48
1
60
0
100
AcDbSpline
70
4
71
3
72
10
73
6
40
0
40
0
40
0
40
0
40
0.638746828356587
40
0.638746828356587
40
1
40
1
40
1
40
1
41
1
10
16.5001513720354
20
0.560748326235569
30
0
41
1
10
16.607799620943
20
0.628790294811552
30
0
41
1
10
16.7188372967824
20
0.697947453992469
30
0
41
1
10
16.8955525729304
20
0.806907189463601
30
0
41
1
10
16.9601186429327
20
0.846486750688058
30
0
41
1
10
17.0252299108743
20
0.886178587604576
30
0
0
SPLINE
5
26F
100
AcDbEntity
8
1
62
256
6
ByLayer
370
-1
48
1
60
0
100
AcDbSpline
70
4
71
3
72
12
73
8
40
0
40
0
40
0
40
0
40
0.197891272102658
40
0.197891272102658
40
0.598376100017385
40
0.598376100017385
40
1
40
1
40
1
40
1
41
1
10
13.308850351935
20
-5.02443685711856
30
0
41
1
10
13.3064240806921
20
-5.06599576189569
30
0
41
1
10
13.304125536702
20
-5.10780724170399
30
0
41
1
10
13.2975108546002
20
-5.23479975215827
30
0
41
1
10
13.2935319252682
20
-5.32059998374981
30
0
41
1
10
13.2863299392146
20
-5.4934251122705
30
0
41
1
10
13.2831082201069
20
-5.58052157445366
30
0
41
1
10
13.2802623776585
20
-5.66799384771275
30
0
0
SPLINE
5
270
100
AcDbEntity
8
1
62
256
6
ByLayer
370
-1
48
1
60
0
100
AcDbSpline
70
4
71
3
72
14
73
10
40
0
40
0
40
0
40
0
40
0.249103078948807
40
0.249103078948807
40
0.498160925944198
40
0.498160925944198
40
0.745586162481395
40
0.745586162481395
40
1
40
1
40
1
40
1
41
1
10
9.50128310925578
20
1.55899169760397
30
0
41
1
10
9.51034271342064
20
1.57460118979944
30
0
41
1
10
9.51966821518775
20
1.59018326982198
30
0
41
1
10
9.53845166573308
20
1.62064243695698
30
0
41
1
10
9.54797470111484
20
1.635625356752
30
0
41
1
10
9.56683342276017
20
1.6644023610373
30
0
41
1
10
9.57623318179543
20
1.67830015910869
30
0
41
1
10
9.59491917432558
20
1.70502610115511
30
0
41
1
10
9.60426077536314
20
1.7179074453592
30
0
41
1
10
9.6132725778356
20
1.72984415367958
30
0
0
SPLINE
5
271
100
AcDbEntity
8
1
62
256
6
ByLayer
370
-1
48
1
60
0
100
AcDbSpline
70
4
71
3
72
14
73
10
40
0
40
0
40
0
40
0
40
0.233926408286266
40
0.233926408286266
40
0.467719442169551
40
0.467719442169551
40
0.701444004412143
40
0.701444004412143
40
1
40
1
40
1
40
1
41
1
10
17.213509735023
20
1.33939426549858
30
0
41
1
10
17.2181748420496
20
1.32820886197609
30
0
41
1
10
17.2234826585622
20
1.31620779883562
30
0
41
1
10
17.2351262825113
20
1.29112838631201
30
0
41
1
10
17.2415020825794
20
1.27796294956562
30
0
41
1
10
17.2550764239853
20
1.25094361063921
30
0
41
1
10
17.2623199016698
20
1.23699974278642
30
0
41
1
10
17.2794942526154
20
1.20492390179334
30
0
41
1
10
17.2897056055361
20
1.18652999027813
30
0
41
1
10
17.3001845774629
20
1.16827458207703
30
0
0
SPLINE
5
272
100
AcDbEntity
8
1
62
256
6
ByLayer
370
-1
48
1
60
0
100
AcDbSpline
70
4
71
3
72
10
73
6
40
0
40
0
40
0
40
0
40
0.736240194588493
40
0.736240194588493
40
1
40
1
40
1
40
1
41
1
10
11.8982333143467
20
4.39514938153482
30
0
41
1
10
11.9061222665543
20
4.41028525465575
30
0
41
1
10
11.912128715719
20
4.42968084863469
30
0
41
1
10
11.9136564168049
20
4.46133474742987
30
0
41
1
10
11.9134031458951
20
4.47035315911435
30
0
41
1
10
11.9122701795565
20
4.47975659995279
30
0
0
SPLINE
5
273
100
AcDbEntity
8
1
62
256
6
ByLayer
370
-1
48
1
60
0
100
AcDbSpline
70
4
71
3
72
8
73
4
40
0
40
0
40
0
40
0
40
1
40
1
40
1
40
1
41
1
10
5.26734924135911
20
-6.14521711241537
30
0
41
1
10
5.26154719545713
20
-6.14932262292814
30
0
41
1
10
5.25574519592951
20
-6.1534282259727
30
0
41
1
10
5.2499432405935
20
-6.15753391718525
30
0
0
SPLINE
5
274
100
AcDbEntity
8
1
62
256
6
ByLayer
370
-1
48
1
60
0
100
AcDbSpline
70
4
71
3
72
8
73
4
40
0
40
0
40
0
40
0
40
1
40
1
40
1
40
1
41
1
10
6.40626841947861
20
-6.17288809753663
30
0
41
1
10
6.40643842851799
20
-6.17716380518974
30
0
41
1
10
6.40660843627001
20
-6.1814396040163
30
0
41
1
10
6.4067784427952
20
-6.1857154897165
30
0
0
SPLINE
5
275
100
AcDbEntity
8
1
62
256
6
ByLayer
370
-1
48
1
60
0
100
AcDbSpline
70
4
71
3
72
10
73
6
40
0
40
0
40
0
40
0
40
0.87085674608553
40
0.87085674608553
40
1
40
1
40
1
40
1
41
1
10
5.76544646169901
20
-6.16722105454346
30
0
41
1
10
5.76998488707071
20
-6.15943869491809
30
0
41
1
10
5.77227360106752
20
-6.15161826748485
30
0
41
1
10
5.77286041027722
20
-6.1431209551339
30
0
41
1
10
5.77289840410151
20
-6.14203439470828
30
0
41
1
10
5.77290039558847
20
-6.14095432447826
30
0
0
SPLINE
5
276
100
AcDbEntity
8
1
62
256
6
ByLayer
370
-1
48
1
60
0
100
AcDbSpline
70
4
71
3
72
8
73
4
40
0
40
0
40
0
40
0
40
1
40
1
40
1
40
1
41
1
10
5.75800714552142
20
-6.1799781475581
30
0
41
1
10
5.76048689834369
20
-6.17572569473185
30
0
41
1
10
5.76296667009129
20
-6.1714733289574
30
0
41
1
10
5.76544646169907
20
-6.16722105454346
30
0
0
SPLINE
5
277
100
AcDbEntity
8
1
62
256
6
ByLayer
370
-1
48
1
60
0
100
AcDbSpline
70
4
71
3
72
24
73
20
40
0
40
0
40
0
40
0
40
0.104000448201702
40
0.104000448201702
40
0.192499055460869
40
0.192499055460869
40
0.328500518746527
40
0.328500518746527
40
0.43868257566518
40
0.43868257566518
40
0.548533158171648
40
0.548533158171648
40
0.658237202769706
40
0.658237202769706
40
0.767870673660828
40
0.767870673660828
40
0.988088331634238
40
0.988088331634238
40
1
40
1
40
1
40
1
41
1
10
6.40677844279514
20
-6.1857154897165
30
0
41
1
10
6.40582880491581
20
-6.19354016559962
30
0
41
1
10
6.40192141306113
20
-6.20129685711103
30
0
41
1
10
6.39002200884619
20
-6.21404872987731
30
0
41
1
10
6.38263121302919
20
-6.21944616232008
30
0
41
1
10
6.36115976978161
20
-6.23140789230683
30
0
41
1
10
6.34533825150908
20
-6.23730798394772
30
0
41
1
10
6.31507303833757
20
-6.2460142559984
30
0
41
1
10
6.3006939754444
20
-6.24926693351574
30
0
41
1
10
6.27138806593081
20
-6.25477809687055
30
0
41
1
10
6.2563679775968
20
-6.25705512857706
30
0
41
1
10
6.22608371197566
20
-6.2608843599603
30
0
41
1
10
6.21076394997431
20
-6.26244290145843
30
0
41
1
10
6.18005161302745
20
-6.26499534158125
30
0
41
1
10
6.16462180858852
20
-6.26599177104688
30
0
41
1
10
6.11832042815223
20
-6.26828031413214
30
0
41
1
10
6.08735230860339
20
-6.26888462555706
30
0
41
1
10
6.05519282018338
20
-6.2686926147266
30
0
41
1
10
6.05353951080156
20
-6.26868036971959
30
0
41
1
10
6.05188734291539
20
-6.26866575894303
30
0
0
SPLINE
5
278
100
AcDbEntity
8
1
62
256
6
ByLayer
370
-1
48
1
60
0
100
AcDbSpline
70
4
71
3
72
22
73
18
40
0
40
0
40
0
40
0
40
0.208266363442862
40
0.208266363442862
40
0.317899168105503
40
0.317899168105503
40
0.427584739861818
40
0.427584739861818
40
0.537377253732907
40
0.537377253732907
40
0.647402228730843
40
0.647402228730843
40
0.811583680502194
40
0.811583680502194
40
0.906636022131358
40
0.906636022131358
40
1
40
1
40
1
40
1
41
1
10
6.05188734291539
20
-6.26866575894303
30
0
41
1
10
6.02307821193853
20
-6.26841098835993
30
0
41
1
10
5.99452672733113
20
-6.26745005418246
30
0
41
1
10
5.9520589339981
20
-6.26476716672079
30
0
41
1
10
5.93756860754348
20
-6.26361453811501
30
0
41
1
10
5.90914706745059
20
-6.26078025004463
30
0
41
1
10
5.89518369790073
20
-6.25909594102743
30
0
41
1
10
5.86806369298859
20
-6.25506525355254
30
0
41
1
10
5.85486203292328
20
-6.25271300530989
30
0
41
1
10
5.82968925604422
20
-6.2471329407164
30
0
41
1
10
5.81764845067138
20
-6.24388969733138
30
0
41
1
10
5.79036582561599
20
-6.23438001004493
30
0
41
1
10
5.7759043932906
20
-6.22722885818831
30
0
41
1
10
5.76091513633531
20
-6.21296583228315
30
0
41
1
10
5.75704127321524
20
-6.20694544039145
30
0
41
1
10
5.75409968940784
20
-6.19405057617575
30
0
41
1
10
5.75494858105816
20
-6.18702490338285
30
0
41
1
10
5.75800714552116
20
-6.17997814756038
30
0
0
SPLINE
5
279
100
AcDbEntity
8
1
62
256
6
ByLayer
370
-1
48
1
60
0
100
AcDbSpline
70
4
71
3
72
10
73
6
40
0
40
0
40
0
40
0
40
0.680481829738639
40
0.680481829738639
40
1
40
1
40
1
40
1
41
1
10
7.01720749144897
20
-6.16069180365361
30
0
41
1
10
7.00943861683973
20
-6.15301543745525
30
0
41
1
10
6.99966433558882
20
-6.14543184826343
30
0
41
1
10
6.98392873190468
20
-6.13503756583222
30
0
41
1
10
6.97867553163002
20
-6.13180754298469
30
0
41
1
10
6.97323419997204
20
-6.12866723694412
30
0
0
SPLINE
5
27A
100
AcDbEntity
8
1
62
256
6
ByLayer
370
-1
48
1
60
0
100
AcDbSpline
70
4
71
3
72
12
73
8
40
0
40
0
40
0
40
0
40
0.190335113103387
40
0.190335113103387
40
0.838836721110485
40
0.838836721110485
40
1
40
1
40
1
40
1
41
1
10
6.43742955066847
20
-6.12042790324756
30
0
41
1
10
6.43387790401519
20
-6.12333290367081
30
0
41
1
10
6.43054218441571
20
-6.12633048228247
30
0
41
1
10
6.41708800725826
20
-6.1398060220055
30
0
41
1
10
6.40937452025028
20
-6.15149956903269
30
0
41
1
10
6.40640529413196
20
-6.16667350605593
30
0
41
1
10
6.40614479132245
20
-6.16977886372561
30
0
41
1
10
6.40626841947855
20
-6.17288809753663
30
0
0
SPLINE
5
27B
100
AcDbEntity
8
1
62
256
6
ByLayer
370
-1
48
1
60
0
100
AcDbSpline
70
4
71
3
72
8
73
4
40
0
40
0
40
0
40
0
40
1
40
1
40
1
40
1
41
1
10
7.02994211025444
20
-6.17327515388877
30
0
41
1
10
7.02569727006676
20
-6.16908061487464
30
0
41
1
10
7.02145239766202
20
-6.16488616335278
30
0
41
1
10
7.01720749144897
20
-6.16069180365358
30
0
0
SPLINE
5
27C
100
AcDbEntity
8
1
62
256
6
ByLayer
370
-1
48
1
60
0
100
AcDbSpline
70
4
71
3
72
20
73
16
40
0
40
0
40
0
40
0
40
0.0608157493567976
40
0.0608157493567976
40
0.214920488750208
40
0.214920488750208
40
0.368561615652292
40
0.368561615652292
40
0.521997789163487
40
0.521997789163487
40
0.675335255652687
40
0.675335255652687
40
0.983339895799108
40
0.983339895799108
40
1
40
1
40
1
40
1
41
1
10
7.49593093747399
20
-6.1981307988587
30
0
41
1
10
7.49595505776969
20
-6.20005045713995
30
0
41
1
10
7.49571866249724
20
-6.20186247864262
30
0
41
1
10
7.49408357767555
20
-6.20793009209015
30
0
41
1
10
7.49145763496409
20
-6.21169981852293
30
0
41
1
10
7.48418494219518
20
-6.21832492855512
30
0
41
1
10
7.47951893962431
20
-6.22120228047101
30
0
41
1
10
7.46866928842203
20
-6.22628706306841
30
0
41
1
10
7.46246594543493
20
-6.22850313315047
30
0
41
1
10
7.44884242887645
20
-6.23241094296159
30
0
41
1
10
7.44140552338439
20
-6.23410686330689
30
0
41
1
10
7.41751570997738
20
-6.23854369969149
30
0
41
1
10
7.3994445119331
20
-6.24065041938243
30
0
41
1
10
7.37867897006794
20
-6.24208123277811
30
0
41
1
10
7.37760570548656
20
-6.24215259565287
30
0
41
1
10
7.3765274652099
20
-6.24222171409133
30
0
0
SPLINE
5
27D
100
AcDbEntity
8
1
62
256
6
ByLayer
370
-1
48
1
60
0
100
AcDbSpline
70
4
71
3
72
22
73
18
40
0
40
0
40
0
40
0
40
0.208266363442416
40
0.208266363442416
40
0.31789916810512
40
0.31789916810512
40
0.427584739861484
40
0.427584739861484
40
0.537377253732592
40
0.537377253732592
40
0.647402228730513
40
0.647402228730513
40
0.811583680502154
40
0.811583680502154
40
0.906636022131374
40
0.906636022131374
40
1
40
1
40
1
40
1
41
1
10
7.3765274652099
20
-6.24222171409133
30
0
41
1
10
7.35772600706912
20
-6.24342694399758
30
0
41
1
10
7.33736728001307
20
-6.2439669968889
30
0
41
1
10
7.30421264133793
20
-6.24360667525357
30
0
41
1
10
7.2923596659399
20
-6.2432634482696
30
0
41
1
10
7.26789299810756
20
-6.24205488245161
30
0
41
1
10
7.25525195306062
20
-6.2411887231107
30
0
41
1
10
7.22921593172629
20
-6.23879355170735
30
0
41
1
10
7.2157779442131
20
-6.23726137847493
30
0
41
1
10
7.18819165350391
20
-6.23330649567345
30
0
41
1
10
7.17396494300553
20
-6.23087292207626
30
0
41
1
10
7.13814968785402
20
-6.22330992321216
30
0
41
1
10
7.1156480652669
20
-6.21730078257318
30
0
41
1
10
7.081843795422
20
-6.20454966187333
30
0
41
1
10
7.06954696494196
20
-6.19903149929303
30
0
41
1
10
7.04771379122582
20
-6.18690928120989
30
0
41
1
10
7.03788647119851
20
-6.18016565881984
30
0
41
1
10
7.02994211025512
20
-6.17327515389104
30
0
0
SPLINE
5
27E
100
AcDbEntity
8
1
62
256
6
ByLayer
370
-1
48
1
60
0
100
AcDbSpline
70
4
71
3
72
24
73
20
40
0
40
0
40
0
40
0
40
0.104000448201681
40
0.104000448201681
40
0.192499055460857
40
0.192499055460857
40
0.328500518746441
40
0.328500518746441
40
0.438682575665045
40
0.438682575665045
40
0.548533158171419
40
0.548533158171419
40
0.658237202769437
40
0.658237202769437
40
0.767870673660531
40
0.767870673660531
40
0.988088331633815
40
0.988088331633815
40
1
40
1
40
1
40
1
41
1
10
5.2499432405935
20
-6.15753391718522
30
0
41
1
10
5.23860991310181
20
-6.16498599649822
30
0
41
1
10
5.22568958767172
20
-6.17222944207836
30
0
41
1
10
5.20145897612991
20
-6.18387559194249
30
0
41
1
10
5.18992352643465
20
-6.18869256684022
30
0
41
1
10
5.16174523588273
20
-6.19912933367934
30
0
41
1
10
5.14517487739943
20
-6.20403258296807
30
0
41
1
10
5.1175288898431
20
-6.21095453934012
30
0
41
1
10
5.10577741174666
20
-6.21340132464977
30
0
41
1
10
5.08374698775856
20
-6.21732808291009
30
0
41
1
10
5.07339406198
20
-6.21882144316902
30
0
41
1
10
5.05396141346492
20
-6.22111419296496
30
0
41
1
10
5.04484580359031
20
-6.2219170975942
30
0
41
1
10
5.02775832888182
20
-6.22299057364168
30
0
41
1
10
5.01976596780162
20
-6.22326188968484
30
0
41
1
10
4.9973556797782
20
-6.22342210096184
30
0
41
1
10
4.98445917185825
20
-6.22266618022218
30
0
41
1
10
4.97306526890412
20
-6.22112205201583
30
0
41
1
10
4.97248522522489
20
-6.22104046785026
30
0
41
1
10
4.97191129761529
20
-6.22095673863524
30
0
0
SPLINE
5
27F
100
AcDbEntity
8
1
62
256
6
ByLayer
370
-1
48
1
60
0
100
AcDbSpline
70
4
71
3
72
14
73
10
40
0
40
0
40
0
40
0
40
0.447435525515985
40
0.447435525515985
40
0.68296857443094
40
0.68296857443094
40
0.918614987174211
40
0.918614987174211
40
1
40
1
40
1
40
1
41
1
10
4.97191129761529
20
-6.22095673863524
30
0
41
1
10
4.96190362477932
20
-6.21949673814589
30
0
41
1
10
4.95371053356789
20
-6.21739352091137
30
0
41
1
10
4.9443962860623
20
-6.21309845123864
30
0
41
1
10
4.94175844912451
20
-6.21141207243315
30
0
41
1
10
4.93780234764586
20
-6.2075677085933
30
0
41
1
10
4.9364792787128
20
-6.20540592126616
30
0
41
1
10
4.9357491600482
20
-6.20210217791455
30
0
41
1
10
4.93565444483659
20
-6.20121844963856
30
0
41
1
10
4.93566023765493
20
-6.20029530907871
30
0
0
SPLINE
5
280
100
AcDbEntity
8
1
62
256
6
ByLayer
370
-1
48
1
60
0
100
AcDbSpline
70
4
71
3
72
10
73
6
40
0
40
0
40
0
40
0
40
0.736240194588479
40
0.736240194588479
40
1
40
1
40
1
40
1
41
1
10
18.7876402404473
20
-2.93494698836423
30
0
41
1
10
18.7895831260103
20
-2.9527106734289
30
0
41
1
10
18.7962477367515
20
-2.97087168749843
30
0
41
1
10
18.8143048126917
20
-2.9918124534959
30
0
41
1
10
18.8200391513032
20
-2.99705849018503
30
0
41
1
10
18.8267030161053
20
-3.00164774259881
30
0
0
SPLINE
5
281
100
AcDbEntity
8
1
62
256
6
ByLayer
370
-1
48
1
60
0
100
AcDbSpline
70
4
71
3
72
14
73
10
40
0
40
0
40
0
40
0
40
0.249103078948814
40
0.249103078948814
40
0.498160925944198
40
0.498160925944198
40
0.745586162481418
40
0.745586162481418
40
1
40
1
40
1
40
1
41
1
10
17.6222507015244
20
0.607203457588753
30
0
41
1
10
17.6312247886635
20
0.591569707913749
30
0
41
1
10
17.6404647904536
20
0.575914774777061
30
0
41
1
10
17.6590808475002
20
0.545217516965209
30
0
41
1
10
17.6685214078229
20
0.530068563050889
30
0
41
1
10
17.6872214549626
20
0.500874585431262
30
0
41
1
10
17.6965444445217
20
0.486725017588157
30
0
41
1
10
17.715082518577
20
0.459409642800779
30
0
41
1
10
17.7243526675875
20
0.446186326020779
30
0
41
1
10
17.733298090043
20
0.433871408362307
30
0
0
SPLINE
5
282
100
AcDbEntity
8
1
62
256
6
ByLayer
370
-1
48
1
60
0
100
AcDbSpline
70
4
71
3
72
14
73
10
40
0
40
0
40
0
40
0
40
0.233926408286289
40
0.233926408286289
40
0.467719442169548
40
0.467719442169548
40
0.701444004412128
40
0.701444004412128
40
1
40
1
40
1
40
1
41
1
10
13.5696150211151
20
-6.06030241523939
30
0
41
1
10
13.5549576831738
20
-6.06014310826316
30
0
41
1
10
13.5395833316944
20
-6.06000113211726
30
0
41
1
10
13.5080959531922
20
-6.05975721019018
30
0
41
1
10
13.491873076319
20
-6.05965437534994
30
0
41
1
10
13.4591480518302
20
-6.05949015115996
30
0
41
1
10
13.4425366359535
20
-6.05942818994299
30
0
41
1
10
13.404919681206
20
-6.05933462887722
30
0
41
1
10
13.3837700384916
20
-6.05931568337456
30
0
41
1
10
13.3631803054365
20
-6.05932984600992
30
0
0
LINE
5
49
100
AcDbEntity
8
1
62
256
6
ByLayer
370
-1
48
1
60
0
100
AcDbLine
10
13.62294
20
1.401272
30
0
11
13.407889
21
1.42256
31
0
39
0
210
0
220
0
230
1
0
LINE
5
4B
100
AcDbEntity
8
1
62
256
6
ByLayer
370
-1
48
1
60
0
100
AcDbLine
10
12.871004
20
-4.000931
30
0
11
13.086055
21
-4.022219
31
0
39
0
210
0
220
0
230
1
0
LINE
5
4C
100
AcDbEntity
8
1
62
256
6
ByLayer
370
-1
48
1
60
0
100
AcDbLine
10
12.140769
20
-0.257057
30
0
11
12.387923
21
-0.281523
31
0
39
0
210
0
220
0
230
1
0
LINE
5
4D
100
AcDbEntity
8
1
62
256
6
ByLayer
370
-1
48
1
60
0
100
AcDbLine
10
12.441987
20
-2.336354
30
0
11
12.199327
21
-2.312333
31
0
39
0
210
0
220
0
230
1
0
LINE
5
4E
100
AcDbEntity
8
1
62
256
6
ByLayer
370
-1
48
1
60
0
100
AcDbLine
10
13.984073
20
-0.256585
30
0
11
14.227084
21
-0.280641
31
0
39
0
210
0
220
0
230
1
0
LINE
5
4F
100
AcDbEntity
8
1
62
256
6
ByLayer
370
-1
48
1
60
0
100
AcDbLine
10
14.289683
20
-2.336317
30
0
11
14.042631
21
-2.311861
31
0
39
0
210
0
220
0
230
1
0
LINE
5
50
100
AcDbEntity
8
1
62
256
6
ByLayer
370
-1
48
1
60
0
100
AcDbLine
10
5.7729
20
-6.141182
30
0
11
5.772891
21
-6.125017
31
0
39
0
210
0
220
0
230
1
0
LINE
5
51
100
AcDbEntity
8
1
62
256
6
ByLayer
370
-1
48
1
60
0
100
AcDbLine
10
6.041579
20
-5.35882
30
0
11
6.730307
21
-5.421338
31
0
39
0
210
0
220
0
230
1
0
LINE
5
52
100
AcDbEntity
8
1
62
256
6
ByLayer
370
-1
48
1
60
0
100
AcDbLine
10
9.650953
20
-5.993905
30
0
11
10.406229
21
-6.062463
31
0
39
0
210
0
220
0
230
1
0
LINE
5
53
100
AcDbEntity
8
1
62
256
6
ByLayer
370
-1
48
1
60
0
100
AcDbLine
10
7.808732
20
-5.555836
30
0
11
8.475209
21
-5.616334
31
0
39
0
210
0
220
0
230
1
0
LINE
5
54
100
AcDbEntity
8
1
62
256
6
ByLayer
370
-1
48
1
60
0
100
AcDbLine
10
13.215552
20
6.592804
30
0
11
12.527369
21
6.655272
31
0
39
0
210
0
220
0
230
1
0
LINE
5
55
100
AcDbEntity
8
1
62
256
6
ByLayer
370
-1
48
1
60
0
100
AcDbLine
10
12.62871
20
5.433622
30
0
11
11.962588
21
5.494088
31
0
39
0
210
0
220
0
230
1
0
LINE
5
56
100
AcDbEntity
8
80
62
256
6
ByLayer
370
-1
48
1
60
0
100
AcDbLine
10
0
20
0
30
0
11
-5
21
0
31
0
39
0
210
0
220
0
230
1
0
LINE
5
57
100
AcDbEntity
8
81
62
256
6
ByLayer
370
-1
48
1
60
0
100
AcDbLine
10
21.36516
20
-6.0625
30
0
11
26.36516
21
-6.0625
31
0
39
0
210
0
220
0
230
1
0
LINE
5
58
100
AcDbEntity
8
1
62
256
6
ByLayer
370
-1
48
1
60
0
100
AcDbLine
10
11.204985
20
5.322106
30
0
11
11.232005
21
5.292592
31
0
39
0
210
0
220
0
230
1
0
LINE
5
59
100
AcDbEntity
8
1
62
256
6
ByLayer
370
-1
48
1
60
0
100
AcDbLine
10
1.288151
20
-5.500341
30
0
11
1.355802
21
9.64755
31
0
39
0
210
0
220
0
230
1
0
LINE
5
5A
100
AcDbEntity
8
1
62
256
6
ByLayer
370
-1
48
1
60
0
100
AcDbLine
10
7.052634
20
-2.309169
30
0
11
9.762306
21
2.430936
31
0
39
0
210
0
220
0
230
1
0
LINE
5
5B
100
AcDbEntity
8
1
62
256
6
ByLayer
370
-1
48
1
60
0
100
AcDbLine
10
16.392319
20
3.50487
30
0
11
17.852107
21
3.50487
31
0
39
0
210
0
220
0
230
1
0
LINE
5
5C
100
AcDbEntity
8
1
62
256
6
ByLayer
370
-1
48
1
60
0
100
AcDbLine
10
1.288151
20
-5.500341
30
0
11
0.5
21
-5.448194
31
0
39
0
210
0
220
0
230
1
0
LINE
5
5D
100
AcDbEntity
8
1
62
256
6
ByLayer
370
-1
48
1
60
0
100
AcDbLine
10
11.232005
20
5.292592
30
0
11
5.062246
21
-5.500341
31
0
39
0
210
0
220
0
230
1
0
LINE
5
5E
100
AcDbEntity
8
1
62
256
6
ByLayer
370
-1
48
1
60
0
100
AcDbLine
10
15.892801
20
3.727732
30
0
11
16.392319
21
3.50487
31
0
39
0
210
0
220
0
230
1
0
LINE
5
5F
100
AcDbEntity
8
1
62
256
6
ByLayer
370
-1
48
1
60
0
100
AcDbLine
10
15.823824
20
10.0625
30
0
11
17.868157
21
8.881728
31
0
39
0
210
0
220
0
230
1
0
LINE
5
60
100
AcDbEntity
8
1
62
256
6
ByLayer
370
-1
48
1
60
0
100
AcDbLine
10
6.647943
20
-2.921324
30
0
11
5.181327
21
-5.486916
31
0
39
0
210
0
220
0
230
1
0
LINE
5
61
100
AcDbEntity
8
1
62
256
6
ByLayer
370
-1
48
1
60
0
100
AcDbLine
10
0
20
5.9375
30
0
11
0.5
21
6.439686
31
0
39
0
210
0
220
0
230
1
0
LINE
5
62
100
AcDbEntity
8
1
62
256
6
ByLayer
370
-1
48
1
60
0
100
AcDbLine
10
16.004842
20
3.529719
30
0
11
16.336599
21
3.529719
31
0
39
0
210
0
220
0
230
1
0
LINE
5
63
100
AcDbEntity
8
1
62
256
6
ByLayer
370
-1
48
1
60
0
100
AcDbLine
10
13.520928
20
7.666173
30
0
11
14.571622
21
5.808766
31
0
39
0
210
0
220
0
230
1
0
LINE
5
64
100
AcDbEntity
8
1
62
256
6
ByLayer
370
-1
48
1
60
0
100
AcDbLine
10
0.5
20
-5.448194
30
0
11
0.5
21
6.439686
31
0
39
0
210
0
220
0
230
1
0
LINE
5
65
100
AcDbEntity
8
1
62
256
6
ByLayer
370
-1
48
1
60
0
100
AcDbLine
10
0
20
-5.438237
30
0
11
0.5
21
-5.448194
31
0
39
0
210
0
220
0
230
1
0
LINE
5
66
100
AcDbEntity
8
1
62
256
6
ByLayer
370
-1
48
1
60
0
100
AcDbLine
10
1.467001
20
10.0625
30
0
11
15.823824
21
10.0625
31
0
39
0
210
0
220
0
230
1
0
LINE
5
67
100
AcDbEntity
8
1
62
256
6
ByLayer
370
-1
48
1
60
0
100
AcDbLine
10
1.288151
20
-5.500341
30
0
11
5.062246
21
-5.500341
31
0
39
0
210
0
220
0
230
1
0
LINE
5
68
100
AcDbEntity
8
1
62
256
6
ByLayer
370
-1
48
1
60
0
100
AcDbLine
10
16.607734
20
3.504858
30
0
11
16.607211
21
3.329729
31
0
39
0
210
0
220
0
230
1
0
LINE
5
69
100
AcDbEntity
8
1
62
256
6
ByLayer
370
-1
48
1
60
0
100
AcDbLine
10
14.464627
20
6.912624
30
0
11
16.392319
21
3.50487
31
0
39
0
210
0
220
0
230
1
0
LINE
5
6A
100
AcDbEntity
8
1
62
256
6
ByLayer
370
-1
48
1
60
0
100
AcDbLine
10
0
20
-5.438237
30
0
11
0
21
5.9375
31
0
39
0
210
0
220
0
230
1
0
LINE
5
6B
100
AcDbEntity
8
1
62
256
6
ByLayer
370
-1
48
1
60
0
100
AcDbLine
10
0.5
20
6.439686
30
0
11
1.355802
21
9.64755
31
0
39
0
210
0
220
0
230
1
0
LINE
5
6C
100
AcDbEntity
8
1
62
256
6
ByLayer
370
-1
48
1
60
0
100
AcDbLine
10
17.852107
20
3.50487
30
0
11
17.868157
21
8.881728
31
0
39
0
210
0
220
0
230
1
0
LINE
5
6D
100
AcDbEntity
8
1
62
256
6
ByLayer
370
-1
48
1
60
0
100
AcDbLine
10
1.355802
20
9.64755
30
0
11
1.467001
21
10.0625
31
0
39
0
210
0
220
0
230
1
0
LINE
5
6E
100
AcDbEntity
8
1
62
256
6
ByLayer
370
-1
48
1
60
0
100
AcDbLine
10
5.181327
20
-5.486916
30
0
11
5.062246
21
-5.500341
31
0
39
0
210
0
220
0
230
1
0
LINE
5
6F
100
AcDbEntity
8
1
62
256
6
ByLayer
370
-1
48
1
60
0
100
AcDbLine
10
11.232005
20
5.292592
30
0
11
11.233762
21
5.100779
31
0
39
0
210
0
220
0
230
1
0
LINE
5
70
100
AcDbEntity
8
1
62
256
6
ByLayer
370
-1
48
1
60
0
100
AcDbLine
10
10.112863
20
3.139958
30
0
11
11.233762
21
5.100779
31
0
39
0
210
0
220
0
230
1
0
LINE
5
71
100
AcDbEntity
8
SK1
62
256
6
ByLayer
370
-1
48
1
60
0
100
AcDbLine
10
0
20
-5.438237
30
0
11
0
21
5.9375
31
0
39
0
210
0
220
0
230
1
0
LINE
5
73
100
AcDbEntity
8
1
62
256
6
ByLayer
370
-1
48
1
60
0
100
AcDbLine
10
14.540003
20
-1.679845
30
0
11
14.520925
21
-1.673435
31
0
39
0
210
0
220
0
230
1
0
LINE
5
74
100
AcDbEntity
8
1
62
256
6
ByLayer
370
-1
48
1
60
0
100
AcDbLine
10
13.470764
20
-2.736621
30
0
11
13.726903
21
-2.761977
31
0
39
0
210
0
220
0
230
1
0
LINE
5
75
100
AcDbEntity
8
1
62
256
6
ByLayer
370
-1
48
1
60
0
100
AcDbLine
10
14.520925
20
-1.673435
30
0
11
14.777064
21
-1.69879
31
0
39
0
210
0
220
0
230
1
0
LINE
5
76
100
AcDbEntity
8
1
62
256
6
ByLayer
370
-1
48
1
60
0
100
AcDbLine
10
14.540003
20
-1.679845
30
0
11
14.798186
21
-1.705403
31
0
39
0
210
0
220
0
230
1
0
LINE
5
77
100
AcDbEntity
8
1
62
256
6
ByLayer
370
-1
48
1
60
0
100
AcDbLine
10
14.523247
20
-0.895483
30
0
11
14.542364
21
-0.889072
31
0
39
0
210
0
220
0
230
1
0
LINE
5
78
100
AcDbEntity
8
1
62
256
6
ByLayer
370
-1
48
1
60
0
100
AcDbLine
10
14.523247
20
-0.895483
30
0
11
14.779386
21
-0.920839
31
0
39
0
210
0
220
0
230
1
0
LINE
5
79
100
AcDbEntity
8
1
62
256
6
ByLayer
370
-1
48
1
60
0
100
AcDbLine
10
14.542364
20
-0.889072
30
0
11
14.800547
21
-0.91463
31
0
39
0
210
0
220
0
230
1
0
LINE
5
7A
100
AcDbEntity
8
1
62
256
6
ByLayer
370
-1
48
1
60
0
100
AcDbLine
10
13.474785
20
-2.756618
30
0
11
13.732968
21
-2.782176
31
0
39
0
210
0
220
0
230
1
0
LINE
5
7B
100
AcDbEntity
8
1
62
256
6
ByLayer
370
-1
48
1
60
0
100
AcDbLine
10
13.479433
20
0.167704
30
0
11
13.483574
21
0.187701
31
0
39
0
210
0
220
0
230
1
0
LINE
5
7C
100
AcDbEntity
8
1
62
256
6
ByLayer
370
-1
48
1
60
0
100
AcDbLine
10
13.474785
20
-2.756618
30
0
11
13.470764
21
-2.736621
31
0
39
0
210
0
220
0
230
1
0
LINE
5
7D
100
AcDbEntity
8
1
62
256
6
ByLayer
370
-1
48
1
60
0
100
AcDbLine
10
12.103993
20
-2.353828
30
0
11
12.297678
21
-2.373001
31
0
39
0
210
0
220
0
230
1
0
LINE
5
7E
100
AcDbEntity
8
1
62
256
6
ByLayer
370
-1
48
1
60
0
100
AcDbLine
10
13.479433
20
0.167704
30
0
11
13.735572
21
0.142348
31
0
39
0
210
0
220
0
230
1
0
LINE
5
7F
100
AcDbEntity
8
1
62
256
6
ByLayer
370
-1
48
1
60
0
100
AcDbLine
10
13.483574
20
0.187701
30
0
11
13.741757
21
0.162143
31
0
39
0
210
0
220
0
230
1
0
LINE
5
80
100
AcDbEntity
8
1
62
256
6
ByLayer
370
-1
48
1
60
0
100
AcDbLine
10
12.171157
20
-0.233475
30
0
11
12.304025
21
-0.246628
31
0
39
0
210
0
220
0
230
1
0
LINE
5
81
100
AcDbEntity
8
1
62
256
6
ByLayer
370
-1
48
1
60
0
100
AcDbLine
10
12.193266
20
-0.22356
30
0
11
12.291093
21
-0.233244
31
0
39
0
210
0
220
0
230
1
0
LINE
5
82
100
AcDbEntity
8
1
62
256
6
ByLayer
370
-1
48
1
60
0
100
AcDbLine
10
12.129198
20
-2.3714
30
0
11
12.284664
21
-2.38679
31
0
39
0
210
0
220
0
230
1
0
LINE
5
83
100
AcDbEntity
8
SK1
62
256
6
ByLayer
370
-1
48
1
60
0
100
AcDbLine
10
-2.338625
20
-5.9375
30
0
11
-103.88484
21
-5.9375
31
0
39
0
210
0
220
0
230
1
0
LINE
5
84
100
AcDbEntity
8
1
62
256
6
ByLayer
370
-1
48
1
60
0
100
AcDbLine
10
16.302695
20
3.403994
30
0
11
16.075997
21
3.403994
31
0
39
0
210
0
220
0
230
1
0
LINE
5
85
100
AcDbEntity
8
1
62
256
6
ByLayer
370
-1
48
1
60
0
100
AcDbLine
10
16.302695
20
3.403994
30
0
11
16.807675
21
3.239635
31
0
39
0
210
0
220
0
230
1
0
LINE
5
86
100
AcDbEntity
8
1
62
256
6
ByLayer
370
-1
48
1
60
0
100
AcDbLine
10
11.514998
20
6.339992
30
0
11
12.290136
21
6.339992
31
0
39
0
210
0
220
0
230
1
0
LINE
5
87
100
AcDbEntity
8
1
62
256
6
ByLayer
370
-1
48
1
60
0
100
AcDbLine
10
17.368533
20
1.913718
30
0
11
17.369181
21
2.21117
31
0
39
0
210
0
220
0
230
1
0
LINE
5
88
100
AcDbEntity
8
1
62
256
6
ByLayer
370
-1
48
1
60
0
100
AcDbLine
10
17.172259
20
3.07529
30
0
11
16.26198
21
3.07529
31
0
39
0
210
0
220
0
230
1
0
LINE
5
89
100
AcDbEntity
8
1
62
256
6
ByLayer
370
-1
48
1
60
0
100
AcDbLine
10
17.228704
20
2.971762
30
0
11
16.320587
21
2.971762
31
0
39
0
210
0
220
0
230
1
0
LINE
5
8A
100
AcDbEntity
8
1
62
256
6
ByLayer
370
-1
48
1
60
0
100
AcDbLine
10
17.281638
20
2.746181
30
0
11
16.448267
21
2.746181
31
0
39
0
210
0
220
0
230
1
0
LINE
5
8B
100
AcDbEntity
8
1
62
256
6
ByLayer
370
-1
48
1
60
0
100
AcDbLine
10
17.298774
20
2.640146
30
0
11
16.508178
21
2.640146
31
0
39
0
210
0
220
0
230
1
0
LINE
5
8C
100
AcDbEntity
8
1
62
256
6
ByLayer
370
-1
48
1
60
0
100
AcDbLine
10
17.3555
20
2.396492
30
0
11
16.646137
21
2.396492
31
0
39
0
210
0
220
0
230
1
0
LINE
5
8D
100
AcDbEntity
8
1
62
256
6
ByLayer
370
-1
48
1
60
0
100
AcDbLine
10
17.369181
20
2.21117
30
0
11
16.750945
21
2.21117
31
0
39
0
210
0
220
0
230
1
0
LINE
5
8E
100
AcDbEntity
8
1
62
256
6
ByLayer
370
-1
48
1
60
0
100
AcDbLine
10
17.296281
20
1.49504
30
0
11
17.148553
21
1.49504
31
0
39
0
210
0
220
0
230
1
0
LINE
5
8F
100
AcDbEntity
8
1
62
256
6
ByLayer
370
-1
48
1
60
0
100
AcDbLine
10
17.27869
20
1.391512
30
0
11
17.27829
21
1.20773
31
0
39
0
210
0
220
0
230
1
0
LINE
5
90
100
AcDbEntity
8
1
62
256
6
ByLayer
370
-1
48
1
60
0
100
AcDbLine
10
17.27869
20
1.391512
30
0
11
17.191764
21
1.391512
31
0
39
0
210
0
220
0
230
1
0
LINE
5
91
100
AcDbEntity
8
1
62
256
6
ByLayer
370
-1
48
1
60
0
100
AcDbLine
10
17.35405
20
1.73043
30
0
11
17.023082
21
1.73043
31
0
39
0
210
0
220
0
230
1
0
LINE
5
92
100
AcDbEntity
8
1
62
256
6
ByLayer
370
-1
48
1
60
0
100
AcDbLine
10
17.368533
20
1.913718
30
0
11
16.919364
21
1.913718
31
0
39
0
210
0
220
0
230
1
0
LINE
5
93
100
AcDbEntity
8
1
62
256
6
ByLayer
370
-1
48
1
60
0
100
AcDbLine
10
16.169007
20
3.239635
30
0
11
16.807675
21
3.239635
31
0
39
0
210
0
220
0
230
1
0
LINE
5
94
100
AcDbEntity
8
1
62
256
6
ByLayer
370
-1
48
1
60
0
100
AcDbLine
10
12.300273
20
6.503536
30
0
11
10.98969
21
6.503536
31
0
39
0
210
0
220
0
230
1
0
LINE
5
95
100
AcDbEntity
8
1
62
256
6
ByLayer
370
-1
48
1
60
0
100
AcDbLine
10
7.265568
20
-2.225368
30
0
11
7.551567
21
-1.900616
31
0
39
0
210
0
220
0
230
1
0
LINE
5
96
100
AcDbEntity
8
1
62
256
6
ByLayer
370
-1
48
1
60
0
100
AcDbLine
10
8.548328
20
-5.59972
30
0
11
8.754255
21
-5.476679
31
0
39
0
210
0
220
0
230
1
0
LINE
5
97
100
AcDbEntity
8
1
62
256
6
ByLayer
370
-1
48
1
60
0
100
AcDbLine
10
7.849898
20
-5.26298
30
0
11
8.42301
21
-5.599469
31
0
39
0
210
0
220
0
230
1
0
LINE
5
98
100
AcDbEntity
8
1
62
256
6
ByLayer
370
-1
48
1
60
0
100
AcDbLine
10
7.778892
20
-5.109091
30
0
11
7.785058
21
-5.162521
31
0
39
0
210
0
220
0
230
1
0
LINE
5
99
100
AcDbEntity
8
1
62
256
6
ByLayer
370
-1
48
1
60
0
100
AcDbLine
10
7.664839
20
-4.979738
30
0
11
7.714051
21
-5.008632
31
0
39
0
210
0
220
0
230
1
0
LINE
5
9A
100
AcDbEntity
8
1
62
256
6
ByLayer
370
-1
48
1
60
0
100
AcDbLine
10
6.842798
20
-5.395779
30
0
11
7.539522
21
-4.979487
31
0
39
0
210
0
220
0
230
1
0
LINE
5
9B
100
AcDbEntity
8
1
62
256
6
ByLayer
370
-1
48
1
60
0
100
AcDbLine
10
6.628829
20
-5.382961
30
0
11
6.650002
21
-5.395392
31
0
39
0
210
0
220
0
230
1
0
LINE
5
9C
100
AcDbEntity
8
1
62
256
6
ByLayer
370
-1
48
1
60
0
100
AcDbLine
10
6.50429
20
-3.548507
30
0
11
6.828068
21
-2.94254
31
0
39
0
210
0
220
0
230
1
0
LINE
5
9D
100
AcDbEntity
8
1
62
256
6
ByLayer
370
-1
48
1
60
0
100
AcDbLine
10
6.480726
20
-3.650106
30
0
11
6.527797
21
-5.210833
31
0
39
0
210
0
220
0
230
1
0
LINE
5
9E
100
AcDbEntity
8
1
62
256
6
ByLayer
370
-1
48
1
60
0
100
AcDbLine
10
7.639563
20
-1.770077
30
0
11
8.970333
21
0.55894
31
0
39
0
210
0
220
0
230
1
0
LINE
5
9F
100
AcDbEntity
8
1
62
256
6
ByLayer
370
-1
48
1
60
0
100
AcDbLine
10
12.354167
20
-6.063257
30
0
11
10.423762
21
-6.063257
31
0
39
0
210
0
220
0
230
1
0
LINE
5
A0
100
AcDbEntity
8
1
62
256
6
ByLayer
370
-1
48
1
60
0
100
AcDbLine
10
9.65808
20
-5.644692
30
0
11
10.325354
21
-6.036466
31
0
39
0
210
0
220
0
230
1
0
LINE
5
A1
100
AcDbEntity
8
1
62
256
6
ByLayer
370
-1
48
1
60
0
100
AcDbLine
10
6.952662
20
-3.770705
30
0
11
7.360343
21
-3.767316
31
0
39
0
210
0
220
0
230
1
0
LINE
5
A2
100
AcDbEntity
8
1
62
256
6
ByLayer
370
-1
48
1
60
0
100
AcDbLine
10
7.582095
20
-3.897513
30
0
11
7.792312
21
-4.263686
31
0
39
0
210
0
220
0
230
1
0
LINE
5
A3
100
AcDbEntity
8
1
62
256
6
ByLayer
370
-1
48
1
60
0
100
AcDbLine
10
6.588976
20
-4.02455
30
0
11
6.621498
21
-5.102903
31
0
39
0
210
0
220
0
230
1
0
LINE
5
A4
100
AcDbEntity
8
1
62
256
6
ByLayer
370
-1
48
1
60
0
100
AcDbLine
10
6.881643
20
-5.255641
30
0
11
7.775815
21
-4.721375
31
0
39
0
210
0
220
0
230
1
0
LINE
5
A5
100
AcDbEntity
8
1
62
256
6
ByLayer
370
-1
48
1
60
0
100
AcDbLine
10
13.076153
20
-4.704687
30
0
11
12.475443
21
-4.856647
31
0
39
0
210
0
220
0
230
1
0
LINE
5
A6
100
AcDbEntity
8
1
62
256
6
ByLayer
370
-1
48
1
60
0
100
AcDbLine
10
12.424175
20
-5.475176
30
0
11
12.444115
21
-6.062688
31
0
39
0
210
0
220
0
230
1
0
LINE
5
A7
100
AcDbEntity
8
1
62
256
6
ByLayer
370
-1
48
1
60
0
100
AcDbLine
10
9.438085
20
-5.521854
30
0
11
7.551567
21
-1.900616
31
0
39
0
210
0
220
0
230
1
0
LINE
5
A8
100
AcDbEntity
8
1
62
256
6
ByLayer
370
-1
48
1
60
0
100
AcDbLine
10
9.017747
20
0.653469
30
0
11
9.926739
21
0.586773
31
0
39
0
210
0
220
0
230
1
0
LINE
5
A9
100
AcDbEntity
8
1
62
256
6
ByLayer
370
-1
48
1
60
0
100
AcDbLine
10
9.925816
20
0.488832
30
0
11
8.970333
21
0.55894
31
0
39
0
210
0
220
0
230
1
0
LINE
5
AA
100
AcDbEntity
8
1
62
256
6
ByLayer
370
-1
48
1
60
0
100
AcDbLine
10
7.639563
20
-1.770077
30
0
11
9.65808
21
-5.644692
31
0
39
0
210
0
220
0
230
1
0
LINE
5
AB
100
AcDbEntity
8
1
62
256
6
ByLayer
370
-1
48
1
60
0
100
AcDbLine
10
12.354167
20
-6.063257
30
0
11
12.33435
21
-5.479378
31
0
39
0
210
0
220
0
230
1
0
LINE
5
AC
100
AcDbEntity
8
1
62
256
6
ByLayer
370
-1
48
1
60
0
100
AcDbLine
10
12.469702
20
-4.831413
30
0
11
13.070412
21
-4.679453
31
0
39
0
210
0
220
0
230
1
0
LINE
5
AD
100
AcDbEntity
8
1
62
256
6
ByLayer
370
-1
48
1
60
0
100
AcDbLine
10
7.265568
20
-2.225368
30
0
11
7.736039
21
-3.128454
31
0
39
0
210
0
220
0
230
1
0
LINE
5
AE
100
AcDbEntity
8
1
62
256
6
ByLayer
370
-1
48
1
60
0
100
AcDbLine
10
7.736039
20
-3.128454
30
0
11
9.073923
21
-5.34523
31
0
39
0
210
0
220
0
230
1
0
LINE
5
AF
100
AcDbEntity
8
1
62
256
6
ByLayer
370
-1
48
1
60
0
100
AcDbLine
10
7.442587
20
-3.30334
30
0
11
6.828068
21
-2.94254
31
0
39
0
210
0
220
0
230
1
0
LINE
5
B0
100
AcDbEntity
8
1
62
256
6
ByLayer
370
-1
48
1
60
0
100
AcDbLine
10
8.754255
20
-5.476679
30
0
11
7.442587
21
-3.30334
31
0
39
0
210
0
220
0
230
1
0
LINE
5
B1
100
AcDbEntity
8
1
62
256
6
ByLayer
370
-1
48
1
60
0
100
AcDbLine
10
6.854718
20
-2.894346
30
0
11
7.469236
21
-3.255146
31
0
39
0
210
0
220
0
230
1
0
LINE
5
B2
100
AcDbEntity
8
1
62
256
6
ByLayer
370
-1
48
1
60
0
100
AcDbLine
10
7.469236
20
-3.255146
30
0
11
7.077842
21
-2.50385
31
0
39
0
210
0
220
0
230
1
0
LINE
5
B3
100
AcDbEntity
8
1
62
256
6
ByLayer
370
-1
48
1
60
0
100
AcDbLine
10
12.730365
20
-6.059765
30
0
11
12.475443
21
-4.856647
31
0
39
0
210
0
220
0
230
1
0
LINE
5
B4
100
AcDbEntity
8
1
62
256
6
ByLayer
370
-1
48
1
60
0
100
AcDbLine
10
12.548303
20
-6.061005
30
0
11
12.424175
21
-5.475176
31
0
39
0
210
0
220
0
230
1
0
LINE
5
B5
100
AcDbEntity
8
1
62
256
6
ByLayer
370
-1
48
1
60
0
100
AcDbLine
10
13.280262
20
-5.667994
30
0
11
13.076153
21
-4.704687
31
0
39
0
210
0
220
0
230
1
0
LINE
5
B6
100
AcDbEntity
8
1
62
256
6
ByLayer
370
-1
48
1
60
0
100
AcDbLine
10
9.088531
20
0.825726
30
0
11
9.926739
21
0.586773
31
0
39
0
210
0
220
0
230
1
0
LINE
5
B7
100
AcDbEntity
8
1
62
256
6
ByLayer
370
-1
48
1
60
0
100
AcDbLine
10
9.176148
20
0.998791
30
0
11
9.571174
21
0.886179
31
0
39
0
210
0
220
0
230
1
0
LINE
5
B8
100
AcDbEntity
8
1
62
256
6
ByLayer
370
-1
48
1
60
0
100
AcDbLine
10
6.95441
20
-4.758133
30
0
11
7.550623
21
-4.401896
31
0
39
0
210
0
220
0
230
1
0
LINE
5
B9
100
AcDbEntity
8
1
62
256
6
ByLayer
370
-1
48
1
60
0
100
AcDbLine
10
6.932724
20
-4.039112
30
0
11
6.95441
21
-4.758133
31
0
39
0
210
0
220
0
230
1
0
LINE
5
BA
100
AcDbEntity
8
1
62
256
6
ByLayer
370
-1
48
1
60
0
100
AcDbLine
10
6.702985
20
-5.053568
30
0
11
6.850496
21
-4.754861
31
0
39
0
210
0
220
0
230
1
0
LINE
5
BB
100
AcDbEntity
8
1
62
256
6
ByLayer
370
-1
48
1
60
0
100
AcDbLine
10
6.850496
20
-4.754861
30
0
11
6.828811
21
-4.03584
31
0
39
0
210
0
220
0
230
1
0
LINE
5
BC
100
AcDbEntity
8
1
62
256
6
ByLayer
370
-1
48
1
60
0
100
AcDbLine
10
7.016956
20
-4.852595
30
0
11
6.869446
21
-5.151301
31
0
39
0
210
0
220
0
230
1
0
LINE
5
BD
100
AcDbEntity
8
1
62
256
6
ByLayer
370
-1
48
1
60
0
100
AcDbLine
10
7.61317
20
-4.496358
30
0
11
7.016956
21
-4.852595
31
0
39
0
210
0
220
0
230
1
0
LINE
5
BE
100
AcDbEntity
8
1
62
256
6
ByLayer
370
-1
48
1
60
0
100
AcDbLine
10
6.869446
20
-5.151301
30
0
11
6.881643
21
-5.255641
31
0
39
0
210
0
220
0
230
1
0
LINE
5
BF
100
AcDbEntity
8
1
62
256
6
ByLayer
370
-1
48
1
60
0
100
AcDbLine
10
6.621498
20
-5.102903
30
0
11
6.702985
21
-5.053568
31
0
39
0
210
0
220
0
230
1
0
LINE
5
C0
100
AcDbEntity
8
1
62
256
6
ByLayer
370
-1
48
1
60
0
100
AcDbLine
10
6.828811
20
-4.03584
30
0
11
6.588976
21
-4.02455
31
0
39
0
210
0
220
0
230
1
0
LINE
5
C1
100
AcDbEntity
8
1
62
256
6
ByLayer
370
-1
48
1
60
0
100
AcDbLine
10
7.550623
20
-4.401896
30
0
11
7.340405
21
-4.035723
31
0
39
0
210
0
220
0
230
1
0
LINE
5
C2
100
AcDbEntity
8
1
62
256
6
ByLayer
370
-1
48
1
60
0
100
AcDbLine
10
7.340405
20
-4.035723
30
0
11
6.932724
21
-4.039112
31
0
39
0
210
0
220
0
230
1
0
LINE
5
C3
100
AcDbEntity
8
1
62
256
6
ByLayer
370
-1
48
1
60
0
100
AcDbLine
10
7.775815
20
-4.721375
30
0
11
7.61317
21
-4.496358
31
0
39
0
210
0
220
0
230
1
0
LINE
5
C4
100
AcDbEntity
8
1
62
256
6
ByLayer
370
-1
48
1
60
0
100
AcDbLine
10
15.407287
20
4.404229
30
0
11
15.69146
21
4.062141
31
0
39
0
210
0
220
0
230
1
0
LINE
5
C5
100
AcDbEntity
8
1
62
256
6
ByLayer
370
-1
48
1
60
0
100
AcDbLine
10
11.912742
20
4.968643
30
0
11
11.903896
21
4.721486
31
0
39
0
210
0
220
0
230
1
0
LINE
5
C6
100
AcDbEntity
8
1
62
256
6
ByLayer
370
-1
48
1
60
0
100
AcDbLine
10
12.553978
20
5.416658
30
0
11
11.979024
21
5.080169
31
0
39
0
210
0
220
0
230
1
0
LINE
5
C7
100
AcDbEntity
8
1
62
256
6
ByLayer
370
-1
48
1
60
0
100
AcDbLine
10
12.716161
20
5.40028
30
0
11
12.6696
21
5.422439
31
0
39
0
210
0
220
0
230
1
0
LINE
5
C8
100
AcDbEntity
8
1
62
256
6
ByLayer
370
-1
48
1
60
0
100
AcDbLine
10
12.881153
20
5.434955
30
0
11
12.831783
21
5.406061
31
0
39
0
210
0
220
0
230
1
0
LINE
5
C9
100
AcDbEntity
8
1
62
256
6
ByLayer
370
-1
48
1
60
0
100
AcDbLine
10
12.977366
20
6.382696
30
0
11
12.947436
21
5.546481
31
0
39
0
210
0
220
0
230
1
0
LINE
5
CA
100
AcDbEntity
8
1
62
256
6
ByLayer
370
-1
48
1
60
0
100
AcDbLine
10
13.100579
20
6.566705
30
0
11
13.079339
21
6.554274
31
0
39
0
210
0
220
0
230
1
0
LINE
5
CB
100
AcDbEntity
8
1
62
256
6
ByLayer
370
-1
48
1
60
0
100
AcDbLine
10
14.653255
20
5.728274
30
0
11
14.973726
21
5.126184
31
0
39
0
210
0
220
0
230
1
0
LINE
5
CC
100
AcDbEntity
8
1
62
256
6
ByLayer
370
-1
48
1
60
0
100
AcDbLine
10
14.583324
20
5.80185
30
0
11
13.293379
21
6.567641
31
0
39
0
210
0
220
0
230
1
0
LINE
5
CD
100
AcDbEntity
8
1
62
256
6
ByLayer
370
-1
48
1
60
0
100
AcDbLine
10
15.778736
20
3.929288
30
0
11
17.096756
21
1.600271
31
0
39
0
210
0
220
0
230
1
0
LINE
5
CE
100
AcDbEntity
8
1
62
256
6
ByLayer
370
-1
48
1
60
0
100
AcDbLine
10
9.748086
20
1.920107
30
0
11
10.717934
21
3.617467
31
0
39
0
210
0
220
0
230
1
0
LINE
5
CF
100
AcDbEntity
8
1
62
256
6
ByLayer
370
-1
48
1
60
0
100
AcDbLine
10
11.459647
20
4.082437
30
0
11
10.790228
21
3.690663
31
0
39
0
210
0
220
0
230
1
0
LINE
5
D0
100
AcDbEntity
8
1
62
256
6
ByLayer
370
-1
48
1
60
0
100
AcDbLine
10
14.236719
20
5.443777
30
0
11
14.0245
21
5.078786
31
0
39
0
210
0
220
0
230
1
0
LINE
5
D1
100
AcDbEntity
8
1
62
256
6
ByLayer
370
-1
48
1
60
0
100
AcDbLine
10
13.802035
20
4.94859
30
0
11
13.39437
21
4.950797
31
0
39
0
210
0
220
0
230
1
0
LINE
5
D2
100
AcDbEntity
8
1
62
256
6
ByLayer
370
-1
48
1
60
0
100
AcDbLine
10
14.22272
20
5.89919
30
0
11
13.331459
21
6.428298
31
0
39
0
210
0
220
0
230
1
0
LINE
5
D3
100
AcDbEntity
8
1
62
256
6
ByLayer
370
-1
48
1
60
0
100
AcDbLine
10
13.070478
20
6.27556
30
0
11
13.032067
21
5.202366
31
0
39
0
210
0
220
0
230
1
0
LINE
5
D4
100
AcDbEntity
8
1
62
256
6
ByLayer
370
-1
48
1
60
0
100
AcDbLine
10
10.543565
20
0.608973
30
0
11
10.715746
21
1.212777
31
0
39
0
210
0
220
0
230
1
0
LINE
5
D5
100
AcDbEntity
8
1
62
256
6
ByLayer
370
-1
48
1
60
0
100
AcDbLine
10
10.204626
20
1.561263
30
0
11
9.693471
21
1.836072
31
0
39
0
210
0
220
0
230
1
0
LINE
5
D6
100
AcDbEntity
8
1
62
256
6
ByLayer
370
-1
48
1
60
0
100
AcDbLine
10
11.654813
20
4.205274
30
0
11
15.69146
21
4.062141
31
0
39
0
210
0
220
0
230
1
0
LINE
5
D7
100
AcDbEntity
8
1
62
256
6
ByLayer
370
-1
48
1
60
0
100
AcDbLine
10
17.143656
20
1.506881
30
0
11
16.630082
21
0.740813
31
0
39
0
210
0
220
0
230
1
0
LINE
5
D8
100
AcDbEntity
8
1
62
256
6
ByLayer
370
-1
48
1
60
0
100
AcDbLine
10
16.556914
20
0.795023
30
0
11
17.096756
21
1.600271
31
0
39
0
210
0
220
0
230
1
0
LINE
5
D9
100
AcDbEntity
8
1
62
256
6
ByLayer
370
-1
48
1
60
0
100
AcDbLine
10
15.778736
20
3.929288
30
0
11
11.459647
21
4.082437
31
0
39
0
210
0
220
0
230
1
0
LINE
5
DA
100
AcDbEntity
8
1
62
256
6
ByLayer
370
-1
48
1
60
0
100
AcDbLine
10
9.748086
20
1.920107
30
0
11
10.25608
21
1.646998
31
0
39
0
210
0
220
0
230
1
0
LINE
5
DB
100
AcDbEntity
8
1
62
256
6
ByLayer
370
-1
48
1
60
0
100
AcDbLine
10
10.74078
20
1.205563
30
0
11
10.568598
21
0.601759
31
0
39
0
210
0
220
0
230
1
0
LINE
5
DC
100
AcDbEntity
8
1
62
256
6
ByLayer
370
-1
48
1
60
0
100
AcDbLine
10
15.407287
20
4.404229
30
0
11
14.400603
21
4.439924
31
0
39
0
210
0
220
0
230
1
0
LINE
5
DD
100
AcDbEntity
8
1
62
256
6
ByLayer
370
-1
48
1
60
0
100
AcDbLine
10
14.400603
20
4.439924
30
0
11
11.898233
21
4.395149
31
0
39
0
210
0
220
0
230
1
0
LINE
5
DE
100
AcDbEntity
8
1
62
256
6
ByLayer
370
-1
48
1
60
0
100
AcDbLine
10
14.357232
20
4.765384
30
0
11
14.973726
21
5.126184
31
0
39
0
210
0
220
0
230
1
0
LINE
5
DF
100
AcDbEntity
8
1
62
256
6
ByLayer
370
-1
48
1
60
0
100
AcDbLine
10
11.903896
20
4.721486
30
0
11
14.357232
21
4.765384
31
0
39
0
210
0
220
0
230
1
0
LINE
5
E0
100
AcDbEntity
8
1
62
256
6
ByLayer
370
-1
48
1
60
0
100
AcDbLine
10
15.000112
20
5.078144
30
0
11
14.383618
21
4.717344
31
0
39
0
210
0
220
0
230
1
0
LINE
5
E1
100
AcDbEntity
8
1
62
256
6
ByLayer
370
-1
48
1
60
0
100
AcDbLine
10
14.383618
20
4.717344
30
0
11
15.221099
21
4.687648
31
0
39
0
210
0
220
0
230
1
0
LINE
5
E2
100
AcDbEntity
8
1
62
256
6
ByLayer
370
-1
48
1
60
0
100
AcDbLine
10
9.501283
20
1.558992
30
0
11
10.715746
21
1.212777
31
0
39
0
210
0
220
0
230
1
0
LINE
5
E3
100
AcDbEntity
8
1
62
256
6
ByLayer
370
-1
48
1
60
0
100
AcDbLine
10
9.613273
20
1.729844
30
0
11
10.204626
21
1.561263
31
0
39
0
210
0
220
0
230
1
0
LINE
5
E4
100
AcDbEntity
8
1
62
256
6
ByLayer
370
-1
48
1
60
0
100
AcDbLine
10
9.571174
20
0.886179
30
0
11
10.543565
21
0.608973
31
0
39
0
210
0
220
0
230
1
0
LINE
5
E5
100
AcDbEntity
8
1
62
256
6
ByLayer
370
-1
48
1
60
0
100
AcDbLine
10
17.21351
20
1.339394
30
0
11
16.630082
21
0.740813
31
0
39
0
210
0
220
0
230
1
0
LINE
5
E6
100
AcDbEntity
8
1
62
256
6
ByLayer
370
-1
48
1
60
0
100
AcDbLine
10
17.300185
20
1.168275
30
0
11
17.02523
21
0.886179
31
0
39
0
210
0
220
0
230
1
0
LINE
5
E7
100
AcDbEntity
8
1
62
256
6
ByLayer
370
-1
48
1
60
0
100
AcDbLine
10
13.40152
20
5.937312
30
0
11
13.375908
21
5.221731
31
0
39
0
210
0
220
0
230
1
0
LINE
5
E8
100
AcDbEntity
8
1
62
256
6
ByLayer
370
-1
48
1
60
0
100
AcDbLine
10
13.995793
20
5.584515
30
0
11
13.40152
21
5.937312
31
0
39
0
210
0
220
0
230
1
0
LINE
5
E9
100
AcDbEntity
8
1
62
256
6
ByLayer
370
-1
48
1
60
0
100
AcDbLine
10
13.318695
20
6.325555
30
0
11
13.464582
21
6.030847
31
0
39
0
210
0
220
0
230
1
0
LINE
5
EA
100
AcDbEntity
8
1
62
256
6
ByLayer
370
-1
48
1
60
0
100
AcDbLine
10
13.464582
20
6.030847
30
0
11
14.058854
21
5.67805
31
0
39
0
210
0
220
0
230
1
0
LINE
5
EB
100
AcDbEntity
8
1
62
256
6
ByLayer
370
-1
48
1
60
0
100
AcDbLine
10
13.297586
20
5.933114
30
0
11
13.1517
21
6.227822
31
0
39
0
210
0
220
0
230
1
0
LINE
5
EC
100
AcDbEntity
8
1
62
256
6
ByLayer
370
-1
48
1
60
0
100
AcDbLine
10
13.271974
20
5.217533
30
0
11
13.297586
21
5.933114
31
0
39
0
210
0
220
0
230
1
0
LINE
5
ED
100
AcDbEntity
8
1
62
256
6
ByLayer
370
-1
48
1
60
0
100
AcDbLine
10
13.1517
20
6.227822
30
0
11
13.070478
21
6.27556
31
0
39
0
210
0
220
0
230
1
0
LINE
5
EE
100
AcDbEntity
8
1
62
256
6
ByLayer
370
-1
48
1
60
0
100
AcDbLine
10
13.331459
20
6.428298
30
0
11
13.318695
21
6.325555
31
0
39
0
210
0
220
0
230
1
0
LINE
5
EF
100
AcDbEntity
8
1
62
256
6
ByLayer
370
-1
48
1
60
0
100
AcDbLine
10
14.058854
20
5.67805
30
0
11
14.22272
21
5.89919
31
0
39
0
210
0
220
0
230
1
0
LINE
5
F0
100
AcDbEntity
8
1
62
256
6
ByLayer
370
-1
48
1
60
0
100
AcDbLine
10
13.375908
20
5.221731
30
0
11
13.783574
21
5.219524
31
0
39
0
210
0
220
0
230
1
0
LINE
5
F1
100
AcDbEntity
8
1
62
256
6
ByLayer
370
-1
48
1
60
0
100
AcDbLine
10
13.783574
20
5.219524
30
0
11
13.995793
21
5.584515
31
0
39
0
210
0
220
0
230
1
0
LINE
5
F2
100
AcDbEntity
8
1
62
256
6
ByLayer
370
-1
48
1
60
0
100
AcDbLine
10
13.032067
20
5.202366
30
0
11
13.271974
21
5.217533
31
0
39
0
210
0
220
0
230
1
0
LINE
5
F3
100
AcDbEntity
8
1
62
256
6
ByLayer
370
-1
48
1
60
0
100
AcDbLine
10
12.548303
20
-6.061005
30
0
11
12.444115
21
-6.062688
31
0
39
0
210
0
220
0
230
1
0
LINE
5
F4
100
AcDbEntity
8
1
62
256
6
ByLayer
370
-1
48
1
60
0
100
AcDbLine
10
7.077842
20
-2.50385
30
0
11
6.854718
21
-2.894346
31
0
39
0
210
0
220
0
230
1
0
LINE
5
F5
100
AcDbEntity
8
1
62
256
6
ByLayer
370
-1
48
1
60
0
100
AcDbLine
10
9.017747
20
0.653469
30
0
11
9.088531
21
0.825726
31
0
39
0
210
0
220
0
230
1
0
LINE
5
F6
100
AcDbEntity
8
1
62
256
6
ByLayer
370
-1
48
1
60
0
100
AcDbLine
10
9.123832
20
-5.361363
30
0
11
9.438085
21
-5.521854
31
0
39
0
210
0
220
0
230
1
0
LINE
5
F7
100
AcDbEntity
8
1
62
256
6
ByLayer
370
-1
48
1
60
0
100
AcDbLine
10
5.939531
20
-5.320391
30
0
11
5.960704
21
-5.332822
31
0
39
0
210
0
220
0
230
1
0
LINE
5
F8
100
AcDbEntity
8
1
62
256
6
ByLayer
370
-1
48
1
60
0
100
AcDbLine
10
8.743937
20
-5.482858
30
0
11
9.570079
21
-5.967907
31
0
39
0
210
0
220
0
230
1
0
LINE
5
F9
100
AcDbEntity
8
1
62
256
6
ByLayer
370
-1
48
1
60
0
100
AcDbLine
10
7.183052
20
-5.202449
30
0
11
7.756164
21
-5.538937
31
0
39
0
210
0
220
0
230
1
0
LINE
5
FA
100
AcDbEntity
8
1
62
256
6
ByLayer
370
-1
48
1
60
0
100
AcDbLine
10
7.174986
20
-5.197295
30
0
11
7.183052
21
-5.202449
31
0
39
0
210
0
220
0
230
1
0
LINE
5
FB
100
AcDbEntity
8
1
62
256
6
ByLayer
370
-1
48
1
60
0
100
AcDbLine
10
10.402205
20
3.646126
30
0
11
10.717934
21
3.617467
31
0
39
0
210
0
220
0
230
1
0
LINE
5
FC
100
AcDbEntity
8
1
62
256
6
ByLayer
370
-1
48
1
60
0
100
AcDbLine
10
10.790228
20
3.690663
30
0
11
10.44555
21
3.72195
31
0
39
0
210
0
220
0
230
1
0
LINE
5
FD
100
AcDbEntity
8
1
62
256
6
ByLayer
370
-1
48
1
60
0
100
AcDbLine
10
16.971753
20
-6.053432
30
0
11
16.688041
21
-6.0621
31
0
39
0
210
0
220
0
230
1
0
LINE
5
FE
100
AcDbEntity
8
1
62
256
6
ByLayer
370
-1
48
1
60
0
100
AcDbLine
10
19.237051
20
-3.248352
30
0
11
19.020337
21
-3.122455
31
0
39
0
210
0
220
0
230
1
0
LINE
5
FF
100
AcDbEntity
8
1
62
256
6
ByLayer
370
-1
48
1
60
0
100
AcDbLine
10
19.300146
20
-4.033643
30
0
11
19.301988
21
-3.360665
31
0
39
0
210
0
220
0
230
1
0
LINE
5
100
100
AcDbEntity
8
1
62
256
6
ByLayer
370
-1
48
1
60
0
100
AcDbLine
10
19.199939
20
-4.170335
30
0
11
19.244344
21
-4.139427
31
0
39
0
210
0
220
0
230
1
0
LINE
5
101
100
AcDbEntity
8
1
62
256
6
ByLayer
370
-1
48
1
60
0
100
AcDbLine
10
19.143979
20
-4.333907
30
0
11
19.144137
21
-4.276119
31
0
39
0
210
0
220
0
230
1
0
LINE
5
102
100
AcDbEntity
8
1
62
256
6
ByLayer
370
-1
48
1
60
0
100
AcDbLine
10
19.942134
20
-4.872172
30
0
11
19.208915
21
-4.44622
31
0
39
0
210
0
220
0
230
1
0
LINE
5
103
100
AcDbEntity
8
1
62
256
6
ByLayer
370
-1
48
1
60
0
100
AcDbLine
10
20.041968
20
-5.069823
30
0
11
20.042036
21
-5.044961
31
0
39
0
210
0
220
0
230
1
0
LINE
5
104
100
AcDbEntity
8
1
62
256
6
ByLayer
370
-1
48
1
60
0
100
AcDbLine
10
18.472079
20
-6.052979
30
0
11
17.763762
21
-6.051041
31
0
39
0
210
0
220
0
230
1
0
LINE
5
105
100
AcDbEntity
8
1
62
256
6
ByLayer
370
-1
48
1
60
0
100
AcDbLine
10
18.574864
20
-6.025799
30
0
11
19.941121
21
-5.242063
31
0
39
0
210
0
220
0
230
1
0
LINE
5
106
100
AcDbEntity
8
1
62
256
6
ByLayer
370
-1
48
1
60
0
100
AcDbLine
10
16.551012
20
-6.063257
30
0
11
13.902222
21
-6.063257
31
0
39
0
210
0
220
0
230
1
0
LINE
5
107
100
AcDbEntity
8
1
62
256
6
ByLayer
370
-1
48
1
60
0
100
AcDbLine
10
17.867057
20
0.239104
30
0
11
18.827614
21
-1.458256
31
0
39
0
210
0
220
0
230
1
0
LINE
5
108
100
AcDbEntity
8
1
62
256
6
ByLayer
370
-1
48
1
60
0
100
AcDbLine
10
18.851584
20
-2.341791
30
0
11
18.853728
21
-1.558243
31
0
39
0
210
0
220
0
230
1
0
LINE
5
109
100
AcDbEntity
8
1
62
256
6
ByLayer
370
-1
48
1
60
0
100
AcDbLine
10
18.436939
20
-5.545984
30
0
11
18.22194
21
-5.182609
31
0
39
0
210
0
220
0
230
1
0
LINE
5
10A
100
AcDbEntity
8
1
62
256
6
ByLayer
370
-1
48
1
60
0
100
AcDbLine
10
18.222653
20
-4.922216
30
0
11
18.439638
21
-4.560023
31
0
39
0
210
0
220
0
230
1
0
LINE
5
10B
100
AcDbEntity
8
1
62
256
6
ByLayer
370
-1
48
1
60
0
100
AcDbLine
10
18.852238
20
-5.750966
30
0
11
19.796226
21
-5.209459
31
0
39
0
210
0
220
0
230
1
0
LINE
5
10C
100
AcDbEntity
8
1
62
256
6
ByLayer
370
-1
48
1
60
0
100
AcDbLine
10
19.797062
20
-4.903983
30
0
11
18.856053
21
-4.357317
31
0
39
0
210
0
220
0
230
1
0
LINE
5
10D
100
AcDbEntity
8
1
62
256
6
ByLayer
370
-1
48
1
60
0
100
AcDbLine
10
16.348406
20
0.191776
30
0
11
16.776934
21
-0.260068
31
0
39
0
210
0
220
0
230
1
0
LINE
5
10E
100
AcDbEntity
8
1
62
256
6
ByLayer
370
-1
48
1
60
0
100
AcDbLine
10
17.321692
20
0.011574
30
0
11
17.812906
21
0.324277
31
0
39
0
210
0
220
0
230
1
0
LINE
5
10F
100
AcDbEntity
8
1
62
256
6
ByLayer
370
-1
48
1
60
0
100
AcDbLine
10
18.83817
20
-2.583995
30
0
11
16.688041
21
-6.0621
31
0
39
0
210
0
220
0
230
1
0
LINE
5
110
100
AcDbEntity
8
1
62
256
6
ByLayer
370
-1
48
1
60
0
100
AcDbLine
10
13.789089
20
-6.062688
30
0
11
13.393671
21
-5.229925
31
0
39
0
210
0
220
0
230
1
0
LINE
5
111
100
AcDbEntity
8
1
62
256
6
ByLayer
370
-1
48
1
60
0
100
AcDbLine
10
13.48658
20
-5.187901
30
0
11
13.902222
21
-6.063257
31
0
39
0
210
0
220
0
230
1
0
LINE
5
112
100
AcDbEntity
8
1
62
256
6
ByLayer
370
-1
48
1
60
0
100
AcDbLine
10
16.551012
20
-6.063257
30
0
11
18.851584
21
-2.341791
31
0
39
0
210
0
220
0
230
1
0
LINE
5
113
100
AcDbEntity
8
1
62
256
6
ByLayer
370
-1
48
1
60
0
100
AcDbLine
10
17.867057
20
0.239104
30
0
11
17.37888
21
-0.071666
31
0
39
0
210
0
220
0
230
1
0
LINE
5
114
100
AcDbEntity
8
1
62
256
6
ByLayer
370
-1
48
1
60
0
100
AcDbLine
10
16.758828
20
-0.278196
30
0
11
16.3303
21
0.173648
31
0
39
0
210
0
220
0
230
1
0
LINE
5
115
100
AcDbEntity
8
1
62
256
6
ByLayer
370
-1
48
1
60
0
100
AcDbLine
10
16.971753
20
-6.053432
30
0
11
17.507965
21
-5.186042
31
0
39
0
210
0
220
0
230
1
0
LINE
5
116
100
AcDbEntity
8
1
62
256
6
ByLayer
370
-1
48
1
60
0
100
AcDbLine
10
17.507965
20
-5.186042
30
0
11
18.78764
21
-2.934947
31
0
39
0
210
0
220
0
230
1
0
LINE
5
117
100
AcDbEntity
8
1
62
256
6
ByLayer
370
-1
48
1
60
0
100
AcDbLine
10
17.765737
20
-5.329441
30
0
11
17.763762
21
-6.051041
31
0
39
0
210
0
220
0
230
1
0
LINE
5
118
100
AcDbEntity
8
1
62
256
6
ByLayer
370
-1
48
1
60
0
100
AcDbLine
10
19.020337
20
-3.122455
30
0
11
17.765737
21
-5.329441
31
0
39
0
210
0
220
0
230
1
0
LINE
5
119
100
AcDbEntity
8
1
62
256
6
ByLayer
370
-1
48
1
60
0
100
AcDbLine
10
17.708194
20
-6.050964
30
0
11
17.710169
21
-5.329364
31
0
39
0
210
0
220
0
230
1
0
LINE
5
11A
100
AcDbEntity
8
1
62
256
6
ByLayer
370
-1
48
1
60
0
100
AcDbLine
10
17.710169
20
-5.329364
30
0
11
17.264084
21
-6.050964
31
0
39
0
210
0
220
0
230
1
0
LINE
5
11B
100
AcDbEntity
8
1
62
256
6
ByLayer
370
-1
48
1
60
0
100
AcDbLine
10
17.622251
20
0.607203
30
0
11
16.776934
21
-0.260068
31
0
39
0
210
0
220
0
230
1
0
LINE
5
11C
100
AcDbEntity
8
1
62
256
6
ByLayer
370
-1
48
1
60
0
100
AcDbLine
10
17.733298
20
0.433871
30
0
11
17.321692
21
0.011574
31
0
39
0
210
0
220
0
230
1
0
LINE
5
11D
100
AcDbEntity
8
1
62
256
6
ByLayer
370
-1
48
1
60
0
100
AcDbLine
10
17.02523
20
0.886179
30
0
11
16.348406
21
0.191776
31
0
39
0
210
0
220
0
230
1
0
LINE
5
11E
100
AcDbEntity
8
1
62
256
6
ByLayer
370
-1
48
1
60
0
100
AcDbLine
10
13.569615
20
-6.060302
30
0
11
13.393671
21
-5.229925
31
0
39
0
210
0
220
0
230
1
0
LINE
5
11F
100
AcDbEntity
8
1
62
256
6
ByLayer
370
-1
48
1
60
0
100
AcDbLine
10
13.36318
20
-6.05933
30
0
11
13.280262
21
-5.667994
31
0
39
0
210
0
220
0
230
1
0
LINE
5
120
100
AcDbEntity
8
1
62
256
6
ByLayer
370
-1
48
1
60
0
100
AcDbLine
10
19.285461
20
-5.053459
30
0
11
18.658018
21
-4.688955
31
0
39
0
210
0
220
0
230
1
0
LINE
5
121
100
AcDbEntity
8
1
62
256
6
ByLayer
370
-1
48
1
60
0
100
AcDbLine
10
18.656032
20
-5.414524
30
0
11
19.285461
21
-5.053459
31
0
39
0
210
0
220
0
230
1
0
LINE
5
122
100
AcDbEntity
8
1
62
256
6
ByLayer
370
-1
48
1
60
0
100
AcDbLine
10
19.701095
20
-5.153655
30
0
11
19.341626
21
-5.151656
31
0
39
0
210
0
220
0
230
1
0
LINE
5
123
100
AcDbEntity
8
1
62
256
6
ByLayer
370
-1
48
1
60
0
100
AcDbLine
10
19.341626
20
-5.151656
30
0
11
18.712197
21
-5.51272
31
0
39
0
210
0
220
0
230
1
0
LINE
5
124
100
AcDbEntity
8
1
62
256
6
ByLayer
370
-1
48
1
60
0
100
AcDbLine
10
19.342161
20
-4.956189
30
0
11
19.70163
21
-4.958189
31
0
39
0
210
0
220
0
230
1
0
LINE
5
125
100
AcDbEntity
8
1
62
256
6
ByLayer
370
-1
48
1
60
0
100
AcDbLine
10
18.714718
20
-4.591685
30
0
11
19.342161
21
-4.956189
31
0
39
0
210
0
220
0
230
1
0
LINE
5
126
100
AcDbEntity
8
1
62
256
6
ByLayer
370
-1
48
1
60
0
100
AcDbLine
10
19.70163
20
-4.958189
30
0
11
19.797062
21
-4.903983
31
0
39
0
210
0
220
0
230
1
0
LINE
5
127
100
AcDbEntity
8
1
62
256
6
ByLayer
370
-1
48
1
60
0
100
AcDbLine
10
19.796226
20
-5.209459
30
0
11
19.701095
21
-5.153655
31
0
39
0
210
0
220
0
230
1
0
LINE
5
128
100
AcDbEntity
8
1
62
256
6
ByLayer
370
-1
48
1
60
0
100
AcDbLine
10
18.712197
20
-5.51272
30
0
11
18.852238
21
-5.750966
31
0
39
0
210
0
220
0
230
1
0
LINE
5
129
100
AcDbEntity
8
1
62
256
6
ByLayer
370
-1
48
1
60
0
100
AcDbLine
10
18.658018
20
-4.688955
30
0
11
18.441033
21
-5.051148
31
0
39
0
210
0
220
0
230
1
0
LINE
5
12A
100
AcDbEntity
8
1
62
256
6
ByLayer
370
-1
48
1
60
0
100
AcDbLine
10
18.441033
20
-5.051148
30
0
11
18.656032
21
-5.414524
31
0
39
0
210
0
220
0
230
1
0
LINE
5
12B
100
AcDbEntity
8
1
62
256
6
ByLayer
370
-1
48
1
60
0
100
AcDbLine
10
18.856053
20
-4.357317
30
0
11
18.714718
21
-4.591685
31
0
39
0
210
0
220
0
230
1
0
LINE
5
12C
100
AcDbEntity
8
1
62
256
6
ByLayer
370
-1
48
1
60
0
100
AcDbLine
10
9.176148
20
0.998791
30
0
11
9.501283
21
1.558992
31
0
39
0
210
0
220
0
230
1
0
LINE
5
12D
100
AcDbEntity
8
1
62
256
6
ByLayer
370
-1
48
1
60
0
100
AcDbLine
10
9.613273
20
1.729844
30
0
11
9.693471
21
1.836072
31
0
39
0
210
0
220
0
230
1
0
LINE
5
12E
100
AcDbEntity
8
1
62
256
6
ByLayer
370
-1
48
1
60
0
100
AcDbLine
10
15.221099
20
4.687648
30
0
11
15.000112
21
5.078144
31
0
39
0
210
0
220
0
230
1
0
LINE
5
12F
100
AcDbEntity
8
1
62
256
6
ByLayer
370
-1
48
1
60
0
100
AcDbLine
10
17.143656
20
1.506881
30
0
11
17.21351
21
1.339394
31
0
39
0
210
0
220
0
230
1
0
LINE
5
130
100
AcDbEntity
8
1
62
256
6
ByLayer
370
-1
48
1
60
0
100
AcDbLine
10
11.873153
20
4.365765
30
0
11
11.654813
21
4.205274
31
0
39
0
210
0
220
0
230
1
0
LINE
5
131
100
AcDbEntity
8
1
62
256
6
ByLayer
370
-1
48
1
60
0
100
AcDbLine
10
12.218991
20
5.495062
30
0
11
12.183122
21
5.474069
31
0
39
0
210
0
220
0
230
1
0
LINE
5
132
100
AcDbEntity
8
1
62
256
6
ByLayer
370
-1
48
1
60
0
100
AcDbLine
10
12.291094
20
6.444991
30
0
11
12.283306
21
5.606766
31
0
39
0
210
0
220
0
230
1
0
LINE
5
133
100
AcDbEntity
8
1
62
256
6
ByLayer
370
-1
48
1
60
0
100
AcDbLine
10
12.411282
20
6.629275
30
0
11
12.390041
21
6.616844
31
0
39
0
210
0
220
0
230
1
0
LINE
5
134
100
AcDbEntity
8
1
62
256
6
ByLayer
370
-1
48
1
60
0
100
AcDbLine
10
12.553978
20
5.416658
30
0
11
11.887132
21
5.477189
31
0
39
0
210
0
220
0
230
1
0
LINE
5
135
100
AcDbEntity
8
1
62
256
6
ByLayer
370
-1
48
1
60
0
100
AcDbLine
10
11.979024
20
5.080169
30
0
11
11.312178
21
5.140701
31
0
39
0
210
0
220
0
230
1
0
LINE
5
136
100
AcDbEntity
8
1
62
256
6
ByLayer
370
-1
48
1
60
0
100
AcDbLine
10
11.912742
20
4.968643
30
0
11
11.247863
21
5.028996
31
0
39
0
210
0
220
0
230
1
0
LINE
5
137
100
AcDbEntity
8
1
62
256
6
ByLayer
370
-1
48
1
60
0
100
AcDbLine
10
11.91227
20
4.479757
30
0
11
11.243324
21
4.540479
31
0
39
0
210
0
220
0
230
1
0
LINE
5
138
100
AcDbEntity
8
1
62
256
6
ByLayer
370
-1
48
1
60
0
100
AcDbLine
10
11.873153
20
4.365765
30
0
11
11.179008
21
4.428774
31
0
39
0
210
0
220
0
230
1
0
LINE
5
139
100
AcDbEntity
8
1
62
256
6
ByLayer
370
-1
48
1
60
0
100
AcDbLine
10
13.100579
20
6.566705
30
0
11
12.411282
21
6.629275
31
0
39
0
210
0
220
0
230
1
0
LINE
5
13A
100
AcDbEntity
8
1
62
256
6
ByLayer
370
-1
48
1
60
0
100
AcDbLine
10
13.079339
20
6.554274
30
0
11
12.390041
21
6.616844
31
0
39
0
210
0
220
0
230
1
0
LINE
5
13B
100
AcDbEntity
8
1
62
256
6
ByLayer
370
-1
48
1
60
0
100
AcDbLine
10
12.977366
20
6.382696
30
0
11
12.291094
21
6.444991
31
0
39
0
210
0
220
0
230
1
0
LINE
5
13C
100
AcDbEntity
8
1
62
256
6
ByLayer
370
-1
48
1
60
0
100
AcDbLine
10
12.947436
20
5.546481
30
0
11
12.283306
21
5.606766
31
0
39
0
210
0
220
0
230
1
0
LINE
5
13D
100
AcDbEntity
8
1
62
256
6
ByLayer
370
-1
48
1
60
0
100
AcDbLine
10
12.881153
20
5.434955
30
0
11
12.218991
21
5.495062
31
0
39
0
210
0
220
0
230
1
0
LINE
5
13E
100
AcDbEntity
8
1
62
256
6
ByLayer
370
-1
48
1
60
0
100
AcDbLine
10
12.831783
20
5.406061
30
0
11
12.673888
21
5.420394
31
0
39
0
210
0
220
0
230
1
0
LINE
5
13F
100
AcDbEntity
8
1
62
256
6
ByLayer
370
-1
48
1
60
0
100
AcDbLine
10
9.123832
20
-5.361363
30
0
11
8.995448
21
-5.349709
31
0
39
0
210
0
220
0
230
1
0
LINE
5
140
100
AcDbEntity
8
1
62
256
6
ByLayer
370
-1
48
1
60
0
100
AcDbLine
10
7.664839
20
-4.979738
30
0
11
7.558924
21
-4.970124
31
0
39
0
210
0
220
0
230
1
0
LINE
5
141
100
AcDbEntity
8
1
62
256
6
ByLayer
370
-1
48
1
60
0
100
AcDbLine
10
7.714051
20
-5.008632
30
0
11
7.520193
21
-4.991035
31
0
39
0
210
0
220
0
230
1
0
LINE
5
142
100
AcDbEntity
8
1
62
256
6
ByLayer
370
-1
48
1
60
0
100
AcDbLine
10
7.778892
20
-5.109091
30
0
11
7.382789
21
-5.073136
31
0
39
0
210
0
220
0
230
1
0
LINE
5
143
100
AcDbEntity
8
1
62
256
6
ByLayer
370
-1
48
1
60
0
100
AcDbLine
10
7.785058
20
-5.162521
30
0
11
7.305978
21
-5.119034
31
0
39
0
210
0
220
0
230
1
0
LINE
5
144
100
AcDbEntity
8
1
62
256
6
ByLayer
370
-1
48
1
60
0
100
AcDbLine
10
7.849898
20
-5.26298
30
0
11
7.183052
21
-5.202449
31
0
39
0
210
0
220
0
230
1
0
LINE
5
145
100
AcDbEntity
8
1
62
256
6
ByLayer
370
-1
48
1
60
0
100
AcDbLine
10
8.42301
20
-5.599469
30
0
11
7.756164
21
-5.538937
31
0
39
0
210
0
220
0
230
1
0
LINE
5
146
100
AcDbEntity
8
1
62
256
6
ByLayer
370
-1
48
1
60
0
100
AcDbLine
10
10.325354
20
-6.036466
30
0
11
9.570079
21
-5.967907
31
0
39
0
210
0
220
0
230
1
0
LINE
5
147
100
AcDbEntity
8
1
62
256
6
ByLayer
370
-1
48
1
60
0
100
AcDbLine
10
6.527797
20
-5.210833
30
0
11
5.841525
21
-5.148539
31
0
39
0
210
0
220
0
230
1
0
LINE
5
148
100
AcDbEntity
8
1
62
256
6
ByLayer
370
-1
48
1
60
0
100
AcDbLine
10
6.628829
20
-5.382961
30
0
11
5.939531
21
-5.320391
31
0
39
0
210
0
220
0
230
1
0
LINE
5
149
100
AcDbEntity
8
1
62
256
6
ByLayer
370
-1
48
1
60
0
100
AcDbLine
10
6.650002
20
-5.395392
30
0
11
5.960704
21
-5.332822
31
0
39
0
210
0
220
0
230
1
0
LINE
5
14A
100
AcDbEntity
8
1
62
256
6
ByLayer
370
-1
48
1
60
0
100
AcDbLine
10
6.50429
20
-3.548507
30
0
11
6.300009
21
-3.529963
31
0
39
0
210
0
220
0
230
1
0
LINE
5
14B
100
AcDbEntity
8
1
62
256
6
ByLayer
370
-1
48
1
60
0
100
AcDbLine
10
6.243636
20
-3.628585
30
0
11
6.480726
21
-3.650106
31
0
39
0
210
0
220
0
230
1
0
LINE
5
14C
100
AcDbEntity
8
1
62
256
6
ByLayer
370
-1
48
1
60
0
100
AcDbLine
10
11.179008
20
4.428774
30
0
11
10.683989
21
4.139067
31
0
39
0
210
0
220
0
230
1
0
LINE
5
14D
100
AcDbEntity
8
1
62
256
6
ByLayer
370
-1
48
1
60
0
100
AcDbLine
10
11.247863
20
5.028996
30
0
11
11.243324
21
4.540479
31
0
39
0
210
0
220
0
230
1
0
LINE
5
14E
100
AcDbEntity
8
1
62
256
6
ByLayer
370
-1
48
1
60
0
100
AcDbLine
10
11.887132
20
5.477189
30
0
11
11.312178
21
5.140701
31
0
39
0
210
0
220
0
230
1
0
LINE
5
14F
100
AcDbEntity
8
1
62
256
6
ByLayer
370
-1
48
1
60
0
100
AcDbLine
10
5.83843
20
-4.337442
30
0
11
5.841525
21
-5.148539
31
0
39
0
210
0
220
0
230
1
0
LINE
5
150
100
AcDbEntity
8
1
62
256
6
ByLayer
370
-1
48
1
60
0
100
AcDbLine
10
6.406239
20
-6.119505
30
0
11
6.406268
21
-6.172888
31
0
39
0
210
0
220
0
230
1
0
LINE
5
151
100
AcDbEntity
8
1
62
256
6
ByLayer
370
-1
48
1
60
0
100
AcDbLine
10
5.249936
20
-6.144739
30
0
11
5.249943
21
-6.157534
31
0
39
0
210
0
220
0
230
1
0
LINE
5
152
100
AcDbEntity
8
1
62
256
6
ByLayer
370
-1
48
1
60
0
100
AcDbLine
10
7.01719
20
-6.129512
30
0
11
7.017207
21
-6.160692
31
0
39
0
210
0
220
0
230
1
0
LINE
5
153
100
AcDbEntity
8
1
62
256
6
ByLayer
370
-1
48
1
60
0
100
AcDbLine
10
7.029918
20
-6.129904
30
0
11
7.029942
21
-6.173275
31
0
39
0
210
0
220
0
230
1
0
LINE
5
154
100
AcDbEntity
8
1
62
256
6
ByLayer
370
-1
48
1
60
0
100
AcDbLine
10
5.267348
20
-6.143721
30
0
11
5.267349
21
-6.145217
31
0
39
0
210
0
220
0
230
1
0
LINE
5
155
100
AcDbEntity
8
1
62
256
6
ByLayer
370
-1
48
1
60
0
100
AcDbLine
10
11.07861
20
5.575185
30
0
11
11.514998
21
6.339992
31
0
39
0
210
0
220
0
230
1
0
LINE
5
156
100
AcDbEntity
8
SK1
62
256
6
ByLayer
370
-1
48
1
60
0
100
AcDbLine
10
0
20
-5.438237
30
0
11
-2.338625
21
-5.431256
31
0
39
0
210
0
220
0
230
1
0
LINE
5
157
100
AcDbEntity
8
SK1
62
256
6
ByLayer
370
-1
48
1
60
0
100
AcDbLine
10
-2.338625
20
-5.431256
30
0
11
-2.338625
21
-5.9375
31
0
39
0
210
0
220
0
230
1
0
LINE
5
158
100
AcDbEntity
8
SK1
62
256
6
ByLayer
370
-1
48
1
60
0
100
AcDbLine
10
-103.88484
20
-5.9375
30
0
11
-103.88484
21
5.9375
31
0
39
0
210
0
220
0
230
1
0
LINE
5
159
100
AcDbEntity
8
SK1
62
256
6
ByLayer
370
-1
48
1
60
0
100
AcDbLine
10
-103.88484
20
5.9375
30
0
11
0
21
5.9375
31
0
39
0
210
0
220
0
230
1
0
LINE
5
15A
100
AcDbEntity
8
1
62
256
6
ByLayer
370
-1
48
1
60
0
100
AcDbLine
10
17.733298
20
0.433871
30
0
11
17.812906
21
0.324277
31
0
39
0
210
0
220
0
230
1
0
LINE
5
15B
100
AcDbEntity
8
1
62
256
6
ByLayer
370
-1
48
1
60
0
100
AcDbLine
10
13.789089
20
-6.062688
30
0
11
13.569615
21
-6.060302
31
0
39
0
210
0
220
0
230
1
0
LINE
5
15C
100
AcDbEntity
8
1
62
256
6
ByLayer
370
-1
48
1
60
0
100
AcDbLine
10
17.264084
20
-6.050964
30
0
11
17.708194
21
-6.050964
31
0
39
0
210
0
220
0
230
1
0
LINE
5
15D
100
AcDbEntity
8
1
62
256
6
ByLayer
370
-1
48
1
60
0
100
AcDbLine
10
17.300185
20
1.168275
30
0
11
17.622251
21
0.607203
31
0
39
0
210
0
220
0
230
1
0
LINE
5
15E
100
AcDbEntity
8
1
62
256
6
ByLayer
370
-1
48
1
60
0
100
AcDbLine
10
13.36318
20
-6.05933
30
0
11
12.730365
21
-6.059765
31
0
39
0
210
0
220
0
230
1
0
LINE
5
15F
100
AcDbEntity
8
1
62
256
6
ByLayer
370
-1
48
1
60
0
100
AcDbLine
10
18.788932
20
-2.891801
30
0
11
18.83817
21
-2.583995
31
0
39
0
210
0
220
0
230
1
0
MTEXT
5
283
100
AcDbEntity
8
SK6
62
256
6
ByLayer
370
-1
48
1
60
0
100
AcDbMText
10
-67.88156
20
-0.923827
30
0
210
0
220
0
230
1
1
\W00.705;\fsimplex.shx,bigfont.shx;266LFA-1212-16-S 
40
3.5
41
0
44
1.084337
50
0
71
7
72
5
7
DEFAULT
0
DIMENSION
5
2B6
100
AcDbEntity
8
2
62
256
6
ByLayer
370
-3
48
1
60
0
100
AcDbDimension
2
DimnDraft3D1
10
21.36516
20
-20.3125
30
0
11
8.616133
21
-20.3125
31
0
70
32
71
5
72
1
41
1
210
0
220
0
230
1
3
Standard
100
AcDbAlignedDimension
13
0
23
-7.4375
33
0
14
21.36516
24
-7.5625
34
0
50
0
100
AcDbRotatedDimension
1001
ACAD
1000
DSTYLE
1002
{
1070
   279
1070
     0
1070
   172
1070
     1
1070
   173
1070
     1
1070
   340
1005
284
1070
   271
1070
     3
1070
   272
1070
     3
1070
    77
1070
     1
1070
    73
1070
     0
1070
   171
1070
     4
1070
   274
1070
     4
1070
   177
1070
     2
1070
   176
1070
     2
1070
   178
1070
     7
1070
    78
1070
     8
1070
    41
1041
3.0
1070
   147
1041
2.25
1070
    42
1041
1.5
1070
    44
1041
3.0
1070
   140
1041
4.5
1070
   343
1005
2B7
1070
   344
1005
2B7
1002
}
0
DIMENSION
5
2CC
100
AcDbEntity
8
SK2
62
256
6
ByLayer
370
-3
48
1
60
0
100
AcDbDimension
2
DimnDraft3D2
10
21.36516
20
-30.3125
30
0
11
-44.978261
21
-30.3125
31
0
70
32
71
5
72
1
41
1
210
0
220
0
230
1
3
Standard
100
AcDbAlignedDimension
13
-103.88484
23
-7.4375
33
0
14
21.36516
24
-7.5625
34
0
50
0
100
AcDbRotatedDimension
1001
ACAD
1000
DSTYLE
1002
{
1070
   279
1070
     0
1070
   172
1070
     1
1070
   173
1070
     1
1070
   340
1005
284
1070
   271
1070
     3
1070
   272
1070
     3
1070
    77
1070
     1
1070
    73
1070
     0
1070
   171
1070
     4
1070
   274
1070
     4
1070
   177
1070
     2
1070
   176
1070
     2
1070
   178
1070
     7
1070
    78
1070
     8
1070
    41
1041
3.0
1070
   147
1041
2.25
1070
    42
1041
1.5
1070
    44
1041
3.0
1070
   140
1041
4.5
1070
   343
1005
2B7
1070
   344
1005
2B7
1002
}
0
DIMENSION
5
2DA
100
AcDbEntity
8
SK2
62
256
6
ByLayer
370
-3
48
1
60
0
100
AcDbDimension
2
DimnDraft3D3
10
-113.63484
20
-5.9375
30
0
11
-113.63484
21
-2.066447
31
0
70
32
71
5
72
1
41
1
210
0
220
0
230
1
3
Standard
100
AcDbAlignedDimension
13
-105.38484
23
5.9375
33
0
14
-105.38484
24
-5.9375
34
0
50
90
100
AcDbRotatedDimension
1001
ACAD
1000
DSTYLE
1002
{
1070
    74
1070
     0
1070
   279
1070
     0
1070
   172
1070
     1
1070
   173
1070
     1
1070
   340
1005
284
1070
   271
1070
     3
1070
   272
1070
     3
1070
    77
1070
     1
1070
    73
1070
     0
1070
   171
1070
     4
1070
   274
1070
     4
1070
   177
1070
     2
1070
   176
1070
     2
1070
   178
1070
     7
1070
    78
1070
     8
1070
    41
1041
3.0
1070
   147
1041
2.25
1070
    42
1041
1.5
1070
    44
1041
3.0
1070
   140
1041
4.5
1070
   343
1005
2B7
1070
   344
1005
2B7
1002
}
0
DIMENSION
5
2E8
100
AcDbEntity
8
2
62
256
6
ByLayer
370
-3
48
1
60
0
100
AcDbDimension
2
DimnDraft3D4
10
35.61516
20
-6.0625
30
0
11
35.61516
21
-2.128947
31
0
70
32
71
5
72
1
41
1
210
0
220
0
230
1
3
Standard
100
AcDbAlignedDimension
13
1.5
23
5.9375
33
0
14
22.86516
24
-6.0625
34
0
50
90
100
AcDbRotatedDimension
1001
ACAD
1000
DSTYLE
1002
{
1070
    74
1070
     0
1070
   279
1070
     0
1070
   172
1070
     1
1070
   173
1070
     1
1070
   340
1005
284
1070
   271
1070
     3
1070
   272
1070
     3
1070
    77
1070
     1
1070
    73
1070
     0
1070
   171
1070
     4
1070
   274
1070
     4
1070
   177
1070
     2
1070
   176
1070
     2
1070
   178
1070
     7
1070
    78
1070
     8
1070
    41
1041
3.0
1070
   147
1041
2.25
1070
    42
1041
1.5
1070
    44
1041
3.0
1070
   140
1041
4.5
1070
   343
1005
2B7
1070
   344
1005
2B7
1002
}
0
ENDSEC
0
SECTION
2
OBJECTS
0
DICTIONARY
5
318
330
0
100
AcDbDictionary
280
0
281
1
3
ACAD_GROUP
350
319
3
ACAD_MLINESTYLE
350
31a
0
DICTIONARY
5
319
330
0
100
AcDbDictionary
280
0
281
1
0
DICTIONARY
5
31a
330
0
100
AcDbDictionary
280
0
281
1
3
Standard
350
18
0
MLINESTYLE
5
18
330
31a
100
AcDbMlineStyle
2
Standard
70
0
3

62
256
51
90
52
90
71
2
49
-0.5
62
256
6
ByLayer
49
0.5
62
256
6
ByLayer
0
RASTERVARIABLES
5
307
330

100
AcDbRasterVariables
90
0
70
1
71
1
72
1
0
ENDSEC
0
EOF
