0
SECTION
2
HEADER
9
$ACADVER
1
AC1015
9
$DWGCODEPAGE
3
ANSI_1252
9
$HANDSEED
5
36c
9
$ANGBASE
50
0
9
$ANGDIR
70
0
9
$ATTMODE
70
1
9
$AUNITS
70
0
9
$AUPREC
70
0
9
$CECOLOR
62
256
9
$CELTSCALE
40
1
9
$CELTYPE
6
ByLayer
9
$CELWEIGHT
370
-1
9
$CLAYER
8
0
9
$CMLJUST
70
0
9
$CMLSCALE
40
1
9
$CMLSTYLE
2
Standard
9
$DIMSTYLE
2
Standard
9
$TEXTSIZE
40
0.2
9
$TEXTSTYLE
7
Standard
9
$LUNITS
70
2
9
$LUPREC
70
4
9
$EXTNAMES
290
1
9
$INSUNITS
70
4
9
$LTSCALE
40
1
9
$LWDISPLAY
290
0
9
$PDMODE
70
0
9
$PDSIZE
40
0
9
$PLINEGEN
70
0
0
ENDSEC
0
SECTION
2
CLASSES
0
CLASS
1
RASTERVARIABLES
2
AcDbRasterVariables
3
ISM
90
0
280
0
281
0
0
ENDSEC
0
SECTION
2
TABLES
0
TABLE
2
VPORT
5
362
100
AcDbSymbolTable
0
VPORT
5
1
100
AcDbSymbolTableRecord
100
AcDbViewportTableRecord
2
*Active
70
0
10
0
20
0
11
1
21
1
12
-1
22
1
13
0
23
0
14
0.5
24
0.5
15
10
25
10
16
0
26
0
36
1
17
0
27
0
37
0
0
ENDTAB
0
TABLE
2
LTYPE
5
363
100
AcDbSymbolTable
0
LTYPE
5
14
100
AcDbSymbolTableRecord
100
AcDbLinetypeTableRecord
70
0
2
ByBlock
3

72
65
73
0
40
0
0
LTYPE
5
15
100
AcDbSymbolTableRecord
100
AcDbLinetypeTableRecord
70
0
2
ByLayer
3

72
65
73
0
40
0
0
LTYPE
5
16
100
AcDbSymbolTableRecord
100
AcDbLinetypeTableRecord
70
0
2
CONTINUOUS
3
Solid line
72
65
73
0
40
0
0
LTYPE
5
3B
100
AcDbSymbolTableRecord
100
AcDbLinetypeTableRecord
70
0
2
DASHED
3
__ __ __ __ __ __ __ __ __
72
65
73
2
40
25.72
49
12.86
74
0
49
-12.86
74
0
0
LTYPE
5
3C
100
AcDbSymbolTableRecord
100
AcDbLinetypeTableRecord
70
0
2
HIDDEN
3
_ _ _ _ _ _ _ _ _ _ _ _ _ _ _
72
65
73
2
40
0.5
49
0.25
74
0
49
-0.25
74
0
0
LTYPE
5
3D
100
AcDbSymbolTableRecord
100
AcDbLinetypeTableRecord
70
0
2
PHANTOM
3
____ _ _ ____ _ _ _____ _ _ ____
72
65
73
6
40
50.5
49
18
74
0
49
-6.5
74
0
49
6.5
74
0
49
-6.5
74
0
49
6.5
74
0
49
-6.5
74
0
0
LTYPE
5
3E
100
AcDbSymbolTableRecord
100
AcDbLinetypeTableRecord
70
0
2
CENTER
3
____ _ ____ _ ____ _ ____
72
65
73
4
40
47.5
49
22
74
0
49
-8.5
74
0
49
8.5
74
0
49
-8.5
74
0
0
LTYPE
5
3F
100
AcDbSymbolTableRecord
100
AcDbLinetypeTableRecord
70
0
2
DOT
3
.........................
72
65
73
2
40
10
49
0
74
0
49
-10
74
0
0
LTYPE
5
40
100
AcDbSymbolTableRecord
100
AcDbLinetypeTableRecord
70
0
2
DASHDOT
3
_._._._._._._._._._._._._._._._.
72
65
73
4
40
70
49
31
74
0
49
-13
74
0
49
13
74
0
49
-13
74
0
0
ENDTAB
0
TABLE
2
LAYER
5
364
100
AcDbSymbolTable
0
LAYER
5
10
100
AcDbSymbolTableRecord
100
AcDbLayerTableRecord
2
0
70
0
62
7
6
CONTINUOUS
290
1
370
-3
390
0
0
LAYER
5
42
100
AcDbSymbolTableRecord
100
AcDbLayerTableRecord
2
1
70
0
62
4
6
CONTINUOUS
290
1
370
-3
390
0
0
LAYER
5
45
100
AcDbSymbolTableRecord
100
AcDbLayerTableRecord
2
80
70
0
62
-6
6
CONTINUOUS
290
1
370
-3
390
0
0
LAYER
5
47
100
AcDbSymbolTableRecord
100
AcDbLayerTableRecord
2
81
70
0
62
-3
6
CONTINUOUS
290
1
370
-3
390
0
0
LAYER
5
49
100
AcDbSymbolTableRecord
100
AcDbLayerTableRecord
2
2
70
0
62
7
6
CONTINUOUS
290
1
370
-3
390
0
0
LAYER
5
58
100
AcDbSymbolTableRecord
100
AcDbLayerTableRecord
2
4
70
0
62
-2
6
CENTER
290
1
370
-3
390
0
0
LAYER
5
34e
100
AcDbSymbolTableRecord
100
AcDbLayerTableRecord
2
SK4
70
0
62
2
6
CENTER
290
1
370
-3
390
0
0
LAYER
5
34f
100
AcDbSymbolTableRecord
100
AcDbLayerTableRecord
2
SK1
70
0
62
4
6
CONTINUOUS
290
1
370
-3
390
0
0
LAYER
5
350
100
AcDbSymbolTableRecord
100
AcDbLayerTableRecord
2
SK2
70
0
62
7
6
CONTINUOUS
290
1
370
-3
390
0
0
LAYER
5
351
100
AcDbSymbolTableRecord
100
AcDbLayerTableRecord
2
SK6
70
0
62
5
6
CONTINUOUS
290
1
370
-3
390
0
0
ENDTAB
0
TABLE
2
STYLE
5
365
100
AcDbSymbolTable
0
STYLE
5
11
100
AcDbSymbolTableRecord
100
AcDbTextStyleTableRecord
2
Standard
3
txt
70
0
71
0
40
0
41
1
42
0
50
0
0
STYLE
5
2D8
100
AcDbSymbolTableRecord
100
AcDbTextStyleTableRecord
2
DEFAULT
3
simplex.shx
70
0
71
0
40
0
41
1
42
0
50
0
0
STYLE
5
2FB
100
AcDbSymbolTableRecord
100
AcDbTextStyleTableRecord
2
DWGDirectTextStyle
3
SIMPLEX
70
0
71
0
40
0
41
1
42
0
50
0
0
ENDTAB
0
TABLE
2
DIMSTYLE
5
366
100
AcDbSymbolTable
100
AcDbDimStyleTable
0
DIMSTYLE
105
27
100
AcDbSymbolTableRecord
100
AcDbDimStyleTableRecord
2
Standard
70
0
3
<>
41
0.18
42
0.0625
44
0.18
140
0.18
147
0.09
73
0
74
0
77
1
271
2
275
0
278
52
280
0
340
11
0
ENDTAB
0
TABLE
2
VIEW
5
367
100
AcDbSymbolTable
0
ENDTAB
0
TABLE
2
UCS
5
368
100
AcDbSymbolTable
0
ENDTAB
0
TABLE
2
APPID
5
369
100
AcDbSymbolTable
0
APPID
5
12
100
AcDbSymbolTableRecord
100
AcDbRegAppTableRecord
2
ACAD
70
0
0
ENDTAB
0
TABLE
2
BLOCK_RECORD
5
36a
100
AcDbSymbolTable
0
BLOCK_RECORD
5
1F
100
AcDbSymbolTableRecord
100
AcDbBlockTableRecord
2
*Model_Space
340
0
70
0
0
BLOCK_RECORD
5
1B
100
AcDbSymbolTableRecord
100
AcDbBlockTableRecord
2
*Paper_Space
340
0
70
0
0
BLOCK_RECORD
5
23
100
AcDbSymbolTableRecord
100
AcDbBlockTableRecord
2
*Paper_Space0
340
0
70
0
0
BLOCK_RECORD
5
2FE
100
AcDbSymbolTableRecord
100
AcDbBlockTableRecord
2
DimnDraft3D1
340
0
70
0
0
BLOCK_RECORD
5
30C
100
AcDbSymbolTableRecord
100
AcDbBlockTableRecord
2
_CLOSED
340
0
70
0
0
BLOCK_RECORD
5
313
100
AcDbSymbolTableRecord
100
AcDbBlockTableRecord
2
DimnDraft3D2
340
0
70
0
0
BLOCK_RECORD
5
321
100
AcDbSymbolTableRecord
100
AcDbBlockTableRecord
2
DimnDraft3D3
340
0
70
0
0
ENDTAB
0
ENDSEC
0
SECTION
2
BLOCKS
0
BLOCK
5
20
100
AcDbEntity
8
0
100
AcDbBlockBegin
2
*Model_Space
70
0
10
0
20
0
30
0
3
*Model_Space
0
ENDBLK
5
21
100
AcDbEntity
8
0
100
AcDbBlockEnd
0
BLOCK
5
1C
100
AcDbEntity
8
0
100
AcDbBlockBegin
2
*Paper_Space
70
0
10
0
20
0
30
0
3
*Paper_Space
0
ENDBLK
5
1D
100
AcDbEntity
8
0
100
AcDbBlockEnd
0
BLOCK
5
24
100
AcDbEntity
8
0
100
AcDbBlockBegin
2
*Paper_Space0
70
0
10
0
20
0
30
0
3
*Paper_Space0
0
ENDBLK
5
25
100
AcDbEntity
8
0
100
AcDbBlockEnd
0
BLOCK
5
309
100
AcDbEntity
8
0
100
AcDbBlockBegin
2
DimnDraft3D1
70
0
10
0
20
0
30
0
3
DimnDraft3D1
0
MTEXT
5
2FF
100
AcDbEntity
8
2
62
256
6
ByLayer
370
-1
48
1
60
0
100
AcDbMText
10
93.055
20
6.496053
30
0
210
0
220
0
230
1
1
\W01.000;\fsimplex.shx,bigfont.shx;15 
40
4.5
41
0
44
1.084337
50
90
71
7
72
5
7
DEFAULT
0
LINE
5
300
100
AcDbEntity
8
2
62
256
6
ByLayer
370
-1
48
1
60
0
100
AcDbLine
10
86.43
20
0
30
0
11
97.18
21
0
31
0
39
0
210
0
220
0
230
1
0
LINE
5
301
100
AcDbEntity
8
2
62
256
6
ByLayer
370
-1
48
1
60
0
100
AcDbLine
10
81.43
20
14.875
30
0
11
97.18
21
14.875
31
0
39
0
210
0
220
0
230
1
0
LINE
5
302
100
AcDbEntity
8
2
62
256
6
ByLayer
370
-1
48
1
60
0
100
AcDbLine
10
94.18
20
0
30
0
11
94.18
21
14.875
31
0
39
0
210
0
220
0
230
1
0
LINE
5
303
100
AcDbEntity
8
2
62
256
6
ByLayer
370
-1
48
1
60
0
100
AcDbLine
10
94.18
20
0
30
0
11
93.785043
21
2.999999
31
0
39
0
210
0
220
0
230
1
0
LINE
5
304
100
AcDbEntity
8
2
62
256
6
ByLayer
370
-1
48
1
60
0
100
AcDbLine
10
94.18
20
0
30
0
11
94.574957
21
3.000001
31
0
39
0
210
0
220
0
230
1
0
LINE
5
305
100
AcDbEntity
8
2
62
256
6
ByLayer
370
-1
48
1
60
0
100
AcDbLine
10
93.785043
20
2.999999
30
0
11
94.574957
21
3.000001
31
0
39
0
210
0
220
0
230
1
0
LINE
5
306
100
AcDbEntity
8
2
62
256
6
ByLayer
370
-1
48
1
60
0
100
AcDbLine
10
94.18
20
14.875
30
0
11
94.574957
21
11.875001
31
0
39
0
210
0
220
0
230
1
0
LINE
5
307
100
AcDbEntity
8
2
62
256
6
ByLayer
370
-1
48
1
60
0
100
AcDbLine
10
94.18
20
14.875
30
0
11
93.785043
21
11.874999
31
0
39
0
210
0
220
0
230
1
0
LINE
5
308
100
AcDbEntity
8
2
62
256
6
ByLayer
370
-1
48
1
60
0
100
AcDbLine
10
94.574957
20
11.875001
30
0
11
93.785043
21
11.874999
31
0
39
0
210
0
220
0
230
1
0
ENDBLK
5
30A
100
AcDbEntity
8
0
100
AcDbBlockEnd
0
BLOCK
5
30D
100
AcDbEntity
8
0
100
AcDbBlockBegin
2
_CLOSED
70
0
10
0
20
0
30
0
3
_CLOSED
0
LINE
5
30F
100
AcDbEntity
8
0
62
256
6
ByLayer
370
-2
48
1
60
0
100
AcDbLine
10
-1
20
0.166667
30
0
11
0
21
0
31
0
39
0
210
0
220
0
230
1
0
LINE
5
310
100
AcDbEntity
8
0
62
256
6
ByLayer
370
-2
48
1
60
0
100
AcDbLine
10
0
20
0
30
0
11
-1
21
-0.166667
31
0
39
0
210
0
220
0
230
1
0
LINE
5
311
100
AcDbEntity
8
0
62
256
6
ByLayer
370
-2
48
1
60
0
100
AcDbLine
10
-1
20
0.166667
30
0
11
-1
21
-0.166667
31
0
39
0
210
0
220
0
230
1
0
LINE
5
312
100
AcDbEntity
8
0
62
256
6
ByLayer
370
-2
48
1
60
0
100
AcDbLine
10
0
20
0
30
0
11
-1
21
0
31
0
39
0
210
0
220
0
230
1
0
ENDBLK
5
30E
100
AcDbEntity
8
0
100
AcDbBlockEnd
0
BLOCK
5
31E
100
AcDbEntity
8
0
100
AcDbBlockBegin
2
DimnDraft3D2
70
0
10
0
20
0
30
0
3
DimnDraft3D2
0
MTEXT
5
314
100
AcDbEntity
8
2
62
256
6
ByLayer
370
-1
48
1
60
0
100
AcDbMText
10
60.815646
20
25.75
30
0
210
0
220
0
230
1
1
\W01.000;\fsimplex.shx,bigfont.shx;35 
40
4.5
41
0
44
1.084337
50
0
71
7
72
5
7
DEFAULT
0
LINE
5
315
100
AcDbEntity
8
2
62
256
6
ByLayer
370
-1
48
1
60
0
100
AcDbLine
10
79.93
20
16.375
30
0
11
79.93
21
27.625
31
0
39
0
210
0
220
0
230
1
0
LINE
5
316
100
AcDbEntity
8
2
62
256
6
ByLayer
370
-1
48
1
60
0
100
AcDbLine
10
44.709187
20
16.375
30
0
11
44.709187
21
27.625
31
0
39
0
210
0
220
0
230
1
0
LINE
5
317
100
AcDbEntity
8
2
62
256
6
ByLayer
370
-1
48
1
60
0
100
AcDbLine
10
79.93
20
24.625
30
0
11
44.709187
21
24.625
31
0
39
0
210
0
220
0
230
1
0
LINE
5
318
100
AcDbEntity
8
2
62
256
6
ByLayer
370
-1
48
1
60
0
100
AcDbLine
10
79.93
20
24.625
30
0
11
76.930001
21
24.230043
31
0
39
0
210
0
220
0
230
1
0
LINE
5
319
100
AcDbEntity
8
2
62
256
6
ByLayer
370
-1
48
1
60
0
100
AcDbLine
10
79.93
20
24.625
30
0
11
76.929999
21
25.019957
31
0
39
0
210
0
220
0
230
1
0
LINE
5
31A
100
AcDbEntity
8
2
62
256
6
ByLayer
370
-1
48
1
60
0
100
AcDbLine
10
76.930001
20
24.230043
30
0
11
76.929999
21
25.019957
31
0
39
0
210
0
220
0
230
1
0
LINE
5
31B
100
AcDbEntity
8
2
62
256
6
ByLayer
370
-1
48
1
60
0
100
AcDbLine
10
44.709187
20
24.625
30
0
11
47.709185
21
25.019957
31
0
39
0
210
0
220
0
230
1
0
LINE
5
31C
100
AcDbEntity
8
2
62
256
6
ByLayer
370
-1
48
1
60
0
100
AcDbLine
10
44.709187
20
24.625
30
0
11
47.709188
21
24.230043
31
0
39
0
210
0
220
0
230
1
0
LINE
5
31D
100
AcDbEntity
8
2
62
256
6
ByLayer
370
-1
48
1
60
0
100
AcDbLine
10
47.709185
20
25.019957
30
0
11
47.709188
21
24.230043
31
0
39
0
210
0
220
0
230
1
0
ENDBLK
5
31F
100
AcDbEntity
8
0
100
AcDbBlockEnd
0
BLOCK
5
32C
100
AcDbEntity
8
0
100
AcDbBlockBegin
2
DimnDraft3D3
70
0
10
0
20
0
30
0
3
DimnDraft3D3
0
MTEXT
5
322
100
AcDbEntity
8
SK2
62
256
6
ByLayer
370
-1
48
1
60
0
100
AcDbMText
10
-48.288421
20
35.75
30
0
210
0
220
0
230
1
1
\W01.000;\fsimplex.shx,bigfont.shx;251 
40
4.5
41
0
44
1.084337
50
0
71
7
72
5
7
DEFAULT
0
LINE
5
323
100
AcDbEntity
8
SK2
62
256
6
ByLayer
370
-1
48
1
60
0
100
AcDbLine
10
79.93
20
16.375
30
0
11
79.93
21
37.625
31
0
39
0
210
0
220
0
230
1
0
LINE
5
324
100
AcDbEntity
8
SK2
62
256
6
ByLayer
370
-1
48
1
60
0
100
AcDbLine
10
-171.32
20
1.5
30
0
11
-171.32
21
37.625
31
0
39
0
210
0
220
0
230
1
0
LINE
5
325
100
AcDbEntity
8
SK2
62
256
6
ByLayer
370
-1
48
1
60
0
100
AcDbLine
10
79.93
20
34.625
30
0
11
-171.32
21
34.625
31
0
39
0
210
0
220
0
230
1
0
LINE
5
326
100
AcDbEntity
8
SK2
62
256
6
ByLayer
370
-1
48
1
60
0
100
AcDbLine
10
79.93
20
34.625
30
0
11
76.930001
21
34.230043
31
0
39
0
210
0
220
0
230
1
0
LINE
5
327
100
AcDbEntity
8
SK2
62
256
6
ByLayer
370
-1
48
1
60
0
100
AcDbLine
10
79.93
20
34.625
30
0
11
76.929999
21
35.019957
31
0
39
0
210
0
220
0
230
1
0
LINE
5
328
100
AcDbEntity
8
SK2
62
256
6
ByLayer
370
-1
48
1
60
0
100
AcDbLine
10
76.930001
20
34.230043
30
0
11
76.929999
21
35.019957
31
0
39
0
210
0
220
0
230
1
0
LINE
5
329
100
AcDbEntity
8
SK2
62
256
6
ByLayer
370
-1
48
1
60
0
100
AcDbLine
10
-171.32
20
34.625
30
0
11
-168.320001
21
35.019957
31
0
39
0
210
0
220
0
230
1
0
LINE
5
32A
100
AcDbEntity
8
SK2
62
256
6
ByLayer
370
-1
48
1
60
0
100
AcDbLine
10
-171.32
20
34.625
30
0
11
-168.319999
21
34.230043
31
0
39
0
210
0
220
0
230
1
0
LINE
5
32B
100
AcDbEntity
8
SK2
62
256
6
ByLayer
370
-1
48
1
60
0
100
AcDbLine
10
-168.320001
20
35.019957
30
0
11
-168.319999
21
34.230043
31
0
39
0
210
0
220
0
230
1
0
ENDBLK
5
32D
100
AcDbEntity
8
0
100
AcDbBlockEnd
0
ENDSEC
0
SECTION
2
ENTITIES
0
ARC
5
178
100
AcDbEntity
8
1
62
256
6
ByLayer
370
-1
48
1
60
0
100
AcDbCircle
39
0
10
-56.73333
20
-10.475
30
0
40
0.8
210
0
220
0
230
-1
100
AcDbArc
50
90
51
99.068722
0
ARC
5
179
100
AcDbEntity
8
1
62
256
6
ByLayer
370
-1
48
1
60
0
100
AcDbCircle
39
0
10
-56.73333
20
10.475
30
0
40
0.8
210
0
220
0
230
-1
100
AcDbArc
50
220
51
270
0
ARC
5
17A
100
AcDbEntity
8
1
62
256
6
ByLayer
370
-1
48
1
60
0
100
AcDbCircle
39
0
10
-44.923546
20
-10.475
30
0
40
0.79999999999999
210
0
220
0
230
-1
100
AcDbArc
50
60
51
90
0
ARC
5
17B
100
AcDbEntity
8
1
62
256
6
ByLayer
370
-1
48
1
60
0
100
AcDbCircle
39
0
10
-77.43
20
10.039054
30
0
40
0.474973683481517
210
0
220
0
230
-1
100
AcDbArc
50
289.391456
51
300
0
ARC
5
17C
100
AcDbEntity
8
1
62
256
6
ByLayer
370
-1
48
1
60
0
100
AcDbCircle
39
0
10
-77.43
20
10.039054
30
0
40
0.474973683481517
210
0
220
0
230
-1
100
AcDbArc
50
240
51
250.608544
0
ELLIPSE
5
17D
100
AcDbEntity
8
1
62
256
6
ByLayer
370
-1
48
1
60
0
100
AcDbEllipse
10
63.770674
20
4.223345
30
0
11
-2.64829672137524
21
2.67647209606839E-15
31
0
210
0
220
0
230
1
40
0.965886
41
-1.05053252571201
42
-0.622535057841829
0
ELLIPSE
5
17E
100
AcDbEntity
8
1
62
256
6
ByLayer
370
-1
48
1
60
0
100
AcDbEllipse
10
67.876009
20
9.092175
30
0
11
-0.549999999999999
21
6.73533494602306E-17
31
0
210
0
220
0
230
1
40
0.258819
41
1.51567957973891
42
2.33550283357685
0
ELLIPSE
5
17F
100
AcDbEntity
8
1
62
256
6
ByLayer
370
-1
48
1
60
0
100
AcDbEllipse
10
86.077792
20
0
30
0
11
-9.60181085326537
21
-9.60214914731736
31
0
210
0
220
0
230
1
40
0.131652
41
0.594113537368843
42
0.683177752370509
0
ELLIPSE
5
180
100
AcDbEntity
8
1
62
256
6
ByLayer
370
-1
48
1
60
0
100
AcDbEllipse
10
62.572027
20
2.594838
30
0
11
-0.748430303873952
21
3.05399547702977
31
0
210
0
220
0
230
1
40
0.649038
41
-0.613575675661671
42
-0.463588995561483
0
ELLIPSE
5
181
100
AcDbEntity
8
1
62
256
6
ByLayer
370
-1
48
1
60
0
100
AcDbEllipse
10
62.592904
20
1.939893
30
0
11
-0.717867510460065
21
2.44503979275138
31
0
210
0
220
0
230
1
40
0.810902
41
-0.501811334707026
42
-0.423353407175283
0
ELLIPSE
5
182
100
AcDbEntity
8
1
62
256
6
ByLayer
370
-1
48
1
60
0
100
AcDbEllipse
10
62.579489
20
2.360742
30
0
11
2.09893387904717
21
0.0669071848756045
31
0
210
0
220
0
230
1
40
0.965893
41
0.809934623347483
42
1.37847480560958
0
ELLIPSE
5
183
100
AcDbEntity
8
1
62
256
6
ByLayer
370
-1
48
1
60
0
100
AcDbEllipse
10
62.579489
20
2.360742
30
0
11
2.09893387904717
21
0.0669071848756045
31
0
210
0
220
0
230
1
40
0.965893
41
-1.23866388545714
42
-0.534435859307101
0
ELLIPSE
5
184
100
AcDbEntity
8
1
62
256
6
ByLayer
370
-1
48
1
60
0
100
AcDbEllipse
10
64.199346
20
0
30
0
11
-11.9855576225454
21
8.19682074929173
31
0
210
0
220
0
230
1
40
0.428834
41
-0.298676770090312
42
0.634973592809742
0
ELLIPSE
5
185
100
AcDbEntity
8
1
62
256
6
ByLayer
370
-1
48
1
60
0
100
AcDbEllipse
10
62.569618
20
2.670386
30
0
11
2.09893387904717
21
0.0669071848756045
31
0
210
0
220
0
230
1
40
0.965893
41
1.30645097580443
42
1.30883082569769
0
ELLIPSE
5
186
100
AcDbEntity
8
1
62
256
6
ByLayer
370
-1
48
1
60
0
100
AcDbEllipse
10
64.1883
20
-5.750934
30
0
11
-1.38564064605546
21
1.40038255321321E-15
31
0
210
0
220
0
230
1
40
0.224144
41
0
42
1.5707963267949
0
ELLIPSE
5
187
100
AcDbEntity
8
1
62
256
6
ByLayer
370
-1
48
1
60
0
100
AcDbEllipse
10
57.593456
20
2.265173
30
0
11
-1.37356236586242
21
1.46746416069189
31
0
210
0
220
0
230
1
40
0.647664
41
-0.593804534510005
42
3.08900521782939
0
ELLIPSE
5
188
100
AcDbEntity
8
1
62
256
6
ByLayer
370
-1
48
1
60
0
100
AcDbEllipse
10
69.38
20
-7.597067
30
0
11
-2.5
21
3.06151588455594E-16
31
0
210
0
220
0
230
1
40
0.258819
41
0
42
6.28318530717959
0
ELLIPSE
5
189
100
AcDbEntity
8
1
62
256
6
ByLayer
370
-1
48
1
60
0
100
AcDbEllipse
10
63.78378
20
2.346313
30
0
11
-2.00006806644532
21
2.02134690077271E-15
31
0
210
0
220
0
230
1
40
0.965893
41
0.558467423414328
42
2.07907620594812
0
ELLIPSE
5
18A
100
AcDbEntity
8
1
62
256
6
ByLayer
370
-1
48
1
60
0
100
AcDbEllipse
10
62.556999
20
3.066283
30
0
11
-2.04670222232581
21
-0.600914858010345
31
0
210
0
220
0
230
1
40
0.71505
41
-2.01609104070732
42
-1.90264755554229
0
ELLIPSE
5
18B
100
AcDbEntity
8
1
62
256
6
ByLayer
370
-1
48
1
60
0
100
AcDbEllipse
10
67.778613
20
0
30
0
11
-9.60214348241855
21
-9.60214348241855
31
0
210
0
220
0
230
1
40
0.131652
41
-0.68321847800966
42
0.421419090210715
0
ELLIPSE
5
18C
100
AcDbEntity
8
1
62
256
6
ByLayer
370
-1
48
1
60
0
100
AcDbEllipse
10
68.687164
20
0
30
0
11
-1.50777498984457
21
10.3670266042451
31
0
210
0
220
0
230
1
40
0.432236
41
-0.0172876565239206
42
0.0328354334416143
0
ELLIPSE
5
18D
100
AcDbEntity
8
1
62
256
6
ByLayer
370
-1
48
1
60
0
100
AcDbEllipse
10
61.937837
20
-8.401245
30
0
11
-3.11876466197366
21
1.83169226532258
31
0
210
0
220
0
230
1
40
0.739205
41
-1.1612051930248
42
-0.926171186340591
0
ELLIPSE
5
18E
100
AcDbEntity
8
1
62
256
6
ByLayer
370
-1
48
1
60
0
100
AcDbEllipse
10
61.848246
20
25.30045
30
0
11
-0.120815438503767
21
-29.4003452300762
31
0
210
0
220
0
230
1
40
0.06175
41
0.792054276714392
42
0.826217641772341
0
ELLIPSE
5
18F
100
AcDbEntity
8
1
62
256
6
ByLayer
370
-1
48
1
60
0
100
AcDbEllipse
10
64.199346
20
0
30
0
11
-11.99794579523
21
8.205292915146
31
0
210
0
220
0
230
1
40
0.428834
41
1.38908284601869
42
1.60937967367873
0
ELLIPSE
5
190
100
AcDbEntity
8
1
62
256
6
ByLayer
370
-1
48
1
60
0
100
AcDbEllipse
10
63.845538
20
2.194548
30
0
11
-0.700782587809397
21
2.38683295030264
31
0
210
0
220
0
230
1
40
0.8109
41
0.183327340046603
42
0.212142571055961
0
ELLIPSE
5
191
100
AcDbEntity
8
1
62
256
6
ByLayer
370
-1
48
1
60
0
100
AcDbEllipse
10
62.53082
20
3.887519
30
0
11
-2.10007146976789
21
2.12241424581165E-15
31
0
210
0
220
0
230
1
40
0.965893
41
-1.12176324483798
42
1.11516024067092
0
ELLIPSE
5
192
100
AcDbEntity
8
1
62
256
6
ByLayer
370
-1
48
1
60
0
100
AcDbEllipse
10
62.581964
20
2.283099
30
0
11
-2.0989338790472
21
-0.0669071848755977
31
0
210
0
220
0
230
1
40
0.965893
41
-1.60157603356641
42
-0.407868893159882
0
ELLIPSE
5
193
100
AcDbEntity
8
1
62
256
6
ByLayer
370
-1
48
1
60
0
100
AcDbEllipse
10
62.581964
20
2.283099
30
0
11
-2.0989338790472
21
-0.0669071848755977
31
0
210
0
220
0
230
1
40
0.965893
41
-2.31059436142088
42
-1.60157603356642
0
ELLIPSE
5
194
100
AcDbEntity
8
1
62
256
6
ByLayer
370
-1
48
1
60
0
100
AcDbEllipse
10
73.538868
20
3.743382
30
0
11
-3.57318505599698
21
-0.113901517109649
31
0
210
0
220
0
230
1
40
0.965893
41
0
42
3.14149446002127
0
ELLIPSE
5
195
100
AcDbEntity
8
1
62
256
6
ByLayer
370
-1
48
1
60
0
100
AcDbEllipse
10
73.543406
20
3.601036
30
0
11
-1.53082244245174
21
-0.0487976401692687
31
0
210
0
220
0
230
1
40
0.965893
41
2.58255454168532
42
-3.13345855452385
0
ELLIPSE
5
196
100
AcDbEntity
8
1
62
256
6
ByLayer
370
-1
48
1
60
0
100
AcDbEllipse
10
71.994932
20
4.385368
30
0
11
-0.220311822031576
21
-0.396271708058943
31
0
210
0
220
0
230
1
40
0.477483
41
3.10063506106406
42
-1.39868295265063
0
ELLIPSE
5
197
100
AcDbEntity
8
1
62
256
6
ByLayer
370
-1
48
1
60
0
100
AcDbEllipse
10
75.023796
20
4.505746
30
0
11
-0.251560203762944
21
0.377481807686015
31
0
210
0
220
0
230
1
40
0.477004
41
-1.75382398030675
42
0.0406380766976114
0
ELLIPSE
5
198
100
AcDbEntity
8
1
62
256
6
ByLayer
370
-1
48
1
60
0
100
AcDbEllipse
10
73.475322
20
5.290078
30
0
11
-0.464934634880355
21
-0.0184101245529679
31
0
210
0
220
0
230
1
40
0.453368
41
-2.9674291269153
42
-0.155536891848303
0
ELLIPSE
5
199
100
AcDbEntity
8
1
62
256
6
ByLayer
370
-1
48
1
60
0
100
AcDbEllipse
10
79.588697
20
-4.753532
30
0
11
-0.18
21
2.20429143688028E-17
31
0
210
0
220
0
230
1
40
0.965926
41
2.61799387799154
42
3.14158521367573
0
ELLIPSE
5
19A
100
AcDbEntity
8
1
62
256
6
ByLayer
370
-1
48
1
60
0
100
AcDbEllipse
10
73.58
20
4.049101
30
0
11
-3.89079272364823
21
4.7646894907855E-16
31
0
210
0
220
0
230
1
40
0.965926
41
-1.57079645077646
42
-2.36329679275254E-16
0
ELLIPSE
5
19B
100
AcDbEntity
8
1
62
256
6
ByLayer
370
-1
48
1
60
0
100
AcDbEllipse
10
73.58
20
4.049101
30
0
11
-3.89079272364823
21
4.7646894907855E-16
31
0
210
0
220
0
230
1
40
0.965926
41
0
42
1.25905872878281
0
ELLIPSE
5
19C
100
AcDbEntity
8
1
62
256
6
ByLayer
370
-1
48
1
60
0
100
AcDbEllipse
10
73.58
20
4.049101
30
0
11
-3.89079272364823
21
4.7646894907855E-16
31
0
210
0
220
0
230
1
40
0.965926
41
1.5779302376924
42
-1.57079645077647
0
ELLIPSE
5
19D
100
AcDbEntity
8
1
62
256
6
ByLayer
370
-1
48
1
60
0
100
AcDbEllipse
10
63.721303
20
1.687644
30
0
11
-0.18
21
2.20429143688028E-17
31
0
210
0
220
0
230
1
40
0.965926
41
7.43991411716976E-06
42
0.523598775598274
0
ELLIPSE
5
19E
100
AcDbEntity
8
1
62
256
6
ByLayer
370
-1
48
1
60
0
100
AcDbEllipse
10
73.543406
20
3.601036
30
0
11
-1.53082244245174
21
-0.0487976401692687
31
0
210
0
220
0
230
1
40
0.965893
41
0.00813409906626448
42
0.577662497179928
0
ELLIPSE
5
19F
100
AcDbEntity
8
1
62
256
6
ByLayer
370
-1
48
1
60
0
100
AcDbEllipse
10
73.543406
20
3.601036
30
0
11
-1.53082244245174
21
-0.0487976401692687
31
0
210
0
220
0
230
1
40
0.965893
41
-3.1334585545237
42
-2.08626100332725
0
ELLIPSE
5
1A0
100
AcDbEntity
8
1
62
256
6
ByLayer
370
-1
48
1
60
0
100
AcDbEllipse
10
71.79479
20
3.53154
30
0
11
-0.0181798396677297
21
0.449063237178843
31
0
210
0
220
0
230
1
40
0.485947
41
-2.99115211705175
42
-1.57115553173768
0
ELLIPSE
5
1A1
100
AcDbEntity
8
1
62
256
6
ByLayer
370
-1
48
1
60
0
100
AcDbEllipse
10
67.22694
20
0.847659
30
0
11
-0.25
21
3.06151588455594E-17
31
0
210
0
220
0
230
1
40
0.965926
41
0.52359877559822
42
1.04719755119653
0
ELLIPSE
5
1A2
100
AcDbEntity
8
1
62
256
6
ByLayer
370
-1
48
1
60
0
100
AcDbEllipse
10
68.834252
20
6.908376
30
0
11
0.0999993938050552
21
0.000348193367960498
31
0
210
0
220
0
230
1
40
0.258818
41
1.56989513592266
42
2.23225636693911
0
ELLIPSE
5
1A3
100
AcDbEntity
8
1
62
256
6
ByLayer
370
-1
48
1
60
0
100
AcDbEllipse
10
73.58
20
4.323712
30
0
11
-4.55715258731527
21
5.58071801376437E-16
31
0
210
0
220
0
230
1
40
0.965926
41
1.63542070631863
42
3.04206168902617
0
ELLIPSE
5
1A4
100
AcDbEntity
8
1
62
256
6
ByLayer
370
-1
48
1
60
0
100
AcDbEllipse
10
79.391604
20
-3.229826
30
0
11
-0.126832498249166
21
-0.304653109926479
31
0
210
0
220
0
230
1
40
0.529994
41
1.00258763113998
42
1.6040070274507
0
ELLIPSE
5
1A5
100
AcDbEntity
8
1
62
256
6
ByLayer
370
-1
48
1
60
0
100
AcDbEllipse
10
64.296979
20
3.368961
30
0
11
-0.280367909556004
21
0.174051243291154
31
0
210
0
220
0
230
1
40
0.436831
41
1.22908347753765
42
1.57814932793641
0
ELLIPSE
5
1A6
100
AcDbEntity
8
1
62
256
6
ByLayer
370
-1
48
1
60
0
100
AcDbEllipse
10
79.013021
20
-3.072215
30
0
11
-0.280367909556006
21
-0.17405124329115
31
0
210
0
220
0
230
1
40
0.436831
41
1.56344332565321
42
1.91250917605218
0
ELLIPSE
5
1A7
100
AcDbEntity
8
1
62
256
6
ByLayer
370
-1
48
1
60
0
100
AcDbEllipse
10
71.085785
20
-1.5594
30
0
11
-0.11827119918072
21
0.0789646852103146
31
0
210
0
220
0
230
1
40
0.164608
41
-2.05643543527508
42
-0.559323247016454
0
ELLIPSE
5
1A8
100
AcDbEntity
8
1
62
256
6
ByLayer
370
-1
48
1
60
0
100
AcDbEllipse
10
79.242611
20
-2.00398
30
0
11
0.28
21
0
31
0
210
0
220
0
230
1
40
0.965926
41
1.67444555938108
42
2.61799387799147
0
ELLIPSE
5
1A9
100
AcDbEntity
8
1
62
256
6
ByLayer
370
-1
48
1
60
0
100
AcDbEllipse
10
63.708679
20
6.130381
30
0
11
-1.39720642761275
21
1.24343466798397
31
0
210
0
220
0
230
1
40
0.317977
41
-3.0865216710837
42
-2.53284907313302
0
ELLIPSE
5
1AA
100
AcDbEntity
8
1
62
256
6
ByLayer
370
-1
48
1
60
0
100
AcDbEllipse
10
73.83306
20
11.053158
30
0
11
-0.25
21
3.06151588455594E-17
31
0
210
0
220
0
230
1
40
0.965926
41
-1.5707963267949
42
-1.0471975511966
0
ELLIPSE
5
1AB
100
AcDbEntity
8
1
62
256
6
ByLayer
370
-1
48
1
60
0
100
AcDbEllipse
10
73.543406
20
3.601036
30
0
11
1.53082244245174
21
0.0487976401692744
31
0
210
0
220
0
230
1
40
0.965893
41
1.05533165026276
42
2.1025292014592
0
ELLIPSE
5
1AC
100
AcDbEntity
8
1
62
256
6
ByLayer
370
-1
48
1
60
0
100
AcDbEllipse
10
74.358755
20
5.098454
30
0
11
-0.41340353036827
21
0.205244011927935
31
0
210
0
220
0
230
1
40
0.460764
41
1.55337716153453
42
2.9733737468466
0
ELLIPSE
5
1AD
100
AcDbEntity
8
1
62
256
6
ByLayer
370
-1
48
1
60
0
100
AcDbEllipse
10
77.977964
20
4.359893
30
0
11
-0.0933892390398888
21
-0.0357554196108858
31
0
210
0
220
0
230
1
40
0.811493
41
-1.71234101866909
42
-0.465646669511694
0
ELLIPSE
5
1AE
100
AcDbEntity
8
1
62
256
6
ByLayer
370
-1
48
1
60
0
100
AcDbEllipse
10
76.971196
20
-3.223636
30
0
11
-0.0244056817628232
21
0.32909628180472
31
0
210
0
220
0
230
1
40
0.212688
41
-2.32109110828471
42
-1.97202525788584
0
ELLIPSE
5
1AF
100
AcDbEntity
8
1
62
256
6
ByLayer
370
-1
48
1
60
0
100
AcDbEllipse
10
68.175398
20
2.180234
30
0
11
0.189444718500781
21
0.0783307004447158
31
0
210
0
220
0
230
1
40
0.240358
41
-1.66985325316581
42
-0.746053393592007
0
ELLIPSE
5
1B0
100
AcDbEntity
8
1
62
256
6
ByLayer
370
-1
48
1
60
0
100
AcDbEllipse
10
74.788125
20
11.564341
30
0
11
-1.59418811176816
21
0.920404935446935
31
0
210
0
220
0
230
1
40
0.543239
41
2.64665852722851
42
3.14159265358979
0
ELLIPSE
5
1B1
100
AcDbEntity
8
1
62
256
6
ByLayer
370
-1
48
1
60
0
100
AcDbEllipse
10
78.018883
20
-1.470822
30
0
11
0.280367909556007
21
0.17405124329115
31
0
210
0
220
0
230
1
40
0.436831
41
-1.5781493279365
42
-1.2290834775377
0
ELLIPSE
5
1B2
100
AcDbEntity
8
1
62
256
6
ByLayer
370
-1
48
1
60
0
100
AcDbEllipse
10
77.43
20
12.458583
30
0
11
0.33
21
0
31
0
210
0
220
0
230
1
40
0.179044
41
1.27008662863942
42
1.87150602495029
0
ELLIPSE
5
1B3
100
AcDbEntity
8
1
62
256
6
ByLayer
370
-1
48
1
60
0
100
AcDbEllipse
10
79.391604
20
-3.229826
30
0
11
-0.0680502345822773
21
0.322907363764435
31
0
210
0
220
0
230
1
40
0.473268
41
-2.19069188571173
42
-1.84698238307444
0
ELLIPSE
5
1B4
100
AcDbEntity
8
1
62
256
6
ByLayer
370
-1
48
1
60
0
100
AcDbEllipse
10
70.141479
20
-1.032733
30
0
11
-0.86423522026939
21
0.49028102041755
31
0
210
0
220
0
230
1
40
0.113516
41
1.37330586300126
42
1.52530722372524
0
ELLIPSE
5
1B5
100
AcDbEntity
8
1
62
256
6
ByLayer
370
-1
48
1
60
0
100
AcDbEllipse
10
70.727243
20
0.072131
30
0
11
0.097669407878136
21
0.0214636149036995
31
0
210
0
220
0
230
1
40
0.133839
41
-2.4127180483733
42
-0.915607129146546
0
ELLIPSE
5
1B6
100
AcDbEntity
8
1
62
256
6
ByLayer
370
-1
48
1
60
0
100
AcDbEllipse
10
79.588697
20
-3.326981
30
0
11
-0.169486347385799
21
-0.0666285021755724
31
0
210
0
220
0
230
1
40
0.909771
41
2.2745209884912
42
-2.97660711114766
0
ELLIPSE
5
1B7
100
AcDbEntity
8
1
62
256
6
ByLayer
370
-1
48
1
60
0
100
AcDbEllipse
10
73.612323
20
-0.977338
30
0
11
-0.0958650614773553
21
0.0284585661610504
31
0
210
0
220
0
230
1
40
0.248793
41
-1.49707337413876
42
-0.798941673340512
0
ELLIPSE
5
1B8
100
AcDbEntity
8
1
62
256
6
ByLayer
370
-1
48
1
60
0
100
AcDbEllipse
10
70.727243
20
0.072131
30
0
11
-0.0958650614773553
21
0.0284585661610504
31
0
210
0
220
0
230
1
40
0.248793
41
-2.19520507493685
42
-1.49707337413876
0
ELLIPSE
5
1B9
100
AcDbEntity
8
1
62
256
6
ByLayer
370
-1
48
1
60
0
100
AcDbEllipse
10
78.879427
20
-1.304538
30
0
11
-0.263645429228442
21
-0.103644336749602
31
0
210
0
220
0
230
1
40
0.909771
41
-0.867071665279
42
0.164985542309622
0
ELLIPSE
5
1BA
100
AcDbEntity
8
1
62
256
6
ByLayer
370
-1
48
1
60
0
100
AcDbEllipse
10
78.795037
20
4.024302
30
0
11
-0.0607113847880971
21
0.0794614859986372
31
0
210
0
220
0
230
1
40
0.531032
41
-2.24861291759834
42
-0.751501998372781
0
ELLIPSE
5
1BB
100
AcDbEntity
8
1
62
256
6
ByLayer
370
-1
48
1
60
0
100
AcDbEllipse
10
79.68
20
-0.871876
30
0
11
0.25
21
0
31
0
210
0
220
0
230
1
40
0.965926
41
-0.523598775598321
42
-4.5975489825314E-16
0
ELLIPSE
5
1BC
100
AcDbEntity
8
1
62
256
6
ByLayer
370
-1
48
1
60
0
100
AcDbEllipse
10
66.067434
20
1.091056
30
0
11
0.28
21
0
31
0
210
0
220
0
230
1
40
0.965926
41
0.523598775598252
42
1.55565598315967
0
ELLIPSE
5
1BD
100
AcDbEntity
8
1
62
256
6
ByLayer
370
-1
48
1
60
0
100
AcDbEllipse
10
64.29833
20
3.819227
30
0
11
-0.521140147072553
21
-0.838714963541554
31
0
210
0
220
0
230
1
40
0.33419
41
-0.170646348841834
42
0.173063153966634
0
ELLIPSE
5
1BE
100
AcDbEntity
8
1
62
256
6
ByLayer
370
-1
48
1
60
0
100
AcDbEllipse
10
79.784032
20
9.591024
30
0
11
-0.293251827001488
21
0.498851461208981
31
0
210
0
220
0
230
1
40
0.1155
41
1.50300319001669
42
1.76480257856678
0
ELLIPSE
5
1BF
100
AcDbEntity
8
1
62
256
6
ByLayer
370
-1
48
1
60
0
100
AcDbEllipse
10
69.494479
20
6.247987
30
0
11
0.0707193553373707
21
0.0707019998349885
31
0
210
0
220
0
230
1
40
0.186179
41
0.688637431504297
42
1.3867691323026
0
ELLIPSE
5
1C0
100
AcDbEntity
8
1
62
256
6
ByLayer
370
-1
48
1
60
0
100
AcDbEllipse
10
78.795037
20
4.024302
30
0
11
0.0234138028141552
21
-0.0972203365442635
31
0
210
0
220
0
230
1
40
0.062614
41
1.82515497756404
42
2.52328667836247
0
ELLIPSE
5
1C1
100
AcDbEntity
8
1
62
256
6
ByLayer
370
-1
48
1
60
0
100
AcDbEllipse
10
79.68
20
0.424281
30
0
11
-0.25
21
3.06151588455594E-17
31
0
210
0
220
0
230
1
40
0.965926
41
2.61799387799147
42
3.14159265358979
0
ELLIPSE
5
1C2
100
AcDbEntity
8
1
62
256
6
ByLayer
370
-1
48
1
60
0
100
AcDbEllipse
10
77.501091
20
13.048003
30
0
11
3.4230756289261E-17
21
-0.186349712473815
31
0
210
0
220
0
230
-1
40
0.965926
41
3.14159265358979
42
-2.10953544602835
0
ELLIPSE
5
1C3
100
AcDbEntity
8
1
62
256
6
ByLayer
370
-1
48
1
60
0
100
AcDbEllipse
10
76.861701
20
-4.894268
30
0
11
-0.246281706020769
21
-1.44687180385203
31
0
210
0
220
0
230
1
40
0.435501
41
-3.03422053124801
42
-2.48054793328255
0
ELLIPSE
5
1C4
100
AcDbEntity
8
1
62
256
6
ByLayer
370
-1
48
1
60
0
100
AcDbEllipse
10
73.612323
20
-0.977338
30
0
11
-0.0815388287612337
21
0.0578914450005025
31
0
210
0
220
0
230
1
40
0.081126
41
0.77034221268322
42
2.0166963112083
0
ELLIPSE
5
1C5
100
AcDbEntity
8
1
62
256
6
ByLayer
370
-1
48
1
60
0
100
AcDbEllipse
10
64.768787
20
3.032137
30
0
11
-1.0693773510804
21
0.0877650293738994
31
0
210
0
220
0
230
1
40
0.283031
41
-0.144078371485866
42
0.199631130929624
0
ELLIPSE
5
1C6
100
AcDbEntity
8
1
62
256
6
ByLayer
370
-1
48
1
60
0
100
AcDbEllipse
10
79.68
20
9.159059
30
0
11
-0.25
21
3.06151588455594E-17
31
0
210
0
220
0
230
1
40
0.965926
41
3.14159265358968
42
-2.60285353435638
0
ELLIPSE
5
1C7
100
AcDbEntity
8
1
62
256
6
ByLayer
370
-1
48
1
60
0
100
AcDbEllipse
10
71.21772
20
8.797058
30
0
11
-0.0176175919852409
21
-0.0984358697459497
31
0
210
0
220
0
230
1
40
0.435679
41
-2.75181805365221
42
-1.25470713442584
0
ELLIPSE
5
1C8
100
AcDbEntity
8
1
62
256
6
ByLayer
370
-1
48
1
60
0
100
AcDbEllipse
10
71.704862
20
8.309796
30
0
11
0.0708458295814776
21
-0.0705752678415905
31
0
210
0
220
0
230
1
40
0.498095
41
-1.73464137999781
42
-0.583660487308709
0
ELLIPSE
5
1C9
100
AcDbEntity
8
1
62
256
6
ByLayer
370
-1
48
1
60
0
100
AcDbEllipse
10
76.79386
20
-4.67367
30
0
11
-0.555984567208302
21
-1.27706498534808
31
0
210
0
220
0
230
1
40
0.656815
41
-2.80864099019672
42
-2.31370686386792
0
ELLIPSE
5
1CA
100
AcDbEntity
8
1
62
256
6
ByLayer
370
-1
48
1
60
0
100
AcDbEllipse
10
63.792394
20
2.995257
30
0
11
-0.169486347371923
21
0.0666285021873186
31
0
210
0
220
0
230
1
40
0.909771
41
0.867071665190727
42
1.89912887276462
0
ELLIPSE
5
1CB
100
AcDbEntity
8
1
62
256
6
ByLayer
370
-1
48
1
60
0
100
AcDbEllipse
10
72.908795
20
3.574503
30
0
11
-4.21447141744603
21
1.54494353623584
31
0
210
0
220
0
230
1
40
0.775634
41
-0.571467615018173
42
-0.416967500490392
0
ELLIPSE
5
1CC
100
AcDbEntity
8
1
62
256
6
ByLayer
370
-1
48
1
60
0
100
AcDbEllipse
10
78.293426
20
6.962453
30
0
11
-0.019450438234825
21
-0.0980901649120505
31
0
210
0
220
0
230
1
40
0.248404
41
1.19586357805317
42
2.44221767657676
0
ELLIPSE
5
1CD
100
AcDbEntity
8
1
62
256
6
ByLayer
370
-1
48
1
60
0
100
AcDbEllipse
10
77.565535
20
5.957693
30
0
11
0.0983905190877843
21
0.0178691285080262
31
0
210
0
220
0
230
1
40
0.426852
41
-2.73662359034756
42
-1.48992924119023
0
ELLIPSE
5
1CE
100
AcDbEntity
8
1
62
256
6
ByLayer
370
-1
48
1
60
0
100
AcDbEllipse
10
79.517606
20
-3.445918
30
0
11
-0.16948634737124
21
-0.0666285021895403
31
0
210
0
220
0
230
1
40
0.909771
41
1.2424637808119
42
2.27452098838417
0
ELLIPSE
5
1CF
100
AcDbEntity
8
1
62
256
6
ByLayer
370
-1
48
1
60
0
100
AcDbEllipse
10
73.58
20
4.304529
30
0
11
4.46056000468637
21
0
31
0
210
0
220
0
230
1
40
0.965926
41
-1.50617194727116
42
-0.0995309645636269
0
ELLIPSE
5
1D0
100
AcDbEntity
8
1
62
256
6
ByLayer
370
-1
48
1
60
0
100
AcDbEllipse
10
68.834252
20
6.908376
30
0
11
0.0707193553373707
21
0.0707019998349885
31
0
210
0
220
0
230
1
40
0.186179
41
0.688637431504297
42
1.38676913230289
0
ELLIPSE
5
1D1
100
AcDbEntity
8
1
62
256
6
ByLayer
370
-1
48
1
60
0
100
AcDbEllipse
10
75.372244
20
-3.787007
30
0
11
-0.582438545740914
21
-0.00896074977882096
31
0
210
0
220
0
230
1
40
0.222134
41
1.56737882742758
42
1.82917821534193
0
ELLIPSE
5
1D2
100
AcDbEntity
8
1
62
256
6
ByLayer
370
-1
48
1
60
0
100
AcDbEllipse
10
66.273884
20
4.256859
30
0
11
0.407696636249197
21
-0.243687202764302
31
0
210
0
220
0
230
1
40
0.899519
41
1.37050195614281
42
1.55565598315974
0
ELLIPSE
5
1D3
100
AcDbEntity
8
1
62
256
6
ByLayer
370
-1
48
1
60
0
100
AcDbEllipse
10
79.601321
20
-0.310794
30
0
11
-1.3972064277014
21
-1.24343466804367
31
0
210
0
220
0
230
1
40
0.317977
41
-0.608743580436658
42
-0.0550709825028551
0
ELLIPSE
5
1D4
100
AcDbEntity
8
1
62
256
6
ByLayer
370
-1
48
1
60
0
100
AcDbEllipse
10
77.036116
20
-2.184317
30
0
11
0.407696636249195
21
0.243687202764305
31
0
210
0
220
0
230
1
40
0.899519
41
1.58593667043018
42
1.77109069744698
0
ELLIPSE
5
1D5
100
AcDbEntity
8
1
62
256
6
ByLayer
370
-1
48
1
60
0
100
AcDbEllipse
10
74.600684
20
9.514673
30
0
11
-0.0283609721703525
21
-0.203028705501346
31
0
210
0
220
0
230
1
40
0.037044
41
0.387772811816101
42
1.31157267138878
0
ELLIPSE
5
1D6
100
AcDbEntity
8
1
62
256
6
ByLayer
370
-1
48
1
60
0
100
AcDbEllipse
10
66.338804
20
3.21754
30
0
11
-0.0244056817628264
21
-0.32909628180472
31
0
210
0
220
0
230
1
40
0.212688
41
-1.16956739570376
42
-0.820501545305021
0
ELLIPSE
5
1D7
100
AcDbEntity
8
1
62
256
6
ByLayer
370
-1
48
1
60
0
100
AcDbEllipse
10
73.58
20
4.155983
30
0
11
4.30677329642605
21
0
31
0
210
0
220
0
230
1
40
0.965926
41
2.5335507450173
42
-2.04485855445889
0
ELLIPSE
5
1D8
100
AcDbEntity
8
1
62
256
6
ByLayer
370
-1
48
1
60
0
100
AcDbEllipse
10
74.251205
20
4.826682
30
0
11
-2.29145593411009
21
-4.5897780481958
31
0
210
0
220
0
230
1
40
0.813669
41
-1.95807086921281
42
-1.80357075553271
0
ELLIPSE
5
1D9
100
AcDbEntity
8
1
62
256
6
ByLayer
370
-1
48
1
60
0
100
AcDbEllipse
10
73.58
20
4.116657
30
0
11
4.10875850203679
21
0
31
0
210
0
220
0
230
1
40
0.965926
41
0.351005197120996
42
2.23208209583061
0
ELLIPSE
5
1DA
100
AcDbEntity
8
1
62
256
6
ByLayer
370
-1
48
1
60
0
100
AcDbEllipse
10
73.612323
20
-0.977338
30
0
11
-0.0489941732899978
21
0.0871755182584519
31
0
210
0
220
0
230
1
40
0.130163
41
-2.00557113384216
42
-1.34320990282593
0
ELLIPSE
5
1DB
100
AcDbEntity
8
1
62
256
6
ByLayer
370
-1
48
1
60
0
100
AcDbEllipse
10
73.58
20
4.155983
30
0
11
4.30677329642605
21
0
31
0
210
0
220
0
230
1
40
0.965926
41
-1.65523945976909
42
0.0495365479343019
0
ELLIPSE
5
1DC
100
AcDbEntity
8
1
62
256
6
ByLayer
370
-1
48
1
60
0
100
AcDbEllipse
10
79.391604
20
-3.229826
30
0
11
0.27983711912057
21
0.174903364067991
31
0
210
0
220
0
230
1
40
0.687044
41
-1.75175406408749
42
-1.40804456144992
0
ELLIPSE
5
1DD
100
AcDbEntity
8
1
62
256
6
ByLayer
370
-1
48
1
60
0
100
AcDbEllipse
10
73.805734
20
3.326074
30
0
11
-4.31471699557675
21
-0.458638158099473
31
0
210
0
220
0
230
1
40
0.769112
41
-3.09447606930435
42
-2.93997595567426
0
ELLIPSE
5
1DE
100
AcDbEntity
8
1
62
256
6
ByLayer
370
-1
48
1
60
0
100
AcDbEllipse
10
71.704862
20
8.309796
30
0
11
0.0707193553373707
21
0.0707019998349885
31
0
210
0
220
0
230
1
40
0.186179
41
1.38676913230289
42
2.08490083310046
0
ELLIPSE
5
1DF
100
AcDbEntity
8
1
62
256
6
ByLayer
370
-1
48
1
60
0
100
AcDbEllipse
10
71.21772
20
8.797058
30
0
11
0.0707193553373707
21
0.0707019998349885
31
0
210
0
220
0
230
1
40
0.186179
41
1.38676913230261
42
2.08490083310115
0
ELLIPSE
5
1E0
100
AcDbEntity
8
1
62
256
6
ByLayer
370
-1
48
1
60
0
100
AcDbEllipse
10
66.47113
20
4.586859
30
0
11
-0.524696320827396
21
-0.851289475390242
31
0
210
0
220
0
230
1
40
0.006614
41
1.1187124421927
42
1.61364656853474
0
ELLIPSE
5
1E1
100
AcDbEntity
8
1
62
256
6
ByLayer
370
-1
48
1
60
0
100
AcDbEllipse
10
77.371223
20
6.740357
30
0
11
-0.0822882360331579
21
-0.056821177482971
31
0
210
0
220
0
230
1
40
0.215319
41
-1.71839569512118
42
-0.409398756125272
0
ELLIPSE
5
1E2
100
AcDbEntity
8
1
62
256
6
ByLayer
370
-1
48
1
60
0
100
AcDbEllipse
10
78.114599
20
3.860431
30
0
11
0.0234138028141552
21
-0.0972203365442635
31
0
210
0
220
0
230
1
40
0.062614
41
1.8251549775642
42
2.52328667835875
0
ELLIPSE
5
1E3
100
AcDbEntity
8
1
62
256
6
ByLayer
370
-1
48
1
60
0
100
AcDbEllipse
10
78.293426
20
6.962453
30
0
11
-0.0484170470389849
21
-0.0874973688520102
31
0
210
0
220
0
230
1
40
0.128655
41
-2.46159912593074
42
-1.79923789491392
0
ELLIPSE
5
1E4
100
AcDbEntity
8
1
62
256
6
ByLayer
370
-1
48
1
60
0
100
AcDbEllipse
10
72.683061
20
4.449022
30
0
11
-3.27647401033056
21
3.71697941993438
31
0
210
0
220
0
230
1
40
0.801115
41
1.91419235292351
42
2.0686924666309
0
ELLIPSE
5
1E5
100
AcDbEntity
8
1
62
256
6
ByLayer
370
-1
48
1
60
0
100
AcDbEllipse
10
77.963918
20
0.472597
30
0
11
-0.158867671877892
21
0.129561039020604
31
0
210
0
220
0
230
1
40
0.203314
41
0.81130979709347
42
1.73510965666679
0
ELLIPSE
5
1E6
100
AcDbEntity
8
1
62
256
6
ByLayer
370
-1
48
1
60
0
100
AcDbEllipse
10
65.583724
20
6.592541
30
0
11
-0.278074365131619
21
-0.507317658893128
31
0
210
0
220
0
230
1
40
0.109647
41
1.11156378007174
42
1.37336316881243
0
ELLIPSE
5
1E7
100
AcDbEntity
8
1
62
256
6
ByLayer
370
-1
48
1
60
0
100
AcDbEllipse
10
73.208608
20
-0.088886
30
0
11
-0.00822954823400344
21
-0.0996607973872586
31
0
210
0
220
0
230
1
40
0.681404
41
-3.14037555862631
42
-1.89368120946859
0
ELLIPSE
5
1E8
100
AcDbEntity
8
1
62
256
6
ByLayer
370
-1
48
1
60
0
100
AcDbEllipse
10
70.727243
20
0.072131
30
0
11
0.0858357408699124
21
0.0513052199031761
31
0
210
0
220
0
230
1
40
0.224144
41
1.43761528600884
42
2.39754581004749
0
ELLIPSE
5
1E9
100
AcDbEntity
8
1
62
256
6
ByLayer
370
-1
48
1
60
0
100
AcDbEllipse
10
66.51614
20
1.767506
30
0
11
-0.555984567243785
21
1.27706498512047
31
0
210
0
220
0
230
1
40
0.656815
41
-0.827885789839092
42
-0.332951663469412
0
ELLIPSE
5
1EA
100
AcDbEntity
8
1
62
256
6
ByLayer
370
-1
48
1
60
0
100
AcDbEllipse
10
70.920539
20
0.723264
30
0
11
0.0570236631990147
21
0.0821480482748394
31
0
210
0
220
0
230
1
40
0.151041
41
0.0475492260550008
42
1.35654616505117
0
ELLIPSE
5
1EB
100
AcDbEntity
8
1
62
256
6
ByLayer
370
-1
48
1
60
0
100
AcDbEllipse
10
80.071875
20
11.564341
30
0
11
-1.59418811185714
21
-0.920404935519432
31
0
210
0
220
0
230
1
40
0.543239
41
0
42
0.494934126340318
0
ELLIPSE
5
1EC
100
AcDbEntity
8
1
62
256
6
ByLayer
370
-1
48
1
60
0
100
AcDbEllipse
10
77.893621
20
4.462462
30
0
11
-0.0542725616548145
21
-0.0839910057769543
31
0
210
0
220
0
230
1
40
0.69881
41
-2.19953785044698
42
-1.27893209002892
0
ELLIPSE
5
1ED
100
AcDbEntity
8
1
62
256
6
ByLayer
370
-1
48
1
60
0
100
AcDbEllipse
10
69.494479
20
6.247987
30
0
11
-0.0644640280582146
21
0.0764486042155755
31
0
210
0
220
0
230
1
40
0.772408
41
-2.53750926881714
42
-1.38652837612814
0
ELLIPSE
5
1EE
100
AcDbEntity
8
1
62
256
6
ByLayer
370
-1
48
1
60
0
100
AcDbEllipse
10
79.242611
20
-0.69692
30
0
11
-0.263645429245868
21
-0.103644336735403
31
0
210
0
220
0
230
1
40
0.909771
41
-1.8106199838095
42
-0.867071665189455
0
ELLIPSE
5
1EF
100
AcDbEntity
8
1
62
256
6
ByLayer
370
-1
48
1
60
0
100
AcDbEllipse
10
73.58
20
4.323712
30
0
11
-4.55715258731527
21
5.58071801376437E-16
31
0
210
0
220
0
230
1
40
0.965926
41
-0.458974396074563
42
0.94766658663298
0
ELLIPSE
5
1F0
100
AcDbEntity
8
1
62
256
6
ByLayer
370
-1
48
1
60
0
100
AcDbEllipse
10
79.376429
20
-0.276789
30
0
11
0.150000000000001
21
0
31
0
210
0
220
0
230
1
40
0.965926
41
-1.46714709420831
42
-0.523598775598301
0
ELLIPSE
5
1F1
100
AcDbEntity
8
1
62
256
6
ByLayer
370
-1
48
1
60
0
100
AcDbEllipse
10
70.920539
20
0.723264
30
0
11
0.053906344485729
21
0.0842265161584279
31
0
210
0
220
0
230
1
40
0.541246
41
-1.20688822789651
42
-0.0559073352069788
0
ELLIPSE
5
1F2
100
AcDbEntity
8
1
62
256
6
ByLayer
370
-1
48
1
60
0
100
AcDbEllipse
10
75.066772
20
11.26423
30
0
11
-5.32478431166282E-17
21
-0.289877330514823
31
0
210
0
220
0
230
1
40
0.965926
41
-0.943548318610203
42
0
0
ELLIPSE
5
1F3
100
AcDbEntity
8
1
62
256
6
ByLayer
370
-1
48
1
60
0
100
AcDbEllipse
10
74.476939
20
3.952163
30
0
11
-3.94488809354563
21
-2.55686575600243
31
0
210
0
220
0
230
1
40
0.78611
41
0.794425994635683
42
0.948926108511813
0
ELLIPSE
5
1F4
100
AcDbEntity
8
1
62
256
6
ByLayer
370
-1
48
1
60
0
100
AcDbEllipse
10
77.557581
20
5.764319
30
0
11
0.0957546058681737
21
-0.0288280324516039
31
0
210
0
220
0
230
1
40
0.354917
41
-2.22276421073769
42
-1.30215845031997
0
ELLIPSE
5
1F5
100
AcDbEntity
8
1
62
256
6
ByLayer
370
-1
48
1
60
0
100
AcDbEllipse
10
80.16962
20
11.620774
30
0
11
-1.59418811187576
21
-0.920404935532346
31
0
210
0
220
0
230
1
40
0.36397
41
0
42
0.553672597934889
0
ELLIPSE
5
1F6
100
AcDbEntity
8
1
62
256
6
ByLayer
370
-1
48
1
60
0
100
AcDbEllipse
10
63.918396
20
3.21135
30
0
11
-0.0680502345822842
21
-0.322907363764433
31
0
210
0
220
0
230
1
40
0.473268
41
-1.29461027051544
42
-0.950900767878002
0
ELLIPSE
5
1F7
100
AcDbEntity
8
1
62
256
6
ByLayer
370
-1
48
1
60
0
100
AcDbEllipse
10
63.918396
20
3.21135
30
0
11
-0.126832498249142
21
0.304653109926489
31
0
210
0
220
0
230
1
40
0.529994
41
1.53758562613896
42
2.13900502244979
0
ELLIPSE
5
1F8
100
AcDbEntity
8
1
62
256
6
ByLayer
370
-1
48
1
60
0
100
AcDbEllipse
10
71.385718
20
-1.6645
30
0
11
-0.265540756626157
21
0.158065035280153
31
0
210
0
220
0
230
1
40
0.21771
41
1.00153969958409
42
1.69967140026057
0
ELLIPSE
5
1F9
100
AcDbEntity
8
1
62
256
6
ByLayer
370
-1
48
1
60
0
100
AcDbEllipse
10
66.448299
20
1.546907
30
0
11
-0.246281706018926
21
1.44687180392129
31
0
210
0
220
0
230
1
40
0.435501
41
-0.661044720287425
42
-0.107372122335628
0
ELLIPSE
5
1FA
100
AcDbEntity
8
1
62
256
6
ByLayer
370
-1
48
1
60
0
100
AcDbEllipse
10
65.907004
20
6.527385
30
0
11
-0.25
21
3.06151588455594E-17
31
0
210
0
220
0
230
1
40
0.965926
41
-1.0471975511966
42
-0.50845843196311
0
ELLIPSE
5
1FB
100
AcDbEntity
8
1
62
256
6
ByLayer
370
-1
48
1
60
0
100
AcDbEllipse
10
76.83887
20
-1.854317
30
0
11
0.999872590049715
21
-0.0159625708228603
31
0
210
0
220
0
230
1
40
0.381614
41
-1.83354870516589
42
-1.33861457882499
0
ELLIPSE
5
1FC
100
AcDbEntity
8
1
62
256
6
ByLayer
370
-1
48
1
60
0
100
AcDbEllipse
10
65.291117
20
4.970354
30
0
11
0.280367909556004
21
-0.174051243291154
31
0
210
0
220
0
230
1
40
0.436831
41
-1.91250917605214
42
-1.56344332565329
0
ELLIPSE
5
1FD
100
AcDbEntity
8
1
62
256
6
ByLayer
370
-1
48
1
60
0
100
AcDbEllipse
10
71.11166
20
7.549677
30
0
11
0.0981183198123733
21
-0.0193079081517613
31
0
210
0
220
0
230
1
40
0.348347
41
-1.99181210224573
42
-1.07120634182744
0
ELLIPSE
5
1FE
100
AcDbEntity
8
1
62
256
6
ByLayer
370
-1
48
1
60
0
100
AcDbEllipse
10
77.900457
20
12.119498
30
0
11
0.548853667006054
21
-0.950642437174977
31
-3.96077485869046E-16
210
1.48803634196996E-16
220
5.02553733643136E-16
230
-1
40
0.300627
41
2.96973790227106
42
-2.96973790227104
0
ELLIPSE
5
1FF
100
AcDbEntity
8
1
62
256
6
ByLayer
370
-1
48
1
60
0
100
AcDbEllipse
10
73.874298
20
-0.094852
30
0
11
0.0061933315745821
21
-0.0998080289556271
31
0
210
0
220
0
230
1
40
0.650092
41
-3.14090586896474
42
-1.98992497627534
0
ELLIPSE
5
200
100
AcDbEntity
8
1
62
256
6
ByLayer
370
-1
48
1
60
0
100
AcDbEllipse
10
79.376429
20
-1.572945
30
0
11
-0.150000000000001
21
1.83690953073358E-17
31
0
210
0
220
0
230
1
40
0.965926
41
1.67444555938148
42
2.61799387799149
0
ELLIPSE
5
201
100
AcDbEntity
8
1
62
256
6
ByLayer
370
-1
48
1
60
0
100
AcDbEllipse
10
71.704862
20
8.309796
30
0
11
0.0399724001135435
21
-0.0916635545304828
31
0
210
0
220
0
230
1
40
0.106497
41
0.501325954991791
42
1.810322893989
0
ELLIPSE
5
202
100
AcDbEntity
8
1
62
256
6
ByLayer
370
-1
48
1
60
0
100
AcDbEllipse
10
66.750164
20
1.452136
30
0
11
0.150000000000001
21
0
31
0
210
0
220
0
230
1
40
0.965926
41
2.72164311057791
42
-2.61799387799147
0
ELLIPSE
5
203
100
AcDbEntity
8
1
62
256
6
ByLayer
370
-1
48
1
60
0
100
AcDbEllipse
10
66.273884
20
4.256859
30
0
11
0.407696636249197
21
-0.243687202764302
31
0
210
0
220
0
230
1
40
0.899519
41
0.508458431963116
42
0.693612458979964
0
ELLIPSE
5
204
100
AcDbEntity
8
1
62
256
6
ByLayer
370
-1
48
1
60
0
100
AcDbEllipse
10
70.920539
20
0.723264
30
0
11
-0.0958650614773553
21
0.0284585661610504
31
0
210
0
220
0
230
1
40
0.248793
41
-2.19520507493632
42
-1.49707337413876
0
ELLIPSE
5
205
100
AcDbEntity
8
1
62
256
6
ByLayer
370
-1
48
1
60
0
100
AcDbEllipse
10
77.358909
20
13.048003
30
0
11
3.4230756289261E-17
21
-0.186349712473815
31
0
210
0
220
0
230
-1
40
0.965926
41
2.10953544602835
42
3.14159265358979
0
ELLIPSE
5
206
100
AcDbEntity
8
1
62
256
6
ByLayer
370
-1
48
1
60
0
100
AcDbEllipse
10
77.371223
20
6.740357
30
0
11
0.0234138028141552
21
-0.0972203365442635
31
0
210
0
220
0
230
1
40
0.062614
41
1.12702327676524
42
1.82515497756535
0
ELLIPSE
5
207
100
AcDbEntity
8
1
62
256
6
ByLayer
370
-1
48
1
60
0
100
AcDbEllipse
10
68.643479
20
8.52382
30
0
11
-0.265540756542939
21
-0.158065035229427
31
0
210
0
220
0
230
1
40
0.21771
41
0.743789552428398
42
1.44192125331117
0
ELLIPSE
5
208
100
AcDbEntity
8
1
62
256
6
ByLayer
370
-1
48
1
60
0
100
AcDbEllipse
10
71.192191
20
7.722948
30
0
11
0.0793895987169423
21
-0.0608053584444898
31
0
210
0
220
0
230
1
40
0.478471
41
-1.79813481618621
42
-0.551440467028714
0
ELLIPSE
5
209
100
AcDbEntity
8
1
62
256
6
ByLayer
370
-1
48
1
60
0
100
AcDbEllipse
10
72.166521
20
-2.099937
30
0
11
-0.265540756592901
21
0.158065035271478
31
0
210
0
220
0
230
1
40
0.21771
41
1.69967140042257
42
2.3978031011815
0
ELLIPSE
5
20A
100
AcDbEntity
8
1
62
256
6
ByLayer
370
-1
48
1
60
0
100
AcDbEllipse
10
64.296979
20
3.368961
30
0
11
0.0244056817628262
21
0.32909628180472
31
0
210
0
220
0
230
1
40
0.212688
41
1.97202525788589
42
2.32109110828477
0
ELLIPSE
5
20B
100
AcDbEntity
8
1
62
256
6
ByLayer
370
-1
48
1
60
0
100
AcDbEllipse
10
77.43
20
12.934353
30
0
11
-0.285788383248865
21
-0.165
31
0
210
0
220
0
230
1
40
0.300627
41
-1.7426510781138
42
-1.3989415754763
0
ELLIPSE
5
20C
100
AcDbEntity
8
1
62
256
6
ByLayer
370
-1
48
1
60
0
100
AcDbEllipse
10
63.874265
20
6.187449
30
0
11
-1.26653658637092
21
1.43174797842398
31
0
210
0
220
0
230
1
40
0.454967
41
-3.00617297752225
42
-2.51123885117076
0
ELLIPSE
5
20D
100
AcDbEntity
8
1
62
256
6
ByLayer
370
-1
48
1
60
0
100
AcDbEllipse
10
71.569845
20
0.365011
30
0
11
0.0423768600694969
21
0.0905770485865502
31
0
210
0
220
0
230
1
40
0.572137
41
-1.28031578338609
42
-0.0336214342286874
0
ELLIPSE
5
20E
100
AcDbEntity
8
1
62
256
6
ByLayer
370
-1
48
1
60
0
100
AcDbEllipse
10
77.43
20
12.934353
30
0
11
0.33
21
0
31
0
210
0
220
0
230
1
40
0.179044
41
1.27008662863942
42
1.87150602495029
0
ELLIPSE
5
20F
100
AcDbEntity
8
1
62
256
6
ByLayer
370
-1
48
1
60
0
100
AcDbEllipse
10
63.721303
20
3.114195
30
0
11
-0.169486347389383
21
0.0666285021695676
31
0
210
0
220
0
230
1
40
0.909771
41
-0.164985542475757
42
0.867071665061427
0
ELLIPSE
5
210
100
AcDbEntity
8
1
62
256
6
ByLayer
370
-1
48
1
60
0
100
AcDbEllipse
10
73.58
20
4.304529
30
0
11
4.46056000468637
21
0
31
0
210
0
220
0
230
1
40
0.965926
41
0.588223155122035
42
1.99486413782958
0
ELLIPSE
5
211
100
AcDbEntity
8
1
62
256
6
ByLayer
370
-1
48
1
60
0
100
AcDbEllipse
10
75.793139
20
11.26423
30
0
11
-5.32478431166284E-17
21
-0.289877330514824
31
0
210
0
220
0
230
1
40
0.965926
41
0
42
1.03205720756139
0
ELLIPSE
5
212
100
AcDbEntity
8
1
62
256
6
ByLayer
370
-1
48
1
60
0
100
AcDbEllipse
10
70.112467
20
6.617646
30
0
11
0.000111086166783291
21
0.0999999382992987
31
0
210
0
220
0
230
1
40
0.594548
41
-1.80974171774513
42
-0.889135957326855
0
ELLIPSE
5
213
100
AcDbEntity
8
1
62
256
6
ByLayer
370
-1
48
1
60
0
100
AcDbEllipse
10
75.152996
20
-3.678114
30
0
11
-0.25
21
3.06151588455594E-17
31
0
210
0
220
0
230
1
40
0.965926
41
1.0471975511966
42
1.58593667043004
0
ELLIPSE
5
214
100
AcDbEntity
8
1
62
256
6
ByLayer
370
-1
48
1
60
0
100
AcDbEllipse
10
79.01167
20
-2.621949
30
0
11
-0.521140147780446
21
0.838714964674242
31
0
210
0
220
0
230
1
40
0.33419
41
2.96852949973918
42
-2.97094630486491
0
ELLIPSE
5
215
100
AcDbEntity
8
1
62
256
6
ByLayer
370
-1
48
1
60
0
100
AcDbEllipse
10
73.58
20
4.304529
30
0
11
4.46056000468637
21
0
31
0
210
0
220
0
230
1
40
0.965926
41
2.68261825751523
42
-2.19392606695682
0
ELLIPSE
5
216
100
AcDbEntity
8
1
62
256
6
ByLayer
370
-1
48
1
60
0
100
AcDbEllipse
10
68.834252
20
6.908376
30
0
11
0.0901424350130286
21
0.0432936647781397
31
0
210
0
220
0
230
1
40
0.507069
41
0.810181528824743
42
2.0565356273493
0
ELLIPSE
5
217
100
AcDbEntity
8
1
62
256
6
ByLayer
370
-1
48
1
60
0
100
AcDbEllipse
10
66.47113
20
4.586859
30
0
11
0.999872590049715
21
0.0159625708228539
31
0
210
0
220
0
230
1
40
0.381614
41
-1.80297807476478
42
-1.30804394842388
0
ELLIPSE
5
218
100
AcDbEntity
8
1
62
256
6
ByLayer
370
-1
48
1
60
0
100
AcDbEllipse
10
66.430618
20
1.790498
30
0
11
-0.263645429233694
21
0.103644336748642
31
0
210
0
220
0
230
1
40
0.909771
41
3.06511600022483
42
-2.27452098832733
0
ELLIPSE
5
219
100
AcDbEntity
8
1
62
256
6
ByLayer
370
-1
48
1
60
0
100
AcDbEllipse
10
70.668521
20
9.591024
30
0
11
-0.864235172772092
21
-0.490280995115848
31
0
210
0
220
0
230
1
40
0.113516
41
1.61628541956977
42
1.76828678842656
0
ELLIPSE
5
21A
100
AcDbEntity
8
1
62
256
6
ByLayer
370
-1
48
1
60
0
100
AcDbEllipse
10
63.792394
20
1.568706
30
0
11
-0.18
21
2.20429143688028E-17
31
0
210
0
220
0
230
1
40
0.965926
41
0.523598775598199
42
1.55565598315966
0
ELLIPSE
5
21B
100
AcDbEntity
8
1
62
256
6
ByLayer
370
-1
48
1
60
0
100
AcDbEllipse
10
78.114599
20
3.860431
30
0
11
-0.0986066537078616
21
-0.0166351388493715
31
0
210
0
220
0
230
1
40
0.815586
41
-1.55065635390049
42
-0.399675461211747
0
ELLIPSE
5
21C
100
AcDbEntity
8
1
62
256
6
ByLayer
370
-1
48
1
60
0
100
AcDbEllipse
10
73.58
20
4.155983
30
0
11
4.30677329642605
21
0
31
0
210
0
220
0
230
1
40
0.965926
41
0.43915564262411
42
2.14393165032749
0
ELLIPSE
5
21D
100
AcDbEntity
8
1
62
256
6
ByLayer
370
-1
48
1
60
0
100
AcDbEllipse
10
78.795037
20
4.024302
30
0
11
-0.0858355118444842
21
0.0513056030701854
31
0
210
0
220
0
230
1
40
0.224144
41
-2.39754480947837
42
-1.4376142854389
0
ELLIPSE
5
21E
100
AcDbEntity
8
1
62
256
6
ByLayer
370
-1
48
1
60
0
100
AcDbEllipse
10
78.541213
20
-3.409039
30
0
11
-1.06937735094074
21
-0.0877650293612538
31
0
210
0
220
0
230
1
40
0.283031
41
2.94196152264726
42
-2.99751428209419
0
ELLIPSE
5
21F
100
AcDbEntity
8
1
62
256
6
ByLayer
370
-1
48
1
60
0
100
AcDbEllipse
10
77.43
20
12.934353
30
0
11
-0.285788383248866
21
0.164999999999998
31
0
210
0
220
0
230
1
40
0.300627
41
-1.74265107811367
42
-1.39894157547621
0
ELLIPSE
5
220
100
AcDbEntity
8
1
62
256
6
ByLayer
370
-1
48
1
60
0
100
AcDbEllipse
10
79.013021
20
-3.072215
30
0
11
-0.126832498249166
21
-0.304653109926479
31
0
210
0
220
0
230
1
40
0.529994
41
1.00258763114013
42
1.60400702745088
0
ELLIPSE
5
221
100
AcDbEntity
8
1
62
256
6
ByLayer
370
-1
48
1
60
0
100
AcDbEllipse
10
79.013021
20
-3.072215
30
0
11
0.0244056817628231
21
-0.32909628180472
31
0
210
0
220
0
230
1
40
0.212688
41
0.820501545304845
42
1.16956739570367
0
ELLIPSE
5
222
100
AcDbEntity
8
1
62
256
6
ByLayer
370
-1
48
1
60
0
100
AcDbEllipse
10
66.067434
20
2.398116
30
0
11
-0.263645429248728
21
0.103644336731614
31
0
210
0
220
0
230
1
40
0.909771
41
-2.27452098841494
42
-1.24246378084735
0
ELLIPSE
5
223
100
AcDbEntity
8
1
62
256
6
ByLayer
370
-1
48
1
60
0
100
AcDbEllipse
10
79.517606
20
-4.872469
30
0
11
-0.18
21
2.20429143688028E-17
31
0
210
0
220
0
230
1
40
0.965926
41
1.58593667043013
42
2.61799387799155
0
ELLIPSE
5
224
100
AcDbEntity
8
1
62
256
6
ByLayer
370
-1
48
1
60
0
100
AcDbEllipse
10
74.69038
20
11.620774
30
0
11
-1.59418811188127
21
0.920404935539963
31
0
210
0
220
0
230
1
40
0.36397
41
2.58792005565699
42
3.14159265358979
0
ELLIPSE
5
225
100
AcDbEntity
8
1
62
256
6
ByLayer
370
-1
48
1
60
0
100
AcDbEllipse
10
76.959543
20
12.119498
30
0
11
0.548853667006055
21
0.950642437174978
31
5.48414980434064E-16
210
1.70385485382737E-16
220
4.78516700063341E-16
230
-1
40
0.300627
41
-0.171854751318683
42
0.171854751318792
0
ELLIPSE
5
226
100
AcDbEntity
8
1
62
256
6
ByLayer
370
-1
48
1
60
0
100
AcDbEllipse
10
69.494479
20
6.247987
30
0
11
0.0890256590156545
21
-0.0455459332633378
31
0
210
0
220
0
230
1
40
0.232033
41
0.379955673676073
42
1.68895261267225
0
ELLIPSE
5
227
100
AcDbEntity
8
1
62
256
6
ByLayer
370
-1
48
1
60
0
100
AcDbEllipse
10
74.613407
20
11.14975
30
0
11
0.150000000000001
21
0
31
0
210
0
220
0
230
1
40
0.965926
41
0.62724800818456
42
1.5707963267949
0
ELLIPSE
5
228
100
AcDbEntity
8
1
62
256
6
ByLayer
370
-1
48
1
60
0
100
AcDbEllipse
10
73.58
20
4.116657
30
0
11
4.00875850203679
21
0
31
0
210
0
220
0
230
1
40
0.965926
41
0
42
6.28318530717959
0
ELLIPSE
5
229
100
AcDbEntity
8
1
62
256
6
ByLayer
370
-1
48
1
60
0
100
AcDbEllipse
10
73.58
20
4.116657
30
0
11
4.10875850203679
21
0
31
0
210
0
220
0
230
1
40
0.965926
41
-1.7433899052722
42
0.137686993437418
0
ELLIPSE
5
22A
100
AcDbEntity
8
1
62
256
6
ByLayer
370
-1
48
1
60
0
100
AcDbEllipse
10
69.424282
20
8.959257
30
0
11
-0.265540756543561
21
-0.158065035240863
31
0
210
0
220
0
230
1
40
0.21771
41
1.44192125316546
42
2.14005295404747
0
ELLIPSE
5
22B
100
AcDbEntity
8
1
62
256
6
ByLayer
370
-1
48
1
60
0
100
AcDbEllipse
10
73.58
20
4.116657
30
0
11
4.10875850203679
21
0
31
0
210
0
220
0
230
1
40
0.965926
41
2.44540029951419
42
-1.95670810895579
0
ELLIPSE
5
22C
100
AcDbEntity
8
1
62
256
6
ByLayer
370
-1
48
1
60
0
100
AcDbEllipse
10
73.874298
20
-0.094852
30
0
11
-0.00623876323127294
21
0.099805199430411
31
0
210
0
220
0
230
1
40
0.016714
41
-1.30951886907964
42
-0.000521930084575222
0
ELLIPSE
5
22D
100
AcDbEntity
8
1
62
256
6
ByLayer
370
-1
48
1
60
0
100
AcDbEllipse
10
79.435735
20
-0.253727
30
0
11
-1.26653658634834
21
-1.43174797841229
31
0
210
0
220
0
230
1
40
0.454967
41
-0.630353802425109
42
-0.135419676069822
0
ELLIPSE
5
22E
100
AcDbEntity
8
1
62
256
6
ByLayer
370
-1
48
1
60
0
100
AcDbEllipse
10
73.354266
20
5.075111
30
0
11
-0.75152756854015
21
5.18283011389669
31
0
210
0
220
0
230
1
40
0.822597
41
-1.52745885420856
42
-1.37295873976505
0
ELLIPSE
5
22F
100
AcDbEntity
8
1
62
256
6
ByLayer
370
-1
48
1
60
0
100
AcDbEllipse
10
64.296979
20
3.368961
30
0
11
-0.126832498249142
21
0.304653109926489
31
0
210
0
220
0
230
1
40
0.529994
41
1.53758562613892
42
2.13900502244971
0
ELLIPSE
5
230
100
AcDbEntity
8
1
62
256
6
ByLayer
370
-1
48
1
60
0
100
AcDbEllipse
10
77.371223
20
6.740357
30
0
11
0.0953115450933769
21
0.0302606902088036
31
0
210
0
220
0
230
1
40
0.432428
41
-2.69586691823433
42
-1.54488602554557
0
ELLIPSE
5
231
100
AcDbEntity
8
1
62
256
6
ByLayer
370
-1
48
1
60
0
100
AcDbEllipse
10
63.918396
20
3.21135
30
0
11
0.279837119120569
21
-0.174903364067992
31
0
210
0
220
0
230
1
40
0.687044
41
-1.73354809213969
42
-1.38983858950222
0
ELLIPSE
5
232
100
AcDbEntity
8
1
62
256
6
ByLayer
370
-1
48
1
60
0
100
AcDbEllipse
10
69.965857
20
6.579044
30
0
11
-0.0503133603258619
21
0.0864208642210895
31
0
210
0
220
0
230
1
40
0.753845
41
-2.50078315780712
42
-1.25408880864945
0
ELLIPSE
5
233
100
AcDbEntity
8
1
62
256
6
ByLayer
370
-1
48
1
60
0
100
AcDbEllipse
10
73.543406
20
3.601036
30
0
11
-1.53082244245174
21
-0.0487976401692687
31
0
210
0
220
0
230
1
40
0.965893
41
-1.03906345213051
42
0.00813409906606727
0
ELLIPSE
5
234
100
AcDbEntity
8
1
62
256
6
ByLayer
370
-1
48
1
60
0
100
AcDbEllipse
10
74.358755
20
5.098454
30
0
11
-0.413403530366551
21
0.205244011928678
31
0
210
0
220
0
230
1
40
0.460764
41
0.133380576226389
42
1.55337716154148
0
ELLIPSE
5
235
100
AcDbEntity
8
1
62
256
6
ByLayer
370
-1
48
1
60
0
100
AcDbEllipse
10
72.610139
20
5.028957
30
0
11
-0.395600201044663
21
-0.237330104854991
31
0
210
0
220
0
230
1
40
0.461203
41
1.58857199784409
42
3.00856858315226
0
ELLIPSE
5
236
100
AcDbEntity
8
1
62
256
6
ByLayer
370
-1
48
1
60
0
100
AcDbEllipse
10
73.528556
20
4.066894
30
0
11
1.96750063852587
21
0.0627175206798222
31
0
210
0
220
0
230
1
40
0.965893
41
2.62612797705758
42
-2.60985977892538
0
ELLIPSE
5
237
100
AcDbEntity
8
1
62
256
6
ByLayer
370
-1
48
1
60
0
100
AcDbEllipse
10
73.528556
20
4.066894
30
0
11
1.96750063852587
21
0.0627175206798222
31
0
210
0
220
0
230
1
40
0.965893
41
1.57893042586104
42
2.62612797705758
0
ELLIPSE
5
238
100
AcDbEntity
8
1
62
256
6
ByLayer
370
-1
48
1
60
0
100
AcDbEllipse
10
73.528556
20
4.066894
30
0
11
1.96750063852587
21
0.0627175206798222
31
0
210
0
220
0
230
1
40
0.965893
41
-0.515464676532228
42
0.53173287466434
0
ELLIPSE
5
239
100
AcDbEntity
8
1
62
256
6
ByLayer
370
-1
48
1
60
0
100
AcDbEllipse
10
73.528556
20
4.066894
30
0
11
1.96750063852587
21
0.0627175206798222
31
0
210
0
220
0
230
1
40
0.965893
41
-1.5626622277288
42
-0.515464676532228
0
ELLIPSE
5
23A
100
AcDbEntity
8
1
62
256
6
ByLayer
370
-1
48
1
60
0
100
AcDbEllipse
10
73.528556
20
4.066894
30
0
11
1.96750063852587
21
0.0627175206798222
31
0
210
0
220
0
230
1
40
0.965893
41
0.531732874664341
42
1.57893042586104
0
ELLIPSE
5
23B
100
AcDbEntity
8
1
62
256
6
ByLayer
370
-1
48
1
60
0
100
AcDbEllipse
10
73.528556
20
4.066894
30
0
11
1.96750063852587
21
0.0627175206798222
31
0
210
0
220
0
230
1
40
0.965893
41
-2.60985977892538
42
-1.5626622277288
0
ELLIPSE
5
23C
100
AcDbEntity
8
1
62
256
6
ByLayer
370
-1
48
1
60
0
100
AcDbEllipse
10
75.292021
20
3.670532
30
0
11
-0.0181798396701199
21
0.449063237177203
31
0
210
0
220
0
230
1
40
0.485947
41
1.57043712184161
42
2.99043370715855
0
ELLIPSE
5
23D
100
AcDbEntity
8
1
62
256
6
ByLayer
370
-1
48
1
60
0
100
AcDbEllipse
10
73.069952
20
-0.036977
30
0
11
-0.0644023053048805
21
-0.0765006083074962
31
0
210
0
220
0
230
1
40
0.715367
41
-2.37580915983247
42
-1.45520339941484
0
ELLIPSE
5
23E
100
AcDbEntity
8
1
62
256
6
ByLayer
370
-1
48
1
60
0
100
AcDbEllipse
10
71.734719
20
0.332849
30
0
11
-0.0108618171312797
21
0.0994083544205749
31
0
210
0
220
0
230
1
40
0.617676
41
-1.61095363736347
42
-0.690347876945272
0
ELLIPSE
5
23F
100
AcDbEntity
8
1
62
256
6
ByLayer
370
-1
48
1
60
0
100
AcDbEllipse
10
77.036116
20
-2.184317
30
0
11
0.407696636249195
21
0.243687202764305
31
0
210
0
220
0
230
1
40
0.899519
41
2.44798019460978
42
2.63313422162667
0
ELLIPSE
5
240
100
AcDbEntity
8
1
62
256
6
ByLayer
370
-1
48
1
60
0
100
AcDbEllipse
10
76.83887
20
-1.854317
30
0
11
-0.524696320827388
21
0.851289475390248
31
0
210
0
220
0
230
1
40
0.006614
41
1.52794608505509
42
2.02288021139683
0
ELLIPSE
5
241
100
AcDbEntity
8
1
62
256
6
ByLayer
370
-1
48
1
60
0
100
AcDbEllipse
10
78.293426
20
6.962453
30
0
11
0.0234138028141552
21
-0.0972203365442635
31
0
210
0
220
0
230
1
40
0.062614
41
1.12702327676709
42
1.82515497756521
0
ELLIPSE
5
242
100
AcDbEntity
8
1
62
256
6
ByLayer
370
-1
48
1
60
0
100
AcDbEllipse
10
73.874298
20
-0.094852
30
0
11
-0.0958650614773553
21
0.0284585661610504
31
0
210
0
220
0
230
1
40
0.248793
41
-1.49707337413876
42
-0.798941673341349
0
ELLIPSE
5
243
100
AcDbEntity
8
1
62
256
6
ByLayer
370
-1
48
1
60
0
100
AcDbEllipse
10
78.114599
20
3.860431
30
0
11
-0.099469837141854
21
0.0102835547829062
31
0
210
0
220
0
230
1
40
0.257538
41
-1.54417738505915
42
-0.235180446063447
0
ELLIPSE
5
244
100
AcDbEntity
8
1
62
256
6
ByLayer
370
-1
48
1
60
0
100
AcDbEllipse
10
73.58
20
4.323712
30
0
11
-4.55715258731527
21
5.58071801376437E-16
31
0
210
0
220
0
230
1
40
0.965926
41
-2.55336949846776
42
-1.14672851576022
0
ELLIPSE
5
245
100
AcDbEntity
8
1
62
256
6
ByLayer
370
-1
48
1
60
0
100
AcDbEllipse
10
73.529272
20
4.04444
30
0
11
-3.57318505599699
21
-0.113901517109647
31
0
210
0
220
0
230
1
40
0.965893
41
0
42
6.28318530717959
0
ELLIPSE
5
246
100
AcDbEntity
8
1
62
256
6
ByLayer
370
-1
48
1
60
0
100
AcDbEllipse
10
73.528556
20
4.066894
30
0
11
-2.39878157605394
21
-0.0764653541435401
31
0
210
0
220
0
230
1
40
0.965893
41
0
42
6.28318530717959
0
ELLIPSE
5
247
100
AcDbEntity
8
1
62
256
6
ByLayer
370
-1
48
1
60
0
100
AcDbEllipse
10
72.610139
20
5.028957
30
0
11
-0.395600201043571
21
-0.237330104855181
31
0
210
0
220
0
230
1
40
0.461203
41
0.168575412529729
42
1.58857199783969
0
ELLIPSE
5
248
100
AcDbEntity
8
1
62
256
6
ByLayer
370
-1
48
1
60
0
100
AcDbEllipse
10
69.724215
20
9.064357
30
0
11
-0.118271199180548
21
-0.0789646852101611
31
0
210
0
220
0
230
1
40
0.164608
41
-2.58226940657444
42
-1.08515721831308
0
POINT
5
41
100
AcDbEntity
8
1
62
256
6
ByLayer
370
-1
48
1
60
0
100
AcDbPoint
10
79.93
20
14.992793
30
0
39
0
210
0
220
0
230
1
50
360
0
POINT
5
43
100
AcDbEntity
8
1
62
256
6
ByLayer
370
-1
48
1
60
0
100
AcDbPoint
10
77.43
20
13.234353
30
0
39
0
210
0
220
0
230
1
50
360
0
POINT
5
44
100
AcDbEntity
8
80
62
256
6
ByLayer
370
-1
48
1
60
0
100
AcDbPoint
10
0
20
0
30
0
39
0
210
0
220
0
230
1
50
360
0
POINT
5
46
100
AcDbEntity
8
81
62
256
6
ByLayer
370
-1
48
1
60
0
100
AcDbPoint
10
79.93
20
14.875
30
0
39
0
210
0
220
0
230
1
50
360
0
POINT
5
48
100
AcDbEntity
8
2
62
256
6
ByLayer
370
-1
48
1
60
0
100
AcDbPoint
10
79.93
20
14.875
30
0
39
0
210
0
220
0
230
1
50
360
0
SPLINE
5
249
100
AcDbEntity
8
1
62
256
6
ByLayer
370
-1
48
1
60
0
100
AcDbSpline
70
4
71
3
72
12
73
8
40
0
40
0
40
0
40
0
40
0.383379028856309
40
0.383379028856309
40
0.768575560812379
40
0.768575560812379
40
1
40
1
40
1
40
1
41
1
10
57.3461659878771
20
9.89873387212339
30
0
41
1
10
57.2906251322227
20
9.83006484078615
30
0
41
1
10
57.2226899071271
20
9.76917490659065
30
0
41
1
10
57.0712132619401
20
9.67395781860921
30
0
41
1
10
56.9853830451822
20
9.63848229268217
30
0
41
1
10
56.8435106314925
20
9.60756840336302
30
0
41
1
10
56.7882556736906
20
9.60159009983349
30
0
41
1
10
56.7333304333823
20
9.60159009983346
30
0
0
SPLINE
5
24A
100
AcDbEntity
8
1
62
256
6
ByLayer
370
-1
48
1
60
0
100
AcDbSpline
70
4
71
3
72
10
73
6
40
0
40
0
40
0
40
0
40
0.581245622526482
40
0.581245622526482
40
1
40
1
40
1
40
1
41
1
10
61.6191903972101
20
5.71487826750351
30
0
41
1
10
61.8430555470283
20
5.75289426366712
30
0
41
1
10
62.0756194967248
20
5.7448994802283
30
0
41
1
10
62.4673716129318
20
5.66649384421973
30
0
41
1
10
62.6306377324933
20
5.61364290277851
30
0
41
1
10
62.7889349986151
20
5.54370765759612
30
0
0
SPLINE
5
24B
100
AcDbEntity
8
1
62
256
6
ByLayer
370
-1
48
1
60
0
100
AcDbSpline
70
4
71
3
72
14
73
10
40
0
40
0
40
0
40
0
40
0.0109307724348505
40
0.0109307724348505
40
0.375767736821176
40
0.375767736821176
40
0.846732674827592
40
0.846732674827592
40
1
40
1
40
1
40
1
41
1
10
61.1460582699346
20
-5.45781283936893
30
0
41
1
10
61.1382095217647
20
-5.46019380424832
30
0
41
1
10
61.1303758130601
20
-5.46260815203084
30
0
41
1
10
60.8649344044054
20
-5.54570113384338
30
0
41
1
10
60.6219934154821
20
-5.66416546598384
30
0
41
1
10
60.1333671657027
20
-5.98287508224072
30
0
41
1
10
59.8988469800578
20
-6.2009483396179
30
0
41
1
10
59.6461933790006
20
-6.49881545141736
30
0
41
1
10
59.5879114959507
20
-6.57368091865166
30
0
41
1
10
59.5336738089915
20
-6.64884795125053
30
0
0
SPLINE
5
24C
100
AcDbEntity
8
1
62
256
6
ByLayer
370
-1
48
1
60
0
100
AcDbSpline
70
4
71
3
72
18
73
14
40
0
40
0
40
0
40
0
40
0.191508842324558
40
0.191508842324558
40
0.35458835660069
40
0.35458835660069
40
0.518592923819621
40
0.518592923819621
40
0.669362667900531
40
0.669362667900531
40
0.830574206622264
40
0.830574206622264
40
1
40
1
40
1
40
1
41
1
10
53.7787612450481
20
9.34634247789492
30
0
41
1
10
53.7433788034278
20
9.37803987672709
30
0
41
1
10
53.7239289237907
20
9.40908532643752
30
0
41
1
10
53.7300692466247
20
9.46115009078844
30
0
41
1
10
53.749833856903
20
9.4834894897493
30
0
41
1
10
53.826040786442
20
9.52183470057142
30
0
41
1
10
53.8839334283168
20
9.53834213084585
30
0
41
1
10
54.0225752284143
20
9.56343095355658
30
0
41
1
10
54.1026486504751
20
9.57292100245374
30
0
41
1
10
54.281942305155
20
9.58777926148625
30
0
41
1
10
54.3840693265423
20
9.59304247063241
30
0
41
1
10
54.5983621718836
20
9.60000445910859
30
0
41
1
10
54.7127897683613
20
9.60159009983741
30
0
41
1
10
54.8261954069395
20
9.60159009983741
30
0
0
SPLINE
5
24D
100
AcDbEntity
8
1
62
256
6
ByLayer
370
-1
48
1
60
0
100
AcDbSpline
70
4
71
3
72
10
73
6
40
0
40
0
40
0
40
0
40
0.748343384065786
40
0.748343384065786
40
1
40
1
40
1
40
1
41
1
10
56.8594256355111
20
-3.57760045281751
30
0
41
1
10
56.8298637794861
20
-3.56482692210318
30
0
41
1
10
56.7981957729208
20
-3.55586346518086
30
0
41
1
10
56.7552893339675
20
-3.55105877483169
30
0
41
1
10
56.7443015347567
20
-3.55044011356273
30
0
41
1
10
56.733330433382
20
-3.5504401135627
30
0
0
SPLINE
5
24E
100
AcDbEntity
8
1
62
256
6
ByLayer
370
-1
48
1
60
0
100
AcDbSpline
70
4
71
3
72
8
73
4
40
0
40
0
40
0
40
0
40
1
40
1
40
1
40
1
41
1
10
44.161425471209
20
-4.33878745302189
30
0
41
1
10
44.2859443931041
20
-4.17323860112973
30
0
41
1
10
44.4068821326782
20
-4.0047926512099
30
0
41
1
10
44.5235458955959
20
-3.83288914782537
30
0
0
SPLINE
5
24F
100
AcDbEntity
8
1
62
256
6
ByLayer
370
-1
48
1
60
0
100
AcDbSpline
70
4
71
3
72
14
73
10
40
0
40
0
40
0
40
0
40
0.357637425586743
40
0.357637425586743
40
0.65070598038102
40
0.65070598038102
40
0.946532526792431
40
0.946532526792431
40
1
40
1
40
1
40
1
41
1
10
59.5336738089915
20
-9.27915224186845
30
0
41
1
10
59.7036594504561
20
-9.18634523561775
30
0
41
1
10
59.9162779798662
20
-9.08173931663745
30
0
41
1
10
60.3846386861385
20
-8.9050553855154
30
0
41
1
10
60.6309855923919
20
-8.82927498129902
30
0
41
1
10
61.169425422952
20
-8.71559986613778
30
0
41
1
10
61.4704616658145
20
-8.67707130780212
30
0
41
1
10
61.8266818208547
20
-8.66530535279375
30
0
41
1
10
61.8822782222078
20
-8.66438556270003
30
0
41
1
10
61.9378368650258
20
-8.66438556270003
30
0
0
SPLINE
5
250
100
AcDbEntity
8
1
62
256
6
ByLayer
370
-1
48
1
60
0
100
AcDbSpline
70
4
71
3
72
8
73
4
40
0
40
0
40
0
40
0
40
1
40
1
40
1
40
1
41
1
10
62.7455082607065
20
4.64137189738591
30
0
41
1
10
62.7695901252227
20
4.64320766720962
30
0
41
1
10
62.7936132961031
20
4.64465141791973
30
0
41
1
10
62.8175603882181
20
4.64570544529641
30
0
0
SPLINE
5
251
100
AcDbEntity
8
1
62
256
6
ByLayer
370
-1
48
1
60
0
100
AcDbSpline
70
4
71
3
72
12
73
8
40
0
40
0
40
0
40
0
40
0.219572376335425
40
0.219572376335425
40
0.498708299767378
40
0.498708299767378
40
1
40
1
40
1
40
1
41
1
10
44.9235458944397
20
3.55044011356347
30
0
41
1
10
44.8863765350482
20
3.55044011356347
30
0
41
1
10
44.8487420093878
20
3.55789454344122
30
0
41
1
10
44.7696907397233
20
3.58754117354579
30
0
41
1
10
44.7285579890335
20
3.61322045528252
30
0
41
1
10
44.6259405449556
20
3.69600787721944
30
0
41
1
10
44.5710477445064
20
3.76289539791492
30
0
41
1
10
44.5235458955817
20
3.83288914784595
30
0
0
SPLINE
5
252
100
AcDbEntity
8
1
62
256
6
ByLayer
370
-1
48
1
60
0
100
AcDbSpline
70
4
71
3
72
28
73
24
40
0
40
0
40
0
40
0
40
0.0710088783983404
40
0.0710088783983404
40
0.14145045180614
40
0.14145045180614
40
0.246436554519209
40
0.246436554519209
40
0.393632288366789
40
0.393632288366789
40
0.467199422766731
40
0.467199422766731
40
0.528444834969138
40
0.528444834969138
40
0.605340817292312
40
0.605340817292312
40
0.742826824772431
40
0.742826824772431
40
0.848539337600338
40
0.848539337600338
40
0.929138417218376
40
0.929138417218376
40
1
40
1
40
1
40
1
41
1
10
58.9151617900355
20
0.752976881075426
30
0
41
1
10
58.8996326999844
20
0.746742080083919
30
0
41
1
10
58.8943683588377
20
0.762646287639228
30
0
41
1
10
58.8967467217927
20
0.833822714578361
30
0
41
1
10
58.9041455351427
20
0.889291678956482
30
0
41
1
10
58.9281565494013
20
1.05997194194879
30
0
41
1
10
58.9477530660085
20
1.19336291649455
30
0
41
1
10
58.9858087818801
20
1.54634310811102
30
0
41
1
10
59.0046338925567
20
1.78619524837987
30
0
41
1
10
58.9749291764801
20
2.15445303607294
30
0
41
1
10
58.9541529924733
20
2.28153161136095
30
0
41
1
10
58.8748710345442
20
2.50225193704895
30
0
41
1
10
58.8211008854601
20
2.5990611549897
30
0
41
1
10
58.6665837660358
20
2.78960625664638
30
0
41
1
10
58.5573904483821
20
2.87971412849512
30
0
41
1
10
58.2408752816063
20
3.10045782914096
30
0
41
1
10
58.0168843089815
20
3.2179535399091
30
0
41
1
10
57.6477368918461
20
3.42120253942727
30
0
41
1
10
57.4913408358841
20
3.50884144705827
30
0
41
1
10
57.2570286829061
20
3.66300852109555
30
0
41
1
10
57.167350143218
20
3.73108010851504
30
0
41
1
10
57.0439015585172
20
3.85830989155195
30
0
41
1
10
57.003644325316
20
3.91905524092871
30
0
41
1
10
56.9868021953217
20
3.97918536197014
30
0
0
SPLINE
5
253
100
AcDbEntity
8
1
62
256
6
ByLayer
370
-1
48
1
60
0
100
AcDbSpline
70
4
71
3
72
12
73
8
40
0
40
0
40
0
40
0
40
0.397656544301013
40
0.397656544301013
40
0.803093046614633
40
0.803093046614633
40
1
40
1
40
1
40
1
41
1
10
44.5235458955885
20
8.50874999999999
30
0
41
1
10
44.5640847134864
20
8.50874999999999
30
0
41
1
10
44.6094766982265
20
8.50874999999999
30
0
41
1
10
44.7112720213568
20
8.50874999999999
30
0
41
1
10
44.769592626697
20
8.50874999999999
30
0
41
1
10
44.8611317434802
20
8.50874999999999
30
0
41
1
10
44.8924406579954
20
8.50874999999999
30
0
41
1
10
44.9235458944383
20
8.50874999999999
30
0
0
SPLINE
5
254
100
AcDbEntity
8
1
62
256
6
ByLayer
370
-1
48
1
60
0
100
AcDbSpline
70
4
71
3
72
8
73
4
40
0
40
0
40
0
40
0
40
1
40
1
40
1
40
1
41
1
10
57.7042278812089
20
10.3400431640327
30
0
41
1
10
57.5846520228379
20
10.1931082158333
30
0
41
1
10
57.4652880108012
20
10.0460127325003
30
0
41
1
10
57.3461659878771
20
9.89873387212336
30
0
0
SPLINE
5
255
100
AcDbEntity
8
1
62
256
6
ByLayer
370
-1
48
1
60
0
100
AcDbSpline
70
4
71
3
72
8
73
4
40
0
40
0
40
0
40
0
40
1
40
1
40
1
40
1
41
1
10
44.1614254706645
20
8.50874999999999
30
0
41
1
10
44.284118119483
20
8.50874999999999
30
0
41
1
10
44.4049224938994
20
8.50874999999999
30
0
41
1
10
44.5235458955934
20
8.50874999999999
30
0
0
SPLINE
5
256
100
AcDbEntity
8
1
62
256
6
ByLayer
370
-1
48
1
60
0
100
AcDbSpline
70
4
71
3
72
14
73
10
40
0
40
0
40
0
40
0
40
0.411539000015419
40
0.411539000015419
40
0.713971529095653
40
0.713971529095653
40
0.928758571592238
40
0.928758571592238
40
1
40
1
40
1
40
1
41
1
10
44.5235458955919
20
-3.83288914782204
30
0
41
1
10
44.56263976405
20
-3.77528451738024
30
0
41
1
10
44.6066325573354
20
-3.72017515085736
30
0
41
1
10
44.6948726343304
20
-3.63783097761038
30
0
41
1
10
44.7367420995497
20
-3.60656281934698
30
0
41
1
10
44.8154336595712
20
-3.56853249040651
30
0
41
1
10
44.8509652618012
20
-3.55720204027105
30
0
41
1
10
44.8991192358896
20
-3.55120642275841
30
0
41
1
10
44.9113439649559
20
-3.55044011356242
30
0
41
1
10
44.9235458944397
20
-3.55044011356242
30
0
0
SPLINE
5
257
100
AcDbEntity
8
1
62
256
6
ByLayer
370
-1
48
1
60
0
100
AcDbSpline
70
4
71
3
72
8
73
4
40
0
40
0
40
0
40
0
40
1
40
1
40
1
40
1
41
1
10
57.7042278812089
20
10.3767438075357
30
0
41
1
10
57.6637594074022
20
10.3354767978596
30
0
41
1
10
57.6258778999118
20
10.2939567413915
30
0
41
1
10
57.5907833180624
20
10.252211094389
30
0
0
SPLINE
5
258
100
AcDbEntity
8
1
62
256
6
ByLayer
370
-1
48
1
60
0
100
AcDbSpline
70
4
71
3
72
8
73
4
40
0
40
0
40
0
40
0
40
1
40
1
40
1
40
1
41
1
10
44.5235458955817
20
3.83288914784597
30
0
41
1
10
44.4066398348169
20
4.00514967596263
30
0
41
1
10
44.2857015323826
20
4.17356148630225
30
0
41
1
10
44.1614254712088
20
4.33878745302189
30
0
0
SPLINE
5
259
100
AcDbEntity
8
1
62
256
6
ByLayer
370
-1
48
1
60
0
100
AcDbSpline
70
4
71
3
72
8
73
4
40
0
40
0
40
0
40
0
40
1
40
1
40
1
40
1
41
1
10
75.2827816709598
20
3.66035891971998
30
0
41
1
10
75.2762518143918
20
3.66111043451247
30
0
41
1
10
75.2697219334686
20
3.66186196696364
30
0
41
1
10
75.2631920273413
20
3.66261351768955
30
0
0
SPLINE
5
25A
100
AcDbEntity
8
1
62
256
6
ByLayer
370
-1
48
1
60
0
100
AcDbSpline
70
4
71
3
72
12
73
8
40
0
40
0
40
0
40
0
40
0.133148321068526
40
0.133148321068526
40
0.702614877346735
40
0.702614877346735
40
1
40
1
40
1
40
1
41
1
10
70.3763478706097
20
-1.27003833079118
30
0
41
1
10
70.2843815495069
20
-1.11617595899719
30
0
41
1
10
70.1924147970279
20
-0.96231381791327
30
0
41
1
10
69.7071117908112
20
-0.150393753753178
30
0
41
1
10
69.3137845196877
20
0.507668961582539
30
0
41
1
10
68.7151041019908
20
1.50929824036791
30
0
41
1
10
68.4820637500564
20
1.84029626956308
30
0
41
1
10
68.3272999468198
20
2.20685185612149
30
0
0
SPLINE
5
25B
100
AcDbEntity
8
1
62
256
6
ByLayer
370
-1
48
1
60
0
100
AcDbSpline
70
4
71
3
72
8
73
4
40
0
40
0
40
0
40
0
40
1
40
1
40
1
40
1
41
1
10
79.93
20
3.99390425121498
30
0
41
1
10
79.93
20
4.00659487300518
30
0
41
1
10
79.93
20
4.01928549373002
30
0
41
1
10
79.93
20
4.03197611339681
30
0
0
SPLINE
5
25C
100
AcDbEntity
8
1
62
256
6
ByLayer
370
-1
48
1
60
0
100
AcDbSpline
70
4
71
3
72
12
73
8
40
0
40
0
40
0
40
0
40
0.454187976028907
40
0.454187976028907
40
0.987490284578585
40
0.987490284578585
40
1
40
1
40
1
40
1
41
1
10
71.7965081009695
20
0.335561710547182
30
0
41
1
10
71.8289904455922
20
0.344411630691269
30
0
41
1
10
71.8647059119353
20
0.357873241178538
30
0
41
1
10
71.9431900417452
20
0.392133555973601
30
0
41
1
10
71.9871167936006
20
0.414256425157106
30
0
41
1
10
72.0314176832551
20
0.438659619930235
30
0
41
1
10
72.0324321741556
20
0.439219881283009
30
0
41
1
10
72.0334467875623
20
0.439780786333301
30
0
0
SPLINE
5
25D
100
AcDbEntity
8
1
62
256
6
ByLayer
370
-1
48
1
60
0
100
AcDbSpline
70
4
71
3
72
8
73
4
40
0
40
0
40
0
40
0
40
1
40
1
40
1
40
1
41
1
10
74.8343590039192
20
2.87504636722591
30
0
41
1
10
74.8395615076338
20
2.87185699460039
30
0
41
1
10
74.8447639911677
20
2.86866764947547
30
0
41
1
10
74.8499664552008
20
2.86547833092433
30
0
0
SPLINE
5
25E
100
AcDbEntity
8
1
62
256
6
ByLayer
370
-1
48
1
60
0
100
AcDbSpline
70
4
71
3
72
24
73
20
40
0
40
0
40
0
40
0
40
0.0429952269624833
40
0.0429952269624833
40
0.228745926442413
40
0.228745926442413
40
0.414699745381479
40
0.414699745381479
40
0.538335079652979
40
0.538335079652979
40
0.632242005354919
40
0.632242005354919
40
0.78365635374445
40
0.78365635374445
40
0.875145603233009
40
0.875145603233009
40
0.967942630462295
40
0.967942630462295
40
1
40
1
40
1
40
1
41
1
10
73.6051358342299
20
2.16707249379019
30
0
41
1
10
73.6134908164831
20
2.16740455038959
30
0
41
1
10
73.621842662484
20
2.16783085947807
30
0
41
1
10
73.6661994837432
20
2.17059838933153
30
0
41
1
10
73.7021559948117
20
2.17459575623528
30
0
41
1
10
73.773173507897
20
2.1863142228728
30
0
41
1
10
73.8084032896639
20
2.19405746877513
30
0
41
1
10
73.8654550674362
20
2.21063022194394
30
0
41
1
10
73.8879026266167
20
2.21825765427249
30
0
41
1
10
73.9260699521641
20
2.23375232217671
30
0
41
1
10
73.942168215278
20
2.24114690092537
30
0
41
1
10
73.9821418513066
20
2.26245832778508
30
0
41
1
10
74.0054153148076
20
2.27790017540187
30
0
41
1
10
74.0353439983349
20
2.30658026964457
30
0
41
1
10
74.0450716162074
20
2.3185250291366
30
0
41
1
10
74.0585984585986
20
2.34357348749018
30
0
41
1
10
74.062393173615
20
2.35706759238704
30
0
41
1
10
74.0623786999445
20
2.37447208044909
30
0
41
1
10
74.0619293730056
20
2.37896342518897
30
0
41
1
10
74.0610592218874
20
2.38335408087951
30
0
0
SPLINE
5
25F
100
AcDbEntity
8
1
62
256
6
ByLayer
370
-1
48
1
60
0
100
AcDbSpline
70
4
71
3
72
12
73
8
40
0
40
0
40
0
40
0
40
0.5
40
0.5
40
0.75
40
0.75
40
1
40
1
40
1
40
1
41
1
10
73.5118257271278
20
-3.04170878524661
30
0
41
1
10
74.2672816895021
20
-2.47776634419429
30
0
41
1
10
75.0231734425545
20
-1.91436900359548
30
0
41
1
10
76.1579296938306
20
-1.07042203311724
30
0
41
1
10
76.5347076825375
20
-0.787520538137301
30
0
41
1
10
77.2809088809484
20
-0.214674323525884
30
0
41
1
10
77.668672738775
20
0.0575089486944762
30
0
41
1
10
77.9639183120143
20
0.419538901582598
30
0
0
SPLINE
5
260
100
AcDbEntity
8
1
62
256
6
ByLayer
370
-1
48
1
60
0
100
AcDbSpline
70
4
71
3
72
8
73
4
40
0
40
0
40
0
40
0
40
1
40
1
40
1
40
1
41
1
10
70.863071304109
20
-0.262068978728934
30
0
41
1
10
70.8383914249291
20
-0.149764713626013
30
0
41
1
10
70.8137115958929
20
-0.0374604319724199
30
0
41
1
10
70.7890318473793
20
0.0748438762587114
30
0
0
SPLINE
5
261
100
AcDbEntity
8
1
62
256
6
ByLayer
370
-1
48
1
60
0
100
AcDbSpline
70
4
71
3
72
8
73
4
40
0
40
0
40
0
40
0
40
1
40
1
40
1
40
1
41
1
10
70.897718253949
20
-0.419727657676418
30
0
41
1
10
70.8599436908256
20
-0.432195597685308
30
0
41
1
10
70.7985209383215
20
-0.444888947578221
30
0
41
1
10
70.7649888269725
20
-0.447156877471315
30
0
0
SPLINE
5
262
100
AcDbEntity
8
1
62
256
6
ByLayer
370
-1
48
1
60
0
100
AcDbSpline
70
4
71
3
72
14
73
10
40
0
40
0
40
0
40
0
40
0.327529474127702
40
0.327529474127702
40
0.665666599581706
40
0.665666599581706
40
0.915673055310725
40
0.915673055310725
40
1
40
1
40
1
40
1
41
1
10
70.7649888269724
20
-0.447156877471343
30
0
41
1
10
70.7725531785057
20
-0.429658612208016
30
0
41
1
10
70.7819461596508
20
-0.409792681523157
30
0
41
1
10
70.8025944984222
20
-0.368463623877119
30
0
41
1
10
70.8142219691957
20
-0.346327938091548
30
0
41
1
10
70.8351730020592
20
-0.308483584832402
30
0
41
1
10
70.8445272131781
20
-0.292211190421455
30
0
41
1
10
70.8568583542306
20
-0.271942223971252
30
0
41
1
10
70.8599927615011
20
-0.266895991460132
30
0
41
1
10
70.863071304109
20
-0.262068978728934
30
0
0
SPLINE
5
263
100
AcDbEntity
8
1
62
256
6
ByLayer
370
-1
48
1
60
0
100
AcDbSpline
70
4
71
3
72
10
73
6
40
0
40
0
40
0
40
0
40
0.478255409340379
40
0.478255409340379
40
1
40
1
40
1
40
1
41
1
10
79.9300000000001
20
6.74122980594629
30
0
41
1
10
79.6731298824439
20
6.78499369131455
30
0
41
1
10
79.4165988880321
20
6.83000598687627
30
0
41
1
10
78.8811076050277
20
6.9272327738405
30
0
41
1
10
78.6022145393094
20
6.97972806778213
30
0
41
1
10
78.3239952829884
20
7.03440604429679
30
0
0
SPLINE
5
264
100
AcDbEntity
8
1
62
256
6
ByLayer
370
-1
48
1
60
0
100
AcDbSpline
70
4
71
3
72
10
73
6
40
0
40
0
40
0
40
0
40
0.266814892217241
40
0.266814892217241
40
1
40
1
40
1
40
1
41
1
10
77.8217927940129
20
4.4746170527342
30
0
41
1
10
77.8301084215656
20
4.46585729420045
30
0
41
1
10
77.8374671704195
20
4.45654645452532
30
0
41
1
10
77.8618261091212
20
4.42061329721236
30
0
41
1
10
77.8738222954983
20
4.39164162325119
30
0
41
1
10
77.8814902468921
20
4.36197148432791
30
0
0
SPLINE
5
265
100
AcDbEntity
8
1
62
256
6
ByLayer
370
-1
48
1
60
0
100
AcDbSpline
70
4
71
3
72
12
73
8
40
0
40
0
40
0
40
0
40
0.454187976028965
40
0.454187976028965
40
0.987490284578512
40
0.987490284578512
40
1
40
1
40
1
40
1
41
1
10
77.8780701517767
20
4.54253312144064
30
0
41
1
10
77.8486324414819
20
4.55647681409312
30
0
41
1
10
77.8148807148141
20
4.57322382508977
30
0
41
1
10
77.7392533115771
20
4.61226353659197
30
0
41
1
10
77.695991301545
20
4.6354985405215
30
0
41
1
10
77.6518942018706
20
4.66024268257624
30
0
41
1
10
77.6508838690393
20
4.66080990051429
30
0
41
1
10
77.6498736686256
20
4.6613781886459
30
0
0
SPLINE
5
266
100
AcDbEntity
8
1
62
256
6
ByLayer
370
-1
48
1
60
0
100
AcDbSpline
70
4
71
3
72
12
73
8
40
0
40
0
40
0
40
0
40
0.0143412310805905
40
0.0143412310805905
40
0.547790989098502
40
0.547790989098502
40
1
40
1
40
1
40
1
41
1
10
71.0566795438121
20
7.2488121422503
30
0
41
1
10
71.0571247536745
20
7.25003564943205
30
0
41
1
10
71.0575697157115
20
7.25126024592626
30
0
41
1
10
71.0745932235302
20
7.2980905477603
30
0
41
1
10
71.0916371693372
20
7.34529971979794
30
0
41
1
10
71.1233178664523
20
7.43199433772961
30
0
41
1
10
71.1381497355955
20
7.47222231573647
30
0
41
1
10
71.1527613207134
20
7.51042525470018
30
0
0
SPLINE
5
267
100
AcDbEntity
8
1
62
256
6
ByLayer
370
-1
48
1
60
0
100
AcDbSpline
70
4
71
3
72
10
73
6
40
0
40
0
40
0
40
0
40
0.726371168591103
40
0.726371168591103
40
1
40
1
40
1
40
1
41
1
10
71.1459528114083
20
7.69964463914494
30
0
41
1
10
71.1185417887477
20
7.66385585103282
30
0
41
1
10
71.0953926060958
20
7.62311569593734
30
0
41
1
10
71.0738349238657
20
7.56184573606336
30
0
41
1
10
71.0689560163522
20
7.54433356112923
30
0
41
1
10
71.0654217472538
20
7.52637322368724
30
0
0
SPLINE
5
268
100
AcDbEntity
8
1
62
256
6
ByLayer
370
-1
48
1
60
0
100
AcDbSpline
70
4
71
3
72
8
73
4
40
0
40
0
40
0
40
0
40
1
40
1
40
1
40
1
41
1
10
70.4336521293905
20
9.35371872669381
30
0
41
1
10
70.4241014180683
20
9.3504306970174
30
0
41
1
10
70.4145507082749
20
9.34714266883356
30
0
41
1
10
70.405
20
9.3438546421319
30
0
0
SPLINE
5
269
100
AcDbEntity
8
1
62
256
6
ByLayer
370
-1
48
1
60
0
100
AcDbSpline
70
4
71
3
72
14
73
10
40
0
40
0
40
0
40
0
40
0.25
40
0.25
40
0.5
40
0.5
40
0.75
40
0.75
40
1
40
1
40
1
40
1
41
1
10
78.3239952829884
20
7.03440604429679
30
0
41
1
10
77.7794516704963
20
7.33847231917986
30
0
41
1
10
77.2348996561227
20
7.64238571368332
30
0
41
1
10
76.1455387025055
20
8.24932193470477
30
0
41
1
10
75.6275233938529
20
8.60785061803858
30
0
41
1
10
74.3958054390085
20
8.94262097205717
30
0
41
1
10
73.7553039782087
20
8.89102867580709
30
0
41
1
10
72.4865121360263
20
8.89103401868303
30
0
41
1
10
71.8521162149233
20
8.8910254340924
30
0
41
1
10
71.2177202938321
20
8.89102687491985
30
0
0
SPLINE
5
26A
100
AcDbEntity
8
1
62
256
6
ByLayer
370
-1
48
1
60
0
100
AcDbSpline
70
4
71
3
72
14
73
10
40
0
40
0
40
0
40
0
40
0.327529474127808
40
0.327529474127808
40
0.665666599581746
40
0.665666599581746
40
0.915673055310703
40
0.915673055310703
40
1
40
1
40
1
40
1
41
1
10
79.2100223460552
20
4.262448605412
30
0
41
1
10
79.1948936429886
20
4.26729146390574
30
0
41
1
10
79.1761076806984
20
4.27144263085344
30
0
41
1
10
79.1348110031556
20
4.27822634444468
30
0
41
1
10
79.1115560616087
20
4.28090889248378
30
0
41
1
10
79.0696539958815
20
4.28370148460189
30
0
41
1
10
79.0509455736438
20
4.28432397879376
30
0
41
1
10
79.0262832915388
20
4.28396254417578
30
0
41
1
10
79.0200144769978
20
4.28376481111826
30
0
41
1
10
79.013857391782
20
4.28344132168294
30
0
0
SPLINE
5
26B
100
AcDbEntity
8
1
62
256
6
ByLayer
370
-1
48
1
60
0
100
AcDbSpline
70
4
71
3
72
10
73
6
40
0
40
0
40
0
40
0
40
0.732128243131972
40
0.732128243131972
40
1
40
1
40
1
40
1
41
1
10
77.573131309318
20
5.72390184060063
30
0
41
1
10
77.5870608292675
20
5.77016985056406
30
0
41
1
10
77.590905644909
20
5.81883215010839
30
0
41
1
10
77.5863839305042
20
5.88301970494445
30
0
41
1
10
77.5841762979693
20
5.90025555377116
30
0
41
1
10
77.5810852712846
20
5.9172752825107
30
0
0
SPLINE
5
26C
100
AcDbEntity
8
1
62
256
6
ByLayer
370
-1
48
1
60
0
100
AcDbSpline
70
4
71
3
72
12
73
8
40
0
40
0
40
0
40
0
40
0.33058443093254
40
0.33058443093254
40
0.914285519682812
40
0.914285519682812
40
1
40
1
40
1
40
1
41
1
10
79.9300000000099
20
3.99390425121678
30
0
41
1
10
79.9300000000099
20
3.95300336944749
30
0
41
1
10
79.93
20
3.90866918613369
30
0
41
1
10
79.93
20
3.78831201959434
30
0
41
1
10
79.93
20
3.7104075602553
30
0
41
1
10
79.93
20
3.62553388332677
30
0
41
1
10
79.93
20
3.61462484292946
30
0
41
1
10
79.93
20
3.6037931615852
30
0
0
SPLINE
5
26D
100
AcDbEntity
8
1
62
256
6
ByLayer
370
-1
48
1
60
0
100
AcDbSpline
70
4
71
3
72
12
73
8
40
0
40
0
40
0
40
0
40
0.499999999999993
40
0.499999999999993
40
0.749999999999997
40
0.749999999999997
40
1
40
1
40
1
40
1
41
1
10
79.93
20
7.46799049071731
30
0
41
1
10
79.0466550584507
20
7.81797049947323
30
0
41
1
10
78.1635809452589
20
8.16858760446272
30
0
41
1
10
76.8395406660799
20
8.69585622418478
30
0
41
1
10
76.3975091302875
20
8.8695864071378
30
0
41
1
10
75.5108086657371
20
9.20737276817133
30
0
41
1
10
75.0728938910165
20
9.39565192113361
30
0
41
1
10
74.6006839284471
20
9.46161468031056
30
0
0
SPLINE
5
26E
100
AcDbEntity
8
1
62
256
6
ByLayer
370
-1
48
1
60
0
100
AcDbSpline
70
4
71
3
72
10
73
6
40
0
40
0
40
0
40
0
40
0.226375763220901
40
0.226375763220901
40
1
40
1
40
1
40
1
41
1
10
69.5810752103615
20
6.21335008423225
30
0
41
1
10
69.6133608110022
20
6.24004705648736
30
0
41
1
10
69.6462920610255
20
6.26616489547538
30
0
41
1
10
69.7944238536702
20
6.37885584653546
30
0
41
1
10
69.9164382436466
20
6.45925300625998
30
0
41
1
10
70.0451375513599
20
6.53244349859989
30
0
0
SPLINE
5
26F
100
AcDbEntity
8
1
62
256
6
ByLayer
370
-1
48
1
60
0
100
AcDbSpline
70
4
71
3
72
8
73
4
40
0
40
0
40
0
40
0
40
1
40
1
40
1
40
1
41
1
10
79.93
20
4.03197611339678
30
0
41
1
10
79.6900074486851
20
4.10880027740185
30
0
41
1
10
79.4500148973701
20
4.18562444140693
30
0
41
1
10
79.2100223460552
20
4.26244860541198
30
0
0
SPLINE
5
270
100
AcDbEntity
8
1
62
256
6
ByLayer
370
-1
48
1
60
0
100
AcDbSpline
70
4
71
3
72
8
73
4
40
0
40
0
40
0
40
0
40
1
40
1
40
1
40
1
41
1
10
70.7187502717917
20
8.85478125932687
30
0
41
1
10
70.7668572828675
20
8.84617138877636
30
0
41
1
10
70.8149642937225
20
8.83756151201732
30
0
41
1
10
70.8630713041091
20
8.82895162209485
30
0
0
SPLINE
5
271
100
AcDbEntity
8
1
62
256
6
ByLayer
370
-1
48
1
60
0
100
AcDbSpline
70
4
71
3
72
10
73
6
40
0
40
0
40
0
40
0
40
0.266814892217227
40
0.266814892217227
40
1
40
1
40
1
40
1
41
1
10
71.1527613207134
20
7.51042525470018
30
0
41
1
10
71.1582338435755
20
7.52473352140737
30
0
41
1
10
71.1647225421461
20
7.5385899128037
30
0
41
1
10
71.1915985827349
20
7.58837454648707
30
0
41
1
10
71.2167381944637
20
7.62153227366176
30
0
41
1
10
71.2445702479965
20
7.6512548005461
30
0
0
SPLINE
5
272
100
AcDbEntity
8
1
62
256
6
ByLayer
370
-1
48
1
60
0
100
AcDbSpline
70
4
71
3
72
10
73
6
40
0
40
0
40
0
40
0
40
0.226375763220908
40
0.226375763220908
40
1
40
1
40
1
40
1
41
1
10
77.29086446963
20
6.69528439252636
30
0
41
1
10
77.3086796387304
20
6.63816114334509
30
0
41
1
10
77.325665889148
20
6.5807653764117
30
0
41
1
10
77.3969705345848
20
6.32633201129332
30
0
41
1
10
77.4424734458344
20
6.12646726375033
30
0
41
1
10
77.478107823901
20
5.92472214127372
30
0
0
SPLINE
5
273
100
AcDbEntity
8
1
62
256
6
ByLayer
370
-1
48
1
60
0
100
AcDbSpline
70
4
71
3
72
12
73
8
40
0
40
0
40
0
40
0
40
0.5
40
0.5
40
0.75
40
0.75
40
1
40
1
40
1
40
1
41
1
10
67.2981742728722
20
7.58204827222352
30
0
41
1
10
67.4260632520471
20
6.66812582241533
30
0
41
1
10
67.5532456121883
20
5.7541113768265
30
0
41
1
10
67.7425296400889
20
4.38289578662634
30
0
41
1
10
67.8077831871749
20
3.9262641086938
30
0
41
1
10
67.9482824533147
20
3.01563153304872
30
0
41
1
10
67.9984333702084
20
2.55516910786619
30
0
41
1
10
68.1753977595385
20
2.12717639580103
30
0
0
SPLINE
5
274
100
AcDbEntity
8
1
62
256
6
ByLayer
370
-1
48
1
60
0
100
AcDbSpline
70
4
71
3
72
12
73
8
40
0
40
0
40
0
40
0
40
0.32753693474104
40
0.32753693474104
40
0.689545574034044
40
0.689545574034044
40
1
40
1
40
1
40
1
41
1
10
74.6006839284471
20
9.46161468031056
30
0
41
1
10
74.1939142966311
20
9.55792219571453
30
0
41
1
10
73.7642602330158
20
9.51529851328502
30
0
41
1
10
72.8821188632728
20
9.51530689534343
30
0
41
1
10
72.4187884244598
20
9.51532176368158
30
0
41
1
10
71.5581111549594
20
9.51532177378471
30
0
41
1
10
71.1607643243977
20
9.51531774528598
30
0
41
1
10
70.7634174938303
20
9.51531584456552
30
0
0
SPLINE
5
275
100
AcDbEntity
8
1
62
256
6
ByLayer
370
-1
48
1
60
0
100
AcDbSpline
70
4
71
3
72
12
73
8
40
0
40
0
40
0
40
0
40
0.330584430932564
40
0.330584430932564
40
0.914285519682808
40
0.914285519682808
40
1
40
1
40
1
40
1
41
1
10
70.3763478706084
20
-1.27003833078905
30
0
41
1
10
70.3455666747727
20
-1.25944126822804
30
0
41
1
10
70.3099422789646
20
-1.24417467571684
30
0
41
1
10
70.2103800018185
20
-1.19796090611615
30
0
41
1
10
70.1426741090614
20
-1.16259119915435
30
0
41
1
10
70.0663101263714
20
-1.1197054430059
30
0
41
1
10
70.0564395094736
20
-1.1141006194772
30
0
41
1
10
70.0465825061903
20
-1.10844121291655
30
0
0
SPLINE
5
276
100
AcDbEntity
8
1
62
256
6
ByLayer
370
-1
48
1
60
0
100
AcDbSpline
70
4
71
3
72
14
73
10
40
0
40
0
40
0
40
0
40
0.264919990892338
40
0.264919990892338
40
0.530416812891299
40
0.530416812891299
40
0.787654584874271
40
0.787654584874271
40
1
40
1
40
1
40
1
41
1
10
68.2268396385251
20
8.2914888121492
30
0
41
1
10
68.219180285985
20
8.28908106030244
30
0
41
1
10
68.2103710542001
20
8.28567583883822
30
0
41
1
10
68.1918008890643
20
8.27734374049004
30
0
41
1
10
68.1817738671109
20
8.27229314312706
30
0
41
1
10
68.1622983467468
20
8.26143911300971
30
0
41
1
10
68.1525687589064
20
8.25551069170837
30
0
41
1
10
68.136070410473
20
8.24453325855134
30
0
41
1
10
68.1289119056244
20
8.23939871508389
30
0
41
1
10
68.1225042348038
20
8.23441849308313
30
0
0
SPLINE
5
277
100
AcDbEntity
8
1
62
256
6
ByLayer
370
-1
48
1
60
0
100
AcDbSpline
70
4
71
3
72
12
73
8
40
0
40
0
40
0
40
0
40
0.467747243448308
40
0.467747243448308
40
0.914074073580947
40
0.914074073580947
40
1
40
1
40
1
40
1
41
1
10
67.2981742728722
20
7.58204827222352
30
0
41
1
10
67.3222835752597
20
7.59549348856945
30
0
41
1
10
67.3467694698586
20
7.61043853827439
30
0
41
1
10
67.3909668070189
20
7.63997013624862
30
0
41
1
10
67.411498795615
20
7.65498417759375
30
0
41
1
10
67.4323438088957
20
7.67197550105118
30
0
41
1
10
67.4356497739324
20
7.67473447202838
30
0
41
1
10
67.4388367938266
20
7.67746152011006
30
0
0
SPLINE
5
278
100
AcDbEntity
8
1
62
256
6
ByLayer
370
-1
48
1
60
0
100
AcDbSpline
70
4
71
3
72
12
73
8
40
0
40
0
40
0
40
0
40
0.330584430932584
40
0.330584430932584
40
0.914285519682801
40
0.914285519682801
40
1
40
1
40
1
40
1
41
1
10
70.4336521293817
20
9.35371872669765
30
0
41
1
10
70.4644333252175
20
9.36431578925865
30
0
41
1
10
70.5000577210354
20
9.37958238175332
30
0
41
1
10
70.5996199981815
20
9.42579615135401
30
0
41
1
10
70.6673258909386
20
9.46116585831584
30
0
41
1
10
70.7436898736286
20
9.50405161446426
30
0
41
1
10
70.7535604905264
20
9.50965643799296
30
0
41
1
10
70.7634174938097
20
9.51531584455361
30
0
0
SPLINE
5
279
100
AcDbEntity
8
1
62
256
6
ByLayer
370
-1
48
1
60
0
100
AcDbSpline
70
4
71
3
72
16
73
12
40
0
40
0
40
0
40
0
40
0.343443954228553
40
0.343443954228553
40
0.535083245610702
40
0.535083245610702
40
0.693553557835235
40
0.693553557835235
40
0.853171508912971
40
0.853171508912971
40
1
40
1
40
1
40
1
41
1
10
78.0286481953242
20
-1.07067089058478
30
0
41
1
10
78.0512252646693
20
-1.05675540641295
30
0
41
1
10
78.0756618433548
20
-1.04493136982418
30
0
41
1
10
78.1152157365374
20
-1.03388291462048
30
0
41
1
10
78.1299629992158
20
-1.03139114200835
30
0
41
1
10
78.1563467901338
20
-1.03122041863602
30
0
41
1
10
78.1683251068005
20
-1.03283971672161
30
0
41
1
10
78.1902892426695
20
-1.04009962456061
30
0
41
1
10
78.2005197698559
20
-1.04590198560552
30
0
41
1
10
78.2169283891207
20
-1.05995057942585
30
0
41
1
10
78.2235815916017
20
-1.06807691538566
30
0
41
1
10
78.2290040359583
20
-1.07681158087968
30
0
0
SPLINE
5
27A
100
AcDbEntity
8
1
62
256
6
ByLayer
370
-1
48
1
60
0
100
AcDbSpline
70
4
71
3
72
10
73
6
40
0
40
0
40
0
40
0
40
0.226375575408424
40
0.226375575408424
40
1
40
1
40
1
40
1
41
1
10
71.2445702479965
20
7.6512548005461
30
0
41
1
10
71.2796785586538
20
7.69772705314313
30
0
41
1
10
71.315405478897
20
7.74362085811126
30
0
41
1
10
71.4757669895436
20
7.94355886155051
30
0
41
1
10
71.6069602171783
20
8.09139061431881
30
0
41
1
10
71.74460738673
20
8.2314576927985
30
0
0
SPLINE
5
27B
100
AcDbEntity
8
1
62
256
6
ByLayer
370
-1
48
1
60
0
100
AcDbSpline
70
4
71
3
72
10
73
6
40
0
40
0
40
0
40
0
40
0.732128243132013
40
0.732128243132013
40
1
40
1
40
1
40
1
41
1
10
73.0081637393843
20
-3.63356731725E-05
30
0
41
1
10
73.0357913214988
20
-0.0232947125349767
30
0
41
1
10
73.0698335053455
20
-0.0380185985339097
30
0
41
1
10
73.1191621601779
20
-0.0487945160744516
30
0
41
1
10
73.1328663568735
20
-0.0507927939623585
30
0
41
1
10
73.1468190238128
20
-0.0519449435395245
30
0
0
SPLINE
5
27C
100
AcDbEntity
8
1
62
256
6
ByLayer
370
-1
48
1
60
0
100
AcDbSpline
70
4
71
3
72
10
73
6
40
0
40
0
40
0
40
0
40
0.226375763220924
40
0.226375763220924
40
1
40
1
40
1
40
1
41
1
10
73.8680603200085
20
0.0049528246185275
30
0
41
1
10
73.8179595502675
20
0.0018444380610276
30
0
41
1
10
73.7680420498265
20
-0.0004562737782692
30
0
41
1
10
73.5486056117451
20
-0.0070603195984233
30
0
41
1
10
73.3810883105191
20
-0.002791014129599
30
0
41
1
10
73.2167546247391
20
0.0107820017576898
30
0
0
SPLINE
5
27D
100
AcDbEntity
8
1
62
256
6
ByLayer
370
-1
48
1
60
0
100
AcDbSpline
70
4
71
3
72
10
73
6
40
0
40
0
40
0
40
0
40
0.410984291904105
40
0.410984291904105
40
1
40
1
40
1
40
1
41
1
10
79.9300000000018
20
6.74122980594601
30
0
41
1
10
79.9300000000018
20
6.83046983252086
30
0
41
1
10
79.93
20
6.91615808739988
30
0
41
1
10
79.93
20
7.11557268636915
30
0
41
1
10
79.93
20
7.22553682885999
30
0
41
1
10
79.93
20
7.3280707543951
30
0
0
SPLINE
5
27E
100
AcDbEntity
8
1
62
256
6
ByLayer
370
-1
48
1
60
0
100
AcDbSpline
70
4
71
3
72
12
73
8
40
0
40
0
40
0
40
0
40
0.454187976028945
40
0.454187976028945
40
0.987490284578527
40
0.987490284578527
40
1
40
1
40
1
40
1
41
1
10
71.0654217472538
20
7.52637322368724
30
0
41
1
10
71.0623771129259
20
7.48597289461873
30
0
41
1
10
71.0604133732506
20
7.44296676583215
30
0
41
1
10
71.0575566466777
20
7.35069996899307
30
0
41
1
10
71.0568919048544
20
7.30044408472781
30
0
41
1
10
71.0566881148743
20
7.25107139385057
30
0
41
1
10
71.0566839568052
20
7.2499413354322
30
0
41
1
10
71.0566795438121
20
7.2488121422503
30
0
0
SPLINE
5
27F
100
AcDbEntity
8
1
62
256
6
ByLayer
370
-1
48
1
60
0
100
AcDbSpline
70
4
71
3
72
8
73
4
40
0
40
0
40
0
40
0
40
1
40
1
40
1
40
1
41
1
10
70.3763478706096
20
-1.27003833077634
30
0
41
1
10
70.3858985819318
20
-1.27332636045276
30
0
41
1
10
70.3954492917251
20
-1.2766143886366
30
0
41
1
10
70.405
20
-1.27990241533826
30
0
0
SPLINE
5
280
100
AcDbEntity
8
1
62
256
6
ByLayer
370
-1
48
1
60
0
100
AcDbSpline
70
4
71
3
72
12
73
8
40
0
40
0
40
0
40
0
40
0.452209010901494
40
0.452209010901494
40
0.985658768919421
40
0.985658768919421
40
1
40
1
40
1
40
1
41
1
10
73.0784454530458
20
0.050099838044332
30
0
41
1
10
73.0495476909626
20
0.0672432185169782
30
0
41
1
10
73.0187471127538
20
0.0888798859693054
30
0
41
1
10
72.9513894887197
20
0.14040185310111
30
0
41
1
10
72.9141002668965
20
0.171625246766354
30
0
41
1
10
72.8763455091679
20
0.205110230302409
30
0
41
1
10
72.8753579227954
20
0.205987823909823
30
0
41
1
10
72.8743701612879
20
0.206866225218789
30
0
0
SPLINE
5
281
100
AcDbEntity
8
1
62
256
6
ByLayer
370
-1
48
1
60
0
100
AcDbSpline
70
4
71
3
72
8
73
4
40
0
40
0
40
0
40
0
40
1
40
1
40
1
40
1
41
1
10
79.1235314742594
20
4.36723643574689
30
0
41
1
10
79.1596025666611
20
4.35191853367473
30
0
41
1
10
79.1996276752085
20
4.30342622771931
30
0
41
1
10
79.2100223460551
20
4.26244860541203
30
0
0
SPLINE
5
282
100
AcDbEntity
8
1
62
256
6
ByLayer
370
-1
48
1
60
0
100
AcDbSpline
70
4
71
3
72
10
73
6
40
0
40
0
40
0
40
0
40
0.391412264300149
40
0.391412264300149
40
1
40
1
40
1
40
1
41
1
10
70.6563024267632
20
0.0474145241005033
30
0
41
1
10
70.6704827626013
20
-0.0171125984533944
30
0
41
1
10
70.6846631274742
20
-0.0816397122658543
30
0
41
1
10
70.7208919075028
20
-0.246496852356131
30
0
41
1
10
70.7429403571416
20
-0.346826868072526
30
0
41
1
10
70.7649888269724
20
-0.447156877471343
30
0
0
SPLINE
5
283
100
AcDbEntity
8
1
62
256
6
ByLayer
370
-1
48
1
60
0
100
AcDbSpline
70
4
71
3
72
8
73
4
40
0
40
0
40
0
40
0
40
1
40
1
40
1
40
1
41
1
10
70.897718253949
20
-0.419727657676418
30
0
41
1
10
70.8861692639418
20
-0.367174766914331
30
0
41
1
10
70.8746202788328
20
-0.314621874535533
30
0
41
1
10
70.8630713041089
20
-0.262068978728934
30
0
0
SPLINE
5
284
100
AcDbEntity
8
1
62
256
6
ByLayer
370
-1
48
1
60
0
100
AcDbSpline
70
4
71
3
72
12
73
8
40
0
40
0
40
0
40
0
40
0.26146680556684
40
0.26146680556684
40
0.727154521522348
40
0.727154521522348
40
1
40
1
40
1
40
1
41
1
10
76.5824817177112
20
-2.13724004329535
30
0
41
1
10
76.5879197508063
20
-2.11138955254876
30
0
41
1
10
76.5952577904893
20
-2.08553827637417
30
0
41
1
10
76.6220839358373
20
-2.01582267985978
30
0
41
1
10
76.6474892391276
20
-1.97288763807313
30
0
41
1
10
76.6975711974097
20
-1.91321544523049
30
0
41
1
10
76.7182702131811
20
-1.89259532810109
30
0
41
1
10
76.7401827028067
20
-1.87340115299961
30
0
0
SPLINE
5
285
100
AcDbEntity
8
1
62
256
6
ByLayer
370
-1
48
1
60
0
100
AcDbSpline
70
4
71
3
72
12
73
8
40
0
40
0
40
0
40
0
40
0.0125097154214722
40
0.0125097154214722
40
0.545812023971066
40
0.545812023971066
40
1
40
1
40
1
40
1
41
1
10
77.4382374643689
20
5.48128158151877
30
0
41
1
10
77.4388532117625
20
5.48224145049343
30
0
41
1
10
77.4394691783762
20
5.48320205337862
30
0
41
1
10
77.4663416337478
20
5.52518819669493
30
0
41
1
10
77.4924532178239
20
5.56839594758651
30
0
41
1
10
77.5371808503174
20
5.64906555973471
30
0
41
1
10
77.5567689249328
20
5.6871901923401
30
0
41
1
10
77.573131309318
20
5.72390184060063
30
0
0
SPLINE
5
286
100
AcDbEntity
8
1
62
256
6
ByLayer
370
-1
48
1
60
0
100
AcDbSpline
70
4
71
3
72
10
73
6
40
0
40
0
40
0
40
0
40
0.726371168591144
40
0.726371168591144
40
1
40
1
40
1
40
1
41
1
10
77.9624139012531
20
4.43996359754226
30
0
41
1
10
77.9516873075767
20
4.46798028513351
30
0
41
1
10
77.9344739048893
20
4.49476805143263
30
0
41
1
10
77.9003518933698
20
4.52665203477605
30
0
41
1
10
77.8898023961517
20
4.53495208403902
30
0
41
1
10
77.8780701517767
20
4.54253312144064
30
0
0
SPLINE
5
287
100
AcDbEntity
8
1
62
256
6
ByLayer
370
-1
48
1
60
0
100
AcDbSpline
70
4
71
3
72
14
73
10
40
0
40
0
40
0
40
0
40
0.25
40
0.25
40
0.5
40
0.5
40
0.75
40
0.75
40
1
40
1
40
1
40
1
41
1
10
70.7272431365978
20
0.0980130058258624
30
0
41
1
10
70.411700895954
20
0.625928139071931
30
0
41
1
10
70.0961507963083
20
1.15383889209235
30
0
41
1
10
69.4650671849592
20
2.20966964344598
30
0
41
1
10
69.1022485305866
20
2.71789759517679
30
0
41
1
10
68.7865469978441
20
3.90872757176115
30
0
41
1
10
68.844722911039
20
4.51857095531165
30
0
41
1
10
68.8387916066758
20
5.72639712301637
30
0
41
1
10
68.8363544949376
20
6.33032343568794
30
0
41
1
10
68.8342516216934
20
6.9342581140024
30
0
0
SPLINE
5
288
100
AcDbEntity
8
1
62
256
6
ByLayer
370
-1
48
1
60
0
100
AcDbSpline
70
4
71
3
72
10
73
6
40
0
40
0
40
0
40
0
40
0.732128243132012
40
0.732128243132012
40
1
40
1
40
1
40
1
41
1
10
70.1587049512977
20
6.68060255074758
30
0
41
1
10
70.1171478492338
20
6.68064871496779
30
0
41
1
10
70.0792608497455
20
6.67235733090683
30
0
41
1
10
70.0344539093179
20
6.65401643772538
30
0
41
1
10
70.0229573451573
20
6.64832471862121
30
0
41
1
10
70.0120957049026
20
6.64200118061001
30
0
0
SPLINE
5
289
100
AcDbEntity
8
1
62
256
6
ByLayer
370
-1
48
1
60
0
100
AcDbSpline
70
4
71
3
72
14
73
10
40
0
40
0
40
0
40
0
40
0.230106848183452
40
0.230106848183452
40
0.557861158783514
40
0.557861158783514
40
0.896229002650431
40
0.896229002650431
40
1
40
1
40
1
40
1
41
1
10
70.863071304109
20
8.82895162209485
30
0
41
1
10
70.8547676009232
20
8.84371653110972
30
0
41
1
10
70.8460499519144
20
8.85827071806727
30
0
41
1
10
70.825729443729
20
8.89081612794524
30
0
41
1
10
70.8140019905783
20
8.90841632568484
30
0
41
1
10
70.7920992490037
20
8.93940796745846
30
0
41
1
10
70.7816483653466
20
8.95312119599299
30
0
41
1
10
70.770025611955
20
8.96665773777249
30
0
41
1
10
70.7674137447651
20
8.96954960562604
30
0
41
1
10
70.7649888269724
20
8.97205408829535
30
0
0
SPLINE
5
28A
100
AcDbEntity
8
1
62
256
6
ByLayer
370
-1
48
1
60
0
100
AcDbSpline
70
4
71
3
72
8
73
4
40
0
40
0
40
0
40
0
40
1
40
1
40
1
40
1
41
1
10
79.0138573917822
20
4.28344132168294
30
0
41
1
10
78.935733755288
20
4.22375195290005
30
0
41
1
10
78.8576100709112
20
4.16406260445072
30
0
41
1
10
78.7794863096429
20
4.10437328865396
30
0
0
SPLINE
5
28B
100
AcDbEntity
8
1
62
256
6
ByLayer
370
-1
48
1
60
0
100
AcDbSpline
70
4
71
3
72
10
73
6
40
0
40
0
40
0
40
0
40
0.410984291904101
40
0.410984291904101
40
1
40
1
40
1
40
1
41
1
10
72.6874957651952
20
-2.38933856438834
30
0
41
1
10
72.7871157477727
20
-2.46676601702174
30
0
41
1
10
72.8844227117762
20
-2.54387548585237
30
0
41
1
10
73.1149676918385
20
-2.73017015601715
30
0
41
1
10
73.2457178426653
20
-2.83895527929195
30
0
41
1
10
73.3711632061705
20
-2.94629553735757
30
0
0
SPLINE
5
28C
100
AcDbEntity
8
1
62
256
6
ByLayer
370
-1
48
1
60
0
100
AcDbSpline
70
4
71
3
72
10
73
6
40
0
40
0
40
0
40
0
40
0.517866865973605
40
0.517866865973605
40
1
40
1
40
1
40
1
41
1
10
68.8804898927745
20
6.97133320548309
30
0
41
1
10
68.7710275415599
20
7.19924652562602
30
0
41
1
10
68.6595672261905
20
7.42716869375175
30
0
41
1
10
68.4412648668385
20
7.86722518402982
30
0
41
1
10
68.3346268866173
20
8.07937323077627
30
0
41
1
10
68.2268396385249
20
8.29148881214979
30
0
0
SPLINE
5
28D
100
AcDbEntity
8
1
62
256
6
ByLayer
370
-1
48
1
60
0
100
AcDbSpline
70
4
71
3
72
12
73
8
40
0
40
0
40
0
40
0
40
0.327536934741042
40
0.327536934741042
40
0.689545574034047
40
0.689545574034047
40
1
40
1
40
1
40
1
41
1
10
77.9639183120144
20
0.419538901582627
30
0
41
1
10
78.2536500840195
20
0.711654572759755
30
0
41
1
10
78.4295635373729
20
1.09354720513889
30
0
41
1
10
78.8706415218228
20
1.83146901275603
30
0
41
1
10
79.1023196893472
20
2.21904568455597
30
0
41
1
10
79.5326583328957
20
2.93901624813296
30
0
41
1
10
79.7313282399615
20
3.27140519099572
30
0
41
1
10
79.9300000000003
20
3.60379316156215
30
0
0
SPLINE
5
28E
100
AcDbEntity
8
1
62
256
6
ByLayer
370
-1
48
1
60
0
100
AcDbSpline
70
4
71
3
72
8
73
4
40
0
40
0
40
0
40
0
40
1
40
1
40
1
40
1
41
1
10
70.7187502717917
20
8.85478125932684
30
0
41
1
10
70.7204537425133
20
8.9026614330933
30
0
41
1
10
70.7418513864699
20
8.95693139491806
30
0
41
1
10
70.7649888269725
20
8.97205408829521
30
0
0
SPLINE
5
28F
100
AcDbEntity
8
1
62
256
6
ByLayer
370
-1
48
1
60
0
100
AcDbSpline
70
4
71
3
72
10
73
6
40
0
40
0
40
0
40
0
40
0.274190864391846
40
0.274190864391846
40
1
40
1
40
1
40
1
41
1
10
77.478107823901
20
5.92472214127372
30
0
41
1
10
77.4820236598149
20
5.90953802377101
30
0
41
1
10
77.4853316172904
20
5.89417735498668
30
0
41
1
10
77.4947812618912
20
5.8380664422925
30
0
41
1
10
77.4970741068663
20
5.79591316141537
30
0
41
1
10
77.4913486020731
20
5.75479647703486
30
0
0
SPLINE
5
290
100
AcDbEntity
8
1
62
256
6
ByLayer
370
-1
48
1
60
0
100
AcDbSpline
70
4
71
3
72
10
73
6
40
0
40
0
40
0
40
0
40
0.274190864391844
40
0.274190864391844
40
1
40
1
40
1
40
1
41
1
10
73.2167546247391
20
0.0107820017576898
30
0
41
1
10
73.2030906865671
20
0.0119067771938717
30
0
41
1
10
73.189580524177
20
0.0136147298997571
30
0
41
1
10
73.1414874522755
20
0.0221555311442785
30
0
41
1
10
73.1076527293465
20
0.0327728405851815
30
0
41
1
10
73.0784454530458
20
0.050099838044332
30
0
0
SPLINE
5
291
100
AcDbEntity
8
1
62
256
6
ByLayer
370
-1
48
1
60
0
100
AcDbSpline
70
4
71
3
72
10
73
6
40
0
40
0
40
0
40
0
40
0.22637557540842
40
0.22637557540842
40
1
40
1
40
1
40
1
41
1
10
77.8814902468921
20
4.36197148432791
30
0
41
1
10
77.8955376823437
20
4.32620457083982
30
0
41
1
10
77.9087536913684
20
4.29021525923739
30
0
41
1
10
77.9633963271874
20
4.13044431489723
30
0
41
1
10
77.9959461997774
20
4.0043285217406
30
0
41
1
10
78.018484163482
20
3.8764006490496
30
0
0
SPLINE
5
292
100
AcDbEntity
8
1
62
256
6
ByLayer
370
-1
48
1
60
0
100
AcDbSpline
70
4
71
3
72
12
73
8
40
0
40
0
40
0
40
0
40
0.327536934741045
40
0.327536934741045
40
0.689545574034053
40
0.689545574034053
40
1
40
1
40
1
40
1
41
1
10
68.1753977595385
20
2.12717639580097
30
0
41
1
10
68.29243561935
20
1.73875320921954
30
0
41
1
10
68.5461762296114
20
1.40182058323546
30
0
41
1
10
68.9872396149042
20
0.663891114869273
30
0
41
1
10
69.218891886193
20
0.276300854499169
30
0
41
1
10
69.649230512145
20
-0.443669718311213
30
0
41
1
10
69.8479074356408
20
-0.776054979455154
30
0
41
1
10
70.0465825061694
20
-1.10844121290506
30
0
0
SPLINE
5
293
100
AcDbEntity
8
1
62
256
6
ByLayer
370
-1
48
1
60
0
100
AcDbSpline
70
4
71
3
72
12
73
8
40
0
40
0
40
0
40
0
40
0.261466805566825
40
0.261466805566825
40
0.727154521522333
40
0.727154521522333
40
1
40
1
40
1
40
1
41
1
10
66.5698172971933
20
4.56777438578152
30
0
41
1
10
66.5908344622683
20
4.54936446735235
30
0
41
1
10
66.6107322698516
20
4.52964928295816
30
0
41
1
10
66.660507207387
20
4.4712087700409
30
0
41
1
10
66.686308325326
20
4.42847379939857
30
0
41
1
10
66.7141089559025
20
4.35784588152626
30
0
41
1
10
66.7218485907127
20
4.33088720891996
30
0
41
1
10
66.7275182822888
20
4.30393549548577
30
0
0
SPLINE
5
294
100
AcDbEntity
8
1
62
256
6
ByLayer
370
-1
48
1
60
0
100
AcDbSpline
70
4
71
3
72
14
73
10
40
0
40
0
40
0
40
0
40
0.264919990892682
40
0.264919990892682
40
0.530416812891399
40
0.530416812891399
40
0.787654584874298
40
0.787654584874298
40
1
40
1
40
1
40
1
41
1
10
72.5831603614756
20
-2.3322682453198
30
0
41
1
10
72.5908197140157
20
-2.33467599716656
30
0
41
1
10
72.5996289457999
20
-2.33808121863197
30
0
41
1
10
72.6181991109357
20
-2.34641331698015
30
0
41
1
10
72.6282261328892
20
-2.35146391434313
30
0
41
1
10
72.6477016532532
20
-2.36231794446044
30
0
41
1
10
72.6574312410937
20
-2.36824636576182
30
0
41
1
10
72.673929589527
20
-2.37922379891884
30
0
41
1
10
72.6810880943757
20
-2.38435834238626
30
0
41
1
10
72.6874957651962
20
-2.38933856438703
30
0
0
SPLINE
5
295
100
AcDbEntity
8
1
62
256
6
ByLayer
370
-1
48
1
60
0
100
AcDbSpline
70
4
71
3
72
10
73
6
40
0
40
0
40
0
40
0
40
0.226375575408437
40
0.226375575408437
40
1
40
1
40
1
40
1
41
1
10
71.6139395051115
20
0.454721356757261
30
0
41
1
10
71.5647837590025
20
0.477691791792353
30
0
41
1
10
71.5158408297346
20
0.501474782721459
30
0
41
1
10
71.300836683269
20
0.609993874677116
30
0
41
1
10
71.1370935830444
20
0.703368629233296
30
0
41
1
10
70.976908449788
20
0.805728959529034
30
0
0
SPLINE
5
296
100
AcDbEntity
8
1
62
256
6
ByLayer
370
-1
48
1
60
0
100
AcDbSpline
70
4
71
3
72
10
73
6
40
0
40
0
40
0
40
0
40
0.517866865973609
40
0.517866865973609
40
1
40
1
40
1
40
1
41
1
10
78.3089759969315
20
6.92203581119671
30
0
41
1
10
78.5877011094616
20
6.86676701242749
30
0
41
1
10
78.867102962321
20
6.81371751218296
30
0
41
1
10
79.4075891374077
20
6.71474997313601
30
0
41
1
10
79.668619883115
20
6.66859388886604
30
0
41
1
10
79.9300000000001
20
6.62374359247363
30
0
0
SPLINE
5
297
100
AcDbEntity
8
1
62
256
6
ByLayer
370
-1
48
1
60
0
100
AcDbSpline
70
4
71
3
72
14
73
10
40
0
40
0
40
0
40
0
40
0.25
40
0.25
40
0.5
40
0.5
40
0.75
40
0.75
40
1
40
1
40
1
40
1
41
1
10
78.7950367493433
20
4.05018428298894
30
0
41
1
10
78.4794921098102
20
3.52227048754935
30
0
41
1
10
78.163955326981
20
2.9943523080394
30
0
41
1
10
77.5328651782314
20
1.93852520244698
30
0
41
1
10
77.2586097896258
20
1.3809075068985
30
0
41
1
10
76.3487916074683
20
0.52140303935272
30
0
41
1
10
75.7729330313159
20
0.265146447449837
30
0
41
1
10
74.6929913668909
20
-0.343728269204775
30
0
41
1
10
74.1527444038219
20
-0.647730109243554
30
0
41
1
10
73.6123228210756
20
-0.951456536154211
30
0
0
SPLINE
5
298
100
AcDbEntity
8
1
62
256
6
ByLayer
370
-1
48
1
60
0
100
AcDbSpline
70
4
71
3
72
16
73
12
40
0
40
0
40
0
40
0
40
0.343443954228572
40
0.343443954228572
40
0.53508324561071
40
0.53508324561071
40
0.693553557835151
40
0.693553557835151
40
0.853171508912945
40
0.853171508912945
40
1
40
1
40
1
40
1
41
1
10
75.9535237633342
20
10.3430452500564
30
0
41
1
10
75.9305553796412
20
10.3563060525644
30
0
41
1
10
75.9087060612843
20
10.3724586600471
30
0
41
1
10
75.8808636862169
20
10.4031008669406
30
0
41
1
10
75.8719964801168
20
10.415430165942
30
0
41
1
10
75.8601194220283
20
10.4398711263661
30
0
41
1
10
75.8563051654328
20
10.451910566989
30
0
41
1
10
75.8533012718752
20
10.4763717627824
30
0
41
1
10
75.8541533706498
20
10.4891109963468
30
0
41
1
10
75.8599301485089
20
10.5121792953245
30
0
41
1
10
75.8645323093563
20
10.5228835492221
30
0
41
1
10
75.8702468300702
20
10.5327813894394
30
0
0
SPLINE
5
299
100
AcDbEntity
8
1
62
256
6
ByLayer
370
-1
48
1
60
0
100
AcDbSpline
70
4
71
3
72
8
73
4
40
0
40
0
40
0
40
0
40
1
40
1
40
1
40
1
41
1
10
70.405
20
-1.27990241533826
30
0
41
1
10
70.5249962756575
20
-1.00232056938262
30
0
41
1
10
70.6449925513149
20
-0.724738723426981
30
0
41
1
10
70.7649888269724
20
-0.447156877471343
30
0
0
SPLINE
5
29A
100
AcDbEntity
8
1
62
256
6
ByLayer
370
-1
48
1
60
0
100
AcDbSpline
70
4
71
3
72
10
73
6
40
0
40
0
40
0
40
0
40
0.391412264300165
40
0.391412264300165
40
1
40
1
40
1
40
1
41
1
10
71.2177202938321
20
8.89102687491985
30
0
41
1
10
71.158652084253
20
8.9015986288149
30
0
41
1
10
71.0995838712957
20
8.91217034852698
30
0
41
1
10
70.9486733841847
20
8.93917944386661
30
0
41
1
10
70.8568311064604
20
8.95561677833786
30
0
41
1
10
70.7649888269724
20
8.97205408829535
30
0
0
SPLINE
5
29B
100
AcDbEntity
8
1
62
256
6
ByLayer
370
-1
48
1
60
0
100
AcDbSpline
70
4
71
3
72
12
73
8
40
0
40
0
40
0
40
0
40
0.26146680556681
40
0.26146680556681
40
0.727154521522375
40
0.727154521522375
40
1
40
1
40
1
40
1
41
1
10
77.5877009850955
20
9.59102420286183
30
0
41
1
10
77.5612457869254
20
9.58171229112125
30
0
41
1
10
77.5340099396591
20
9.57427388639167
30
0
41
1
10
77.4574088567758
20
9.5607143893744
30
0
41
1
10
77.4062024355464
20
9.56048331953966
30
0
41
1
10
77.3283198466878
20
9.57364415091939
30
0
41
1
10
77.2998811961062
20
9.58131560664145
30
0
41
1
10
77.2722990149045
20
9.59102420286183
30
0
0
SPLINE
5
29C
100
AcDbEntity
8
1
62
256
6
ByLayer
370
-1
48
1
60
0
100
AcDbSpline
70
4
71
3
72
10
73
6
40
0
40
0
40
0
40
0
40
0.391412264300115
40
0.391412264300115
40
1
40
1
40
1
40
1
41
1
10
78.8659772794047
20
3.99958550049732
30
0
41
1
10
78.9108651531458
20
4.03388141863436
30
0
41
1
10
78.9557530012301
20
4.06817735116485
30
0
41
1
10
79.0704347083125
20
4.15579837682131
30
0
41
1
10
79.1402285363981
20
4.20912348648258
30
0
41
1
10
79.2100223460552
20
4.26244860541198
30
0
0
SPLINE
5
29D
100
AcDbEntity
8
1
62
256
6
ByLayer
370
-1
48
1
60
0
100
AcDbSpline
70
4
71
3
72
10
73
6
40
0
40
0
40
0
40
0
40
0.478255409340378
40
0.478255409340378
40
1
40
1
40
1
40
1
41
1
10
72.6874957651962
20
-2.38933856438703
30
0
41
1
10
72.8380734491843
20
-2.16774397173151
30
0
41
1
10
72.9894083201261
20
-1.94673513142442
30
0
41
1
10
73.3077005583626
20
-1.48612726025087
30
0
41
1
10
73.4748324199212
20
-1.24665182749951
30
0
41
1
10
73.6432507970138
20
-1.00827339970627
30
0
0
SPLINE
5
29E
100
AcDbEntity
8
1
62
256
6
ByLayer
370
-1
48
1
60
0
100
AcDbSpline
70
4
71
3
72
12
73
8
40
0
40
0
40
0
40
0
40
0.0143412310805426
40
0.0143412310805426
40
0.547790989098529
40
0.547790989098529
40
1
40
1
40
1
40
1
41
1
10
72.0334467875623
20
0.439780786333301
30
0
41
1
10
72.0321272161019
20
0.439541458050911
30
0
41
1
10
72.0308076879753
20
0.439302876959744
30
0
41
1
10
71.9803775949827
20
0.430242872493551
30
0
41
1
10
71.9308293368803
20
0.423071270177218
30
0
41
1
10
71.8423357940554
20
0.414716144712941
30
0
41
1
10
71.8022601185771
20
0.412710411584442
30
0
41
1
10
71.7654458852738
20
0.41376759616162
30
0
0
SPLINE
5
29F
100
AcDbEntity
8
1
62
256
6
ByLayer
370
-1
48
1
60
0
100
AcDbSpline
70
4
71
3
72
14
73
10
40
0
40
0
40
0
40
0
40
0.264919990892529
40
0.264919990892529
40
0.530416812891256
40
0.530416812891256
40
0.787654584874272
40
0.787654584874272
40
1
40
1
40
1
40
1
41
1
10
79.9299999999993
20
6.62374359247374
30
0
41
1
10
79.9299999999993
20
6.63415018717865
30
0
41
1
10
79.93
20
6.64548309773625
30
0
41
1
10
79.93
20
6.66821949118639
30
0
41
1
10
79.93
20
6.67994442850744
30
0
41
1
10
79.93
20
6.70167357900669
30
0
41
1
10
79.93
20
6.71202307541975
30
0
41
1
10
79.93
20
6.72864791716117
30
0
41
1
10
79.93
20
6.73548978572632
30
0
41
1
10
79.93
20
6.74122980594629
30
0
0
SPLINE
5
2A0
100
AcDbEntity
8
1
62
256
6
ByLayer
370
-1
48
1
60
0
100
AcDbSpline
70
4
71
3
72
10
73
6
40
0
40
0
40
0
40
0
40
0.478255409340383
40
0.478255409340383
40
1
40
1
40
1
40
1
41
1
10
68.1225042348038
20
8.23441849308313
30
0
41
1
10
68.2287966683719
20
8.02626100318108
30
0
41
1
10
68.3339927918419
20
7.81808512500913
30
0
41
1
10
68.5511918366098
20
7.38279861869734
30
0
41
1
10
68.6629530407694
20
7.1556768585032
30
0
41
1
10
68.7727539199978
20
6.9285853984438
30
0
0
SPLINE
5
2A1
100
AcDbEntity
8
1
62
256
6
ByLayer
370
-1
48
1
60
0
100
AcDbSpline
70
4
71
3
72
12
73
8
40
0
40
0
40
0
40
0
40
0.467747243448222
40
0.467747243448222
40
0.914074073580959
40
0.914074073580959
40
1
40
1
40
1
40
1
41
1
10
79.93
20
7.46799049071731
30
0
41
1
10
79.93
20
7.44110005802546
30
0
41
1
10
79.93
20
7.4150794076433
30
0
41
1
10
79.93
20
7.37066741938474
30
0
41
1
10
79.93
20
7.35133077431237
30
0
41
1
10
79.93
20
7.33344771084796
30
0
41
1
10
79.93
20
7.33067569451947
30
0
41
1
10
79.93
20
7.32807075439752
30
0
0
SPLINE
5
2A2
100
AcDbEntity
8
1
62
256
6
ByLayer
370
-1
48
1
60
0
100
AcDbSpline
70
4
71
3
72
10
73
6
40
0
40
0
40
0
40
0
40
0.274190864391876
40
0.274190864391876
40
1
40
1
40
1
40
1
41
1
10
70.0451375513599
20
6.53244349859989
30
0
41
1
10
70.0548856536181
20
6.54011959520548
30
0
41
1
10
70.0650878585326
20
6.54736186863201
30
0
41
1
10
70.1037312858333
20
6.57171223342283
30
0
41
1
10
70.1352731637873
20
6.58616554727084
30
0
41
1
10
70.170205944881
20
6.59391358851681
30
0
0
SPLINE
5
2A3
100
AcDbEntity
8
1
62
256
6
ByLayer
370
-1
48
1
60
0
100
AcDbSpline
70
4
71
3
72
10
73
6
40
0
40
0
40
0
40
0
40
0.517866865973604
40
0.517866865973604
40
1
40
1
40
1
40
1
41
1
10
73.550534110294
20
-0.940397837352748
30
0
41
1
10
73.3812713489785
20
-1.17880071899501
30
0
41
1
10
73.2133298114886
20
-1.41832696129211
30
0
41
1
10
72.891145995754
20
-1.8825214658238
30
0
41
1
10
72.7367532302679
20
-2.10708636819928
30
0
41
1
10
72.5831603614752
20
-2.33226824532039
30
0
0
SPLINE
5
2A4
100
AcDbEntity
8
1
62
256
6
ByLayer
370
-1
48
1
60
0
100
AcDbSpline
70
4
71
3
72
8
73
4
40
0
40
0
40
0
40
0
40
1
40
1
40
1
40
1
41
1
10
79.1235314742594
20
4.36723643574689
30
0
41
1
10
79.0869734531908
20
4.33930472833097
30
0
41
1
10
79.0504154274448
20
4.31137302290131
30
0
41
1
10
79.013857391782
20
4.28344132168289
30
0
0
SPLINE
5
2A5
100
AcDbEntity
8
1
62
256
6
ByLayer
370
-1
48
1
60
0
100
AcDbSpline
70
4
71
3
72
12
73
8
40
0
40
0
40
0
40
0
40
0.133148321068528
40
0.133148321068528
40
0.702614877346737
40
0.702614877346737
40
1
40
1
40
1
40
1
41
1
10
70.4336521293791
20
9.35371872669765
30
0
41
1
10
70.6175845384716
20
9.35371883450293
30
0
41
1
10
70.8015169475637
20
9.35371943330526
30
0
41
1
10
71.7721160960405
20
9.35372322718217
30
0
41
1
10
72.5587828354421
20
9.35371618628162
30
0
41
1
10
73.7561588022845
20
9.3537082893958
30
0
41
1
10
74.1704387066021
20
9.38148663768959
30
0
41
1
10
74.5772725779366
20
9.3263207809517
30
0
0
SPLINE
5
2A6
100
AcDbEntity
8
1
62
256
6
ByLayer
370
-1
48
1
60
0
100
AcDbSpline
70
4
71
3
72
16
73
12
40
0
40
0
40
0
40
0
40
0.16471073663022
40
0.16471073663022
40
0.331370362656724
40
0.331370362656724
40
0.476446336500473
40
0.476446336500473
40
0.702801041235971
40
0.702801041235971
40
1
40
1
40
1
40
1
41
1
10
76.6692508660294
20
-3.68632949378269
30
0
41
1
10
76.656798874674
20
-3.68725292973483
30
0
41
1
10
76.6441689666703
20
-3.68659630267999
30
0
41
1
10
76.6205352026743
20
-3.68097271522294
30
0
41
1
10
76.6092670440271
20
-3.67581638283636
30
0
41
1
10
76.5915142318937
20
-3.66274603189382
30
0
41
1
10
76.5843675751332
20
-3.65516823761507
30
0
41
1
10
76.5694643458898
20
-3.6339581982682
30
0
41
1
10
76.5632293870134
20
-3.61901108142109
30
0
41
1
10
76.5537533283904
20
-3.58351413057548
30
0
41
1
10
76.5518321732831
20
-3.56214744827972
30
0
41
1
10
76.5521719586583
20
-3.54086377868958
30
0
0
SPLINE
5
2A7
100
AcDbEntity
8
1
62
256
6
ByLayer
370
-1
48
1
60
0
100
AcDbSpline
70
4
71
3
72
8
73
4
40
0
40
0
40
0
40
0
40
1
40
1
40
1
40
1
41
1
10
70.863071304109
20
8.82895162209485
30
0
41
1
10
70.9658748197831
20
8.81055249592836
30
0
41
1
10
71.068678333196
20
8.79215330620363
30
0
41
1
10
71.1714818429778
20
8.77375401441438
30
0
0
SPLINE
5
2A8
100
AcDbEntity
8
1
62
256
6
ByLayer
370
-1
48
1
60
0
100
AcDbSpline
70
4
71
3
72
10
73
6
40
0
40
0
40
0
40
0
40
0.266814892217338
40
0.266814892217338
40
1
40
1
40
1
40
1
41
1
10
71.7654458852738
20
0.41376759616162
30
0
41
1
10
71.7516577348589
20
0.414163546821413
30
0
41
1
10
71.7378102874344
20
0.415708511434843
30
0
41
1
10
71.6865753081439
20
0.424739846386956
30
0
41
1
10
71.649439510038
20
0.437827562587302
30
0
41
1
10
71.6139395051115
20
0.454721356757261
30
0
0
SPLINE
5
2A9
100
AcDbEntity
8
1
62
256
6
ByLayer
370
-1
48
1
60
0
100
AcDbSpline
70
4
71
3
72
16
73
12
40
0
40
0
40
0
40
0
40
0.164710736630234
40
0.164710736630234
40
0.331370362656728
40
0.331370362656728
40
0.476446336500427
40
0.476446336500427
40
0.702801041235887
40
0.702801041235887
40
1
40
1
40
1
40
1
41
1
10
78.9897531699267
20
10.5327813894386
30
0
41
1
10
78.9961424476229
20
10.521714835845
30
0
41
1
10
79.0011413519063
20
10.509604544848
30
0
41
1
10
79.0064085181752
20
10.4845002154193
30
0
41
1
10
79.0066180612199
20
10.4711551233093
30
0
41
1
10
79.0023480294089
20
10.4473805382234
30
0
41
1
10
78.9984751565557
20
10.4365223001396
30
0
41
1
10
78.9853699092041
20
10.4108732448571
30
0
41
1
10
78.9742389364469
20
10.396766591822
30
0
41
1
10
78.9454369760349
20
10.3682231686726
30
0
41
1
10
78.9264201025464
20
10.3545598463913
30
0
41
1
10
78.9064762366658
20
10.3430452500564
30
0
0
SPLINE
5
2AA
100
AcDbEntity
8
1
62
256
6
ByLayer
370
-1
48
1
60
0
100
AcDbSpline
70
4
71
3
72
12
73
8
40
0
40
0
40
0
40
0
40
0.250000000000003
40
0.250000000000003
40
0.500000000000006
40
0.500000000000006
40
1
40
1
40
1
40
1
41
1
10
77.8354274752436
20
0.538382314692228
30
0
41
1
10
77.538725314836
20
0.1686779558664
30
0
41
1
10
77.1417945930998
20
-0.0930231314751211
30
0
41
1
10
76.3883927713987
20
-0.661022800105286
30
0
41
1
10
76.0115112673679
20
-0.946898969784115
30
0
41
1
10
74.8793484056606
20
-1.80349268598724
30
0
41
1
10
74.1251390110191
20
-2.37488280121499
30
0
41
1
10
73.3711632061594
20
-2.94629553737073
30
0
0
SPLINE
5
2AB
100
AcDbEntity
8
1
62
256
6
ByLayer
370
-1
48
1
60
0
100
AcDbSpline
70
4
71
3
72
12
73
8
40
0
40
0
40
0
40
0
40
0.452209010901474
40
0.452209010901474
40
0.985658768919368
40
0.985658768919368
40
1
40
1
40
1
40
1
41
1
10
70.170205944881
20
6.59391358851681
30
0
41
1
10
70.2047685376597
20
6.60157952252013
30
0
41
1
10
70.2429754095705
20
6.61082521910845
30
0
41
1
10
70.327922627335
20
6.63291922237713
30
0
41
1
10
70.375861667676
20
6.64632512239842
30
0
41
1
10
70.4248294223601
20
6.66105039640044
30
0
41
1
10
70.4261109405212
20
6.66143623254118
30
0
41
1
10
70.4273923743433
20
6.66182331049194
30
0
0
SPLINE
5
2AC
100
AcDbEntity
8
1
62
256
6
ByLayer
370
-1
48
1
60
0
100
AcDbSpline
70
4
71
3
72
12
73
8
40
0
40
0
40
0
40
0
40
0.0125097154215041
40
0.0125097154215041
40
0.545812023971086
40
0.545812023971086
40
1
40
1
40
1
40
1
41
1
10
70.4273923743433
20
6.66182331049194
30
0
41
1
10
70.4262239056673
20
6.66185845873838
30
0
41
1
10
70.4250554401692
20
6.66189471297449
30
0
41
1
10
70.3740428151862
20
6.66349356538061
30
0
41
1
10
70.3237118257118
20
6.66618146130716
30
0
41
1
10
70.2346899942816
20
6.67274543431239
30
0
41
1
10
70.194538990212
20
6.67646761543563
30
0
41
1
10
70.1587049512977
20
6.68060255074758
30
0
0
SPLINE
5
2AD
100
AcDbEntity
8
1
62
256
6
ByLayer
370
-1
48
1
60
0
100
AcDbSpline
70
4
71
3
72
12
73
8
40
0
40
0
40
0
40
0
40
0.467747243448193
40
0.467747243448193
40
0.91407407358095
40
0.91407407358095
40
1
40
1
40
1
40
1
41
1
10
73.5118257271278
20
-3.04170878524664
30
0
41
1
10
73.4877164247403
20
-3.02826356890071
30
0
41
1
10
73.4632305301414
20
-3.01331851919576
30
0
41
1
10
73.4190331929811
20
-2.98378692122157
30
0
41
1
10
73.398501204385
20
-2.96877287987641
30
0
41
1
10
73.3776561911043
20
-2.95178155641898
30
0
41
1
10
73.3743502260676
20
-2.94902258544178
30
0
41
1
10
73.3711632061734
20
-2.9462955373601
30
0
0
SPLINE
5
2AE
100
AcDbEntity
8
1
62
256
6
ByLayer
370
-1
48
1
60
0
100
AcDbSpline
70
4
71
3
72
12
73
8
40
0
40
0
40
0
40
0
40
0.133148321068527
40
0.133148321068527
40
0.702614877346736
40
0.702614877346736
40
1
40
1
40
1
40
1
41
1
10
79.9300000000112
20
3.99390425121894
30
0
41
1
10
79.8380339120215
20
3.84004170502965
30
0
41
1
10
79.7460682554085
20
3.68617892813103
30
0
41
1
10
79.2607721131484
20
2.87425496810141
30
0
41
1
10
78.8674326448703
20
2.21619857720179
30
0
41
1
10
78.2687370957247
20
1.21457882005208
30
0
41
1
10
78.0874975433417
20
0.85247306070184
30
0
41
1
10
77.8354274752436
20
0.5383823146922
30
0
0
SPLINE
5
2AF
100
AcDbEntity
8
1
62
256
6
ByLayer
370
-1
48
1
60
0
100
AcDbSpline
70
4
71
3
72
16
73
12
40
0
40
0
40
0
40
0
40
0.164710736630272
40
0.164710736630272
40
0.331370362656713
40
0.331370362656713
40
0.47644633650043
40
0.47644633650043
40
0.702801041235954
40
0.702801041235954
40
1
40
1
40
1
40
1
41
1
10
65.080995964044
20
5.36436395789914
30
0
41
1
10
65.0870586777031
20
5.37412999187106
30
0
41
1
10
65.0946896814234
20
5.38314994879372
30
0
41
1
10
65.1130562791505
20
5.39758567716763
30
0
41
1
10
65.124114894753
20
5.40309258190067
30
0
41
1
10
65.1461377386974
20
5.40901903038841
30
0
41
1
10
65.157157268311
20
5.41011738209917
30
0
41
1
10
65.1851657449061
20
5.40940191529762
30
0
41
1
10
65.2025316765398
20
5.40572655176913
30
0
41
1
10
65.2408096955747
20
5.39303688368631
30
0
41
1
10
65.2617477241705
20
5.38258771654353
30
0
41
1
10
65.2813518046758
20
5.37050464819637
30
0
0
SPLINE
5
2B0
100
AcDbEntity
8
1
62
256
6
ByLayer
370
-1
48
1
60
0
100
AcDbSpline
70
4
71
3
72
14
73
10
40
0
40
0
40
0
40
0
40
0.25
40
0.25
40
0.5
40
0.5
40
0.75
40
0.75
40
1
40
1
40
1
40
1
41
1
10
71.217720114059
20
8.82293953666075
30
0
41
1
10
71.8488069942357
20
8.82293819885416
30
0
41
1
10
72.4798938767106
20
8.82294562534361
30
0
41
1
10
73.7420676368096
20
8.82294197958225
30
0
41
1
10
74.379141679788
20
8.87233172339998
30
0
41
1
10
75.6046613946873
20
8.5410062143612
30
0
41
1
10
76.1223440576451
20
8.18741942271387
30
0
41
1
10
77.2082170264333
20
7.58846797166382
30
0
41
1
10
77.7509011012407
20
7.28854349903111
30
0
41
1
10
78.2934255572311
20
6.98833524762739
30
0
0
SPLINE
5
2B1
100
AcDbEntity
8
1
62
256
6
ByLayer
370
-1
48
1
60
0
100
AcDbSpline
70
4
71
3
72
16
73
12
40
0
40
0
40
0
40
0
40
0.343443954228543
40
0.343443954228543
40
0.535083245610674
40
0.535083245610674
40
0.6935535578351
40
0.6935535578351
40
0.853171508912926
40
0.853171508912926
40
1
40
1
40
1
40
1
41
1
10
66.7578280413417
20
2.90031176009154
30
0
41
1
10
66.7582193556896
20
2.87580038940396
30
0
41
1
10
66.7556320953609
20
2.85106980393053
30
0
41
1
10
66.7439205772457
20
2.81553705777688
30
0
41
1
10
66.7380405206674
20
2.80319370544637
30
0
41
1
10
66.7235337878379
20
2.78349372335586
30
0
41
1
10
66.7153697277667
20
2.77549304961269
30
0
41
1
10
66.6964094854554
20
2.76320752990233
30
0
41
1
10
66.6853268594943
20
2.75883075789221
30
0
41
1
10
66.6631414623705
20
2.75444690179623
30
0
41
1
10
66.6518860990421
20
2.75402013099898
30
0
41
1
10
66.6407491339715
20
2.75484604499548
30
0
0
SPLINE
5
2B2
100
AcDbEntity
8
1
62
256
6
ByLayer
370
-1
48
1
60
0
100
AcDbSpline
70
4
71
3
72
10
73
6
40
0
40
0
40
0
40
0
40
0.726371168591116
40
0.726371168591116
40
1
40
1
40
1
40
1
41
1
10
71.6316332873386
20
0.367723282893991
30
0
41
1
10
71.6697709036757
20
0.349880435769677
30
0
41
1
10
71.7101334890149
20
0.337938864655797
30
0
41
1
10
71.7658131827646
20
0.333756142686724
30
0
41
1
10
71.7812415874961
20
0.333893620590885
30
0
41
1
10
71.7965081009695
20
0.335561710547182
30
0
0
SPLINE
5
2B3
100
AcDbEntity
8
1
62
256
6
ByLayer
370
-1
48
1
60
0
100
AcDbSpline
70
4
71
3
72
8
73
4
40
0
40
0
40
0
40
0
40
1
40
1
40
1
40
1
41
1
10
74.7510895404789
20
5.31844713141749
30
0
41
1
10
74.7462424125334
20
5.31282116341737
30
0
41
1
10
74.7413952663865
20
5.30719518975334
30
0
41
1
10
74.7365481014039
20
5.30156921022842
30
0
0
SPLINE
5
2B4
100
AcDbEntity
8
1
62
256
6
ByLayer
370
-1
48
1
60
0
100
AcDbSpline
70
4
71
3
72
36
73
32
40
0
40
0
40
0
40
0
40
0.0475157701008689
40
0.0475157701008689
40
0.126453341677992
40
0.126453341677992
40
0.191562321681088
40
0.191562321681088
40
0.256501777331627
40
0.256501777331627
40
0.354135189055943
40
0.354135189055943
40
0.426604905914205
40
0.426604905914205
40
0.500021324545577
40
0.500021324545577
40
0.567687808492018
40
0.567687808492018
40
0.635361645410169
40
0.635361645410169
40
0.703054973743852
40
0.703054973743852
40
0.770791731985714
40
0.770791731985714
40
0.838628455118572
40
0.838628455118572
40
0.892100072984716
40
0.892100072984716
40
0.974816586590078
40
0.974816586590078
40
1
40
1
40
1
40
1
41
1
10
74.7365481014038
20
5.30156921022851
30
0
41
1
10
74.7258985360956
20
5.28920853412458
30
0
41
1
10
74.7130732724526
20
5.27880629655698
30
0
41
1
10
74.6766697064134
20
5.25644782137414
30
0
41
1
10
74.6509884864613
20
5.24736439841504
30
0
41
1
10
74.6032824801391
20
5.23696727173575
30
0
41
1
10
74.5810013121414
20
5.23451039499949
30
0
41
1
10
74.5363103012403
20
5.23301573867522
30
0
41
1
10
74.5137540054646
20
5.23397302552809
30
0
41
1
10
74.4574986188999
20
5.23980131385011
30
0
41
1
10
74.4236388815891
20
5.24641400483469
30
0
41
1
10
74.3655150216256
20
5.26225311279774
30
0
41
1
10
74.3409044356858
20
5.27041166060104
30
0
41
1
10
74.2921414540477
20
5.28932878414696
30
0
41
1
10
74.2679188197267
20
5.30015210115292
30
0
41
1
10
74.2223916737273
20
5.32321247844223
30
0
41
1
10
74.2009453653737
20
5.33530443649661
30
0
41
1
10
74.1592005708955
20
5.36139113015872
30
0
41
1
10
74.1388436580205
20
5.37542190394376
30
0
41
1
10
74.0995805193981
20
5.40533305084438
30
0
41
1
10
74.080613217402
20
5.4212588094943
30
0
41
1
10
74.0445419839883
20
5.45495595320148
30
0
41
1
10
74.0273688109794
20
5.47278966378209
30
0
41
1
10
73.9955201042235
20
5.51035172848216
30
0
41
1
10
73.9807564581249
20
5.53017985896471
30
0
41
1
10
73.9576035397177
20
5.56736224147326
30
0
41
1
10
73.9484691176583
20
5.5844484972225
30
0
41
1
10
73.9294894282357
20
5.62909629783275
30
0
41
1
10
73.9215274465453
20
5.65824020733254
30
0
41
1
10
73.9206706639357
20
5.69609032469756
30
0
41
1
10
73.9211760563474
20
5.70507794048251
30
0
41
1
10
73.9225053541657
20
5.71389755782806
30
0
0
SPLINE
5
2B5
100
AcDbEntity
8
1
62
256
6
ByLayer
370
-1
48
1
60
0
100
AcDbSpline
70
4
71
3
72
24
73
20
40
0
40
0
40
0
40
0
40
0.0429952269624414
40
0.0429952269624414
40
0.228745926442332
40
0.228745926442332
40
0.414699745381368
40
0.414699745381368
40
0.538335079652917
40
0.538335079652917
40
0.63224200535492
40
0.63224200535492
40
0.783656353744416
40
0.783656353744416
40
0.875145603233012
40
0.875145603233012
40
0.967942630462317
40
0.967942630462317
40
1
40
1
40
1
40
1
41
1
10
75.1936881573712
20
5.08450552288673
30
0
41
1
10
75.1892289575676
20
5.09132820977709
30
0
41
1
10
75.1846801642774
20
5.0980889831925
30
0
41
1
10
75.1600344835776
20
5.13367875366535
30
0
41
1
10
75.1383612215087
20
5.16142759308667
30
0
41
1
10
75.0918305277768
20
5.21378179084505
30
0
41
1
10
75.0668692738796
20
5.23851740550592
30
0
41
1
10
75.0224510050637
20
5.27586679175806
30
0
41
1
10
75.0038776012192
20
5.28981878659704
30
0
41
1
10
74.9697559553712
20
5.31177464067275
30
0
41
1
10
74.9544995215313
20
5.32043424759627
30
0
41
1
10
74.9136112301599
20
5.33980753937814
30
0
41
1
10
74.8867197990444
20
5.34890624526395
30
0
41
1
10
74.8430028467768
20
5.3539708921038
30
0
41
1
10
74.8260758777706
20
5.35364106369718
30
0
41
1
10
74.7937421003351
20
5.34673141487676
30
0
41
1
10
74.7779285327904
20
5.33984563938429
30
0
41
1
10
74.7597635203034
20
5.32647270825027
30
0
41
1
10
74.7552784876691
20
5.32261408681859
30
0
41
1
10
74.7510895404789
20
5.31844713141743
30
0
0
SPLINE
5
2B6
100
AcDbEntity
8
1
62
256
6
ByLayer
370
-1
48
1
60
0
100
AcDbSpline
70
4
71
3
72
24
73
20
40
0
40
0
40
0
40
0
40
0.0429952269625759
40
0.0429952269625759
40
0.228745926442554
40
0.228745926442554
40
0.414699745381636
40
0.414699745381636
40
0.538335079653112
40
0.538335079653112
40
0.63224200535501
40
0.63224200535501
40
0.783656353744481
40
0.783656353744481
40
0.87514560323304
40
0.87514560323304
40
0.96794263046236
40
0.96794263046236
40
1
40
1
40
1
40
1
41
1
10
71.8634233592799
20
3.04928344552397
30
0
41
1
10
71.8678825590836
20
3.04246075863361
30
0
41
1
10
71.8724318521632
20
3.0356843064105
30
0
41
1
10
71.8970828637108
20
2.99992730282031
30
0
41
1
10
71.9187696475139
20
2.97175427538357
30
0
41
1
10
71.9653492957699
20
2.91786433360761
30
0
41
1
10
71.9903459749788
20
2.89201739753815
30
0
41
1
10
72.0348501243866
20
2.85197386589101
30
0
41
1
10
72.0534651594129
20
2.83671586635143
30
0
41
1
10
72.0876783944488
20
2.8118867834909
30
0
41
1
10
72.1029805369797
20
2.80179325702147
30
0
41
1
10
72.1440093870596
20
2.77801052198041
30
0
41
1
10
72.1710101004146
20
2.76548354160994
30
0
41
1
10
72.2149596647685
20
2.75312166070424
30
0
41
1
10
72.2319897437653
20
2.75021684319162
30
0
41
1
10
72.2645593082635
20
2.74972965630664
30
0
41
1
10
72.2805099835757
20
2.75231424742034
30
0
41
1
10
72.298867904704
20
2.75963547448958
30
0
41
1
10
72.303404173783
20
2.76188676615459
30
0
41
1
10
72.3076446423341
20
2.76443745373661
30
0
0
SPLINE
5
2B7
100
AcDbEntity
8
1
62
256
6
ByLayer
370
-1
48
1
60
0
100
AcDbSpline
70
4
71
3
72
36
73
32
40
0
40
0
40
0
40
0
40
0.047515770100853
40
0.047515770100853
40
0.126453341677998
40
0.126453341677998
40
0.191562321681111
40
0.191562321681111
40
0.256501777331678
40
0.256501777331678
40
0.35413518905602
40
0.35413518905602
40
0.426604905914253
40
0.426604905914253
40
0.50002132454559
40
0.50002132454559
40
0.567687808491974
40
0.567687808491974
40
0.635361645410073
40
0.635361645410073
40
0.703054973743705
40
0.703054973743705
40
0.770791731985472
40
0.770791731985472
40
0.838628455118295
40
0.838628455118295
40
0.892100072984552
40
0.892100072984552
40
0.974816586590033
40
0.974816586590033
40
1
40
1
40
1
40
1
41
1
10
74.0561083040311
20
2.39943463597751
30
0
41
1
10
74.0524824501508
20
2.41121142031685
30
0
41
1
10
74.051703062338
20
2.42383495725872
30
0
41
1
10
74.0552117181812
20
2.45719446407008
30
0
41
1
10
74.0630244633604
20
2.47842447754056
30
0
41
1
10
74.082632098663
20
2.51574517423191
30
0
41
1
10
74.0936775038473
20
2.53239110945444
30
0
41
1
10
74.1184834235601
20
2.56473395899727
30
0
41
1
10
74.1323255389657
20
2.58053634365277
30
0
41
1
10
74.1694500768156
20
2.61898545427545
30
0
41
1
10
74.1941419877003
20
2.64126152261628
30
0
41
1
10
74.2398244177569
20
2.67839867481706
30
0
41
1
10
74.2602346256853
20
2.69376491534027
30
0
41
1
10
74.3026705955009
20
2.72357550057578
30
0
41
1
10
74.3247847080891
20
2.73805406339045
30
0
41
1
10
74.3683101044619
20
2.76465370425825
30
0
41
1
10
74.3897005069814
20
2.77690640932849
30
0
41
1
10
74.4331842349015
20
2.80016897020514
30
0
41
1
10
74.455338041098
20
2.81121155112751
30
0
41
1
10
74.5001537385758
20
2.83181943160673
30
0
41
1
10
74.5228844102214
20
2.84141721462865
30
0
41
1
10
74.5686472036069
20
2.8587859248037
30
0
41
1
10
74.5917652191762
20
2.86659111303462
30
0
41
1
10
74.6380272024135
20
2.87982132888976
30
0
41
1
10
74.6612956849492
20
2.88528464723461
30
0
41
1
10
74.7024417600983
20
2.89206981268112
30
0
41
1
10
74.7205234845235
20
2.89403881327962
30
0
41
1
10
74.7651368206141
20
2.8953769028839
30
0
41
1
10
74.7918715923165
20
2.89280343535893
30
0
41
1
10
74.8215708199106
20
2.88193591468541
30
0
41
1
10
74.8282476284301
20
2.87879291980113
30
0
41
1
10
74.8343590039179
20
2.8750463672269
30
0
0
SPLINE
5
2B8
100
AcDbEntity
8
1
62
256
6
ByLayer
370
-1
48
1
60
0
100
AcDbSpline
70
4
71
3
72
36
73
32
40
0
40
0
40
0
40
0
40
0.0475157701008286
40
0.0475157701008286
40
0.126453341677964
40
0.126453341677964
40
0.191562321681072
40
0.191562321681072
40
0.256501777331628
40
0.256501777331628
40
0.354135189055966
40
0.354135189055966
40
0.426604905914225
40
0.426604905914225
40
0.500021324545582
40
0.500021324545582
40
0.567687808492045
40
0.567687808492045
40
0.635361645410207
40
0.635361645410207
40
0.703054973743886
40
0.703054973743886
40
0.770791731985742
40
0.770791731985742
40
0.838628455118606
40
0.838628455118606
40
0.892100072984737
40
0.892100072984737
40
0.974816586590128
40
0.974816586590128
40
1
40
1
40
1
40
1
41
1
10
75.2631920273413
20
3.66261351768964
30
0
41
1
10
75.2488453603704
20
3.66426472794686
30
0
41
1
10
75.2351695075932
20
3.66871967182385
30
0
41
1
10
75.2020962968474
20
3.68531413957663
30
0
41
1
10
75.1841243138155
20
3.70070787001822
30
0
41
1
10
75.1558576926166
20
3.73290958769141
30
0
41
1
10
75.1445522350332
20
3.74928502890845
30
0
41
1
10
75.1245417565646
20
3.78406672510317
30
0
41
1
10
75.1157714611941
20
3.802586770717
30
0
41
1
10
75.0965169485416
20
3.8507436099456
30
0
41
1
10
75.0872894255824
20
3.88150509902027
30
0
41
1
10
75.0747700690363
20
3.93692598248845
30
0
41
1
10
75.0705446028266
20
3.96123780839849
30
0
41
1
10
75.0641838020656
20
4.01102550420308
30
0
41
1
10
75.0620667465513
20
4.03659509583133
30
0
41
1
10
75.0600649969247
20
4.08625511398847
30
0
41
1
10
75.0600163409332
20
4.11037234353506
30
0
41
1
10
75.061784182886
20
4.15881471411512
30
0
41
1
10
75.0636027738356
20
4.18320739623357
30
0
41
1
10
75.069212973034
20
4.23191819825325
30
0
41
1
10
75.0730123719691
20
4.25631147135482
30
0
41
1
10
75.0827900986071
20
4.30467420545804
30
0
41
1
10
75.0887852384398
20
4.3287352371226
30
0
41
1
10
75.1033132545354
20
4.37592804082243
30
0
41
1
10
75.1118828426236
20
4.39918817665551
30
0
41
1
10
75.1300046101284
20
4.43912109831331
30
0
41
1
10
75.1390133953795
20
4.45624758555587
30
0
41
1
10
75.1648138344611
20
4.49700105942634
30
0
41
1
10
75.1837010557573
20
4.51998169711257
30
0
41
1
10
75.2127009616005
20
4.54202461607022
30
0
41
1
10
75.2199212129239
20
4.54667556461044
30
0
41
1
10
75.22739997999
20
4.55055359653855
30
0
0
SPLINE
5
2B9
100
AcDbEntity
8
1
62
256
6
ByLayer
370
-1
48
1
60
0
100
AcDbSpline
70
4
71
3
72
8
73
4
40
0
40
0
40
0
40
0
40
1
40
1
40
1
40
1
41
1
10
71.795736728846
20
4.41416713934328
30
0
41
1
10
71.7891419656573
20
4.41695330987559
30
0
41
1
10
71.7825472269344
20
4.4197394852942
30
0
41
1
10
71.7759525118532
20
4.42252566543408
30
0
0
SPLINE
5
2BA
100
AcDbEntity
8
1
62
256
6
ByLayer
370
-1
48
1
60
0
100
AcDbSpline
70
4
71
3
72
30
73
26
40
0
40
0
40
0
40
0
40
0.0472463991674011
40
0.0472463991674011
40
0.125736466955048
40
0.125736466955048
40
0.257856846531819
40
0.257856846531819
40
0.458496283789866
40
0.458496283789866
40
0.500541067592556
40
0.500541067592556
40
0.607715255533206
40
0.607715255533206
40
0.707741861721459
40
0.707741861721459
40
0.791454476503413
40
0.791454476503413
40
0.856063447344771
40
0.856063447344771
40
0.904947791866583
40
0.904947791866583
40
0.942568096207833
40
0.942568096207833
40
1
40
1
40
1
40
1
41
1
10
71.8315287761973
20
3.52622706049422
30
0
41
1
10
71.8456590106638
20
3.52901004371853
30
0
41
1
10
71.8588949310491
20
3.53453455681847
30
0
41
1
10
71.8904324868206
20
3.55369688537183
30
0
41
1
10
71.9070532752069
20
3.57046545512449
30
0
41
1
10
71.9443464024803
20
3.62069353516989
30
0
41
1
10
71.9611593274506
20
3.65874851565132
30
0
41
1
10
71.991843116049
20
3.75962113764473
30
0
41
1
10
72.0003711544884
20
3.8274475201637
30
0
41
1
10
72.001084663166
20
3.91118928147137
30
0
41
1
10
72.000846245927
20
3.92595556102364
30
0
41
1
10
71.9987286815197
20
3.97848874774985
30
0
41
1
10
71.9948849697037
20
4.01680140209345
30
0
41
1
10
71.9828560422679
20
4.09053636979334
30
0
41
1
10
71.9749423562433
20
4.12622468634092
30
0
41
1
10
71.9561387572165
20
4.19048193638554
30
0
41
1
10
71.9458916467443
20
4.21945424200945
30
0
41
1
10
71.924270612737
20
4.26893366920322
30
0
41
1
10
71.9136285703947
20
4.28999406916486
30
0
41
1
10
71.8924278302718
20
4.32501920786268
30
0
41
1
10
71.8824226675721
20
4.33954867521101
30
0
41
1
10
71.8630102152742
20
4.36338437633867
30
0
41
1
10
71.8539442679152
20
4.37317922688797
30
0
41
1
10
71.829608540506
20
4.39538302878029
30
0
41
1
10
71.8131608228536
20
4.40680576852714
30
0
41
1
10
71.795736728846
20
4.41416713934319
30
0
0
SPLINE
5
2BB
100
AcDbEntity
8
1
62
256
6
ByLayer
370
-1
48
1
60
0
100
AcDbSpline
70
4
71
3
72
30
73
26
40
0
40
0
40
0
40
0
40
0.0474443582703376
40
0.0474443582703376
40
0.126263293940431
40
0.126263293940431
40
0.191274421137258
40
0.191274421137258
40
0.256116278761075
40
0.256116278761075
40
0.320888225455238
40
0.320888225455238
40
0.385628263275555
40
0.385628263275555
40
0.49926593748828
40
0.49926593748828
40
0.718350851229863
40
0.718350851229863
40
0.845133679545894
40
0.845133679545894
40
0.929359653053682
40
0.929359653053682
40
0.988622318015146
40
0.988622318015146
40
1
40
1
40
1
40
1
41
1
10
72.2245697522681
20
5.20173428980701
30
0
41
1
10
72.2361425175413
20
5.19025680786194
30
0
41
1
10
72.2497264126141
20
5.1809041638387
30
0
41
1
10
72.2877189618567
20
5.16150245388886
30
0
41
1
10
72.3139944727061
20
5.15448397551285
30
0
41
1
10
72.3622958557519
20
5.14790252267511
30
0
41
1
10
72.3846666863708
20
5.14722027458168
30
0
41
1
10
72.4292688066179
20
5.14927444368635
30
0
41
1
10
72.4516462545612
20
5.15201755673041
30
0
41
1
10
72.4960467727488
20
5.1602287656128
30
0
41
1
10
72.5181618087379
20
5.16571534048384
30
0
41
1
10
72.5618759154231
20
5.17900420172219
30
0
41
1
10
72.5835437306956
20
5.18682838017997
30
0
41
1
10
72.6422343601575
20
5.21117609383489
30
0
41
1
10
72.6788073700321
20
5.22991723434379
30
0
41
1
10
72.7806673629207
20
5.29216685078441
30
0
41
1
10
72.8436059180531
20
5.34365926670372
30
0
41
1
10
72.9257278545415
20
5.43789375199069
30
0
41
1
10
72.9528322545639
20
5.47600987834883
30
0
41
1
10
72.9868291594831
20
5.54401607991369
30
0
41
1
10
72.9976715353405
20
5.57290457192818
30
0
41
1
10
73.0069573232425
20
5.6231811778211
30
0
41
1
10
73.0081131363331
20
5.64471677543659
30
0
41
1
10
73.0044871256527
20
5.66939502662657
30
0
41
1
10
73.0037372349499
20
5.67339337292307
30
0
41
1
10
73.0028204521564
20
5.67734602105534
30
0
0
SPLINE
5
2BC
100
AcDbEntity
8
1
62
256
6
ByLayer
370
-1
48
1
60
0
100
AcDbSpline
70
4
71
3
72
24
73
20
40
0
40
0
40
0
40
0
40
0.0429952269646715
40
0.0429952269646715
40
0.228745926445386
40
0.228745926445386
40
0.414699745385259
40
0.414699745385259
40
0.538335079656114
40
0.538335079656114
40
0.632242005357435
40
0.632242005357435
40
0.783656353745853
40
0.783656353745853
40
0.875145603234201
40
0.875145603234201
40
0.9679426304633
40
0.9679426304633
40
1
40
1
40
1
40
1
41
1
10
71.7868432833755
20
4.94910543593917
30
0
41
1
10
71.7907390658251
20
4.95626017942928
30
0
41
1
10
71.7947290065277
20
4.96336031238968
30
0
41
1
10
71.8164298469624
20
5.00079205783493
30
0
41
1
10
71.8357967244246
20
5.03017197782103
30
0
41
1
10
71.8779516924942
20
5.08605085802415
30
0
41
1
10
71.9008327909619
20
5.11268789729041
30
0
41
1
10
71.9420800646823
20
5.15344193574612
30
0
41
1
10
71.9594600734297
20
5.16882284659695
30
0
41
1
10
71.9916811679448
20
5.19341539625017
30
0
41
1
10
72.0061797206765
20
5.20325757177235
30
0
41
1
10
72.045340749969
20
5.22581230720013
30
0
41
1
10
72.0713849475791
20
5.23701486254092
30
0
41
1
10
72.1144929688032
20
5.24553024147866
30
0
41
1
10
72.1313651053249
20
5.24654370928783
30
0
41
1
10
72.1640893287662
20
5.24221969594558
30
0
41
1
10
72.1803703295183
20
5.23660947231957
30
0
41
1
10
72.1995026618141
20
5.22471886982493
30
0
41
1
10
72.2042703927021
20
5.22122798600154
30
0
41
1
10
72.2087677276122
20
5.21740625422976
30
0
0
SPLINE
5
2BD
100
AcDbEntity
8
1
62
256
6
ByLayer
370
-1
48
1
60
0
100
AcDbSpline
70
4
71
3
72
8
73
4
40
0
40
0
40
0
40
0
40
1
40
1
40
1
40
1
41
1
10
72.2087677276122
20
5.21740625422973
30
0
41
1
10
72.2140350501584
20
5.21218227033123
30
0
41
1
10
72.2193023914921
20
5.20695828223884
30
0
41
1
10
72.224569752268
20
5.20173428980695
30
0
0
SPLINE
5
2BE
100
AcDbEntity
8
1
62
256
6
ByLayer
370
-1
48
1
60
0
100
AcDbSpline
70
4
71
3
72
22
73
18
40
0
40
0
40
0
40
0
40
0.0904884159773892
40
0.0904884159773892
40
0.167615335033938
40
0.167615335033938
40
0.286482716021741
40
0.286482716021741
40
0.385988194077949
40
0.385988194077949
40
0.485170893000304
40
0.485170893000304
40
0.67149510634412
40
0.67149510634412
40
0.857309270883155
40
0.857309270883155
40
1
40
1
40
1
40
1
41
1
10
71.7759525118532
20
4.42252566543411
30
0
41
1
10
71.7617242303234
20
4.4298611699077
30
0
41
1
10
71.7483539948023
20
4.44049573947203
30
0
41
1
10
71.7279078236434
20
4.46424088298141
30
0
41
1
10
71.7199259200142
20
4.47698681929765
30
0
41
1
10
71.7038756822972
20
4.5110191407455
30
0
41
1
10
71.6976886056676
20
4.53371668100453
30
0
41
1
10
71.6910931318283
20
4.57547490064044
30
0
41
1
10
71.6898419296128
20
4.5948758657932
30
0
41
1
10
71.6898939100975
20
4.63334349987667
30
0
41
1
10
71.6911927501092
20
4.65253315139665
30
0
41
1
10
71.6976844166354
20
4.70709098219643
30
0
41
1
10
71.7052840808898
20
4.74218289730541
30
0
41
1
10
71.7250025246666
20
4.81041400629965
30
0
41
1
10
71.7371952113024
20
4.84376608201885
30
0
41
1
10
71.7620142938087
20
4.90101317801739
30
0
41
1
10
71.7739212927122
20
4.9253737389636
30
0
41
1
10
71.7868432833755
20
4.94910543593917
30
0
0
SPLINE
5
2BF
100
AcDbEntity
8
1
62
256
6
ByLayer
370
-1
48
1
60
0
100
AcDbSpline
70
4
71
3
72
22
73
18
40
0
40
0
40
0
40
0
40
0.0904884159773382
40
0.0904884159773382
40
0.167615335033926
40
0.167615335033926
40
0.286482716021733
40
0.286482716021733
40
0.38598819407796
40
0.38598819407796
40
0.485170893000288
40
0.485170893000288
40
0.671495106343403
40
0.671495106343403
40
0.857309270881686
40
0.857309270881686
40
1
40
1
40
1
40
1
41
1
10
73.1328340210451
20
2.34646312236816
30
0
41
1
10
73.1314479742597
20
2.33414968746027
30
0
41
1
10
73.1335232253631
20
2.32115227735415
30
0
41
1
10
73.143431332213
20
2.29845461862263
30
0
41
1
10
73.1504269689658
20
2.28828454468754
30
0
41
1
10
73.1720269397866
20
2.26471110825995
30
0
41
1
10
73.1889384321769
20
2.25206726195307
30
0
41
1
10
73.2226469516204
20
2.23215936688141
30
0
41
1
10
73.2392916476063
20
2.22417916154973
30
0
41
1
10
73.2736380451682
20
2.21017548236969
30
0
41
1
10
73.2914475549314
20
2.2041033974771
30
0
41
1
10
73.3435350110606
20
2.18889853324771
30
0
41
1
10
73.3788142322374
20
2.18164003606938
30
0
41
1
10
73.4498832948703
20
2.17130341777948
30
0
41
1
10
73.4859032741996
20
2.16819914154104
30
0
41
1
10
73.5496397242395
20
2.16590169480426
30
0
41
1
10
73.5774230437779
20
2.16597108930142
30
0
41
1
10
73.6051358342299
20
2.16707249379019
30
0
0
SPLINE
5
2C0
100
AcDbEntity
8
1
62
256
6
ByLayer
370
-1
48
1
60
0
100
AcDbSpline
70
4
71
3
72
24
73
20
40
0
40
0
40
0
40
0
40
0.0429952269623459
40
0.0429952269623459
40
0.228745926442278
40
0.228745926442278
40
0.414699745381483
40
0.414699745381483
40
0.538335079653007
40
0.538335079653007
40
0.632242005354975
40
0.632242005354975
40
0.783656353744428
40
0.783656353744428
40
0.875145603233016
40
0.875145603233016
40
0.967942630462351
40
0.967942630462351
40
1
40
1
40
1
40
1
41
1
10
73.451975682421
20
5.96671647462057
30
0
41
1
10
73.4436207001679
20
5.96638441802116
30
0
41
1
10
73.4352693539564
20
5.96594243012501
30
0
41
1
10
73.3909178635452
20
5.96300766715424
30
0
41
1
10
73.3549748742108
20
5.95858611223508
30
0
41
1
10
73.2840063156494
20
5.94533190157998
30
0
41
1
10
73.2488119591943
20
5.93647733426909
30
0
41
1
10
73.1918460620138
20
5.91721043570524
30
0
41
1
10
73.1694401340152
20
5.90827699867603
30
0
41
1
10
73.1313643976557
20
5.88990910198695
30
0
41
1
10
73.1153118432329
20
5.8810806036924
30
0
41
1
10
73.0754787659128
20
5.85535973357349
30
0
41
1
10
73.0523145846514
20
5.83648961147202
30
0
41
1
10
73.0226185132103
20
5.80051228316344
30
0
41
1
10
73.0129940053285
20
5.78533287775221
30
0
41
1
10
72.9997029499999
20
5.7528875836932
30
0
41
1
10
72.9960453427511
20
5.7350922944176
30
0
41
1
10
72.9962527250628
20
5.71163610229075
30
0
41
1
10
72.9967532884465
20
5.70553742778421
30
0
41
1
10
72.9976749609256
20
5.69953050427452
30
0
0
SPLINE
5
2C1
100
AcDbEntity
8
1
62
256
6
ByLayer
370
-1
48
1
60
0
100
AcDbSpline
70
4
71
3
72
22
73
18
40
0
40
0
40
0
40
0
40
0.0904884159773243
40
0.0904884159773243
40
0.167615335033883
40
0.167615335033883
40
0.286482716021677
40
0.286482716021677
40
0.385988194077886
40
0.385988194077886
40
0.485170893000257
40
0.485170893000257
40
0.671495106343305
40
0.671495106343305
40
0.85730927088159
40
0.85730927088159
40
1
40
1
40
1
40
1
41
1
10
73.9259001617679
20
5.73642146278587
30
0
41
1
10
73.9271434892885
20
5.75321211939325
30
0
41
1
10
73.9249262877072
20
5.77066263371876
30
0
41
1
10
73.9147840612482
20
5.8007048187574
30
0
41
1
10
73.9076890372465
20
5.81399275311506
30
0
41
1
10
73.8858680893073
20
5.84449842501451
30
0
41
1
10
73.8688471699014
20
5.86057508755422
30
0
41
1
10
73.8349735339107
20
5.88566282565
30
0
41
1
10
73.8182658853632
20
5.89561790504908
30
0
41
1
10
73.7838118614507
20
5.91299791210929
30
0
41
1
10
73.7659573295533
20
5.92048237868715
30
0
41
1
10
73.7137587622198
20
5.93917289354684
30
0
41
1
10
73.6784286098663
20
5.94802914397667
30
0
41
1
10
73.6072841424044
20
5.96073127429239
30
0
41
1
10
73.5712396607834
20
5.96460420773974
30
0
41
1
10
73.5074772343141
20
5.96771655661061
30
0
41
1
10
73.4796884728731
20
5.96781787910933
30
0
41
1
10
73.451975682421
20
5.96671647462057
30
0
0
SPLINE
5
2C2
100
AcDbEntity
8
1
62
256
6
ByLayer
370
-1
48
1
60
0
100
AcDbSpline
70
4
71
3
72
24
73
20
40
0
40
0
40
0
40
0
40
0.0429952269621135
40
0.0429952269621135
40
0.228745926441957
40
0.228745926441957
40
0.414699745380963
40
0.414699745380963
40
0.538335079652553
40
0.538335079652553
40
0.632242005354593
40
0.632242005354593
40
0.783656353744226
40
0.783656353744226
40
0.875145603232854
40
0.875145603232854
40
0.967942630462196
40
0.967942630462196
40
1
40
1
40
1
40
1
41
1
10
75.2702682332756
20
3.18468353247158
30
0
41
1
10
75.274164015725
20
3.19183827596126
30
0
41
1
10
75.2779668185411
20
3.19903319786894
30
0
41
1
10
75.2976752936764
20
3.23747411475384
30
0
41
1
10
75.311951781809
20
3.26943241508658
30
0
41
1
10
75.3364141239004
20
3.33427295149124
30
0
41
1
10
75.3466649391142
20
3.36730747275871
30
0
41
1
10
75.3592555077747
20
3.42257668487716
30
0
41
1
10
75.3631088475198
20
3.44480911439504
30
0
41
1
10
75.3671087326253
20
3.4836962507674
30
0
41
1
10
75.3679277075538
20
3.50046739621254
30
0
41
1
10
75.3669427728568
20
3.54335683648378
30
0
41
1
10
75.3632701641225
20
3.56961152722872
30
0
41
1
10
75.3493655893391
20
3.60700488534425
30
0
41
1
10
75.3421146832101
20
3.6202371393893
30
0
41
1
10
75.3231898546345
20
3.64207436677518
30
0
41
1
10
75.3111024482224
20
3.65083328836897
30
0
41
1
10
75.2928265077443
20
3.65789069732941
30
0
41
1
10
75.2878665299486
20
3.65932708552097
30
0
41
1
10
75.2827816709598
20
3.66035891971995
30
0
0
SPLINE
5
2C3
100
AcDbEntity
8
1
62
256
6
ByLayer
370
-1
48
1
60
0
100
AcDbSpline
70
4
71
3
72
22
73
18
40
0
40
0
40
0
40
0
40
0.0904884159772868
40
0.0904884159772868
40
0.167615335033902
40
0.167615335033902
40
0.286482716021687
40
0.286482716021687
40
0.38598819407786
40
0.38598819407786
40
0.485170893000196
40
0.485170893000196
40
0.671495106343221
40
0.671495106343221
40
0.857309270881428
40
0.857309270881428
40
1
40
1
40
1
40
1
41
1
10
74.8499664552007
20
2.8654783309243
30
0
41
1
10
74.8622817984004
20
2.85936897766632
30
0
41
1
10
74.8769370117172
20
2.85580811701604
30
0
41
1
10
74.9054935482352
20
2.85473244423176
30
0
41
1
10
74.919495587113
20
2.85634308978047
30
0
41
1
10
74.954524067309
20
2.864503055721
30
0
41
1
10
74.9758595510177
20
2.87325988848704
30
0
41
1
10
75.0129075261789
20
2.89291185968449
30
0
41
1
10
75.0292859558899
20
2.90338307633718
30
0
41
1
10
75.0605665475937
20
2.92603281669756
30
0
41
1
10
75.0755712139691
20
2.93828020289382
30
0
41
1
10
75.1168813538009
20
2.97520180560488
30
0
41
1
10
75.1417996176714
20
3.00152151607509
30
0
41
1
10
75.1877790633766
20
3.05645092123549
30
0
41
1
10
75.2089795995882
20
3.08524034745781
30
0
41
1
10
75.2433884365619
20
3.1376300479121
30
0
41
1
10
75.2573462426122
20
3.16095183549572
30
0
41
1
10
75.2702682332756
20
3.18468353247158
30
0
0
SPLINE
5
2C4
100
AcDbEntity
8
1
62
256
6
ByLayer
370
-1
48
1
60
0
100
AcDbSpline
70
4
71
3
72
8
73
4
40
0
40
0
40
0
40
0
40
1
40
1
40
1
40
1
41
1
10
72.3076446423341
20
2.76443745373655
30
0
41
1
10
72.3125566287927
20
2.7680287563893
30
0
41
1
10
72.3174686327393
20
2.77162008708589
30
0
41
1
10
72.3223806547834
20
2.77521144680438
30
0
0
SPLINE
5
2C5
100
AcDbEntity
8
1
62
256
6
ByLayer
370
-1
48
1
60
0
100
AcDbSpline
70
4
71
3
72
8
73
4
40
0
40
0
40
0
40
0
40
1
40
1
40
1
40
1
41
1
10
71.8315287761957
20
3.5262270604936
30
0
41
1
10
71.8250973796343
20
3.52496038167237
30
0
41
1
10
71.8186660069204
20
3.52369372307535
30
0
41
1
10
71.8122346572509
20
3.52242708402085
30
0
0
SPLINE
5
2C6
100
AcDbEntity
8
1
62
256
6
ByLayer
370
-1
48
1
60
0
100
AcDbSpline
70
4
71
3
72
8
73
4
40
0
40
0
40
0
40
0
40
1
40
1
40
1
40
1
41
1
10
72.9976749609255
20
5.69953050427455
30
0
41
1
10
72.9993901188047
20
5.69213568880826
30
0
41
1
10
73.0011052824809
20
5.68474086120932
30
0
41
1
10
73.0028204521563
20
5.67734602105531
30
0
0
SPLINE
5
2C7
100
AcDbEntity
8
1
62
256
6
ByLayer
370
-1
48
1
60
0
100
AcDbSpline
70
4
71
3
72
36
73
32
40
0
40
0
40
0
40
0
40
0.0475157701008979
40
0.0475157701008979
40
0.126453341678003
40
0.126453341678003
40
0.19156232168111
40
0.19156232168111
40
0.256501777331708
40
0.256501777331708
40
0.354135189056028
40
0.354135189056028
40
0.426604905914247
40
0.426604905914247
40
0.500021324545571
40
0.500021324545571
40
0.567687808492018
40
0.567687808492018
40
0.6353616454102
40
0.6353616454102
40
0.703054973743867
40
0.703054973743867
40
0.770791731985708
40
0.770791731985708
40
0.838628455118552
40
0.838628455118552
40
0.892100072984703
40
0.892100072984703
40
0.974816586590106
40
0.974816586590106
40
1
40
1
40
1
40
1
41
1
10
72.3223806547834
20
2.77521144680432
30
0
41
1
10
72.3331727156564
20
2.78310191886459
30
0
41
1
10
72.3461403819422
20
2.7890368674268
30
0
41
1
10
72.3829005490812
20
2.80020847036107
30
0
41
1
10
72.4087887855513
20
2.80279761345972
30
0
41
1
10
72.456831292232
20
2.80263844481666
30
0
41
1
10
72.4792518497694
20
2.80072255609144
30
0
41
1
10
72.5241936352313
20
2.79435020646338
30
0
41
1
10
72.5468621610081
20
2.78987217139957
30
0
41
1
10
72.603364875448
20
2.77628500250975
30
0
41
1
10
72.6373440058249
20
2.76592685202664
30
0
41
1
10
72.6956237190669
20
2.74519849745488
30
0
41
1
10
72.7202844814031
20
2.73546587448462
30
0
41
1
10
72.7691150409182
20
2.71442877689236
30
0
41
1
10
72.7933547428024
20
2.70307003627116
30
0
41
1
10
72.8388818888018
20
2.68000965898185
30
0
41
1
10
72.86031369747
20
2.66837256808353
30
0
41
1
10
72.9020006749267
20
2.64409964233886
30
0
41
1
10
72.9223141925455
20
2.63143021373176
30
0
41
1
10
72.9614620504821
20
2.60513551755145
30
0
41
1
10
72.9803572939069
20
2.59147029604213
30
0
41
1
10
73.0162561939884
20
2.56317939189293
30
0
41
1
10
73.0333287724526
20
2.54850141560632
30
0
41
1
10
73.0649479999802
20
2.518138304617
30
0
41
1
10
73.0795821427767
20
2.50237280012306
30
0
41
1
10
73.102477839658
20
2.47325967020902
30
0
41
1
10
73.1114892959467
20
2.46003095267005
30
0
41
1
10
73.1301354005421
20
2.42584798474783
30
0
41
1
10
73.1378685196641
20
2.4038836838252
30
0
41
1
10
73.138410380556
20
2.37591292192792
30
0
41
1
10
73.1378288873598
20
2.36931265086383
30
0
41
1
10
73.1364234020215
20
2.36288309920471
30
0
0
SPLINE
5
2C8
100
AcDbEntity
8
1
62
256
6
ByLayer
370
-1
48
1
60
0
100
AcDbSpline
70
4
71
3
72
8
73
4
40
0
40
0
40
0
40
0
40
1
40
1
40
1
40
1
41
1
10
73.922505354166
20
5.71389755782974
30
0
41
1
10
73.9236369614207
20
5.72140553898609
30
0
41
1
10
73.924768563901
20
5.72891350715921
30
0
41
1
10
73.9259001617678
20
5.7364214627859
30
0
0
SPLINE
5
2C9
100
AcDbEntity
8
1
62
256
6
ByLayer
370
-1
48
1
60
0
100
AcDbSpline
70
4
71
3
72
22
73
18
40
0
40
0
40
0
40
0
40
0.090488415977248
40
0.090488415977248
40
0.167615335033911
40
0.167615335033911
40
0.286482716021702
40
0.286482716021702
40
0.385988194077935
40
0.385988194077935
40
0.485170893000319
40
0.485170893000319
40
0.671495106343384
40
0.671495106343384
40
0.857309270881672
40
0.857309270881672
40
1
40
1
40
1
40
1
41
1
10
75.2464995255621
20
4.56045750113316
30
0
41
1
10
75.2601295559148
20
4.5689001936328
30
0
41
1
10
75.2726385428893
20
4.58056329519832
30
0
41
1
10
75.2911699127528
20
4.60585754429911
30
0
41
1
10
75.2981266212534
20
4.61919719399418
30
0
41
1
10
75.3114446420693
20
4.65439671409826
30
0
41
1
10
75.3158139198799
20
4.67751380128763
30
0
41
1
10
75.319070817324
20
4.71966358906877
30
0
41
1
10
75.3187730747684
20
4.73910244808687
30
0
41
1
10
75.315653455735
20
4.7774440315674
30
0
41
1
10
75.3128261012801
20
4.79646969349886
30
0
41
1
10
75.3019932293806
20
4.85033898575452
30
0
41
1
10
75.291606806486
20
4.88471607002879
30
0
41
1
10
75.2664794871438
20
4.95116484949202
30
0
41
1
10
75.2516477928802
20
4.98344288055722
30
0
41
1
10
75.2223071915994
20
5.03853747881533
30
0
41
1
10
75.2084789571599
20
5.06187523039969
30
0
41
1
10
75.1936881573712
20
5.08450552288673
30
0
0
SPLINE
5
2CA
100
AcDbEntity
8
1
62
256
6
ByLayer
370
-1
48
1
60
0
100
AcDbSpline
70
4
71
3
72
8
73
4
40
0
40
0
40
0
40
0
40
1
40
1
40
1
40
1
41
1
10
75.2273999799916
20
4.5505535965392
30
0
41
1
10
75.2337665194916
20
4.55385489516686
30
0
41
1
10
75.2401330344057
20
4.55715619673134
30
0
41
1
10
75.2464995255621
20
4.56045750113321
30
0
0
SPLINE
5
2CB
100
AcDbEntity
8
1
62
256
6
ByLayer
370
-1
48
1
60
0
100
AcDbSpline
70
4
71
3
72
8
73
4
40
0
40
0
40
0
40
0
40
1
40
1
40
1
40
1
41
1
10
74.0610592218874
20
2.38335408087951
30
0
41
1
10
74.0594089225214
20
2.38871423099843
30
0
41
1
10
74.0577586166449
20
2.39407441562992
30
0
41
1
10
74.056108304031
20
2.39943463597751
30
0
0
SPLINE
5
2CC
100
AcDbEntity
8
1
62
256
6
ByLayer
370
-1
48
1
60
0
100
AcDbSpline
70
4
71
3
72
22
73
18
40
0
40
0
40
0
40
0
40
0.0904884159773081
40
0.0904884159773081
40
0.167615335033904
40
0.167615335033904
40
0.286482716021735
40
0.286482716021735
40
0.385988194077964
40
0.385988194077964
40
0.485170893000335
40
0.485170893000335
40
0.671495106343442
40
0.671495106343442
40
0.857309270881768
40
0.857309270881768
40
1
40
1
40
1
40
1
41
1
10
71.8122346572509
20
3.5224270840209
30
0
41
1
10
71.7984619076335
20
3.51846161322072
30
0
41
1
10
71.785810970181
20
3.51125161587456
30
0
41
1
10
71.7670454807083
20
3.49330189308088
30
0
41
1
10
71.7599893849589
20
3.48308010380836
30
0
41
1
10
71.7464503870246
20
3.45481281917614
30
0
41
1
10
71.7419716821984
20
3.43512854821964
30
0
41
1
10
71.7385496682071
20
3.39815860346258
30
0
41
1
10
71.7387844582011
20
3.38069461851191
30
0
41
1
10
71.7417964508839
20
3.34572936291156
30
0
41
1
10
71.7445787832046
20
3.3281160826653
30
0
41
1
10
71.7553005438998
20
3.27773244103997
30
0
41
1
10
71.7656360356179
20
3.24495311001718
30
0
41
1
10
71.7906879501309
20
3.18086984257977
30
0
41
1
10
71.8054951421029
20
3.14936046872344
30
0
41
1
10
71.8348097669544
20
3.09508077259946
30
0
41
1
10
71.8486325594912
20
3.07191373801101
30
0
41
1
10
71.8634233592799
20
3.04928344552397
30
0
0
SPLINE
5
2CD
100
AcDbEntity
8
1
62
256
6
ByLayer
370
-1
48
1
60
0
100
AcDbSpline
70
4
71
3
72
8
73
4
40
0
40
0
40
0
40
0
40
1
40
1
40
1
40
1
41
1
10
73.1364234020213
20
2.36288309920309
30
0
41
1
10
73.1352269377052
20
2.35740973785315
30
0
41
1
10
73.1340304774251
20
2.35193641264749
30
0
41
1
10
73.1328340210452
20
2.34646312236816
30
0
0
SPLINE
5
2CE
100
AcDbEntity
8
1
62
256
6
ByLayer
370
-1
48
1
60
0
100
AcDbSpline
70
4
71
1
72
4
73
2
40
0
40
0
40
1
40
1
41
1
10
70.7649888269724
20
8.97205408829535
30
0
41
1
10
70.405
20
9.3438546421319
30
0
0
SPLINE
5
2CF
100
AcDbEntity
8
1
62
256
6
ByLayer
370
-1
48
1
60
0
100
AcDbSpline
70
4
71
3
72
12
73
8
40
0
40
0
40
0
40
0
40
0.249999999999997
40
0.249999999999997
40
0.499999999999993
40
0.499999999999993
40
1
40
1
40
1
40
1
41
1
10
74.5772725779367
20
9.3263207809517
30
0
41
1
10
75.0561413681223
20
9.2613871337384
30
0
41
1
10
75.4913411391097
20
9.06371141365111
30
0
41
1
10
76.3793743665604
20
8.72095447683031
30
0
41
1
10
76.8233439919747
20
8.54731892180007
30
0
41
1
10
78.1543949649017
20
8.02347150090728
30
0
41
1
10
79.0421211343423
20
7.67545930356323
30
0
41
1
10
79.9300000000165
20
7.32807075439104
30
0
0
SPLINE
5
2D0
100
AcDbEntity
8
1
62
256
6
ByLayer
370
-1
48
1
60
0
100
AcDbSpline
70
4
71
3
72
12
73
8
40
0
40
0
40
0
40
0
40
0.0143412310806191
40
0.0143412310806191
40
0.547790989098494
40
0.547790989098494
40
1
40
1
40
1
40
1
41
1
10
77.6498736686256
20
4.6613781886459
30
0
41
1
10
77.6507480302236
20
4.66039400974657
30
0
41
1
10
77.6516225963132
20
4.65941099265845
30
0
41
1
10
77.685029181487
20
4.62187010451783
30
0
41
1
10
77.7175334937826
20
4.58618342510644
30
0
41
1
10
77.7743463394924
20
4.52482546034102
30
0
41
1
10
77.7995901458274
20
4.49800552650609
30
0
41
1
10
77.8217927940129
20
4.4746170527342
30
0
0
SPLINE
5
2D1
100
AcDbEntity
8
1
62
256
6
ByLayer
370
-1
48
1
60
0
100
AcDbSpline
70
4
71
3
72
14
73
10
40
0
40
0
40
0
40
0
40
0.25
40
0.25
40
0.5
40
0.5
40
0.75
40
0.75
40
1
40
1
40
1
40
1
41
1
10
68.7727539199978
20
6.9285853984438
30
0
41
1
10
68.7718631115916
20
6.32012210192454
30
0
41
1
10
68.7709965825796
20
5.71153248862186
30
0
41
1
10
68.7698174866336
20
4.49395964696623
30
0
41
1
10
68.7047663930535
20
3.87699922704121
30
0
41
1
10
69.0181301322492
20
2.67533303306681
30
0
41
1
10
69.3875091001336
20
2.17014396554885
30
0
41
1
10
70.0218997059422
20
1.10877535374885
30
0
41
1
10
70.3391058113854
20
0.578097864800441
30
0
41
1
10
70.6563024267632
20
0.0474145241005033
30
0
0
SPLINE
5
2D2
100
AcDbEntity
8
1
62
256
6
ByLayer
370
-1
48
1
60
0
100
AcDbSpline
70
4
71
3
72
14
73
10
40
0
40
0
40
0
40
0
40
0.25
40
0.25
40
0.5
40
0.5
40
0.75
40
0.75
40
1
40
1
40
1
40
1
41
1
10
73.6432507970138
20
-1.00827339970627
30
0
41
1
10
74.1886852179121
20
-0.705697476333683
30
0
41
1
10
74.7341037612977
20
-0.403233813122824
30
0
41
1
10
75.8246438108607
20
0.201729741933747
30
0
41
1
10
76.4077102130937
20
0.45142582455594
30
0
41
1
10
77.3260644287421
20
1.31046393224972
30
0
41
1
10
77.597186921658
20
1.87685469378545
30
0
41
1
10
78.2315881580315
20
2.93821620605587
30
0
41
1
10
78.5487779736912
20
3.46890377916202
30
0
41
1
10
78.8659772794047
20
3.99958550049732
30
0
0
SPLINE
5
2D3
100
AcDbEntity
8
1
62
256
6
ByLayer
370
-1
48
1
60
0
100
AcDbSpline
70
4
71
3
72
12
73
8
40
0
40
0
40
0
40
0
40
0.249999999999999
40
0.249999999999999
40
0.499999999999999
40
0.499999999999999
40
1
40
1
40
1
40
1
41
1
10
68.3272999468198
20
2.20685185612149
30
0
41
1
10
68.1451333170419
20
2.63831059797909
30
0
41
1
10
68.1068642677907
20
3.10471291826499
30
0
41
1
10
67.9722328620409
20
4.02242179568168
30
0
41
1
10
67.9051447406575
20
4.47932128604961
30
0
41
1
10
67.7062566294375
20
5.84961924976525
30
0
41
1
10
67.5727398546387
20
6.76342396252153
30
0
41
1
10
67.4388367938241
20
7.67746152012711
30
0
0
SPLINE
5
2D4
100
AcDbEntity
8
1
62
256
6
ByLayer
370
-1
48
1
60
0
100
AcDbSpline
70
4
71
3
72
10
73
6
40
0
40
0
40
0
40
0
40
0.410984291904107
40
0.410984291904107
40
1
40
1
40
1
40
1
41
1
10
68.1225042348032
20
8.23441849308455
30
0
41
1
10
68.0228842522257
20
8.15699104045115
30
0
41
1
10
67.9255772882238
20
8.07988157161779
30
0
41
1
10
67.6950323081615
20
7.89358690145301
30
0
41
1
10
67.5642821573347
20
7.78480177817821
30
0
41
1
10
67.4388367938296
20
7.67746152011262
30
0
0
SPLINE
5
2D5
100
AcDbEntity
8
1
62
256
6
ByLayer
370
-1
48
1
60
0
100
AcDbSpline
70
4
71
3
72
12
73
8
40
0
40
0
40
0
40
0
40
0.452209010901503
40
0.452209010901503
40
0.985658768919401
40
0.985658768919401
40
1
40
1
40
1
40
1
41
1
10
77.4913486020731
20
5.75479647703486
30
0
41
1
10
77.4856837713777
20
5.7141155127899
30
0
41
1
10
77.4782774776757
20
5.67183083770578
30
0
41
1
10
77.4606878839453
20
5.5812333396033
30
0
41
1
10
77.4500380654274
20
5.53225315560692
30
0
41
1
10
77.4388250684721
20
5.48381348884158
30
0
41
1
10
77.4385311366835
20
5.48254706077853
30
0
41
1
10
77.4382374643689
20
5.48128158151877
30
0
0
SPLINE
5
2D6
100
AcDbEntity
8
1
62
256
6
ByLayer
370
-1
48
1
60
0
100
AcDbSpline
70
4
71
3
72
12
73
8
40
0
40
0
40
0
40
0
40
0.012509715421502
40
0.012509715421502
40
0.545812023971054
40
0.545812023971054
40
1
40
1
40
1
40
1
41
1
10
72.8743701612879
20
0.206866225218789
30
0
41
1
10
72.8749228825702
20
0.205871207997688
30
0
41
1
10
72.8754753814546
20
0.204876930003934
30
0
41
1
10
72.8996155510661
20
0.161517288330657
30
0
41
1
10
72.9238349564644
20
0.120519652664996
30
0
41
1
10
72.968129155401
20
0.0522528380533629
30
0
41
1
10
72.9886920848553
20
0.023203531627388
30
0
41
1
10
73.0081637393843
20
-3.63356731725E-05
30
0
0
LINE
5
4A
100
AcDbEntity
8
1
62
256
6
ByLayer
370
-1
48
1
60
0
100
AcDbLine
10
79.93
20
9.159059
30
0
11
79.93
21
7.46799
31
0
39
0
210
0
220
0
230
1
0
LINE
5
4B
100
AcDbEntity
8
1
62
256
6
ByLayer
370
-1
48
1
60
0
100
AcDbLine
10
77.358909
20
13.234353
30
0
11
77.501091
21
13.234353
31
0
39
0
210
0
220
0
230
1
0
LINE
5
4C
100
AcDbEntity
8
1
62
256
6
ByLayer
370
-1
48
1
60
0
100
AcDbLine
10
74.052466
20
2.421976
30
0
11
74.054992
21
2.342725
31
0
39
0
210
0
220
0
230
1
0
LINE
5
4D
100
AcDbEntity
8
1
62
256
6
ByLayer
370
-1
48
1
60
0
100
AcDbLine
10
73.140724
20
2.306148
30
0
11
73.138251
21
2.383731
31
0
39
0
210
0
220
0
230
1
0
LINE
5
4E
100
AcDbEntity
8
1
62
256
6
ByLayer
370
-1
48
1
60
0
100
AcDbLine
10
66.600164
20
1.452136
30
0
11
66.600164
21
0.648336
31
0
39
0
210
0
220
0
230
1
0
LINE
5
4F
100
AcDbEntity
8
1
62
256
6
ByLayer
370
-1
48
1
60
0
100
AcDbLine
10
69.956086
20
3.930539
30
0
11
69.965683
21
3.62948
31
0
39
0
210
0
220
0
230
1
0
LINE
5
50
100
AcDbEntity
8
1
62
256
6
ByLayer
370
-1
48
1
60
0
100
AcDbLine
10
77.112053
20
3.857283
30
0
11
77.102457
21
4.158342
31
0
39
0
210
0
220
0
230
1
0
LINE
5
51
100
AcDbEntity
8
1
62
256
6
ByLayer
370
-1
48
1
60
0
100
AcDbLine
10
79.768697
20
-4.753532
30
0
11
79.768697
21
-3.31617
31
0
39
0
210
0
220
0
230
1
0
LINE
5
52
100
AcDbEntity
8
1
62
256
6
ByLayer
370
-1
48
1
60
0
100
AcDbLine
10
63.541303
20
3.125005
30
0
11
63.541303
21
1.687644
31
0
39
0
210
0
220
0
230
1
0
LINE
5
53
100
AcDbEntity
8
SK4
62
256
6
ByLayer
370
-1
48
0.05
60
0
100
AcDbLine
10
-176.32
20
0
30
0
11
84.93
21
0
31
0
39
0
210
0
220
0
230
1
0
LINE
5
55
100
AcDbEntity
8
80
62
256
6
ByLayer
370
-1
48
1
60
0
100
AcDbLine
10
0
20
0
30
0
11
-5
21
0
31
0
39
0
210
0
220
0
230
1
0
LINE
5
56
100
AcDbEntity
8
81
62
256
6
ByLayer
370
-1
48
1
60
0
100
AcDbLine
10
79.93
20
14.875
30
0
11
84.93
21
14.875
31
0
39
0
210
0
220
0
230
1
0
LINE
5
57
100
AcDbEntity
8
4
62
256
6
ByLayer
370
-1
48
0.05
60
0
100
AcDbLine
10
0
20
0
30
0
11
251.25
21
0
31
0
39
0
210
0
220
0
230
1
0
LINE
5
59
100
AcDbEntity
8
1
62
256
6
ByLayer
370
-1
48
1
60
0
100
AcDbLine
10
72.013298
20
3.532431
30
0
11
72.000528
21
3.933052
31
0
39
0
210
0
220
0
230
1
0
LINE
5
5A
100
AcDbEntity
8
1
62
256
6
ByLayer
370
-1
48
1
60
0
100
AcDbLine
10
75.060742
20
4.070291
30
0
11
75.073513
21
3.669642
31
0
39
0
210
0
220
0
230
1
0
LINE
5
5B
100
AcDbEntity
8
1
62
256
6
ByLayer
370
-1
48
1
60
0
100
AcDbLine
10
73.920916
20
5.685566
30
0
11
73.934738
21
5.251954
31
0
39
0
210
0
220
0
230
1
0
LINE
5
5C
100
AcDbEntity
8
1
62
256
6
ByLayer
370
-1
48
1
60
0
100
AcDbLine
10
44.923546
20
-9.675
30
0
11
56.73333
21
-9.675
31
0
39
0
210
0
220
0
230
1
0
LINE
5
5D
100
AcDbEntity
8
1
62
256
6
ByLayer
370
-1
48
1
60
0
100
AcDbLine
10
56.73333
20
9.675
30
0
11
52.875437
21
9.675
31
0
39
0
210
0
220
0
230
1
0
LINE
5
5E
100
AcDbEntity
8
1
62
256
6
ByLayer
370
-1
48
1
60
0
100
AcDbLine
10
44.161425
20
-9.99125
30
0
11
44.523546
21
-9.78218
31
0
39
0
210
0
220
0
230
1
0
LINE
5
5F
100
AcDbEntity
8
1
62
256
6
ByLayer
370
-1
48
1
60
0
100
AcDbLine
10
56.859426
20
-9.685
30
0
11
58.423622
21
-9.685
31
0
39
0
210
0
220
0
230
1
0
LINE
5
60
100
AcDbEntity
8
1
62
256
6
ByLayer
370
-1
48
1
60
0
100
AcDbLine
10
0
20
-9.99125
30
0
11
44.161425
21
-9.99125
31
0
39
0
210
0
220
0
230
1
0
LINE
5
61
100
AcDbEntity
8
1
62
256
6
ByLayer
370
-1
48
1
60
0
100
AcDbLine
10
57.599722
20
10.262946
30
0
11
57.346166
21
9.96077
31
0
39
0
210
0
220
0
230
1
0
LINE
5
62
100
AcDbEntity
8
SK1
62
256
6
ByLayer
370
-1
48
1
60
0
100
AcDbLine
10
-169.32
20
-9.99125
30
0
11
0
21
-9.99125
31
0
39
0
210
0
220
0
230
1
0
LINE
5
64
100
AcDbEntity
8
1
62
256
6
ByLayer
370
-1
48
1
60
0
100
AcDbLine
10
78.828936
20
-8.664386
30
0
11
78.828936
21
-7.553596
31
0
39
0
210
0
220
0
230
1
0
LINE
5
65
100
AcDbEntity
8
1
62
256
6
ByLayer
370
-1
48
1
60
0
100
AcDbLine
10
56.73333
20
9.60159
30
0
11
54.826195
21
9.60159
31
0
39
0
210
0
220
0
230
1
0
LINE
5
66
100
AcDbEntity
8
1
62
256
6
ByLayer
370
-1
48
1
60
0
100
AcDbLine
10
78.828936
20
-7.553596
30
0
11
76.629011
21
-7.558293
31
0
39
0
210
0
220
0
230
1
0
LINE
5
67
100
AcDbEntity
8
1
62
256
6
ByLayer
370
-1
48
1
60
0
100
AcDbLine
10
67.033093
20
10.340043
30
0
11
57.704228
21
10.340043
31
0
39
0
210
0
220
0
230
1
0
LINE
5
68
100
AcDbEntity
8
1
62
256
6
ByLayer
370
-1
48
1
60
0
100
AcDbLine
10
59.533674
20
-6.648848
30
0
11
59.533674
21
-9.279152
31
0
39
0
210
0
220
0
230
1
0
LINE
5
69
100
AcDbEntity
8
1
62
256
6
ByLayer
370
-1
48
1
60
0
100
AcDbLine
10
66.117119
20
0.916691
30
0
11
65.244668
21
0.921007
31
0
39
0
210
0
220
0
230
1
0
LINE
5
6A
100
AcDbEntity
8
1
62
256
6
ByLayer
370
-1
48
1
60
0
100
AcDbLine
10
62.454182
20
6.44285
30
0
11
67.033093
21
8.976671
31
0
39
0
210
0
220
0
230
1
0
LINE
5
6B
100
AcDbEntity
8
1
62
256
6
ByLayer
370
-1
48
1
60
0
100
AcDbLine
10
62.80266
20
-5.750934
30
0
11
58.915162
21
0.752977
31
0
39
0
210
0
220
0
230
1
0
LINE
5
6C
100
AcDbEntity
8
1
62
256
6
ByLayer
370
-1
48
1
60
0
100
AcDbLine
10
78.828936
20
-8.664386
30
0
11
61.937837
21
-8.664386
31
0
39
0
210
0
220
0
230
1
0
LINE
5
6D
100
AcDbEntity
8
1
62
256
6
ByLayer
370
-1
48
1
60
0
100
AcDbLine
10
76.629011
20
-7.558293
30
0
11
76.629011
21
-7.271205
31
0
39
0
210
0
220
0
230
1
0
LINE
5
6E
100
AcDbEntity
8
1
62
256
6
ByLayer
370
-1
48
1
60
0
100
AcDbLine
10
79.428915
20
-8.245123
30
0
11
79.428915
21
-6.972759
31
0
39
0
210
0
220
0
230
1
0
LINE
5
6F
100
AcDbEntity
8
1
62
256
6
ByLayer
370
-1
48
1
60
0
100
AcDbLine
10
67.257077
20
10.376744
30
0
11
67.845731
21
10.042009
31
0
39
0
210
0
220
0
230
1
0
LINE
5
70
100
AcDbEntity
8
1
62
256
6
ByLayer
370
-1
48
1
60
0
100
AcDbLine
10
76.745428
20
-6.504615
30
0
11
76.71901
21
-7.247533
31
0
39
0
210
0
220
0
230
1
0
LINE
5
71
100
AcDbEntity
8
1
62
256
6
ByLayer
370
-1
48
1
60
0
100
AcDbLine
10
44.161425
20
4.338787
30
0
11
0
21
4.338787
31
0
39
0
210
0
220
0
230
1
0
LINE
5
72
100
AcDbEntity
8
1
62
256
6
ByLayer
370
-1
48
1
60
0
100
AcDbLine
10
61.937837
20
-5.557089
30
0
11
61.937837
21
-8.664386
31
0
39
0
210
0
220
0
230
1
0
LINE
5
73
100
AcDbEntity
8
1
62
256
6
ByLayer
370
-1
48
1
60
0
100
AcDbLine
10
44.161425
20
-9.99125
30
0
11
44.161425
21
-4.338787
31
0
39
0
210
0
220
0
230
1
0
LINE
5
74
100
AcDbEntity
8
1
62
256
6
ByLayer
370
-1
48
1
60
0
100
AcDbLine
10
64.1883
20
-6.061517
30
0
11
54.826195
21
9.60159
31
0
39
0
210
0
220
0
230
1
0
LINE
5
75
100
AcDbEntity
8
1
62
256
6
ByLayer
370
-1
48
1
60
0
100
AcDbLine
10
76.745428
20
-6.504615
30
0
11
76.745428
21
-4.987985
31
0
39
0
210
0
220
0
230
1
0
LINE
5
76
100
AcDbEntity
8
1
62
256
6
ByLayer
370
-1
48
1
60
0
100
AcDbLine
10
0
20
-4.338787
30
0
11
44.161425
21
-4.338787
31
0
39
0
210
0
220
0
230
1
0
LINE
5
77
100
AcDbEntity
8
1
62
256
6
ByLayer
370
-1
48
1
60
0
100
AcDbLine
10
44.923546
20
3.55044
30
0
11
52.464934
21
3.55044
31
0
39
0
210
0
220
0
230
1
0
LINE
5
78
100
AcDbEntity
8
1
62
256
6
ByLayer
370
-1
48
1
60
0
100
AcDbLine
10
62.80266
20
-5.750934
30
0
11
61.937837
21
-5.557089
31
0
39
0
210
0
220
0
230
1
0
LINE
5
79
100
AcDbEntity
8
1
62
256
6
ByLayer
370
-1
48
1
60
0
100
AcDbLine
10
76.528189
20
-7.297725
30
0
11
76.528189
21
-7.532626
31
0
39
0
210
0
220
0
230
1
0
LINE
5
7A
100
AcDbEntity
8
1
62
256
6
ByLayer
370
-1
48
1
60
0
100
AcDbLine
10
56.73333
20
-3.55044
30
0
11
44.923546
21
-3.55044
31
0
39
0
210
0
220
0
230
1
0
LINE
5
7B
100
AcDbEntity
8
1
62
256
6
ByLayer
370
-1
48
1
60
0
100
AcDbLine
10
67.033093
20
10.340043
30
0
11
67.033093
21
8.976671
31
0
39
0
210
0
220
0
230
1
0
LINE
5
7C
100
AcDbEntity
8
1
62
256
6
ByLayer
370
-1
48
1
60
0
100
AcDbLine
10
62.797068
20
4.644473
30
0
11
62.803656
21
4.437788
31
0
39
0
210
0
220
0
230
1
0
LINE
5
7D
100
AcDbEntity
8
1
62
256
6
ByLayer
370
-1
48
1
60
0
100
AcDbLine
10
44.161425
20
4.338787
30
0
11
44.161425
21
8.50875
31
0
39
0
210
0
220
0
230
1
0
LINE
5
7E
100
AcDbEntity
8
1
62
256
6
ByLayer
370
-1
48
1
60
0
100
AcDbLine
10
58.570357
20
-3.5776
30
0
11
56.859426
21
-3.5776
31
0
39
0
210
0
220
0
230
1
0
LINE
5
7F
100
AcDbEntity
8
1
62
256
6
ByLayer
370
-1
48
1
60
0
100
AcDbLine
10
0
20
8.50875
30
0
11
0
21
4.338787
31
0
39
0
210
0
220
0
230
1
0
LINE
5
80
100
AcDbEntity
8
1
62
256
6
ByLayer
370
-1
48
1
60
0
100
AcDbLine
10
56.73333
20
9.675
30
0
11
56.73333
21
9.60159
31
0
39
0
210
0
220
0
230
1
0
LINE
5
81
100
AcDbEntity
8
1
62
256
6
ByLayer
370
-1
48
1
60
0
100
AcDbLine
10
56.73333
20
-3.55044
30
0
11
56.73333
21
-9.675
31
0
39
0
210
0
220
0
230
1
0
LINE
5
82
100
AcDbEntity
8
1
62
256
6
ByLayer
370
-1
48
1
60
0
100
AcDbLine
10
62.087586
20
1.322649
30
0
11
61.606718
21
2.066014
31
0
39
0
210
0
220
0
230
1
0
LINE
5
83
100
AcDbEntity
8
1
62
256
6
ByLayer
370
-1
48
1
60
0
100
AcDbLine
10
56.986802
20
3.979185
30
0
11
53.778761
21
9.346342
31
0
39
0
210
0
220
0
230
1
0
LINE
5
84
100
AcDbEntity
8
1
62
256
6
ByLayer
370
-1
48
1
60
0
100
AcDbLine
10
76.528189
20
-7.532626
30
0
11
76.629011
21
-7.558293
31
0
39
0
210
0
220
0
230
1
0
LINE
5
85
100
AcDbEntity
8
1
62
256
6
ByLayer
370
-1
48
1
60
0
100
AcDbLine
10
75.966209
20
-6.061517
30
0
11
76.745428
21
-6.504615
31
0
39
0
210
0
220
0
230
1
0
LINE
5
86
100
AcDbEntity
8
1
62
256
6
ByLayer
370
-1
48
1
60
0
100
AcDbLine
10
0
20
8.50875
30
0
11
44.161425
21
8.50875
31
0
39
0
210
0
220
0
230
1
0
LINE
5
87
100
AcDbEntity
8
1
62
256
6
ByLayer
370
-1
48
1
60
0
100
AcDbLine
10
76.520764
20
-7.299696
30
0
11
76.528189
21
-7.532626
31
0
39
0
210
0
220
0
230
1
0
LINE
5
88
100
AcDbEntity
8
1
62
256
6
ByLayer
370
-1
48
1
60
0
100
AcDbLine
10
52.875437
20
9.675
30
0
11
51.709187
21
8.50875
31
0
39
0
210
0
220
0
230
1
0
LINE
5
89
100
AcDbEntity
8
1
62
256
6
ByLayer
370
-1
48
1
60
0
100
AcDbLine
10
76.745428
20
-4.987985
30
0
11
71.431273
21
-2.035647
31
0
39
0
210
0
220
0
230
1
0
LINE
5
8A
100
AcDbEntity
8
1
62
256
6
ByLayer
370
-1
48
1
60
0
100
AcDbLine
10
67.09675
20
0.372446
30
0
11
66.117119
21
0.916691
31
0
39
0
210
0
220
0
230
1
0
LINE
5
8B
100
AcDbEntity
8
1
62
256
6
ByLayer
370
-1
48
1
60
0
100
AcDbLine
10
0
20
-9.99125
30
0
11
0
21
-4.338787
31
0
39
0
210
0
220
0
230
1
0
LINE
5
8C
100
AcDbEntity
8
1
62
256
6
ByLayer
370
-1
48
1
60
0
100
AcDbLine
10
62.454182
20
6.44285
30
0
11
62.788935
21
5.543708
31
0
39
0
210
0
220
0
230
1
0
LINE
5
8D
100
AcDbEntity
8
1
62
256
6
ByLayer
370
-1
48
1
60
0
100
AcDbLine
10
67.257077
20
10.376744
30
0
11
57.704228
21
10.376744
31
0
39
0
210
0
220
0
230
1
0
LINE
5
8E
100
AcDbEntity
8
1
62
256
6
ByLayer
370
-1
48
1
60
0
100
AcDbLine
10
78.828936
20
-7.553596
30
0
11
79.428915
21
-6.972759
31
0
39
0
210
0
220
0
230
1
0
LINE
5
8F
100
AcDbEntity
8
1
62
256
6
ByLayer
370
-1
48
1
60
0
100
AcDbLine
10
63.10143
20
5.371466
30
0
11
67.845731
21
8.027476
31
0
39
0
210
0
220
0
230
1
0
LINE
5
90
100
AcDbEntity
8
1
62
256
6
ByLayer
370
-1
48
1
60
0
100
AcDbLine
10
44.523546
20
3.832889
30
0
11
44.523546
21
8.50875
31
0
39
0
210
0
220
0
230
1
0
LINE
5
91
100
AcDbEntity
8
1
62
256
6
ByLayer
370
-1
48
1
60
0
100
AcDbLine
10
62.75294
20
4.408222
30
0
11
62.745508
21
4.641372
31
0
39
0
210
0
220
0
230
1
0
LINE
5
92
100
AcDbEntity
8
1
62
256
6
ByLayer
370
-1
48
1
60
0
100
AcDbLine
10
57.346166
20
9.898734
30
0
11
57.346166
21
9.96077
31
0
39
0
210
0
220
0
230
1
0
LINE
5
93
100
AcDbEntity
8
1
62
256
6
ByLayer
370
-1
48
1
60
0
100
AcDbLine
10
76.71901
20
-7.247533
30
0
11
76.520764
21
-7.299696
31
0
39
0
210
0
220
0
230
1
0
LINE
5
94
100
AcDbEntity
8
1
62
256
6
ByLayer
370
-1
48
1
60
0
100
AcDbLine
10
51.709187
20
8.50875
30
0
11
44.923546
21
8.50875
31
0
39
0
210
0
220
0
230
1
0
LINE
5
95
100
AcDbEntity
8
1
62
256
6
ByLayer
370
-1
48
1
60
0
100
AcDbLine
10
75.966209
20
-5.011948
30
0
11
75.966209
21
-6.061517
31
0
39
0
210
0
220
0
230
1
0
LINE
5
96
100
AcDbEntity
8
1
62
256
6
ByLayer
370
-1
48
1
60
0
100
AcDbLine
10
63.055642
20
4.644791
30
0
11
65.204654
21
5.847876
31
0
39
0
210
0
220
0
230
1
0
LINE
5
97
100
AcDbEntity
8
1
62
256
6
ByLayer
370
-1
48
1
60
0
100
AcDbLine
10
64.1883
20
-6.061517
30
0
11
75.966209
21
-6.061517
31
0
39
0
210
0
220
0
230
1
0
LINE
5
98
100
AcDbEntity
8
1
62
256
6
ByLayer
370
-1
48
1
60
0
100
AcDbLine
10
57.704228
20
10.340043
30
0
11
57.704228
21
10.376744
31
0
39
0
210
0
220
0
230
1
0
LINE
5
99
100
AcDbEntity
8
1
62
256
6
ByLayer
370
-1
48
1
60
0
100
AcDbLine
10
44.923546
20
3.55044
30
0
11
44.923546
21
8.50875
31
0
39
0
210
0
220
0
230
1
0
LINE
5
9A
100
AcDbEntity
8
1
62
256
6
ByLayer
370
-1
48
1
60
0
100
AcDbLine
10
65.141805
20
5.746758
30
0
11
62.803656
21
4.437788
31
0
39
0
210
0
220
0
230
1
0
LINE
5
9B
100
AcDbEntity
8
1
62
256
6
ByLayer
370
-1
48
1
60
0
100
AcDbLine
10
68.256787
20
8.989457
30
0
11
68.256787
21
8.300889
31
0
39
0
210
0
220
0
230
1
0
LINE
5
9C
100
AcDbEntity
8
1
62
256
6
ByLayer
370
-1
48
1
60
0
100
AcDbLine
10
0
20
-4.338787
30
0
11
0
21
4.338787
31
0
39
0
210
0
220
0
230
1
0
LINE
5
9D
100
AcDbEntity
8
1
62
256
6
ByLayer
370
-1
48
1
60
0
100
AcDbLine
10
62.917242
20
4.363498
30
0
11
65.010679
21
5.535471
31
0
39
0
210
0
220
0
230
1
0
LINE
5
9E
100
AcDbEntity
8
1
62
256
6
ByLayer
370
-1
48
1
60
0
100
AcDbLine
10
65.244668
20
0.921007
30
0
11
64.757164
21
0.65868
31
0
39
0
210
0
220
0
230
1
0
LINE
5
9F
100
AcDbEntity
8
1
62
256
6
ByLayer
370
-1
48
1
60
0
100
AcDbLine
10
44.523546
20
-9.78218
30
0
11
44.523546
21
-3.832889
31
0
39
0
210
0
220
0
230
1
0
LINE
5
A0
100
AcDbEntity
8
1
62
256
6
ByLayer
370
-1
48
1
60
0
100
AcDbLine
10
67.033093
20
8.976671
30
0
11
67.845731
21
8.027476
31
0
39
0
210
0
220
0
230
1
0
LINE
5
A1
100
AcDbEntity
8
1
62
256
6
ByLayer
370
-1
48
1
60
0
100
AcDbLine
10
79.428915
20
-6.972759
30
0
11
79.428915
21
-5.047426
31
0
39
0
210
0
220
0
230
1
0
LINE
5
A2
100
AcDbEntity
8
1
62
256
6
ByLayer
370
-1
48
1
60
0
100
AcDbLine
10
79.428915
20
-2.725134
30
0
11
79.428915
21
-1.708545
31
0
39
0
210
0
220
0
230
1
0
LINE
5
A3
100
AcDbEntity
8
1
62
256
6
ByLayer
370
-1
48
1
60
0
100
AcDbLine
10
52.464934
20
3.55044
30
0
11
58.570357
21
-3.5776
31
0
39
0
210
0
220
0
230
1
0
LINE
5
A4
100
AcDbEntity
8
1
62
256
6
ByLayer
370
-1
48
1
60
0
100
AcDbLine
10
69.592182
20
8.992309
30
0
11
68.256787
21
8.989457
31
0
39
0
210
0
220
0
230
1
0
LINE
5
A5
100
AcDbEntity
8
1
62
256
6
ByLayer
370
-1
48
1
60
0
100
AcDbLine
10
75.966209
20
-5.011948
30
0
11
65.244668
21
0.921007
31
0
39
0
210
0
220
0
230
1
0
LINE
5
A6
100
AcDbEntity
8
1
62
256
6
ByLayer
370
-1
48
1
60
0
100
AcDbLine
10
56.859426
20
-9.685
30
0
11
56.859426
21
-3.5776
31
0
39
0
210
0
220
0
230
1
0
LINE
5
A7
100
AcDbEntity
8
1
62
256
6
ByLayer
370
-1
48
1
60
0
100
AcDbLine
10
44.923546
20
-9.675
30
0
11
44.923546
21
-3.55044
31
0
39
0
210
0
220
0
230
1
0
LINE
5
A8
100
AcDbEntity
8
1
62
256
6
ByLayer
370
-1
48
1
60
0
100
AcDbLine
10
67.845731
20
10.042009
30
0
11
67.845731
21
8.027476
31
0
39
0
210
0
220
0
230
1
0
LINE
5
A9
100
AcDbEntity
8
1
62
256
6
ByLayer
370
-1
48
1
60
0
100
AcDbLine
10
76.745428
20
-4.987985
30
0
11
75.966209
21
-5.011948
31
0
39
0
210
0
220
0
230
1
0
LINE
5
AA
100
AcDbEntity
8
1
62
256
6
ByLayer
370
-1
48
1
60
0
100
AcDbLine
10
66.309921
20
1.226285
30
0
11
66.600161
21
0.740704
31
0
39
0
210
0
220
0
230
1
0
LINE
5
AB
100
AcDbEntity
8
1
62
256
6
ByLayer
370
-1
48
1
60
0
100
AcDbLine
10
73.137967
20
2.314467
30
0
11
73.136423
21
2.362883
31
0
39
0
210
0
220
0
230
1
0
LINE
5
AC
100
AcDbEntity
8
1
62
256
6
ByLayer
370
-1
48
1
60
0
100
AcDbLine
10
74.057609
20
2.352358
30
0
11
74.056108
21
2.399435
31
0
39
0
210
0
220
0
230
1
0
LINE
5
AD
100
AcDbEntity
8
1
62
256
6
ByLayer
370
-1
48
1
60
0
100
AcDbLine
10
71.825277
20
3.11329
30
0
11
71.812235
21
3.522427
31
0
39
0
210
0
220
0
230
1
0
LINE
5
AE
100
AcDbEntity
8
1
62
256
6
ByLayer
370
-1
48
1
60
0
100
AcDbLine
10
75.296214
20
3.238966
30
0
11
75.282782
21
3.660359
31
0
39
0
210
0
220
0
230
1
0
LINE
5
AF
100
AcDbEntity
8
1
62
256
6
ByLayer
370
-1
48
1
60
0
100
AcDbLine
10
76.745454
20
-5.0869
30
0
11
79.520331
21
-5.046316
31
0
39
0
210
0
220
0
230
1
0
LINE
5
B0
100
AcDbEntity
8
1
62
256
6
ByLayer
370
-1
48
1
60
0
100
AcDbLine
10
75.156781
20
-3.919568
30
0
11
75.156781
21
-4.105408
31
0
39
0
210
0
220
0
230
1
0
LINE
5
B1
100
AcDbEntity
8
1
62
256
6
ByLayer
370
-1
48
1
60
0
100
AcDbLine
10
67.10194
20
0.63853
30
0
11
67.10194
21
0.369517
31
0
39
0
210
0
220
0
230
1
0
LINE
5
B2
100
AcDbEntity
8
1
62
256
6
ByLayer
370
-1
48
1
60
0
100
AcDbLine
10
75.027996
20
-4.03385
30
0
11
75.027996
21
-3.887243
31
0
39
0
210
0
220
0
230
1
0
LINE
5
B3
100
AcDbEntity
8
1
62
256
6
ByLayer
370
-1
48
1
60
0
100
AcDbLine
10
78.63694
20
-1.188726
30
0
11
78.63694
21
-1.449554
31
0
39
0
210
0
220
0
230
1
0
LINE
5
B4
100
AcDbEntity
8
1
62
256
6
ByLayer
370
-1
48
1
60
0
100
AcDbLine
10
78.949624
20
-1.953238
30
0
11
79.000123
21
-1.868751
31
0
39
0
210
0
220
0
230
1
0
LINE
5
B5
100
AcDbEntity
8
1
62
256
6
ByLayer
370
-1
48
1
60
0
100
AcDbLine
10
67.010433
20
0.420397
30
0
11
67.010433
21
0.726918
31
0
39
0
210
0
220
0
230
1
0
LINE
5
B6
100
AcDbEntity
8
1
62
256
6
ByLayer
370
-1
48
1
60
0
100
AcDbLine
10
66.62026
20
1.379691
30
0
11
66.62026
21
0.637176
31
0
39
0
210
0
220
0
230
1
0
LINE
5
B7
100
AcDbEntity
8
1
62
256
6
ByLayer
370
-1
48
1
60
0
100
AcDbLine
10
66.673105
20
1.90631
30
0
11
66.673105
21
1.640794
31
0
39
0
210
0
220
0
230
1
0
LINE
5
B8
100
AcDbEntity
8
SK1
62
256
6
ByLayer
370
-1
48
1
60
0
100
AcDbLine
10
0
20
-9.99125
30
0
11
0
21
-4.338787
31
0
39
0
210
0
220
0
230
1
0
LINE
5
B9
100
AcDbEntity
8
1
62
256
6
ByLayer
370
-1
48
1
60
0
100
AcDbLine
10
74.061512
20
2.369137
30
0
11
74.061059
21
2.383354
31
0
39
0
210
0
220
0
230
1
0
LINE
5
BA
100
AcDbEntity
8
SK1
62
256
6
ByLayer
370
-1
48
1
60
0
100
AcDbLine
10
0
20
-4.338787
30
0
11
0
21
4.338787
31
0
39
0
210
0
220
0
230
1
0
LINE
5
BB
100
AcDbEntity
8
1
62
256
6
ByLayer
370
-1
48
1
60
0
100
AcDbLine
10
66.071673
20
2.658582
30
0
11
63.789669
21
2.827815
31
0
39
0
210
0
220
0
230
1
0
LINE
5
BC
100
AcDbEntity
8
1
62
256
6
ByLayer
370
-1
48
1
60
0
100
AcDbLine
10
79.896506
20
-0.992617
30
0
11
79.896506
21
0.30354
31
0
39
0
210
0
220
0
230
1
0
LINE
5
BD
100
AcDbEntity
8
1
62
256
6
ByLayer
370
-1
48
1
60
0
100
AcDbLine
10
71.171482
20
8.773754
30
0
11
71.658624
21
8.286492
31
0
39
0
210
0
220
0
230
1
0
LINE
5
BE
100
AcDbEntity
8
1
62
256
6
ByLayer
370
-1
48
1
60
0
100
AcDbLine
10
69.540718
20
6.310944
30
0
11
68.88049
21
6.971333
31
0
39
0
210
0
220
0
230
1
0
LINE
5
BF
100
AcDbEntity
8
1
62
256
6
ByLayer
370
-1
48
1
60
0
100
AcDbLine
10
66.264836
20
3.09379
30
0
11
64.223011
21
3.245211
31
0
39
0
210
0
220
0
230
1
0
LINE
5
C0
100
AcDbEntity
8
1
62
256
6
ByLayer
370
-1
48
1
60
0
100
AcDbLine
10
70.920539
20
0.749146
30
0
11
70.727243
21
0.098013
31
0
39
0
210
0
220
0
230
1
0
LINE
5
C1
100
AcDbEntity
8
1
62
256
6
ByLayer
370
-1
48
1
60
0
100
AcDbLine
10
76.382313
20
10.643936
30
0
11
76.284568
21
10.700369
31
0
39
0
210
0
220
0
230
1
0
LINE
5
C2
100
AcDbEntity
8
1
62
256
6
ByLayer
370
-1
48
1
60
0
100
AcDbLine
10
77.549184
20
13.02792
30
0
11
78.989753
21
10.532781
31
0
39
0
210
0
220
0
230
1
0
LINE
5
C3
100
AcDbEntity
8
1
62
256
6
ByLayer
370
-1
48
1
60
0
100
AcDbLine
10
79.080863
20
-3.292814
30
0
11
79.459445
21
-3.450424
31
0
39
0
210
0
220
0
230
1
0
LINE
5
C4
100
AcDbEntity
8
1
62
256
6
ByLayer
370
-1
48
1
60
0
100
AcDbLine
10
76.382313
20
10.643936
30
0
11
77.43
21
12.458583
31
0
39
0
210
0
220
0
230
1
0
LINE
5
C5
100
AcDbEntity
8
1
62
256
6
ByLayer
370
-1
48
1
60
0
100
AcDbLine
10
63.833241
20
2.96305
30
0
11
63.850555
21
2.990751
31
0
39
0
210
0
220
0
230
1
0
LINE
5
C6
100
AcDbEntity
8
1
62
256
6
ByLayer
370
-1
48
1
60
0
100
AcDbLine
10
63.714056
20
3.162449
30
0
11
65.080996
21
5.364364
31
0
39
0
210
0
220
0
230
1
0
LINE
5
C7
100
AcDbEntity
8
1
62
256
6
ByLayer
370
-1
48
1
60
0
100
AcDbLine
10
71.704862
20
8.335678
30
0
11
71.21772
21
8.82294
31
0
39
0
210
0
220
0
230
1
0
LINE
5
C8
100
AcDbEntity
8
1
62
256
6
ByLayer
370
-1
48
1
60
0
100
AcDbLine
10
77.451439
20
13.084353
30
0
11
77.43
21
13.04722
31
0
39
0
210
0
220
0
230
1
0
LINE
5
C9
100
AcDbEntity
8
1
62
256
6
ByLayer
370
-1
48
1
60
0
100
AcDbLine
10
70.892664
20
9.591024
30
0
11
73.419663
21
11.101454
31
0
39
0
210
0
220
0
230
1
0
LINE
5
CA
100
AcDbEntity
8
1
62
256
6
ByLayer
370
-1
48
1
60
0
100
AcDbLine
10
73.81251
20
-0.057912
30
0
11
73.550534
21
-0.940398
31
0
39
0
210
0
220
0
230
1
0
LINE
5
CB
100
AcDbEntity
8
1
62
256
6
ByLayer
370
-1
48
1
60
0
100
AcDbLine
10
77.527745
20
12.990786
30
0
11
77.549184
21
13.02792
31
0
39
0
210
0
220
0
230
1
0
LINE
5
CC
100
AcDbEntity
8
1
62
256
6
ByLayer
370
-1
48
1
60
0
100
AcDbLine
10
79.595944
20
-3.278726
30
0
11
78.229004
21
-1.076812
31
0
39
0
210
0
220
0
230
1
0
LINE
5
CD
100
AcDbEntity
8
1
62
256
6
ByLayer
370
-1
48
1
60
0
100
AcDbLine
10
79.506333
20
-1.64539
30
0
11
79.896506
21
-0.992617
31
0
39
0
210
0
220
0
230
1
0
LINE
5
CE
100
AcDbEntity
8
1
62
256
6
ByLayer
370
-1
48
1
60
0
100
AcDbLine
10
71.796508
20
0.335562
30
0
11
71.213605
21
-1.627997
31
0
39
0
210
0
220
0
230
1
0
LINE
5
CF
100
AcDbEntity
8
1
62
256
6
ByLayer
370
-1
48
1
60
0
100
AcDbLine
10
79.391949
20
-0.4209
30
0
11
79.391949
21
-1.717057
31
0
39
0
210
0
220
0
230
1
0
LINE
5
D0
100
AcDbEntity
8
1
62
256
6
ByLayer
370
-1
48
1
60
0
100
AcDbLine
10
71.152487
20
-1.579041
30
0
11
70.897718
21
-0.419728
31
0
39
0
210
0
220
0
230
1
0
LINE
5
D1
100
AcDbEntity
8
1
62
256
6
ByLayer
370
-1
48
1
60
0
100
AcDbLine
10
65.12553
20
4.913286
30
0
11
64.131392
21
3.311893
31
0
39
0
210
0
220
0
230
1
0
LINE
5
D2
100
AcDbEntity
8
1
62
256
6
ByLayer
370
-1
48
1
60
0
100
AcDbLine
10
72.338635
20
-2.255401
30
0
11
73.008164
21
-3.6E-05
31
0
39
0
210
0
220
0
230
1
0
LINE
5
D3
100
AcDbEntity
8
1
62
256
6
ByLayer
370
-1
48
1
60
0
100
AcDbLine
10
70.764989
20
8.972054
30
0
11
69.817566
21
9.141619
31
0
39
0
210
0
220
0
230
1
0
LINE
5
D4
100
AcDbEntity
8
1
62
256
6
ByLayer
370
-1
48
1
60
0
100
AcDbLine
10
79.784032
20
9.461615
30
0
11
79.894589
21
9.282952
31
0
39
0
210
0
220
0
230
1
0
LINE
5
D5
100
AcDbEntity
8
1
62
256
6
ByLayer
370
-1
48
1
60
0
100
AcDbLine
10
77.43
20
10.039054
30
0
11
77.192513
21
9.627714
31
0
39
0
210
0
220
0
230
1
0
LINE
5
D6
100
AcDbEntity
8
1
62
256
6
ByLayer
370
-1
48
1
60
0
100
AcDbLine
10
79.93
20
3.603793
30
0
11
79.93
21
3.463267
31
0
39
0
210
0
220
0
230
1
0
LINE
5
D7
100
AcDbEntity
8
1
62
256
6
ByLayer
370
-1
48
1
60
0
100
AcDbLine
10
66.736719
20
4.222535
30
0
11
66.757828
21
2.900312
31
0
39
0
210
0
220
0
230
1
0
LINE
5
D8
100
AcDbEntity
8
1
62
256
6
ByLayer
370
-1
48
1
60
0
100
AcDbLine
10
65.510327
20
6.340337
30
0
11
66.569817
21
4.567774
31
0
39
0
210
0
220
0
230
1
0
LINE
5
D9
100
AcDbEntity
8
1
62
256
6
ByLayer
370
-1
48
1
60
0
100
AcDbLine
10
66.309921
20
2.513928
30
0
11
66.309921
21
1.226285
31
0
39
0
210
0
220
0
230
1
0
LINE
5
DA
100
AcDbEntity
8
1
62
256
6
ByLayer
370
-1
48
1
60
0
100
AcDbLine
10
71.21772
20
8.82294
30
0
11
71.21772
21
8.891027
31
0
39
0
210
0
220
0
230
1
0
LINE
5
DB
100
AcDbEntity
8
1
62
256
6
ByLayer
370
-1
48
1
60
0
100
AcDbLine
10
74.734854
20
11.234788
30
0
11
74.834919
21
11.101454
31
0
39
0
210
0
220
0
230
1
0
LINE
5
DC
100
AcDbEntity
8
1
62
256
6
ByLayer
370
-1
48
1
60
0
100
AcDbLine
10
76.552172
20
-3.540864
30
0
11
76.573281
21
-2.218641
31
0
39
0
210
0
220
0
230
1
0
LINE
5
DD
100
AcDbEntity
8
1
62
256
6
ByLayer
370
-1
48
1
60
0
100
AcDbLine
10
79.222372
20
-0.437938
30
0
11
79.93
21
0.745946
31
0
39
0
210
0
220
0
230
1
0
LINE
5
DE
100
AcDbEntity
8
1
62
256
6
ByLayer
370
-1
48
1
60
0
100
AcDbLine
10
68.471365
20
8.368357
30
0
11
70.158705
21
6.680603
31
0
39
0
210
0
220
0
230
1
0
LINE
5
DF
100
AcDbEntity
8
1
62
256
6
ByLayer
370
-1
48
1
60
0
100
AcDbLine
10
79.706682
20
9.591024
30
0
11
77.587701
21
9.591024
31
0
39
0
210
0
220
0
230
1
0
LINE
5
E0
100
AcDbEntity
8
1
62
256
6
ByLayer
370
-1
48
1
60
0
100
AcDbLine
10
78.114599
20
3.886313
30
0
11
78.795037
21
4.050184
31
0
39
0
210
0
220
0
230
1
0
LINE
5
E1
100
AcDbEntity
8
1
62
256
6
ByLayer
370
-1
48
1
60
0
100
AcDbLine
10
79.213641
20
-0.439309
30
0
11
79.213641
21
-1.734973
31
0
39
0
210
0
220
0
230
1
0
LINE
5
E2
100
AcDbEntity
8
1
62
256
6
ByLayer
370
-1
48
1
60
0
100
AcDbLine
10
77.43
20
10.039054
30
0
11
76.382313
21
10.643936
31
0
39
0
210
0
220
0
230
1
0
LINE
5
E3
100
AcDbEntity
8
1
62
256
6
ByLayer
370
-1
48
1
60
0
100
AcDbLine
10
79.520331
20
-3.613361
30
0
11
79.520331
21
-5.046316
31
0
39
0
210
0
220
0
230
1
0
LINE
5
E4
100
AcDbEntity
8
1
62
256
6
ByLayer
370
-1
48
1
60
0
100
AcDbLine
10
70.789032
20
0.074844
30
0
11
70.982328
21
0.725977
31
0
39
0
210
0
220
0
230
1
0
LINE
5
E5
100
AcDbEntity
8
1
62
256
6
ByLayer
370
-1
48
1
60
0
100
AcDbLine
10
66.673105
20
1.90631
30
0
11
66.309921
21
2.513928
31
0
39
0
210
0
220
0
230
1
0
LINE
5
E6
100
AcDbEntity
8
1
62
256
6
ByLayer
370
-1
48
1
60
0
100
AcDbLine
10
77.045164
20
-3.347386
30
0
11
77.063013
21
-2.229317
31
0
39
0
210
0
220
0
230
1
0
LINE
5
E7
100
AcDbEntity
8
1
62
256
6
ByLayer
370
-1
48
1
60
0
100
AcDbLine
10
79.595944
20
-3.278726
30
0
11
79.557191
21
-3.286893
31
0
39
0
210
0
220
0
230
1
0
LINE
5
E8
100
AcDbEntity
8
1
62
256
6
ByLayer
370
-1
48
1
60
0
100
AcDbLine
10
69.917336
20
-1.032733
30
0
11
67.390337
21
0.477697
31
0
39
0
210
0
220
0
230
1
0
LINE
5
E9
100
AcDbEntity
8
1
62
256
6
ByLayer
370
-1
48
1
60
0
100
AcDbLine
10
64.223011
20
3.245211
30
0
11
65.217149
21
4.846604
31
0
39
0
210
0
220
0
230
1
0
LINE
5
EA
100
AcDbEntity
8
1
62
256
6
ByLayer
370
-1
48
1
60
0
100
AcDbLine
10
78.634848
20
-1.446168
30
0
11
79.745926
21
-3.235933
31
0
39
0
210
0
220
0
230
1
0
LINE
5
EB
100
AcDbEntity
8
1
62
256
6
ByLayer
370
-1
48
1
60
0
100
AcDbLine
10
78.477687
20
10.643936
30
0
11
77.43
21
10.039054
31
0
39
0
210
0
220
0
230
1
0
LINE
5
EC
100
AcDbEntity
8
1
62
256
6
ByLayer
370
-1
48
1
60
0
100
AcDbLine
10
74.834919
20
11.101454
30
0
11
74.840071
21
11.094096
31
0
39
0
210
0
220
0
230
1
0
LINE
5
ED
100
AcDbEntity
8
1
62
256
6
ByLayer
370
-1
48
1
60
0
100
AcDbLine
10
66.246987
20
4.211859
30
0
11
66.264836
21
3.09379
31
0
39
0
210
0
220
0
230
1
0
LINE
5
EE
100
AcDbEntity
8
1
62
256
6
ByLayer
370
-1
48
1
60
0
100
AcDbLine
10
77.451439
20
13.084353
30
0
11
77.408561
21
13.084353
31
0
39
0
210
0
220
0
230
1
0
LINE
5
EF
100
AcDbEntity
8
1
62
256
6
ByLayer
370
-1
48
1
60
0
100
AcDbLine
10
63.565418
20
3.039744
30
0
11
63.565418
21
1.600711
31
0
39
0
210
0
220
0
230
1
0
LINE
5
F0
100
AcDbEntity
8
1
62
256
6
ByLayer
370
-1
48
1
60
0
100
AcDbLine
10
66.682709
20
1.661582
30
0
11
67.390337
21
0.477697
31
0
39
0
210
0
220
0
230
1
0
LINE
5
F1
100
AcDbEntity
8
1
62
256
6
ByLayer
370
-1
48
1
60
0
100
AcDbLine
10
75.522991
20
-3.909802
30
0
11
76.582482
21
-2.13724
31
0
39
0
210
0
220
0
230
1
0
LINE
5
F2
100
AcDbEntity
8
1
62
256
6
ByLayer
370
-1
48
1
60
0
100
AcDbLine
10
75.066772
20
10.974353
30
0
11
75.793139
21
10.974353
31
0
39
0
210
0
220
0
230
1
0
LINE
5
F3
100
AcDbEntity
8
1
62
256
6
ByLayer
370
-1
48
1
60
0
100
AcDbLine
10
79.178608
20
-3.129282
30
0
11
78.18447
21
-1.527889
31
0
39
0
210
0
220
0
230
1
0
LINE
5
F4
100
AcDbEntity
8
1
62
256
6
ByLayer
370
-1
48
1
60
0
100
AcDbLine
10
78.575432
20
10.700369
30
0
11
77.527745
21
12.515016
31
0
39
0
210
0
220
0
230
1
0
LINE
5
F5
100
AcDbEntity
8
1
62
256
6
ByLayer
370
-1
48
1
60
0
100
AcDbLine
10
78.575432
20
10.700369
30
0
11
78.477687
21
10.643936
31
0
39
0
210
0
220
0
230
1
0
LINE
5
F6
100
AcDbEntity
8
1
62
256
6
ByLayer
370
-1
48
1
60
0
100
AcDbLine
10
79.476759
20
-3.478126
30
0
11
76.669251
21
-3.686329
31
0
39
0
210
0
220
0
230
1
0
LINE
5
F7
100
AcDbEntity
8
1
62
256
6
ByLayer
370
-1
48
1
60
0
100
AcDbLine
10
73.419663
20
11.101454
30
0
11
73.70806
21
11.262287
31
0
39
0
210
0
220
0
230
1
0
LINE
5
F8
100
AcDbEntity
8
1
62
256
6
ByLayer
370
-1
48
1
60
0
100
AcDbLine
10
69.817566
20
9.141619
30
0
11
70.405
21
9.343855
31
0
39
0
210
0
220
0
230
1
0
LINE
5
F9
100
AcDbEntity
8
1
62
256
6
ByLayer
370
-1
48
1
60
0
100
AcDbLine
10
79.744582
20
-3.401431
30
0
11
79.673491
21
-3.520369
31
0
39
0
210
0
220
0
230
1
0
LINE
5
FA
100
AcDbEntity
8
1
62
256
6
ByLayer
370
-1
48
1
60
0
100
AcDbLine
10
67.390337
20
0.477697
30
0
11
67.10194
21
0.63853
31
0
39
0
210
0
220
0
230
1
0
LINE
5
FB
100
AcDbEntity
8
1
62
256
6
ByLayer
370
-1
48
1
60
0
100
AcDbLine
10
77.963918
20
0.419539
30
0
11
75.372244
21
-3.916417
31
0
39
0
210
0
220
0
230
1
0
LINE
5
FC
100
AcDbEntity
8
1
62
256
6
ByLayer
370
-1
48
1
60
0
100
AcDbLine
10
77.272299
20
9.591024
30
0
11
70.892664
21
9.591024
31
0
39
0
210
0
220
0
230
1
0
LINE
5
FD
100
AcDbEntity
8
1
62
256
6
ByLayer
370
-1
48
1
60
0
100
AcDbLine
10
65.217149
20
4.846604
30
0
11
66.246987
21
4.211859
31
0
39
0
210
0
220
0
230
1
0
LINE
5
FE
100
AcDbEntity
8
1
62
256
6
ByLayer
370
-1
48
1
60
0
100
AcDbLine
10
79.557191
20
-3.286893
30
0
11
79.178608
21
-3.129282
31
0
39
0
210
0
220
0
230
1
0
LINE
5
FF
100
AcDbEntity
8
1
62
256
6
ByLayer
370
-1
48
1
60
0
100
AcDbLine
10
70.992434
20
-1.482138
30
0
11
70.405
21
-1.279902
31
0
39
0
210
0
220
0
230
1
0
LINE
5
100
100
AcDbEntity
8
1
62
256
6
ByLayer
370
-1
48
1
60
0
100
AcDbLine
10
75.372244
20
-3.916417
30
0
11
75.156781
21
-3.919568
31
0
39
0
210
0
220
0
230
1
0
LINE
5
101
100
AcDbEntity
8
1
62
256
6
ByLayer
370
-1
48
1
60
0
100
AcDbLine
10
63.636509
20
2.920807
30
0
11
63.565418
21
3.039744
31
0
39
0
210
0
220
0
230
1
0
LINE
5
102
100
AcDbEntity
8
1
62
256
6
ByLayer
370
-1
48
1
60
0
100
AcDbLine
10
68.175398
20
2.127176
30
0
11
65.583724
21
6.463132
31
0
39
0
210
0
220
0
230
1
0
LINE
5
103
100
AcDbEntity
8
1
62
256
6
ByLayer
370
-1
48
1
60
0
100
AcDbLine
10
75.027996
20
-3.887243
30
0
11
73.511826
21
-3.041709
31
0
39
0
210
0
220
0
230
1
0
LINE
5
104
100
AcDbEntity
8
1
62
256
6
ByLayer
370
-1
48
1
60
0
100
AcDbLine
10
66.613197
20
1.511209
30
0
11
66.682709
21
1.661582
31
0
39
0
210
0
220
0
230
1
0
LINE
5
105
100
AcDbEntity
8
1
62
256
6
ByLayer
370
-1
48
1
60
0
100
AcDbLine
10
77.332255
20
12.990786
30
0
11
77.332255
21
12.515016
31
0
39
0
210
0
220
0
230
1
0
LINE
5
106
100
AcDbEntity
8
1
62
256
6
ByLayer
370
-1
48
1
60
0
100
AcDbLine
10
72.166521
20
-2.177582
30
0
11
71.385718
21
-1.742146
31
0
39
0
210
0
220
0
230
1
0
LINE
5
107
100
AcDbEntity
8
1
62
256
6
ByLayer
370
-1
48
1
60
0
100
AcDbLine
10
74.600684
20
9.461615
30
0
11
79.784032
21
9.461615
31
0
39
0
210
0
220
0
230
1
0
LINE
5
108
100
AcDbEntity
8
1
62
256
6
ByLayer
370
-1
48
1
60
0
100
AcDbLine
10
77.438237
20
5.481282
30
0
11
79.93
21
6.081379
31
0
39
0
210
0
220
0
230
1
0
LINE
5
109
100
AcDbEntity
8
1
62
256
6
ByLayer
370
-1
48
1
60
0
100
AcDbLine
10
66.071673
20
2.658582
30
0
11
66.071673
21
1.361484
31
0
39
0
210
0
220
0
230
1
0
LINE
5
10A
100
AcDbEntity
8
1
62
256
6
ByLayer
370
-1
48
1
60
0
100
AcDbLine
10
79.93
20
6.623744
30
0
11
79.93
21
6.291512
31
0
39
0
210
0
220
0
230
1
0
LINE
5
10B
100
AcDbEntity
8
1
62
256
6
ByLayer
370
-1
48
1
60
0
100
AcDbLine
10
65.583724
20
6.463132
30
0
11
65.68863
21
6.644946
31
0
39
0
210
0
220
0
230
1
0
LINE
5
10C
100
AcDbEntity
8
1
62
256
6
ByLayer
370
-1
48
1
60
0
100
AcDbLine
10
74.834919
20
11.101454
30
0
11
73.419663
21
11.101454
31
0
39
0
210
0
220
0
230
1
0
LINE
5
10D
100
AcDbEntity
8
1
62
256
6
ByLayer
370
-1
48
1
60
0
100
AcDbLine
10
79.086989
20
-3.195965
30
0
11
77.045164
21
-3.347386
31
0
39
0
210
0
220
0
230
1
0
LINE
5
10E
100
AcDbEntity
8
1
62
256
6
ByLayer
370
-1
48
1
60
0
100
AcDbLine
10
69.596395
20
8.99576
30
0
11
69.657513
21
9.044716
31
0
39
0
210
0
220
0
230
1
0
LINE
5
10F
100
AcDbEntity
8
1
62
256
6
ByLayer
370
-1
48
1
60
0
100
AcDbLine
10
79.000123
20
-0.581108
30
0
11
78.63694
21
-1.188726
31
0
39
0
210
0
220
0
230
1
0
LINE
5
110
100
AcDbEntity
8
1
62
256
6
ByLayer
370
-1
48
1
60
0
100
AcDbLine
10
79.000123
20
-0.581108
30
0
11
79.000123
21
-1.868751
31
0
39
0
210
0
220
0
230
1
0
LINE
5
111
100
AcDbEntity
8
1
62
256
6
ByLayer
370
-1
48
1
60
0
100
AcDbLine
10
77.039038
20
-3.444235
30
0
11
79.080863
21
-3.292814
31
0
39
0
210
0
220
0
230
1
0
LINE
5
112
100
AcDbEntity
8
1
62
256
6
ByLayer
370
-1
48
1
60
0
100
AcDbLine
10
66.727518
20
4.303935
30
0
11
69.917336
21
-1.032733
31
0
39
0
210
0
220
0
230
1
0
LINE
5
113
100
AcDbEntity
8
1
62
256
6
ByLayer
370
-1
48
1
60
0
100
AcDbLine
10
79.572839
20
-3.418906
30
0
11
79.555526
21
-3.391205
31
0
39
0
210
0
220
0
230
1
0
LINE
5
114
100
AcDbEntity
8
1
62
256
6
ByLayer
370
-1
48
1
60
0
100
AcDbLine
10
73.612323
20
-0.951457
30
0
11
73.874298
21
-0.068971
31
0
39
0
210
0
220
0
230
1
0
LINE
5
115
100
AcDbEntity
8
1
62
256
6
ByLayer
370
-1
48
1
60
0
100
AcDbLine
10
79.222372
20
-0.437938
30
0
11
79.213641
21
-0.439309
31
0
39
0
210
0
220
0
230
1
0
LINE
5
116
100
AcDbEntity
8
1
62
256
6
ByLayer
370
-1
48
1
60
0
100
AcDbLine
10
64.131392
20
3.311893
30
0
11
63.752809
21
3.154282
31
0
39
0
210
0
220
0
230
1
0
LINE
5
117
100
AcDbEntity
8
1
62
256
6
ByLayer
370
-1
48
1
60
0
100
AcDbLine
10
79.555526
20
-3.391205
30
0
11
79.594278
21
-3.383038
31
0
39
0
210
0
220
0
230
1
0
LINE
5
118
100
AcDbEntity
8
1
62
256
6
ByLayer
370
-1
48
1
60
0
100
AcDbLine
10
77.87807
20
4.542533
30
0
11
79.93
21
5.036704
31
0
39
0
210
0
220
0
230
1
0
LINE
5
119
100
AcDbEntity
8
1
62
256
6
ByLayer
370
-1
48
1
60
0
100
AcDbLine
10
66.682709
20
1.661582
30
0
11
66.686288
21
1.668831
31
0
39
0
210
0
220
0
230
1
0
LINE
5
11A
100
AcDbEntity
8
1
62
256
6
ByLayer
370
-1
48
1
60
0
100
AcDbLine
10
76.033479
20
11.115508
30
0
11
77.204405
21
13.143611
31
0
39
0
210
0
220
0
230
1
0
LINE
5
11B
100
AcDbEntity
8
1
62
256
6
ByLayer
370
-1
48
1
60
0
100
AcDbLine
10
76.810768
20
-1.821317
30
0
11
78.028648
21
-1.070671
31
0
39
0
210
0
220
0
230
1
0
LINE
5
11C
100
AcDbEntity
8
1
62
256
6
ByLayer
370
-1
48
1
60
0
100
AcDbLine
10
79.93
20
0.745946
30
0
11
79.93
21
0.424281
31
0
39
0
210
0
220
0
230
1
0
LINE
5
11D
100
AcDbEntity
8
1
62
256
6
ByLayer
370
-1
48
1
60
0
100
AcDbLine
10
79.673491
20
-3.520369
30
0
11
79.673491
21
-4.959403
31
0
39
0
210
0
220
0
230
1
0
LINE
5
11E
100
AcDbEntity
8
1
62
256
6
ByLayer
370
-1
48
1
60
0
100
AcDbLine
10
72.87437
20
0.206866
30
0
11
72.166521
21
-2.177582
31
0
39
0
210
0
220
0
230
1
0
LINE
5
11F
100
AcDbEntity
8
1
62
256
6
ByLayer
370
-1
48
1
60
0
100
AcDbLine
10
77.386773
20
6.699939
30
0
11
78.308976
21
6.922036
31
0
39
0
210
0
220
0
230
1
0
LINE
5
120
100
AcDbEntity
8
1
62
256
6
ByLayer
370
-1
48
1
60
0
100
AcDbLine
10
78.092851
20
-1.594572
30
0
11
79.086989
21
-3.195965
31
0
39
0
210
0
220
0
230
1
0
LINE
5
121
100
AcDbEntity
8
1
62
256
6
ByLayer
370
-1
48
1
60
0
100
AcDbLine
10
76.740183
20
-1.873401
30
0
11
79.93
21
3.463267
31
0
39
0
210
0
220
0
230
1
0
LINE
5
122
100
AcDbEntity
8
1
62
256
6
ByLayer
370
-1
48
1
60
0
100
AcDbLine
10
71.065422
20
7.526373
30
0
11
69.596395
21
8.99576
31
0
39
0
210
0
220
0
230
1
0
LINE
5
123
100
AcDbEntity
8
1
62
256
6
ByLayer
370
-1
48
1
60
0
100
AcDbLine
10
63.636509
20
2.920807
30
0
11
63.636509
21
1.481773
31
0
39
0
210
0
220
0
230
1
0
LINE
5
124
100
AcDbEntity
8
1
62
256
6
ByLayer
370
-1
48
1
60
0
100
AcDbLine
10
77.43
20
12.458583
30
0
11
78.477687
21
10.643936
31
0
39
0
210
0
220
0
230
1
0
LINE
5
125
100
AcDbEntity
8
1
62
256
6
ByLayer
370
-1
48
1
60
0
100
AcDbLine
10
79.506333
20
-0.349233
30
0
11
79.506333
21
-1.64539
31
0
39
0
210
0
220
0
230
1
0
LINE
5
126
100
AcDbEntity
8
1
62
256
6
ByLayer
370
-1
48
1
60
0
100
AcDbLine
10
73.83306
20
11.294639
30
0
11
74.613407
21
11.294639
31
0
39
0
210
0
220
0
230
1
0
LINE
5
127
100
AcDbEntity
8
1
62
256
6
ByLayer
370
-1
48
1
60
0
100
AcDbLine
10
77.527745
20
12.515016
30
0
11
77.527745
21
12.990786
31
0
39
0
210
0
220
0
230
1
0
LINE
5
128
100
AcDbEntity
8
1
62
256
6
ByLayer
370
-1
48
1
60
0
100
AcDbLine
10
63.850555
20
2.990751
30
0
11
64.229137
21
3.148362
31
0
39
0
210
0
220
0
230
1
0
LINE
5
129
100
AcDbEntity
8
1
62
256
6
ByLayer
370
-1
48
1
60
0
100
AcDbLine
10
68.22684
20
8.291489
30
0
11
68.471365
21
8.368357
31
0
39
0
210
0
220
0
230
1
0
LINE
5
12A
100
AcDbEntity
8
1
62
256
6
ByLayer
370
-1
48
1
60
0
100
AcDbLine
10
63.715722
20
3.058138
30
0
11
63.754474
21
3.049971
31
0
39
0
210
0
220
0
230
1
0
LINE
5
12B
100
AcDbEntity
8
1
62
256
6
ByLayer
370
-1
48
1
60
0
100
AcDbLine
10
63.565418
20
1.600711
30
0
11
63.636509
21
1.481773
31
0
39
0
210
0
220
0
230
1
0
LINE
5
12C
100
AcDbEntity
8
1
62
256
6
ByLayer
370
-1
48
1
60
0
100
AcDbLine
10
69.424282
20
8.881611
30
0
11
71.05668
21
7.248812
31
0
39
0
210
0
220
0
230
1
0
LINE
5
12D
100
AcDbEntity
8
1
62
256
6
ByLayer
370
-1
48
1
60
0
100
AcDbLine
10
69.657513
20
9.044716
30
0
11
70.71875
21
8.854781
31
0
39
0
210
0
220
0
230
1
0
LINE
5
12E
100
AcDbEntity
8
1
62
256
6
ByLayer
370
-1
48
1
60
0
100
AcDbLine
10
71.385718
20
-1.742146
30
0
11
72.033447
21
0.439781
31
0
39
0
210
0
220
0
230
1
0
LINE
5
12F
100
AcDbEntity
8
1
62
256
6
ByLayer
370
-1
48
1
60
0
100
AcDbLine
10
68.834252
20
6.934258
30
0
11
69.494479
21
6.273868
31
0
39
0
210
0
220
0
230
1
0
LINE
5
130
100
AcDbEntity
8
1
62
256
6
ByLayer
370
-1
48
1
60
0
100
AcDbLine
10
63.752809
20
3.154282
30
0
11
63.714056
21
3.162449
31
0
39
0
210
0
220
0
230
1
0
LINE
5
131
100
AcDbEntity
8
1
62
256
6
ByLayer
370
-1
48
1
60
0
100
AcDbLine
10
79.93
20
6.291512
30
0
11
77.573131
21
5.723902
31
0
39
0
210
0
220
0
230
1
0
LINE
5
132
100
AcDbEntity
8
1
62
256
6
ByLayer
370
-1
48
1
60
0
100
AcDbLine
10
79.93
20
6.081379
30
0
11
79.93
21
5.210506
31
0
39
0
210
0
220
0
230
1
0
LINE
5
133
100
AcDbEntity
8
1
62
256
6
ByLayer
370
-1
48
1
60
0
100
AcDbLine
10
79.93
20
3.463267
30
0
11
79.93
21
0.745946
31
0
39
0
210
0
220
0
230
1
0
LINE
5
134
100
AcDbEntity
8
1
62
256
6
ByLayer
370
-1
48
1
60
0
100
AcDbLine
10
79.93
20
0.424281
30
0
11
79.93
21
-0.871876
31
0
39
0
210
0
220
0
230
1
0
LINE
5
135
100
AcDbEntity
8
1
62
256
6
ByLayer
370
-1
48
1
60
0
100
AcDbLine
10
79.673491
20
-4.959403
30
0
11
79.744582
21
-4.840465
31
0
39
0
210
0
220
0
230
1
0
LINE
5
136
100
AcDbEntity
8
1
62
256
6
ByLayer
370
-1
48
1
60
0
100
AcDbLine
10
63.789669
20
2.827815
30
0
11
63.789669
21
1.39486
31
0
39
0
210
0
220
0
230
1
0
LINE
5
137
100
AcDbEntity
8
1
62
256
6
ByLayer
370
-1
48
1
60
0
100
AcDbLine
10
72.58316
20
-2.332268
30
0
11
72.338635
21
-2.255401
31
0
39
0
210
0
220
0
230
1
0
LINE
5
138
100
AcDbEntity
8
1
62
256
6
ByLayer
370
-1
48
1
60
0
100
AcDbLine
10
79.93
20
4.812537
30
0
11
79.93
21
4.031976
31
0
39
0
210
0
220
0
230
1
0
LINE
5
139
100
AcDbEntity
8
1
62
256
6
ByLayer
370
-1
48
1
60
0
100
AcDbLine
10
77.063013
20
-2.229317
30
0
11
78.092851
21
-1.594572
31
0
39
0
210
0
220
0
230
1
0
LINE
5
13A
100
AcDbEntity
8
1
62
256
6
ByLayer
370
-1
48
1
60
0
100
AcDbLine
10
77.310816
20
13.02792
30
0
11
75.870247
21
10.532781
31
0
39
0
210
0
220
0
230
1
0
LINE
5
13B
100
AcDbEntity
8
1
62
256
6
ByLayer
370
-1
48
1
60
0
100
AcDbLine
10
77.43
20
12.458583
30
0
11
77.527745
21
12.515016
31
0
39
0
210
0
220
0
230
1
0
LINE
5
13C
100
AcDbEntity
8
1
62
256
6
ByLayer
370
-1
48
1
60
0
100
AcDbLine
10
64.229137
20
3.148362
30
0
11
66.270962
21
2.996941
31
0
39
0
210
0
220
0
230
1
0
LINE
5
13D
100
AcDbEntity
8
1
62
256
6
ByLayer
370
-1
48
1
60
0
100
AcDbLine
10
79.572839
20
-3.418906
30
0
11
79.594278
21
-3.383038
31
0
39
0
210
0
220
0
230
1
0
LINE
5
13E
100
AcDbEntity
8
1
62
256
6
ByLayer
370
-1
48
1
60
0
100
AcDbLine
10
79.896506
20
0.30354
30
0
11
79.506333
21
-0.349233
31
0
39
0
210
0
220
0
230
1
0
LINE
5
13F
100
AcDbEntity
8
1
62
256
6
ByLayer
370
-1
48
1
60
0
100
AcDbLine
10
79.210022
20
4.262449
30
0
11
79.93
21
4.812537
31
0
39
0
210
0
220
0
230
1
0
LINE
5
140
100
AcDbEntity
8
1
62
256
6
ByLayer
370
-1
48
1
60
0
100
AcDbLine
10
79.213641
20
-1.734973
30
0
11
79.391949
21
-1.717057
31
0
39
0
210
0
220
0
230
1
0
LINE
5
141
100
AcDbEntity
8
1
62
256
6
ByLayer
370
-1
48
1
60
0
100
AcDbLine
10
79.93
20
5.036704
30
0
11
79.93
21
4.983407
31
0
39
0
210
0
220
0
230
1
0
LINE
5
142
100
AcDbEntity
8
1
62
256
6
ByLayer
370
-1
48
1
60
0
100
AcDbLine
10
79.93
20
5.210506
30
0
11
79.93
21
5.036704
31
0
39
0
210
0
220
0
230
1
0
LINE
5
143
100
AcDbEntity
8
1
62
256
6
ByLayer
370
-1
48
1
60
0
100
AcDbLine
10
78.293426
20
6.988335
30
0
11
77.371223
21
6.766239
31
0
39
0
210
0
220
0
230
1
0
LINE
5
144
100
AcDbEntity
8
1
62
256
6
ByLayer
370
-1
48
1
60
0
100
AcDbLine
10
63.833241
20
2.96305
30
0
11
66.640749
21
2.754846
31
0
39
0
210
0
220
0
230
1
0
LINE
5
145
100
AcDbEntity
8
1
62
256
6
ByLayer
370
-1
48
1
60
0
100
AcDbLine
10
78.906476
20
10.343045
30
0
11
77.667487
21
9.627714
31
0
39
0
210
0
220
0
230
1
0
LINE
5
146
100
AcDbEntity
8
1
62
256
6
ByLayer
370
-1
48
1
60
0
100
AcDbLine
10
79.391949
20
-0.4209
30
0
11
79.222372
21
-0.437938
31
0
39
0
210
0
220
0
230
1
0
LINE
5
147
100
AcDbEntity
8
1
62
256
6
ByLayer
370
-1
48
1
60
0
100
AcDbLine
10
68.643479
20
8.446175
30
0
11
69.424282
21
8.881611
31
0
39
0
210
0
220
0
230
1
0
LINE
5
148
100
AcDbEntity
8
1
62
256
6
ByLayer
370
-1
48
1
60
0
100
AcDbLine
10
77.332255
20
12.515016
30
0
11
76.284568
21
10.700369
31
0
39
0
210
0
220
0
230
1
0
LINE
5
149
100
AcDbEntity
8
1
62
256
6
ByLayer
370
-1
48
1
60
0
100
AcDbLine
10
70.427392
20
6.661823
30
0
11
68.643479
21
8.446175
31
0
39
0
210
0
220
0
230
1
0
LINE
5
14A
100
AcDbEntity
8
1
62
256
6
ByLayer
370
-1
48
1
60
0
100
AcDbLine
10
77.310816
20
13.02792
30
0
11
77.332255
21
12.990786
31
0
39
0
210
0
220
0
230
1
0
LINE
5
14B
100
AcDbEntity
8
1
62
256
6
ByLayer
370
-1
48
1
60
0
100
AcDbLine
10
77.332255
20
12.515016
30
0
11
77.43
21
12.458583
31
0
39
0
210
0
220
0
230
1
0
LINE
5
14C
100
AcDbEntity
8
1
62
256
6
ByLayer
370
-1
48
1
60
0
100
AcDbLine
10
79.459445
20
-3.450424
30
0
11
79.476759
21
-3.478126
31
0
39
0
210
0
220
0
230
1
0
LINE
5
14D
100
AcDbEntity
8
1
62
256
6
ByLayer
370
-1
48
1
60
0
100
AcDbLine
10
79.93
20
4.812537
30
0
11
79.93
21
4.983407
31
0
39
0
210
0
220
0
230
1
0
LINE
5
14E
100
AcDbEntity
8
1
62
256
6
ByLayer
370
-1
48
1
60
0
100
AcDbLine
10
67.010433
20
0.726918
30
0
11
66.62026
21
1.379691
31
0
39
0
210
0
220
0
230
1
0
LINE
5
14F
100
AcDbEntity
8
1
62
256
6
ByLayer
370
-1
48
1
60
0
100
AcDbLine
10
78.779486
20
4.104373
30
0
11
78.099048
21
3.940502
31
0
39
0
210
0
220
0
230
1
0
LINE
5
150
100
AcDbEntity
8
1
62
256
6
ByLayer
370
-1
48
1
60
0
100
AcDbLine
10
75.277133
20
3.225259
30
0
11
75.263192
21
3.662614
31
0
39
0
210
0
220
0
230
1
0
LINE
5
151
100
AcDbEntity
8
1
62
256
6
ByLayer
370
-1
48
1
60
0
100
AcDbLine
10
72.238511
20
4.76438
30
0
11
72.22457
21
5.201734
31
0
39
0
210
0
220
0
230
1
0
LINE
5
152
100
AcDbEntity
8
1
62
256
6
ByLayer
370
-1
48
1
60
0
100
AcDbLine
10
72.222806
20
4.777
30
0
11
72.208768
21
5.217406
31
0
39
0
210
0
220
0
230
1
0
LINE
5
153
100
AcDbEntity
8
1
62
256
6
ByLayer
370
-1
48
1
60
0
100
AcDbLine
10
74.765128
20
4.878041
30
0
11
74.75109
21
5.318447
31
0
39
0
210
0
220
0
230
1
0
LINE
5
154
100
AcDbEntity
8
1
62
256
6
ByLayer
370
-1
48
1
60
0
100
AcDbLine
10
71.84547
20
3.088873
30
0
11
71.831529
21
3.526227
31
0
39
0
210
0
220
0
230
1
0
LINE
5
155
100
AcDbEntity
8
1
62
256
6
ByLayer
370
-1
48
1
60
0
100
AcDbLine
10
74.75049
20
4.864215
30
0
11
74.736548
21
5.301569
31
0
39
0
210
0
220
0
230
1
0
LINE
5
156
100
AcDbEntity
8
1
62
256
6
ByLayer
370
-1
48
1
60
0
100
AcDbLine
10
73.016762
20
5.239992
30
0
11
73.00282
21
5.677346
31
0
39
0
210
0
220
0
230
1
0
LINE
5
157
100
AcDbEntity
8
1
62
256
6
ByLayer
370
-1
48
1
60
0
100
AcDbLine
10
74.75049
20
4.864215
30
0
11
74.765128
21
4.878041
31
0
39
0
210
0
220
0
230
1
0
LINE
5
158
100
AcDbEntity
8
1
62
256
6
ByLayer
370
-1
48
1
60
0
100
AcDbLine
10
79.93
20
4.983407
30
0
11
79.123531
21
4.367236
31
0
39
0
210
0
220
0
230
1
0
LINE
5
159
100
AcDbEntity
8
1
62
256
6
ByLayer
370
-1
48
1
60
0
100
AcDbLine
10
70.764989
20
-0.447157
30
0
11
70.992434
21
-1.482138
31
0
39
0
210
0
220
0
230
1
0
LINE
5
15A
100
AcDbEntity
8
1
62
256
6
ByLayer
370
-1
48
1
60
0
100
AcDbLine
10
63.789669
20
1.39486
30
0
11
66.071673
21
1.361484
31
0
39
0
210
0
220
0
230
1
0
LINE
5
15B
100
AcDbEntity
8
1
62
256
6
ByLayer
370
-1
48
1
60
0
100
AcDbLine
10
63.754474
20
3.049971
30
0
11
63.737161
21
3.022269
31
0
39
0
210
0
220
0
230
1
0
LINE
5
15C
100
AcDbEntity
8
1
62
256
6
ByLayer
370
-1
48
1
60
0
100
AcDbLine
10
77.667487
20
9.627714
30
0
11
77.43
21
10.039054
31
0
39
0
210
0
220
0
230
1
0
LINE
5
15D
100
AcDbEntity
8
1
62
256
6
ByLayer
370
-1
48
1
60
0
100
AcDbLine
10
79.744582
20
-3.401431
30
0
11
79.744582
21
-4.840465
31
0
39
0
210
0
220
0
230
1
0
LINE
5
15E
100
AcDbEntity
8
1
62
256
6
ByLayer
370
-1
48
1
60
0
100
AcDbLine
10
63.715722
20
3.058138
30
0
11
63.737161
21
3.022269
31
0
39
0
210
0
220
0
230
1
0
LINE
5
15F
100
AcDbEntity
8
1
62
256
6
ByLayer
370
-1
48
1
60
0
100
AcDbLine
10
77.655595
20
13.143611
30
0
11
79.706682
21
9.591024
31
0
39
0
210
0
220
0
230
1
0
LINE
5
160
100
AcDbEntity
8
1
62
256
6
ByLayer
370
-1
48
1
60
0
100
AcDbLine
10
65.281352
20
5.370505
30
0
11
66.499232
21
4.619858
31
0
39
0
210
0
220
0
230
1
0
LINE
5
161
100
AcDbEntity
8
1
62
256
6
ByLayer
370
-1
48
1
60
0
100
AcDbLine
10
63.564074
20
3.205243
30
0
11
65.510327
21
6.340337
31
0
39
0
210
0
220
0
230
1
0
LINE
5
162
100
AcDbEntity
8
1
62
256
6
ByLayer
370
-1
48
1
60
0
100
AcDbLine
10
72.222806
20
4.777
30
0
11
72.238511
21
4.76438
31
0
39
0
210
0
220
0
230
1
0
LINE
5
163
100
AcDbEntity
8
SK1
62
256
6
ByLayer
370
-1
48
1
60
0
100
AcDbLine
10
0
20
4.338787
30
0
11
-169.32
21
4.338787
31
0
39
0
210
0
220
0
230
1
0
LINE
5
164
100
AcDbEntity
8
1
62
256
6
ByLayer
370
-1
48
1
60
0
100
AcDbLine
10
77.192513
20
9.627714
30
0
11
75.953524
21
10.343045
31
0
39
0
210
0
220
0
230
1
0
LINE
5
165
100
AcDbEntity
8
1
62
256
6
ByLayer
370
-1
48
1
60
0
100
AcDbLine
10
79.93
20
5.210506
30
0
11
77.649874
21
4.661378
31
0
39
0
210
0
220
0
230
1
0
LINE
5
166
100
AcDbEntity
8
1
62
256
6
ByLayer
370
-1
48
1
60
0
100
AcDbLine
10
65.782004
20
6.736514
30
0
11
67.298174
21
7.582048
31
0
39
0
210
0
220
0
230
1
0
LINE
5
167
100
AcDbEntity
8
1
62
256
6
ByLayer
370
-1
48
1
60
0
100
AcDbLine
10
79.520331
20
-3.613361
30
0
11
75.522991
21
-3.909802
31
0
39
0
210
0
220
0
230
1
0
LINE
5
168
100
AcDbEntity
8
1
62
256
6
ByLayer
370
-1
48
1
60
0
100
AcDbLine
10
71.213605
20
-1.627997
30
0
11
71.152487
21
-1.579041
31
0
39
0
210
0
220
0
230
1
0
LINE
5
169
100
AcDbEntity
8
1
62
256
6
ByLayer
370
-1
48
1
60
0
100
AcDbLine
10
77.43
20
13.04722
30
0
11
77.408561
21
13.084353
31
0
39
0
210
0
220
0
230
1
0
LINE
5
16A
100
AcDbEntity
8
SK1
62
256
6
ByLayer
370
-1
48
1
60
0
100
AcDbLine
10
-169.32
20
-4.338787
30
0
11
0
21
-4.338787
31
0
39
0
210
0
220
0
230
1
0
LINE
5
16B
100
AcDbEntity
8
SK1
62
256
6
ByLayer
370
-1
48
1
60
0
100
AcDbLine
10
0
20
8.50875
30
0
11
0
21
4.338787
31
0
39
0
210
0
220
0
230
1
0
LINE
5
16C
100
AcDbEntity
8
SK1
62
256
6
ByLayer
370
-1
48
1
60
0
100
AcDbLine
10
-169.32
20
8.50875
30
0
11
0
21
8.50875
31
0
39
0
210
0
220
0
230
1
0
LINE
5
16D
100
AcDbEntity
8
1
62
256
6
ByLayer
370
-1
48
1
60
0
100
AcDbLine
10
79.93
20
6.291512
30
0
11
79.93
21
6.081379
31
0
39
0
210
0
220
0
230
1
0
LINE
5
16E
100
AcDbEntity
8
SK2
62
256
6
ByLayer
370
-1
48
1
60
0
100
AcDbLine
10
-181.07
20
9.99125
30
0
11
-181.07
21
-9.99125
31
0
39
0
210
0
220
0
230
1
0
LINE
5
170
100
AcDbEntity
8
SK2
62
256
6
ByLayer
370
-1
48
1
60
0
100
AcDbLine
10
-172.82
20
-9.99125
30
0
11
-184.07
21
-9.99125
31
0
39
0
210
0
220
0
230
1
0
LINE
5
171
100
AcDbEntity
8
SK2
62
256
6
ByLayer
370
-1
48
1
60
0
100
AcDbLine
10
-172.82
20
9.99125
30
0
11
-184.07
21
9.99125
31
0
39
0
210
0
220
0
230
1
0
LINE
5
172
100
AcDbEntity
8
SK2
62
256
6
ByLayer
370
-1
48
1
60
0
100
AcDbLine
10
-181.07
20
-9.99125
30
0
11
-181.464957
21
-6.991251
31
0
39
0
210
0
220
0
230
1
0
LINE
5
173
100
AcDbEntity
8
SK2
62
256
6
ByLayer
370
-1
48
1
60
0
100
AcDbLine
10
-181.07
20
-9.99125
30
0
11
-180.675043
21
-6.991249
31
0
39
0
210
0
220
0
230
1
0
LINE
5
174
100
AcDbEntity
8
SK2
62
256
6
ByLayer
370
-1
48
1
60
0
100
AcDbLine
10
-181.464957
20
-6.991251
30
0
11
-180.675043
21
-6.991249
31
0
39
0
210
0
220
0
230
1
0
LINE
5
175
100
AcDbEntity
8
SK2
62
256
6
ByLayer
370
-1
48
1
60
0
100
AcDbLine
10
-181.07
20
9.99125
30
0
11
-180.675043
21
6.991251
31
0
39
0
210
0
220
0
230
1
0
LINE
5
176
100
AcDbEntity
8
SK2
62
256
6
ByLayer
370
-1
48
1
60
0
100
AcDbLine
10
-181.07
20
9.99125
30
0
11
-181.464957
21
6.991249
31
0
39
0
210
0
220
0
230
1
0
LINE
5
177
100
AcDbEntity
8
SK2
62
256
6
ByLayer
370
-1
48
1
60
0
100
AcDbLine
10
-180.675043
20
6.991251
30
0
11
-181.464957
21
6.991249
31
0
39
0
210
0
220
0
230
1
0
MTEXT
5
2D7
100
AcDbEntity
8
SK6
62
256
6
ByLayer
370
-1
48
1
60
0
100
AcDbMText
10
38.34
20
-23.249228
30
0
210
0
220
0
230
1
1
\W00.743;\fsimplex.shx,bigfont.shx;254RKF-20-22 
40
3.5
41
0
44
1.084337
50
0
71
7
72
5
7
DEFAULT
0
MTEXT
5
2FD
100
AcDbEntity
8
SK2
62
256
6
ByLayer
370
-1
48
1
60
0
100
AcDbMText
10
-182.195
20
-3.659211
30
0
210
0
220
0
230
1
1
\W00.875;\fsimplex.shx,bigfont.shx;%%c20 
40
4.5
41
0
44
1.084337
50
89.9999999999999
71
7
72
5
7
DEFAULT
0
DIMENSION
5
30B
100
AcDbEntity
8
2
62
256
6
ByLayer
370
-3
48
1
60
0
100
AcDbDimension
2
DimnDraft3D1
10
94.18
20
14.875
30
0
11
94.18
21
5.371053
31
0
70
32
71
5
72
1
41
1
210
0
220
0
230
1
3
Standard
100
AcDbAlignedDimension
13
86.43
23
0
33
0
14
81.43
24
14.875
34
0
50
90
100
AcDbRotatedDimension
1001
ACAD
1000
DSTYLE
1002
{
1070
    74
1070
     0
1070
   279
1070
     0
1070
   172
1070
     1
1070
   173
1070
     1
1070
   340
1005
2D8
1070
   271
1070
     3
1070
   272
1070
     3
1070
    77
1070
     1
1070
    73
1070
     0
1070
   171
1070
     4
1070
   274
1070
     4
1070
   177
1070
     2
1070
   176
1070
     2
1070
   178
1070
     7
1070
    78
1070
     8
1070
    41
1041
3.0
1070
   147
1041
2.25
1070
    42
1041
1.5
1070
    44
1041
3.0
1070
   140
1041
4.5
1070
   343
1005
30C
1070
   344
1005
30C
1002
}
0
DIMENSION
5
320
100
AcDbEntity
8
2
62
256
6
ByLayer
370
-3
48
1
60
0
100
AcDbDimension
2
DimnDraft3D2
10
44.709187
20
24.625
30
0
11
59.690646
21
24.625
31
0
70
32
71
5
72
1
41
1
210
0
220
0
230
1
3
Standard
100
AcDbAlignedDimension
13
79.93
23
16.375
33
0
14
44.709187
24
16.375
34
0
50
0
100
AcDbRotatedDimension
1001
ACAD
1000
DSTYLE
1002
{
1070
   279
1070
     0
1070
   172
1070
     1
1070
   173
1070
     1
1070
   340
1005
2D8
1070
   271
1070
     3
1070
   272
1070
     3
1070
    77
1070
     1
1070
    73
1070
     0
1070
   171
1070
     4
1070
   274
1070
     4
1070
   177
1070
     2
1070
   176
1070
     2
1070
   178
1070
     7
1070
    78
1070
     8
1070
    41
1041
3.0
1070
   147
1041
2.25
1070
    42
1041
1.5
1070
    44
1041
3.0
1070
   140
1041
4.5
1070
   343
1005
30C
1070
   344
1005
30C
1002
}
0
DIMENSION
5
32E
100
AcDbEntity
8
SK2
62
256
6
ByLayer
370
-3
48
1
60
0
100
AcDbDimension
2
DimnDraft3D3
10
-171.32
20
34.625
30
0
11
-49.413421
21
34.625
31
0
70
32
71
5
72
1
41
1
210
0
220
0
230
1
3
Standard
100
AcDbAlignedDimension
13
79.93
23
16.375
33
0
14
-171.32
24
1.5
34
0
50
0
100
AcDbRotatedDimension
1001
ACAD
1000
DSTYLE
1002
{
1070
   279
1070
     0
1070
   172
1070
     1
1070
   173
1070
     1
1070
   340
1005
2D8
1070
   271
1070
     3
1070
   272
1070
     3
1070
    77
1070
     1
1070
    73
1070
     0
1070
   171
1070
     4
1070
   274
1070
     4
1070
   177
1070
     2
1070
   176
1070
     2
1070
   178
1070
     7
1070
    78
1070
     8
1070
    41
1041
3.0
1070
   147
1041
2.25
1070
    42
1041
1.5
1070
    44
1041
3.0
1070
   140
1041
4.5
1070
   343
1005
30C
1070
   344
1005
30C
1002
}
0
ENDSEC
0
SECTION
2
OBJECTS
0
DICTIONARY
5
35f
330
0
100
AcDbDictionary
280
0
281
1
3
ACAD_GROUP
350
360
3
ACAD_MLINESTYLE
350
361
0
DICTIONARY
5
360
330
0
100
AcDbDictionary
280
0
281
1
0
DICTIONARY
5
361
330
0
100
AcDbDictionary
280
0
281
1
3
Standard
350
18
0
MLINESTYLE
5
18
330
361
100
AcDbMlineStyle
2
Standard
70
0
3

62
256
51
90
52
90
71
2
49
-0.5
62
256
6
ByLayer
49
0.5
62
256
6
ByLayer
0
RASTERVARIABLES
5
34d
330

100
AcDbRasterVariables
90
0
70
1
71
1
72
1
0
ENDSEC
0
EOF
