0
SECTION
2
HEADER
9
$ACADVER
1
AC1015
9
$DWGCODEPAGE
3
ANSI_1252
9
$HANDSEED
5
17b
9
$ANGBASE
50
0
9
$ANGDIR
70
0
9
$ATTMODE
70
1
9
$AUNITS
70
0
9
$AUPREC
70
0
9
$CECOLOR
62
256
9
$CELTSCALE
40
1
9
$CELTYPE
6
ByLayer
9
$CELWEIGHT
370
18
9
$CLAYER
8
0
9
$CMLJUST
70
0
9
$CMLSCALE
40
1
9
$CMLSTYLE
2
Standard
9
$DIMSTYLE
2
Standard
9
$TEXTSIZE
40
0.2
9
$TEXTSTYLE
7
Standard
9
$LUNITS
70
2
9
$LUPREC
70
4
9
$EXTNAMES
290
1
9
$INSUNITS
70
4
9
$LTSCALE
40
1
9
$LWDISPLAY
290
1
9
$PDMODE
70
0
9
$PDSIZE
40
0
9
$PLINEGEN
70
0
0
ENDSEC
0
SECTION
2
CLASSES
0
CLASS
1
RASTERVARIABLES
2
AcDbRasterVariables
3
ISM
90
0
280
0
281
0
0
ENDSEC
0
SECTION
2
TABLES
0
TABLE
2
VPORT
5
171
100
AcDbSymbolTable
0
VPORT
5
1
100
AcDbSymbolTableRecord
100
AcDbViewportTableRecord
2
*Active
70
0
10
0
20
0
11
1
21
1
12
-1
22
1
13
0
23
0
14
0.5
24
0.5
15
10
25
10
16
0
26
0
36
1
17
0
27
0
37
0
0
ENDTAB
0
TABLE
2
LTYPE
5
172
100
AcDbSymbolTable
0
LTYPE
5
14
100
AcDbSymbolTableRecord
100
AcDbLinetypeTableRecord
70
0
2
ByBlock
3

72
65
73
0
40
0
0
LTYPE
5
15
100
AcDbSymbolTableRecord
100
AcDbLinetypeTableRecord
70
0
2
ByLayer
3

72
65
73
0
40
0
0
LTYPE
5
16
100
AcDbSymbolTableRecord
100
AcDbLinetypeTableRecord
70
0
2
CONTINUOUS
3
Solid line
72
65
73
0
40
0
0
LTYPE
5
6A
100
AcDbSymbolTableRecord
100
AcDbLinetypeTableRecord
70
0
2
CENTER
3
____ _ ____ _ ____ _ ____
72
65
73
4
40
47.5
49
22
74
0
49
-8.5
74
0
49
8.5
74
0
49
-8.5
74
0
0
LTYPE
5
6B
100
AcDbSymbolTableRecord
100
AcDbLinetypeTableRecord
70
0
2
DASHED
3
__ __ __ __ __ __ __ __ __
72
65
73
2
40
25.72
49
12.86
74
0
49
-12.86
74
0
0
ENDTAB
0
TABLE
2
LAYER
5
173
100
AcDbSymbolTable
0
LAYER
5
10
100
AcDbSymbolTableRecord
100
AcDbLayerTableRecord
2
0
70
0
62
7
6
CONTINUOUS
290
1
370
-3
390
0
0
LAYER
5
6D
100
AcDbSymbolTableRecord
100
AcDbLayerTableRecord
2
80
70
0
62
-6
6
CONTINUOUS
290
1
370
-3
390
0
0
LAYER
5
6F
100
AcDbSymbolTableRecord
100
AcDbLayerTableRecord
2
81
70
0
62
-3
6
CONTINUOUS
290
1
370
-3
390
0
0
LAYER
5
71
100
AcDbSymbolTableRecord
100
AcDbLayerTableRecord
2
1
70
0
62
4
6
CONTINUOUS
290
1
370
-3
390
0
0
LAYER
5
90
100
AcDbSymbolTableRecord
100
AcDbLayerTableRecord
2
4
70
0
62
-2
6
CENTER
290
1
370
-3
390
0
0
LAYER
5
FC
100
AcDbSymbolTableRecord
100
AcDbLayerTableRecord
2
2
70
0
62
7
6
CONTINUOUS
290
1
370
-3
390
0
0
LAYER
5
15e
100
AcDbSymbolTableRecord
100
AcDbLayerTableRecord
2
SK4
70
0
62
2
6
CENTER
290
1
370
-3
390
0
0
LAYER
5
15f
100
AcDbSymbolTableRecord
100
AcDbLayerTableRecord
2
SK6
70
0
62
5
6
CONTINUOUS
290
1
370
-3
390
0
0
LAYER
5
160
100
AcDbSymbolTableRecord
100
AcDbLayerTableRecord
2
SK2
70
0
62
7
6
CONTINUOUS
290
1
370
-3
390
0
0
ENDTAB
0
TABLE
2
STYLE
5
174
100
AcDbSymbolTable
0
STYLE
5
11
100
AcDbSymbolTableRecord
100
AcDbTextStyleTableRecord
2
Standard
3
txt
70
0
71
0
40
0
41
1
42
0
50
0
0
STYLE
5
CE
100
AcDbSymbolTableRecord
100
AcDbTextStyleTableRecord
2
iso_b_vert
3
simplex.shx
70
0
71
0
40
0
41
1
42
0
50
0
0
STYLE
5
CF
100
AcDbSymbolTableRecord
100
AcDbTextStyleTableRecord
2
DWGDirectTextStyle
3
simplex
70
0
71
0
40
0
41
1
42
0
50
0
0
ENDTAB
0
TABLE
2
DIMSTYLE
5
175
100
AcDbSymbolTable
100
AcDbDimStyleTable
0
DIMSTYLE
105
27
100
AcDbSymbolTableRecord
100
AcDbDimStyleTableRecord
2
Standard
70
0
3
<>
41
0.18
42
0.0625
44
0.18
140
0.18
147
0.09
73
0
74
0
77
1
271
2
275
0
278
52
280
0
340
11
0
ENDTAB
0
TABLE
2
VIEW
5
176
100
AcDbSymbolTable
0
ENDTAB
0
TABLE
2
UCS
5
177
100
AcDbSymbolTable
0
ENDTAB
0
TABLE
2
APPID
5
178
100
AcDbSymbolTable
0
APPID
5
12
100
AcDbSymbolTableRecord
100
AcDbRegAppTableRecord
2
ACAD
70
0
0
ENDTAB
0
TABLE
2
BLOCK_RECORD
5
179
100
AcDbSymbolTable
0
BLOCK_RECORD
5
1F
100
AcDbSymbolTableRecord
100
AcDbBlockTableRecord
2
*Model_Space
340
0
70
0
0
BLOCK_RECORD
5
1B
100
AcDbSymbolTableRecord
100
AcDbBlockTableRecord
2
*Paper_Space
340
0
70
0
0
BLOCK_RECORD
5
23
100
AcDbSymbolTableRecord
100
AcDbBlockTableRecord
2
*Paper_Space0
340
0
70
0
0
BLOCK_RECORD
5
D1
100
AcDbSymbolTableRecord
100
AcDbBlockTableRecord
2
DimnDraft3D1
340
0
70
0
0
BLOCK_RECORD
5
DC
100
AcDbSymbolTableRecord
100
AcDbBlockTableRecord
2
DimnDraft3D2
340
0
70
0
0
BLOCK_RECORD
5
E6
100
AcDbSymbolTableRecord
100
AcDbBlockTableRecord
2
DimnDraft3D3
340
0
70
0
0
BLOCK_RECORD
5
F0
100
AcDbSymbolTableRecord
100
AcDbBlockTableRecord
2
DimnDraft3D4
340
0
70
0
0
BLOCK_RECORD
5
FA
100
AcDbSymbolTableRecord
100
AcDbBlockTableRecord
2
DimnDraft3D5
340
0
70
0
0
ENDTAB
0
ENDSEC
0
SECTION
2
BLOCKS
0
BLOCK
5
20
100
AcDbEntity
8
0
100
AcDbBlockBegin
2
*Model_Space
70
0
10
0
20
0
30
0
3
*Model_Space
0
ENDBLK
5
21
100
AcDbEntity
8
0
100
AcDbBlockEnd
0
BLOCK
5
1C
100
AcDbEntity
8
0
100
AcDbBlockBegin
2
*Paper_Space
70
0
10
0
20
0
30
0
3
*Paper_Space
0
ENDBLK
5
1D
100
AcDbEntity
8
0
100
AcDbBlockEnd
0
BLOCK
5
24
100
AcDbEntity
8
0
100
AcDbBlockBegin
2
*Paper_Space0
70
0
10
0
20
0
30
0
3
*Paper_Space0
0
ENDBLK
5
25
100
AcDbEntity
8
0
100
AcDbBlockEnd
0
BLOCK
5
D9
100
AcDbEntity
8
0
100
AcDbBlockBegin
2
DimnDraft3D1
70
0
10
0
20
0
30
0
3
DimnDraft3D1
0
MTEXT
5
D2
100
AcDbEntity
8
SK2
62
256
6
ByLayer
370
13
48
1
60
0
100
AcDbMText
10
-124.073069
20
-37.225888
30
0
210
0
220
0
230
1
1
\W0.6831;78,1
40
3.5
41
0
44
1.084337
50
90
71
7
72
5
7
iso_b_vert
0
LINE
5
D4
100
AcDbEntity
8
SK2
62
256
6
ByLayer
370
13
48
1
60
0
100
AcDbLine
10
-88.9
20
-73.667758
30
0
11
-125.198069
21
-73.667758
31
0
39
0
210
0
220
0
230
1
0
LINE
5
D5
100
AcDbEntity
8
SK2
62
256
6
ByLayer
370
13
48
1
60
0
100
AcDbLine
10
-88.9
20
4.43835
30
0
11
-125.198069
21
4.43835
31
0
39
0
210
0
220
0
230
1
0
LINE
5
D6
100
AcDbEntity
8
SK2
62
256
6
ByLayer
370
13
48
1
60
0
100
AcDbLine
10
-123.198069
20
-73.667758
30
0
11
-123.198069
21
4.43835
31
0
39
0
210
0
220
0
230
1
0
SOLID
5
D7
100
AcDbEntity
8
SK2
62
256
6
ByLayer
370
13
48
1
60
0
100
AcDbTrace
10
-123.198069
20
-73.667758
30
0
11
-123.658852
21
-70.16776
31
0
12
-122.737285
22
-70.167756
32
0
13
-123.198069
23
-73.667758
33
0
39
0
210
0
220
0
230
1
0
SOLID
5
D8
100
AcDbEntity
8
SK2
62
256
6
ByLayer
370
13
48
1
60
0
100
AcDbTrace
10
-123.198069
20
4.43835
30
0
11
-122.737285
21
0.938352
31
0
12
-123.658852
22
0.938348
32
0
13
-123.198069
23
4.43835
33
0
39
0
210
0
220
0
230
1
0
ENDBLK
5
DA
100
AcDbEntity
8
0
100
AcDbBlockEnd
0
BLOCK
5
E3
100
AcDbEntity
8
0
100
AcDbBlockBegin
2
DimnDraft3D2
70
0
10
0
20
0
30
0
3
DimnDraft3D2
0
MTEXT
5
DD
100
AcDbEntity
8
SK2
62
256
6
ByLayer
370
13
48
1
60
0
100
AcDbMText
10
-105.635178
20
-2.10352
30
0
210
0
220
0
230
1
1
\W0.6702;9,6
40
3.5
41
0
44
1.084337
50
90
71
7
72
5
7
iso_b_vert
0
LINE
5
DE
100
AcDbEntity
8
SK2
62
256
6
ByLayer
370
13
48
1
60
0
100
AcDbLine
10
-88.9
20
-5.117758
30
0
11
-106.760178
21
-5.117758
31
0
39
0
210
0
220
0
230
1
0
LINE
5
DF
100
AcDbEntity
8
SK2
62
256
6
ByLayer
370
13
48
1
60
0
100
AcDbLine
10
-88.9
20
4.43835
30
0
11
-106.760178
21
4.43835
31
0
39
0
210
0
220
0
230
1
0
LINE
5
E0
100
AcDbEntity
8
SK2
62
256
6
ByLayer
370
13
48
1
60
0
100
AcDbLine
10
-104.760178
20
-5.117758
30
0
11
-104.760178
21
4.43835
31
0
39
0
210
0
220
0
230
1
0
SOLID
5
E1
100
AcDbEntity
8
SK2
62
256
6
ByLayer
370
13
48
1
60
0
100
AcDbTrace
10
-104.760178
20
-5.117758
30
0
11
-105.220962
21
-1.61776
31
0
12
-104.299394
22
-1.617756
32
0
13
-104.760178
23
-5.117758
33
0
39
0
210
0
220
0
230
1
0
SOLID
5
E2
100
AcDbEntity
8
SK2
62
256
6
ByLayer
370
13
48
1
60
0
100
AcDbTrace
10
-104.760178
20
4.43835
30
0
11
-104.299394
21
0.938352
31
0
12
-105.220962
22
0.938348
32
0
13
-104.760178
23
4.43835
33
0
39
0
210
0
220
0
230
1
0
ENDBLK
5
E4
100
AcDbEntity
8
0
100
AcDbBlockEnd
0
BLOCK
5
ED
100
AcDbEntity
8
0
100
AcDbBlockBegin
2
DimnDraft3D3
70
0
10
0
20
0
30
0
3
DimnDraft3D3
0
MTEXT
5
E7
100
AcDbEntity
8
SK2
62
256
6
ByLayer
370
13
48
1
60
0
100
AcDbMText
10
-3.896053
20
44.039013
30
0
210
0
220
0
230
1
1
\W0.6563;177,8
40
3.5
41
0
44
1.084337
50
0
71
7
72
5
7
iso_b_vert
0
LINE
5
E8
100
AcDbEntity
8
SK2
62
256
6
ByLayer
370
13
48
1
60
0
100
AcDbLine
10
-88.9
20
-25.617758
30
0
11
-88.9
21
45.164013
31
0
39
0
210
0
220
0
230
1
0
LINE
5
E9
100
AcDbEntity
8
SK2
62
256
6
ByLayer
370
13
48
1
60
0
100
AcDbLine
10
88.9
20
-25.617758
30
0
11
88.9
21
45.164013
31
0
39
0
210
0
220
0
230
1
0
LINE
5
EA
100
AcDbEntity
8
SK2
62
256
6
ByLayer
370
13
48
1
60
0
100
AcDbLine
10
-88.9
20
43.164013
30
0
11
88.9
21
43.164013
31
0
39
0
210
0
220
0
230
1
0
SOLID
5
EB
100
AcDbEntity
8
SK2
62
256
6
ByLayer
370
13
48
1
60
0
100
AcDbTrace
10
-88.9
20
43.164013
30
0
11
-85.400002
21
43.624796
31
0
12
-85.399998
22
42.703229
32
0
13
-88.9
23
43.164013
33
0
39
0
210
0
220
0
230
1
0
SOLID
5
EC
100
AcDbEntity
8
SK2
62
256
6
ByLayer
370
13
48
1
60
0
100
AcDbTrace
10
88.9
20
43.164013
30
0
11
85.400002
21
42.703229
31
0
12
85.399998
22
43.624796
32
0
13
88.9
23
43.164013
33
0
39
0
210
0
220
0
230
1
0
ENDBLK
5
EE
100
AcDbEntity
8
0
100
AcDbBlockEnd
0
BLOCK
5
F7
100
AcDbEntity
8
0
100
AcDbBlockBegin
2
DimnDraft3D4
70
0
10
0
20
0
30
0
3
DimnDraft3D4
0
MTEXT
5
F1
100
AcDbEntity
8
SK2
62
256
6
ByLayer
370
13
48
1
60
0
100
AcDbMText
10
-105.232487
20
-50.996705
30
0
210
0
220
0
230
1
1
\W0.7183;48
40
3.5
41
0
44
1.084337
50
90
71
7
72
5
7
iso_b_vert
0
LINE
5
F2
100
AcDbEntity
8
SK2
62
256
6
ByLayer
370
13
48
1
60
0
100
AcDbLine
10
-88.9
20
-73.667758
30
0
11
-106.357487
21
-73.667758
31
0
39
0
210
0
220
0
230
1
0
LINE
5
F3
100
AcDbEntity
8
SK2
62
256
6
ByLayer
370
13
48
1
60
0
100
AcDbLine
10
-88.9
20
-25.617758
30
0
11
-106.357487
21
-25.617758
31
0
39
0
210
0
220
0
230
1
0
LINE
5
F4
100
AcDbEntity
8
SK2
62
256
6
ByLayer
370
13
48
1
60
0
100
AcDbLine
10
-104.357487
20
-73.667758
30
0
11
-104.357487
21
-25.617758
31
0
39
0
210
0
220
0
230
1
0
SOLID
5
F5
100
AcDbEntity
8
SK2
62
256
6
ByLayer
370
13
48
1
60
0
100
AcDbTrace
10
-104.357487
20
-73.667758
30
0
11
-104.818271
21
-70.16776
31
0
12
-103.896703
22
-70.167756
32
0
13
-104.357487
23
-73.667758
33
0
39
0
210
0
220
0
230
1
0
SOLID
5
F6
100
AcDbEntity
8
SK2
62
256
6
ByLayer
370
13
48
1
60
0
100
AcDbTrace
10
-104.357487
20
-25.617758
30
0
11
-103.896703
21
-29.117756
31
0
12
-104.818271
22
-29.11776
32
0
13
-104.357487
23
-25.617758
33
0
39
0
210
0
220
0
230
1
0
ENDBLK
5
F8
100
AcDbEntity
8
0
100
AcDbBlockEnd
0
BLOCK
5
102
100
AcDbEntity
8
0
100
AcDbBlockBegin
2
DimnDraft3D5
70
0
10
0
20
0
30
0
3
DimnDraft3D5
0
MTEXT
5
FB
100
AcDbEntity
8
2
62
256
6
ByLayer
370
13
48
1
60
0
100
AcDbMText
10
146.882895
20
43.344711
30
0
210
0
220
0
230
1
1
\W0.6044;120
40
3.5
41
0
44
1.084337
50
0
71
7
72
5
7
iso_b_vert
0
LINE
5
FD
100
AcDbEntity
8
2
62
256
6
ByLayer
370
13
48
1
60
0
100
AcDbLine
10
88.9
20
-25.617758
30
0
11
88.9
21
44.469711
31
0
39
0
210
0
220
0
230
1
0
LINE
5
FE
100
AcDbEntity
8
2
62
256
6
ByLayer
370
13
48
1
60
0
100
AcDbLine
10
208.9
20
0
30
0
11
208.9
21
44.469711
31
0
39
0
210
0
220
0
230
1
0
LINE
5
FF
100
AcDbEntity
8
2
62
256
6
ByLayer
370
13
48
1
60
0
100
AcDbLine
10
88.9
20
42.469711
30
0
11
208.9
21
42.469711
31
0
39
0
210
0
220
0
230
1
0
SOLID
5
100
100
AcDbEntity
8
2
62
256
6
ByLayer
370
13
48
1
60
0
100
AcDbTrace
10
88.9
20
42.469711
30
0
11
92.399998
21
42.930494
31
0
12
92.400002
22
42.008927
32
0
13
88.9
23
42.469711
33
0
39
0
210
0
220
0
230
1
0
SOLID
5
101
100
AcDbEntity
8
2
62
256
6
ByLayer
370
13
48
1
60
0
100
AcDbTrace
10
208.9
20
42.469711
30
0
11
205.400002
21
42.008927
31
0
12
205.399998
22
42.930494
32
0
13
208.9
23
42.469711
33
0
39
0
210
0
220
0
230
1
0
ENDBLK
5
103
100
AcDbEntity
8
0
100
AcDbBlockEnd
0
ENDSEC
0
SECTION
2
ENTITIES
0
ELLIPSE
5
91
100
AcDbEntity
8
1
62
256
6
ByLayer
370
18
48
1
60
0
100
AcDbEllipse
10
-69.85
20
-18.727641
30
0
11
4.25
21
0
31
0
210
0
220
0
230
1
40
0.984808
41
0.42852400458223
42
1.5707963267949
0
ELLIPSE
5
92
100
AcDbEntity
8
1
62
256
6
ByLayer
370
18
48
1
60
0
100
AcDbEllipse
10
25.4
20
-18.727641
30
0
11
4.25
21
0
31
0
210
0
220
0
230
1
40
0.984808
41
0.428524004578149
42
1.5707963267949
0
ELLIPSE
5
93
100
AcDbEntity
8
1
62
256
6
ByLayer
370
18
48
1
60
0
100
AcDbEllipse
10
69.85
20
-17.338456
30
0
11
4.25
21
0
31
0
210
0
220
0
230
1
40
0.984808
41
0.184493522387024
42
1.5707963267949
0
ELLIPSE
5
94
100
AcDbEntity
8
1
62
256
6
ByLayer
370
18
48
1
60
0
100
AcDbEllipse
10
-69.85
20
-18.727641
30
0
11
4.25
21
0
31
0
210
0
220
0
230
1
40
0.984808
41
1.5707963267949
42
2.71306864900753
0
ELLIPSE
5
95
100
AcDbEntity
8
1
62
256
6
ByLayer
370
18
48
1
60
0
100
AcDbEllipse
10
-69.85
20
-17.338456
30
0
11
4.25
21
0
31
0
210
0
220
0
230
1
40
0.984808
41
1.5707963267949
42
2.95709913148881
0
ELLIPSE
5
96
100
AcDbEntity
8
1
62
256
6
ByLayer
370
18
48
1
60
0
100
AcDbEllipse
10
25.4
20
-17.338456
30
0
11
4.25
21
0
31
0
210
0
220
0
230
1
40
0.984808
41
1.5707963267949
42
2.95709913144553
0
ELLIPSE
5
97
100
AcDbEntity
8
1
62
256
6
ByLayer
370
18
48
1
60
0
100
AcDbEllipse
10
-25.4
20
-18.727641
30
0
11
4.25
21
0
31
0
210
0
220
0
230
1
40
0.984808
41
0.428524004587579
42
1.5707963267949
0
ELLIPSE
5
98
100
AcDbEntity
8
1
62
256
6
ByLayer
370
18
48
1
60
0
100
AcDbEllipse
10
-25.4
20
-17.338456
30
0
11
5
21
0
31
0
210
0
220
0
230
1
40
0.984808
41
1.5707963267949
42
2.78118688540758
0
ELLIPSE
5
99
100
AcDbEntity
8
1
62
256
6
ByLayer
370
18
48
1
60
0
100
AcDbEllipse
10
-69.85
20
-17.338456
30
0
11
5
21
0
31
0
210
0
220
0
230
1
40
0.984808
41
0.36040576818219
42
1.5707963267949
0
ELLIPSE
5
9A
100
AcDbEntity
8
1
62
256
6
ByLayer
370
18
48
1
60
0
100
AcDbEllipse
10
-69.85
20
-13.865492
30
0
11
-5
21
6.12303176911189E-16
31
0
210
0
220
0
230
1
40
0.984808
41
0
42
3.14159265358979
0
ELLIPSE
5
9B
100
AcDbEntity
8
1
62
256
6
ByLayer
370
18
48
1
60
0
100
AcDbEllipse
10
-69.85
20
-13.865492
30
0
11
-5
21
6.12303176911189E-16
31
0
210
0
220
0
230
1
40
0.984808
41
3.14159265358979
42
-1.5707963267949
0
ELLIPSE
5
9C
100
AcDbEntity
8
1
62
256
6
ByLayer
370
18
48
1
60
0
100
AcDbEllipse
10
25.4
20
-17.338456
30
0
11
4.25
21
0
31
0
210
0
220
0
230
1
40
0.984808
41
0.18449352215106
42
1.5707963267949
0
ELLIPSE
5
9D
100
AcDbEntity
8
1
62
256
6
ByLayer
370
18
48
1
60
0
100
AcDbEllipse
10
69.85
20
-17.338456
30
0
11
4.25
21
0
31
0
210
0
220
0
230
1
40
0.984808
41
1.5707963267949
42
2.95709913123133
0
ELLIPSE
5
9E
100
AcDbEntity
8
1
62
256
6
ByLayer
370
18
48
1
60
0
100
AcDbEllipse
10
69.85
20
-18.727641
30
0
11
4.25
21
0
31
0
210
0
220
0
230
1
40
0.984808
41
1.5707963267949
42
2.71306864885206
0
ELLIPSE
5
9F
100
AcDbEntity
8
1
62
256
6
ByLayer
370
18
48
1
60
0
100
AcDbEllipse
10
-69.85
20
-17.338456
30
0
11
5
21
0
31
0
210
0
220
0
230
1
40
0.984808
41
1.5707963267949
42
2.78118688540761
0
ELLIPSE
5
A0
100
AcDbEntity
8
1
62
256
6
ByLayer
370
18
48
1
60
0
100
AcDbEllipse
10
-25.4
20
-17.338456
30
0
11
4.25
21
0
31
0
210
0
220
0
230
1
40
0.984808
41
0.184493522093157
42
1.5707963267949
0
ELLIPSE
5
A1
100
AcDbEntity
8
1
62
256
6
ByLayer
370
18
48
1
60
0
100
AcDbEllipse
10
25.4
20
-17.338456
30
0
11
5
21
0
31
0
210
0
220
0
230
1
40
0.984808
41
0.360405768182202
42
1.5707963267949
0
ELLIPSE
5
A2
100
AcDbEntity
8
1
62
256
6
ByLayer
370
18
48
1
60
0
100
AcDbEllipse
10
-25.4
20
-13.865492
30
0
11
-5
21
6.12303176911189E-16
31
0
210
0
220
0
230
1
40
0.984808
41
3.14159265358979
42
-1.5707963267949
0
ELLIPSE
5
A3
100
AcDbEntity
8
1
62
256
6
ByLayer
370
18
48
1
60
0
100
AcDbEllipse
10
-25.4
20
-13.865492
30
0
11
-5
21
6.12303176911189E-16
31
0
210
0
220
0
230
1
40
0.984808
41
0
42
3.14159265358979
0
ELLIPSE
5
A4
100
AcDbEntity
8
1
62
256
6
ByLayer
370
18
48
1
60
0
100
AcDbEllipse
10
-25.4
20
-17.338456
30
0
11
5
21
0
31
0
210
0
220
0
230
1
40
0.984808
41
0.360405768182183
42
1.5707963267949
0
ELLIPSE
5
A5
100
AcDbEntity
8
1
62
256
6
ByLayer
370
18
48
1
60
0
100
AcDbEllipse
10
69.85
20
-13.865492
30
0
11
-5
21
6.12303176911189E-16
31
0
210
0
220
0
230
1
40
0.984808
41
3.14159265358979
42
-1.5707963267949
0
ELLIPSE
5
A6
100
AcDbEntity
8
1
62
256
6
ByLayer
370
18
48
1
60
0
100
AcDbEllipse
10
69.85
20
-13.865492
30
0
11
-5
21
6.12303176911189E-16
31
0
210
0
220
0
230
1
40
0.984808
41
0
42
3.14159265358979
0
ELLIPSE
5
A7
100
AcDbEntity
8
1
62
256
6
ByLayer
370
18
48
1
60
0
100
AcDbEllipse
10
25.4
20
-13.865492
30
0
11
-5
21
6.12303176911189E-16
31
0
210
0
220
0
230
1
40
0.984808
41
0
42
3.14159265358979
0
ELLIPSE
5
A8
100
AcDbEntity
8
1
62
256
6
ByLayer
370
18
48
1
60
0
100
AcDbEllipse
10
25.4
20
-17.338456
30
0
11
5
21
0
31
0
210
0
220
0
230
1
40
0.984808
41
1.5707963267949
42
2.78118688540759
0
ELLIPSE
5
A9
100
AcDbEntity
8
1
62
256
6
ByLayer
370
18
48
1
60
0
100
AcDbEllipse
10
69.85
20
-17.338456
30
0
11
5
21
0
31
0
210
0
220
0
230
1
40
0.984808
41
0.360405768182267
42
1.5707963267949
0
ELLIPSE
5
AA
100
AcDbEntity
8
1
62
256
6
ByLayer
370
18
48
1
60
0
100
AcDbEllipse
10
25.4
20
-13.865492
30
0
11
-5
21
6.12303176911189E-16
31
0
210
0
220
0
230
1
40
0.984808
41
3.14159265358979
42
-1.5707963267949
0
ELLIPSE
5
AB
100
AcDbEntity
8
1
62
256
6
ByLayer
370
18
48
1
60
0
100
AcDbEllipse
10
-69.85
20
-17.338456
30
0
11
4.25
21
0
31
0
210
0
220
0
230
1
40
0.984808
41
0.184493522100909
42
1.5707963267949
0
ELLIPSE
5
AC
100
AcDbEntity
8
1
62
256
6
ByLayer
370
18
48
1
60
0
100
AcDbEllipse
10
69.85
20
-17.338456
30
0
11
5
21
0
31
0
210
0
220
0
230
1
40
0.984808
41
1.5707963267949
42
2.78118688540753
0
ELLIPSE
5
AD
100
AcDbEntity
8
1
62
256
6
ByLayer
370
18
48
1
60
0
100
AcDbEllipse
10
69.85
20
-18.727641
30
0
11
4.25
21
0
31
0
210
0
220
0
230
1
40
0.984808
41
0.428524004753627
42
1.5707963267949
0
ELLIPSE
5
AE
100
AcDbEntity
8
1
62
256
6
ByLayer
370
18
48
1
60
0
100
AcDbEllipse
10
-25.4
20
-18.727641
30
0
11
4.25
21
0
31
0
210
0
220
0
230
1
40
0.984808
41
1.5707963267949
42
2.71306864900335
0
ELLIPSE
5
AF
100
AcDbEntity
8
1
62
256
6
ByLayer
370
18
48
1
60
0
100
AcDbEllipse
10
-25.4
20
-17.338456
30
0
11
4.25
21
0
31
0
210
0
220
0
230
1
40
0.984808
41
1.5707963267949
42
2.9570991314948
0
ELLIPSE
5
B0
100
AcDbEntity
8
1
62
256
6
ByLayer
370
18
48
1
60
0
100
AcDbEllipse
10
25.4
20
-18.727641
30
0
11
4.25
21
0
31
0
210
0
220
0
230
1
40
0.984808
41
1.5707963267949
42
2.71306864901112
0
ELLIPSE
5
B1
100
AcDbEntity
8
1
62
256
6
ByLayer
370
18
48
1
60
0
100
AcDbEllipse
10
-25.4
20
-13.257722
30
0
11
1.11914809268005E-15
21
-6.09255967131447
31
0
210
0
220
0
230
-1
40
0.984808
41
1.5707963267949
42
-1.5707963267949
0
ELLIPSE
5
B2
100
AcDbEntity
8
1
62
256
6
ByLayer
370
18
48
1
60
0
100
AcDbEllipse
10
-25.4
20
-13.257722
30
0
11
1.11914809268005E-15
21
-6.09255967131447
31
0
210
0
220
0
230
-1
40
0.984808
41
-1.5707963267949
42
-1.47057620769647
0
ELLIPSE
5
B3
100
AcDbEntity
8
1
62
256
6
ByLayer
370
18
48
1
60
0
100
AcDbEllipse
10
-69.85
20
-13.257722
30
0
11
1.11914809268005E-15
21
-6.09255967131447
31
0
210
0
220
0
230
-1
40
0.984808
41
1.5707963267949
42
-1.5707963267949
0
ELLIPSE
5
B4
100
AcDbEntity
8
1
62
256
6
ByLayer
370
18
48
1
60
0
100
AcDbEllipse
10
69.85
20
-13.865492
30
0
11
-5
21
6.12303176911189E-16
31
0
210
0
220
0
230
1
40
0.984808
41
-1.5707963267949
42
-3.60751910910604E-16
0
ELLIPSE
5
B5
100
AcDbEntity
8
1
62
256
6
ByLayer
370
18
48
1
60
0
100
AcDbEllipse
10
-69.85
20
-13.865492
30
0
11
6
21
0
31
0
210
0
220
0
230
1
40
0.984808
41
0.0506632110392737
42
1.5707963267949
0
ELLIPSE
5
B6
100
AcDbEntity
8
1
62
256
6
ByLayer
370
18
48
1
60
0
100
AcDbEllipse
10
25.4
20
-13.865492
30
0
11
-5
21
6.12303176911189E-16
31
0
210
0
220
0
230
1
40
0.984808
41
-1.5707963267949
42
-3.60751910910604E-16
0
ELLIPSE
5
B7
100
AcDbEntity
8
1
62
256
6
ByLayer
370
18
48
1
60
0
100
AcDbEllipse
10
-69.85
20
-13.257722
30
0
11
1.11914809268005E-15
21
-6.09255967131447
31
0
210
0
220
0
230
-1
40
0.984808
41
-1.5707963267949
42
-1.47057620769647
0
ELLIPSE
5
B8
100
AcDbEntity
8
1
62
256
6
ByLayer
370
18
48
1
60
0
100
AcDbEllipse
10
69.85
20
-13.257722
30
0
11
1.11914809268005E-15
21
-6.09255967131447
31
0
210
0
220
0
230
-1
40
0.984808
41
1.5707963267949
42
-1.5707963267949
0
ELLIPSE
5
B9
100
AcDbEntity
8
1
62
256
6
ByLayer
370
18
48
1
60
0
100
AcDbEllipse
10
69.85
20
-13.257722
30
0
11
1.11914809268005E-15
21
-6.09255967131447
31
0
210
0
220
0
230
-1
40
0.984808
41
-1.5707963267949
42
-1.47057620769647
0
ELLIPSE
5
BA
100
AcDbEntity
8
1
62
256
6
ByLayer
370
18
48
1
60
0
100
AcDbEllipse
10
25.4
20
-13.257722
30
0
11
1.11914809268005E-15
21
-6.09255967131447
31
0
210
0
220
0
230
-1
40
0.984808
41
1.5707963267949
42
-1.5707963267949
0
ELLIPSE
5
BB
100
AcDbEntity
8
1
62
256
6
ByLayer
370
18
48
1
60
0
100
AcDbEllipse
10
-69.85
20
-13.865492
30
0
11
-5
21
6.12303176911189E-16
31
0
210
0
220
0
230
1
40
0.984808
41
-1.5707963267949
42
-3.60751910910604E-16
0
ELLIPSE
5
BC
100
AcDbEntity
8
1
62
256
6
ByLayer
370
18
48
1
60
0
100
AcDbEllipse
10
-69.85
20
-13.865492
30
0
11
6
21
0
31
0
210
0
220
0
230
1
40
0.984808
41
1.5707963267949
42
3.09092944254411
0
ELLIPSE
5
BD
100
AcDbEntity
8
1
62
256
6
ByLayer
370
18
48
1
60
0
100
AcDbEllipse
10
-25.4
20
-13.865492
30
0
11
-5
21
6.12303176911189E-16
31
0
210
0
220
0
230
1
40
0.984808
41
-1.5707963267949
42
-3.60751910910604E-16
0
ELLIPSE
5
BE
100
AcDbEntity
8
1
62
256
6
ByLayer
370
18
48
1
60
0
100
AcDbEllipse
10
25.4
20
-13.257722
30
0
11
1.11914809268005E-15
21
-6.09255967131447
31
0
210
0
220
0
230
-1
40
0.984808
41
-1.5707963267949
42
-1.47057620769647
0
ELLIPSE
5
BF
100
AcDbEntity
8
1
62
256
6
ByLayer
370
18
48
1
60
0
100
AcDbEllipse
10
-69.85
20
-13.227494
30
0
11
-3.91548739108503E-16
21
6.39468736849777
31
0
210
0
220
0
230
-1
40
0.938279
41
1.67101644589332
42
-1.67101644589332
0
ELLIPSE
5
C0
100
AcDbEntity
8
1
62
256
6
ByLayer
370
18
48
1
60
0
100
AcDbEllipse
10
69.85
20
-13.227494
30
0
11
-3.91548739108506E-16
21
6.39468736849781
31
0
210
0
220
0
230
-1
40
0.938279
41
1.67101644589333
42
-1.67101644589333
0
ELLIPSE
5
C1
100
AcDbEntity
8
1
62
256
6
ByLayer
370
18
48
1
60
0
100
AcDbEllipse
10
25.4
20
-13.227494
30
0
11
-3.915487391085E-16
21
6.39468736849772
31
0
210
0
220
0
230
-1
40
0.938279
41
1.67101644589331
42
-1.67101644589331
0
ELLIPSE
5
C2
100
AcDbEntity
8
1
62
256
6
ByLayer
370
18
48
1
60
0
100
AcDbEllipse
10
25.4
20
-13.865492
30
0
11
6
21
0
31
0
210
0
220
0
230
1
40
0.984808
41
0.0506632269035736
42
1.5707963267949
0
ELLIPSE
5
C3
100
AcDbEntity
8
1
62
256
6
ByLayer
370
18
48
1
60
0
100
AcDbEllipse
10
69.85
20
-13.865492
30
0
11
6
21
0
31
0
210
0
220
0
230
1
40
0.984808
41
0.0506632629965949
42
1.5707963267949
0
ELLIPSE
5
C4
100
AcDbEntity
8
1
62
256
6
ByLayer
370
18
48
1
60
0
100
AcDbEllipse
10
-25.4
20
-13.865492
30
0
11
6
21
0
31
0
210
0
220
0
230
1
40
0.984808
41
0.0506632107773733
42
1.5707963267949
0
ELLIPSE
5
C5
100
AcDbEntity
8
1
62
256
6
ByLayer
370
18
48
1
60
0
100
AcDbEllipse
10
-25.4
20
-13.227494
30
0
11
-3.91548739108502E-16
21
6.39468736849775
31
0
210
0
220
0
230
-1
40
0.938279
41
1.67101644589332
42
-1.67101644589332
0
ELLIPSE
5
C6
100
AcDbEntity
8
1
62
256
6
ByLayer
370
18
48
1
60
0
100
AcDbEllipse
10
-69.85
20
-13.257722
30
0
11
1.11914809268005E-15
21
-6.09255967131447
31
0
210
0
220
0
230
-1
40
0.984808
41
1.47057620769647
42
1.5707963267949
0
ELLIPSE
5
C7
100
AcDbEntity
8
1
62
256
6
ByLayer
370
18
48
1
60
0
100
AcDbEllipse
10
-25.4
20
-13.257722
30
0
11
1.11914809268005E-15
21
-6.09255967131447
31
0
210
0
220
0
230
-1
40
0.984808
41
1.47057620769647
42
1.5707963267949
0
ELLIPSE
5
C8
100
AcDbEntity
8
1
62
256
6
ByLayer
370
18
48
1
60
0
100
AcDbEllipse
10
25.4
20
-13.257722
30
0
11
1.11914809268005E-15
21
-6.09255967131447
31
0
210
0
220
0
230
-1
40
0.984808
41
1.47057620769647
42
1.5707963267949
0
ELLIPSE
5
C9
100
AcDbEntity
8
1
62
256
6
ByLayer
370
18
48
1
60
0
100
AcDbEllipse
10
69.85
20
-13.257722
30
0
11
1.11914809268005E-15
21
-6.09255967131447
31
0
210
0
220
0
230
-1
40
0.984808
41
1.47057620769647
42
1.5707963267949
0
ELLIPSE
5
CA
100
AcDbEntity
8
1
62
256
6
ByLayer
370
18
48
1
60
0
100
AcDbEllipse
10
69.85
20
-13.865492
30
0
11
6
21
0
31
0
210
0
220
0
230
1
40
0.984808
41
1.5707963267949
42
3.0909293978765
0
ELLIPSE
5
CB
100
AcDbEntity
8
1
62
256
6
ByLayer
370
18
48
1
60
0
100
AcDbEllipse
10
-25.4
20
-13.865492
30
0
11
6
21
0
31
0
210
0
220
0
230
1
40
0.984808
41
1.5707963267949
42
3.0909294427271
0
ELLIPSE
5
CC
100
AcDbEntity
8
1
62
256
6
ByLayer
370
18
48
1
60
0
100
AcDbEllipse
10
25.4
20
-13.865492
30
0
11
6
21
0
31
0
210
0
220
0
230
1
40
0.984808
41
1.5707963267949
42
3.09092942968807
0
POINT
5
6C
100
AcDbEntity
8
80
62
256
6
ByLayer
370
18
48
1
60
0
100
AcDbPoint
10
0
20
0
30
0
39
0
210
0
220
0
230
1
50
360
0
POINT
5
6E
100
AcDbEntity
8
81
62
256
6
ByLayer
370
18
48
1
60
0
100
AcDbPoint
10
208.9
20
0
30
0
39
0
210
0
220
0
230
1
50
360
0
LINE
5
70
100
AcDbEntity
8
1
62
256
6
ByLayer
370
18
48
1
60
0
100
AcDbLine
10
88.9
20
-24.817758
30
0
11
88.9
21
-25.617758
31
0
39
0
210
0
220
0
230
1
0
LINE
5
72
100
AcDbEntity
8
1
62
256
6
ByLayer
370
18
48
1
60
0
100
AcDbLine
10
-88.9
20
-24.817758
30
0
11
-88.9
21
-25.617758
31
0
39
0
210
0
220
0
230
1
0
LINE
5
73
100
AcDbEntity
8
1
62
256
6
ByLayer
370
18
48
1
60
0
100
AcDbLine
10
-88.9
20
-5.117758
30
0
11
-88.9
21
-13.867298
31
0
39
0
210
0
220
0
230
1
0
LINE
5
74
100
AcDbEntity
8
1
62
256
6
ByLayer
370
18
48
1
60
0
100
AcDbLine
10
88.9
20
4.43835
30
0
11
88.9
21
-4.438333
31
0
39
0
210
0
220
0
230
1
0
LINE
5
75
100
AcDbEntity
8
1
62
256
6
ByLayer
370
18
48
1
60
0
100
AcDbLine
10
-88.9
20
4.43835
30
0
11
-88.9
21
-4.438333
31
0
39
0
210
0
220
0
230
1
0
LINE
5
76
100
AcDbEntity
8
1
62
256
6
ByLayer
370
18
48
1
60
0
100
AcDbLine
10
88.9
20
4.43835
30
0
11
-88.9
21
4.43835
31
0
39
0
210
0
220
0
230
1
0
LINE
5
77
100
AcDbEntity
8
1
62
256
6
ByLayer
370
18
48
1
60
0
100
AcDbLine
10
88.9
20
-4.438333
30
0
11
-88.9
21
-4.438333
31
0
39
0
210
0
220
0
230
1
0
LINE
5
78
100
AcDbEntity
8
1
62
256
6
ByLayer
370
18
48
1
60
0
100
AcDbLine
10
88.9
20
-71.167758
30
0
11
88.9
21
-73.667758
31
0
39
0
210
0
220
0
230
1
0
LINE
5
79
100
AcDbEntity
8
1
62
256
6
ByLayer
370
18
48
1
60
0
100
AcDbLine
10
-88.9
20
-73.667758
30
0
11
-88.9
21
-71.167758
31
0
39
0
210
0
220
0
230
1
0
LINE
5
7A
100
AcDbEntity
8
1
62
256
6
ByLayer
370
18
48
1
60
0
100
AcDbLine
10
88.9
20
-73.667758
30
0
11
-88.9
21
-73.667758
31
0
39
0
210
0
220
0
230
1
0
LINE
5
7B
100
AcDbEntity
8
1
62
256
6
ByLayer
370
18
48
1
60
0
100
AcDbLine
10
88.9
20
-25.617758
30
0
11
88.9
21
-71.167758
31
0
39
0
210
0
220
0
230
1
0
LINE
5
7C
100
AcDbEntity
8
1
62
256
6
ByLayer
370
18
48
1
60
0
100
AcDbLine
10
-88.9
20
-25.617758
30
0
11
-88.9
21
-71.167758
31
0
39
0
210
0
220
0
230
1
0
LINE
5
7D
100
AcDbEntity
8
1
62
256
6
ByLayer
370
18
48
1
60
0
100
AcDbLine
10
-88.9
20
-71.167758
30
0
11
88.9
21
-71.167758
31
0
39
0
210
0
220
0
230
1
0
LINE
5
7E
100
AcDbEntity
8
1
62
256
6
ByLayer
370
18
48
1
60
0
100
AcDbLine
10
88.9
20
-25.617758
30
0
11
-88.9
21
-25.617758
31
0
39
0
210
0
220
0
230
1
0
LINE
5
7F
100
AcDbEntity
8
1
62
256
6
ByLayer
370
18
48
1
60
0
100
AcDbLine
10
88.9
20
-13.867298
30
0
11
88.9
21
-24.817758
31
0
39
0
210
0
220
0
230
1
0
LINE
5
80
100
AcDbEntity
8
1
62
256
6
ByLayer
370
18
48
1
60
0
100
AcDbLine
10
-88.9
20
-13.867298
30
0
11
-88.9
21
-24.817758
31
0
39
0
210
0
220
0
230
1
0
LINE
5
81
100
AcDbEntity
8
1
62
256
6
ByLayer
370
18
48
1
60
0
100
AcDbLine
10
88.9
20
-24.817758
30
0
11
-88.9
21
-24.817758
31
0
39
0
210
0
220
0
230
1
0
LINE
5
82
100
AcDbEntity
8
1
62
256
6
ByLayer
370
18
48
1
60
0
100
AcDbLine
10
88.9
20
-5.117758
30
0
11
88.9
21
-13.867298
31
0
39
0
210
0
220
0
230
1
0
LINE
5
83
100
AcDbEntity
8
1
62
256
6
ByLayer
370
18
48
1
60
0
100
AcDbLine
10
88.9
20
-5.117758
30
0
11
-88.9
21
-5.117758
31
0
39
0
210
0
220
0
230
1
0
LINE
5
84
100
AcDbEntity
8
1
62
256
6
ByLayer
370
18
48
1
60
0
100
AcDbLine
10
-75.819893
20
-13.867298
30
0
11
-88.9
21
-13.867298
31
0
39
0
210
0
220
0
230
1
0
LINE
5
85
100
AcDbEntity
8
1
62
256
6
ByLayer
370
18
48
1
60
0
100
AcDbLine
10
-31.369893
20
-13.867298
30
0
11
-63.880107
21
-13.867298
31
0
39
0
210
0
220
0
230
1
0
LINE
5
86
100
AcDbEntity
8
1
62
256
6
ByLayer
370
18
48
1
60
0
100
AcDbLine
10
19.430107
20
-13.867298
30
0
11
-19.430107
21
-13.867298
31
0
39
0
210
0
220
0
230
1
0
LINE
5
87
100
AcDbEntity
8
1
62
256
6
ByLayer
370
18
48
1
60
0
100
AcDbLine
10
63.880107
20
-13.867298
30
0
11
31.369893
21
-13.867298
31
0
39
0
210
0
220
0
230
1
0
LINE
5
88
100
AcDbEntity
8
1
62
256
6
ByLayer
370
18
48
1
60
0
100
AcDbLine
10
88.9
20
-13.867298
30
0
11
75.819893
21
-13.867298
31
0
39
0
210
0
220
0
230
1
0
LINE
5
89
100
AcDbEntity
8
1
62
256
6
ByLayer
370
18
48
1
60
0
100
AcDbLine
10
88.9
20
-4.438333
30
0
11
88.9
21
-5.117758
31
0
39
0
210
0
220
0
230
1
0
LINE
5
8A
100
AcDbEntity
8
1
62
256
6
ByLayer
370
18
48
1
60
0
100
AcDbLine
10
-88.9
20
-4.438333
30
0
11
-88.9
21
-5.117758
31
0
39
0
210
0
220
0
230
1
0
LINE
5
8B
100
AcDbEntity
8
80
62
256
6
ByLayer
370
18
48
1
60
0
100
AcDbLine
10
0
20
0
30
0
11
-92
21
0
31
0
39
0
210
0
220
0
230
1
0
LINE
5
8C
100
AcDbEntity
8
81
62
256
6
ByLayer
370
18
48
1
60
0
100
AcDbLine
10
208.9
20
0
30
0
11
231.12764
21
0
31
0
39
0
210
0
220
0
230
1
0
LINE
5
8D
100
AcDbEntity
8
SK4
62
256
6
ByLayer
370
18
48
0.05
60
0
100
AcDbLine
10
92
20
0
30
0
11
-92
21
0
31
0
39
0
210
0
220
0
230
1
0
LINE
5
8F
100
AcDbEntity
8
4
62
256
6
ByLayer
370
18
48
0.05
60
0
100
AcDbLine
10
88.9
20
9E-06
30
0
11
-88.9
21
9E-06
31
0
39
0
210
0
220
0
230
1
0
MTEXT
5
CD
100
AcDbEntity
8
SK6
62
256
6
ByLayer
370
13
48
1
60
0
100
AcDbMText
10
-12.909443
20
-97.750885
30
0
210
0
220
0
230
1
1
\W0.6803;151.2-5050-93
40
3.5
41
0
44
1.084337
50
0
71
7
72
5
7
iso_b_vert
0
DIMENSION
5
DB
100
AcDbEntity
8
SK2
62
256
6
ByLayer
370
13
48
1
60
0
100
AcDbDimension
2
DimnDraft3D1
10
4.43835
20
123.198069
30
0
11
-38.100888
21
123.198069
31
0
70
32
71
5
72
1
41
1
210
0
220
0
230
1
3
Standard
100
AcDbAlignedDimension
13
-73.667758
23
88.9
33
0
14
4.43835
24
88.9
34
0
50
0
100
AcDbRotatedDimension
1001
ACAD
1000
DSTYLE
1002
{
1070
   279
1070
     0
1070
   172
1070
     1
1070
   173
1070
     1
1070
   340
1005
CE
1070
   271
1070
     1
1070
   272
1070
     2
1070
    77
1070
     1
1070
    73
1070
     0
1070
   171
1070
     3
1070
   274
1070
     4
1070
   177
1070
     7
1070
   176
1070
     7
1070
   178
1070
     7
1070
    78
1070
     8
1070
    48
1040
-0.005
1070
    41
1041
3.5
1070
   147
1041
1.75
1070
    42
1041
0.0
1070
    44
1041
2.0
1070
   140
1041
3.5
1070
   343
1005
0
1070
   344
1005
0
1002
}
0
DIMENSION
5
E5
100
AcDbEntity
8
SK2
62
256
6
ByLayer
370
13
48
1
60
0
100
AcDbDimension
2
DimnDraft3D2
10
4.43835
20
104.760178
30
0
11
-2.97852
21
104.760178
31
0
70
32
71
5
72
1
41
1
210
0
220
0
230
1
3
Standard
100
AcDbAlignedDimension
13
-5.117758
23
88.9
33
0
14
4.43835
24
88.9
34
0
50
0
100
AcDbRotatedDimension
1001
ACAD
1000
DSTYLE
1002
{
1070
   279
1070
     0
1070
   172
1070
     1
1070
   173
1070
     1
1070
   340
1005
CE
1070
   271
1070
     1
1070
   272
1070
     2
1070
    77
1070
     1
1070
    73
1070
     0
1070
   171
1070
     3
1070
   274
1070
     4
1070
   177
1070
     7
1070
   176
1070
     7
1070
   178
1070
     7
1070
    78
1070
     8
1070
    48
1040
-0.005
1070
    41
1041
3.5
1070
   147
1041
1.75
1070
    42
1041
0.0
1070
    44
1041
2.0
1070
   140
1041
3.5
1070
   343
1005
0
1070
   344
1005
0
1002
}
0
DIMENSION
5
EF
100
AcDbEntity
8
SK2
62
256
6
ByLayer
370
13
48
1
60
0
100
AcDbDimension
2
DimnDraft3D3
10
-43.164013
20
88.9
30
0
11
-43.164013
21
-4.771053
31
0
70
32
71
5
72
1
41
1
210
0
220
0
230
1
3
Standard
100
AcDbAlignedDimension
13
25.617758
23
-88.9
33
0
14
25.617758
24
88.9
34
0
50
90
100
AcDbRotatedDimension
1001
ACAD
1000
DSTYLE
1002
{
1070
    74
1070
     0
1070
   279
1070
     0
1070
   172
1070
     1
1070
   173
1070
     1
1070
   340
1005
CE
1070
   271
1070
     1
1070
   272
1070
     2
1070
    77
1070
     1
1070
    73
1070
     0
1070
   171
1070
     3
1070
   274
1070
     4
1070
   177
1070
     7
1070
   176
1070
     7
1070
   178
1070
     7
1070
    78
1070
     8
1070
    48
1040
-0.005
1070
    41
1041
3.5
1070
   147
1041
1.75
1070
    42
1041
0.0
1070
    44
1041
2.0
1070
   140
1041
3.5
1070
   343
1005
0
1070
   344
1005
0
1002
}
0
DIMENSION
5
F9
100
AcDbEntity
8
SK2
62
256
6
ByLayer
370
13
48
1
60
0
100
AcDbDimension
2
DimnDraft3D4
10
-25.617758
20
104.357487
30
0
11
-51.871705
21
104.357487
31
0
70
32
71
5
72
1
41
1
210
0
220
0
230
1
3
Standard
100
AcDbAlignedDimension
13
-73.667758
23
88.9
33
0
14
-25.617758
24
88.9
34
0
50
0
100
AcDbRotatedDimension
1001
ACAD
1000
DSTYLE
1002
{
1070
   279
1070
     0
1070
   172
1070
     1
1070
   173
1070
     1
1070
   340
1005
CE
1070
   271
1070
     1
1070
   272
1070
     2
1070
    77
1070
     1
1070
    73
1070
     0
1070
   171
1070
     3
1070
   274
1070
     4
1070
   177
1070
     7
1070
   176
1070
     7
1070
   178
1070
     7
1070
    78
1070
     8
1070
    48
1040
-0.005
1070
    41
1041
3.5
1070
   147
1041
1.75
1070
    42
1041
0.0
1070
    44
1041
2.0
1070
   140
1041
3.5
1070
   343
1005
0
1070
   344
1005
0
1002
}
0
DIMENSION
5
104
100
AcDbEntity
8
2
62
256
6
ByLayer
370
13
48
1
60
0
100
AcDbDimension
2
DimnDraft3D5
10
-42.469711
20
208.9
30
0
11
-42.469711
21
146.007895
31
0
70
32
71
5
72
1
41
1
210
0
220
0
230
1
3
Standard
100
AcDbAlignedDimension
13
25.617758
23
88.9
33
0
14
0
24
208.9
34
0
50
90
100
AcDbRotatedDimension
1001
ACAD
1000
DSTYLE
1002
{
1070
    74
1070
     0
1070
   279
1070
     0
1070
   172
1070
     1
1070
   173
1070
     1
1070
   340
1005
CE
1070
   271
1070
     1
1070
   272
1070
     2
1070
    77
1070
     1
1070
    73
1070
     0
1070
   171
1070
     3
1070
   274
1070
     4
1070
   177
1070
     7
1070
   176
1070
     7
1070
   178
1070
     7
1070
    78
1070
     8
1070
    48
1040
-0.005
1070
    41
1041
3.5
1070
   147
1041
1.75
1070
    42
1041
0.0
1070
    44
1041
2.0
1070
   140
1041
3.5
1070
   343
1005
0
1070
   344
1005
0
1002
}
0
ENDSEC
0
SECTION
2
OBJECTS
0
DICTIONARY
5
16e
330
0
100
AcDbDictionary
280
0
281
1
3
ACAD_GROUP
350
16f
3
ACAD_MLINESTYLE
350
170
0
DICTIONARY
5
16f
330
0
100
AcDbDictionary
280
0
281
1
0
DICTIONARY
5
170
330
0
100
AcDbDictionary
280
0
281
1
3
Standard
350
18
0
MLINESTYLE
5
18
330
170
100
AcDbMlineStyle
2
Standard
70
0
3

62
256
51
90
52
90
71
2
49
-0.5
62
256
6
ByLayer
49
0.5
62
256
6
ByLayer
0
RASTERVARIABLES
5
15d
330

100
AcDbRasterVariables
90
0
70
1
71
1
72
1
0
ENDSEC
0
EOF
