0
SECTION
2
HEADER
9
$ACADVER
1
AC1015
9
$DWGCODEPAGE
3
ANSI_1252
9
$HANDSEED
5
242
9
$ANGBASE
50
0
9
$ANGDIR
70
0
9
$ATTMODE
70
1
9
$AUNITS
70
0
9
$AUPREC
70
0
9
$CECOLOR
62
256
9
$CELTSCALE
40
1
9
$CELTYPE
6
ByLayer
9
$CELWEIGHT
370
18
9
$CLAYER
8
0
9
$CMLJUST
70
0
9
$CMLSCALE
40
1
9
$CMLSTYLE
2
Standard
9
$DIMSTYLE
2
Standard
9
$TEXTSIZE
40
0.2
9
$TEXTSTYLE
7
Standard
9
$LUNITS
70
2
9
$LUPREC
70
4
9
$EXTNAMES
290
1
9
$INSUNITS
70
4
9
$LTSCALE
40
1
9
$LWDISPLAY
290
1
9
$PDMODE
70
0
9
$PDSIZE
40
0
9
$PLINEGEN
70
0
0
ENDSEC
0
SECTION
2
CLASSES
0
CLASS
1
RASTERVARIABLES
2
AcDbRasterVariables
3
ISM
90
0
280
0
281
0
0
ENDSEC
0
SECTION
2
TABLES
0
TABLE
2
VPORT
5
238
100
AcDbSymbolTable
0
VPORT
5
1
100
AcDbSymbolTableRecord
100
AcDbViewportTableRecord
2
*Active
70
0
10
0
20
0
11
1
21
1
12
-1
22
1
13
0
23
0
14
0.5
24
0.5
15
10
25
10
16
0
26
0
36
1
17
0
27
0
37
0
0
ENDTAB
0
TABLE
2
LTYPE
5
239
100
AcDbSymbolTable
0
LTYPE
5
14
100
AcDbSymbolTableRecord
100
AcDbLinetypeTableRecord
70
0
2
ByBlock
3

72
65
73
0
40
0
0
LTYPE
5
15
100
AcDbSymbolTableRecord
100
AcDbLinetypeTableRecord
70
0
2
ByLayer
3

72
65
73
0
40
0
0
LTYPE
5
16
100
AcDbSymbolTableRecord
100
AcDbLinetypeTableRecord
70
0
2
CONTINUOUS
3
Solid line
72
65
73
0
40
0
0
LTYPE
5
6A
100
AcDbSymbolTableRecord
100
AcDbLinetypeTableRecord
70
0
2
CENTER
3
____ _ ____ _ ____ _ ____
72
65
73
4
40
47.5
49
22
74
0
49
-8.5
74
0
49
8.5
74
0
49
-8.5
74
0
0
LTYPE
5
6B
100
AcDbSymbolTableRecord
100
AcDbLinetypeTableRecord
70
0
2
DASHED
3
__ __ __ __ __ __ __ __ __
72
65
73
2
40
25.72
49
12.86
74
0
49
-12.86
74
0
0
ENDTAB
0
TABLE
2
LAYER
5
23a
100
AcDbSymbolTable
0
LAYER
5
10
100
AcDbSymbolTableRecord
100
AcDbLayerTableRecord
2
0
70
0
62
7
6
CONTINUOUS
290
1
370
-3
390
0
0
LAYER
5
6D
100
AcDbSymbolTableRecord
100
AcDbLayerTableRecord
2
80
70
0
62
-6
6
CONTINUOUS
290
1
370
-3
390
0
0
LAYER
5
6F
100
AcDbSymbolTableRecord
100
AcDbLayerTableRecord
2
81
70
0
62
-3
6
CONTINUOUS
290
1
370
-3
390
0
0
LAYER
5
78
100
AcDbSymbolTableRecord
100
AcDbLayerTableRecord
2
1
70
0
62
4
6
CONTINUOUS
290
1
370
-3
390
0
0
LAYER
5
FE
100
AcDbSymbolTableRecord
100
AcDbLayerTableRecord
2
4
70
0
62
-2
6
CENTER
290
1
370
-3
390
0
0
LAYER
5
174
100
AcDbSymbolTableRecord
100
AcDbLayerTableRecord
2
2
70
0
62
7
6
CONTINUOUS
290
1
370
-3
390
0
0
LAYER
5
221
100
AcDbSymbolTableRecord
100
AcDbLayerTableRecord
2
SK3
70
0
62
1
6
DASHED
290
1
370
-3
390
0
0
LAYER
5
222
100
AcDbSymbolTableRecord
100
AcDbLayerTableRecord
2
SK1
70
0
62
4
6
CONTINUOUS
290
1
370
-3
390
0
0
LAYER
5
223
100
AcDbSymbolTableRecord
100
AcDbLayerTableRecord
2
SK4
70
0
62
2
6
CENTER
290
1
370
-3
390
0
0
LAYER
5
224
100
AcDbSymbolTableRecord
100
AcDbLayerTableRecord
2
SK6
70
0
62
5
6
CONTINUOUS
290
1
370
-3
390
0
0
LAYER
5
225
100
AcDbSymbolTableRecord
100
AcDbLayerTableRecord
2
SK2
70
0
62
7
6
CONTINUOUS
290
1
370
-3
390
0
0
ENDTAB
0
TABLE
2
STYLE
5
23b
100
AcDbSymbolTable
0
STYLE
5
11
100
AcDbSymbolTableRecord
100
AcDbTextStyleTableRecord
2
Standard
3
txt
70
0
71
0
40
0
41
1
42
0
50
0
0
STYLE
5
12F
100
AcDbSymbolTableRecord
100
AcDbTextStyleTableRecord
2
iso_b_vert
3
simplex.shx
70
0
71
0
40
0
41
1
42
0
50
0
0
STYLE
5
130
100
AcDbSymbolTableRecord
100
AcDbTextStyleTableRecord
2
DWGDirectTextStyle
3
simplex
70
0
71
0
40
0
41
1
42
0
50
0
0
ENDTAB
0
TABLE
2
DIMSTYLE
5
23c
100
AcDbSymbolTable
100
AcDbDimStyleTable
0
DIMSTYLE
105
27
100
AcDbSymbolTableRecord
100
AcDbDimStyleTableRecord
2
Standard
70
0
3
<>
41
0.18
42
0.0625
44
0.18
140
0.18
147
0.09
73
0
74
0
77
1
271
2
275
0
278
52
280
0
340
11
0
ENDTAB
0
TABLE
2
VIEW
5
23d
100
AcDbSymbolTable
0
ENDTAB
0
TABLE
2
UCS
5
23e
100
AcDbSymbolTable
0
ENDTAB
0
TABLE
2
APPID
5
23f
100
AcDbSymbolTable
0
APPID
5
12
100
AcDbSymbolTableRecord
100
AcDbRegAppTableRecord
2
ACAD
70
0
0
ENDTAB
0
TABLE
2
BLOCK_RECORD
5
240
100
AcDbSymbolTable
0
BLOCK_RECORD
5
1F
100
AcDbSymbolTableRecord
100
AcDbBlockTableRecord
2
*Model_Space
340
0
70
0
0
BLOCK_RECORD
5
1B
100
AcDbSymbolTableRecord
100
AcDbBlockTableRecord
2
*Paper_Space
340
0
70
0
0
BLOCK_RECORD
5
23
100
AcDbSymbolTableRecord
100
AcDbBlockTableRecord
2
*Paper_Space0
340
0
70
0
0
BLOCK_RECORD
5
132
100
AcDbSymbolTableRecord
100
AcDbBlockTableRecord
2
DimnDraft3D1
340
0
70
0
0
BLOCK_RECORD
5
141
100
AcDbSymbolTableRecord
100
AcDbBlockTableRecord
2
_CLOSED
340
0
70
0
0
BLOCK_RECORD
5
148
100
AcDbSymbolTableRecord
100
AcDbBlockTableRecord
2
DimnDraft3D2
340
0
70
0
0
BLOCK_RECORD
5
156
100
AcDbSymbolTableRecord
100
AcDbBlockTableRecord
2
DimnDraft3D3
340
0
70
0
0
BLOCK_RECORD
5
164
100
AcDbSymbolTableRecord
100
AcDbBlockTableRecord
2
DimnDraft3D4
340
0
70
0
0
BLOCK_RECORD
5
172
100
AcDbSymbolTableRecord
100
AcDbBlockTableRecord
2
DimnDraft3D5
340
0
70
0
0
BLOCK_RECORD
5
181
100
AcDbSymbolTableRecord
100
AcDbBlockTableRecord
2
DimnDraft3D6
340
0
70
0
0
BLOCK_RECORD
5
18F
100
AcDbSymbolTableRecord
100
AcDbBlockTableRecord
2
DimnDraft3D7
340
0
70
0
0
BLOCK_RECORD
5
19D
100
AcDbSymbolTableRecord
100
AcDbBlockTableRecord
2
DimnDraft3D8
340
0
70
0
0
BLOCK_RECORD
5
1AB
100
AcDbSymbolTableRecord
100
AcDbBlockTableRecord
2
DimnDraft3D9
340
0
70
0
0
BLOCK_RECORD
5
1B9
100
AcDbSymbolTableRecord
100
AcDbBlockTableRecord
2
DimnDraft3D10
340
0
70
0
0
ENDTAB
0
ENDSEC
0
SECTION
2
BLOCKS
0
BLOCK
5
20
100
AcDbEntity
8
0
100
AcDbBlockBegin
2
*Model_Space
70
0
10
0
20
0
30
0
3
*Model_Space
0
ENDBLK
5
21
100
AcDbEntity
8
0
100
AcDbBlockEnd
0
BLOCK
5
1C
100
AcDbEntity
8
0
100
AcDbBlockBegin
2
*Paper_Space
70
0
10
0
20
0
30
0
3
*Paper_Space
0
ENDBLK
5
1D
100
AcDbEntity
8
0
100
AcDbBlockEnd
0
BLOCK
5
24
100
AcDbEntity
8
0
100
AcDbBlockBegin
2
*Paper_Space0
70
0
10
0
20
0
30
0
3
*Paper_Space0
0
ENDBLK
5
25
100
AcDbEntity
8
0
100
AcDbBlockEnd
0
BLOCK
5
13E
100
AcDbEntity
8
0
100
AcDbBlockBegin
2
DimnDraft3D1
70
0
10
0
20
0
30
0
3
DimnDraft3D1
0
MTEXT
5
133
100
AcDbEntity
8
SK2
62
256
6
ByLayer
370
18
48
1
60
0
100
AcDbMText
10
-26.042092
20
76.081642
30
0
210
0
220
0
230
1
1
\W0.6337;50
40
3
41
0
44
1.084337
50
0
71
7
72
5
7
iso_b_vert
0
LINE
5
135
100
AcDbEntity
8
SK2
62
256
6
ByLayer
370
13
48
1
60
0
100
AcDbLine
10
-49.999987
20
35.097502
30
0
11
-49.999987
21
78.331642
31
0
39
0
210
0
220
0
230
1
0
LINE
5
136
100
AcDbEntity
8
SK2
62
256
6
ByLayer
370
13
48
1
60
0
100
AcDbLine
10
1.3E-05
20
50.764971
30
0
11
1.3E-05
21
78.331642
31
0
39
0
210
0
220
0
230
1
0
LINE
5
137
100
AcDbEntity
8
SK2
62
256
6
ByLayer
370
13
48
1
60
0
100
AcDbLine
10
-49.999987
20
75.331642
30
0
11
1.3E-05
21
75.331642
31
0
39
0
210
0
220
0
230
1
0
LINE
5
138
100
AcDbEntity
8
SK2
62
256
6
ByLayer
370
13
48
1
60
0
100
AcDbLine
10
-49.999987
20
75.331642
30
0
11
-46.999988
21
75.831642
31
0
39
0
210
0
220
0
230
1
0
LINE
5
139
100
AcDbEntity
8
SK2
62
256
6
ByLayer
370
13
48
1
60
0
100
AcDbLine
10
-49.999987
20
75.331642
30
0
11
-46.999985
21
74.831642
31
0
39
0
210
0
220
0
230
1
0
LINE
5
13A
100
AcDbEntity
8
SK2
62
256
6
ByLayer
370
13
48
1
60
0
100
AcDbLine
10
-46.999988
20
75.831642
30
0
11
-46.999985
21
74.831642
31
0
39
0
210
0
220
0
230
1
0
LINE
5
13B
100
AcDbEntity
8
SK2
62
256
6
ByLayer
370
13
48
1
60
0
100
AcDbLine
10
1.3E-05
20
75.331642
30
0
11
-2.999985
21
74.831642
31
0
39
0
210
0
220
0
230
1
0
LINE
5
13C
100
AcDbEntity
8
SK2
62
256
6
ByLayer
370
13
48
1
60
0
100
AcDbLine
10
1.3E-05
20
75.331642
30
0
11
-2.999988
21
75.831642
31
0
39
0
210
0
220
0
230
1
0
LINE
5
13D
100
AcDbEntity
8
SK2
62
256
6
ByLayer
370
13
48
1
60
0
100
AcDbLine
10
-2.999985
20
74.831642
30
0
11
-2.999988
21
75.831642
31
0
39
0
210
0
220
0
230
1
0
ENDBLK
5
13F
100
AcDbEntity
8
0
100
AcDbBlockEnd
0
BLOCK
5
142
100
AcDbEntity
8
0
100
AcDbBlockBegin
2
_CLOSED
70
0
10
0
20
0
30
0
3
_CLOSED
0
LINE
5
144
100
AcDbEntity
8
0
62
256
6
ByLayer
370
-2
48
1
60
0
100
AcDbLine
10
-1
20
0.166667
30
0
11
0
21
0
31
0
39
0
210
0
220
0
230
1
0
LINE
5
145
100
AcDbEntity
8
0
62
256
6
ByLayer
370
-2
48
1
60
0
100
AcDbLine
10
0
20
0
30
0
11
-1
21
-0.166667
31
0
39
0
210
0
220
0
230
1
0
LINE
5
146
100
AcDbEntity
8
0
62
256
6
ByLayer
370
-2
48
1
60
0
100
AcDbLine
10
-1
20
0.166667
30
0
11
-1
21
-0.166667
31
0
39
0
210
0
220
0
230
1
0
LINE
5
147
100
AcDbEntity
8
0
62
256
6
ByLayer
370
-2
48
1
60
0
100
AcDbLine
10
0
20
0
30
0
11
-1
21
0
31
0
39
0
210
0
220
0
230
1
0
ENDBLK
5
143
100
AcDbEntity
8
0
100
AcDbBlockEnd
0
BLOCK
5
153
100
AcDbEntity
8
0
100
AcDbBlockBegin
2
DimnDraft3D2
70
0
10
0
20
0
30
0
3
DimnDraft3D2
0
MTEXT
5
149
100
AcDbEntity
8
SK2
62
256
6
ByLayer
370
18
48
1
60
0
100
AcDbMText
10
-76.528472
20
-4.148684
30
0
210
0
220
0
230
1
1
\W0.8018;%%c 100
40
3
41
0
44
1.084337
50
90
71
7
72
5
7
iso_b_vert
0
LINE
5
14A
100
AcDbEntity
8
SK2
62
256
6
ByLayer
370
13
48
1
60
0
100
AcDbLine
10
-0.764958
20
-50
30
0
11
-78.778472
21
-50
31
0
39
0
210
0
220
0
230
1
0
LINE
5
14B
100
AcDbEntity
8
SK2
62
256
6
ByLayer
370
13
48
1
60
0
100
AcDbLine
10
-0.764958
20
50
30
0
11
-78.778472
21
50
31
0
39
0
210
0
220
0
230
1
0
LINE
5
14C
100
AcDbEntity
8
SK2
62
256
6
ByLayer
370
13
48
1
60
0
100
AcDbLine
10
-75.778472
20
-50
30
0
11
-75.778472
21
50
31
0
39
0
210
0
220
0
230
1
0
LINE
5
14D
100
AcDbEntity
8
SK2
62
256
6
ByLayer
370
13
48
1
60
0
100
AcDbLine
10
-75.778472
20
-50
30
0
11
-76.307453
21
-47.000002
31
0
39
0
210
0
220
0
230
1
0
LINE
5
14E
100
AcDbEntity
8
SK2
62
256
6
ByLayer
370
13
48
1
60
0
100
AcDbLine
10
-75.778472
20
-50
30
0
11
-75.249492
21
-46.999998
31
0
39
0
210
0
220
0
230
1
0
LINE
5
14F
100
AcDbEntity
8
SK2
62
256
6
ByLayer
370
13
48
1
60
0
100
AcDbLine
10
-76.307453
20
-47.000002
30
0
11
-75.249492
21
-46.999998
31
0
39
0
210
0
220
0
230
1
0
LINE
5
150
100
AcDbEntity
8
SK2
62
256
6
ByLayer
370
13
48
1
60
0
100
AcDbLine
10
-75.778472
20
50
30
0
11
-75.249492
21
47.000002
31
0
39
0
210
0
220
0
230
1
0
LINE
5
151
100
AcDbEntity
8
SK2
62
256
6
ByLayer
370
13
48
1
60
0
100
AcDbLine
10
-75.778472
20
50
30
0
11
-76.307453
21
46.999998
31
0
39
0
210
0
220
0
230
1
0
LINE
5
152
100
AcDbEntity
8
SK2
62
256
6
ByLayer
370
13
48
1
60
0
100
AcDbLine
10
-75.249492
20
47.000002
30
0
11
-76.307453
21
46.999998
31
0
39
0
210
0
220
0
230
1
0
ENDBLK
5
154
100
AcDbEntity
8
0
100
AcDbBlockEnd
0
BLOCK
5
161
100
AcDbEntity
8
0
100
AcDbBlockBegin
2
DimnDraft3D3
70
0
10
0
20
0
30
0
3
DimnDraft3D3
0
MTEXT
5
157
100
AcDbEntity
8
SK2
62
256
6
ByLayer
370
18
48
1
60
0
100
AcDbMText
10
-65.597264
20
-3.402632
30
0
210
0
220
0
230
1
1
\W0.8320;%%c 75
40
3
41
0
44
1.084337
50
90
71
7
72
5
7
iso_b_vert
0
LINE
5
158
100
AcDbEntity
8
SK2
62
256
6
ByLayer
370
13
48
1
60
0
100
AcDbLine
10
-11.499987
20
-37.5
30
0
11
-67.847264
21
-37.5
31
0
39
0
210
0
220
0
230
1
0
LINE
5
159
100
AcDbEntity
8
SK2
62
256
6
ByLayer
370
13
48
1
60
0
100
AcDbLine
10
-11.499987
20
37.5
30
0
11
-67.847264
21
37.5
31
0
39
0
210
0
220
0
230
1
0
LINE
5
15A
100
AcDbEntity
8
SK2
62
256
6
ByLayer
370
13
48
1
60
0
100
AcDbLine
10
-64.847264
20
-37.5
30
0
11
-64.847264
21
37.5
31
0
39
0
210
0
220
0
230
1
0
LINE
5
15B
100
AcDbEntity
8
SK2
62
256
6
ByLayer
370
13
48
1
60
0
100
AcDbLine
10
-64.847264
20
-37.5
30
0
11
-65.376245
21
-34.500002
31
0
39
0
210
0
220
0
230
1
0
LINE
5
15C
100
AcDbEntity
8
SK2
62
256
6
ByLayer
370
13
48
1
60
0
100
AcDbLine
10
-64.847264
20
-37.5
30
0
11
-64.318283
21
-34.499998
31
0
39
0
210
0
220
0
230
1
0
LINE
5
15D
100
AcDbEntity
8
SK2
62
256
6
ByLayer
370
13
48
1
60
0
100
AcDbLine
10
-65.376245
20
-34.500002
30
0
11
-64.318283
21
-34.499998
31
0
39
0
210
0
220
0
230
1
0
LINE
5
15E
100
AcDbEntity
8
SK2
62
256
6
ByLayer
370
13
48
1
60
0
100
AcDbLine
10
-64.847264
20
37.5
30
0
11
-64.318283
21
34.500002
31
0
39
0
210
0
220
0
230
1
0
LINE
5
15F
100
AcDbEntity
8
SK2
62
256
6
ByLayer
370
13
48
1
60
0
100
AcDbLine
10
-64.847264
20
37.5
30
0
11
-65.376245
21
34.499998
31
0
39
0
210
0
220
0
230
1
0
LINE
5
160
100
AcDbEntity
8
SK2
62
256
6
ByLayer
370
13
48
1
60
0
100
AcDbLine
10
-64.318283
20
34.500002
30
0
11
-65.376245
21
34.499998
31
0
39
0
210
0
220
0
230
1
0
ENDBLK
5
162
100
AcDbEntity
8
0
100
AcDbBlockEnd
0
BLOCK
5
16F
100
AcDbEntity
8
0
100
AcDbBlockBegin
2
DimnDraft3D4
70
0
10
0
20
0
30
0
3
DimnDraft3D4
0
MTEXT
5
165
100
AcDbEntity
8
SK2
62
256
6
ByLayer
370
18
48
1
60
0
100
AcDbMText
10
43.997382
20
99.938877
30
0
210
0
220
0
230
1
1
\W0.6170;90
40
3
41
0
44
1.084337
50
0
71
7
72
5
7
iso_b_vert
0
LINE
5
166
100
AcDbEntity
8
SK2
62
256
6
ByLayer
370
13
48
1
60
0
100
AcDbLine
10
1.3E-05
20
50.764971
30
0
11
1.3E-05
21
102.188877
31
0
39
0
210
0
220
0
230
1
0
LINE
5
167
100
AcDbEntity
8
SK2
62
256
6
ByLayer
370
13
48
1
60
0
100
AcDbLine
10
90.000013
20
37.499987
30
0
11
90.000013
21
102.188877
31
0
39
0
210
0
220
0
230
1
0
LINE
5
168
100
AcDbEntity
8
SK2
62
256
6
ByLayer
370
13
48
1
60
0
100
AcDbLine
10
1.3E-05
20
99.188877
30
0
11
90.000013
21
99.188877
31
0
39
0
210
0
220
0
230
1
0
LINE
5
169
100
AcDbEntity
8
SK2
62
256
6
ByLayer
370
13
48
1
60
0
100
AcDbLine
10
1.3E-05
20
99.188877
30
0
11
3.000012
21
99.717858
31
0
39
0
210
0
220
0
230
1
0
LINE
5
16A
100
AcDbEntity
8
SK2
62
256
6
ByLayer
370
13
48
1
60
0
100
AcDbLine
10
1.3E-05
20
99.188877
30
0
11
3.000015
21
98.659896
31
0
39
0
210
0
220
0
230
1
0
LINE
5
16B
100
AcDbEntity
8
SK2
62
256
6
ByLayer
370
13
48
1
60
0
100
AcDbLine
10
3.000012
20
99.717858
30
0
11
3.000015
21
98.659896
31
0
39
0
210
0
220
0
230
1
0
LINE
5
16C
100
AcDbEntity
8
SK2
62
256
6
ByLayer
370
13
48
1
60
0
100
AcDbLine
10
90.000013
20
99.188877
30
0
11
87.000015
21
98.659896
31
0
39
0
210
0
220
0
230
1
0
LINE
5
16D
100
AcDbEntity
8
SK2
62
256
6
ByLayer
370
13
48
1
60
0
100
AcDbLine
10
90.000013
20
99.188877
30
0
11
87.000012
21
99.717858
31
0
39
0
210
0
220
0
230
1
0
LINE
5
16E
100
AcDbEntity
8
SK2
62
256
6
ByLayer
370
13
48
1
60
0
100
AcDbLine
10
87.000015
20
98.659896
30
0
11
87.000012
21
99.717858
31
0
39
0
210
0
220
0
230
1
0
ENDBLK
5
170
100
AcDbEntity
8
0
100
AcDbBlockEnd
0
BLOCK
5
17E
100
AcDbEntity
8
0
100
AcDbBlockBegin
2
DimnDraft3D5
70
0
10
0
20
0
30
0
3
DimnDraft3D5
0
MTEXT
5
173
100
AcDbEntity
8
2
62
256
6
ByLayer
370
18
48
1
60
0
100
AcDbMText
10
31.497375
20
87.608277
30
0
210
0
220
0
230
1
1
\W0.6170;65
40
3
41
0
44
1.084337
50
0
71
7
72
5
7
iso_b_vert
0
LINE
5
175
100
AcDbEntity
8
2
62
256
6
ByLayer
370
13
48
1
60
0
100
AcDbLine
10
1.3E-05
20
50.764971
30
0
11
1.3E-05
21
89.858277
31
0
39
0
210
0
220
0
230
1
0
LINE
5
176
100
AcDbEntity
8
2
62
256
6
ByLayer
370
13
48
1
60
0
100
AcDbLine
10
65
20
32.999987
30
0
11
65
21
89.858277
31
0
39
0
210
0
220
0
230
1
0
LINE
5
177
100
AcDbEntity
8
2
62
256
6
ByLayer
370
13
48
1
60
0
100
AcDbLine
10
1.3E-05
20
86.858277
30
0
11
65
21
86.858277
31
0
39
0
210
0
220
0
230
1
0
LINE
5
178
100
AcDbEntity
8
2
62
256
6
ByLayer
370
13
48
1
60
0
100
AcDbLine
10
1.3E-05
20
86.858277
30
0
11
3.000012
21
87.387258
31
0
39
0
210
0
220
0
230
1
0
LINE
5
179
100
AcDbEntity
8
2
62
256
6
ByLayer
370
13
48
1
60
0
100
AcDbLine
10
1.3E-05
20
86.858277
30
0
11
3.000015
21
86.329296
31
0
39
0
210
0
220
0
230
1
0
LINE
5
17A
100
AcDbEntity
8
2
62
256
6
ByLayer
370
13
48
1
60
0
100
AcDbLine
10
3.000012
20
87.387258
30
0
11
3.000015
21
86.329296
31
0
39
0
210
0
220
0
230
1
0
LINE
5
17B
100
AcDbEntity
8
2
62
256
6
ByLayer
370
13
48
1
60
0
100
AcDbLine
10
65
20
86.858277
30
0
11
62.000002
21
86.329296
31
0
39
0
210
0
220
0
230
1
0
LINE
5
17C
100
AcDbEntity
8
2
62
256
6
ByLayer
370
13
48
1
60
0
100
AcDbLine
10
65
20
86.858277
30
0
11
61.999998
21
87.387258
31
0
39
0
210
0
220
0
230
1
0
LINE
5
17D
100
AcDbEntity
8
2
62
256
6
ByLayer
370
13
48
1
60
0
100
AcDbLine
10
62.000002
20
86.329296
30
0
11
61.999998
21
87.387258
31
0
39
0
210
0
220
0
230
1
0
ENDBLK
5
17F
100
AcDbEntity
8
0
100
AcDbBlockEnd
0
BLOCK
5
18C
100
AcDbEntity
8
0
100
AcDbBlockBegin
2
DimnDraft3D6
70
0
10
0
20
0
30
0
3
DimnDraft3D6
0
MTEXT
5
182
100
AcDbEntity
8
SK2
62
256
6
ByLayer
370
18
48
1
60
0
100
AcDbMText
10
106.987402
20
13.432888
30
0
210
0
220
0
230
1
1
\W0.6576;31.5
40
3
41
0
44
1.084337
50
90
71
7
72
5
7
iso_b_vert
0
LINE
5
183
100
AcDbEntity
8
SK2
62
256
6
ByLayer
370
13
48
1
60
0
100
AcDbLine
10
79.500013
20
31.499987
30
0
11
110.737402
21
31.499987
31
0
39
0
210
0
220
0
230
1
0
LINE
5
184
100
AcDbEntity
8
SK2
62
256
6
ByLayer
370
13
48
1
60
0
100
AcDbLine
10
96.188134
20
0
30
0
11
110.737402
21
0
31
0
39
0
210
0
220
0
230
1
0
LINE
5
185
100
AcDbEntity
8
SK2
62
256
6
ByLayer
370
13
48
1
60
0
100
AcDbLine
10
107.737402
20
31.499987
30
0
11
107.737402
21
0
31
0
39
0
210
0
220
0
230
1
0
LINE
5
186
100
AcDbEntity
8
SK2
62
256
6
ByLayer
370
13
48
1
60
0
100
AcDbLine
10
107.737402
20
31.499987
30
0
11
108.266383
21
28.499988
31
0
39
0
210
0
220
0
230
1
0
LINE
5
187
100
AcDbEntity
8
SK2
62
256
6
ByLayer
370
13
48
1
60
0
100
AcDbLine
10
107.737402
20
31.499987
30
0
11
107.208421
21
28.499985
31
0
39
0
210
0
220
0
230
1
0
LINE
5
188
100
AcDbEntity
8
SK2
62
256
6
ByLayer
370
13
48
1
60
0
100
AcDbLine
10
108.266383
20
28.499988
30
0
11
107.208421
21
28.499985
31
0
39
0
210
0
220
0
230
1
0
LINE
5
189
100
AcDbEntity
8
SK2
62
256
6
ByLayer
370
13
48
1
60
0
100
AcDbLine
10
107.737402
20
0
30
0
11
107.208421
21
2.999998
31
0
39
0
210
0
220
0
230
1
0
LINE
5
18A
100
AcDbEntity
8
SK2
62
256
6
ByLayer
370
13
48
1
60
0
100
AcDbLine
10
107.737402
20
0
30
0
11
108.266383
21
3.000002
31
0
39
0
210
0
220
0
230
1
0
LINE
5
18B
100
AcDbEntity
8
SK2
62
256
6
ByLayer
370
13
48
1
60
0
100
AcDbLine
10
107.208421
20
2.999998
30
0
11
108.266383
21
3.000002
31
0
39
0
210
0
220
0
230
1
0
ENDBLK
5
18D
100
AcDbEntity
8
0
100
AcDbBlockEnd
0
BLOCK
5
19A
100
AcDbEntity
8
0
100
AcDbBlockBegin
2
DimnDraft3D7
70
0
10
0
20
0
30
0
3
DimnDraft3D7
0
MTEXT
5
190
100
AcDbEntity
8
SK2
62
256
6
ByLayer
370
18
48
1
60
0
100
AcDbMText
10
106.987402
20
-18.067112
30
0
210
0
220
0
230
1
1
\W0.6576;31.5
40
3
41
0
44
1.084337
50
90
71
7
72
5
7
iso_b_vert
0
LINE
5
191
100
AcDbEntity
8
SK2
62
256
6
ByLayer
370
13
48
1
60
0
100
AcDbLine
10
96.188134
20
0
30
0
11
110.737402
21
0
31
0
39
0
210
0
220
0
230
1
0
LINE
5
192
100
AcDbEntity
8
SK2
62
256
6
ByLayer
370
13
48
1
60
0
100
AcDbLine
10
79.500013
20
-31.500013
30
0
11
110.737402
21
-31.500013
31
0
39
0
210
0
220
0
230
1
0
LINE
5
193
100
AcDbEntity
8
SK2
62
256
6
ByLayer
370
13
48
1
60
0
100
AcDbLine
10
107.737402
20
0
30
0
11
107.737402
21
-31.500013
31
0
39
0
210
0
220
0
230
1
0
LINE
5
194
100
AcDbEntity
8
SK2
62
256
6
ByLayer
370
13
48
1
60
0
100
AcDbLine
10
107.737402
20
0
30
0
11
108.266383
21
-2.999998
31
0
39
0
210
0
220
0
230
1
0
LINE
5
195
100
AcDbEntity
8
SK2
62
256
6
ByLayer
370
13
48
1
60
0
100
AcDbLine
10
107.737402
20
0
30
0
11
107.208421
21
-3.000002
31
0
39
0
210
0
220
0
230
1
0
LINE
5
196
100
AcDbEntity
8
SK2
62
256
6
ByLayer
370
13
48
1
60
0
100
AcDbLine
10
108.266383
20
-2.999998
30
0
11
107.208421
21
-3.000002
31
0
39
0
210
0
220
0
230
1
0
LINE
5
197
100
AcDbEntity
8
SK2
62
256
6
ByLayer
370
13
48
1
60
0
100
AcDbLine
10
107.737402
20
-31.500013
30
0
11
107.208421
21
-28.500015
31
0
39
0
210
0
220
0
230
1
0
LINE
5
198
100
AcDbEntity
8
SK2
62
256
6
ByLayer
370
13
48
1
60
0
100
AcDbLine
10
107.737402
20
-31.500013
30
0
11
108.266383
21
-28.500012
31
0
39
0
210
0
220
0
230
1
0
LINE
5
199
100
AcDbEntity
8
SK2
62
256
6
ByLayer
370
13
48
1
60
0
100
AcDbLine
10
107.208421
20
-28.500015
30
0
11
108.266383
21
-28.500012
31
0
39
0
210
0
220
0
230
1
0
ENDBLK
5
19B
100
AcDbEntity
8
0
100
AcDbBlockEnd
0
BLOCK
5
1A8
100
AcDbEntity
8
0
100
AcDbBlockBegin
2
DimnDraft3D8
70
0
10
0
20
0
30
0
3
DimnDraft3D8
0
MTEXT
5
19E
100
AcDbEntity
8
SK2
62
256
6
ByLayer
370
18
48
1
60
0
100
AcDbMText
10
120.663164
20
17.997362
30
0
210
0
220
0
230
1
1
\W0.6170;38
40
3
41
0
44
1.084337
50
90
71
7
72
5
7
iso_b_vert
0
LINE
5
19F
100
AcDbEntity
8
SK2
62
256
6
ByLayer
370
13
48
1
60
0
100
AcDbLine
10
89.500013
20
37.999987
30
0
11
124.413164
21
37.999987
31
0
39
0
210
0
220
0
230
1
0
LINE
5
1A0
100
AcDbEntity
8
SK2
62
256
6
ByLayer
370
13
48
1
60
0
100
AcDbLine
10
96.188134
20
0
30
0
11
124.413164
21
0
31
0
39
0
210
0
220
0
230
1
0
LINE
5
1A1
100
AcDbEntity
8
SK2
62
256
6
ByLayer
370
13
48
1
60
0
100
AcDbLine
10
121.413164
20
37.999987
30
0
11
121.413164
21
0
31
0
39
0
210
0
220
0
230
1
0
LINE
5
1A2
100
AcDbEntity
8
SK2
62
256
6
ByLayer
370
13
48
1
60
0
100
AcDbLine
10
121.413164
20
37.999987
30
0
11
121.942145
21
34.999988
31
0
39
0
210
0
220
0
230
1
0
LINE
5
1A3
100
AcDbEntity
8
SK2
62
256
6
ByLayer
370
13
48
1
60
0
100
AcDbLine
10
121.413164
20
37.999987
30
0
11
120.884183
21
34.999985
31
0
39
0
210
0
220
0
230
1
0
LINE
5
1A4
100
AcDbEntity
8
SK2
62
256
6
ByLayer
370
13
48
1
60
0
100
AcDbLine
10
121.942145
20
34.999988
30
0
11
120.884183
21
34.999985
31
0
39
0
210
0
220
0
230
1
0
LINE
5
1A5
100
AcDbEntity
8
SK2
62
256
6
ByLayer
370
13
48
1
60
0
100
AcDbLine
10
121.413164
20
0
30
0
11
120.884183
21
2.999998
31
0
39
0
210
0
220
0
230
1
0
LINE
5
1A6
100
AcDbEntity
8
SK2
62
256
6
ByLayer
370
13
48
1
60
0
100
AcDbLine
10
121.413164
20
0
30
0
11
121.942145
21
3.000002
31
0
39
0
210
0
220
0
230
1
0
LINE
5
1A7
100
AcDbEntity
8
SK2
62
256
6
ByLayer
370
13
48
1
60
0
100
AcDbLine
10
120.884183
20
2.999998
30
0
11
121.942145
21
3.000002
31
0
39
0
210
0
220
0
230
1
0
ENDBLK
5
1A9
100
AcDbEntity
8
0
100
AcDbBlockEnd
0
BLOCK
5
1B6
100
AcDbEntity
8
0
100
AcDbBlockBegin
2
DimnDraft3D9
70
0
10
0
20
0
30
0
3
DimnDraft3D9
0
MTEXT
5
1AC
100
AcDbEntity
8
SK2
62
256
6
ByLayer
370
18
48
1
60
0
100
AcDbMText
10
120.663164
20
-20.002638
30
0
210
0
220
0
230
1
1
\W0.6170;38
40
3
41
0
44
1.084337
50
90
71
7
72
5
7
iso_b_vert
0
LINE
5
1AD
100
AcDbEntity
8
SK2
62
256
6
ByLayer
370
13
48
1
60
0
100
AcDbLine
10
89.500013
20
-38.000013
30
0
11
124.413164
21
-38.000013
31
0
39
0
210
0
220
0
230
1
0
LINE
5
1AE
100
AcDbEntity
8
SK2
62
256
6
ByLayer
370
13
48
1
60
0
100
AcDbLine
10
96.188134
20
0
30
0
11
124.413164
21
0
31
0
39
0
210
0
220
0
230
1
0
LINE
5
1AF
100
AcDbEntity
8
SK2
62
256
6
ByLayer
370
13
48
1
60
0
100
AcDbLine
10
121.413164
20
-38.000013
30
0
11
121.413164
21
0
31
0
39
0
210
0
220
0
230
1
0
LINE
5
1B0
100
AcDbEntity
8
SK2
62
256
6
ByLayer
370
13
48
1
60
0
100
AcDbLine
10
121.413164
20
-38.000013
30
0
11
120.884183
21
-35.000015
31
0
39
0
210
0
220
0
230
1
0
LINE
5
1B1
100
AcDbEntity
8
SK2
62
256
6
ByLayer
370
13
48
1
60
0
100
AcDbLine
10
121.413164
20
-38.000013
30
0
11
121.942145
21
-35.000012
31
0
39
0
210
0
220
0
230
1
0
LINE
5
1B2
100
AcDbEntity
8
SK2
62
256
6
ByLayer
370
13
48
1
60
0
100
AcDbLine
10
120.884183
20
-35.000015
30
0
11
121.942145
21
-35.000012
31
0
39
0
210
0
220
0
230
1
0
LINE
5
1B3
100
AcDbEntity
8
SK2
62
256
6
ByLayer
370
13
48
1
60
0
100
AcDbLine
10
121.413164
20
0
30
0
11
121.942145
21
-2.999998
31
0
39
0
210
0
220
0
230
1
0
LINE
5
1B4
100
AcDbEntity
8
SK2
62
256
6
ByLayer
370
13
48
1
60
0
100
AcDbLine
10
121.413164
20
0
30
0
11
120.884183
21
-3.000002
31
0
39
0
210
0
220
0
230
1
0
LINE
5
1B5
100
AcDbEntity
8
SK2
62
256
6
ByLayer
370
13
48
1
60
0
100
AcDbLine
10
121.942145
20
-2.999998
30
0
11
120.884183
21
-3.000002
31
0
39
0
210
0
220
0
230
1
0
ENDBLK
5
1B7
100
AcDbEntity
8
0
100
AcDbBlockEnd
0
BLOCK
5
1C4
100
AcDbEntity
8
0
100
AcDbBlockBegin
2
DimnDraft3D10
70
0
10
0
20
0
30
0
3
DimnDraft3D10
0
MTEXT
5
1BA
100
AcDbEntity
8
SK2
62
256
6
ByLayer
370
18
48
1
60
0
100
AcDbMText
10
20.339487
20
76.181099
30
0
210
0
220
0
230
1
1
\W0.6754;43
40
3
41
0
44
1.084337
50
0
71
7
72
5
7
iso_b_vert
0
LINE
5
1BB
100
AcDbEntity
8
SK2
62
256
6
ByLayer
370
13
48
1
60
0
100
AcDbLine
10
1.3E-05
20
50.764971
30
0
11
1.3E-05
21
78.431099
31
0
39
0
210
0
220
0
230
1
0
LINE
5
1BC
100
AcDbEntity
8
SK2
62
256
6
ByLayer
370
13
48
1
60
0
100
AcDbLine
10
43.000013
20
45.099987
30
0
11
43.000013
21
78.431099
31
0
39
0
210
0
220
0
230
1
0
LINE
5
1BD
100
AcDbEntity
8
SK2
62
256
6
ByLayer
370
13
48
1
60
0
100
AcDbLine
10
1.3E-05
20
75.431099
30
0
11
43.000013
21
75.431099
31
0
39
0
210
0
220
0
230
1
0
LINE
5
1BE
100
AcDbEntity
8
SK2
62
256
6
ByLayer
370
13
48
1
60
0
100
AcDbLine
10
1.3E-05
20
75.431099
30
0
11
3.000012
21
75.96008
31
0
39
0
210
0
220
0
230
1
0
LINE
5
1BF
100
AcDbEntity
8
SK2
62
256
6
ByLayer
370
13
48
1
60
0
100
AcDbLine
10
1.3E-05
20
75.431099
30
0
11
3.000015
21
74.902118
31
0
39
0
210
0
220
0
230
1
0
LINE
5
1C0
100
AcDbEntity
8
SK2
62
256
6
ByLayer
370
13
48
1
60
0
100
AcDbLine
10
3.000012
20
75.96008
30
0
11
3.000015
21
74.902118
31
0
39
0
210
0
220
0
230
1
0
LINE
5
1C1
100
AcDbEntity
8
SK2
62
256
6
ByLayer
370
13
48
1
60
0
100
AcDbLine
10
43.000013
20
75.431099
30
0
11
40.000015
21
74.902118
31
0
39
0
210
0
220
0
230
1
0
LINE
5
1C2
100
AcDbEntity
8
SK2
62
256
6
ByLayer
370
13
48
1
60
0
100
AcDbLine
10
43.000013
20
75.431099
30
0
11
40.000012
21
75.96008
31
0
39
0
210
0
220
0
230
1
0
LINE
5
1C3
100
AcDbEntity
8
SK2
62
256
6
ByLayer
370
13
48
1
60
0
100
AcDbLine
10
40.000015
20
74.902118
30
0
11
40.000012
21
75.96008
31
0
39
0
210
0
220
0
230
1
0
ENDBLK
5
1C5
100
AcDbEntity
8
0
100
AcDbBlockEnd
0
ENDSEC
0
SECTION
2
ENTITIES
0
ARC
5
FF
100
AcDbEntity
8
SK1
62
256
6
ByLayer
370
18
48
1
60
0
100
AcDbCircle
39
0
10
-47.999987
20
33.597502
30
0
40
2
210
0
220
0
230
1
100
AcDbArc
50
92.862405
51
180
0
ARC
5
100
100
AcDbEntity
8
SK1
62
256
6
ByLayer
370
18
48
1
60
0
100
AcDbCircle
39
0
10
-47.999987
20
-33.597502
30
0
40
2
210
0
220
0
230
1
100
AcDbArc
50
180
51
267.137595
0
ARC
5
101
100
AcDbEntity
8
1
62
256
6
ByLayer
370
18
48
1
60
0
100
AcDbCircle
39
0
10
-21.515062
20
46.375019
30
0
40
0.4
210
0
220
0
230
-1
100
AcDbArc
50
180
51
270
0
ARC
5
102
100
AcDbEntity
8
1
62
256
6
ByLayer
370
18
48
1
60
0
100
AcDbCircle
39
0
10
-18.485062
20
46.375019
30
0
40
0.4
210
0
220
0
230
-1
100
AcDbArc
50
270
51
0
0
ARC
5
103
100
AcDbEntity
8
1
62
256
6
ByLayer
370
13
48
0.05
60
0
100
AcDbCircle
39
0
10
-0.874846
20
-38.681918
30
0
40
1
210
0
220
0
230
1
100
AcDbArc
50
352
51
28.971593
0
ARC
5
104
100
AcDbEntity
8
SK1
62
256
6
ByLayer
370
18
48
1
60
0
100
AcDbCircle
39
0
10
-0.874846
20
-38.681918
30
0
40
1
210
0
220
0
230
1
100
AcDbArc
50
28.971593
51
90
0
ARC
5
105
100
AcDbEntity
8
1
62
256
6
ByLayer
370
18
48
1
60
0
100
AcDbCircle
39
0
10
18.485062
20
-46.375019
30
0
40
0.4
210
0
220
0
230
1
100
AcDbArc
50
90
51
180
0
ARC
5
106
100
AcDbEntity
8
1
62
256
6
ByLayer
370
18
48
1
60
0
100
AcDbCircle
39
0
10
21.515062
20
-46.375019
30
0
40
0.4
210
0
220
0
230
1
100
AcDbArc
50
360
51
90
0
ARC
5
107
100
AcDbEntity
8
SK1
62
256
6
ByLayer
370
18
48
1
60
0
100
AcDbCircle
39
0
10
0.874846
20
38.681918
30
0
40
1
210
0
220
0
230
-1
100
AcDbArc
50
208.971593
51
270
0
ARC
5
108
100
AcDbEntity
8
1
62
256
6
ByLayer
370
13
48
0.05
60
0
100
AcDbCircle
39
0
10
0.874846
20
38.681918
30
0
40
1
210
0
220
0
230
-1
100
AcDbArc
50
172
51
208.971593
0
ARC
5
109
100
AcDbEntity
8
1
62
256
6
ByLayer
370
18
48
1
60
0
100
AcDbCircle
39
0
10
30.000013
20
-44.675
30
0
40
1
210
0
220
0
230
1
100
AcDbArc
50
90
51
180
0
ARC
5
10A
100
AcDbEntity
8
1
62
256
6
ByLayer
370
18
48
1
60
0
100
AcDbCircle
39
0
10
30.150013
20
-44.800013
30
0
40
1.2
210
0
220
0
230
1
100
AcDbArc
50
90
51
131.409622
0
ARC
5
10B
100
AcDbEntity
8
1
62
256
6
ByLayer
370
18
48
1
60
0
100
AcDbCircle
39
0
10
-59.200013
20
32.699987
30
0
40
1.19999999999997
210
0
220
0
230
-1
100
AcDbArc
50
270
51
0
0
ARC
5
10F
100
AcDbEntity
8
1
62
256
6
ByLayer
370
18
48
1
60
0
100
AcDbCircle
39
0
10
-59.200013
20
-32.700013
30
0
40
1.2
210
0
220
0
230
-1
100
AcDbArc
50
0
51
90
0
ARC
5
113
100
AcDbEntity
8
1
62
256
6
ByLayer
370
18
48
1
60
0
100
AcDbCircle
39
0
10
30.150013
20
44.799987
30
0
40
1.2
210
0
220
0
230
1
100
AcDbArc
50
196.597842
51
270
0
CIRCLE
5
10C
100
AcDbEntity
8
1
62
256
6
ByLayer
370
18
48
1
60
0
100
AcDbCircle
10
-77.000013
20
-1.3E-05
30
0
40
6.25
39
0
210
0
220
0
230
-1
0
CIRCLE
5
10D
100
AcDbEntity
8
1
62
256
6
ByLayer
370
18
48
1
60
0
100
AcDbCircle
10
-77.000013
20
18.999987
30
0
40
6.25
39
0
210
0
220
0
230
-1
0
CIRCLE
5
10E
100
AcDbEntity
8
1
62
256
6
ByLayer
370
18
48
1
60
0
100
AcDbCircle
10
-77.000013
20
-19.000013
30
0
40
6.25
39
0
210
0
220
0
230
-1
0
CIRCLE
5
110
100
AcDbEntity
8
1
62
256
6
ByLayer
370
18
48
1
60
0
100
AcDbCircle
10
77.000013
20
-19.000013
30
0
40
5.15
39
0
210
0
220
0
230
1
0
CIRCLE
5
111
100
AcDbEntity
8
1
62
256
6
ByLayer
370
18
48
1
60
0
100
AcDbCircle
10
77.000013
20
-1.3E-05
30
0
40
5.15
39
0
210
0
220
0
230
1
0
CIRCLE
5
112
100
AcDbEntity
8
1
62
256
6
ByLayer
370
18
48
1
60
0
100
AcDbCircle
10
77.000013
20
18.999987
30
0
40
5.15
39
0
210
0
220
0
230
1
0
ELLIPSE
5
114
100
AcDbEntity
8
1
62
256
6
ByLayer
370
18
48
1
60
0
100
AcDbEllipse
10
62.500013
20
3.299987
30
0
11
-2.88675134594813
21
6.76338902529389E-15
31
0
210
0
220
0
230
1
40
0.866025
41
0
42
6.28318530717959
0
ELLIPSE
5
115
100
AcDbEntity
8
1
62
256
6
ByLayer
370
18
48
1
60
0
100
AcDbEllipse
10
62.500013
20
-3.300013
30
0
11
-2.88675134594813
21
6.76338902529389E-15
31
0
210
0
220
0
230
1
40
0.866025
41
0
42
6.28318530717959
0
ELLIPSE
5
116
100
AcDbEntity
8
1
62
256
6
ByLayer
370
18
48
1
60
0
100
AcDbEllipse
10
73.576311
20
-26.000013
30
0
11
10.4606807737266
21
1.28102161408132E-15
31
0
210
0
220
0
230
-1
40
0.573576
41
0
42
1.51829887947335
0
ELLIPSE
5
117
100
AcDbEntity
8
1
62
256
6
ByLayer
370
18
48
1
60
0
100
AcDbEllipse
10
73.576311
20
25.999987
30
0
11
10.4606807737266
21
1.28102161408132E-15
31
0
210
0
220
0
230
-1
40
0.573576
41
-1.51829887947336
42
-5.92119396924443E-16
0
ELLIPSE
5
118
100
AcDbEntity
8
1
62
256
6
ByLayer
370
18
48
1
60
0
100
AcDbEllipse
10
66.660746
20
33.315333
30
0
11
2.16129302780758
21
-0.786646329649044
31
0
210
0
220
0
230
-1
40
0.258819
41
0
42
6.28318530717959
0
ELLIPSE
5
119
100
AcDbEntity
8
1
62
256
6
ByLayer
370
18
48
1
60
0
100
AcDbEllipse
10
66.594672
20
33.133799
30
0
11
2.34923155196477
21
-0.855050358314169
31
0
210
0
220
0
230
-1
40
0.258819
41
0
42
6.28318530717959
0
ELLIPSE
5
11A
100
AcDbEntity
8
1
62
256
6
ByLayer
370
18
48
1
60
0
100
AcDbEllipse
10
66.660746
20
-33.31536
30
0
11
2.16129302780758
21
0.786646329649033
31
0
210
0
220
0
230
-1
40
0.258819
41
0
42
6.28318530717959
0
ELLIPSE
5
11B
100
AcDbEntity
8
1
62
256
6
ByLayer
370
18
48
1
60
0
100
AcDbEllipse
10
66.594672
20
-33.133826
30
0
11
2.34923155196477
21
0.855050358314175
31
0
210
0
220
0
230
-1
40
0.258819
41
0
42
6.28318530717959
0
POINT
5
6C
100
AcDbEntity
8
80
62
256
6
ByLayer
370
13
48
1
60
0
100
AcDbPoint
10
0
20
0
30
0
39
0
210
0
220
0
230
1
50
360
0
POINT
5
6E
100
AcDbEntity
8
81
62
256
6
ByLayer
370
18
48
1
60
0
100
AcDbPoint
10
77.5
20
38
30
0
39
0
210
0
220
0
230
1
50
360
0
SPLINE
5
11C
100
AcDbEntity
8
1
62
256
6
ByLayer
370
18
48
1
60
0
100
AcDbSpline
70
4
71
3
72
8
73
4
40
0
40
0
40
0
40
0
40
1
40
1
40
1
40
1
41
1
10
21.9150618793412
20
34.1733734306669
30
1.26791E-10
41
1
10
21.8812547347524
20
33.9506265973153
30
1.26791E-10
41
1
10
21.8323240399639
20
33.6285508236283
30
-1.26791E-10
41
1
10
21.5150618793412
20
33.6285508236283
30
-1.26791E-10
0
SPLINE
5
11D
100
AcDbEntity
8
1
62
256
6
ByLayer
370
18
48
1
60
0
100
AcDbSpline
70
4
71
3
72
8
73
4
40
0
40
0
40
0
40
0
40
1
40
1
40
1
40
1
41
1
10
18.0850618793412
20
34.1733734306669
30
1.26791E-10
41
1
10
18.11886902393
20
33.9506265973154
30
1.26791E-10
41
1
10
18.1677997187184
20
33.6285508236283
30
-1.26791E-10
41
1
10
18.4850618793412
20
33.6285508236283
30
-1.26791E-10
0
SPLINE
5
11E
100
AcDbEntity
8
1
62
256
6
ByLayer
370
18
48
1
60
0
100
AcDbSpline
70
4
71
3
72
8
73
4
40
0
40
0
40
0
40
0
40
1
40
1
40
1
40
1
41
1
10
18.0850618793412
20
35.9069642984473
30
4.536815E-10
41
1
10
17.649079862025
20
36.9094252173942
30
4.536815E-10
41
1
10
17.2064759718862
20
37.908995247979
30
-4.536815E-10
41
1
10
16.7582401178414
20
38.9060436875042
30
-4.536815E-10
0
SPLINE
5
11F
100
AcDbEntity
8
1
62
256
6
ByLayer
370
18
48
1
60
0
100
AcDbSpline
70
4
71
3
72
10
73
6
40
0
40
0
40
0
40
0
40
0.5
40
0.5
40
1
40
1
40
1
40
1
41
1
10
14.6468130189094
20
31.3500194103194
30
0
41
1
10
12.4325640612513
20
31.3500194103194
30
0
41
1
10
10.2468496394066
20
32.1010615930556
30
0
41
1
10
6.75366916187221
20
34.8230615815445
30
0
41
1
10
5.49121894918172
20
36.7589415764271
30
0
41
1
10
4.95006187934129
20
38.906043686773
30
0
0
SPLINE
5
120
100
AcDbEntity
8
1
62
256
6
ByLayer
370
18
48
1
60
0
100
AcDbSpline
70
4
71
3
72
8
73
4
40
0
40
0
40
0
40
0
40
1
40
1
40
1
40
1
41
1
10
21.9150618793412
20
35.9069642984473
30
4.536815E-10
41
1
10
22.3510438966574
20
36.9094252173943
30
4.536815E-10
41
1
10
22.7936477867961
20
37.9089952479789
30
-4.536815E-10
41
1
10
23.2418836408409
20
38.9060436875042
30
-4.536815E-10
0
SPLINE
5
121
100
AcDbEntity
8
1
62
256
6
ByLayer
370
18
48
1
60
0
100
AcDbSpline
70
4
71
3
72
8
73
4
40
0
40
0
40
0
40
0
40
1
40
1
40
1
40
1
41
1
10
45.2383320823649
20
34.8682207600721
30
1E-16
41
1
10
45.2838557188329
20
35.9127354106919
30
1E-16
41
1
10
45.3488453763281
20
36.9566471846933
30
1E-16
41
1
10
45.4323181414957
20
37.9999865236072
30
1E-16
0
SPLINE
5
122
100
AcDbEntity
8
1
62
256
6
ByLayer
370
18
48
1
60
0
100
AcDbSpline
70
4
71
3
72
24
73
20
40
0
40
0
40
0
40
0
40
0.124999999999987
40
0.124999999999987
40
0.249999999999973
40
0.249999999999973
40
0.37499999999996
40
0.37499999999996
40
0.437499999999958
40
0.437499999999958
40
0.499999999999956
40
0.499999999999956
40
0.624999999999967
40
0.624999999999967
40
0.749999999999978
40
0.749999999999978
40
0.874999999999989
40
0.874999999999989
40
1
40
1
40
1
40
1
41
1
10
45.1224048176359
20
-30.5000134763891
30
1E-16
41
1
10
45.1002695162254
20
-30.4435836807356
30
1E-16
41
1
10
45.0755506806214
20
-30.3878900427415
30
1E-16
41
1
10
45.0213841835202
20
-30.2800271715323
30
1E-16
41
1
10
44.9918431277269
20
-30.2275960874616
30
1E-16
41
1
10
44.9273157772291
20
-30.1260579279775
30
1E-16
41
1
10
44.8923362918177
20
-30.0769466958781
30
1E-16
41
1
10
44.8350942309646
20
-30.0061933906594
30
1E-16
41
1
10
44.8151393598809
20
-29.9830199876076
30
1E-16
41
1
10
44.7739519299236
20
-29.9382789467957
30
1E-16
41
1
10
44.7527073968706
20
-29.9166843764584
30
1E-16
41
1
10
44.68690731375
20
-29.85436446975
30
1E-16
41
1
10
44.640304254129
20
-29.8160803150872
30
1E-16
41
1
10
44.5406524619151
20
-29.7471969803847
30
1E-16
41
1
10
44.487201702759
20
-29.7164995270619
30
1E-16
41
1
10
44.3767192020073
20
-29.6665453743422
30
1E-16
41
1
10
44.3192263165186
20
-29.6469262326792
30
1E-16
41
1
10
44.1996944748754
20
-29.6201995425269
30
1E-16
41
1
10
44.1396145176073
20
-29.6135239066002
30
1E-16
41
1
10
44.079221090818
20
-29.6135239066001
30
1E-16
0
SPLINE
5
123
100
AcDbEntity
8
1
62
256
6
ByLayer
370
18
48
1
60
0
100
AcDbSpline
70
4
71
3
72
14
73
10
40
0
40
0
40
0
40
0
40
0.25
40
0.25
40
0.5
40
0.5
40
0.75
40
0.75
40
1
40
1
40
1
40
1
41
1
10
45.1224048176373
20
30.4999865236072
30
1E-16
41
1
10
45.1153805745073
20
30.8640953050638
30
1E-16
41
1
10
45.1133328383029
20
31.2281978276761
30
1E-16
41
1
10
45.119891290503
20
31.9563894736918
30
1E-16
41
1
10
45.1284814732615
20
32.3204980880584
30
1E-16
41
1
10
45.1533533496611
20
33.0485402697803
30
1E-16
41
1
10
45.1695888992295
20
33.4124939047586
30
1E-16
41
1
10
45.2041588918114
20
34.1403526637677
30
1E-16
41
1
10
45.2224692964459
20
34.504257914009
30
1E-16
41
1
10
45.2383320823649
20
34.8682207600721
30
1E-16
0
SPLINE
5
124
100
AcDbEntity
8
1
62
256
6
ByLayer
370
18
48
1
60
0
100
AcDbSpline
70
4
71
3
72
24
73
20
40
0
40
0
40
0
40
0
40
0.125000000000003
40
0.125000000000003
40
0.250000000000006
40
0.250000000000006
40
0.375000000000009
40
0.375000000000009
40
0.500000000000012
40
0.500000000000012
40
0.625000000000015
40
0.625000000000015
40
0.687500000000012
40
0.687500000000012
40
0.75000000000001
40
0.75000000000001
40
0.875000000000005
40
0.875000000000005
40
1
40
1
40
1
40
1
41
1
10
45.1224048176376
20
30.4999865236071
30
1E-16
41
1
10
45.1005438794019
20
30.4442561653635
30
1E-16
41
1
10
45.0762187013393
20
30.3892960373008
30
1E-16
41
1
10
45.0219956781377
20
30.2811175906871
30
1E-16
41
1
10
44.9920147452852
20
30.2278391149905
30
1E-16
41
1
10
44.9271430070128
20
30.1257591810924
30
1E-16
41
1
10
44.8921193486694
20
30.0766499934258
30
1E-16
41
1
10
44.8161993637252
20
29.9828132834045
30
1E-16
41
1
10
44.7751440654912
20
29.9379199748311
30
1E-16
41
1
10
44.6866812393803
20
29.854110877649
30
1E-16
41
1
10
44.6399126234626
20
29.8157650112265
30
1E-16
41
1
10
44.5654361667867
20
29.7643104011399
30
1E-16
41
1
10
44.5398869466201
20
29.7481739750146
30
1E-16
41
1
10
44.4872038984017
20
29.7181236946791
30
1E-16
41
1
10
44.459971976957
20
29.704166766757
30
1E-16
41
1
10
44.3763968706184
20
29.6663607555304
30
1E-16
41
1
10
44.3181665206541
20
29.6466469911932
30
1E-16
41
1
10
44.2003433453591
20
29.6203330512297
30
1E-16
41
1
10
44.1403611535392
20
29.6134969538146
30
1E-16
41
1
10
44.079221090818
20
29.6134969538146
30
1E-16
0
SPLINE
5
125
100
AcDbEntity
8
1
62
256
6
ByLayer
370
18
48
1
60
0
100
AcDbSpline
70
4
71
3
72
26
73
22
40
0
40
0
40
0
40
0
40
0.0625000000000089
40
0.0625000000000089
40
0.125000000000018
40
0.125000000000018
40
0.187500000000026
40
0.187500000000026
40
0.250000000000035
40
0.250000000000035
40
0.375000000000034
40
0.375000000000034
40
0.437500000000032
40
0.437500000000032
40
0.50000000000003
40
0.50000000000003
40
0.625000000000023
40
0.625000000000023
40
0.750000000000016
40
0.750000000000016
40
1
40
1
40
1
40
1
41
1
10
43.8000134763928
20
-29.6135239066001
30
1E-16
41
1
10
43.766515113758
20
-29.6135239066001
30
1E-16
41
1
10
43.7334542270081
20
-29.6112604521533
30
1E-16
41
1
10
43.6681619084749
20
-29.6024395219873
30
1E-16
41
1
10
43.6356982140084
20
-29.5957936548865
30
1E-16
41
1
10
43.5735454850171
20
-29.5788500704018
30
1E-16
41
1
10
43.543660266125
20
-29.5685581702374
30
1E-16
41
1
10
43.4860201096927
20
-29.5447096316461
30
1E-16
41
1
10
43.4580780674058
20
-29.5310328965919
30
1E-16
41
1
10
43.3790346058262
20
-29.486469159417
30
1E-16
41
1
10
43.3323959650251
20
-29.4521576753359
30
1E-16
41
1
10
43.2694776387162
20
-29.3952777718694
30
1E-16
41
1
10
43.2497005807435
20
-29.3753772846953
30
1E-16
41
1
10
43.21303046272
20
-29.3346814947086
30
1E-16
41
1
10
43.1960249694176
20
-29.3137894714607
30
1E-16
41
1
10
43.1485496774723
20
-29.2496505363255
30
1E-16
41
1
10
43.1215807018978
20
-29.2049334972488
30
1E-16
41
1
10
43.0757867272518
20
-29.1121691066409
30
1E-16
41
1
10
43.0574493483576
20
-29.0651189905278
30
1E-16
41
1
10
43.0139339869072
20
-28.9222238888936
30
1E-16
41
1
10
43.0000134763928
20
-28.8246648396804
30
1E-16
41
1
10
43.0000134763928
20
-28.7249155649987
30
1E-16
0
SPLINE
5
126
100
AcDbEntity
8
1
62
256
6
ByLayer
370
18
48
1
60
0
100
AcDbSpline
70
4
71
3
72
28
73
24
40
0
40
0
40
0
40
0
40
0.250000000000006
40
0.250000000000006
40
0.312500000000007
40
0.312500000000007
40
0.375000000000009
40
0.375000000000009
40
0.500000000000003
40
0.500000000000003
40
0.562500000000004
40
0.562500000000004
40
0.625000000000004
40
0.625000000000004
40
0.687500000000004
40
0.687500000000004
40
0.750000000000004
40
0.750000000000004
40
0.812500000000004
40
0.812500000000004
40
0.875000000000004
40
0.875000000000004
40
1
40
1
40
1
40
1
41
1
10
43.0000134763928
20
28.7248886122132
30
1E-16
41
1
10
43.0000134763928
20
28.8246125997549
30
1E-16
41
1
10
43.0139100410722
20
28.922657230613
30
1E-16
41
1
10
43.0507526118966
20
29.0429615842292
30
1E-16
41
1
10
43.059137196627
20
29.0669330778001
30
1E-16
41
1
10
43.0778314989642
20
29.1140784074114
30
1E-16
41
1
10
43.0881585018443
20
29.1373193100606
30
1E-16
41
1
10
43.1222418660775
20
29.2060010095388
30
1E-16
41
1
10
43.1490564034532
20
29.2504144669669
30
1E-16
41
1
10
43.1966845247908
20
29.3145988820587
30
1E-16
41
1
10
43.213883712732
20
29.3356705790663
30
1E-16
41
1
10
43.2507661973791
20
29.3764601207158
30
1E-16
41
1
10
43.2703544540038
20
29.3960899817105
30
1E-16
41
1
10
43.3120448872194
20
29.4336845863669
30
1E-16
41
1
10
43.3341451907887
20
29.4516505345745
30
1E-16
41
1
10
43.3812036414736
20
29.4857017909913
30
1E-16
41
1
10
43.4063129507275
20
29.5018735320662
30
1E-16
41
1
10
43.4591987901802
20
29.5315836028298
30
1E-16
41
1
10
43.486760800238
20
29.5450233736128
30
1E-16
41
1
10
43.5443596728053
20
29.568785494073
30
1E-16
41
1
10
43.5745531659022
20
29.5791531941686
30
1E-16
41
1
10
43.6683997771835
20
29.6045675156003
30
1E-16
41
1
10
43.7330447664337
20
29.6134969538146
30
1E-16
41
1
10
43.8000134763928
20
29.6134969538146
30
1E-16
0
SPLINE
5
127
100
AcDbEntity
8
1
62
256
6
ByLayer
370
18
48
1
60
0
100
AcDbSpline
70
4
71
3
72
30
73
26
40
0
40
0
40
0
40
0
40
0.250000000000005
40
0.250000000000005
40
0.37500000000001
40
0.37500000000001
40
0.437500000000016
40
0.437500000000016
40
0.500000000000022
40
0.500000000000022
40
0.625000000000021
40
0.625000000000021
40
0.687500000000017
40
0.687500000000017
40
0.750000000000012
40
0.750000000000012
40
0.812500000000007
40
0.812500000000007
40
0.875000000000003
40
0.875000000000003
40
0.906250000000005
40
0.906250000000005
40
0.937500000000007
40
0.937500000000007
40
1
40
1
40
1
40
1
41
1
10
43.0000134763928
20
38.7999865236072
30
1E-16
41
1
10
43.0000134763928
20
38.7229717421426
30
1E-16
41
1
10
43.0108822201768
20
38.6457663422264
30
1E-16
41
1
10
43.0459045608802
20
38.5298981223104
30
1E-16
41
1
10
43.0607381291679
20
38.4912679159555
30
1E-16
41
1
10
43.0886354702853
20
38.4333802813558
30
1E-16
41
1
10
43.0988811587778
20
38.4140943833804
30
1E-16
41
1
10
43.1215137122588
20
38.3755606281165
30
1E-16
41
1
10
43.1339303462449
20
38.3562763228714
30
1E-16
41
1
10
43.1744604250934
20
38.2991219770197
30
1E-16
41
1
10
43.2058486910307
20
38.2617711748351
30
1E-16
41
1
10
43.2618925321889
20
38.2074472946412
30
1E-16
41
1
10
43.282082353444
20
38.1896264547196
30
1E-16
41
1
10
43.3262539793492
20
38.1547392835725
30
1E-16
41
1
10
43.3503269976617
20
38.1376290397479
30
1E-16
41
1
10
43.4022090472159
20
38.1052297304017
30
1E-16
41
1
10
43.4301036600249
20
38.0898459097553
30
1E-16
41
1
10
43.4910629075852
20
38.0612832613153
30
1E-16
41
1
10
43.5244959815575
20
38.0479999630689
30
1E-16
41
1
10
43.5779167699666
20
38.0312073145411
30
1E-16
41
1
10
43.5963095406472
20
38.0261074808808
30
1E-16
41
1
10
43.6344465851644
20
38.0170614500923
30
1E-16
41
1
10
43.6543436015741
20
38.0130916942542
30
1E-16
41
1
10
43.7152956635775
20
38.0034216287238
30
1E-16
41
1
10
43.7570293789234
20
37.9999865236072
30
1E-16
41
1
10
43.8000134763928
20
37.9999865236072
30
1E-16
0
SPLINE
5
128
100
AcDbEntity
8
1
62
256
6
ByLayer
370
18
48
1
60
0
100
AcDbSpline
70
4
71
3
72
30
73
26
40
0
40
0
40
0
40
0
40
0.0312499999999971
40
0.0312499999999971
40
0.0624999999999942
40
0.0624999999999942
40
0.0937499999999915
40
0.0937499999999915
40
0.124999999999989
40
0.124999999999989
40
0.187499999999989
40
0.187499999999989
40
0.249999999999989
40
0.249999999999989
40
0.312499999999989
40
0.312499999999989
40
0.374999999999989
40
0.374999999999989
40
0.49999999999999
40
0.49999999999999
40
0.62499999999999
40
0.62499999999999
40
0.74999999999999
40
0.74999999999999
40
1
40
1
40
1
40
1
41
1
10
43.8000134763928
20
37.9999865236072
30
1E-16
41
1
10
43.778511679
20
37.9999865236072
30
1E-16
41
1
10
43.7569796557993
20
38.000866442924
30
1E-16
41
1
10
43.7149339085041
20
38.0042439269129
30
1E-16
41
1
10
43.6943560405764
20
38.0067313485515
30
1E-16
41
1
10
43.6540103570329
20
38.0131572183363
30
1E-16
41
1
10
43.6341334053461
20
38.0171233745335
30
1E-16
41
1
10
43.5956637937359
20
38.0262733239356
30
1E-16
41
1
10
43.5771903881882
20
38.0314168637931
30
1E-16
41
1
10
43.5237070889549
20
38.0482867279732
30
1E-16
41
1
10
43.4903613516978
20
38.0615711190781
30
1E-16
41
1
10
43.4291980921545
20
38.0903121625188
30
1E-16
41
1
10
43.4013082561174
20
38.1057480213841
30
1E-16
41
1
10
43.349533673273
20
38.1381701611433
30
1E-16
41
1
10
43.3256172851759
20
38.1552006765894
30
1E-16
41
1
10
43.2812510830352
20
38.1903258688218
30
1E-16
41
1
10
43.2609429553002
20
38.2083014877947
30
1E-16
41
1
10
43.2045347573614
20
38.2631830880344
30
1E-16
41
1
10
43.1727970592314
20
38.3012237223345
30
1E-16
41
1
10
43.1192064808161
20
38.3772968021046
30
1E-16
41
1
10
43.0971660918522
20
38.4155233295455
30
1E-16
41
1
10
43.0603866233445
20
38.4921578183283
30
1E-16
41
1
10
43.0456749782525
20
38.5305681194038
30
1E-16
41
1
10
43.0108909272877
20
38.6459183968131
30
1E-16
41
1
10
43.0000134763928
20
38.7229653211648
30
1E-16
41
1
10
43.0000134763928
20
38.7999865236072
30
1E-16
0
SPLINE
5
129
100
AcDbEntity
8
1
62
256
6
ByLayer
370
18
48
1
60
0
100
AcDbSpline
70
4
71
3
72
14
73
10
40
0
40
0
40
0
40
0
40
0.25
40
0.25
40
0.499999999999999
40
0.499999999999999
40
0.749999999999999
40
0.749999999999999
40
1
40
1
40
1
40
1
41
1
10
45.2383320823649
20
-34.8682477128577
30
1E-16
41
1
10
45.2224686767449
20
-34.5042706480985
30
1E-16
41
1
10
45.2041574258548
20
-34.1403504043856
30
1E-16
41
1
10
45.1695861965999
20
-33.4124623014293
30
1E-16
41
1
10
45.1533497194659
20
-33.0484768467686
30
1E-16
41
1
10
45.1284796567084
20
-32.3204559775638
30
1E-16
41
1
10
45.1198915391958
20
-31.9564187773588
30
1E-16
41
1
10
45.1133330225898
20
-31.2282705022424
30
1E-16
41
1
10
45.1153798597619
20
-30.8641593074084
30
1E-16
41
1
10
45.1224048176374
20
-30.5000134763927
30
1E-16
0
SPLINE
5
12A
100
AcDbEntity
8
1
62
256
6
ByLayer
370
18
48
1
60
0
100
AcDbSpline
70
4
71
3
72
8
73
4
40
0
40
0
40
0
40
0
40
1
40
1
40
1
40
1
41
1
10
45.4323181414957
20
-38.0000134763928
30
1E-16
41
1
10
45.3488453763281
20
-36.9566741374788
30
1E-16
41
1
10
45.2838557188329
20
-35.9127623634774
30
1E-16
41
1
10
45.2383320823649
20
-34.8682477128577
30
1E-16
0
SPLINE
5
12B
100
AcDbEntity
8
1
62
256
6
ByLayer
370
18
48
1
60
0
100
AcDbSpline
70
4
71
3
72
22
73
18
40
0
40
0
40
0
40
0
40
0.250000000000049
40
0.250000000000049
40
0.375000000000041
40
0.375000000000041
40
0.500000000000033
40
0.500000000000033
40
0.625000000000024
40
0.625000000000024
40
0.750000000000016
40
0.750000000000016
40
0.875000000000008
40
0.875000000000008
40
0.937500000000004
40
0.937500000000004
40
1
40
1
40
1
40
1
41
1
10
74.1252182260799
20
-31.9917474291518
30
1E-16
41
1
10
74.0669453135276
20
-31.9935037159589
30
1E-16
41
1
10
74.0096765579623
20
-31.9866770136808
30
1E-16
41
1
10
73.9254063564954
20
-31.9624795445455
30
1E-16
41
1
10
73.8982143702052
20
-31.9521889615877
30
1E-16
41
1
10
73.846321323718
20
-31.9272861827187
30
1E-16
41
1
10
73.8215105136455
20
-31.9126502572581
30
1E-16
41
1
10
73.7744622006793
20
-31.8784286686905
30
1E-16
41
1
10
73.7523877671493
20
-31.8588642026852
30
1E-16
41
1
10
73.7133349381379
20
-31.8160255782459
30
1E-16
41
1
10
73.695955315371
20
-31.7923609892062
30
1E-16
41
1
10
73.6671645462191
20
-31.7412392837228
30
1E-16
41
1
10
73.6559330754486
20
-31.714040118822
30
1E-16
41
1
10
73.6446318185517
20
-31.6721698724489
30
1E-16
41
1
10
73.6417575745714
20
-31.6579715226446
30
1E-16
41
1
10
73.6378844514596
20
-31.629067353378
30
1E-16
41
1
10
73.6369083905753
20
-31.6143957097532
30
1E-16
41
1
10
73.6369083905753
20
-31.5999056137911
30
1E-16
0
SPLINE
5
12C
100
AcDbEntity
8
1
62
256
6
ByLayer
370
18
48
1
60
0
100
AcDbSpline
70
4
71
3
72
24
73
20
40
0
40
0
40
0
40
0
40
0.125
40
0.125
40
0.1875
40
0.1875
40
0.25
40
0.25
40
0.375
40
0.375
40
0.5
40
0.5
40
0.625
40
0.625
40
0.75
40
0.75
40
0.875
40
0.875
40
1
40
1
40
1
40
1
41
1
10
73.6369083905753
20
31.5998786610056
30
1E-16
41
1
10
73.6369083905753
20
31.629190194119
30
1E-16
41
1
10
73.6407929219928
20
31.6578447236706
30
1E-16
41
1
10
73.6521130185872
20
31.6998974182101
30
1E-16
41
1
10
73.6568523259506
20
31.7138407805359
30
1E-16
41
1
10
73.6679254903466
20
31.7407539283306
30
1E-16
41
1
10
73.6742626432122
20
31.7537814753376
30
1E-16
41
1
10
73.6955338725546
20
31.7916531021974
30
1E-16
41
1
10
73.7129349724173
20
31.8154929785971
30
1E-16
41
1
10
73.751942350067
20
31.8584141291132
30
1E-16
41
1
10
73.7736351333188
20
31.8777250238519
30
1E-16
41
1
10
73.8208342242859
20
31.9122041455069
30
1E-16
41
1
10
73.845756532403
20
31.9269581673609
30
1E-16
41
1
10
73.8979448734763
20
31.9520622316377
30
1E-16
41
1
10
73.9254355703155
20
31.962449143891
30
1E-16
41
1
10
73.9811540609317
20
31.9784718203303
30
1E-16
41
1
10
74.0094705620069
20
31.9841900476829
30
1E-16
41
1
10
74.0669728102468
20
31.9912672842071
30
1E-16
41
1
10
74.0963115025719
20
31.9925916958559
30
1E-16
41
1
10
74.1252182260799
20
31.9917204763663
30
1E-16
0
SPLINE
5
12D
100
AcDbEntity
8
1
62
256
6
ByLayer
370
18
48
1
60
0
100
AcDbSpline
70
4
71
3
72
30
73
26
40
0
40
0
40
0
40
0
40
0.250000000000005
40
0.250000000000005
40
0.37500000000001
40
0.37500000000001
40
0.437500000000016
40
0.437500000000016
40
0.500000000000022
40
0.500000000000022
40
0.625000000000021
40
0.625000000000021
40
0.687500000000017
40
0.687500000000017
40
0.750000000000012
40
0.750000000000012
40
0.812500000000007
40
0.812500000000007
40
0.875000000000003
40
0.875000000000003
40
0.906250000000005
40
0.906250000000005
40
0.937500000000007
40
0.937500000000007
40
1
40
1
40
1
40
1
41
1
10
43.0000134763928
20
-38.7999865236072
30
-1E-16
41
1
10
43.0000134763928
20
-38.7229717421426
30
-1E-16
41
1
10
43.0108822201768
20
-38.6457663422264
30
-1E-16
41
1
10
43.0459045608802
20
-38.5298981223104
30
-1E-16
41
1
10
43.0607381291679
20
-38.4912679159555
30
-1E-16
41
1
10
43.0886354702853
20
-38.4333802813558
30
-1E-16
41
1
10
43.0988811587778
20
-38.4140943833804
30
-1E-16
41
1
10
43.1215137122588
20
-38.3755606281165
30
-1E-16
41
1
10
43.1339303462449
20
-38.3562763228714
30
-1E-16
41
1
10
43.1744604250934
20
-38.2991219770197
30
-1E-16
41
1
10
43.2058486910307
20
-38.2617711748351
30
-1E-16
41
1
10
43.2618925321889
20
-38.2074472946412
30
-1E-16
41
1
10
43.282082353444
20
-38.1896264547196
30
-1E-16
41
1
10
43.3262539793492
20
-38.1547392835725
30
-1E-16
41
1
10
43.3503269976617
20
-38.1376290397479
30
-1E-16
41
1
10
43.4022090472159
20
-38.1052297304017
30
-1E-16
41
1
10
43.4301036600249
20
-38.0898459097553
30
-1E-16
41
1
10
43.4910629075852
20
-38.0612832613153
30
-1E-16
41
1
10
43.5244959815575
20
-38.0479999630689
30
-1E-16
41
1
10
43.5779167699666
20
-38.0312073145411
30
-1E-16
41
1
10
43.5963095406472
20
-38.0261074808808
30
-1E-16
41
1
10
43.6344465851644
20
-38.0170614500923
30
-1E-16
41
1
10
43.6543436015741
20
-38.0130916942542
30
-1E-16
41
1
10
43.7152956635775
20
-38.0034216287238
30
-1E-16
41
1
10
43.7570293789234
20
-37.9999865236072
30
-1E-16
41
1
10
43.8000134763928
20
-37.9999865236072
30
-1E-16
0
LINE
5
70
100
AcDbEntity
8
SK3
62
256
6
ByLayer
370
13
48
0.05
60
0
100
AcDbLine
10
5.000013
20
-44
30
0
11
29.000013
21
-44
31
0
39
0
210
0
220
0
230
1
0
LINE
5
72
100
AcDbEntity
8
SK3
62
256
6
ByLayer
370
13
48
0.05
60
0
100
AcDbLine
10
5.000013
20
44
30
0
11
29.000013
21
44
31
0
39
0
210
0
220
0
230
1
0
LINE
5
73
100
AcDbEntity
8
SK3
62
256
6
ByLayer
370
13
48
0.05
60
0
100
AcDbLine
10
5.000013
20
-50
30
0
11
5.000013
21
-44
31
0
39
0
210
0
220
0
230
1
0
LINE
5
74
100
AcDbEntity
8
SK3
62
256
6
ByLayer
370
13
48
0.05
60
0
100
AcDbLine
10
5.000013
20
50
30
0
11
5.000013
21
44
31
0
39
0
210
0
220
0
230
1
0
LINE
5
75
100
AcDbEntity
8
SK1
62
256
6
ByLayer
370
18
48
1
60
0
100
AcDbLine
10
-49.999987
20
-33.597502
30
0
11
-49.999987
21
0
31
0
39
0
210
0
220
0
230
1
0
LINE
5
77
100
AcDbEntity
8
1
62
256
6
ByLayer
370
18
48
1
60
0
100
AcDbLine
10
1.3E-05
20
-49.264971
30
0
11
1.3E-05
21
0
31
0
39
0
210
0
220
0
230
1
0
LINE
5
79
100
AcDbEntity
8
1
62
256
6
ByLayer
370
18
48
1
60
0
100
AcDbLine
10
1.3E-05
20
49.264971
30
0
11
1.3E-05
21
0
31
0
39
0
210
0
220
0
230
1
0
LINE
5
7A
100
AcDbEntity
8
SK1
62
256
6
ByLayer
370
13
48
0.05
60
0
100
AcDbLine
10
-9.999987
20
-41.40822
30
0
11
-9.999987
21
0
31
0
39
0
210
0
220
0
230
1
0
LINE
5
7B
100
AcDbEntity
8
SK1
62
256
6
ByLayer
370
18
48
1
60
0
100
AcDbLine
10
-2.499938
20
-37.875002
30
0
11
-9.999987
21
-37.5
31
0
39
0
210
0
220
0
230
1
0
LINE
5
7C
100
AcDbEntity
8
SK1
62
256
6
ByLayer
370
13
48
0.05
60
0
100
AcDbLine
10
-9.999987
20
42.086628
30
0
11
-9.999987
21
0
31
0
39
0
210
0
220
0
230
1
0
LINE
5
7D
100
AcDbEntity
8
SK1
62
256
6
ByLayer
370
18
48
1
60
0
100
AcDbLine
10
-2.499938
20
37.875002
30
0
11
-9.999987
21
37.5
31
0
39
0
210
0
220
0
230
1
0
LINE
5
7E
100
AcDbEntity
8
SK1
62
256
6
ByLayer
370
18
48
1
60
0
100
AcDbLine
10
-49.999987
20
33.597502
30
0
11
-49.999987
21
0
31
0
39
0
210
0
220
0
230
1
0
LINE
5
7F
100
AcDbEntity
8
SK1
62
256
6
ByLayer
370
18
48
1
60
0
100
AcDbLine
10
-9.999987
20
37.5
30
0
11
-48.099862
21
35.595006
31
0
39
0
210
0
220
0
230
1
0
LINE
5
80
100
AcDbEntity
8
SK1
62
256
6
ByLayer
370
18
48
1
60
0
100
AcDbLine
10
-9.999987
20
-37.5
30
0
11
-48.099862
21
-35.595006
31
0
39
0
210
0
220
0
230
1
0
LINE
5
81
100
AcDbEntity
8
1
62
256
6
ByLayer
370
18
48
1
60
0
100
AcDbLine
10
0.735042
20
50
30
0
11
16.75824
21
50
31
0
39
0
210
0
220
0
230
1
0
LINE
5
82
100
AcDbEntity
8
1
62
256
6
ByLayer
370
18
48
1
60
0
100
AcDbLine
10
29.000013
20
0
30
0
11
29.000013
21
49.215068
31
0
39
0
210
0
220
0
230
1
0
LINE
5
83
100
AcDbEntity
8
1
62
256
6
ByLayer
370
18
48
1
60
0
100
AcDbLine
10
28.215081
20
50
30
0
11
23.241884
21
50
31
0
39
0
210
0
220
0
230
1
0
LINE
5
84
100
AcDbEntity
8
1
62
256
6
ByLayer
370
18
48
1
60
0
100
AcDbLine
10
0.735042
20
-50
30
0
11
16.75824
21
-50
31
0
39
0
210
0
220
0
230
1
0
LINE
5
85
100
AcDbEntity
8
1
62
256
6
ByLayer
370
18
48
1
60
0
100
AcDbLine
10
16.75824
20
49.965019
30
0
11
18.085062
21
47.666897
31
0
39
0
210
0
220
0
230
1
0
LINE
5
86
100
AcDbEntity
8
1
62
256
6
ByLayer
370
18
48
1
60
0
100
AcDbLine
10
18.085062
20
47.666897
30
0
11
18.085062
21
34.173373
31
0
39
0
210
0
220
0
230
1
0
LINE
5
87
100
AcDbEntity
8
1
62
256
6
ByLayer
370
18
48
1
60
0
100
AcDbLine
10
18.485062
20
45.975019
30
0
11
21.515062
21
45.975019
31
0
39
0
210
0
220
0
230
1
0
LINE
5
88
100
AcDbEntity
8
1
62
256
6
ByLayer
370
18
48
1
60
0
100
AcDbLine
10
21.915062
20
34.173373
30
0
11
21.915062
21
47.666897
31
0
39
0
210
0
220
0
230
1
0
LINE
5
89
100
AcDbEntity
8
1
62
256
6
ByLayer
370
18
48
1
60
0
100
AcDbLine
10
21.915062
20
47.666897
30
0
11
23.241884
21
49.965019
31
0
39
0
210
0
220
0
230
1
0
LINE
5
8A
100
AcDbEntity
8
1
62
256
6
ByLayer
370
18
48
1
60
0
100
AcDbLine
10
28.215081
20
50
30
0
11
29.000013
21
49.215068
31
0
39
0
210
0
220
0
230
1
0
LINE
5
8B
100
AcDbEntity
8
1
62
256
6
ByLayer
370
18
48
1
60
0
100
AcDbLine
10
0.735042
20
50
30
0
11
1.3E-05
21
49.264971
31
0
39
0
210
0
220
0
230
1
0
LINE
5
8C
100
AcDbEntity
8
SK1
62
256
6
ByLayer
370
18
48
1
60
0
100
AcDbLine
10
-1.753528
20
-37.681918
30
0
11
-2.499938
21
-37.881918
31
0
39
0
210
0
220
0
230
1
0
LINE
5
8D
100
AcDbEntity
8
SK1
62
256
6
ByLayer
370
18
48
1
60
0
100
AcDbLine
10
-1.753528
20
-37.681918
30
0
11
-0.874846
21
-37.681918
31
0
39
0
210
0
220
0
230
1
0
LINE
5
8E
100
AcDbEntity
8
1
62
256
6
ByLayer
370
13
48
0.05
60
0
100
AcDbLine
10
6.2E-05
20
-39.641918
30
0
11
0.115422
21
-38.821091
31
0
39
0
210
0
220
0
230
1
0
LINE
5
8F
100
AcDbEntity
8
SK1
62
256
6
ByLayer
370
18
48
1
60
0
100
AcDbLine
10
-2.499938
20
1.9E-05
30
0
11
-2.499938
21
37.875002
31
0
39
0
210
0
220
0
230
1
0
LINE
5
90
100
AcDbEntity
8
SK1
62
256
6
ByLayer
370
13
48
1
60
0
100
AcDbLine
10
-1.753528
20
1.9E-05
30
0
11
-1.753528
21
37.681957
31
0
39
0
210
0
220
0
230
1
0
LINE
5
91
100
AcDbEntity
8
1
62
256
6
ByLayer
370
13
48
1
60
0
100
AcDbLine
10
0.700062
20
1.9E-05
30
0
11
0.700062
21
49.965019
31
0
39
0
210
0
220
0
230
1
0
LINE
5
92
100
AcDbEntity
8
1
62
256
6
ByLayer
370
18
48
1
60
0
100
AcDbLine
10
23.241884
20
50
30
0
11
23.241884
21
38.906044
31
0
39
0
210
0
220
0
230
1
0
LINE
5
93
100
AcDbEntity
8
1
62
256
6
ByLayer
370
13
48
1
60
0
100
AcDbLine
10
28.250062
20
49.965019
30
0
11
28.250062
21
38.906044
31
0
39
0
210
0
220
0
230
1
0
LINE
5
94
100
AcDbEntity
8
1
62
256
6
ByLayer
370
18
48
1
60
0
100
AcDbLine
10
16.75824
20
50
30
0
11
16.75824
21
38.906044
31
0
39
0
210
0
220
0
230
1
0
LINE
5
95
100
AcDbEntity
8
1
62
256
6
ByLayer
370
18
48
1
60
0
100
AcDbLine
10
28.250062
20
38.906044
30
0
11
28.950062
21
38.206044
31
0
39
0
210
0
220
0
230
1
0
LINE
5
96
100
AcDbEntity
8
1
62
256
6
ByLayer
370
18
48
1
60
0
100
AcDbLine
10
28.215081
20
-50
30
0
11
29.000013
21
-49.215068
31
0
39
0
210
0
220
0
230
1
0
LINE
5
97
100
AcDbEntity
8
1
62
256
6
ByLayer
370
18
48
1
60
0
100
AcDbLine
10
21.915062
20
-47.666897
30
0
11
23.241884
21
-49.965019
31
0
39
0
210
0
220
0
230
1
0
LINE
5
98
100
AcDbEntity
8
1
62
256
6
ByLayer
370
18
48
1
60
0
100
AcDbLine
10
18.485062
20
-45.975019
30
0
11
21.515062
21
-45.975019
31
0
39
0
210
0
220
0
230
1
0
LINE
5
99
100
AcDbEntity
8
1
62
256
6
ByLayer
370
18
48
1
60
0
100
AcDbLine
10
16.75824
20
-49.965019
30
0
11
18.085062
21
-47.666897
31
0
39
0
210
0
220
0
230
1
0
LINE
5
9A
100
AcDbEntity
8
1
62
256
6
ByLayer
370
18
48
1
60
0
100
AcDbLine
10
28.215081
20
-50
30
0
11
23.241884
21
-50
31
0
39
0
210
0
220
0
230
1
0
LINE
5
9B
100
AcDbEntity
8
1
62
256
6
ByLayer
370
18
48
1
60
0
100
AcDbLine
10
16.75824
20
-50
30
0
11
16.75824
21
31.350019
31
0
39
0
210
0
220
0
230
1
0
LINE
5
9C
100
AcDbEntity
8
1
62
256
6
ByLayer
370
18
48
1
60
0
100
AcDbLine
10
18.085062
20
-47.666897
30
0
11
18.085062
21
31.350019
31
0
39
0
210
0
220
0
230
1
0
LINE
5
9D
100
AcDbEntity
8
1
62
256
6
ByLayer
370
18
48
1
60
0
100
AcDbLine
10
21.915062
20
31.350019
30
0
11
21.915062
21
-47.666897
31
0
39
0
210
0
220
0
230
1
0
LINE
5
9E
100
AcDbEntity
8
1
62
256
6
ByLayer
370
18
48
1
60
0
100
AcDbLine
10
23.241884
20
-50
30
0
11
23.241884
21
31.350019
31
0
39
0
210
0
220
0
230
1
0
LINE
5
9F
100
AcDbEntity
8
1
62
256
6
ByLayer
370
13
48
1
60
0
100
AcDbLine
10
28.250062
20
-49.965019
30
0
11
28.250062
21
31.350019
31
0
39
0
210
0
220
0
230
1
0
LINE
5
A0
100
AcDbEntity
8
1
62
256
6
ByLayer
370
18
48
1
60
0
100
AcDbLine
10
29.000013
20
0
30
0
11
29.000013
21
-49.215068
31
0
39
0
210
0
220
0
230
1
0
LINE
5
A1
100
AcDbEntity
8
1
62
256
6
ByLayer
370
18
48
1
60
0
100
AcDbLine
10
0.735042
20
-50
30
0
11
1.3E-05
21
-49.264971
31
0
39
0
210
0
220
0
230
1
0
LINE
5
A2
100
AcDbEntity
8
1
62
256
6
ByLayer
370
13
48
1
60
0
100
AcDbLine
10
0.700062
20
-1.9E-05
30
0
11
0.700062
21
-49.965019
31
0
39
0
210
0
220
0
230
1
0
LINE
5
A3
100
AcDbEntity
8
SK1
62
256
6
ByLayer
370
13
48
1
60
0
100
AcDbLine
10
-1.753528
20
-1.9E-05
30
0
11
-1.753528
21
-37.681957
31
0
39
0
210
0
220
0
230
1
0
LINE
5
A4
100
AcDbEntity
8
SK1
62
256
6
ByLayer
370
18
48
1
60
0
100
AcDbLine
10
-2.499938
20
-1.9E-05
30
0
11
-2.499938
21
-37.875002
31
0
39
0
210
0
220
0
230
1
0
LINE
5
A5
100
AcDbEntity
8
1
62
256
6
ByLayer
370
13
48
0.05
60
0
100
AcDbLine
10
6.2E-05
20
39.641918
30
0
11
0.115422
21
38.821091
31
0
39
0
210
0
220
0
230
1
0
LINE
5
A6
100
AcDbEntity
8
SK1
62
256
6
ByLayer
370
18
48
1
60
0
100
AcDbLine
10
-1.753528
20
37.681918
30
0
11
-0.874846
21
37.681918
31
0
39
0
210
0
220
0
230
1
0
LINE
5
A7
100
AcDbEntity
8
SK1
62
256
6
ByLayer
370
18
48
1
60
0
100
AcDbLine
10
-1.753528
20
37.681918
30
0
11
-2.499938
21
37.881918
31
0
39
0
210
0
220
0
230
1
0
LINE
5
A8
100
AcDbEntity
8
80
62
256
6
ByLayer
370
13
48
1
60
0
100
AcDbLine
10
0
20
0
30
0
11
-15
21
0
31
0
39
0
210
0
220
0
230
1
0
LINE
5
A9
100
AcDbEntity
8
1
62
256
6
ByLayer
370
18
48
1
60
0
100
AcDbLine
10
21.515062
20
33.628551
30
0
11
18.485062
21
33.628551
31
0
39
0
210
0
220
0
230
1
0
LINE
5
AA
100
AcDbEntity
8
1
62
256
6
ByLayer
370
18
48
1
60
0
100
AcDbLine
10
4.950062
20
38.906044
30
0
11
16.75824
21
38.906044
31
0
39
0
210
0
220
0
230
1
0
LINE
5
AB
100
AcDbEntity
8
1
62
256
6
ByLayer
370
18
48
1
60
0
100
AcDbLine
10
28.950062
20
31.350019
30
0
11
14.646813
21
31.350019
31
0
39
0
210
0
220
0
230
1
0
LINE
5
AC
100
AcDbEntity
8
1
62
256
6
ByLayer
370
18
48
1
60
0
100
AcDbLine
10
28.250062
20
38.906044
30
0
11
23.241884
21
38.906044
31
0
39
0
210
0
220
0
230
1
0
LINE
5
AD
100
AcDbEntity
8
81
62
256
6
ByLayer
370
13
48
1
60
0
100
AcDbLine
10
77.5
20
38
30
0
11
77.5
21
48
31
0
39
0
210
0
220
0
230
1
0
LINE
5
AE
100
AcDbEntity
8
1
62
256
6
ByLayer
370
18
48
1
60
0
100
AcDbLine
10
43.000013
20
-43.600013
30
0
11
30.150013
21
-43.600013
31
0
39
0
210
0
220
0
230
1
0
LINE
5
AF
100
AcDbEntity
8
1
62
256
6
ByLayer
370
18
48
1
60
0
100
AcDbLine
10
30.150013
20
43.599987
30
0
11
43.000013
21
43.599987
31
0
39
0
210
0
220
0
230
1
0
LINE
5
B0
100
AcDbEntity
8
1
62
256
6
ByLayer
370
18
48
1
60
0
100
AcDbLine
10
59.200013
20
31.499987
30
0
11
67.636043
21
31.499987
31
0
39
0
210
0
220
0
230
1
0
LINE
5
B1
100
AcDbEntity
8
1
62
256
6
ByLayer
370
18
48
1
60
0
100
AcDbLine
10
58.000013
20
37.999987
30
0
11
58.000013
21
32.699987
31
0
39
0
210
0
220
0
230
1
0
LINE
5
B2
100
AcDbEntity
8
1
62
256
6
ByLayer
370
18
48
1
60
0
100
AcDbLine
10
44.079221
20
-29.613524
30
0
11
43.800013
21
-29.613524
31
0
39
0
210
0
220
0
230
1
0
LINE
5
B3
100
AcDbEntity
8
1
62
256
6
ByLayer
370
18
48
1
60
0
100
AcDbLine
10
43.800013
20
29.613497
30
0
11
44.079221
21
29.613497
31
0
39
0
210
0
220
0
230
1
0
LINE
5
B4
100
AcDbEntity
8
1
62
256
6
ByLayer
370
18
48
1
60
0
100
AcDbLine
10
44.079221
20
29.613497
30
0
11
44.079221
21
37.999987
31
0
39
0
210
0
220
0
230
1
0
LINE
5
B5
100
AcDbEntity
8
1
62
256
6
ByLayer
370
18
48
1
60
0
100
AcDbLine
10
68.000013
20
30.499987
30
0
11
45.122405
21
30.499987
31
0
39
0
210
0
220
0
230
1
0
LINE
5
B6
100
AcDbEntity
8
1
62
256
6
ByLayer
370
18
48
1
60
0
100
AcDbLine
10
43.000013
20
-28.724916
30
0
11
43.000013
21
28.724889
31
0
39
0
210
0
220
0
230
1
0
LINE
5
B7
100
AcDbEntity
8
1
62
256
6
ByLayer
370
18
48
1
60
0
100
AcDbLine
10
58.000013
20
37.999987
30
0
11
58.000013
21
32.699987
31
0
39
0
210
0
220
0
230
1
0
LINE
5
B8
100
AcDbEntity
8
1
62
256
6
ByLayer
370
18
48
1
60
0
100
AcDbLine
10
62.000013
20
37.999987
30
0
11
58.000013
21
37.999987
31
0
39
0
210
0
220
0
230
1
0
LINE
5
B9
100
AcDbEntity
8
1
62
256
6
ByLayer
370
18
48
1
60
0
100
AcDbLine
10
65.000013
20
34.999987
30
0
11
62.000013
21
37.999987
31
0
39
0
210
0
220
0
230
1
0
LINE
5
BA
100
AcDbEntity
8
1
62
256
6
ByLayer
370
18
48
1
60
0
100
AcDbLine
10
79.000013
20
30.499987
30
0
11
90.000013
21
19.499987
31
0
39
0
210
0
220
0
230
1
0
LINE
5
BB
100
AcDbEntity
8
1
62
256
6
ByLayer
370
18
48
1
60
0
100
AcDbLine
10
90.000013
20
19.499987
30
0
11
90.000013
21
-19.500013
31
0
39
0
210
0
220
0
230
1
0
LINE
5
BC
100
AcDbEntity
8
1
62
256
6
ByLayer
370
18
48
1
60
0
100
AcDbLine
10
90.000013
20
-19.500013
30
0
11
79.000013
21
-30.500013
31
0
39
0
210
0
220
0
230
1
0
LINE
5
BD
100
AcDbEntity
8
1
62
256
6
ByLayer
370
18
48
1
60
0
100
AcDbLine
10
68.000013
20
-30.500013
30
0
11
68.000013
21
30.499987
31
0
39
0
210
0
220
0
230
1
0
LINE
5
BE
100
AcDbEntity
8
1
62
256
6
ByLayer
370
18
48
1
60
0
100
AcDbLine
10
78.000013
20
31.499987
30
0
11
79.000013
21
30.499987
31
0
39
0
210
0
220
0
230
1
0
LINE
5
BF
100
AcDbEntity
8
1
62
256
6
ByLayer
370
18
48
1
60
0
100
AcDbLine
10
67.636043
20
31.499987
30
0
11
78.000013
21
31.499987
31
0
39
0
210
0
220
0
230
1
0
LINE
5
C0
100
AcDbEntity
8
1
62
256
6
ByLayer
370
18
48
1
60
0
100
AcDbLine
10
79.000013
20
30.499987
30
0
11
68.000013
21
30.499987
31
0
39
0
210
0
220
0
230
1
0
LINE
5
C1
100
AcDbEntity
8
1
62
256
6
ByLayer
370
18
48
1
60
0
100
AcDbLine
10
67.636043
20
31.499987
30
0
11
68.000013
21
30.499987
31
0
39
0
210
0
220
0
230
1
0
LINE
5
C2
100
AcDbEntity
8
1
62
256
6
ByLayer
370
18
48
1
60
0
100
AcDbLine
10
58.000013
20
-32.700013
30
0
11
58.000013
21
-38.000013
31
0
39
0
210
0
220
0
230
1
0
LINE
5
C3
100
AcDbEntity
8
1
62
256
6
ByLayer
370
18
48
1
60
0
100
AcDbLine
10
67.636043
20
-31.500013
30
0
11
59.200013
21
-31.500013
31
0
39
0
210
0
220
0
230
1
0
LINE
5
C4
100
AcDbEntity
8
1
62
256
6
ByLayer
370
18
48
1
60
0
100
AcDbLine
10
45.122405
20
-30.500013
30
0
11
68.000013
21
-30.500013
31
0
39
0
210
0
220
0
230
1
0
LINE
5
C5
100
AcDbEntity
8
1
62
256
6
ByLayer
370
18
48
1
60
0
100
AcDbLine
10
78.000013
20
-31.500013
30
0
11
67.636043
21
-31.500013
31
0
39
0
210
0
220
0
230
1
0
LINE
5
C6
100
AcDbEntity
8
1
62
256
6
ByLayer
370
18
48
1
60
0
100
AcDbLine
10
79.000013
20
-30.500013
30
0
11
78.000013
21
-31.500013
31
0
39
0
210
0
220
0
230
1
0
LINE
5
C7
100
AcDbEntity
8
1
62
256
6
ByLayer
370
18
48
1
60
0
100
AcDbLine
10
68.000013
20
-30.500013
30
0
11
79.000013
21
-30.500013
31
0
39
0
210
0
220
0
230
1
0
LINE
5
C8
100
AcDbEntity
8
1
62
256
6
ByLayer
370
18
48
1
60
0
100
AcDbLine
10
68.000013
20
-30.500013
30
0
11
67.636043
21
-31.500013
31
0
39
0
210
0
220
0
230
1
0
LINE
5
C9
100
AcDbEntity
8
1
62
256
6
ByLayer
370
18
48
1
60
0
100
AcDbLine
10
58.000013
20
-38.000013
30
0
11
62.000013
21
-38.000013
31
0
39
0
210
0
220
0
230
1
0
LINE
5
CA
100
AcDbEntity
8
1
62
256
6
ByLayer
370
18
48
1
60
0
100
AcDbLine
10
58.000013
20
-32.700013
30
0
11
58.000013
21
-38.000013
31
0
39
0
210
0
220
0
230
1
0
LINE
5
CB
100
AcDbEntity
8
1
62
256
6
ByLayer
370
18
48
1
60
0
100
AcDbLine
10
62.000013
20
-38.000013
30
0
11
65.000013
21
-35.000013
31
0
39
0
210
0
220
0
230
1
0
LINE
5
CC
100
AcDbEntity
8
1
62
256
6
ByLayer
370
18
48
1
60
0
100
AcDbLine
10
89.750013
20
36.249987
30
0
11
88.000013
21
37.999987
31
0
39
0
210
0
220
0
230
1
0
LINE
5
CD
100
AcDbEntity
8
1
62
256
6
ByLayer
370
18
48
1
60
0
100
AcDbLine
10
89.750013
20
-36.250013
30
0
11
90.000013
21
-36.000013
31
0
39
0
210
0
220
0
230
1
0
LINE
5
CE
100
AcDbEntity
8
1
62
256
6
ByLayer
370
18
48
1
60
0
100
AcDbLine
10
90.000013
20
-36.000013
30
0
11
90.000013
21
35.999987
31
0
39
0
210
0
220
0
230
1
0
LINE
5
CF
100
AcDbEntity
8
1
62
256
6
ByLayer
370
18
48
1
60
0
100
AcDbLine
10
90.000013
20
35.999987
30
0
11
89.750013
21
36.249987
31
0
39
0
210
0
220
0
230
1
0
LINE
5
D0
100
AcDbEntity
8
1
62
256
6
ByLayer
370
18
48
1
60
0
100
AcDbLine
10
89.500013
20
35.999987
30
0
11
89.750013
21
36.249987
31
0
39
0
210
0
220
0
230
1
0
LINE
5
D1
100
AcDbEntity
8
1
62
256
6
ByLayer
370
18
48
1
60
0
100
AcDbLine
10
88.000013
20
-38.000013
30
0
11
89.750013
21
-36.250013
31
0
39
0
210
0
220
0
230
1
0
LINE
5
D2
100
AcDbEntity
8
1
62
256
6
ByLayer
370
18
48
1
60
0
100
AcDbLine
10
89.750013
20
-36.250013
30
0
11
89.500013
21
-36.000013
31
0
39
0
210
0
220
0
230
1
0
LINE
5
D3
100
AcDbEntity
8
1
62
256
6
ByLayer
370
18
48
1
60
0
100
AcDbLine
10
74.000013
20
-20.732064
30
0
11
77.000013
21
-22.464115
31
0
39
0
210
0
220
0
230
1
0
LINE
5
D4
100
AcDbEntity
8
1
62
256
6
ByLayer
370
18
48
1
60
0
100
AcDbLine
10
74.000013
20
-17.267963
30
0
11
74.000013
21
-20.732064
31
0
39
0
210
0
220
0
230
1
0
LINE
5
D5
100
AcDbEntity
8
1
62
256
6
ByLayer
370
18
48
1
60
0
100
AcDbLine
10
77.000013
20
-15.535912
30
0
11
74.000013
21
-17.267963
31
0
39
0
210
0
220
0
230
1
0
LINE
5
D6
100
AcDbEntity
8
1
62
256
6
ByLayer
370
18
48
1
60
0
100
AcDbLine
10
80.000013
20
-17.267963
30
0
11
77.000013
21
-15.535912
31
0
39
0
210
0
220
0
230
1
0
LINE
5
D7
100
AcDbEntity
8
1
62
256
6
ByLayer
370
18
48
1
60
0
100
AcDbLine
10
80.000013
20
-20.732064
30
0
11
80.000013
21
-17.267963
31
0
39
0
210
0
220
0
230
1
0
LINE
5
D8
100
AcDbEntity
8
1
62
256
6
ByLayer
370
18
48
1
60
0
100
AcDbLine
10
77.000013
20
-22.464115
30
0
11
80.000013
21
-20.732064
31
0
39
0
210
0
220
0
230
1
0
LINE
5
D9
100
AcDbEntity
8
1
62
256
6
ByLayer
370
18
48
1
60
0
100
AcDbLine
10
74.000013
20
-1.732064
30
0
11
77.000013
21
-3.464115
31
0
39
0
210
0
220
0
230
1
0
LINE
5
DA
100
AcDbEntity
8
1
62
256
6
ByLayer
370
18
48
1
60
0
100
AcDbLine
10
74.000013
20
1.732037
30
0
11
74.000013
21
-1.732064
31
0
39
0
210
0
220
0
230
1
0
LINE
5
DB
100
AcDbEntity
8
1
62
256
6
ByLayer
370
18
48
1
60
0
100
AcDbLine
10
77.000013
20
3.464088
30
0
11
74.000013
21
1.732037
31
0
39
0
210
0
220
0
230
1
0
LINE
5
DC
100
AcDbEntity
8
1
62
256
6
ByLayer
370
18
48
1
60
0
100
AcDbLine
10
80.000013
20
1.732037
30
0
11
77.000013
21
3.464088
31
0
39
0
210
0
220
0
230
1
0
LINE
5
DD
100
AcDbEntity
8
1
62
256
6
ByLayer
370
18
48
1
60
0
100
AcDbLine
10
80.000013
20
-1.732064
30
0
11
80.000013
21
1.732037
31
0
39
0
210
0
220
0
230
1
0
LINE
5
DE
100
AcDbEntity
8
1
62
256
6
ByLayer
370
18
48
1
60
0
100
AcDbLine
10
77.000013
20
-3.464115
30
0
11
80.000013
21
-1.732064
31
0
39
0
210
0
220
0
230
1
0
LINE
5
DF
100
AcDbEntity
8
1
62
256
6
ByLayer
370
18
48
1
60
0
100
AcDbLine
10
74.000013
20
17.267936
30
0
11
77.000013
21
15.535885
31
0
39
0
210
0
220
0
230
1
0
LINE
5
E0
100
AcDbEntity
8
1
62
256
6
ByLayer
370
18
48
1
60
0
100
AcDbLine
10
74.000013
20
20.732037
30
0
11
74.000013
21
17.267936
31
0
39
0
210
0
220
0
230
1
0
LINE
5
E1
100
AcDbEntity
8
1
62
256
6
ByLayer
370
18
48
1
60
0
100
AcDbLine
10
77.000013
20
22.464088
30
0
11
74.000013
21
20.732037
31
0
39
0
210
0
220
0
230
1
0
LINE
5
E2
100
AcDbEntity
8
1
62
256
6
ByLayer
370
18
48
1
60
0
100
AcDbLine
10
80.000013
20
20.732037
30
0
11
77.000013
21
22.464088
31
0
39
0
210
0
220
0
230
1
0
LINE
5
E3
100
AcDbEntity
8
1
62
256
6
ByLayer
370
18
48
1
60
0
100
AcDbLine
10
80.000013
20
17.267936
30
0
11
80.000013
21
20.732037
31
0
39
0
210
0
220
0
230
1
0
LINE
5
E4
100
AcDbEntity
8
1
62
256
6
ByLayer
370
18
48
1
60
0
100
AcDbLine
10
77.000013
20
15.535885
30
0
11
80.000013
21
17.267936
31
0
39
0
210
0
220
0
230
1
0
LINE
5
E5
100
AcDbEntity
8
1
62
256
6
ByLayer
370
18
48
1
60
0
100
AcDbLine
10
43.800013
20
37.999987
30
0
11
58.000013
21
37.999987
31
0
39
0
210
0
220
0
230
1
0
LINE
5
E6
100
AcDbEntity
8
1
62
256
6
ByLayer
370
18
48
1
60
0
100
AcDbLine
10
43.000013
20
38.799987
30
0
11
43.000013
21
43.599987
31
0
39
0
210
0
220
0
230
1
0
LINE
5
E7
100
AcDbEntity
8
1
62
256
6
ByLayer
370
18
48
1
60
0
100
AcDbLine
10
89.500013
20
-36.000013
30
0
11
89.500013
21
-20.000013
31
0
39
0
210
0
220
0
230
1
0
LINE
5
E8
100
AcDbEntity
8
1
62
256
6
ByLayer
370
18
48
1
60
0
100
AcDbLine
10
89.500013
20
19.999987
30
0
11
89.500013
21
35.999987
31
0
39
0
210
0
220
0
230
1
0
LINE
5
E9
100
AcDbEntity
8
1
62
256
6
ByLayer
370
18
48
1
60
0
100
AcDbLine
10
43.000013
20
-38.799987
30
0
11
43.000013
21
-43.599987
31
0
39
0
210
0
220
0
230
1
0
LINE
5
EA
100
AcDbEntity
8
1
62
256
6
ByLayer
370
18
48
1
60
0
100
AcDbLine
10
44.079221
20
-29.613497
30
0
11
44.079221
21
-37.999987
31
0
39
0
210
0
220
0
230
1
0
LINE
5
EB
100
AcDbEntity
8
1
62
256
6
ByLayer
370
18
48
1
60
0
100
AcDbLine
10
58.000013
20
-38.000013
30
0
11
43.800013
21
-38.000013
31
0
39
0
210
0
220
0
230
1
0
LINE
5
EC
100
AcDbEntity
8
1
62
256
6
ByLayer
370
18
48
1
60
0
100
AcDbLine
10
84.036992
20
25.999987
30
0
11
84.036992
21
25.463008
31
0
39
0
210
0
220
0
230
1
0
LINE
5
ED
100
AcDbEntity
8
1
62
256
6
ByLayer
370
18
48
1
60
0
100
AcDbLine
10
73.636908
20
31.499987
30
0
11
73.636908
21
31.599879
31
0
39
0
210
0
220
0
230
1
0
LINE
5
EE
100
AcDbEntity
8
1
62
256
6
ByLayer
370
18
48
1
60
0
100
AcDbLine
10
84.036992
20
-25.463035
30
0
11
84.036992
21
-26.000013
31
0
39
0
210
0
220
0
230
1
0
LINE
5
EF
100
AcDbEntity
8
1
62
256
6
ByLayer
370
18
48
1
60
0
100
AcDbLine
10
73.636908
20
-31.599906
30
0
11
73.636908
21
-31.500013
31
0
39
0
210
0
220
0
230
1
0
LINE
5
F0
100
AcDbEntity
8
1
62
256
6
ByLayer
370
18
48
1
60
0
100
AcDbLine
10
88.000013
20
37.999987
30
0
11
62.000013
21
37.999987
31
0
39
0
210
0
220
0
230
1
0
LINE
5
F1
100
AcDbEntity
8
1
62
256
6
ByLayer
370
18
48
1
60
0
100
AcDbLine
10
89.500013
20
35.999987
30
0
11
64.000013
21
35.999987
31
0
39
0
210
0
220
0
230
1
0
LINE
5
F2
100
AcDbEntity
8
1
62
256
6
ByLayer
370
18
48
1
60
0
100
AcDbLine
10
63.339569
20
31.499987
30
0
11
64.245441
21
33.988849
31
0
39
0
210
0
220
0
230
1
0
LINE
5
F3
100
AcDbEntity
8
1
62
256
6
ByLayer
370
18
48
1
60
0
100
AcDbLine
10
68.660458
20
31.499987
30
0
11
68.943904
21
32.278748
31
0
39
0
210
0
220
0
230
1
0
LINE
5
F4
100
AcDbEntity
8
1
62
256
6
ByLayer
370
18
48
1
60
0
100
AcDbLine
10
65.000013
20
34.280518
30
0
11
65.000013
21
34.999987
31
0
39
0
210
0
220
0
230
1
0
LINE
5
F5
100
AcDbEntity
8
1
62
256
6
ByLayer
370
18
48
1
60
0
100
AcDbLine
10
64.000013
20
-36.000013
30
0
11
89.500013
21
-36.000013
31
0
39
0
210
0
220
0
230
1
0
LINE
5
F6
100
AcDbEntity
8
1
62
256
6
ByLayer
370
18
48
1
60
0
100
AcDbLine
10
62.000013
20
-38.000013
30
0
11
88.000013
21
-38.000013
31
0
39
0
210
0
220
0
230
1
0
LINE
5
F7
100
AcDbEntity
8
1
62
256
6
ByLayer
370
18
48
1
60
0
100
AcDbLine
10
63.339569
20
-31.500013
30
0
11
64.245441
21
-33.988876
31
0
39
0
210
0
220
0
230
1
0
LINE
5
F8
100
AcDbEntity
8
1
62
256
6
ByLayer
370
18
48
1
60
0
100
AcDbLine
10
68.943904
20
-32.278775
30
0
11
68.660458
21
-31.500013
31
0
39
0
210
0
220
0
230
1
0
LINE
5
F9
100
AcDbEntity
8
1
62
256
6
ByLayer
370
18
48
1
60
0
100
AcDbLine
10
65.000013
20
-35.000013
30
0
11
65.000013
21
-34.280545
31
0
39
0
210
0
220
0
230
1
0
LINE
5
FA
100
AcDbEntity
8
SK3
62
256
6
ByLayer
370
13
48
0.05
60
0
100
AcDbLine
10
65
20
31.499987
30
0
11
65
21
-31.500013
31
0
39
0
210
0
220
0
230
1
0
LINE
5
FB
100
AcDbEntity
8
SK4
62
256
6
ByLayer
370
13
48
0.05
60
0
100
AcDbLine
10
-52.5
20
0
30
0
11
94.688134
21
0
31
0
39
0
210
0
220
0
230
1
0
LINE
5
FD
100
AcDbEntity
8
4
62
256
6
ByLayer
370
13
48
0.05
60
0
100
AcDbLine
10
0
20
0
30
0
11
90.000013
21
0
31
0
39
0
210
0
220
0
230
1
0
MTEXT
5
12E
100
AcDbEntity
8
SK6
62
256
6
ByLayer
370
18
48
1
60
0
100
AcDbMText
10
1.347837
20
-62.08822
30
0
210
0
220
0
230
1
1
\W0.7593;HT10-ASHA-090-25HP
40
3.5
41
0
44
1.084337
50
0
71
7
72
5
7
iso_b_vert
0
DIMENSION
5
140
100
AcDbEntity
8
SK2
62
256
6
ByLayer
370
13
48
1
60
0
100
AcDbDimension
2
DimnDraft3D1
10
1.3E-05
20
75.331642
30
0
11
-26.792092
21
75.331642
31
0
70
32
71
5
72
1
41
1
210
0
220
0
230
1
3
Standard
100
AcDbAlignedDimension
13
-49.999987
23
35.097502
33
0
14
1.3E-05
24
50.764971
34
0
50
0
100
AcDbRotatedDimension
1001
ACAD
1000
DSTYLE
1002
{
1070
   279
1070
     0
1070
   173
1070
     1
1070
   340
1005
12F
1070
   271
1070
     0
1070
   272
1070
     2
1070
    77
1070
     1
1070
    73
1070
     0
1070
   171
1070
     4
1070
   274
1070
     4
1070
   177
1070
     7
1070
   176
1070
     7
1070
   178
1070
     7
1070
    41
1041
3.0
1070
   147
1041
1.5
1070
    42
1041
1.5
1070
    44
1041
3.0
1070
   140
1041
3.0
1070
   343
1005
141
1070
   344
1005
141
1002
}
0
DIMENSION
5
155
100
AcDbEntity
8
SK2
62
256
6
ByLayer
370
13
48
1
60
0
100
AcDbDimension
2
DimnDraft3D2
10
-75.778472
20
50
30
0
11
-75.778472
21
-4.898684
31
0
70
32
71
5
72
1
41
1
210
0
220
0
230
1
3
Standard
100
AcDbAlignedDimension
13
-0.764958
23
-50
33
0
14
-0.764958
24
50
34
0
50
90
100
AcDbRotatedDimension
1001
ACAD
1000
DSTYLE
1002
{
1070
    74
1070
     0
1070
   279
1070
     0
1070
   173
1070
     1
1070
   340
1005
12F
1070
   271
1070
     0
1070
   272
1070
     2
1070
    77
1070
     1
1070
    73
1070
     0
1070
   171
1070
     4
1070
   274
1070
     4
1070
   177
1070
     7
1070
   176
1070
     7
1070
   178
1070
     7
1070
    41
1041
3.0
1070
   147
1041
1.5
1070
    42
1041
1.5
1070
    44
1041
3.0
1070
   140
1041
3.0
1070
   343
1005
141
1070
   344
1005
141
1002
}
0
DIMENSION
5
163
100
AcDbEntity
8
SK2
62
256
6
ByLayer
370
13
48
1
60
0
100
AcDbDimension
2
DimnDraft3D3
10
-64.847264
20
37.5
30
0
11
-64.847264
21
-4.152632
31
0
70
32
71
5
72
1
41
1
210
0
220
0
230
1
3
Standard
100
AcDbAlignedDimension
13
-11.499987
23
-37.5
33
0
14
-11.499987
24
37.5
34
0
50
90
100
AcDbRotatedDimension
1001
ACAD
1000
DSTYLE
1002
{
1070
    74
1070
     0
1070
   279
1070
     0
1070
   173
1070
     1
1070
   340
1005
12F
1070
   271
1070
     0
1070
   272
1070
     2
1070
    77
1070
     1
1070
    73
1070
     0
1070
   171
1070
     4
1070
   274
1070
     4
1070
   177
1070
     7
1070
   176
1070
     7
1070
   178
1070
     7
1070
    41
1041
3.0
1070
   147
1041
1.5
1070
    42
1041
1.5
1070
    44
1041
3.0
1070
   140
1041
3.0
1070
   343
1005
141
1070
   344
1005
141
1002
}
0
DIMENSION
5
171
100
AcDbEntity
8
SK2
62
256
6
ByLayer
370
13
48
1
60
0
100
AcDbDimension
2
DimnDraft3D4
10
90.000013
20
99.188877
30
0
11
43.247382
21
99.188877
31
0
70
32
71
5
72
1
41
1
210
0
220
0
230
1
3
Standard
100
AcDbAlignedDimension
13
1.3E-05
23
50.764971
33
0
14
90.000013
24
37.499987
34
0
50
0
100
AcDbRotatedDimension
1001
ACAD
1000
DSTYLE
1002
{
1070
   279
1070
     0
1070
   173
1070
     1
1070
   340
1005
12F
1070
   271
1070
     0
1070
   272
1070
     2
1070
    77
1070
     1
1070
    73
1070
     0
1070
   171
1070
     4
1070
   274
1070
     4
1070
   177
1070
     7
1070
   176
1070
     7
1070
   178
1070
     7
1070
    41
1041
3.0
1070
   147
1041
1.5
1070
    42
1041
1.5
1070
    44
1041
3.0
1070
   140
1041
3.0
1070
   343
1005
0
1070
   344
1005
0
1002
}
0
DIMENSION
5
180
100
AcDbEntity
8
2
62
256
6
ByLayer
370
13
48
1
60
0
100
AcDbDimension
2
DimnDraft3D5
10
65
20
86.858277
30
0
11
30.747375
21
86.858277
31
0
70
32
71
5
72
1
41
1
210
0
220
0
230
1
3
Standard
100
AcDbAlignedDimension
13
1.3E-05
23
50.764971
33
0
14
65
24
32.999987
34
0
50
0
100
AcDbRotatedDimension
1001
ACAD
1000
DSTYLE
1002
{
1070
   279
1070
     0
1070
   173
1070
     1
1070
   340
1005
12F
1070
   271
1070
     0
1070
   272
1070
     2
1070
    77
1070
     1
1070
    73
1070
     0
1070
   171
1070
     4
1070
   274
1070
     4
1070
   177
1070
     7
1070
   176
1070
     7
1070
   178
1070
     7
1070
    41
1041
3.0
1070
   147
1041
1.5
1070
    42
1041
1.5
1070
    44
1041
3.0
1070
   140
1041
3.0
1070
   343
1005
0
1070
   344
1005
0
1002
}
0
DIMENSION
5
18E
100
AcDbEntity
8
SK2
62
256
6
ByLayer
370
13
48
1
60
0
100
AcDbDimension
2
DimnDraft3D6
10
107.737402
20
0
30
0
11
107.737402
21
12.682888
31
0
70
32
71
5
72
1
41
1
210
0
220
0
230
1
3
Standard
100
AcDbAlignedDimension
13
79.500013
23
31.499987
33
0
14
96.188134
24
0
34
0
50
90
100
AcDbRotatedDimension
1001
ACAD
1000
DSTYLE
1002
{
1070
    74
1070
     0
1070
   279
1070
     0
1070
   173
1070
     1
1070
   340
1005
12F
1070
   271
1070
     1
1070
   272
1070
     2
1070
    77
1070
     1
1070
    73
1070
     0
1070
   171
1070
     4
1070
   274
1070
     4
1070
   177
1070
     7
1070
   176
1070
     7
1070
   178
1070
     7
1070
    41
1041
3.0
1070
   147
1041
1.5
1070
    42
1041
1.5
1070
    44
1041
3.0
1070
   140
1041
3.0
1070
   343
1005
141
1070
   344
1005
141
1002
}
0
DIMENSION
5
19C
100
AcDbEntity
8
SK2
62
256
6
ByLayer
370
13
48
1
60
0
100
AcDbDimension
2
DimnDraft3D7
10
107.737402
20
-31.500013
30
0
11
107.737402
21
16.438212
31
0
70
32
71
5
72
1
41
1
210
0
220
0
230
1
3
Standard
100
AcDbAlignedDimension
13
96.188134
23
0
33
0
14
79.500013
24
-31.500013
34
0
50
90
100
AcDbRotatedDimension
1001
ACAD
1000
DSTYLE
1002
{
1070
    74
1070
     0
1070
   279
1070
     0
1070
   173
1070
     1
1070
   340
1005
12F
1070
   271
1070
     1
1070
   272
1070
     2
1070
    77
1070
     1
1070
    73
1070
     0
1070
   171
1070
     4
1070
   274
1070
     4
1070
   177
1070
     7
1070
   176
1070
     7
1070
   178
1070
     7
1070
    41
1041
3.0
1070
   147
1041
1.5
1070
    42
1041
1.5
1070
    44
1041
3.0
1070
   140
1041
3.0
1070
   343
1005
141
1070
   344
1005
141
1002
}
0
DIMENSION
5
1AA
100
AcDbEntity
8
SK2
62
256
6
ByLayer
370
13
48
1
60
0
100
AcDbDimension
2
DimnDraft3D8
10
121.413164
20
0
30
0
11
121.413164
21
17.247362
31
0
70
32
71
5
72
1
41
1
210
0
220
0
230
1
3
Standard
100
AcDbAlignedDimension
13
89.500013
23
37.999987
33
0
14
96.188134
24
0
34
0
50
90
100
AcDbRotatedDimension
1001
ACAD
1000
DSTYLE
1002
{
1070
    74
1070
     0
1070
   279
1070
     0
1070
   173
1070
     1
1070
   340
1005
12F
1070
   271
1070
     0
1070
   272
1070
     2
1070
    77
1070
     1
1070
    73
1070
     0
1070
   171
1070
     4
1070
   274
1070
     4
1070
   177
1070
     7
1070
   176
1070
     7
1070
   178
1070
     7
1070
    41
1041
3.0
1070
   147
1041
1.5
1070
    42
1041
1.5
1070
    44
1041
3.0
1070
   140
1041
3.0
1070
   343
1005
0
1070
   344
1005
0
1002
}
0
DIMENSION
5
1B8
100
AcDbEntity
8
SK2
62
256
6
ByLayer
370
13
48
1
60
0
100
AcDbDimension
2
DimnDraft3D9
10
121.413164
20
0
30
0
11
121.413164
21
18.686283
31
0
70
32
71
5
72
1
41
1
210
0
220
0
230
1
3
Standard
100
AcDbAlignedDimension
13
89.500013
23
-38.000013
33
0
14
96.188134
24
0
34
0
50
90
100
AcDbRotatedDimension
1001
ACAD
1000
DSTYLE
1002
{
1070
    74
1070
     0
1070
   279
1070
     0
1070
   173
1070
     1
1070
   340
1005
12F
1070
   271
1070
     0
1070
   272
1070
     2
1070
    77
1070
     1
1070
    73
1070
     0
1070
   171
1070
     4
1070
   274
1070
     4
1070
   177
1070
     7
1070
   176
1070
     7
1070
   178
1070
     7
1070
    41
1041
3.0
1070
   147
1041
1.5
1070
    42
1041
1.5
1070
    44
1041
3.0
1070
   140
1041
3.0
1070
   343
1005
0
1070
   344
1005
0
1002
}
0
DIMENSION
5
1C6
100
AcDbEntity
8
SK2
62
256
6
ByLayer
370
13
48
1
60
0
100
AcDbDimension
2
DimnDraft3D10
10
43.000013
20
75.431099
30
0
11
19.589487
21
75.431099
31
0
70
32
71
5
72
1
41
1
210
0
220
0
230
1
3
Standard
100
AcDbAlignedDimension
13
1.3E-05
23
50.764971
33
0
14
43.000013
24
45.099987
34
0
50
0
100
AcDbRotatedDimension
1001
ACAD
1000
DSTYLE
1002
{
1070
   279
1070
     0
1070
   173
1070
     1
1070
   340
1005
12F
1070
   271
1070
     0
1070
   272
1070
     2
1070
    77
1070
     1
1070
    73
1070
     0
1070
   171
1070
     4
1070
   274
1070
     4
1070
   177
1070
     7
1070
   176
1070
     7
1070
   178
1070
     7
1070
    41
1041
3.0
1070
   147
1041
1.5
1070
    42
1041
1.5
1070
    44
1041
3.0
1070
   140
1041
3.0
1070
   343
1005
141
1070
   344
1005
141
1002
}
0
ENDSEC
0
SECTION
2
OBJECTS
0
DICTIONARY
5
234
330
0
100
AcDbDictionary
280
0
281
1
3
ACAD_GROUP
350
235
3
ACAD_GROUP
350
236
3
ACAD_MLINESTYLE
350
237
0
DICTIONARY
5
235
330
0
100
AcDbDictionary
280
0
281
1
0
DICTIONARY
5
236
330
0
100
AcDbDictionary
280
0
281
1
3
<112004516MOD000_00>
350
1CF
0
DICTIONARY
5
237
330
0
100
AcDbDictionary
280
0
281
1
3
Standard
350
18
0
GROUP
5
1CF
330
236
100
AcDbGroup
300

70
0
71
1
340
6C
340
6E
340
70
340
72
340
73
340
74
340
75
340
77
340
79
340
7A
340
7B
340
7C
340
7D
340
7E
340
7F
340
80
340
81
340
82
340
83
340
84
340
85
340
86
340
87
340
88
340
89
340
8A
340
8B
340
8C
340
8D
340
8E
340
8F
340
90
340
91
340
92
340
93
340
94
340
95
340
96
340
97
340
98
340
99
340
9A
340
9B
340
9C
340
9D
340
9E
340
9F
340
A0
340
A1
340
A2
340
A3
340
A4
340
A5
340
A6
340
A7
340
A8
340
A9
340
AA
340
AB
340
AC
340
AD
340
AE
340
AF
340
B0
340
B1
340
B2
340
B3
340
B4
340
B5
340
B6
340
B7
340
B8
340
B9
340
BA
340
BB
340
BC
340
BD
340
BE
340
BF
340
C0
340
C1
340
C2
340
C3
340
C4
340
C5
340
C6
340
C7
340
C8
340
C9
340
CA
340
CB
340
CC
340
CD
340
CE
340
CF
340
D0
340
D1
340
D2
340
D3
340
D4
340
D5
340
D6
340
D7
340
D8
340
D9
340
DA
340
DB
340
DC
340
DD
340
DE
340
DF
340
E0
340
E1
340
E2
340
E3
340
E4
340
E5
340
E6
340
E7
340
E8
340
E9
340
EA
340
EB
340
EC
340
ED
340
EE
340
EF
340
F0
340
F1
340
F2
340
F3
340
F4
340
F5
340
F6
340
F7
340
F8
340
F9
340
FA
340
FB
340
FD
340
FF
340
100
340
101
340
102
340
103
340
104
340
105
340
106
340
107
340
108
340
109
340
10A
340
10B
340
10C
340
10D
340
10E
340
10F
340
110
340
111
340
112
340
113
340
114
340
115
340
116
340
117
340
118
340
119
340
11A
340
11B
340
11C
340
11D
340
11E
340
11F
340
120
340
121
340
122
340
123
340
124
340
125
340
126
340
127
340
128
340
129
340
12A
340
12B
340
12C
340
12D
340
12E
340
140
340
155
340
163
340
171
340
180
340
18E
340
19C
340
1AA
340
1B8
340
1C6
0
MLINESTYLE
5
18
330
237
100
AcDbMlineStyle
2
Standard
70
0
3

62
256
51
90
52
90
71
2
49
-0.5
62
256
6
ByLayer
49
0.5
62
256
6
ByLayer
0
RASTERVARIABLES
5
220
330

100
AcDbRasterVariables
90
0
70
1
71
1
72
1
0
ENDSEC
0
EOF
