0
SECTION
2
HEADER
9
$ACADVER
1
AC1015
9
$DWGCODEPAGE
3
ANSI_1252
9
$HANDSEED
5
250
9
$ANGBASE
50
0
9
$ANGDIR
70
0
9
$ATTMODE
70
1
9
$AUNITS
70
0
9
$AUPREC
70
0
9
$CECOLOR
62
256
9
$CELTSCALE
40
1
9
$CELTYPE
6
ByLayer
9
$CELWEIGHT
370
18
9
$CLAYER
8
0
9
$CMLJUST
70
0
9
$CMLSCALE
40
1
9
$CMLSTYLE
2
Standard
9
$DIMSTYLE
2
Standard
9
$TEXTSIZE
40
0.2
9
$TEXTSTYLE
7
Standard
9
$LUNITS
70
2
9
$LUPREC
70
4
9
$EXTNAMES
290
1
9
$INSUNITS
70
4
9
$LTSCALE
40
1
9
$LWDISPLAY
290
1
9
$PDMODE
70
0
9
$PDSIZE
40
0
9
$PLINEGEN
70
0
0
ENDSEC
0
SECTION
2
CLASSES
0
CLASS
1
RASTERVARIABLES
2
AcDbRasterVariables
3
ISM
90
0
280
0
281
0
0
ENDSEC
0
SECTION
2
TABLES
0
TABLE
2
VPORT
5
246
100
AcDbSymbolTable
0
VPORT
5
1
100
AcDbSymbolTableRecord
100
AcDbViewportTableRecord
2
*Active
70
0
10
0
20
0
11
1
21
1
12
-1
22
1
13
0
23
0
14
0.5
24
0.5
15
10
25
10
16
0
26
0
36
1
17
0
27
0
37
0
0
ENDTAB
0
TABLE
2
LTYPE
5
247
100
AcDbSymbolTable
0
LTYPE
5
14
100
AcDbSymbolTableRecord
100
AcDbLinetypeTableRecord
70
0
2
ByBlock
3

72
65
73
0
40
0
0
LTYPE
5
15
100
AcDbSymbolTableRecord
100
AcDbLinetypeTableRecord
70
0
2
ByLayer
3

72
65
73
0
40
0
0
LTYPE
5
16
100
AcDbSymbolTableRecord
100
AcDbLinetypeTableRecord
70
0
2
CONTINUOUS
3
Solid line
72
65
73
0
40
0
0
LTYPE
5
6A
100
AcDbSymbolTableRecord
100
AcDbLinetypeTableRecord
70
0
2
CENTER
3
____ _ ____ _ ____ _ ____
72
65
73
4
40
47.5
49
22
74
0
49
-8.5
74
0
49
8.5
74
0
49
-8.5
74
0
0
LTYPE
5
6B
100
AcDbSymbolTableRecord
100
AcDbLinetypeTableRecord
70
0
2
DASHED
3
__ __ __ __ __ __ __ __ __
72
65
73
2
40
25.72
49
12.86
74
0
49
-12.86
74
0
0
ENDTAB
0
TABLE
2
LAYER
5
248
100
AcDbSymbolTable
0
LAYER
5
10
100
AcDbSymbolTableRecord
100
AcDbLayerTableRecord
2
0
70
0
62
7
6
CONTINUOUS
290
1
370
-3
390
0
0
LAYER
5
6D
100
AcDbSymbolTableRecord
100
AcDbLayerTableRecord
2
80
70
0
62
-6
6
CONTINUOUS
290
1
370
-3
390
0
0
LAYER
5
6F
100
AcDbSymbolTableRecord
100
AcDbLayerTableRecord
2
81
70
0
62
-3
6
CONTINUOUS
290
1
370
-3
390
0
0
LAYER
5
71
100
AcDbSymbolTableRecord
100
AcDbLayerTableRecord
2
1
70
0
62
4
6
CONTINUOUS
290
1
370
-3
390
0
0
LAYER
5
A2
100
AcDbSymbolTableRecord
100
AcDbLayerTableRecord
2
4
70
0
62
-2
6
CENTER
290
1
370
-3
390
0
0
LAYER
5
10E
100
AcDbSymbolTableRecord
100
AcDbLayerTableRecord
2
3
70
0
62
1
6
DASHED
290
1
370
-3
390
0
0
LAYER
5
1CC
100
AcDbSymbolTableRecord
100
AcDbLayerTableRecord
2
2
70
0
62
7
6
CONTINUOUS
290
1
370
-3
390
0
0
LAYER
5
22f
100
AcDbSymbolTableRecord
100
AcDbLayerTableRecord
2
SK3
70
0
62
1
6
DASHED
290
1
370
-3
390
0
0
LAYER
5
230
100
AcDbSymbolTableRecord
100
AcDbLayerTableRecord
2
SK1
70
0
62
4
6
CONTINUOUS
290
1
370
-3
390
0
0
LAYER
5
231
100
AcDbSymbolTableRecord
100
AcDbLayerTableRecord
2
SK4
70
0
62
2
6
CENTER
290
1
370
-3
390
0
0
LAYER
5
232
100
AcDbSymbolTableRecord
100
AcDbLayerTableRecord
2
SK6
70
0
62
5
6
CONTINUOUS
290
1
370
-3
390
0
0
LAYER
5
233
100
AcDbSymbolTableRecord
100
AcDbLayerTableRecord
2
SK2
70
0
62
7
6
CONTINUOUS
290
1
370
-3
390
0
0
ENDTAB
0
TABLE
2
STYLE
5
249
100
AcDbSymbolTable
0
STYLE
5
11
100
AcDbSymbolTableRecord
100
AcDbTextStyleTableRecord
2
Standard
3
txt
70
0
71
0
40
0
41
1
42
0
50
0
0
STYLE
5
177
100
AcDbSymbolTableRecord
100
AcDbTextStyleTableRecord
2
iso_b_vert
3
simplex.shx
70
0
71
0
40
0
41
1
42
0
50
0
0
STYLE
5
178
100
AcDbSymbolTableRecord
100
AcDbTextStyleTableRecord
2
DWGDirectTextStyle
3
simplex
70
0
71
0
40
0
41
1
42
0
50
0
0
ENDTAB
0
TABLE
2
DIMSTYLE
5
24a
100
AcDbSymbolTable
100
AcDbDimStyleTable
0
DIMSTYLE
105
27
100
AcDbSymbolTableRecord
100
AcDbDimStyleTableRecord
2
Standard
70
0
3
<>
41
0.18
42
0.0625
44
0.18
140
0.18
147
0.09
73
0
74
0
77
1
271
2
275
0
278
52
280
0
340
11
0
ENDTAB
0
TABLE
2
VIEW
5
24b
100
AcDbSymbolTable
0
ENDTAB
0
TABLE
2
UCS
5
24c
100
AcDbSymbolTable
0
ENDTAB
0
TABLE
2
APPID
5
24d
100
AcDbSymbolTable
0
APPID
5
12
100
AcDbSymbolTableRecord
100
AcDbRegAppTableRecord
2
ACAD
70
0
0
ENDTAB
0
TABLE
2
BLOCK_RECORD
5
24e
100
AcDbSymbolTable
0
BLOCK_RECORD
5
1F
100
AcDbSymbolTableRecord
100
AcDbBlockTableRecord
2
*Model_Space
340
0
70
0
0
BLOCK_RECORD
5
1B
100
AcDbSymbolTableRecord
100
AcDbBlockTableRecord
2
*Paper_Space
340
0
70
0
0
BLOCK_RECORD
5
23
100
AcDbSymbolTableRecord
100
AcDbBlockTableRecord
2
*Paper_Space0
340
0
70
0
0
BLOCK_RECORD
5
17A
100
AcDbSymbolTableRecord
100
AcDbBlockTableRecord
2
DimnDraft3D1
340
0
70
0
0
BLOCK_RECORD
5
183
100
AcDbSymbolTableRecord
100
AcDbBlockTableRecord
2
DimnDraft3D2
340
0
70
0
0
BLOCK_RECORD
5
18D
100
AcDbSymbolTableRecord
100
AcDbBlockTableRecord
2
DimnDraft3D3
340
0
70
0
0
BLOCK_RECORD
5
197
100
AcDbSymbolTableRecord
100
AcDbBlockTableRecord
2
DimnDraft3D4
340
0
70
0
0
BLOCK_RECORD
5
1A1
100
AcDbSymbolTableRecord
100
AcDbBlockTableRecord
2
DimnDraft3D5
340
0
70
0
0
BLOCK_RECORD
5
1AB
100
AcDbSymbolTableRecord
100
AcDbBlockTableRecord
2
DimnDraft3D6
340
0
70
0
0
BLOCK_RECORD
5
1B5
100
AcDbSymbolTableRecord
100
AcDbBlockTableRecord
2
DimnDraft3D7
340
0
70
0
0
BLOCK_RECORD
5
1BF
100
AcDbSymbolTableRecord
100
AcDbBlockTableRecord
2
DimnDraft3D8
340
0
70
0
0
BLOCK_RECORD
5
1CA
100
AcDbSymbolTableRecord
100
AcDbBlockTableRecord
2
DimnDraft3D9
340
0
70
0
0
ENDTAB
0
ENDSEC
0
SECTION
2
BLOCKS
0
BLOCK
5
20
100
AcDbEntity
8
0
100
AcDbBlockBegin
2
*Model_Space
70
0
10
0
20
0
30
0
3
*Model_Space
0
ENDBLK
5
21
100
AcDbEntity
8
0
100
AcDbBlockEnd
0
BLOCK
5
1C
100
AcDbEntity
8
0
100
AcDbBlockBegin
2
*Paper_Space
70
0
10
0
20
0
30
0
3
*Paper_Space
0
ENDBLK
5
1D
100
AcDbEntity
8
0
100
AcDbBlockEnd
0
BLOCK
5
24
100
AcDbEntity
8
0
100
AcDbBlockBegin
2
*Paper_Space0
70
0
10
0
20
0
30
0
3
*Paper_Space0
0
ENDBLK
5
25
100
AcDbEntity
8
0
100
AcDbBlockEnd
0
BLOCK
5
180
100
AcDbEntity
8
0
100
AcDbBlockBegin
2
DimnDraft3D1
70
0
10
0
20
0
30
0
3
DimnDraft3D1
0
MTEXT
5
17B
100
AcDbEntity
8
SK2
62
256
6
ByLayer
370
18
48
1
60
0
100
AcDbMText
10
42.808016
20
11.591835
30
0
210
0
220
0
230
1
1
\W0.8320;%%c 62
40
3.000007
41
0
44
1.084337
50
90
71
7
72
5
7
iso_b_vert
0
LINE
5
17D
100
AcDbEntity
8
SK2
62
256
6
ByLayer
370
13
48
1
60
0
100
AcDbLine
10
43.558132
20
31.0007
30
0
11
43.558132
21
-31.0007
31
0
39
0
210
0
220
0
230
1
0
SOLID
5
17E
100
AcDbEntity
8
SK2
62
256
6
ByLayer
370
13
48
1
60
0
100
AcDbTrace
10
43.558132
20
31.0007
30
0
11
44.061002
21
27.825702
31
0
12
43.055261
22
27.825698
32
0
13
43.558132
23
31.0007
33
0
39
0
210
0
220
0
230
1
0
SOLID
5
17F
100
AcDbEntity
8
SK2
62
256
6
ByLayer
370
13
48
1
60
0
100
AcDbTrace
10
43.558132
20
-31.0007
30
0
11
43.055261
21
-27.825702
31
0
12
44.061002
22
-27.825698
32
0
13
43.558132
23
-31.0007
33
0
39
0
210
0
220
0
230
1
0
ENDBLK
5
181
100
AcDbEntity
8
0
100
AcDbBlockEnd
0
BLOCK
5
18A
100
AcDbEntity
8
0
100
AcDbBlockBegin
2
DimnDraft3D2
70
0
10
0
20
0
30
0
3
DimnDraft3D2
0
MTEXT
5
184
100
AcDbEntity
8
SK2
62
256
6
ByLayer
370
18
48
1
60
0
100
AcDbMText
10
134.419056
20
-7.797838
30
0
210
0
220
0
230
1
1
\W0.8847;%%c14-%%c22
40
3.000007
41
0
44
1.084337
50
90
71
7
72
5
7
iso_b_vert
0
LINE
5
185
100
AcDbEntity
8
SK2
62
256
6
ByLayer
370
13
48
1
60
0
100
AcDbLine
10
113.677687
20
16.685343
30
0
11
138.344172
21
16.685343
31
0
39
0
210
0
220
0
230
1
0
LINE
5
186
100
AcDbEntity
8
SK2
62
256
6
ByLayer
370
13
48
1
60
0
100
AcDbLine
10
113.687687
20
-16.67957
30
0
11
138.344172
21
-16.67957
31
0
39
0
210
0
220
0
230
1
0
LINE
5
187
100
AcDbEntity
8
SK2
62
256
6
ByLayer
370
13
48
1
60
0
100
AcDbLine
10
135.169172
20
16.685343
30
0
11
135.169172
21
-16.67957
31
0
39
0
210
0
220
0
230
1
0
SOLID
5
188
100
AcDbEntity
8
SK2
62
256
6
ByLayer
370
13
48
1
60
0
100
AcDbTrace
10
135.169172
20
16.685343
30
0
11
135.672043
21
13.510345
31
0
12
134.666302
22
13.510341
32
0
13
135.169172
23
16.685343
33
0
39
0
210
0
220
0
230
1
0
SOLID
5
189
100
AcDbEntity
8
SK2
62
256
6
ByLayer
370
13
48
1
60
0
100
AcDbTrace
10
135.169172
20
-16.67957
30
0
11
134.666302
21
-13.504571
31
0
12
135.672043
22
-13.504568
32
0
13
135.169172
23
-16.67957
33
0
39
0
210
0
220
0
230
1
0
ENDBLK
5
18B
100
AcDbEntity
8
0
100
AcDbBlockEnd
0
BLOCK
5
194
100
AcDbEntity
8
0
100
AcDbBlockBegin
2
DimnDraft3D3
70
0
10
0
20
0
30
0
3
DimnDraft3D3
0
MTEXT
5
18E
100
AcDbEntity
8
SK2
62
256
6
ByLayer
370
18
48
1
60
0
100
AcDbMText
10
152.685041
20
-3.40132
30
0
210
0
220
0
230
1
1
\W0.8320;%%c 63
40
3.000007
41
0
44
1.084337
50
90
71
7
72
5
7
iso_b_vert
0
LINE
5
18F
100
AcDbEntity
8
SK2
62
256
6
ByLayer
370
13
48
1
60
0
100
AcDbLine
10
115.687687
20
-31.5
30
0
11
156.610157
21
-31.5
31
0
39
0
210
0
220
0
230
1
0
LINE
5
190
100
AcDbEntity
8
SK2
62
256
6
ByLayer
370
13
48
1
60
0
100
AcDbLine
10
115.687687
20
31.5
30
0
11
156.610157
21
31.5
31
0
39
0
210
0
220
0
230
1
0
LINE
5
191
100
AcDbEntity
8
SK2
62
256
6
ByLayer
370
13
48
1
60
0
100
AcDbLine
10
153.435157
20
-31.5
30
0
11
153.435157
21
31.5
31
0
39
0
210
0
220
0
230
1
0
SOLID
5
192
100
AcDbEntity
8
SK2
62
256
6
ByLayer
370
13
48
1
60
0
100
AcDbTrace
10
153.435157
20
-31.5
30
0
11
152.932287
21
-28.325002
31
0
12
153.938028
22
-28.324998
32
0
13
153.435157
23
-31.5
33
0
39
0
210
0
220
0
230
1
0
SOLID
5
193
100
AcDbEntity
8
SK2
62
256
6
ByLayer
370
13
48
1
60
0
100
AcDbTrace
10
153.435157
20
31.5
30
0
11
153.938028
21
28.325002
31
0
12
152.932287
22
28.324998
32
0
13
153.435157
23
31.5
33
0
39
0
210
0
220
0
230
1
0
ENDBLK
5
195
100
AcDbEntity
8
0
100
AcDbBlockEnd
0
BLOCK
5
19E
100
AcDbEntity
8
0
100
AcDbBlockBegin
2
DimnDraft3D4
70
0
10
0
20
0
30
0
3
DimnDraft3D4
0
MTEXT
5
198
100
AcDbEntity
8
SK2
62
256
6
ByLayer
370
18
48
1
60
0
100
AcDbMText
10
86.300796
20
57.838992
30
0
210
0
220
0
230
1
1
\W0.7438;45.7
40
3.000007
41
0
44
1.084337
50
0
71
7
72
5
7
iso_b_vert
0
LINE
5
199
100
AcDbEntity
8
SK2
62
256
6
ByLayer
370
13
48
1
60
0
100
AcDbLine
10
66.356387
20
32.2072
30
0
11
66.356387
21
60.263876
31
0
39
0
210
0
220
0
230
1
0
LINE
5
19A
100
AcDbEntity
8
SK2
62
256
6
ByLayer
370
13
48
1
60
0
100
AcDbLine
10
112.100187
20
27.891348
30
0
11
112.100187
21
60.263876
31
0
39
0
210
0
220
0
230
1
0
LINE
5
19B
100
AcDbEntity
8
SK2
62
256
6
ByLayer
370
13
48
1
60
0
100
AcDbLine
10
66.356387
20
57.088876
30
0
11
112.100187
21
57.088876
31
0
39
0
210
0
220
0
230
1
0
SOLID
5
19C
100
AcDbEntity
8
SK2
62
256
6
ByLayer
370
13
48
1
60
0
100
AcDbTrace
10
66.356387
20
57.088876
30
0
11
69.531385
21
57.591746
31
0
12
69.531388
22
56.586005
32
0
13
66.356387
23
57.088876
33
0
39
0
210
0
220
0
230
1
0
SOLID
5
19D
100
AcDbEntity
8
SK2
62
256
6
ByLayer
370
13
48
1
60
0
100
AcDbTrace
10
112.100187
20
57.088876
30
0
11
108.925188
21
56.586005
31
0
12
108.925185
22
57.591746
32
0
13
112.100187
23
57.088876
33
0
39
0
210
0
220
0
230
1
0
ENDBLK
5
19F
100
AcDbEntity
8
0
100
AcDbBlockEnd
0
BLOCK
5
1A8
100
AcDbEntity
8
0
100
AcDbBlockBegin
2
DimnDraft3D5
70
0
10
0
20
0
30
0
3
DimnDraft3D5
0
MTEXT
5
1A2
100
AcDbEntity
8
SK2
62
256
6
ByLayer
370
18
48
1
60
0
100
AcDbMText
10
96.58064
20
46.755576
30
0
210
0
220
0
230
1
1
\W0.7152;25.5
40
3.000007
41
0
44
1.084337
50
0
71
7
72
5
7
iso_b_vert
0
LINE
5
1A3
100
AcDbEntity
8
SK2
62
256
6
ByLayer
370
13
48
1
60
0
100
AcDbLine
10
86.600187
20
32.0875
30
0
11
86.600187
21
49.18046
31
0
39
0
210
0
220
0
230
1
0
LINE
5
1A4
100
AcDbEntity
8
SK2
62
256
6
ByLayer
370
13
48
1
60
0
100
AcDbLine
10
112.100187
20
27.891348
30
0
11
112.100187
21
49.18046
31
0
39
0
210
0
220
0
230
1
0
LINE
5
1A5
100
AcDbEntity
8
SK2
62
256
6
ByLayer
370
13
48
1
60
0
100
AcDbLine
10
86.600187
20
46.00546
30
0
11
112.100187
21
46.00546
31
0
39
0
210
0
220
0
230
1
0
SOLID
5
1A6
100
AcDbEntity
8
SK2
62
256
6
ByLayer
370
13
48
1
60
0
100
AcDbTrace
10
86.600187
20
46.00546
30
0
11
89.775185
21
46.508331
31
0
12
89.775188
22
45.50259
32
0
13
86.600187
23
46.00546
33
0
39
0
210
0
220
0
230
1
0
SOLID
5
1A7
100
AcDbEntity
8
SK2
62
256
6
ByLayer
370
13
48
1
60
0
100
AcDbTrace
10
112.100187
20
46.00546
30
0
11
108.925188
21
45.50259
31
0
12
108.925185
22
46.508331
32
0
13
112.100187
23
46.00546
33
0
39
0
210
0
220
0
230
1
0
ENDBLK
5
1A9
100
AcDbEntity
8
0
100
AcDbBlockEnd
0
BLOCK
5
1B2
100
AcDbEntity
8
0
100
AcDbBlockBegin
2
DimnDraft3D6
70
0
10
0
20
0
30
0
3
DimnDraft3D6
0
MTEXT
5
1AC
100
AcDbEntity
8
SK2
62
256
6
ByLayer
370
18
48
1
60
0
100
AcDbMText
10
53.28469
20
69.853867
30
0
210
0
220
0
230
1
1
\W0.6378;112.1
40
3.000007
41
0
44
1.084337
50
0
71
7
72
5
7
iso_b_vert
0
LINE
5
1AD
100
AcDbEntity
8
SK2
62
256
6
ByLayer
370
13
48
1
60
0
100
AcDbLine
10
112.100187
20
27.891348
30
0
11
112.100187
21
72.278751
31
0
39
0
210
0
220
0
230
1
0
LINE
5
1AE
100
AcDbEntity
8
SK2
62
256
6
ByLayer
370
13
48
1
60
0
100
AcDbLine
10
0
20
29.2882
30
0
11
0
21
72.278751
31
0
39
0
210
0
220
0
230
1
0
LINE
5
1AF
100
AcDbEntity
8
SK2
62
256
6
ByLayer
370
13
48
1
60
0
100
AcDbLine
10
112.100187
20
69.103751
30
0
11
0
21
69.103751
31
0
39
0
210
0
220
0
230
1
0
SOLID
5
1B0
100
AcDbEntity
8
SK2
62
256
6
ByLayer
370
13
48
1
60
0
100
AcDbTrace
10
112.100187
20
69.103751
30
0
11
108.925188
21
68.60088
31
0
12
108.925185
22
69.606621
32
0
13
112.100187
23
69.103751
33
0
39
0
210
0
220
0
230
1
0
SOLID
5
1B1
100
AcDbEntity
8
SK2
62
256
6
ByLayer
370
13
48
1
60
0
100
AcDbTrace
10
0
20
69.103751
30
0
11
3.174998
21
69.606621
31
0
12
3.175002
22
68.60088
32
0
13
0
23
69.103751
33
0
39
0
210
0
220
0
230
1
0
ENDBLK
5
1B3
100
AcDbEntity
8
0
100
AcDbBlockEnd
0
BLOCK
5
1BC
100
AcDbEntity
8
0
100
AcDbBlockBegin
2
DimnDraft3D7
70
0
10
0
20
0
30
0
3
DimnDraft3D7
0
MTEXT
5
1B6
100
AcDbEntity
8
SK2
62
256
6
ByLayer
370
18
48
1
60
0
100
AcDbMText
10
-28.169593
20
69.928893
30
0
210
0
220
0
230
1
1
\W0.7152;50.8
40
3.000007
41
0
44
1.084337
50
0
71
7
72
5
7
iso_b_vert
0
LINE
5
1B7
100
AcDbEntity
8
SK2
62
256
6
ByLayer
370
13
48
1
60
0
100
AcDbLine
10
0
20
29.2882
30
0
11
0
21
72.353777
31
0
39
0
210
0
220
0
230
1
0
LINE
5
1B8
100
AcDbEntity
8
SK2
62
256
6
ByLayer
370
13
48
1
60
0
100
AcDbLine
10
-50.800092
20
13.2875
30
0
11
-50.800092
21
72.353777
31
0
39
0
210
0
220
0
230
1
0
LINE
5
1B9
100
AcDbEntity
8
SK2
62
256
6
ByLayer
370
13
48
1
60
0
100
AcDbLine
10
0
20
69.178777
30
0
11
-50.800092
21
69.178777
31
0
39
0
210
0
220
0
230
1
0
SOLID
5
1BA
100
AcDbEntity
8
SK2
62
256
6
ByLayer
370
13
48
1
60
0
100
AcDbTrace
10
0
20
69.178777
30
0
11
-3.174998
21
68.675906
31
0
12
-3.175002
22
69.681647
32
0
13
0
23
69.178777
33
0
39
0
210
0
220
0
230
1
0
SOLID
5
1BB
100
AcDbEntity
8
SK2
62
256
6
ByLayer
370
13
48
1
60
0
100
AcDbTrace
10
-50.800092
20
69.178777
30
0
11
-47.625094
21
69.681647
31
0
12
-47.62509
22
68.675906
32
0
13
-50.800092
23
69.178777
33
0
39
0
210
0
220
0
230
1
0
ENDBLK
5
1BD
100
AcDbEntity
8
0
100
AcDbBlockEnd
0
BLOCK
5
1C7
100
AcDbEntity
8
0
100
AcDbBlockBegin
2
DimnDraft3D8
70
0
10
0
20
0
30
0
3
DimnDraft3D8
0
MTEXT
5
1C0
100
AcDbEntity
8
SK2
62
256
6
ByLayer
370
18
48
1
60
0
100
AcDbMText
10
-67.992858
20
2.858636
30
0
210
0
220
0
230
1
1
\W0.6337;25
40
3.000007
41
0
44
1.084337
50
90
71
7
72
5
7
iso_b_vert
0
MTEXT
5
1C1
100
AcDbEntity
8
SK2
62
256
6
ByLayer
370
18
48
1
60
0
100
AcDbMText
10
-67.992858
20
-3.41794
30
0
210
0
220
0
230
1
1
%%c
40
3.000007
41
0
44
1.084337
50
90
71
7
72
5
7
iso_b_vert
0
LINE
5
1C2
100
AcDbEntity
8
SK2
62
256
6
ByLayer
370
13
48
1
60
0
100
AcDbLine
10
-51.587592
20
-12.5
30
0
11
-69.66774
21
-12.5
31
0
39
0
210
0
220
0
230
1
0
LINE
5
1C3
100
AcDbEntity
8
SK2
62
256
6
ByLayer
370
13
48
1
60
0
100
AcDbLine
10
-51.587592
20
12.5
30
0
11
-69.66774
21
12.5
31
0
39
0
210
0
220
0
230
1
0
LINE
5
1C4
100
AcDbEntity
8
SK2
62
256
6
ByLayer
370
13
48
1
60
0
100
AcDbLine
10
-66.49274
20
-12.5
30
0
11
-66.49274
21
12.5
31
0
39
0
210
0
220
0
230
1
0
SOLID
5
1C5
100
AcDbEntity
8
SK2
62
256
6
ByLayer
370
13
48
1
60
0
100
AcDbTrace
10
-66.49274
20
-12.5
30
0
11
-66.995611
21
-9.325002
31
0
12
-65.98987
22
-9.324998
32
0
13
-66.49274
23
-12.5
33
0
39
0
210
0
220
0
230
1
0
SOLID
5
1C6
100
AcDbEntity
8
SK2
62
256
6
ByLayer
370
13
48
1
60
0
100
AcDbTrace
10
-66.49274
20
12.5
30
0
11
-65.98987
21
9.325002
31
0
12
-66.995611
22
9.324998
32
0
13
-66.49274
23
12.5
33
0
39
0
210
0
220
0
230
1
0
ENDBLK
5
1C8
100
AcDbEntity
8
0
100
AcDbBlockEnd
0
BLOCK
5
1D2
100
AcDbEntity
8
0
100
AcDbBlockBegin
2
DimnDraft3D9
70
0
10
0
20
0
30
0
3
DimnDraft3D9
0
MTEXT
5
1CB
100
AcDbEntity
8
2
62
256
6
ByLayer
370
18
48
1
60
0
100
AcDbMText
10
21.595612
20
-48.833577
30
0
210
0
220
0
230
1
1
\W0.7002;151.4
40
3.000007
41
0
44
1.084337
50
0
71
7
72
5
7
iso_b_vert
0
LINE
5
1CD
100
AcDbEntity
8
2
62
256
6
ByLayer
370
13
48
1
60
0
100
AcDbLine
10
-50.800092
20
-13.345913
30
0
11
-50.800092
21
-52.758693
31
0
39
0
210
0
220
0
230
1
0
LINE
5
1CE
100
AcDbEntity
8
2
62
256
6
ByLayer
370
13
48
1
60
0
100
AcDbLine
10
100.590187
20
-25.3111
30
0
11
100.590187
21
-52.758693
31
0
39
0
210
0
220
0
230
1
0
LINE
5
1CF
100
AcDbEntity
8
2
62
256
6
ByLayer
370
13
48
1
60
0
100
AcDbLine
10
-50.800092
20
-49.583693
30
0
11
100.590187
21
-49.583693
31
0
39
0
210
0
220
0
230
1
0
SOLID
5
1D0
100
AcDbEntity
8
2
62
256
6
ByLayer
370
13
48
1
60
0
100
AcDbTrace
10
-50.800092
20
-49.583693
30
0
11
-47.625094
21
-49.080823
31
0
12
-47.62509
22
-50.086564
32
0
13
-50.800092
23
-49.583693
33
0
39
0
210
0
220
0
230
1
0
SOLID
5
1D1
100
AcDbEntity
8
2
62
256
6
ByLayer
370
13
48
1
60
0
100
AcDbTrace
10
100.590187
20
-49.583693
30
0
11
97.415188
21
-50.086564
31
0
12
97.415185
22
-49.080823
32
0
13
100.590187
23
-49.583693
33
0
39
0
210
0
220
0
230
1
0
ENDBLK
5
1D3
100
AcDbEntity
8
0
100
AcDbBlockEnd
0
ENDSEC
0
SECTION
2
ENTITIES
0
ARC
5
157
100
AcDbEntity
8
1
62
256
6
ByLayer
370
18
48
1
60
0
100
AcDbCircle
39
0
10
-87.600187
20
-30.5
30
0
40
1
210
0
220
0
230
-1
100
AcDbArc
50
270
51
0
0
ARC
5
158
100
AcDbEntity
8
1
62
256
6
ByLayer
370
18
48
1
60
0
100
AcDbCircle
39
0
10
-87.600187
20
30.5
30
0
40
1
210
0
220
0
230
-1
100
AcDbArc
50
0
51
90
0
ARC
5
159
100
AcDbEntity
8
SK3
62
256
6
ByLayer
370
13
48
0.05
60
0
100
AcDbCircle
39
0
10
-101.590187
20
24.5
30
0
40
1
210
0
220
0
230
-1
100
AcDbArc
50
0
51
180
0
ARC
5
15A
100
AcDbEntity
8
SK3
62
256
6
ByLayer
370
13
48
0.05
60
0
100
AcDbCircle
39
0
10
-101.590187
20
-24.5
30
0
40
1
210
0
220
0
230
-1
100
AcDbArc
50
180
51
0
0
ARC
5
15B
100
AcDbEntity
8
SK1
62
256
6
ByLayer
370
18
48
1
60
0
100
AcDbCircle
39
0
10
7.179166
20
-12.1
30
0
40
0.4
210
0
220
0
230
-1
100
AcDbArc
50
270
51
360
0
ARC
5
15C
100
AcDbEntity
8
SK1
62
256
6
ByLayer
370
18
48
1
60
0
100
AcDbCircle
39
0
10
-16.676835
20
0
30
0
40
15.6443946711754
210
0
220
0
230
1
100
AcDbArc
50
148.389001
51
211.610999
0
ARC
5
15D
100
AcDbEntity
8
SK1
62
256
6
ByLayer
370
18
48
1
60
0
100
AcDbCircle
39
0
10
-4.979166
20
12.1
30
0
40
0.4
210
0
220
0
230
1
100
AcDbArc
50
0
51
90
0
ARC
5
15E
100
AcDbEntity
8
SK1
62
256
6
ByLayer
370
18
48
1
60
0
100
AcDbCircle
39
0
10
4.979166
20
-12.1
30
0
40
0.4
210
0
220
0
230
-1
100
AcDbArc
50
180
51
270
0
ARC
5
15F
100
AcDbEntity
8
SK1
62
256
6
ByLayer
370
18
48
1
60
0
100
AcDbCircle
39
0
10
31.323192
20
0
30
0
40
15.6443946711754
210
1.22460635382238E-16
220
0
230
-1
100
AcDbArc
50
148.389001
51
211.610999
0
ARC
5
160
100
AcDbEntity
8
SK1
62
256
6
ByLayer
370
18
48
1
60
0
100
AcDbCircle
39
0
10
-7.179166
20
12.1
30
0
40
0.4
210
0
220
0
230
1
100
AcDbArc
50
90
51
180
0
ARC
5
161
100
AcDbEntity
8
SK1
62
256
6
ByLayer
370
18
48
1
60
0
100
AcDbCircle
39
0
10
52.32327
20
0
30
0
40
15.6443946711754
210
1.22460635382238E-16
220
0
230
-1
100
AcDbArc
50
148.389001
51
211.610999
0
ELLIPSE
5
162
100
AcDbEntity
8
1
62
256
6
ByLayer
370
18
48
1
60
0
100
AcDbEllipse
10
102.100187
20
-38.489092
30
0
11
-14.9999999999889
21
0
31
-1.83690953073221E-15
210
1.22460635382238E-16
220
0
230
-1
40
0.866025
41
0.884015077726311
42
1.35643051704764
0
ELLIPSE
5
163
100
AcDbEntity
8
1
62
256
6
ByLayer
370
18
48
1
60
0
100
AcDbEllipse
10
102.100187
20
38.489092
30
0
11
-14.999999999998
21
0
31
-1.83690953073332E-15
210
1.22460635382238E-16
220
0
230
-1
40
0.866025
41
-1.35643050981319
42
-0.884015077726737
0
POINT
5
6C
100
AcDbEntity
8
80
62
256
6
ByLayer
370
18
48
1
60
0
100
AcDbPoint
10
0
20
0
30
0
39
0
210
0
220
0
230
1
50
360
0
POINT
5
6E
100
AcDbEntity
8
81
62
256
6
ByLayer
370
18
48
1
60
0
100
AcDbPoint
10
100.6
20
0
30
0
39
0
210
0
220
0
230
1
50
360
0
SPLINE
5
164
100
AcDbEntity
8
1
62
256
6
ByLayer
370
18
48
1
60
0
100
AcDbSpline
70
4
71
3
72
23
73
19
40
0
40
0
40
0
40
0
40
0.0623964106955481
40
0.124794087424712
40
0.187191750359737
40
0.249588142244711
40
0.311984656371077
40
0.37438245847226
40
0.436780255852252
40
0.499176763540494
40
0.561573285240559
40
0.623971096689473
40
0.686368912798043
40
0.748765440852314
40
0.811573424052437
40
0.874382703724592
40
0.937191997528672
40
1
40
1
40
1
40
1
41
1
10
111.056603963241
20
22.9987113059643
30
0
41
1
10
111.061939534819
20
23.0506634724489
30
0
41
1
10
111.071949702304
20
23.1545834004614
30
0
41
1
10
111.08498463535
20
23.3105103037554
30
0
41
1
10
111.096030447668
20
23.4664750706428
30
0
41
1
10
111.105081291856
20
23.6224711433587
30
0
41
1
10
111.11213041785
20
23.7784931211237
30
0
41
1
10
111.117175926425
20
23.9345356955679
30
0
41
1
10
111.120215652139
20
24.0905912546258
30
0
41
1
10
111.121247355523
20
24.2466522983168
30
0
41
1
10
111.120268657554
20
24.4027134391374
30
0
41
1
10
111.117281908201
20
24.5587692889571
30
0
41
1
10
111.112289317439
20
24.7148123243771
30
0
41
1
10
111.105277642934
20
24.8711779781336
30
0
41
1
10
111.09623330637
20
25.027860772533
30
0
41
1
10
111.085147689454
20
25.1848549702721
30
0
41
1
10
111.072046546386
20
25.3418108907471
30
0
41
1
10
111.061974737957
20
25.4464164317728
30
0
41
1
10
111.056603963241
20
25.4987113059643
30
0
0
SPLINE
5
165
100
AcDbEntity
8
1
62
256
6
ByLayer
370
18
48
1
60
0
100
AcDbSpline
70
4
71
3
72
23
73
19
40
0
40
0
40
0
40
0
40
0.0623964106955471
40
0.124794087424711
40
0.187191750359736
40
0.249588142244711
40
0.311984656371075
40
0.37438245847226
40
0.436780255852251
40
0.499176763540494
40
0.561573285240559
40
0.623971096689473
40
0.686368912798044
40
0.748765440852315
40
0.811573424052438
40
0.874382703724592
40
0.937191997528672
40
1
40
1
40
1
40
1
41
1
10
111.056603963241
20
-25.4987113059643
30
0
41
1
10
111.061939534819
20
-25.4467591394797
30
0
41
1
10
111.071949702304
20
-25.3428392114672
30
0
41
1
10
111.08498463535
20
-25.1869123081732
30
0
41
1
10
111.096030447668
20
-25.0309475412858
30
0
41
1
10
111.105081291856
20
-24.8749514685699
30
0
41
1
10
111.11213041785
20
-24.7189294908049
30
0
41
1
10
111.117175926425
20
-24.5628869163606
30
0
41
1
10
111.120215652139
20
-24.4068313573028
30
0
41
1
10
111.121247355523
20
-24.2507703136118
30
0
41
1
10
111.120268657554
20
-24.0947091727912
30
0
41
1
10
111.117281908201
20
-23.9386533229715
30
0
41
1
10
111.112289317439
20
-23.7826102875515
30
0
41
1
10
111.105277642934
20
-23.626244633795
30
0
41
1
10
111.09623330637
20
-23.4695618393956
30
0
41
1
10
111.085147689454
20
-23.3125676416565
30
0
41
1
10
111.072046546386
20
-23.1556117211815
30
0
41
1
10
111.061974737957
20
-23.0510061801558
30
0
41
1
10
111.056603963241
20
-22.9987113059643
30
0
0
SPLINE
5
166
100
AcDbEntity
8
1
62
256
6
ByLayer
370
18
48
1
60
0
100
AcDbSpline
70
4
71
1
72
4
73
2
40
0
40
0
40
1
40
1
41
1
10
109.100186523607
20
-28.569843286758
30
0
41
1
10
111.056603963241
20
-25.4987113059643
30
0
0
SPLINE
5
167
100
AcDbEntity
8
1
62
256
6
ByLayer
370
18
48
1
60
0
100
AcDbSpline
70
4
71
3
72
26
73
22
40
0
40
0
40
0
40
0
40
0.062474429148334
40
0.124949032230857
40
0.187423587455482
40
0.249897951342851
40
0.299877940029927
40
0.349858174558192
40
0.399838448875607
40
0.449818602655189
40
0.499798523617235
40
0.549779109343347
40
0.599760065059332
40
0.649741099758154
40
0.699721970767558
40
0.749702485448924
40
0.79976169797265
40
0.849821373588142
40
0.899881183183664
40
0.949940820009677
40
1
40
1
40
1
40
1
41
1
10
92.5894149190263
20
2.5
30
0
41
1
10
92.7872938992899
20
2.51092940133594
30
0
41
1
10
93.1830760522624
20
2.5323410832881
30
0
41
1
10
93.7768192597083
20
2.56316481192471
30
0
41
1
10
94.3706353263844
20
2.59255176422382
30
0
41
1
10
94.9249338339063
20
2.61855368261656
30
0
41
1
10
95.439699893824
20
2.64142212291726
30
0
41
1
10
95.9149196176846
20
2.66142400815462
30
0
41
1
10
96.3901878389441
20
2.680260237736
30
0
41
1
10
96.8655023862202
20
2.69787164813168
30
0
41
1
10
97.3408640663373
20
2.71420076784498
30
0
41
1
10
97.8162729622088
20
2.72918467218964
30
0
41
1
10
98.2917277845337
20
2.74276926778671
30
0
41
1
10
98.7672230175868
20
2.75490577127728
30
0
41
1
10
99.2427530585629
20
2.76554357812534
30
0
41
1
10
99.7185634550084
20
2.77463869991675
30
0
41
1
10
100.194652013074
20
2.78213399317568
30
0
41
1
10
100.671015200348
20
2.78800226527624
30
0
41
1
10
101.147397230605
20
2.79221981739201
30
0
41
1
10
101.623790170389
20
2.79476814068746
30
0
41
1
10
101.941387445502
20
2.79533535795418
30
0
41
1
10
102.100186523607
20
2.79533762447011
30
0
0
SPLINE
5
168
100
AcDbEntity
8
1
62
256
6
ByLayer
370
18
48
1
60
0
100
AcDbSpline
70
4
71
3
72
39
73
35
40
0
40
0
40
0
40
0
40
0.0309310129296111
40
0.0618629706121604
40
0.0927949372645877
40
0.123725962426224
40
0.154687006462467
40
0.185648980848771
40
0.216610961534709
40
0.247572014161616
40
0.278502892287667
40
0.309434686666698
40
0.340366484785501
40
0.371297368011389
40
0.402257522350492
40
0.433218589593706
40
0.464179658141021
40
0.495139814258494
40
0.526070661564424
40
0.557002418537926
40
0.587934174402869
40
0.618865020197086
40
0.64982508175465
40
0.680786060201914
40
0.71174703509145
40
0.742707091797424
40
0.774851428545485
40
0.806996802985531
40
0.839142170286205
40
0.871286497298448
40
0.903464349382742
40
0.935643260988039
40
0.967822162153
40
1
40
1
40
1
40
1
41
1
10
92.5894149190263
20
25.9437492817743
30
0
41
1
10
92.5844358620909
20
25.9729271255976
30
0
41
1
10
92.5747924137834
20
26.0310909195419
30
0
41
1
10
92.5612736017376
20
26.1177616894025
30
0
41
1
10
92.54869534845
20
26.2038481092747
30
0
41
1
10
92.5370503446484
20
26.2893711654147
30
0
41
1
10
92.5263353971985
20
26.3743243505078
30
0
41
1
10
92.516548363366
20
26.4587021030753
30
0
41
1
10
92.5076897817893
20
26.5424702553203
30
0
41
1
10
92.4997593678139
20
26.6255950973934
30
0
41
1
10
92.492753151015
20
26.7080722421034
30
0
41
1
10
92.4866680733805
20
26.7898980140456
30
0
41
1
10
92.4815000846468
20
26.8710931468315
30
0
41
1
10
92.47724612413
20
26.9516769530895
30
0
41
1
10
92.4739054963993
20
27.0316441571766
30
0
41
1
10
92.4714784060919
20
27.1109901184117
30
0
41
1
10
92.4699652661572
20
27.1896840573417
30
0
41
1
10
92.4693656792706
20
27.2676957462971
30
0
41
1
10
92.4696781383484
20
27.3450217744402
30
0
41
1
10
92.4709020391529
20
27.4216593741718
30
0
41
1
10
92.4730379755096
20
27.4976278699917
30
0
41
1
10
92.4760874561933
20
27.572945834164
30
0
41
1
10
92.4800521946288
20
27.6476087878314
30
0
41
1
10
92.4849348107456
20
27.7216128463433
30
0
41
1
10
92.4907356906724
20
27.7949298309775
30
0
41
1
10
92.4975422187567
20
27.8684810034137
30
0
41
1
10
92.5053979036328
20
27.9422317122527
30
0
41
1
10
92.514348167788
20
28.0161468487904
30
0
41
1
10
92.5242984681292
20
28.0893046435389
30
0
41
1
10
92.5352558107621
20
28.1617253701855
30
0
41
1
10
92.5472249279664
20
28.2334046970932
30
0
41
1
10
92.56021179297
20
28.3043388457719
30
0
41
1
10
92.5742162124234
20
28.3744989084454
30
0
41
1
10
92.5842351943568
20
28.4207524723238
30
0
41
1
10
92.5894149190263
20
28.4437492817743
30
0
0
SPLINE
5
169
100
AcDbEntity
8
1
62
256
6
ByLayer
370
18
48
1
60
0
100
AcDbSpline
70
4
71
3
72
39
73
35
40
0
40
0
40
0
40
0
40
0.0309310129296113
40
0.0618629706121604
40
0.0927949372645876
40
0.123725962426224
40
0.154687006462467
40
0.185648980848771
40
0.216610961534708
40
0.247572014161616
40
0.278502892287667
40
0.309434686666698
40
0.3403664847855
40
0.371297368011389
40
0.402257522350492
40
0.433218589593707
40
0.46417965814102
40
0.495139814258494
40
0.526070661564424
40
0.557002418537926
40
0.587934174402869
40
0.618865020197086
40
0.649825081754649
40
0.680786060201914
40
0.71174703509145
40
0.742707091797424
40
0.774851428545485
40
0.806996802985531
40
0.839142170286206
40
0.871286497298448
40
0.903464349382742
40
0.935643260988039
40
0.967822162153
40
1
40
1
40
1
40
1
41
1
10
92.5894149190263
20
-2.5
30
0
41
1
10
92.5844358620909
20
-2.44871646304448
30
0
41
1
10
92.5747924137833
20
-2.34610106868297
30
0
41
1
10
92.5612736017377
20
-2.19203236665282
30
0
41
1
10
92.5486953484499
20
-2.0378324711591
30
0
41
1
10
92.5370503446485
20
-1.88346168559916
30
0
41
1
10
92.5263353971985
20
-1.72892823414019
30
0
41
1
10
92.516548363366
20
-1.57423989410258
30
0
41
1
10
92.5076897817893
20
-1.41945767622352
30
0
41
1
10
92.4997593678139
20
-1.26464286320383
30
0
41
1
10
92.492753151015
20
-1.10980339747464
30
0
41
1
10
92.4866680733806
20
-0.954947097857678
30
0
41
1
10
92.4815000846468
20
-0.80003440443313
30
0
41
1
10
92.4772461241301
20
-0.645027179029707
30
0
41
1
10
92.4739054963993
20
-0.489933040469131
30
0
41
1
10
92.471478406092
20
-0.334759597096882
30
0
41
1
10
92.4699652661572
20
-0.179566426364449
30
0
41
1
10
92.4693656792706
20
-0.0244131763167977
30
0
41
1
10
92.4696781383484
20
0.130692526780247
30
0
41
1
10
92.4709020391528
20
0.285743091668775
30
0
41
1
10
92.4730379755096
20
0.440776852181675
30
0
41
1
10
92.4760874561932
20
0.595831961283028
30
0
41
1
10
92.4800521946288
20
0.75090076921969
30
0
41
1
10
92.4849348107456
20
0.9059755506344
30
0
41
1
10
92.4907356906723
20
1.06099675743922
30
0
41
1
10
92.4975422187567
20
1.2179293574985
30
0
41
1
10
92.5053979036328
20
1.37676259941689
30
0
41
1
10
92.5143481677879
20
1.53748415658804
30
0
41
1
10
92.5242984681291
20
1.69810694582747
30
0
41
1
10
92.5352558107621
20
1.85867441233563
30
0
41
1
10
92.5472249279664
20
2.01917759392802
30
0
41
1
10
92.56021179297
20
2.17960693742538
30
0
41
1
10
92.5742162124233
20
2.33989518041848
30
0
41
1
10
92.584235194357
20
2.44664912612215
30
0
41
1
10
92.5894149190263
20
2.5
30
0
0
SPLINE
5
16A
100
AcDbEntity
8
1
62
256
6
ByLayer
370
18
48
1
60
0
100
AcDbSpline
70
4
71
1
72
4
73
2
40
0
40
0
40
1
40
1
41
1
10
111.056603963241
20
25.4987113059643
30
0
41
1
10
109.100186523607
20
28.569843286758
30
0
0
SPLINE
5
16B
100
AcDbEntity
8
1
62
256
6
ByLayer
370
18
48
1
60
0
100
AcDbSpline
70
4
71
3
72
26
73
22
40
0
40
0
40
0
40
0
40
0.062474429148334
40
0.124949032230857
40
0.187423587455482
40
0.249897951342851
40
0.299877940029927
40
0.349858174558192
40
0.399838448875607
40
0.449818602655189
40
0.499798523617235
40
0.549779109343347
40
0.599760065059332
40
0.649741099758154
40
0.699721970767558
40
0.749702485448924
40
0.79976169797265
40
0.849821373588142
40
0.899881183183664
40
0.949940820009677
40
1
40
1
40
1
40
1
41
1
10
92.5894149190263
20
-25.9437492817743
30
0
41
1
10
92.7872938992899
20
-25.9375305870929
30
0
41
1
10
93.1830760522624
20
-25.9253390164651
30
0
41
1
10
93.7768192597083
20
-25.9077603153485
30
0
41
1
10
94.3706353263844
20
-25.8909768314938
30
0
41
1
10
94.9249338339063
20
-25.876105855869
30
0
41
1
10
95.439699893824
20
-25.8630115083823
30
0
41
1
10
95.9149196176847
20
-25.8515471210203
30
0
41
1
10
96.3901878389441
20
-25.8407406772279
30
0
41
1
10
96.8655023862202
20
-25.8306279947628
30
0
41
1
10
97.3408640663373
20
-25.821243870218
30
0
41
1
10
97.8162729622088
20
-25.8126263994166
30
0
41
1
10
98.2917277845337
20
-25.8048083359687
30
0
41
1
10
98.7672230175868
20
-25.7978192143364
30
0
41
1
10
99.2427530585629
20
-25.7916896714446
30
0
41
1
10
99.7185634550084
20
-25.7864464775415
30
0
41
1
10
100.194652013074
20
-25.7821241417151
30
0
41
1
10
100.671015200348
20
-25.7787390429768
30
0
41
1
10
101.147397230605
20
-25.7763054172438
30
0
41
1
10
101.623790170389
20
-25.7748344703386
30
0
41
1
10
101.941387445502
20
-25.7745070343466
30
0
41
1
10
102.100186523607
20
-25.7745056622879
30
0
0
SPLINE
5
16C
100
AcDbEntity
8
1
62
256
6
ByLayer
370
18
48
1
60
0
100
AcDbSpline
70
4
71
1
72
4
73
2
40
0
40
0
40
1
40
1
41
1
10
109.100186523607
20
-2.79533762447011
30
0
41
1
10
111.056603963241
20
-2.5
30
0
0
SPLINE
5
16D
100
AcDbEntity
8
1
62
256
6
ByLayer
370
18
48
1
60
0
100
AcDbSpline
70
4
71
1
72
4
73
2
40
0
40
0
40
1
40
1
41
1
10
111.056603963241
20
-22.9987113059643
30
0
41
1
10
109.100186523607
20
-25.7745056622879
30
0
0
SPLINE
5
16E
100
AcDbEntity
8
1
62
256
6
ByLayer
370
18
48
1
60
0
100
AcDbSpline
70
4
71
3
72
26
73
22
40
0
40
0
40
0
40
0
40
0.0499714257902831
40
0.0999433060915508
40
0.149915358212572
40
0.19988727697262
40
0.24985873501895
40
0.299829729646609
40
0.34980108062803
40
0.399772595255034
40
0.449744030844827
40
0.499715096434857
40
0.549685489808741
40
0.599656116102792
40
0.64962686295809
40
0.699597569981008
40
0.749568031063291
40
0.812175898404918
40
0.874783958457921
40
0.937392066803992
40
1
40
1
40
1
40
1
41
1
10
102.100186523607
20
-28.569843286758
30
0
41
1
10
101.941665824323
20
-28.5698423984309
30
0
41
1
10
101.624625302027
20
-28.569603459915
30
0
41
1
10
101.149067475722
20
-28.5685298646486
30
0
41
1
10
100.673520502469
20
-28.5667521600951
30
0
41
1
10
100.197992275821
20
-28.5642775985927
30
0
41
1
10
99.7224904061646
20
-28.5611139380982
30
0
41
1
10
99.2470184542414
20
-28.5572706752563
30
0
41
1
10
98.7715786777119
20
-28.5527691599683
30
0
41
1
10
98.2961736622585
20
-28.5476285985955
30
0
41
1
10
97.8208090143344
20
-28.5418689322173
30
0
41
1
10
97.345490276931
20
-28.5355093852155
30
0
41
1
10
96.8702187433738
20
-28.528571271847
30
0
41
1
10
96.3949943346415
20
-28.5210794080153
30
0
41
1
10
95.9198162244081
20
-28.5130564554184
30
0
41
1
10
95.4446865886882
20
-28.5045257474924
30
0
41
1
10
94.9295572807991
20
-28.4947502026426
30
0
41
1
10
94.3744423680515
20
-28.4836077500415
30
0
41
1
10
93.7793569553646
20
-28.47098085339
30
0
41
1
10
93.1843447218447
20
-28.4577094654821
30
0
41
1
10
92.7877167535386
20
-28.4484700750715
30
0
41
1
10
92.5894149190263
20
-28.4437492817743
30
0
0
SPLINE
5
16F
100
AcDbEntity
8
1
62
256
6
ByLayer
370
18
48
1
60
0
100
AcDbSpline
70
4
71
3
72
39
73
35
40
0
40
0
40
0
40
0
40
0.0309310129296107
40
0.0618629706121605
40
0.0927949372645875
40
0.123725962426224
40
0.154687006462467
40
0.185648980848771
40
0.216610961534708
40
0.247572014161617
40
0.278502892287667
40
0.309434686666698
40
0.3403664847855
40
0.371297368011388
40
0.402257522350492
40
0.433218589593706
40
0.46417965814102
40
0.495139814258494
40
0.526070661564424
40
0.557002418537925
40
0.587934174402869
40
0.618865020197085
40
0.649825081754649
40
0.680786060201913
40
0.711747035091449
40
0.742707091797423
40
0.774851428545484
40
0.80699680298553
40
0.839142170286206
40
0.871286497298448
40
0.903464349382741
40
0.935643260988039
40
0.967822162153
40
1
40
1
40
1
40
1
41
1
10
92.5894149190263
20
-28.4437492817743
30
0
41
1
10
92.5844358620909
20
-28.4216435886421
30
0
41
1
10
92.5747924137834
20
-28.3771919882249
30
0
41
1
10
92.5612736017377
20
-28.3097940560553
30
0
41
1
10
92.5486953484499
20
-28.2416805804338
30
0
41
1
10
92.5370503446485
20
-28.1728328510139
30
0
41
1
10
92.5263353971985
20
-28.103252584648
30
0
41
1
10
92.516548363366
20
-28.0329419971779
30
0
41
1
10
92.5076897817893
20
-27.9619279315438
30
0
41
1
10
92.4997593678138
20
-27.8902379605972
30
0
41
1
10
92.492753151015
20
-27.8178756395781
30
0
41
1
10
92.4866680733806
20
-27.7448451119033
30
0
41
1
10
92.4815000846468
20
-27.6711275512647
30
0
41
1
10
92.4772461241301
20
-27.5967041321193
30
0
41
1
10
92.4739054963993
20
-27.5215771976458
30
0
41
1
10
92.471478406092
20
-27.4457497155086
30
0
41
1
10
92.4699652661572
20
-27.3692504837062
30
0
41
1
10
92.4693656792706
20
-27.2921089226139
30
0
41
1
10
92.4696781383484
20
-27.21432924766
30
0
41
1
10
92.4709020391529
20
-27.1359162825031
30
0
41
1
10
92.4730379755095
20
-27.05685101781
30
0
41
1
10
92.4760874561933
20
-26.9771138728809
30
0
41
1
10
92.4800521946288
20
-26.8967080186117
30
0
41
1
10
92.4849348107455
20
-26.8156372957089
30
0
41
1
10
92.4907356906724
20
-26.7339330735383
30
0
41
1
10
92.4975422187567
20
-26.6505516459152
30
0
41
1
10
92.5053979036328
20
-26.5654691128358
30
0
41
1
10
92.5143481677879
20
-26.4786626922023
30
0
41
1
10
92.5242984681291
20
-26.3911976977115
30
0
41
1
10
92.5352558107621
20
-26.3030509578499
30
0
41
1
10
92.5472249279664
20
-26.2142271031652
30
0
41
1
10
92.5602117929701
20
-26.1247319083466
30
0
41
1
10
92.5742162124233
20
-26.034603728027
30
0
41
1
10
92.584235194357
20
-25.9741033462015
30
0
41
1
10
92.5894149190263
20
-25.9437492817743
30
0
0
SPLINE
5
170
100
AcDbEntity
8
1
62
256
6
ByLayer
370
18
48
1
60
0
100
AcDbSpline
70
4
71
1
72
4
73
2
40
0
40
0
40
1
40
1
41
1
10
109.100186523607
20
25.7745056622879
30
0
41
1
10
111.056603963241
20
22.9987113059643
30
0
0
SPLINE
5
171
100
AcDbEntity
8
1
62
256
6
ByLayer
370
18
48
1
60
0
100
AcDbSpline
70
4
71
3
72
26
73
22
40
0
40
0
40
0
40
0
40
0.0499714257902831
40
0.0999433060915508
40
0.149915358212572
40
0.19988727697262
40
0.24985873501895
40
0.299829729646609
40
0.34980108062803
40
0.399772595255034
40
0.449744030844827
40
0.49971509643486
40
0.549685489808741
40
0.599656116102791
40
0.649626862958093
40
0.699597569981008
40
0.749568031063291
40
0.812175898404918
40
0.874783958457921
40
0.937392066803995
40
1
40
1
40
1
40
1
41
1
10
102.100186523607
20
-2.79533762447011
30
0
41
1
10
101.941665824323
20
-2.7953353734878
30
0
41
1
10
101.624625302027
20
-2.79477015028991
30
0
41
1
10
101.149067475722
20
-2.79223077169221
30
0
41
1
10
100.673520502469
20
-2.78802792455316
30
0
41
1
10
100.197992275821
20
-2.78217998927916
30
0
41
1
10
99.7224904061646
20
-2.77470662836243
30
0
41
1
10
99.2470184542415
20
-2.76563191802564
30
0
41
1
10
98.7715786777119
20
-2.7550099675562
30
0
41
1
10
98.2961736622585
20
-2.74288945630473
30
0
41
1
10
97.8208090143344
20
-2.72932092157046
30
0
41
1
10
97.345490276931
20
-2.71435308452604
30
0
41
1
10
96.8702187433737
20
-2.69803997386615
30
0
41
1
10
96.3949943346415
20
-2.68044448141928
30
0
41
1
10
95.9198162244081
20
-2.66162404527974
30
0
41
1
10
95.4446865886882
20
-2.641637797724
30
0
41
1
10
94.9295572807991
20
-2.61876562807124
30
0
41
1
10
94.3744423680515
20
-2.59273646695864
30
0
41
1
10
93.7793569553645
20
-2.5632945857928
30
0
41
1
10
93.1843447218446
20
-2.53240930642455
30
0
41
1
10
92.7877167535387
20
-2.51095280787003
30
0
41
1
10
92.5894149190263
20
-2.5
30
0
0
SPLINE
5
172
100
AcDbEntity
8
1
62
256
6
ByLayer
370
18
48
1
60
0
100
AcDbSpline
70
4
71
1
72
4
73
2
40
0
40
0
40
1
40
1
41
1
10
111.056603963241
20
2.5
30
0
41
1
10
109.100186523607
20
2.7953376244701
30
0
0
SPLINE
5
173
100
AcDbEntity
8
1
62
256
6
ByLayer
370
18
48
1
60
0
100
AcDbSpline
70
4
71
3
72
26
73
22
40
0
40
0
40
0
40
0
40
0.0317788179427415
40
0.063557635677512
40
0.0953377853241655
40
0.127117934789289
40
0.185239551941531
40
0.243362725532787
40
0.301486408517922
40
0.359609564086012
40
0.417731166121646
40
0.475852842730354
40
0.533976083408056
40
0.592099848169877
40
0.65022309388234
40
0.708344774713864
40
0.766674769872597
40
0.825006319922272
40
0.883338403148084
40
0.941669981284237
40
1
40
1
40
1
40
1
41
1
10
111.056603963241
20
-2.5
30
0
41
1
10
111.05932116136
20
-2.44708154577946
30
0
41
1
10
111.064584421885
20
-2.34123649014374
30
0
41
1
10
111.071966505514
20
-2.18244150291476
30
0
41
1
10
111.078834266419
20
-2.02362133992822
30
0
41
1
10
111.086942190055
20
-1.82089082437789
30
0
41
1
10
111.095671153161
20
-1.57422705619507
30
0
41
1
10
111.104222220036
20
-1.28360937445022
30
0
41
1
10
111.111039137879
20
-0.992943227230016
30
0
41
1
10
111.116118560315
20
-0.702244153701329
30
0
41
1
10
111.11945727239
20
-0.411523212163457
30
0
41
1
10
111.121051923379
20
-0.120787329946525
30
0
41
1
10
111.120903602628
20
0.16995649061686
30
0
41
1
10
111.11901325171
20
0.46069681879169
30
0
41
1
10
111.115381787848
20
0.75141800893836
30
0
41
1
10
111.110003618179
20
1.04245606416112
30
0
41
1
10
111.10287211135
20
1.33380386085806
30
0
41
1
10
111.093985023719
20
1.62545443012889
30
0
41
1
10
111.083355997597
20
1.91704911678356
30
0
41
1
10
111.070989662485
20
2.20857357990255
30
0
41
1
10
111.061591696283
20
2.40286728807987
30
0
41
1
10
111.056603963241
20
2.5
30
0
0
SPLINE
5
174
100
AcDbEntity
8
1
62
256
6
ByLayer
370
18
48
1
60
0
100
AcDbSpline
70
4
71
3
72
26
73
22
40
0
40
0
40
0
40
0
40
0.062474429148334
40
0.124949032230857
40
0.187423587455482
40
0.249897951342851
40
0.299877940029927
40
0.349858174558192
40
0.399838448875607
40
0.449818602655189
40
0.499798523617235
40
0.549779109343347
40
0.599760065059332
40
0.649741099758154
40
0.699721970767558
40
0.749702485448924
40
0.79976169797265
40
0.849821373588142
40
0.899881183183667
40
0.949940820009677
40
1
40
1
40
1
40
1
41
1
10
92.5894149190263
20
28.4437492817743
30
0
41
1
10
92.7872938992899
20
28.4484599884288
30
0
41
1
10
93.1830760522624
20
28.4576800997532
30
0
41
1
10
93.7768192597083
20
28.4709251272732
30
0
41
1
10
94.3706353263844
20
28.4835285957177
30
0
41
1
10
94.9249338339063
20
28.4946595384855
30
0
41
1
10
95.439699893824
20
28.5044336312995
30
0
41
1
10
95.9149196176846
20
28.5129711291749
30
0
41
1
10
96.3901878389441
20
28.5210009149639
30
0
41
1
10
96.8655023862203
20
28.5284996428945
30
0
41
1
10
97.3408640663373
20
28.535444638063
30
0
41
1
10
97.8162729622088
20
28.5418110716062
30
0
41
1
10
98.2917277845337
20
28.5475776037554
30
0
41
1
10
98.7672230175868
20
28.5527249856137
30
0
41
1
10
99.2427530585629
20
28.5572332495699
30
0
41
1
10
99.7185634550084
20
28.5610851774583
30
0
41
1
10
100.194652013074
20
28.5642581348908
30
0
41
1
10
100.671015200348
20
28.566741308253
30
0
41
1
10
101.147397230605
20
28.5685252346358
30
0
41
1
10
101.623790170389
20
28.5696026110261
30
0
41
1
10
101.941387445502
20
28.5698423923007
30
0
41
1
10
102.100186523607
20
28.569843286758
30
0
0
SPLINE
5
175
100
AcDbEntity
8
1
62
256
6
ByLayer
370
18
48
1
60
0
100
AcDbSpline
70
4
71
3
72
26
73
22
40
0
40
0
40
0
40
0
40
0.0499714257902831
40
0.0999433060915508
40
0.149915358212572
40
0.19988727697262
40
0.24985873501895
40
0.299829729646609
40
0.34980108062803
40
0.399772595255037
40
0.449744030844827
40
0.49971509643486
40
0.549685489808741
40
0.599656116102795
40
0.649626862958093
40
0.699597569981008
40
0.749568031063291
40
0.812175898404918
40
0.874783958457921
40
0.937392066803995
40
1
40
1
40
1
40
1
41
1
10
102.100186523607
20
25.7745056622879
30
0
41
1
10
101.941665824323
20
25.7745070249431
30
0
41
1
10
101.624625302027
20
25.7748333096251
30
0
41
1
10
101.149067475722
20
25.7762990929564
30
0
41
1
10
100.673520502469
20
25.7787242355419
30
0
41
1
10
100.19799227582
20
25.7820976093135
30
0
41
1
10
99.7224904061647
20
25.7864073097357
30
0
41
1
10
99.2470184542415
20
25.7916387572307
30
0
41
1
10
98.7715786777119
20
25.7977591924121
30
0
41
1
10
98.2961736622585
20
25.8047391422908
30
0
41
1
10
97.8208090143344
20
25.8125480106469
30
0
41
1
10
97.345490276931
20
25.8211563006894
30
0
41
1
10
96.8702187433737
20
25.8305312979808
30
0
41
1
10
96.3949943346415
20
25.840634926596
30
0
41
1
10
95.9198162244081
20
25.8514324101387
30
0
41
1
10
95.4446865886882
20
25.8628879497683
30
0
41
1
10
94.9295572807991
20
25.8759845745713
30
0
41
1
10
94.3744423680515
20
25.8908712830829
30
0
41
1
10
93.7793569553646
20
25.9076862675972
30
0
41
1
10
93.1843447218447
20
25.9253001590576
30
0
41
1
10
92.7877167535386
20
25.9375172672015
30
0
41
1
10
92.5894149190263
20
25.9437492817743
30
0
0
LINE
5
70
100
AcDbEntity
8
1
62
256
6
ByLayer
370
18
48
1
60
0
100
AcDbLine
10
109.100187
20
25.774506
30
0
11
109.100187
21
2.795338
31
0
39
0
210
0
220
0
230
1
0
LINE
5
72
100
AcDbEntity
8
1
62
256
6
ByLayer
370
18
48
1
60
0
100
AcDbLine
10
109.100187
20
-2.795338
30
0
11
109.100187
21
-25.774506
31
0
39
0
210
0
220
0
230
1
0
LINE
5
73
100
AcDbEntity
8
1
62
256
6
ByLayer
370
18
48
1
60
0
100
AcDbLine
10
102.100187
20
-2.5
30
0
11
92.589415
21
-2.5
31
0
39
0
210
0
220
0
230
1
0
LINE
5
74
100
AcDbEntity
8
1
62
256
6
ByLayer
370
18
48
0.05
60
1
100
AcDbLine
10
84.200155
20
24.25
30
0
11
91.600187
21
24.25
31
0
39
0
210
0
220
0
230
1
0
LINE
5
75
100
AcDbEntity
8
1
62
256
6
ByLayer
370
18
48
1
60
0
100
AcDbLine
10
112.100187
20
26.303848
30
0
11
109.100187
21
31.5
31
0
39
0
210
0
220
0
230
1
0
LINE
5
76
100
AcDbEntity
8
1
62
256
6
ByLayer
370
18
48
1
60
0
100
AcDbLine
10
70.218787
20
-28.656637
30
0
11
70.726787
21
-28.148637
31
0
39
0
210
0
220
0
230
1
0
LINE
5
77
100
AcDbEntity
8
1
62
256
6
ByLayer
370
18
48
1
60
0
100
AcDbLine
10
102.100187
20
2.5
30
0
11
92.589415
21
2.5
31
0
39
0
210
0
220
0
230
1
0
LINE
5
78
100
AcDbEntity
8
1
62
256
6
ByLayer
370
18
48
1
60
0
100
AcDbLine
10
109.100187
20
-28.569843
30
0
11
109.100187
21
-31.5
31
0
39
0
210
0
220
0
230
1
0
LINE
5
79
100
AcDbEntity
8
1
62
256
6
ByLayer
370
18
48
1
60
0
100
AcDbLine
10
70.726787
20
28.148637
30
0
11
70.218787
21
28.656637
31
0
39
0
210
0
220
0
230
1
0
LINE
5
7A
100
AcDbEntity
8
1
62
256
6
ByLayer
370
18
48
0.05
60
1
100
AcDbLine
10
91.600187
20
24.9936
30
0
11
83.490007
21
24.9936
31
0
39
0
210
0
220
0
230
1
0
LINE
5
7B
100
AcDbEntity
8
1
62
256
6
ByLayer
370
18
48
1
60
0
100
AcDbLine
10
70.726787
20
-28.148637
30
0
11
70.726787
21
28.148637
31
0
39
0
210
0
220
0
230
1
0
LINE
5
7C
100
AcDbEntity
8
1
62
256
6
ByLayer
370
18
48
1
60
0
100
AcDbLine
10
109.100187
20
-25.774506
30
0
11
102.100187
21
-25.774506
31
0
39
0
210
0
220
0
230
1
0
LINE
5
7D
100
AcDbEntity
8
1
62
256
6
ByLayer
370
18
48
1
60
0
100
AcDbLine
10
109.100187
20
2.795338
30
0
11
102.100187
21
2.795338
31
0
39
0
210
0
220
0
230
1
0
LINE
5
7E
100
AcDbEntity
8
1
62
256
6
ByLayer
370
18
48
1
60
0
100
AcDbLine
10
78.500007
20
-24.9936
30
0
11
77.094587
21
-19.7485
31
0
39
0
210
0
220
0
230
1
0
LINE
5
7F
100
AcDbEntity
8
1
62
256
6
ByLayer
370
18
48
1
60
0
100
AcDbLine
10
66.356387
20
-30.6197
30
0
11
66.356387
21
30.6197
31
0
39
0
210
0
220
0
230
1
0
LINE
5
80
100
AcDbEntity
8
1
62
256
6
ByLayer
370
18
48
1
60
0
100
AcDbLine
10
109.29457
20
25.498711
30
0
11
111.056604
21
25.498711
31
0
39
0
210
0
220
0
230
1
0
LINE
5
81
100
AcDbEntity
8
1
62
256
6
ByLayer
370
18
48
1
60
0
100
AcDbLine
10
66.356387
20
30.6197
30
0
11
65.975387
21
31.0007
31
0
39
0
210
0
220
0
230
1
0
LINE
5
82
100
AcDbEntity
8
SK3
62
256
6
ByLayer
370
13
48
0.05
60
1
100
AcDbLine
10
149.2902
20
24.9936
30
0
11
136.8602
21
24.9936
31
0
39
0
210
0
220
0
230
1
0
LINE
5
84
100
AcDbEntity
8
SK3
62
256
6
ByLayer
370
13
48
0.05
60
1
100
AcDbLine
10
136.8602
20
24.25
30
0
11
150.8602
21
24.25
31
0
39
0
210
0
220
0
230
1
0
LINE
5
85
100
AcDbEntity
8
SK3
62
256
6
ByLayer
370
13
48
0.05
60
1
100
AcDbLine
10
150.8602
20
-24.25
30
0
11
136.8602
21
-24.25
31
0
39
0
210
0
220
0
230
1
0
LINE
5
86
100
AcDbEntity
8
SK3
62
256
6
ByLayer
370
13
48
0.05
60
1
100
AcDbLine
10
136.8602
20
-24.9936
30
0
11
149.2902
21
-24.9936
31
0
39
0
210
0
220
0
230
1
0
LINE
5
87
100
AcDbEntity
8
1
62
256
6
ByLayer
370
18
48
1
60
0
100
AcDbLine
10
109.100187
20
28.569843
30
0
11
102.100187
21
28.569843
31
0
39
0
210
0
220
0
230
1
0
LINE
5
88
100
AcDbEntity
8
1
62
256
6
ByLayer
370
18
48
0.05
60
1
100
AcDbLine
10
71.169387
20
-28.656637
30
0
11
72.718787
21
-28.656637
31
0
39
0
210
0
220
0
230
1
0
LINE
5
89
100
AcDbEntity
8
1
62
256
6
ByLayer
370
18
48
1
60
0
100
AcDbLine
10
77.094587
20
-19.7485
30
0
11
72.014587
21
-19.7485
31
0
39
0
210
0
220
0
230
1
0
LINE
5
8A
100
AcDbEntity
8
1
62
256
6
ByLayer
370
18
48
0.05
60
1
100
AcDbLine
10
68.105387
20
31.0007
30
0
11
20.607387
21
31.0007
31
0
39
0
210
0
220
0
230
1
0
LINE
5
8B
100
AcDbEntity
8
1
62
256
6
ByLayer
370
18
48
1
60
0
100
AcDbLine
10
109.100187
20
31.5
30
0
11
109.100187
21
28.569843
31
0
39
0
210
0
220
0
230
1
0
LINE
5
8C
100
AcDbEntity
8
1
62
256
6
ByLayer
370
18
48
1
60
0
100
AcDbLine
10
77.094587
20
19.7485
30
0
11
78.500007
21
24.9936
31
0
39
0
210
0
220
0
230
1
0
LINE
5
8D
100
AcDbEntity
8
1
62
256
6
ByLayer
370
18
48
1
60
0
100
AcDbLine
10
109.29457
20
-25.498711
30
0
11
111.056604
21
-25.498711
31
0
39
0
210
0
220
0
230
1
0
LINE
5
8E
100
AcDbEntity
8
1
62
256
6
ByLayer
370
18
48
0.05
60
1
100
AcDbLine
10
72.718787
20
28.656637
30
0
11
71.169387
21
28.656637
31
0
39
0
210
0
220
0
230
1
0
LINE
5
8F
100
AcDbEntity
8
1
62
256
6
ByLayer
370
18
48
1
60
0
100
AcDbLine
10
109.100187
20
-31.5
30
0
11
112.100187
21
-26.303848
31
0
39
0
210
0
220
0
230
1
0
LINE
5
90
100
AcDbEntity
8
1
62
256
6
ByLayer
370
18
48
1
60
0
100
AcDbLine
10
72.014587
20
19.7485
30
0
11
77.094587
21
19.7485
31
0
39
0
210
0
220
0
230
1
0
LINE
5
91
100
AcDbEntity
8
1
62
256
6
ByLayer
370
18
48
1
60
0
100
AcDbLine
10
70.726787
20
24.677793
30
0
11
72.047587
21
19.7485
31
0
39
0
210
0
220
0
230
1
0
LINE
5
92
100
AcDbEntity
8
1
62
256
6
ByLayer
370
18
48
1
60
0
100
AcDbLine
10
102.100187
20
2.5
30
0
11
111.056604
21
2.5
31
0
39
0
210
0
220
0
230
1
0
LINE
5
93
100
AcDbEntity
8
1
62
256
6
ByLayer
370
18
48
1
60
0
100
AcDbLine
10
86.600187
20
30.5
30
0
11
86.600187
21
-30.5
31
0
39
0
210
0
220
0
230
1
0
LINE
5
94
100
AcDbEntity
8
1
62
256
6
ByLayer
370
18
48
1
60
0
100
AcDbLine
10
102.100187
20
25.774506
30
0
11
109.100187
21
25.774506
31
0
39
0
210
0
220
0
230
1
0
LINE
5
95
100
AcDbEntity
8
1
62
256
6
ByLayer
370
18
48
1
60
0
100
AcDbLine
10
84.200155
20
-24.9936
30
0
11
84.200155
21
24.9936
31
0
39
0
210
0
220
0
230
1
0
LINE
5
96
100
AcDbEntity
8
1
62
256
6
ByLayer
370
18
48
0.05
60
1
100
AcDbLine
10
91.600187
20
-24.25
30
0
11
84.200155
21
-24.25
31
0
39
0
210
0
220
0
230
1
0
LINE
5
97
100
AcDbEntity
8
1
62
256
6
ByLayer
370
18
48
1
60
0
100
AcDbLine
10
112.100187
20
-26.303848
30
0
11
112.100187
21
26.303848
31
0
39
0
210
0
220
0
230
1
0
LINE
5
98
100
AcDbEntity
8
1
62
256
6
ByLayer
370
18
48
0.05
60
1
100
AcDbLine
10
83.490007
20
-24.9936
30
0
11
91.600187
21
-24.9936
31
0
39
0
210
0
220
0
230
1
0
LINE
5
99
100
AcDbEntity
8
1
62
256
6
ByLayer
370
18
48
1
60
0
100
AcDbLine
10
102.100187
20
-2.5
30
0
11
111.056604
21
-2.5
31
0
39
0
210
0
220
0
230
1
0
LINE
5
9A
100
AcDbEntity
8
1
62
256
6
ByLayer
370
18
48
1
60
0
100
AcDbLine
10
65.975387
20
-31.0007
30
0
11
66.356387
21
-30.6197
31
0
39
0
210
0
220
0
230
1
0
LINE
5
9B
100
AcDbEntity
8
1
62
256
6
ByLayer
370
18
48
1
60
0
100
AcDbLine
10
102.100187
20
-2.795338
30
0
11
109.100187
21
-2.795338
31
0
39
0
210
0
220
0
230
1
0
LINE
5
9C
100
AcDbEntity
8
1
62
256
6
ByLayer
370
18
48
1
60
0
100
AcDbLine
10
72.047587
20
-19.7485
30
0
11
70.726787
21
-24.677793
31
0
39
0
210
0
220
0
230
1
0
LINE
5
9D
100
AcDbEntity
8
1
62
256
6
ByLayer
370
18
48
1
60
0
100
AcDbLine
10
102.100187
20
-28.569843
30
0
11
109.100187
21
-28.569843
31
0
39
0
210
0
220
0
230
1
0
LINE
5
9E
100
AcDbEntity
8
1
62
256
6
ByLayer
370
18
48
0.05
60
1
100
AcDbLine
10
114.100187
20
31.5
30
0
11
92.600187
21
31.5
31
0
39
0
210
0
220
0
230
1
0
LINE
5
9F
100
AcDbEntity
8
1
62
256
6
ByLayer
370
18
48
0.05
60
1
100
AcDbLine
10
92.600187
20
-31.5
30
0
11
114.100187
21
-31.5
31
0
39
0
210
0
220
0
230
1
0
LINE
5
A0
100
AcDbEntity
8
1
62
256
6
ByLayer
370
18
48
0.05
60
1
100
AcDbLine
10
20.607387
20
-31.0007
30
0
11
68.105387
21
-31.0007
31
0
39
0
210
0
220
0
230
1
0
LINE
5
A1
100
AcDbEntity
8
4
62
256
6
ByLayer
370
13
48
0.05
60
1
100
AcDbLine
10
-47.900013
20
0
30
0
11
110.460187
21
0
31
0
39
0
210
0
220
0
230
1
0
LINE
5
A3
100
AcDbEntity
8
1
62
256
6
ByLayer
370
18
48
0.05
60
1
100
AcDbLine
10
45.4
20
27.5
30
0
11
30.000013
21
27.5
31
0
39
0
210
0
220
0
230
1
0
LINE
5
A4
100
AcDbEntity
8
1
62
256
6
ByLayer
370
18
48
0.05
60
1
100
AcDbLine
10
45.4
20
-27.5
30
0
11
30.000013
21
-27.5
31
0
39
0
210
0
220
0
230
1
0
LINE
5
A5
100
AcDbEntity
8
1
62
256
6
ByLayer
370
18
48
0.05
60
1
100
AcDbLine
10
34.000013
20
27.5
30
0
11
45.4
21
27.5
31
0
39
0
210
0
220
0
230
1
0
LINE
5
A6
100
AcDbEntity
8
1
62
256
6
ByLayer
370
18
48
0.05
60
1
100
AcDbLine
10
34.000013
20
-27.5
30
0
11
45.4
21
-27.5
31
0
39
0
210
0
220
0
230
1
0
LINE
5
A7
100
AcDbEntity
8
1
62
256
6
ByLayer
370
18
48
0.05
60
1
100
AcDbLine
10
47.500013
20
0
30
0
11
47.500013
21
49.215068
31
0
39
0
210
0
220
0
230
1
0
LINE
5
A8
100
AcDbEntity
8
1
62
256
6
ByLayer
370
18
48
1
60
0
100
AcDbLine
10
20.8
20
30.0007
30
0
11
20.8
21
-30.0007
31
0
39
0
210
0
220
0
230
1
0
LINE
5
A9
100
AcDbEntity
8
1
62
256
6
ByLayer
370
18
48
1
60
0
100
AcDbLine
10
21.3
20
30.6007
30
0
11
21.3
21
-30.6007
31
0
39
0
210
0
220
0
230
1
0
LINE
5
AA
100
AcDbEntity
8
1
62
256
6
ByLayer
370
18
48
0.05
60
1
100
AcDbLine
10
1.4
20
31.0007
30
0
11
17.3
21
31.0007
31
0
39
0
210
0
220
0
230
1
0
LINE
5
AB
100
AcDbEntity
8
1
62
256
6
ByLayer
370
18
48
0.05
60
1
100
AcDbLine
10
1.4
20
-31.0007
30
0
11
17.3
21
-31.0007
31
0
39
0
210
0
220
0
230
1
0
LINE
5
AC
100
AcDbEntity
8
1
62
256
6
ByLayer
370
18
48
0.05
60
1
100
AcDbLine
10
-45.400013
20
29.7
30
0
11
112.960187
21
29.7
31
0
39
0
210
0
220
0
230
1
0
LINE
5
AD
100
AcDbEntity
8
1
62
256
6
ByLayer
370
18
48
1
60
0
100
AcDbLine
10
21.3
20
-29.7
30
0
11
20.8
21
-29.7
31
0
39
0
210
0
220
0
230
1
0
LINE
5
AE
100
AcDbEntity
8
1
62
256
6
ByLayer
370
18
48
1
60
0
100
AcDbLine
10
3.3
20
31.0007
30
0
11
0
21
27.7007
31
0
39
0
210
0
220
0
230
1
0
LINE
5
AF
100
AcDbEntity
8
1
62
256
6
ByLayer
370
18
48
1
60
0
100
AcDbLine
10
0
20
-27.7007
30
0
11
3.3
21
-31.0007
31
0
39
0
210
0
220
0
230
1
0
LINE
5
B0
100
AcDbEntity
8
1
62
256
6
ByLayer
370
18
48
1
60
0
100
AcDbLine
10
20.8
20
30.0007
30
0
11
19.8
21
31.0007
31
0
39
0
210
0
220
0
230
1
0
LINE
5
B1
100
AcDbEntity
8
1
62
256
6
ByLayer
370
18
48
1
60
0
100
AcDbLine
10
19.8
20
-31.0007
30
0
11
20.8
21
-30.0007
31
0
39
0
210
0
220
0
230
1
0
LINE
5
B2
100
AcDbEntity
8
1
62
256
6
ByLayer
370
18
48
1
60
0
100
AcDbLine
10
21.7
20
31.0007
30
0
11
21.3
21
30.6007
31
0
39
0
210
0
220
0
230
1
0
LINE
5
B3
100
AcDbEntity
8
SK3
62
256
6
ByLayer
370
13
48
0.05
60
0
100
AcDbLine
10
98.600187
20
-25.5
30
0
11
98.600187
21
-25.488066
31
0
39
0
210
0
220
0
230
1
0
LINE
5
B4
100
AcDbEntity
8
SK3
62
256
6
ByLayer
370
13
48
0.05
60
0
100
AcDbLine
10
102.590187
20
18.5
30
0
11
104.790187
21
18.5
31
0
39
0
210
0
220
0
230
1
0
LINE
5
B5
100
AcDbEntity
8
SK3
62
256
6
ByLayer
370
13
48
0.05
60
0
100
AcDbLine
10
102.590187
20
24.5
30
0
11
102.590187
21
-24.5
31
0
39
0
210
0
220
0
230
1
0
LINE
5
B6
100
AcDbEntity
8
SK3
62
256
6
ByLayer
370
13
48
0.05
60
0
100
AcDbLine
10
104.790187
20
-20.9
30
0
11
104.790187
21
20.9
31
0
39
0
210
0
220
0
230
1
0
LINE
5
B7
100
AcDbEntity
8
SK3
62
256
6
ByLayer
370
13
48
0.05
60
0
100
AcDbLine
10
100.590187
20
-23.7236
30
0
11
100.590187
21
23.7236
31
0
39
0
210
0
220
0
230
1
0
LINE
5
B8
100
AcDbEntity
8
SK3
62
256
6
ByLayer
370
13
48
0.05
60
0
100
AcDbLine
10
100.590187
20
-20.0025
30
0
11
66.703238
21
-15.24
31
0
39
0
210
0
220
0
230
1
0
LINE
5
B9
100
AcDbEntity
8
SK3
62
256
6
ByLayer
370
13
48
0.05
60
0
100
AcDbLine
10
104.790187
20
-18.5
30
0
11
102.590187
21
-18.5
31
0
39
0
210
0
220
0
230
1
0
LINE
5
BA
100
AcDbEntity
8
SK3
62
256
6
ByLayer
370
13
48
0.05
60
0
100
AcDbLine
10
62.291787
20
15.24
30
0
11
66.403238
21
15.24
31
0
39
0
210
0
220
0
230
1
0
LINE
5
BB
100
AcDbEntity
8
SK3
62
256
6
ByLayer
370
13
48
0.05
60
0
100
AcDbLine
10
100.590187
20
-24.5
30
0
11
100.590187
21
-24.25
31
0
39
0
210
0
220
0
230
1
0
LINE
5
BC
100
AcDbEntity
8
SK3
62
256
6
ByLayer
370
13
48
0.05
60
1
100
AcDbLine
10
100.590187
20
-24.25
30
0
11
86.590187
21
-24.25
31
0
39
0
210
0
220
0
230
1
0
LINE
5
BD
100
AcDbEntity
8
SK3
62
256
6
ByLayer
370
13
48
0.05
60
0
100
AcDbLine
10
104.790187
20
20.9
30
0
11
112.090187
21
16.685343
31
0
39
0
210
0
220
0
230
1
0
LINE
5
BE
100
AcDbEntity
8
SK3
62
256
6
ByLayer
370
13
48
0.05
60
0
100
AcDbLine
10
99.320187
20
-24.9936
30
0
11
100.590187
21
-23.7236
31
0
39
0
210
0
220
0
230
1
0
LINE
5
BF
100
AcDbEntity
8
SK3
62
256
6
ByLayer
370
13
48
0.05
60
1
100
AcDbLine
10
99.320187
20
24.9936
30
0
11
86.890187
21
24.9936
31
0
39
0
210
0
220
0
230
1
0
LINE
5
C0
100
AcDbEntity
8
SK3
62
256
6
ByLayer
370
13
48
0.05
60
1
100
AcDbLine
10
86.890187
20
-24.9936
30
0
11
99.320187
21
-24.9936
31
0
39
0
210
0
220
0
230
1
0
LINE
5
C1
100
AcDbEntity
8
SK3
62
256
6
ByLayer
370
13
48
0.05
60
0
100
AcDbLine
10
66.703238
20
15.24
30
0
11
100.590187
21
20.0025
31
0
39
0
210
0
220
0
230
1
0
LINE
5
C2
100
AcDbEntity
8
SK3
62
256
6
ByLayer
370
13
48
0.05
60
0
100
AcDbLine
10
62.291787
20
-15.24
30
0
11
62.291787
21
15.24
31
0
39
0
210
0
220
0
230
1
0
LINE
5
C3
100
AcDbEntity
8
SK3
62
256
6
ByLayer
370
13
48
0.05
60
0
100
AcDbLine
10
112.100187
20
-16.67957
30
0
11
104.790187
21
-20.9
31
0
39
0
210
0
220
0
230
1
0
LINE
5
C4
100
AcDbEntity
8
SK3
62
256
6
ByLayer
370
13
48
0.05
60
0
100
AcDbLine
10
100.590187
20
24.25
30
0
11
100.590187
21
24.5
31
0
39
0
210
0
220
0
230
1
0
LINE
5
C5
100
AcDbEntity
8
SK3
62
256
6
ByLayer
370
13
48
0.05
60
0
100
AcDbLine
10
100.590187
20
23.7236
30
0
11
99.320187
21
24.9936
31
0
39
0
210
0
220
0
230
1
0
LINE
5
C6
100
AcDbEntity
8
SK3
62
256
6
ByLayer
370
13
48
0.05
60
0
100
AcDbLine
10
66.403238
20
-15.24
30
0
11
62.291787
21
-15.24
31
0
39
0
210
0
220
0
230
1
0
LINE
5
C7
100
AcDbEntity
8
SK3
62
256
6
ByLayer
370
13
48
0.05
60
0
100
AcDbLine
10
112.100187
20
-17
30
0
11
112.100187
21
-16.565149
31
0
39
0
210
0
220
0
230
1
0
LINE
5
C8
100
AcDbEntity
8
SK3
62
256
6
ByLayer
370
13
48
0.05
60
1
100
AcDbLine
10
86.590187
20
24.25
30
0
11
100.590187
21
24.25
31
0
39
0
210
0
220
0
230
1
0
LINE
5
C9
100
AcDbEntity
8
1
62
256
6
ByLayer
370
18
48
1
60
0
100
AcDbLine
10
3.3
20
31.0007
30
0
11
3.3
21
-31.0007
31
0
39
0
210
0
220
0
230
1
0
LINE
5
CA
100
AcDbEntity
8
1
62
256
6
ByLayer
370
18
48
1
60
0
100
AcDbLine
10
19.8
20
31.0007
30
0
11
19.8
21
-31.0007
31
0
39
0
210
0
220
0
230
1
0
LINE
5
CB
100
AcDbEntity
8
1
62
256
6
ByLayer
370
18
48
0.05
60
1
100
AcDbLine
10
0
20
27.5
30
0
11
0
21
-31.0007
31
0
39
0
210
0
220
0
230
1
0
LINE
5
CC
100
AcDbEntity
8
1
62
256
6
ByLayer
370
18
48
1
60
0
100
AcDbLine
10
21.7
20
-31.0007
30
0
11
21.3
21
-30.6007
31
0
39
0
210
0
220
0
230
1
0
LINE
5
CD
100
AcDbEntity
8
80
62
256
6
ByLayer
370
13
48
1
60
0
100
AcDbLine
10
0
20
0
30
0
11
-6.567332
21
0
31
0
39
0
210
0
220
0
230
1
0
LINE
5
CE
100
AcDbEntity
8
SK1
62
256
6
ByLayer
370
18
48
0.05
60
1
100
AcDbLine
10
-30.000013
20
-4.800963
30
0
11
-30.000013
21
9.7
31
0
39
0
210
0
220
0
230
1
0
LINE
5
D0
100
AcDbEntity
8
SK1
62
256
6
ByLayer
370
18
48
0.05
60
1
100
AcDbLine
10
-14.800013
20
-6
30
0
11
-24.800013
21
-6
31
0
39
0
210
0
220
0
230
1
0
LINE
5
D1
100
AcDbEntity
8
SK1
62
256
6
ByLayer
370
18
48
0.05
60
1
100
AcDbLine
10
46.4
20
-10
30
0
11
-2.1
21
-10
31
0
39
0
210
0
220
0
230
1
0
LINE
5
D2
100
AcDbEntity
8
SK1
62
256
6
ByLayer
370
18
48
0.05
60
1
100
AcDbLine
10
39.820847
20
-12.5
30
0
11
37.596863
21
-12.5
31
0
39
0
210
0
220
0
230
1
0
LINE
5
D3
100
AcDbEntity
8
SK1
62
256
6
ByLayer
370
18
48
0.05
60
1
100
AcDbLine
10
35.099922
20
-10.2
30
0
11
-25.717801
21
-12.694188
31
0
39
0
210
0
220
0
230
1
0
LINE
5
D4
100
AcDbEntity
8
SK1
62
256
6
ByLayer
370
18
48
1
60
0
100
AcDbLine
10
-50.000092
20
12.5
30
0
11
-50.800092
21
11.7
31
0
39
0
210
0
220
0
230
1
0
LINE
5
D5
100
AcDbEntity
8
SK1
62
256
6
ByLayer
370
18
48
0.05
60
1
100
AcDbLine
10
-2.100078
20
8.2
30
0
11
-3.611438
21
5.520897
31
0
39
0
210
0
220
0
230
1
0
LINE
5
D6
100
AcDbEntity
8
SK1
62
256
6
ByLayer
370
18
48
0.05
60
1
100
AcDbLine
10
-5.197219
20
12.5
30
0
11
102.939704
21
12.5
31
0
39
0
210
0
220
0
230
1
0
LINE
5
D7
100
AcDbEntity
8
SK1
62
256
6
ByLayer
370
18
48
0.05
60
1
100
AcDbLine
10
-2.900078
20
-12.5
30
0
11
46.4
21
-12.5
31
0
39
0
210
0
220
0
230
1
0
LINE
5
D8
100
AcDbEntity
8
SK1
62
256
6
ByLayer
370
18
48
1
60
0
100
AcDbLine
10
-9.2E-05
20
12.1
30
0
11
-1.079166
21
12.1
31
0
39
0
210
0
220
0
230
1
0
LINE
5
D9
100
AcDbEntity
8
SK1
62
256
6
ByLayer
370
18
48
1
60
0
100
AcDbLine
10
-4.179166
20
12.5
30
0
11
-1.479166
21
12.5
31
0
39
0
210
0
220
0
230
1
0
LINE
5
DA
100
AcDbEntity
8
SK1
62
256
6
ByLayer
370
18
48
1
60
0
100
AcDbLine
10
-1.079166
20
12.1
30
0
11
-1.479166
21
12.5
31
0
39
0
210
0
220
0
230
1
0
LINE
5
DB
100
AcDbEntity
8
SK1
62
256
6
ByLayer
370
18
48
0.05
60
1
100
AcDbLine
10
-39.000092
20
9.4
30
0
11
-39.000092
21
-9.209221
31
0
39
0
210
0
220
0
230
1
0
LINE
5
DC
100
AcDbEntity
8
SK1
62
256
6
ByLayer
370
18
48
0.05
60
1
100
AcDbLine
10
47.9
20
10.725
30
0
11
47.9
21
-10.725
31
0
39
0
210
0
220
0
230
1
0
LINE
5
DD
100
AcDbEntity
8
SK1
62
256
6
ByLayer
370
18
48
0.05
60
1
100
AcDbLine
10
25.1
20
-8.2
30
0
11
13.1
21
-8.2
31
0
39
0
210
0
220
0
230
1
0
LINE
5
DE
100
AcDbEntity
8
SK1
62
256
6
ByLayer
370
18
48
1
60
0
100
AcDbLine
10
-4.179166
20
12.5
30
0
11
-4.179166
21
-12.5
31
0
39
0
210
0
220
0
230
1
0
LINE
5
DF
100
AcDbEntity
8
SK1
62
256
6
ByLayer
370
18
48
0.05
60
1
100
AcDbLine
10
-2.100078
20
12.5
30
0
11
-2.100078
21
7.137852
31
0
39
0
210
0
220
0
230
1
0
LINE
5
E0
100
AcDbEntity
8
SK1
62
256
6
ByLayer
370
18
48
1
60
0
100
AcDbLine
10
-7.179166
20
-12.5
30
0
11
-4.979166
21
-12.5
31
0
39
0
210
0
220
0
230
1
0
LINE
5
E1
100
AcDbEntity
8
SK1
62
256
6
ByLayer
370
18
48
0.05
60
1
100
AcDbLine
10
-4.579166
20
12.1
30
0
11
-4.579166
21
-12.5
31
0
39
0
210
0
220
0
230
1
0
LINE
5
E2
100
AcDbEntity
8
SK1
62
256
6
ByLayer
370
18
48
0.05
60
1
100
AcDbLine
10
-2.100078
20
-8.2
30
0
11
-2.100078
21
-12.5
31
0
39
0
210
0
220
0
230
1
0
LINE
5
E3
100
AcDbEntity
8
SK1
62
256
6
ByLayer
370
18
48
1
60
0
100
AcDbLine
10
-7.979166
20
12.5
30
0
11
-7.979166
21
-12.5
31
0
39
0
210
0
220
0
230
1
0
LINE
5
E4
100
AcDbEntity
8
SK1
62
256
6
ByLayer
370
18
48
0.05
60
1
100
AcDbLine
10
3.4
20
-11.3518
30
0
11
3.4
21
11.3518
31
0
39
0
210
0
220
0
230
1
0
LINE
5
E5
100
AcDbEntity
8
SK1
62
256
6
ByLayer
370
18
48
0.05
60
1
100
AcDbLine
10
4.4
20
-8
30
0
11
47.9
21
-8
31
0
39
0
210
0
220
0
230
1
0
LINE
5
E6
100
AcDbEntity
8
SK1
62
256
6
ByLayer
370
18
48
1
60
0
100
AcDbLine
10
-1.079166
20
-12.1
30
0
11
-1.479166
21
-12.5
31
0
39
0
210
0
220
0
230
1
0
LINE
5
E7
100
AcDbEntity
8
SK1
62
256
6
ByLayer
370
18
48
1
60
0
100
AcDbLine
10
-9.2E-05
20
-12.1
30
0
11
-1.079166
21
-12.1
31
0
39
0
210
0
220
0
230
1
0
LINE
5
E8
100
AcDbEntity
8
SK1
62
256
6
ByLayer
370
18
48
0.05
60
1
100
AcDbLine
10
-20.000013
20
-4.800963
30
0
11
-20.000013
21
9.7
31
0
39
0
210
0
220
0
230
1
0
LINE
5
E9
100
AcDbEntity
8
SK1
62
256
6
ByLayer
370
18
48
0.05
60
1
100
AcDbLine
10
-2.7
20
-9.000963
30
0
11
-2.7
21
5.5
31
0
39
0
210
0
220
0
230
1
0
LINE
5
EA
100
AcDbEntity
8
SK1
62
256
6
ByLayer
370
18
48
0.05
60
1
100
AcDbLine
10
102.939704
20
10
30
0
11
0.742532
21
10
31
0
39
0
210
0
220
0
230
1
0
LINE
5
EB
100
AcDbEntity
8
SK1
62
256
6
ByLayer
370
18
48
1
60
0
100
AcDbLine
10
-18.000013
20
-8.2
30
0
11
-30.000013
21
-8.2
31
0
39
0
210
0
220
0
230
1
0
LINE
5
EC
100
AcDbEntity
8
SK1
62
256
6
ByLayer
370
18
48
1
60
0
100
AcDbLine
10
-7.579166
20
-12.1
30
0
11
-7.979166
21
-12.5
31
0
39
0
210
0
220
0
230
1
0
LINE
5
ED
100
AcDbEntity
8
SK1
62
256
6
ByLayer
370
18
48
0.05
60
1
100
AcDbLine
10
-18.000013
20
-2.8
30
0
11
-18.000013
21
7.2
31
0
39
0
210
0
220
0
230
1
0
LINE
5
EE
100
AcDbEntity
8
SK1
62
256
6
ByLayer
370
18
48
0.05
60
1
100
AcDbLine
10
25.100847
20
12.1
30
0
11
26.457206
21
12.1
31
0
39
0
210
0
220
0
230
1
0
LINE
5
EF
100
AcDbEntity
8
SK1
62
256
6
ByLayer
370
18
48
0.05
60
1
100
AcDbLine
10
-8.079166
20
12.5
30
0
11
-50.000092
21
12.5
31
0
39
0
210
0
220
0
230
1
0
LINE
5
F0
100
AcDbEntity
8
SK1
62
256
6
ByLayer
370
18
48
0.05
60
1
100
AcDbLine
10
-1.079166
20
-12.5
30
0
11
-1.079166
21
12.1
31
0
39
0
210
0
220
0
230
1
0
LINE
5
F1
100
AcDbEntity
8
SK1
62
256
6
ByLayer
370
18
48
0.05
60
1
100
AcDbLine
10
46.4
20
-11.3518
30
0
11
46.4
21
11.3518
31
0
39
0
210
0
220
0
230
1
0
LINE
5
F2
100
AcDbEntity
8
SK1
62
256
6
ByLayer
370
18
48
0.05
60
1
100
AcDbLine
10
-27.417219
20
14.25
30
0
11
80.719704
21
14.25
31
0
39
0
210
0
220
0
230
1
0
LINE
5
F3
100
AcDbEntity
8
SK1
62
256
6
ByLayer
370
18
48
0.05
60
1
100
AcDbLine
10
-2.900078
20
-9.209221
30
0
11
-2.900078
21
10
31
0
39
0
210
0
220
0
230
1
0
LINE
5
F4
100
AcDbEntity
8
SK1
62
256
6
ByLayer
370
18
48
1
60
0
100
AcDbLine
10
-4.179166
20
12.5
30
0
11
-4.579166
21
12.1
31
0
39
0
210
0
220
0
230
1
0
LINE
5
F5
100
AcDbEntity
8
SK1
62
256
6
ByLayer
370
18
48
0.05
60
1
100
AcDbLine
10
25.1
20
8.2
30
0
11
13.1
21
8.2
31
0
39
0
210
0
220
0
230
1
0
LINE
5
F6
100
AcDbEntity
8
SK1
62
256
6
ByLayer
370
18
48
1
60
0
100
AcDbLine
10
-7.579166
20
12.1
30
0
11
-7.979166
21
12.5
31
0
39
0
210
0
220
0
230
1
0
LINE
5
F7
100
AcDbEntity
8
SK1
62
256
6
ByLayer
370
18
48
1
60
0
100
AcDbLine
10
-4.179166
20
-12.5
30
0
11
-4.579166
21
-12.1
31
0
39
0
210
0
220
0
230
1
0
LINE
5
F8
100
AcDbEntity
8
SK1
62
256
6
ByLayer
370
18
48
1
60
0
100
AcDbLine
10
-1.479166
20
-12.5
30
0
11
-1.479166
21
12.5
31
0
39
0
210
0
220
0
230
1
0
LINE
5
F9
100
AcDbEntity
8
SK1
62
256
6
ByLayer
370
18
48
0.05
60
1
100
AcDbLine
10
49.539691
20
8.2
30
0
11
-52.657482
21
8.2
31
0
39
0
210
0
220
0
230
1
0
LINE
5
FA
100
AcDbEntity
8
SK1
62
256
6
ByLayer
370
18
48
0.05
60
1
100
AcDbLine
10
26.179922
20
8.77265
30
0
11
26.179922
21
0
31
0
39
0
210
0
220
0
230
1
0
LINE
5
FB
100
AcDbEntity
8
SK1
62
256
6
ByLayer
370
18
48
1
60
0
100
AcDbLine
10
-50.800092
20
-6.781884
30
0
11
-50.000092
21
-8.2
31
0
39
0
210
0
220
0
230
1
0
LINE
5
FC
100
AcDbEntity
8
SK1
62
256
6
ByLayer
370
18
48
0.05
60
1
100
AcDbLine
10
102.939704
20
8
30
0
11
0.742532
21
8
31
0
39
0
210
0
220
0
230
1
0
LINE
5
FD
100
AcDbEntity
8
SK1
62
256
6
ByLayer
370
18
48
0.05
60
1
100
AcDbLine
10
-7.579166
20
12.1
30
0
11
-7.579166
21
-12.5
31
0
39
0
210
0
220
0
230
1
0
LINE
5
FE
100
AcDbEntity
8
SK1
62
256
6
ByLayer
370
18
48
0.05
60
1
100
AcDbLine
10
-8.079166
20
12.5
30
0
11
-4.979166
21
12.5
31
0
39
0
210
0
220
0
230
1
0
LINE
5
FF
100
AcDbEntity
8
SK1
62
256
6
ByLayer
370
18
48
1
60
0
100
AcDbLine
10
-4.179166
20
-12.5
30
0
11
-1.479166
21
-12.5
31
0
39
0
210
0
220
0
230
1
0
LINE
5
100
100
AcDbEntity
8
SK1
62
256
6
ByLayer
370
18
48
1
60
0
100
AcDbLine
10
-50.800092
20
11.7
30
0
11
-50.800092
21
-11.758413
31
0
39
0
210
0
220
0
230
1
0
LINE
5
101
100
AcDbEntity
8
SK1
62
256
6
ByLayer
370
18
48
0.05
60
1
100
AcDbLine
10
14.099922
20
8.2
30
0
11
2.099922
21
8.2
31
0
39
0
210
0
220
0
230
1
0
LINE
5
102
100
AcDbEntity
8
SK1
62
256
6
ByLayer
370
18
48
0.05
60
1
100
AcDbLine
10
14.099922
20
-8.2
30
0
11
2.099922
21
-8.2
31
0
39
0
210
0
220
0
230
1
0
LINE
5
103
100
AcDbEntity
8
SK1
62
256
6
ByLayer
370
18
48
0.05
60
1
100
AcDbLine
10
-50.000092
20
11.725605
30
0
11
-50.000092
21
8.2
31
0
39
0
210
0
220
0
230
1
0
LINE
5
104
100
AcDbEntity
8
SK1
62
256
6
ByLayer
370
18
48
1
60
0
100
AcDbLine
10
-50.800092
20
6.781884
30
0
11
-50.000092
21
8.2
31
0
39
0
210
0
220
0
230
1
0
LINE
5
105
100
AcDbEntity
8
1
62
256
6
ByLayer
370
18
48
1
60
0
100
AcDbLine
10
65.975387
20
31.0007
30
0
11
65.975387
21
-31.0007
31
0
39
0
210
0
220
0
230
1
0
LINE
5
106
100
AcDbEntity
8
1
62
256
6
ByLayer
370
18
48
1
60
0
100
AcDbLine
10
70.218787
20
-28.656637
30
0
11
70.472787
21
28.402637
31
0
39
0
210
0
220
0
230
1
0
LINE
5
107
100
AcDbEntity
8
SK1
62
256
6
ByLayer
370
18
48
1
60
0
100
AcDbLine
10
-7.979166
20
-12.5
30
0
11
-50.000092
21
-12.5
31
0
39
0
210
0
220
0
230
1
0
LINE
5
108
100
AcDbEntity
8
SK1
62
256
6
ByLayer
370
18
48
1
60
0
100
AcDbLine
10
-50.000092
20
-12.5
30
0
11
-50.000092
21
-8.2
31
0
39
0
210
0
220
0
230
1
0
LINE
5
109
100
AcDbEntity
8
SK1
62
256
6
ByLayer
370
18
48
1
60
0
100
AcDbLine
10
-50.000092
20
8.2
30
0
11
-39.000092
21
8.2
31
0
39
0
210
0
220
0
230
1
0
LINE
5
10A
100
AcDbEntity
8
SK1
62
256
6
ByLayer
370
18
48
1
60
0
100
AcDbLine
10
-50.000092
20
-8.2
30
0
11
-39.000092
21
-8.2
31
0
39
0
210
0
220
0
230
1
0
LINE
5
10B
100
AcDbEntity
8
SK1
62
256
6
ByLayer
370
18
48
1
60
0
100
AcDbLine
10
-50.800092
20
-11.758413
30
0
11
-50.000092
21
-12.5
31
0
39
0
210
0
220
0
230
1
0
LINE
5
10C
100
AcDbEntity
8
1
62
256
6
ByLayer
370
18
48
1
60
0
100
AcDbLine
10
21.7
20
-31.0007
30
0
11
65.975387
21
-31.0007
31
0
39
0
210
0
220
0
230
1
0
LINE
5
10D
100
AcDbEntity
8
3
62
256
6
ByLayer
370
13
48
0.05
60
0
100
AcDbLine
10
99.320187
20
-24.9936
30
0
11
100.590187
21
-23.7236
31
0
39
0
210
0
220
0
230
1
0
LINE
5
10F
100
AcDbEntity
8
3
62
256
6
ByLayer
370
13
48
0.05
60
0
100
AcDbLine
10
86.500187
20
-24.9936
30
0
11
99.320187
21
-24.9936
31
0
39
0
210
0
220
0
230
1
0
LINE
5
110
100
AcDbEntity
8
3
62
256
6
ByLayer
370
13
48
0.05
60
0
100
AcDbLine
10
100.590187
20
23.7236
30
0
11
99.320187
21
24.9936
31
0
39
0
210
0
220
0
230
1
0
LINE
5
111
100
AcDbEntity
8
3
62
256
6
ByLayer
370
13
48
0.05
60
0
100
AcDbLine
10
86.500187
20
24.9936
30
0
11
99.320187
21
24.9936
31
0
39
0
210
0
220
0
230
1
0
LINE
5
112
100
AcDbEntity
8
3
62
256
6
ByLayer
370
13
48
0.05
60
0
100
AcDbLine
10
100.590187
20
-23.7236
30
0
11
100.590187
21
-20.0025
31
0
39
0
210
0
220
0
230
1
0
LINE
5
113
100
AcDbEntity
8
3
62
256
6
ByLayer
370
13
48
0.05
60
0
100
AcDbLine
10
100.590187
20
20.0025
30
0
11
100.590187
21
23.7236
31
0
39
0
210
0
220
0
230
1
0
LINE
5
114
100
AcDbEntity
8
4
62
256
6
ByLayer
370
13
48
0.05
60
0
100
AcDbLine
10
0
20
0
30
0
11
100.590187
21
0
31
0
39
0
210
0
220
0
230
1
0
LINE
5
115
100
AcDbEntity
8
SK4
62
256
6
ByLayer
370
13
48
0.05
60
0
100
AcDbLine
10
-53
20
0
30
0
11
120
21
0
31
0
39
0
210
0
220
0
230
1
0
LINE
5
117
100
AcDbEntity
8
81
62
256
6
ByLayer
370
13
48
1
60
0
100
AcDbLine
10
100.6
20
0
30
0
11
109
21
0
31
0
39
0
210
0
220
0
230
1
0
LINE
5
118
100
AcDbEntity
8
1
62
256
6
ByLayer
370
18
48
1
60
0
100
AcDbLine
10
87.500187
20
31.5
30
0
11
109.100187
21
31.5
31
0
39
0
210
0
220
0
230
1
0
LINE
5
119
100
AcDbEntity
8
1
62
256
6
ByLayer
370
18
48
1
60
0
100
AcDbLine
10
87.500187
20
-31.5
30
0
11
109.100187
21
-31.5
31
0
39
0
210
0
220
0
230
1
0
LINE
5
11A
100
AcDbEntity
8
1
62
256
6
ByLayer
370
18
48
0.05
60
1
100
AcDbLine
10
47.500013
20
-31.0007
30
0
11
47.500013
21
49.215068
31
0
39
0
210
0
220
0
230
1
0
LINE
5
11B
100
AcDbEntity
8
1
62
256
6
ByLayer
370
18
48
0.05
60
1
100
AcDbLine
10
47.500013
20
31.0007
30
0
11
47.500013
21
-31.0007
31
0
39
0
210
0
220
0
230
1
0
LINE
5
11C
100
AcDbEntity
8
1
62
256
6
ByLayer
370
18
48
0.05
60
1
100
AcDbLine
10
21.3
20
31.0007
30
0
11
68.105387
21
31.0007
31
0
39
0
210
0
220
0
230
1
0
LINE
5
11D
100
AcDbEntity
8
1
62
256
6
ByLayer
370
18
48
0.05
60
1
100
AcDbLine
10
21.3
20
-31.0007
30
0
11
68.105387
21
-31.0007
31
0
39
0
210
0
220
0
230
1
0
LINE
5
11E
100
AcDbEntity
8
1
62
256
6
ByLayer
370
18
48
0.05
60
1
100
AcDbLine
10
-45.400013
20
29.7
30
0
11
21.3
21
29.7
31
0
39
0
210
0
220
0
230
1
0
LINE
5
11F
100
AcDbEntity
8
1
62
256
6
ByLayer
370
18
48
1
60
0
100
AcDbLine
10
21.3
20
29.7
30
0
11
20.8
21
29.7
31
0
39
0
210
0
220
0
230
1
0
LINE
5
120
100
AcDbEntity
8
1
62
256
6
ByLayer
370
18
48
0.05
60
1
100
AcDbLine
10
21.7
20
31.0007
30
0
11
68.105387
21
31.0007
31
0
39
0
210
0
220
0
230
1
0
LINE
5
121
100
AcDbEntity
8
1
62
256
6
ByLayer
370
18
48
0.05
60
1
100
AcDbLine
10
21.3
20
-31.0007
30
0
11
68.105387
21
-31.0007
31
0
39
0
210
0
220
0
230
1
0
LINE
5
122
100
AcDbEntity
8
1
62
256
6
ByLayer
370
18
48
1
60
0
100
AcDbLine
10
65.975387
20
31.0007
30
0
11
21.7
21
31.0007
31
0
39
0
210
0
220
0
230
1
0
LINE
5
123
100
AcDbEntity
8
1
62
256
6
ByLayer
370
18
48
0.05
60
1
100
AcDbLine
10
66.356387
20
28.656637
30
0
11
72.718787
21
28.656637
31
0
39
0
210
0
220
0
230
1
0
LINE
5
124
100
AcDbEntity
8
1
62
256
6
ByLayer
370
18
48
0.05
60
1
100
AcDbLine
10
66.356387
20
-28.656637
30
0
11
72.718787
21
-28.656637
31
0
39
0
210
0
220
0
230
1
0
LINE
5
125
100
AcDbEntity
8
1
62
256
6
ByLayer
370
18
48
0.05
60
1
100
AcDbLine
10
78.500007
20
24.9936
30
0
11
91.600187
21
24.9936
31
0
39
0
210
0
220
0
230
1
0
LINE
5
126
100
AcDbEntity
8
1
62
256
6
ByLayer
370
18
48
0.05
60
1
100
AcDbLine
10
78.500007
20
-24.9936
30
0
11
91.600187
21
-24.9936
31
0
39
0
210
0
220
0
230
1
0
LINE
5
127
100
AcDbEntity
8
1
62
256
6
ByLayer
370
18
48
1
60
0
100
AcDbLine
10
84.200155
20
-24.25
30
0
11
86.600187
21
-24.25
31
0
39
0
210
0
220
0
230
1
0
LINE
5
128
100
AcDbEntity
8
1
62
256
6
ByLayer
370
18
48
1
60
0
100
AcDbLine
10
86.600187
20
-24.9936
30
0
11
78.500007
21
-24.9936
31
0
39
0
210
0
220
0
230
1
0
LINE
5
129
100
AcDbEntity
8
1
62
256
6
ByLayer
370
18
48
1
60
0
100
AcDbLine
10
86.600187
20
24.25
30
0
11
84.200155
21
24.25
31
0
39
0
210
0
220
0
230
1
0
LINE
5
12A
100
AcDbEntity
8
1
62
256
6
ByLayer
370
18
48
1
60
0
100
AcDbLine
10
86.600187
20
24.9936
30
0
11
78.500007
21
24.9936
31
0
39
0
210
0
220
0
230
1
0
LINE
5
12B
100
AcDbEntity
8
1
62
256
6
ByLayer
370
18
48
1
60
0
100
AcDbLine
10
70.218787
20
-28.656637
30
0
11
66.356387
21
-28.656637
31
0
39
0
210
0
220
0
230
1
0
LINE
5
12C
100
AcDbEntity
8
1
62
256
6
ByLayer
370
18
48
1
60
0
100
AcDbLine
10
70.218787
20
28.656637
30
0
11
66.356387
21
28.656637
31
0
39
0
210
0
220
0
230
1
0
LINE
5
12D
100
AcDbEntity
8
1
62
256
6
ByLayer
370
18
48
0.05
60
1
100
AcDbLine
10
0
20
27.7007
30
0
11
0
21
-31.0007
31
0
39
0
210
0
220
0
230
1
0
LINE
5
12E
100
AcDbEntity
8
1
62
256
6
ByLayer
370
18
48
0.05
60
1
100
AcDbLine
10
3.3
20
31.0007
30
0
11
17.3
21
31.0007
31
0
39
0
210
0
220
0
230
1
0
LINE
5
12F
100
AcDbEntity
8
1
62
256
6
ByLayer
370
18
48
1
60
0
100
AcDbLine
10
19.8
20
31.0007
30
0
11
3.3
21
31.0007
31
0
39
0
210
0
220
0
230
1
0
LINE
5
130
100
AcDbEntity
8
1
62
256
6
ByLayer
370
18
48
0.05
60
1
100
AcDbLine
10
19.8
20
-31.0007
30
0
11
1.4
21
-31.0007
31
0
39
0
210
0
220
0
230
1
0
LINE
5
131
100
AcDbEntity
8
1
62
256
6
ByLayer
370
18
48
1
60
0
100
AcDbLine
10
0
20
-27.7007
30
0
11
0
21
27.7007
31
0
39
0
210
0
220
0
230
1
0
LINE
5
132
100
AcDbEntity
8
1
62
256
6
ByLayer
370
18
48
1
60
0
100
AcDbLine
10
3.3
20
-31.0007
30
0
11
19.8
21
-31.0007
31
0
39
0
210
0
220
0
230
1
0
LINE
5
133
100
AcDbEntity
8
SK3
62
256
6
ByLayer
370
13
48
0.05
60
0
100
AcDbLine
10
86.600187
20
24.9936
30
0
11
99.320187
21
24.9936
31
0
39
0
210
0
220
0
230
1
0
LINE
5
134
100
AcDbEntity
8
SK3
62
256
6
ByLayer
370
13
48
0.05
60
0
100
AcDbLine
10
86.600187
20
24.25
30
0
11
100.590187
21
24.25
31
0
39
0
210
0
220
0
230
1
0
LINE
5
135
100
AcDbEntity
8
SK3
62
256
6
ByLayer
370
13
48
0.05
60
0
100
AcDbLine
10
86.600187
20
-24.25
30
0
11
100.590187
21
-24.25
31
0
39
0
210
0
220
0
230
1
0
LINE
5
136
100
AcDbEntity
8
SK3
62
256
6
ByLayer
370
13
48
0.05
60
0
100
AcDbLine
10
86.600187
20
-24.9936
30
0
11
99.320187
21
-24.9936
31
0
39
0
210
0
220
0
230
1
0
LINE
5
137
100
AcDbEntity
8
SK1
62
256
6
ByLayer
370
18
48
0.05
60
1
100
AcDbLine
10
47.9
20
9.7518
30
0
11
47.9
21
-10.725
31
0
39
0
210
0
220
0
230
1
0
LINE
5
138
100
AcDbEntity
8
SK1
62
256
6
ByLayer
370
18
48
0.05
60
1
100
AcDbLine
10
47.9
20
-11.7518
30
0
11
47.9
21
9.7518
31
0
39
0
210
0
220
0
230
1
0
LINE
5
139
100
AcDbEntity
8
SK1
62
256
6
ByLayer
370
18
48
0.05
60
1
100
AcDbLine
10
0.742532
20
8
30
0
11
47.9
21
8
31
0
39
0
210
0
220
0
230
1
0
LINE
5
13A
100
AcDbEntity
8
SK1
62
256
6
ByLayer
370
18
48
0.05
60
1
100
AcDbLine
10
3.4
20
8
30
0
11
3.4
21
-11.3518
31
0
39
0
210
0
220
0
230
1
0
LINE
5
13B
100
AcDbEntity
8
SK1
62
256
6
ByLayer
370
18
48
0.05
60
1
100
AcDbLine
10
3.4
20
8
30
0
11
47.9
21
8
31
0
39
0
210
0
220
0
230
1
0
LINE
5
13C
100
AcDbEntity
8
SK1
62
256
6
ByLayer
370
18
48
0.05
60
1
100
AcDbLine
10
46.4
20
8
30
0
11
46.4
21
-11.3518
31
0
39
0
210
0
220
0
230
1
0
LINE
5
13D
100
AcDbEntity
8
SK1
62
256
6
ByLayer
370
18
48
0.05
60
1
100
AcDbLine
10
46.4
20
-8
30
0
11
46.4
21
8
31
0
39
0
210
0
220
0
230
1
0
LINE
5
13E
100
AcDbEntity
8
SK1
62
256
6
ByLayer
370
18
48
0.05
60
1
100
AcDbLine
10
-52.657482
20
8.2
30
0
11
-20.000013
21
8.2
31
0
39
0
210
0
220
0
230
1
0
LINE
5
13F
100
AcDbEntity
8
SK1
62
256
6
ByLayer
370
18
48
0.05
60
1
100
AcDbLine
10
-20.000013
20
8.2
30
0
11
-30.000013
21
8.2
31
0
39
0
210
0
220
0
230
1
0
LINE
5
140
100
AcDbEntity
8
SK1
62
256
6
ByLayer
370
18
48
0.05
60
1
100
AcDbLine
10
-30.000013
20
8.2
30
0
11
-30.000013
21
-4.800963
31
0
39
0
210
0
220
0
230
1
0
LINE
5
141
100
AcDbEntity
8
SK1
62
256
6
ByLayer
370
18
48
0.05
60
1
100
AcDbLine
10
-30.000013
20
-6
30
0
11
-30.000013
21
8.2
31
0
39
0
210
0
220
0
230
1
0
LINE
5
142
100
AcDbEntity
8
SK1
62
256
6
ByLayer
370
18
48
0.05
60
1
100
AcDbLine
10
-2.7
20
10
30
0
11
102.939704
21
10
31
0
39
0
210
0
220
0
230
1
0
LINE
5
143
100
AcDbEntity
8
SK1
62
256
6
ByLayer
370
18
48
0.05
60
1
100
AcDbLine
10
46.4
20
10
30
0
11
-2.7
21
10
31
0
39
0
210
0
220
0
230
1
0
LINE
5
144
100
AcDbEntity
8
SK1
62
256
6
ByLayer
370
18
48
0.05
60
1
100
AcDbLine
10
26.179922
20
14.25
30
0
11
26.179922
21
0
31
0
39
0
210
0
220
0
230
1
0
LINE
5
145
100
AcDbEntity
8
SK1
62
256
6
ByLayer
370
18
48
0.05
60
1
100
AcDbLine
10
26.179922
20
-14.25
30
0
11
26.179922
21
14.25
31
0
39
0
210
0
220
0
230
1
0
LINE
5
146
100
AcDbEntity
8
SK1
62
256
6
ByLayer
370
18
48
0.05
60
1
100
AcDbLine
10
26.179922
20
-13.95
30
0
11
26.179922
21
14.25
31
0
39
0
210
0
220
0
230
1
0
LINE
5
147
100
AcDbEntity
8
SK1
62
256
6
ByLayer
370
18
48
1
60
0
100
AcDbLine
10
-18.000013
20
8.2
30
0
11
-30.000013
21
8.2
31
0
39
0
210
0
220
0
230
1
0
LINE
5
148
100
AcDbEntity
8
SK1
62
256
6
ByLayer
370
18
48
1
60
0
100
AcDbLine
10
-30.000013
20
-8.2
30
0
11
-30.000013
21
8.2
31
0
39
0
210
0
220
0
230
1
0
LINE
5
149
100
AcDbEntity
8
SK1
62
256
6
ByLayer
370
18
48
0.05
60
1
100
AcDbLine
10
-18.000013
20
-8.2
30
0
11
-18.000013
21
7.2
31
0
39
0
210
0
220
0
230
1
0
LINE
5
14A
100
AcDbEntity
8
SK1
62
256
6
ByLayer
370
18
48
1
60
0
100
AcDbLine
10
-18.000013
20
8.2
30
0
11
-18.000013
21
-8.2
31
0
39
0
210
0
220
0
230
1
0
LINE
5
14B
100
AcDbEntity
8
SK1
62
256
6
ByLayer
370
18
48
0.05
60
1
100
AcDbLine
10
-39.000092
20
8.2
30
0
11
-39.000092
21
-9.209221
31
0
39
0
210
0
220
0
230
1
0
LINE
5
14C
100
AcDbEntity
8
SK1
62
256
6
ByLayer
370
18
48
1
60
0
100
AcDbLine
10
-39.000092
20
-8.2
30
0
11
-39.000092
21
8.2
31
0
39
0
210
0
220
0
230
1
0
LINE
5
14D
100
AcDbEntity
8
SK1
62
256
6
ByLayer
370
18
48
0.05
60
1
100
AcDbLine
10
-39.000092
20
8.2
30
0
11
25.1
21
8.2
31
0
39
0
210
0
220
0
230
1
0
LINE
5
14E
100
AcDbEntity
8
SK1
62
256
6
ByLayer
370
18
48
0.05
60
1
100
AcDbLine
10
-39.000092
20
-8.2
30
0
11
25.1
21
-8.2
31
0
39
0
210
0
220
0
230
1
0
LINE
5
14F
100
AcDbEntity
8
SK1
62
256
6
ByLayer
370
18
48
0.05
60
1
100
AcDbLine
10
-7.579166
20
12.5
30
0
11
-7.579166
21
-12.5
31
0
39
0
210
0
220
0
230
1
0
LINE
5
150
100
AcDbEntity
8
SK1
62
256
6
ByLayer
370
18
48
0.05
60
1
100
AcDbLine
10
-7.579166
20
12.1
30
0
11
-7.579166
21
-12.5
31
0
39
0
210
0
220
0
230
1
0
LINE
5
151
100
AcDbEntity
8
SK1
62
256
6
ByLayer
370
18
48
1
60
0
100
AcDbLine
10
-7.179166
20
12.5
30
0
11
-4.979166
21
12.5
31
0
39
0
210
0
220
0
230
1
0
LINE
5
152
100
AcDbEntity
8
SK1
62
256
6
ByLayer
370
18
48
1
60
0
100
AcDbLine
10
-7.979166
20
12.5
30
0
11
-50.000092
21
12.5
31
0
39
0
210
0
220
0
230
1
0
LINE
5
153
100
AcDbEntity
8
SK1
62
256
6
ByLayer
370
18
48
1
60
0
100
AcDbLine
10
-1.079166
20
-12.1
30
0
11
-1.079166
21
12.1
31
0
39
0
210
0
220
0
230
1
0
LINE
5
154
100
AcDbEntity
8
SK1
62
256
6
ByLayer
370
18
48
1
60
0
100
AcDbLine
10
-4.579166
20
-12.1
30
0
11
-4.579166
21
12.1
31
0
39
0
210
0
220
0
230
1
0
LINE
5
155
100
AcDbEntity
8
SK1
62
256
6
ByLayer
370
18
48
1
60
0
100
AcDbLine
10
-7.579166
20
-12.1
30
0
11
-7.579166
21
12.1
31
0
39
0
210
0
220
0
230
1
0
LINE
5
156
100
AcDbEntity
8
SK1
62
256
6
ByLayer
370
18
48
1
60
0
100
AcDbLine
10
-50.000092
20
12.5
30
0
11
-50.000092
21
8.2
31
0
39
0
210
0
220
0
230
1
0
MTEXT
5
176
100
AcDbEntity
8
SK6
62
256
6
ByLayer
370
18
48
1
60
0
100
AcDbMText
10
7.728839
20
-40.014933
30
0
210
0
220
0
230
1
1
\W0.7468;970-WE25-40-117
40
3
41
0
44
1.084337
50
0
71
7
72
5
7
iso_b_vert
0
DIMENSION
5
182
100
AcDbEntity
8
SK2
62
256
6
ByLayer
370
13
48
1
60
0
100
AcDbDimension
2
DimnDraft3D1
10
43.558132
20
-31.0007
30
0
11
43.558132
21
10.841834
31
0
70
32
71
5
72
1
41
1
210
0
220
0
230
1
3
Standard
100
AcDbAlignedDimension
13
43.558132
23
31.0007
33
0
14
43.558132
24
-31.0007
34
0
50
90
100
AcDbRotatedDimension
1001
ACAD
1000
DSTYLE
1002
{
1070
    74
1070
     0
1070
   279
1070
     0
1070
   172
1070
     1
1070
   173
1070
     1
1070
   340
1005
177
1070
   271
1070
     0
1070
   272
1070
     3
1070
    77
1070
     1
1070
    73
1070
     0
1070
   171
1070
     4
1070
   274
1070
     4
1070
   177
1070
     7
1070
   176
1070
     7
1070
   178
1070
     7
1070
    78
1070
     8
1070
    48
1040
-0.005
1070
    41
1041
3.175
1070
   147
1041
1.500003
1070
    42
1041
1.5875
1070
    44
1041
3.175
1070
   140
1041
3.000007
1070
   343
1005
0
1070
   344
1005
0
1002
}
0
DIMENSION
5
18C
100
AcDbEntity
8
SK2
62
256
6
ByLayer
370
13
48
1
60
0
100
AcDbDimension
2
DimnDraft3D2
10
135.169172
20
-16.67957
30
0
11
135.169172
21
-8.54784
31
0
70
32
71
5
72
1
41
1
210
0
220
0
230
1
3
Standard
100
AcDbAlignedDimension
13
113.677687
23
16.685343
33
0
14
113.687687
24
-16.67957
34
0
50
90
100
AcDbRotatedDimension
1001
ACAD
1000
DSTYLE
1002
{
1070
    74
1070
     0
1070
   279
1070
     0
1070
   172
1070
     1
1070
   173
1070
     1
1070
   340
1005
177
1070
   271
1070
     3
1070
   272
1070
     3
1070
    77
1070
     1
1070
    73
1070
     0
1070
   171
1070
     4
1070
   274
1070
     4
1070
   177
1070
     7
1070
   176
1070
     7
1070
   178
1070
     7
1070
    78
1070
     8
1070
    48
1040
-0.005
1070
    41
1041
3.175
1070
   147
1041
1.500003
1070
    42
1041
1.5875
1070
    44
1041
3.175
1070
   140
1041
3.000007
1070
   343
1005
0
1070
   344
1005
0
1002
}
0
DIMENSION
5
196
100
AcDbEntity
8
SK2
62
256
6
ByLayer
370
13
48
1
60
0
100
AcDbDimension
2
DimnDraft3D3
10
153.435157
20
31.5
30
0
11
153.435157
21
-4.151322
31
0
70
32
71
5
72
1
41
1
210
0
220
0
230
1
3
Standard
100
AcDbAlignedDimension
13
115.687687
23
-31.5
33
0
14
115.687687
24
31.5
34
0
50
90
100
AcDbRotatedDimension
1001
ACAD
1000
DSTYLE
1002
{
1070
    74
1070
     0
1070
   279
1070
     0
1070
   172
1070
     1
1070
   173
1070
     1
1070
   340
1005
177
1070
   271
1070
     0
1070
   272
1070
     3
1070
    77
1070
     1
1070
    73
1070
     0
1070
   171
1070
     4
1070
   274
1070
     4
1070
   177
1070
     7
1070
   176
1070
     7
1070
   178
1070
     7
1070
    78
1070
     8
1070
    48
1040
-0.005
1070
    41
1041
3.175
1070
   147
1041
1.500003
1070
    42
1041
1.5875
1070
    44
1041
3.175
1070
   140
1041
3.000007
1070
   343
1005
0
1070
   344
1005
0
1002
}
0
DIMENSION
5
1A0
100
AcDbEntity
8
SK2
62
256
6
ByLayer
370
13
48
1
60
0
100
AcDbDimension
2
DimnDraft3D4
10
112.100187
20
57.088876
30
0
11
85.550795
21
57.088876
31
0
70
32
71
5
72
1
41
1
210
0
220
0
230
1
3
Standard
100
AcDbAlignedDimension
13
66.356387
23
32.2072
33
0
14
112.100187
24
27.891348
34
0
50
0
100
AcDbRotatedDimension
1001
ACAD
1000
DSTYLE
1002
{
1070
   279
1070
     0
1070
   172
1070
     1
1070
   173
1070
     1
1070
   340
1005
177
1070
   271
1070
     1
1070
   272
1070
     3
1070
    77
1070
     1
1070
    73
1070
     0
1070
   171
1070
     4
1070
   274
1070
     4
1070
   177
1070
     7
1070
   176
1070
     7
1070
   178
1070
     7
1070
    78
1070
     8
1070
    48
1040
-0.005
1070
    41
1041
3.175
1070
   147
1041
1.500003
1070
    42
1041
1.5875
1070
    44
1041
3.175
1070
   140
1041
3.000007
1070
   343
1005
0
1070
   344
1005
0
1002
}
0
DIMENSION
5
1AA
100
AcDbEntity
8
SK2
62
256
6
ByLayer
370
13
48
1
60
0
100
AcDbDimension
2
DimnDraft3D5
10
112.100187
20
46.00546
30
0
11
95.830638
21
46.00546
31
0
70
32
71
5
72
1
41
1
210
0
220
0
230
1
3
Standard
100
AcDbAlignedDimension
13
86.600187
23
32.0875
33
0
14
112.100187
24
27.891348
34
0
50
0
100
AcDbRotatedDimension
1001
ACAD
1000
DSTYLE
1002
{
1070
   279
1070
     0
1070
   172
1070
     1
1070
   173
1070
     1
1070
   340
1005
177
1070
   271
1070
     1
1070
   272
1070
     3
1070
    77
1070
     1
1070
    73
1070
     0
1070
   171
1070
     4
1070
   274
1070
     4
1070
   177
1070
     7
1070
   176
1070
     7
1070
   178
1070
     7
1070
    78
1070
     8
1070
    48
1040
-0.005
1070
    41
1041
3.175
1070
   147
1041
1.500003
1070
    42
1041
1.5875
1070
    44
1041
3.175
1070
   140
1041
3.000007
1070
   343
1005
0
1070
   344
1005
0
1002
}
0
DIMENSION
5
1B4
100
AcDbEntity
8
SK2
62
256
6
ByLayer
370
13
48
1
60
0
100
AcDbDimension
2
DimnDraft3D6
10
0
20
69.103751
30
0
11
52.534688
21
69.103751
31
0
70
32
71
5
72
1
41
1
210
0
220
0
230
1
3
Standard
100
AcDbAlignedDimension
13
112.100187
23
27.891348
33
0
14
0
24
29.2882
34
0
50
0
100
AcDbRotatedDimension
1001
ACAD
1000
DSTYLE
1002
{
1070
   279
1070
     0
1070
   172
1070
     1
1070
   173
1070
     1
1070
   340
1005
177
1070
   271
1070
     3
1070
   272
1070
     3
1070
    77
1070
     1
1070
    73
1070
     0
1070
   171
1070
     4
1070
   274
1070
     4
1070
   177
1070
     7
1070
   176
1070
     7
1070
   178
1070
     7
1070
    78
1070
     8
1070
    48
1040
-0.005
1070
    41
1041
3.175
1070
   147
1041
1.500003
1070
    42
1041
1.5875
1070
    44
1041
3.175
1070
   140
1041
3.000007
1070
   343
1005
0
1070
   344
1005
0
1002
}
0
DIMENSION
5
1BE
100
AcDbEntity
8
SK2
62
256
6
ByLayer
370
13
48
1
60
0
100
AcDbDimension
2
DimnDraft3D7
10
-50.800092
20
69.178777
30
0
11
-28.919594
21
69.178777
31
0
70
32
71
5
72
1
41
1
210
0
220
0
230
1
3
Standard
100
AcDbAlignedDimension
13
0
23
29.2882
33
0
14
-50.800092
24
13.2875
34
0
50
0
100
AcDbRotatedDimension
1001
ACAD
1000
DSTYLE
1002
{
1070
   279
1070
     0
1070
   172
1070
     1
1070
   173
1070
     1
1070
   340
1005
177
1070
   271
1070
     3
1070
   272
1070
     3
1070
    77
1070
     1
1070
    73
1070
     0
1070
   171
1070
     4
1070
   274
1070
     4
1070
   177
1070
     7
1070
   176
1070
     7
1070
   178
1070
     7
1070
    78
1070
     8
1070
    48
1040
-0.005
1070
    41
1041
3.175
1070
   147
1041
1.500003
1070
    42
1041
1.5875
1070
    44
1041
3.175
1070
   140
1041
3.000007
1070
   343
1005
0
1070
   344
1005
0
1002
}
0
DIMENSION
5
1C9
100
AcDbEntity
8
SK2
62
256
6
ByLayer
370
13
48
1
60
0
100
AcDbDimension
2
DimnDraft3D8
10
-69.66774
20
12.5
30
0
11
-68.742745
21
2.108634
31
0
70
33
71
5
72
1
41
1
210
0
220
0
230
1
3
Standard
100
AcDbAlignedDimension
13
-51.587592
23
-12.5
33
0
14
-51.587592
24
12.5
34
0
1001
ACAD
1000
DSTYLE
1002
{
1070
   279
1070
     0
1070
    74
1070
     0
1070
   173
1070
     1
1070
   340
1005
177
1070
   271
1070
     3
1070
   272
1070
     3
1070
    77
1070
     1
1070
    73
1070
     0
1070
   171
1070
     4
1070
   274
1070
     4
1070
   177
1070
     7
1070
   176
1070
     7
1070
   178
1070
     7
1070
    78
1070
     8
1070
    48
1040
-0.005
1070
    41
1041
3.175
1070
   147
1041
1.500003
1070
    42
1041
1.5875
1070
    44
1041
3.175
1070
   140
1041
3.000007
1070
   343
1005
0
1070
   344
1005
0
1002
}
0
DIMENSION
5
1D4
100
AcDbEntity
8
2
62
256
6
ByLayer
370
13
48
1
60
0
100
AcDbDimension
2
DimnDraft3D9
10
100.590187
20
-49.583693
30
0
11
20.845611
21
-49.583693
31
0
70
32
71
5
72
1
41
1
210
0
220
0
230
1
3
Standard
100
AcDbAlignedDimension
13
-50.800092
23
-13.345913
33
0
14
100.590187
24
-25.3111
34
0
50
0
100
AcDbRotatedDimension
1001
ACAD
1000
DSTYLE
1002
{
1070
   279
1070
     0
1070
   172
1070
     1
1070
   173
1070
     1
1070
   340
1005
177
1070
   271
1070
     1
1070
   272
1070
     3
1070
    77
1070
     1
1070
    73
1070
     0
1070
   171
1070
     4
1070
   274
1070
     4
1070
   177
1070
     7
1070
   176
1070
     7
1070
   178
1070
     7
1070
    78
1070
     8
1070
    48
1040
-0.005
1070
    41
1041
3.175
1070
   147
1041
1.500003
1070
    42
1041
1.5875
1070
    44
1041
3.175
1070
   140
1041
3.000007
1070
   343
1005
0
1070
   344
1005
0
1002
}
0
ENDSEC
0
SECTION
2
OBJECTS
0
DICTIONARY
5
242
330
0
100
AcDbDictionary
280
0
281
1
3
ACAD_GROUP
350
243
3
ACAD_GROUP
350
244
3
ACAD_MLINESTYLE
350
245
0
DICTIONARY
5
243
330
0
100
AcDbDictionary
280
0
281
1
0
DICTIONARY
5
244
330
0
100
AcDbDictionary
280
0
281
1
3
<112004419MOD000_01>
350
1DD
0
DICTIONARY
5
245
330
0
100
AcDbDictionary
280
0
281
1
3
Standard
350
18
0
GROUP
5
1DD
330
244
100
AcDbGroup
300

70
0
71
1
340
6C
340
6E
340
70
340
72
340
73
340
74
340
75
340
76
340
77
340
78
340
79
340
7A
340
7B
340
7C
340
7D
340
7E
340
7F
340
80
340
81
340
82
340
84
340
85
340
86
340
87
340
88
340
89
340
8A
340
8B
340
8C
340
8D
340
8E
340
8F
340
90
340
91
340
92
340
93
340
94
340
95
340
96
340
97
340
98
340
99
340
9A
340
9B
340
9C
340
9D
340
9E
340
9F
340
A0
340
A1
340
A3
340
A4
340
A5
340
A6
340
A7
340
A8
340
A9
340
AA
340
AB
340
AC
340
AD
340
AE
340
AF
340
B0
340
B1
340
B2
340
B3
340
B4
340
B5
340
B6
340
B7
340
B8
340
B9
340
BA
340
BB
340
BC
340
BD
340
BE
340
BF
340
C0
340
C1
340
C2
340
C3
340
C4
340
C5
340
C6
340
C7
340
C8
340
C9
340
CA
340
CB
340
CC
340
CD
340
CE
340
D0
340
D1
340
D2
340
D3
340
D4
340
D5
340
D6
340
145
340
D7
340
D8
340
D9
340
DA
340
DB
340
DC
340
DD
340
DE
340
DF
340
E0
340
E1
340
E2
340
E3
340
144
340
E4
340
E5
340
E6
340
E7
340
E8
340
E9
340
EA
340
EB
340
EC
340
ED
340
EE
340
EF
340
F0
340
F1
340
F2
340
F3
340
F4
340
F5
340
F6
340
146
340
F7
340
F8
340
F9
340
FA
340
FB
340
FC
340
FD
340
FE
340
FF
340
137
340
138
340
139
340
13A
340
13B
340
13C
340
13D
340
142
340
143
340
100
340
101
340
102
340
103
340
104
340
105
340
106
340
107
340
108
340
109
340
10A
340
10B
340
11A
340
11B
340
11C
340
11D
340
11E
340
11F
340
120
340
121
340
122
340
123
340
124
340
125
340
126
340
12B
340
12C
340
12D
340
12E
340
12F
340
130
340
131
340
132
340
13E
340
13F
340
140
340
141
340
147
340
148
340
149
340
14A
340
14B
340
14C
340
14D
340
14E
340
14F
340
150
340
151
340
152
340
153
340
154
340
155
340
156
340
10C
340
10D
340
10F
340
110
340
111
340
112
340
113
340
114
340
115
340
117
340
118
340
119
340
127
340
128
340
129
340
12A
340
133
340
134
340
135
340
136
340
157
340
158
340
159
340
15A
340
15B
340
15C
340
15D
340
15E
340
15F
340
160
340
161
340
162
340
163
340
164
340
165
340
166
340
167
340
168
340
169
340
16A
340
16B
340
16C
340
16D
340
16E
340
16F
340
170
340
171
340
172
340
173
340
174
340
175
340
176
340
182
340
18C
340
196
340
1A0
340
1AA
340
1B4
340
1BE
340
1C9
340
1D4
0
MLINESTYLE
5
18
330
245
100
AcDbMlineStyle
2
Standard
70
0
3

62
256
51
90
52
90
71
2
49
-0.5
62
256
6
ByLayer
49
0.5
62
256
6
ByLayer
0
RASTERVARIABLES
5
22e
330

100
AcDbRasterVariables
90
0
70
1
71
1
72
1
0
ENDSEC
0
EOF
