0
SECTION
2
HEADER
9
$ACADVER
1
AC1015
9
$DWGCODEPAGE
3
ANSI_1252
9
$HANDSEED
5
215
9
$ANGBASE
50
0
9
$ANGDIR
70
0
9
$ATTMODE
70
1
9
$AUNITS
70
0
9
$AUPREC
70
0
9
$CECOLOR
62
256
9
$CELTSCALE
40
1
9
$CELTYPE
6
ByLayer
9
$CELWEIGHT
370
18
9
$CLAYER
8
0
9
$CMLJUST
70
0
9
$CMLSCALE
40
1
9
$CMLSTYLE
2
Standard
9
$DIMSTYLE
2
Standard
9
$TEXTSIZE
40
0.2
9
$TEXTSTYLE
7
Standard
9
$LUNITS
70
2
9
$LUPREC
70
4
9
$EXTNAMES
290
1
9
$INSUNITS
70
4
9
$LTSCALE
40
1
9
$LWDISPLAY
290
1
9
$PDMODE
70
0
9
$PDSIZE
40
0
9
$PLINEGEN
70
0
0
ENDSEC
0
SECTION
2
CLASSES
0
CLASS
1
RASTERVARIABLES
2
AcDbRasterVariables
3
ISM
90
0
280
0
281
0
0
ENDSEC
0
SECTION
2
TABLES
0
TABLE
2
VPORT
5
20b
100
AcDbSymbolTable
0
VPORT
5
1
100
AcDbSymbolTableRecord
100
AcDbViewportTableRecord
2
*Active
70
0
10
0
20
0
11
1
21
1
12
-1
22
1
13
0
23
0
14
0.5
24
0.5
15
10
25
10
16
0
26
0
36
1
17
0
27
0
37
0
0
ENDTAB
0
TABLE
2
LTYPE
5
20c
100
AcDbSymbolTable
0
LTYPE
5
14
100
AcDbSymbolTableRecord
100
AcDbLinetypeTableRecord
70
0
2
ByBlock
3

72
65
73
0
40
0
0
LTYPE
5
15
100
AcDbSymbolTableRecord
100
AcDbLinetypeTableRecord
70
0
2
ByLayer
3

72
65
73
0
40
0
0
LTYPE
5
16
100
AcDbSymbolTableRecord
100
AcDbLinetypeTableRecord
70
0
2
CONTINUOUS
3
Solid line
72
65
73
0
40
0
0
LTYPE
5
6A
100
AcDbSymbolTableRecord
100
AcDbLinetypeTableRecord
70
0
2
CENTER
3
____ _ ____ _ ____ _ ____
72
65
73
4
40
47.5
49
22
74
0
49
-8.5
74
0
49
8.5
74
0
49
-8.5
74
0
0
LTYPE
5
6B
100
AcDbSymbolTableRecord
100
AcDbLinetypeTableRecord
70
0
2
DASHED
3
__ __ __ __ __ __ __ __ __
72
65
73
2
40
25.72
49
12.86
74
0
49
-12.86
74
0
0
ENDTAB
0
TABLE
2
LAYER
5
20d
100
AcDbSymbolTable
0
LAYER
5
10
100
AcDbSymbolTableRecord
100
AcDbLayerTableRecord
2
0
70
0
62
7
6
CONTINUOUS
290
1
370
-3
390
0
0
LAYER
5
6D
100
AcDbSymbolTableRecord
100
AcDbLayerTableRecord
2
81
70
0
62
-3
6
CONTINUOUS
290
1
370
-3
390
0
0
LAYER
5
6F
100
AcDbSymbolTableRecord
100
AcDbLayerTableRecord
2
80
70
0
62
-6
6
CONTINUOUS
290
1
370
-3
390
0
0
LAYER
5
71
100
AcDbSymbolTableRecord
100
AcDbLayerTableRecord
2
1
70
0
62
4
6
CONTINUOUS
290
1
370
-3
390
0
0
LAYER
5
E9
100
AcDbSymbolTableRecord
100
AcDbLayerTableRecord
2
4
70
0
62
-2
6
CENTER
290
1
370
-3
390
0
0
LAYER
5
F9
100
AcDbSymbolTableRecord
100
AcDbLayerTableRecord
2
3
70
0
62
1
6
DASHED
290
1
370
-3
390
0
0
LAYER
5
191
100
AcDbSymbolTableRecord
100
AcDbLayerTableRecord
2
2
70
0
62
7
6
CONTINUOUS
290
1
370
-3
390
0
0
LAYER
5
1f4
100
AcDbSymbolTableRecord
100
AcDbLayerTableRecord
2
SK3
70
0
62
1
6
DASHED
290
1
370
-3
390
0
0
LAYER
5
1f5
100
AcDbSymbolTableRecord
100
AcDbLayerTableRecord
2
SK1
70
0
62
4
6
CONTINUOUS
290
1
370
-3
390
0
0
LAYER
5
1f6
100
AcDbSymbolTableRecord
100
AcDbLayerTableRecord
2
SK4
70
0
62
2
6
CENTER
290
1
370
-3
390
0
0
LAYER
5
1f7
100
AcDbSymbolTableRecord
100
AcDbLayerTableRecord
2
SK6
70
0
62
5
6
CONTINUOUS
290
1
370
-3
390
0
0
LAYER
5
1f8
100
AcDbSymbolTableRecord
100
AcDbLayerTableRecord
2
SK2
70
0
62
7
6
CONTINUOUS
290
1
370
-3
390
0
0
ENDTAB
0
TABLE
2
STYLE
5
20e
100
AcDbSymbolTable
0
STYLE
5
11
100
AcDbSymbolTableRecord
100
AcDbTextStyleTableRecord
2
Standard
3
txt
70
0
71
0
40
0
41
1
42
0
50
0
0
STYLE
5
115
100
AcDbSymbolTableRecord
100
AcDbTextStyleTableRecord
2
iso_b_vert
3
simplex.shx
70
0
71
0
40
0
41
1
42
0
50
0
0
STYLE
5
116
100
AcDbSymbolTableRecord
100
AcDbTextStyleTableRecord
2
DWGDirectTextStyle
3
simplex
70
0
71
0
40
0
41
1
42
0
50
0
0
ENDTAB
0
TABLE
2
DIMSTYLE
5
20f
100
AcDbSymbolTable
100
AcDbDimStyleTable
0
DIMSTYLE
105
27
100
AcDbSymbolTableRecord
100
AcDbDimStyleTableRecord
2
Standard
70
0
3
<>
41
0.18
42
0.0625
44
0.18
140
0.18
147
0.09
73
0
74
0
77
1
271
2
275
0
278
52
280
0
340
11
0
ENDTAB
0
TABLE
2
VIEW
5
210
100
AcDbSymbolTable
0
ENDTAB
0
TABLE
2
UCS
5
211
100
AcDbSymbolTable
0
ENDTAB
0
TABLE
2
APPID
5
212
100
AcDbSymbolTable
0
APPID
5
12
100
AcDbSymbolTableRecord
100
AcDbRegAppTableRecord
2
ACAD
70
0
0
ENDTAB
0
TABLE
2
BLOCK_RECORD
5
213
100
AcDbSymbolTable
0
BLOCK_RECORD
5
1F
100
AcDbSymbolTableRecord
100
AcDbBlockTableRecord
2
*Model_Space
340
0
70
0
0
BLOCK_RECORD
5
1B
100
AcDbSymbolTableRecord
100
AcDbBlockTableRecord
2
*Paper_Space
340
0
70
0
0
BLOCK_RECORD
5
23
100
AcDbSymbolTableRecord
100
AcDbBlockTableRecord
2
*Paper_Space0
340
0
70
0
0
BLOCK_RECORD
5
118
100
AcDbSymbolTableRecord
100
AcDbBlockTableRecord
2
DimnDraft3D1
340
0
70
0
0
BLOCK_RECORD
5
123
100
AcDbSymbolTableRecord
100
AcDbBlockTableRecord
2
DimnDraft3D2
340
0
70
0
0
BLOCK_RECORD
5
12D
100
AcDbSymbolTableRecord
100
AcDbBlockTableRecord
2
DimnDraft3D3
340
0
70
0
0
BLOCK_RECORD
5
137
100
AcDbSymbolTableRecord
100
AcDbBlockTableRecord
2
DimnDraft3D4
340
0
70
0
0
BLOCK_RECORD
5
141
100
AcDbSymbolTableRecord
100
AcDbBlockTableRecord
2
DimnDraft3D5
340
0
70
0
0
BLOCK_RECORD
5
14B
100
AcDbSymbolTableRecord
100
AcDbBlockTableRecord
2
DimnDraft3D6
340
0
70
0
0
BLOCK_RECORD
5
159
100
AcDbSymbolTableRecord
100
AcDbBlockTableRecord
2
_CLOSED
340
0
70
0
0
BLOCK_RECORD
5
160
100
AcDbSymbolTableRecord
100
AcDbBlockTableRecord
2
DimnDraft3D7
340
0
70
0
0
BLOCK_RECORD
5
16E
100
AcDbSymbolTableRecord
100
AcDbBlockTableRecord
2
DimnDraft3D8
340
0
70
0
0
BLOCK_RECORD
5
17C
100
AcDbSymbolTableRecord
100
AcDbBlockTableRecord
2
DimnDraft3D9
340
0
70
0
0
BLOCK_RECORD
5
186
100
AcDbSymbolTableRecord
100
AcDbBlockTableRecord
2
DimnDraft3D10
340
0
70
0
0
BLOCK_RECORD
5
18F
100
AcDbSymbolTableRecord
100
AcDbBlockTableRecord
2
DimnDraft3D11
340
0
70
0
0
ENDTAB
0
ENDSEC
0
SECTION
2
BLOCKS
0
BLOCK
5
20
100
AcDbEntity
8
0
100
AcDbBlockBegin
2
*Model_Space
70
0
10
0
20
0
30
0
3
*Model_Space
0
ENDBLK
5
21
100
AcDbEntity
8
0
100
AcDbBlockEnd
0
BLOCK
5
1C
100
AcDbEntity
8
0
100
AcDbBlockBegin
2
*Paper_Space
70
0
10
0
20
0
30
0
3
*Paper_Space
0
ENDBLK
5
1D
100
AcDbEntity
8
0
100
AcDbBlockEnd
0
BLOCK
5
24
100
AcDbEntity
8
0
100
AcDbBlockBegin
2
*Paper_Space0
70
0
10
0
20
0
30
0
3
*Paper_Space0
0
ENDBLK
5
25
100
AcDbEntity
8
0
100
AcDbBlockEnd
0
BLOCK
5
120
100
AcDbEntity
8
0
100
AcDbBlockBegin
2
DimnDraft3D1
70
0
10
0
20
0
30
0
3
DimnDraft3D1
0
MTEXT
5
119
100
AcDbEntity
8
SK2
62
256
6
ByLayer
370
18
48
1
60
0
100
AcDbMText
10
47.459659
20
71.646198
30
0
210
0
220
0
230
1
1
\W0.6717;101.2
40
3.000007
41
0
44
1.084337
50
0
71
7
72
5
7
iso_b_vert
0
LINE
5
11B
100
AcDbEntity
8
SK2
62
256
6
ByLayer
370
13
48
1
60
0
100
AcDbLine
10
1.3E-05
20
39.747179
30
0
11
1.3E-05
21
74.071081
31
0
39
0
210
0
220
0
230
1
0
LINE
5
11C
100
AcDbEntity
8
SK2
62
256
6
ByLayer
370
13
48
1
60
0
100
AcDbLine
10
101.2
20
14.973398
30
0
11
101.2
21
74.071081
31
0
39
0
210
0
220
0
230
1
0
LINE
5
11D
100
AcDbEntity
8
SK2
62
256
6
ByLayer
370
13
48
1
60
0
100
AcDbLine
10
1.3E-05
20
70.896081
30
0
11
101.2
21
70.896081
31
0
39
0
210
0
220
0
230
1
0
SOLID
5
11E
100
AcDbEntity
8
SK2
62
256
6
ByLayer
370
13
48
1
60
0
100
AcDbTrace
10
1.3E-05
20
70.896081
30
0
11
3.175012
21
71.398952
31
0
12
3.175015
22
70.393211
32
0
13
1.3E-05
23
70.896081
33
0
39
0
210
0
220
0
230
1
0
SOLID
5
11F
100
AcDbEntity
8
SK2
62
256
6
ByLayer
370
13
48
1
60
0
100
AcDbTrace
10
101.2
20
70.896081
30
0
11
98.025002
21
70.393211
31
0
12
98.024998
22
71.398952
32
0
13
101.2
23
70.896081
33
0
39
0
210
0
220
0
230
1
0
ENDBLK
5
121
100
AcDbEntity
8
0
100
AcDbBlockEnd
0
BLOCK
5
12A
100
AcDbEntity
8
0
100
AcDbBlockBegin
2
DimnDraft3D2
70
0
10
0
20
0
30
0
3
DimnDraft3D2
0
MTEXT
5
124
100
AcDbEntity
8
SK2
62
256
6
ByLayer
370
18
48
1
60
0
100
AcDbMText
10
91.033571
20
31.787737
30
0
210
0
220
0
230
1
1
\W0.5560;19
40
3.000007
41
0
44
1.084337
50
0
71
7
72
5
7
iso_b_vert
0
LINE
5
125
100
AcDbEntity
8
SK2
62
256
6
ByLayer
370
13
48
1
60
0
100
AcDbLine
10
82.2
20
17.6375
30
0
11
82.2
21
34.212621
31
0
39
0
210
0
220
0
230
1
0
LINE
5
126
100
AcDbEntity
8
SK2
62
256
6
ByLayer
370
13
48
1
60
0
100
AcDbLine
10
101.2
20
14.973398
30
0
11
101.2
21
34.212621
31
0
39
0
210
0
220
0
230
1
0
LINE
5
127
100
AcDbEntity
8
SK2
62
256
6
ByLayer
370
13
48
1
60
0
100
AcDbLine
10
82.2
20
31.037621
30
0
11
101.2
21
31.037621
31
0
39
0
210
0
220
0
230
1
0
SOLID
5
128
100
AcDbEntity
8
SK2
62
256
6
ByLayer
370
13
48
1
60
0
100
AcDbTrace
10
82.2
20
31.037621
30
0
11
85.374998
21
31.540492
31
0
12
85.375002
22
30.53475
32
0
13
82.2
23
31.037621
33
0
39
0
210
0
220
0
230
1
0
SOLID
5
129
100
AcDbEntity
8
SK2
62
256
6
ByLayer
370
13
48
1
60
0
100
AcDbTrace
10
101.2
20
31.037621
30
0
11
98.025002
21
30.53475
31
0
12
98.024998
22
31.540492
32
0
13
101.2
23
31.037621
33
0
39
0
210
0
220
0
230
1
0
ENDBLK
5
12B
100
AcDbEntity
8
0
100
AcDbBlockEnd
0
BLOCK
5
134
100
AcDbEntity
8
0
100
AcDbBlockBegin
2
DimnDraft3D3
70
0
10
0
20
0
30
0
3
DimnDraft3D3
0
MTEXT
5
12E
100
AcDbEntity
8
SK2
62
256
6
ByLayer
370
18
48
1
60
0
100
AcDbMText
10
80.802053
20
42.754088
30
0
210
0
220
0
230
1
1
\W0.7152;35.3
40
3.000007
41
0
44
1.084337
50
0
71
7
72
5
7
iso_b_vert
0
LINE
5
12F
100
AcDbEntity
8
SK2
62
256
6
ByLayer
370
13
48
1
60
0
100
AcDbLine
10
101.2
20
14.973398
30
0
11
101.2
21
45.178972
31
0
39
0
210
0
220
0
230
1
0
LINE
5
130
100
AcDbEntity
8
SK2
62
256
6
ByLayer
370
13
48
1
60
0
100
AcDbLine
10
65.9432
20
18.5039
30
0
11
65.9432
21
45.178972
31
0
39
0
210
0
220
0
230
1
0
LINE
5
131
100
AcDbEntity
8
SK2
62
256
6
ByLayer
370
13
48
1
60
0
100
AcDbLine
10
101.2
20
42.003972
30
0
11
65.9432
21
42.003972
31
0
39
0
210
0
220
0
230
1
0
SOLID
5
132
100
AcDbEntity
8
SK2
62
256
6
ByLayer
370
13
48
1
60
0
100
AcDbTrace
10
101.2
20
42.003972
30
0
11
98.025002
21
41.501102
31
0
12
98.024998
22
42.506843
32
0
13
101.2
23
42.003972
33
0
39
0
210
0
220
0
230
1
0
SOLID
5
133
100
AcDbEntity
8
SK2
62
256
6
ByLayer
370
13
48
1
60
0
100
AcDbTrace
10
65.9432
20
42.003972
30
0
11
69.118198
21
42.506843
31
0
12
69.118202
22
41.501102
32
0
13
65.9432
23
42.003972
33
0
39
0
210
0
220
0
230
1
0
ENDBLK
5
135
100
AcDbEntity
8
0
100
AcDbBlockEnd
0
BLOCK
5
13E
100
AcDbEntity
8
0
100
AcDbBlockBegin
2
DimnDraft3D4
70
0
10
0
20
0
30
0
3
DimnDraft3D4
0
MTEXT
5
138
100
AcDbEntity
8
SK2
62
256
6
ByLayer
370
18
48
1
60
0
100
AcDbMText
10
116.902653
20
12.608756
30
0
210
0
220
0
230
1
1
\W0.9037;%%c4-%%c10
40
3.000007
41
0
44
1.084337
50
90
71
7
72
5
7
iso_b_vert
0
LINE
5
139
100
AcDbEntity
8
SK2
62
256
6
ByLayer
370
13
48
1
60
0
100
AcDbLine
10
102.7875
20
8
30
0
11
120.827769
21
8
31
0
39
0
210
0
220
0
230
1
0
LINE
5
13A
100
AcDbEntity
8
SK2
62
256
6
ByLayer
370
13
48
1
60
0
100
AcDbLine
10
102.7875
20
-8
30
0
11
120.827769
21
-8
31
0
39
0
210
0
220
0
230
1
0
LINE
5
13B
100
AcDbEntity
8
SK2
62
256
6
ByLayer
370
13
48
1
60
0
100
AcDbLine
10
117.652769
20
-8
30
0
11
117.652769
21
25.315293
31
0
39
0
210
0
220
0
230
1
0
SOLID
5
13C
100
AcDbEntity
8
SK2
62
256
6
ByLayer
370
13
48
1
60
0
100
AcDbTrace
10
117.652769
20
8
30
0
11
118.15564
21
4.825002
31
0
12
117.149898
22
4.824998
32
0
13
117.652769
23
8
33
0
39
0
210
0
220
0
230
1
0
SOLID
5
13D
100
AcDbEntity
8
SK2
62
256
6
ByLayer
370
13
48
1
60
0
100
AcDbTrace
10
117.652769
20
-8
30
0
11
117.149898
21
-4.825002
31
0
12
118.15564
22
-4.824998
32
0
13
117.652769
23
-8
33
0
39
0
210
0
220
0
230
1
0
ENDBLK
5
13F
100
AcDbEntity
8
0
100
AcDbBlockEnd
0
BLOCK
5
148
100
AcDbEntity
8
0
100
AcDbBlockBegin
2
DimnDraft3D5
70
0
10
0
20
0
30
0
3
DimnDraft3D5
0
MTEXT
5
142
100
AcDbEntity
8
SK2
62
256
6
ByLayer
370
18
48
1
60
0
100
AcDbMText
10
129.24444
20
-5.129494
30
0
210
0
220
0
230
1
1
\W0.8264;%%c 33.7
40
3.000007
41
0
44
1.084337
50
90
71
7
72
5
7
iso_b_vert
0
LINE
5
143
100
AcDbEntity
8
SK2
62
256
6
ByLayer
370
13
48
1
60
0
100
AcDbLine
10
100.7875
20
-16.85
30
0
11
133.169556
21
-16.85
31
0
39
0
210
0
220
0
230
1
0
LINE
5
144
100
AcDbEntity
8
SK2
62
256
6
ByLayer
370
13
48
1
60
0
100
AcDbLine
10
100.7875
20
16.85
30
0
11
133.169556
21
16.85
31
0
39
0
210
0
220
0
230
1
0
LINE
5
145
100
AcDbEntity
8
SK2
62
256
6
ByLayer
370
13
48
1
60
0
100
AcDbLine
10
129.994556
20
-16.85
30
0
11
129.994556
21
16.85
31
0
39
0
210
0
220
0
230
1
0
SOLID
5
146
100
AcDbEntity
8
SK2
62
256
6
ByLayer
370
13
48
1
60
0
100
AcDbTrace
10
129.994556
20
-16.85
30
0
11
129.491685
21
-13.675002
31
0
12
130.497426
22
-13.674998
32
0
13
129.994556
23
-16.85
33
0
39
0
210
0
220
0
230
1
0
SOLID
5
147
100
AcDbEntity
8
SK2
62
256
6
ByLayer
370
13
48
1
60
0
100
AcDbTrace
10
129.994556
20
16.85
30
0
11
130.497426
21
13.675002
31
0
12
129.491685
22
13.674998
32
0
13
129.994556
23
16.85
33
0
39
0
210
0
220
0
230
1
0
ENDBLK
5
149
100
AcDbEntity
8
0
100
AcDbBlockEnd
0
BLOCK
5
156
100
AcDbEntity
8
0
100
AcDbBlockBegin
2
DimnDraft3D6
70
0
10
0
20
0
30
0
3
DimnDraft3D6
0
MTEXT
5
14C
100
AcDbEntity
8
SK2
62
256
6
ByLayer
370
13
48
1
60
0
100
AcDbMText
10
-53.843414
20
71.837674
30
0
210
0
220
0
230
1
1
\W0.6555;101.6
40
3
41
0
44
1.084337
50
0
71
7
72
5
7
iso_b_vert
0
LINE
5
14D
100
AcDbEntity
8
SK2
62
256
6
ByLayer
370
13
48
1
60
0
100
AcDbLine
10
-101.6
20
19.446335
30
0
11
-101.6
21
74.087559
31
0
39
0
210
0
220
0
230
1
0
LINE
5
14E
100
AcDbEntity
8
SK2
62
256
6
ByLayer
370
13
48
1
60
0
100
AcDbLine
10
1.3E-05
20
39.659679
30
0
11
1.3E-05
21
74.087559
31
0
39
0
210
0
220
0
230
1
0
LINE
5
14F
100
AcDbEntity
8
SK2
62
256
6
ByLayer
370
13
48
1
60
0
100
AcDbLine
10
-101.6
20
71.087559
30
0
11
1.3E-05
21
71.087559
31
0
39
0
210
0
220
0
230
1
0
LINE
5
150
100
AcDbEntity
8
SK2
62
256
6
ByLayer
370
13
48
1
60
0
100
AcDbLine
10
-101.6
20
71.087559
30
0
11
-98.600002
21
71.61654
31
0
39
0
210
0
220
0
230
1
0
LINE
5
151
100
AcDbEntity
8
SK2
62
256
6
ByLayer
370
13
48
1
60
0
100
AcDbLine
10
-101.6
20
71.087559
30
0
11
-98.599998
21
70.558579
31
0
39
0
210
0
220
0
230
1
0
LINE
5
152
100
AcDbEntity
8
SK2
62
256
6
ByLayer
370
13
48
1
60
0
100
AcDbLine
10
-98.600002
20
71.61654
30
0
11
-98.599998
21
70.558579
31
0
39
0
210
0
220
0
230
1
0
LINE
5
153
100
AcDbEntity
8
SK2
62
256
6
ByLayer
370
13
48
1
60
0
100
AcDbLine
10
1.3E-05
20
71.087559
30
0
11
-2.999985
21
70.558579
31
0
39
0
210
0
220
0
230
1
0
LINE
5
154
100
AcDbEntity
8
SK2
62
256
6
ByLayer
370
13
48
1
60
0
100
AcDbLine
10
1.3E-05
20
71.087559
30
0
11
-2.999988
21
71.61654
31
0
39
0
210
0
220
0
230
1
0
LINE
5
155
100
AcDbEntity
8
SK2
62
256
6
ByLayer
370
13
48
1
60
0
100
AcDbLine
10
-2.999985
20
70.558579
30
0
11
-2.999988
21
71.61654
31
0
39
0
210
0
220
0
230
1
0
ENDBLK
5
157
100
AcDbEntity
8
0
100
AcDbBlockEnd
0
BLOCK
5
15A
100
AcDbEntity
8
0
100
AcDbBlockBegin
2
_CLOSED
70
0
10
0
20
0
30
0
3
_CLOSED
0
LINE
5
15C
100
AcDbEntity
8
0
62
256
6
ByLayer
370
-2
48
1
60
0
100
AcDbLine
10
-1
20
0.166667
30
0
11
0
21
0
31
0
39
0
210
0
220
0
230
1
0
LINE
5
15D
100
AcDbEntity
8
0
62
256
6
ByLayer
370
-2
48
1
60
0
100
AcDbLine
10
0
20
0
30
0
11
-1
21
-0.166667
31
0
39
0
210
0
220
0
230
1
0
LINE
5
15E
100
AcDbEntity
8
0
62
256
6
ByLayer
370
-2
48
1
60
0
100
AcDbLine
10
-1
20
0.166667
30
0
11
-1
21
-0.166667
31
0
39
0
210
0
220
0
230
1
0
LINE
5
15F
100
AcDbEntity
8
0
62
256
6
ByLayer
370
-2
48
1
60
0
100
AcDbLine
10
0
20
0
30
0
11
-1
21
0
31
0
39
0
210
0
220
0
230
1
0
ENDBLK
5
15B
100
AcDbEntity
8
0
100
AcDbBlockEnd
0
BLOCK
5
16B
100
AcDbEntity
8
0
100
AcDbBlockBegin
2
DimnDraft3D7
70
0
10
0
20
0
30
0
3
DimnDraft3D7
0
MTEXT
5
161
100
AcDbEntity
8
SK2
62
256
6
ByLayer
370
18
48
1
60
0
100
AcDbMText
10
-117.73234
20
-5.171053
30
0
210
0
220
0
230
1
1
\W0.8330;%%c 98.4
40
3
41
0
44
1.084337
50
90
71
7
72
5
7
iso_b_vert
0
LINE
5
162
100
AcDbEntity
8
SK2
62
256
6
ByLayer
370
13
48
1
60
0
100
AcDbLine
10
2.5
20
-49.2
30
0
11
-119.982225
21
-49.2
31
0
39
0
210
0
220
0
230
1
0
LINE
5
163
100
AcDbEntity
8
SK2
62
256
6
ByLayer
370
13
48
1
60
0
100
AcDbLine
10
2.5
20
49.2
30
0
11
-119.982225
21
49.2
31
0
39
0
210
0
220
0
230
1
0
LINE
5
164
100
AcDbEntity
8
SK2
62
256
6
ByLayer
370
13
48
1
60
0
100
AcDbLine
10
-116.982225
20
-49.2
30
0
11
-116.982225
21
49.2
31
0
39
0
210
0
220
0
230
1
0
LINE
5
165
100
AcDbEntity
8
SK2
62
256
6
ByLayer
370
13
48
1
60
0
100
AcDbLine
10
-116.982225
20
-49.2
30
0
11
-117.511206
21
-46.200002
31
0
39
0
210
0
220
0
230
1
0
LINE
5
166
100
AcDbEntity
8
SK2
62
256
6
ByLayer
370
13
48
1
60
0
100
AcDbLine
10
-116.982225
20
-49.2
30
0
11
-116.453244
21
-46.199998
31
0
39
0
210
0
220
0
230
1
0
LINE
5
167
100
AcDbEntity
8
SK2
62
256
6
ByLayer
370
13
48
1
60
0
100
AcDbLine
10
-117.511206
20
-46.200002
30
0
11
-116.453244
21
-46.199998
31
0
39
0
210
0
220
0
230
1
0
LINE
5
168
100
AcDbEntity
8
SK2
62
256
6
ByLayer
370
13
48
1
60
0
100
AcDbLine
10
-116.982225
20
49.2
30
0
11
-116.453244
21
46.200002
31
0
39
0
210
0
220
0
230
1
0
LINE
5
169
100
AcDbEntity
8
SK2
62
256
6
ByLayer
370
13
48
1
60
0
100
AcDbLine
10
-116.982225
20
49.2
30
0
11
-117.511206
21
46.199998
31
0
39
0
210
0
220
0
230
1
0
LINE
5
16A
100
AcDbEntity
8
SK2
62
256
6
ByLayer
370
13
48
1
60
0
100
AcDbLine
10
-116.453244
20
46.200002
30
0
11
-117.511206
21
46.199998
31
0
39
0
210
0
220
0
230
1
0
ENDBLK
5
16C
100
AcDbEntity
8
0
100
AcDbBlockEnd
0
BLOCK
5
179
100
AcDbEntity
8
0
100
AcDbBlockBegin
2
DimnDraft3D8
70
0
10
0
20
0
30
0
3
DimnDraft3D8
0
MTEXT
5
16F
100
AcDbEntity
8
SK2
62
256
6
ByLayer
370
18
48
1
60
0
100
AcDbMText
10
-10.615781
20
7.902953
30
0
210
0
220
0
230
1
1
\W0.8055;%%c 69.85
40
3
41
0
44
1.084337
50
90
71
7
72
5
7
iso_b_vert
0
LINE
5
170
100
AcDbEntity
8
SK2
62
256
6
ByLayer
370
13
48
1
60
0
100
AcDbLine
10
-1.299025
20
-34.175002
30
0
11
-12.463742
21
-27.729049
31
0
39
0
210
0
220
0
230
1
0
LINE
5
171
100
AcDbEntity
8
SK2
62
256
6
ByLayer
370
13
48
1
60
0
100
AcDbLine
10
-1.299025
20
35.675002
30
0
11
-12.463742
21
42.120955
31
0
39
0
210
0
220
0
230
1
0
LINE
5
172
100
AcDbEntity
8
SK2
62
256
6
ByLayer
370
13
48
1
60
0
100
AcDbLine
10
-9.865666
20
-29.229049
30
0
11
-9.865666
21
40.620955
31
0
39
0
210
0
220
0
230
1
0
LINE
5
173
100
AcDbEntity
8
SK2
62
256
6
ByLayer
370
13
48
1
60
0
100
AcDbLine
10
-9.865666
20
-29.229049
30
0
11
-10.394647
21
-26.229051
31
0
39
0
210
0
220
0
230
1
0
LINE
5
174
100
AcDbEntity
8
SK2
62
256
6
ByLayer
370
13
48
1
60
0
100
AcDbLine
10
-9.865666
20
-29.229049
30
0
11
-9.336685
21
-26.229047
31
0
39
0
210
0
220
0
230
1
0
LINE
5
175
100
AcDbEntity
8
SK2
62
256
6
ByLayer
370
13
48
1
60
0
100
AcDbLine
10
-10.394647
20
-26.229051
30
0
11
-9.336685
21
-26.229047
31
0
39
0
210
0
220
0
230
1
0
LINE
5
176
100
AcDbEntity
8
SK2
62
256
6
ByLayer
370
13
48
1
60
0
100
AcDbLine
10
-9.865666
20
40.620955
30
0
11
-9.336685
21
37.620957
31
0
39
0
210
0
220
0
230
1
0
LINE
5
177
100
AcDbEntity
8
SK2
62
256
6
ByLayer
370
13
48
1
60
0
100
AcDbLine
10
-9.865666
20
40.620955
30
0
11
-10.394647
21
37.620953
31
0
39
0
210
0
220
0
230
1
0
LINE
5
178
100
AcDbEntity
8
SK2
62
256
6
ByLayer
370
13
48
1
60
0
100
AcDbLine
10
-9.336685
20
37.620957
30
0
11
-10.394647
21
37.620953
31
0
39
0
210
0
220
0
230
1
0
ENDBLK
5
17A
100
AcDbEntity
8
0
100
AcDbBlockEnd
0
BLOCK
5
183
100
AcDbEntity
8
0
100
AcDbBlockBegin
2
DimnDraft3D9
70
0
10
0
20
0
30
0
3
DimnDraft3D9
0
MTEXT
5
17D
100
AcDbEntity
8
SK2
62
256
6
ByLayer
370
18
48
1
60
0
100
AcDbMText
10
6.007894
20
60.241667
30
0
210
0
220
0
230
1
1
\W0.7063;19.05
40
3.000007
41
0
44
1.084337
50
0
71
7
72
5
7
iso_b_vert
0
LINE
5
17E
100
AcDbEntity
8
SK2
62
256
6
ByLayer
370
13
48
1
60
0
100
AcDbLine
10
1.3E-05
20
39.747179
30
0
11
1.3E-05
21
62.666551
31
0
39
0
210
0
220
0
230
1
0
LINE
5
17F
100
AcDbEntity
8
SK2
62
256
6
ByLayer
370
13
48
1
60
0
100
AcDbLine
10
19.05
20
49.9875
30
0
11
19.05
21
62.666551
31
0
39
0
210
0
220
0
230
1
0
LINE
5
180
100
AcDbEntity
8
SK2
62
256
6
ByLayer
370
13
48
1
60
0
100
AcDbLine
10
1.3E-05
20
59.491551
30
0
11
19.05
21
59.491551
31
0
39
0
210
0
220
0
230
1
0
SOLID
5
181
100
AcDbEntity
8
SK2
62
256
6
ByLayer
370
13
48
1
60
0
100
AcDbTrace
10
1.3E-05
20
59.491551
30
0
11
3.175012
21
59.994422
31
0
12
3.175015
22
58.988681
32
0
13
1.3E-05
23
59.491551
33
0
39
0
210
0
220
0
230
1
0
SOLID
5
182
100
AcDbEntity
8
SK2
62
256
6
ByLayer
370
13
48
1
60
0
100
AcDbTrace
10
19.05
20
59.491551
30
0
11
15.875002
21
58.988681
31
0
12
15.874998
22
59.994422
32
0
13
19.05
23
59.491551
33
0
39
0
210
0
220
0
230
1
0
ENDBLK
5
184
100
AcDbEntity
8
0
100
AcDbBlockEnd
0
BLOCK
5
18C
100
AcDbEntity
8
0
100
AcDbBlockBegin
2
DimnDraft3D10
70
0
10
0
20
0
30
0
3
DimnDraft3D10
0
MTEXT
5
187
100
AcDbEntity
8
SK2
62
256
6
ByLayer
370
18
48
1
60
0
100
AcDbMText
10
57.158946
20
2.857901
30
0
210
0
220
0
230
1
1
\W0.6337;35
40
3.000007
41
0
44
1.084337
50
90
71
7
72
5
7
iso_b_vert
0
MTEXT
5
188
100
AcDbEntity
8
SK2
62
256
6
ByLayer
370
18
48
1
60
0
100
AcDbMText
10
57.158946
20
-3.418675
30
0
210
0
220
0
230
1
1
%%c
40
3.000007
41
0
44
1.084337
50
90
71
7
72
5
7
iso_b_vert
0
LINE
5
189
100
AcDbEntity
8
SK2
62
256
6
ByLayer
370
13
48
1
60
0
100
AcDbLine
10
58.659064
20
-17.2974
30
0
11
58.659064
21
17.2974
31
0
39
0
210
0
220
0
230
1
0
SOLID
5
18A
100
AcDbEntity
8
SK2
62
256
6
ByLayer
370
13
48
1
60
0
100
AcDbTrace
10
58.659064
20
-17.2974
30
0
11
58.156193
21
-14.122402
31
0
12
59.161934
22
-14.122398
32
0
13
58.659064
23
-17.2974
33
0
39
0
210
0
220
0
230
1
0
SOLID
5
18B
100
AcDbEntity
8
SK2
62
256
6
ByLayer
370
13
48
1
60
0
100
AcDbTrace
10
58.659064
20
17.2974
30
0
11
59.161934
21
14.122402
31
0
12
58.156193
22
14.122398
32
0
13
58.659064
23
17.2974
33
0
39
0
210
0
220
0
230
1
0
ENDBLK
5
18D
100
AcDbEntity
8
0
100
AcDbBlockEnd
0
BLOCK
5
197
100
AcDbEntity
8
0
100
AcDbBlockBegin
2
DimnDraft3D11
70
0
10
0
20
0
30
0
3
DimnDraft3D11
0
MTEXT
5
190
100
AcDbEntity
8
2
62
256
6
ByLayer
370
18
48
1
60
0
100
AcDbMText
10
43.829248
20
-56.596897
30
0
210
0
220
0
230
1
1
\W0.7152;93.2
40
3.000007
41
0
44
1.084337
50
0
71
7
72
5
7
iso_b_vert
0
LINE
5
192
100
AcDbEntity
8
2
62
256
6
ByLayer
370
13
48
1
60
0
100
AcDbLine
10
1.3E-05
20
-40.902893
30
0
11
1.3E-05
21
-60.522014
31
0
39
0
210
0
220
0
230
1
0
LINE
5
193
100
AcDbEntity
8
2
62
256
6
ByLayer
370
13
48
1
60
0
100
AcDbLine
10
93.2006
20
-12.7508
30
0
11
93.2006
21
-60.522014
31
0
39
0
210
0
220
0
230
1
0
LINE
5
194
100
AcDbEntity
8
2
62
256
6
ByLayer
370
13
48
1
60
0
100
AcDbLine
10
1.3E-05
20
-57.347014
30
0
11
93.2006
21
-57.347014
31
0
39
0
210
0
220
0
230
1
0
SOLID
5
195
100
AcDbEntity
8
2
62
256
6
ByLayer
370
13
48
1
60
0
100
AcDbTrace
10
1.3E-05
20
-57.347014
30
0
11
3.175012
21
-56.844143
31
0
12
3.175015
22
-57.849884
32
0
13
1.3E-05
23
-57.347014
33
0
39
0
210
0
220
0
230
1
0
SOLID
5
196
100
AcDbEntity
8
2
62
256
6
ByLayer
370
13
48
1
60
0
100
AcDbTrace
10
93.2006
20
-57.347014
30
0
11
90.025602
21
-57.849884
31
0
12
90.025598
22
-56.844143
32
0
13
93.2006
23
-57.347014
33
0
39
0
210
0
220
0
230
1
0
ENDBLK
5
198
100
AcDbEntity
8
0
100
AcDbBlockEnd
0
ENDSEC
0
SECTION
2
ENTITIES
0
ARC
5
107
100
AcDbEntity
8
1
62
256
6
ByLayer
370
18
48
1
60
0
100
AcDbCircle
39
0
10
83
20
-16.05
30
0
40
0.8
210
0
220
0
230
1
100
AcDbArc
50
180
51
270
0
ARC
5
108
100
AcDbEntity
8
1
62
256
6
ByLayer
370
18
48
1
60
0
100
AcDbCircle
39
0
10
83
20
16.05
30
0
40
0.8
210
0
220
0
230
1
100
AcDbArc
50
90
51
180
0
ARC
5
109
100
AcDbEntity
8
1
62
256
6
ByLayer
370
18
48
1
60
0
100
AcDbCircle
39
0
10
24.050013
20
22.2975
30
0
40
5
210
0
220
0
230
1
100
AcDbArc
50
180
51
270
0
ARC
5
10A
100
AcDbEntity
8
1
62
256
6
ByLayer
370
18
48
1
60
0
100
AcDbCircle
39
0
10
24.050013
20
-22.2975
30
0
40
5
210
0
220
0
230
1
100
AcDbArc
50
90
51
180
0
ARC
5
10B
100
AcDbEntity
8
SK3
62
256
6
ByLayer
370
13
48
0.05
60
0
100
AcDbCircle
39
0
10
93.1
20
11.75
30
0
40
1
210
0
220
0
230
1
100
AcDbArc
50
0
51
180
0
ARC
5
10C
100
AcDbEntity
8
SK3
62
256
6
ByLayer
370
13
48
0.05
60
0
100
AcDbCircle
39
0
10
93.1
20
-11.75
30
0
40
1
210
0
220
0
230
1
100
AcDbArc
50
180
51
0
0
ARC
5
10D
100
AcDbEntity
8
1
62
256
6
ByLayer
370
18
48
1
60
0
100
AcDbCircle
39
0
10
-2.58
20
35.327084
30
0
40
0.6
210
0
220
0
230
-1
100
AcDbArc
50
180
51
270
0
ARC
5
10E
100
AcDbEntity
8
1
62
256
6
ByLayer
370
18
48
1
60
0
100
AcDbCircle
39
0
10
2.58
20
-35.327084
30
0
40
0.6
210
0
220
0
230
1
100
AcDbArc
50
360
51
90
0
ARC
5
10F
100
AcDbEntity
8
SK1
62
256
6
ByLayer
370
18
48
1
60
0
100
AcDbCircle
39
0
10
-99.1
20
17.946335
30
0
40
2.5
210
0
220
0
230
1
100
AcDbArc
50
98.297222
51
180
0
ARC
5
110
100
AcDbEntity
8
SK1
62
256
6
ByLayer
370
18
48
1
60
0
100
AcDbCircle
39
0
10
-99.1
20
-17.946335
30
0
40
2.5
210
0
220
0
230
1
100
AcDbArc
50
180
51
261.702778
0
POINT
5
6C
100
AcDbEntity
8
81
62
256
6
ByLayer
370
13
48
1
60
0
100
AcDbPoint
10
93.2
20
0
30
0
39
0
210
0
220
0
230
1
50
360
0
POINT
5
6E
100
AcDbEntity
8
80
62
256
6
ByLayer
370
13
48
1
60
0
100
AcDbPoint
10
0
20
0
30
0
39
0
210
0
220
0
230
1
50
360
0
SPLINE
5
111
100
AcDbEntity
8
1
62
256
6
ByLayer
370
18
48
1
60
0
100
AcDbSpline
70
4
71
3
72
76
73
72
40
0
40
0
40
0
40
0
40
0.0147409513365277
40
0.0294824549507341
40
0.0442241932298954
40
0.0589658819922399
40
0.0737072713347978
40
0.0884481464874706
40
0.102486516472748
40
0.116525320974623
40
0.130564241791381
40
0.144602991927686
40
0.158641316314635
40
0.172680075013254
40
0.186719349000459
40
0.200758765307005
40
0.214797983183957
40
0.22883669482065
40
0.242875840806604
40
0.256915581536494
40
0.270955492761787
40
0.284995180607727
40
0.299034282237534
40
0.313243834189409
40
0.327454075590363
40
0.341664522922169
40
0.355874718796574
40
0.370084232563049
40
0.384450134606364
40
0.398816804373136
40
0.413183714293445
40
0.427550353989775
40
0.441916230811375
40
0.456282279612163
40
0.47064912190087
40
0.485016224839531
40
0.499383059679057
40
0.5137491022318
40
0.528115132971947
40
0.542481948620945
40
0.556849034678591
40
0.571215866823039
40
0.585581911398837
40
0.600210558457626
40
0.614839989924821
40
0.629469704329444
40
0.644099176343801
40
0.658727857411718
40
0.672881814239216
40
0.687036611295436
40
0.701191864677484
40
0.715347160471949
40
0.729502055405942
40
0.743656077489238
40
0.757809390199902
40
0.771963413756244
40
0.786117833942697
40
0.800272302392909
40
0.81442643733003
40
0.828579824298373
40
0.842732451545517
40
0.856885656518967
40
0.871039190757846
40
0.88519277230052
40
0.899346086438874
40
0.913498786465686
40
0.930798552368974
40
0.948098954036627
40
0.965399626848535
40
0.982700140321238
40
1
40
1
40
1
40
1
41
1
10
99.2
20
7.67609926981161
30
0
41
1
10
99.2194309251305
20
7.60223430136471
30
0
41
1
10
99.2578662417316
20
7.45439223829245
30
0
41
1
10
99.3142521124089
20
7.23229840033221
30
0
41
1
10
99.3693289360076
20
7.00987294967554
30
0
41
1
10
99.4230682399167
20
6.78712094803629
30
0
41
1
10
99.4754374992319
20
6.56404745199282
30
0
41
1
10
99.5255965260832
20
6.34420272553103
30
0
41
1
10
99.5735930810538
20
6.12760303675905
30
0
41
1
10
99.6194779597466
20
5.91426493532682
30
0
41
1
10
99.6640118088024
20
5.70063866063833
30
0
41
1
10
99.707166793286
20
5.48673205717549
30
0
41
1
10
99.7489163075934
20
5.27254750112539
30
0
41
1
10
99.7892333479701
20
5.05808586906905
30
0
41
1
10
99.8280927509938
20
4.8433495311281
30
0
41
1
10
99.865468489249
20
4.62834751959876
30
0
41
1
10
99.9013339009167
20
4.41309130963649
30
0
41
1
10
99.9356634967628
20
4.19758618819886
30
0
41
1
10
99.9684313341233
20
3.98183528018396
30
0
41
1
10
99.999615175061
20
3.76584340953233
30
0
41
1
10
100.029192083156
20
3.5496227470553
30
0
41
1
10
100.057138452048
20
3.33318858311954
30
0
41
1
10
100.083537857002
20
3.11567479501727
30
0
41
1
10
100.108343434076
20
2.8970839810351
30
0
41
1
10
100.131513293031
20
2.67742095948227
30
0
41
1
10
100.152929629627
20
2.45757664972219
30
0
41
1
10
100.172573315814
20
2.23757060299859
30
0
41
1
10
100.190491358245
20
2.0166091336306
30
0
41
1
10
100.206641636058
20
1.79469842523453
30
0
41
1
10
100.220989517493
20
1.57184665857046
30
0
41
1
10
100.233464750594
20
1.34887836129895
30
0
41
1
10
100.244055243324
20
1.1258166827093
30
0
41
1
10
100.252749292905
20
0.902677470922445
30
0
41
1
10
100.259534827844
20
0.679471000392092
30
0
41
1
10
100.264409425668
20
0.456208265883303
30
0
41
1
10
100.267370380743
20
0.232907872391036
30
0
41
1
10
100.268414743316
20
0.0095944277271834
30
0
41
1
10
100.267539538754
20
-0.213714201528037
30
0
41
1
10
100.264741501521
20
-0.437006911466636
30
0
41
1
10
100.26002736354
20
-0.660272773624033
30
0
41
1
10
100.253403556275
20
-0.883494279472685
30
0
41
1
10
100.244876629018
20
-1.10664717833367
30
0
41
1
10
100.234389227362
20
-1.33107324072482
30
0
41
1
10
100.221906565824
20
-1.5567599706567
30
0
41
1
10
100.207403708188
20
-1.78369479950253
30
0
41
1
10
100.190971515002
20
-2.01050233993125
30
0
41
1
10
100.17262611883
20
-2.23715920384534
30
0
41
1
10
100.152602030232
20
-2.46119913715227
30
0
41
1
10
100.130984242874
20
-2.68261965361578
30
0
41
1
10
100.107863094349
20
-2.90142170616127
30
0
41
1
10
100.083020781326
20
-3.12004195527062
30
0
41
1
10
100.056479032581
20
-3.33846285799414
30
0
41
1
10
100.028259665066
20
-3.55666687518914
30
0
41
1
10
99.9983837536129
20
-3.7746398411472
30
0
41
1
10
99.9668718236739
20
-3.99237768892337
30
0
41
1
10
99.9337499649308
20
-4.20987848070992
30
0
41
1
10
99.8990432540523
20
-4.42713801587095
30
0
41
1
10
99.8627782816754
20
-4.64414341099185
30
0
41
1
10
99.824981630455
20
-4.86088178453736
30
0
41
1
10
99.7856792580156
20
-5.07734243066411
30
0
41
1
10
99.7448962071093
20
-5.29352403091863
30
0
41
1
10
99.7026602070677
20
-5.50942718211968
30
0
41
1
10
99.6589980005756
20
-5.72505142252029
30
0
41
1
10
99.6139380474948
20
-5.9403884229429
30
0
41
1
10
99.5675087965961
20
-6.15542988258586
30
0
41
1
10
99.5161965506565
20
-6.38608921617915
30
0
41
1
10
99.45966488418
20
-6.6322869312301
30
0
41
1
10
99.3975680269282
20
-6.89393438334731
30
0
41
1
10
99.3336063847651
20
-7.15513587138164
30
0
41
1
10
99.2678260232708
20
-7.4158832762126
30
0
41
1
10
99.2228054753264
20
-7.58941189649997
30
0
41
1
10
99.2
20
-7.67609926981146
30
0
0
SPLINE
5
112
100
AcDbEntity
8
1
62
256
6
ByLayer
370
18
48
1
60
0
100
AcDbSpline
70
4
71
3
72
79
73
75
40
0
40
0
40
0
40
0
40
0.0145240974131169
40
0.0290485729858156
40
0.0435731458417557
40
0.0580975665626361
40
0.0726216179698177
40
0.0871591482998435
40
0.101697143224199
40
0.11623526071843
40
0.130773194078843
40
0.145310672772963
40
0.1598356171549
40
0.174361116856251
40
0.188886767929677
40
0.203412203333116
40
0.217937093785729
40
0.232481481719659
40
0.247026519377873
40
0.261571741173928
40
0.276116717012954
40
0.290661053096233
40
0.305186850261761
40
0.319713376482467
40
0.334240118841161
40
0.348766593824659
40
0.363292348014899
40
0.377843132625165
40
0.392394711031309
40
0.406946536464123
40
0.42149808133594
40
0.436048837819114
40
0.448812902083575
40
0.46157733534759
40
0.47434176576773
40
0.487105826154066
40
0.499869903268684
40
0.512634352159559
40
0.525398801992933
40
0.538162880392813
40
0.550974466713908
40
0.563786423443456
40
0.576598384891803
40
0.589409977647811
40
0.602143569879949
40
0.614877512667428
40
0.62761146331595
40
0.640345066267986
40
0.653089620269556
40
0.665834506062327
40
0.678579402342323
40
0.691323970645025
40
0.704057352443564
40
0.716791040596132
40
0.729524740997108
40
0.742258139498423
40
0.755000942967685
40
0.767744025666788
40
0.780487121640523
40
0.793229943211949
40
0.807785604069374
40
0.822342089431701
40
0.836899127964664
40
0.851456409734314
40
0.866013587082924
40
0.8805702754963
40
0.895126054461881
40
0.910107270931485
40
0.92508916171226
40
0.940071515298903
40
0.955054081692577
40
0.970036573340143
40
0.985018666066584
40
1
40
1
40
1
40
1
41
1
10
99.2
20
-9.15233142186085
30
0
41
1
10
99.2191449850865
20
-9.18872059888592
30
0
41
1
10
99.257020839787
20
-9.26155298308035
30
0
41
1
10
99.3126045704299
20
-9.37096157204097
30
0
41
1
10
99.366917934598
20
-9.48053014079518
30
0
41
1
10
99.4199337915695
20
-9.59025644463733
30
0
41
1
10
99.4716379125587
20
-9.70017361644617
30
0
41
1
10
99.5219998564643
20
-9.81028257819513
30
0
41
1
10
99.5709888742325
20
-9.92058363690797
30
0
41
1
10
99.6185595776443
20
-10.0310408887862
30
0
41
1
10
99.6646810044691
20
-10.1416503626931
30
0
41
1
10
99.7093102495551
20
-10.2523779857362
30
0
41
1
10
99.7524188300206
20
-10.3632233400615
30
0
41
1
10
99.7939800919554
20
-10.4741851946559
30
0
41
1
10
99.8339777169109
20
-10.5852919438022
30
0
41
1
10
99.8723818107805
20
-10.6965375933964
30
0
41
1
10
99.9091798562984
20
-10.8079681044436
30
0
41
1
10
99.9443402119772
20
-10.9195821789262
30
0
41
1
10
99.9778350318485
20
-11.0313775304238
30
0
41
1
10
100.009622900216
20
-11.1432989785496
30
0
41
1
10
100.039676969977
20
-11.25533831073
30
0
41
1
10
100.067959239703
20
-11.367442213415
30
0
41
1
10
100.094446173494
20
-11.4796076004113
30
0
41
1
10
100.119120617945
20
-11.5918304500269
30
0
41
1
10
100.141973671307
20
-11.7041514711818
30
0
41
1
10
100.16298418289
20
-11.8165604168775
30
0
41
1
10
100.182142695578
20
-11.9291145969246
30
0
41
1
10
100.199424651647
20
-12.0418099490412
30
0
41
1
10
100.214813916033
20
-12.154641580656
30
0
41
1
10
100.228287911267
20
-12.2675364312722
30
0
41
1
10
100.239833395367
20
-12.3804825673395
30
0
41
1
10
100.249043980105
20
-12.4888468693324
30
0
41
1
10
100.25617775754
20
-12.5926175332794
30
0
41
1
10
100.261488055876
20
-12.6917862020562
30
0
41
1
10
100.265289179995
20
-12.7909721879985
30
9E-16
41
1
10
100.267577688871
20
-12.8901688662826
30
9E-16
41
1
10
100.268349911551
20
-12.9893714412707
30
9E-16
41
1
10
100.267607207178
20
-13.0885750791725
30
9E-16
41
1
10
100.265350772753
20
-13.1877729986857
30
9E-16
41
1
10
100.261577028642
20
-13.2870815263753
30
9E-16
41
1
10
100.256280302888
20
-13.3864957872625
30
9E-16
41
1
10
100.249459919637
20
-13.4860109449082
30
9E-16
41
1
10
100.241128252486
20
-13.5854973450684
30
9E-16
41
1
10
100.231310969586
20
-13.6847465942202
30
9E-16
41
1
10
100.220024181485
20
-13.7837543064862
30
9E-16
41
1
10
100.207288419991
20
-13.8825164903799
30
9E-16
41
1
10
100.193090557383
20
-13.9812288366325
30
9E-16
41
1
10
100.177435878849
20
-14.0799136624514
30
9E-16
41
1
10
100.160332402667
20
-14.1785667785196
30
9E-16
41
1
10
100.141792151308
20
-14.2771843543493
30
9E-16
41
1
10
100.121833516034
20
-14.3757327137385
30
9E-16
41
1
10
100.100476133219
20
-14.4741777517033
30
9E-16
41
1
10
100.077734460434
20
-14.5725159984745
30
9E-16
41
1
10
100.053626166065
20
-14.6707444419315
30
9E-16
41
1
10
100.028160906291
20
-14.7688872708546
30
9E-16
41
1
10
100.001348294462
20
-14.8669641641172
30
9E-16
41
1
10
99.9732029952972
20
-14.9649722045745
30
9E-16
41
1
10
99.9437421911236
20
-15.062908929758
30
9E-16
41
1
10
99.9129911758075
20
-15.1607464856765
30
9E-16
41
1
10
99.879449961325
20
-15.2631159409624
30
9E-16
41
1
10
99.8429183913675
20
-15.3699985947138
30
9E-16
41
1
10
99.8031957622768
20
-15.4813736955465
30
9E-16
41
1
10
99.7618941693355
20
-15.5926093638766
30
9E-16
41
1
10
99.7190441186096
20
-15.703700296955
30
9E-16
41
1
10
99.6746761561674
20
-15.8146412077107
30
9E-16
41
1
10
99.628820906809
20
-15.9254268164361
30
9E-16
41
1
10
99.5810462053158
20
-16.0371330529584
30
9E-16
41
1
10
99.5313315140988
20
-16.1497558067733
30
9E-16
41
1
10
99.4796595437776
20
-16.2632916966738
30
9E-16
41
1
10
99.4265375490203
20
-16.3766637198794
30
1.1E-15
41
1
10
99.3719987141703
20
-16.4898690245813
30
1.1E-15
41
1
10
99.3160772510773
20
-16.6029047510435
30
1.1E-15
41
1
10
99.2588031843549
20
-16.7157680398701
30
1.1E-15
41
1
10
99.2197479007277
20
-16.7908959341042
30
1E-15
41
1
10
99.2
20
-16.8284306916723
30
1E-15
0
SPLINE
5
113
100
AcDbEntity
8
1
62
256
6
ByLayer
370
18
48
1
60
0
100
AcDbSpline
70
4
71
3
72
80
73
76
40
0
40
0
40
0
40
0
40
0.0149813331260067
40
0.0299634250449987
40
0.0449459158850933
40
0.0599284814712925
40
0.0749108342504706
40
0.089892724223807
40
0.104873939886009
40
0.119429718067116
40
0.133986405695969
40
0.148543582260029
40
0.163100863245125
40
0.177657900993546
40
0.192214385571361
40
0.206770045644319
40
0.219512866528979
40
0.232255961815933
40
0.244999043828256
40
0.257741846610753
40
0.27047524442581
40
0.283208944140513
40
0.295942631606807
40
0.308676012719089
40
0.321420580334931
40
0.334165475928049
40
0.346910361033944
40
0.359654914348654
40
0.372388516614421
40
0.385122466576655
40
0.397856408677847
40
0.410590000223717
40
0.423186330165788
40
0.435783369272384
40
0.448380755907928
40
0.460978134058035
40
0.473575153582302
40
0.486171470468756
40
0.498535710755146
40
0.510900623372064
40
0.523265875308622
40
0.535631130841062
40
0.547996051756397
40
0.560360297575366
40
0.572724378656617
40
0.585089102842967
40
0.59745416079875
40
0.60981923304208
40
0.622183990200556
40
0.634548093264378
40
0.649384711413948
40
0.664222099023089
40
0.67905977246783
40
0.693897215538908
40
0.708733880207368
40
0.72341224783977
40
0.73809127336736
40
0.752770552107315
40
0.767449641736673
40
0.782128063134278
40
0.796652952400292
40
0.811178386533487
40
0.825704036308582
40
0.840229534739292
40
0.854754477934298
40
0.869278928213151
40
0.883803831901292
40
0.898328919186376
40
0.912853884215947
40
0.927378385944075
40
0.941902436568493
40
0.95642685650659
40
0.970951428579737
40
0.985475903369649
40
1
40
1
40
1
40
1
41
1
10
99.2
20
9.15233142186084
30
0
41
1
10
99.219747900727
20
9.18986617942896
30
0
41
1
10
99.2588031843552
20
9.26499407366302
30
0
41
1
10
99.3160772510773
20
9.37785736248965
30
0
41
1
10
99.3719987141704
20
9.49089308895187
30
0
41
1
10
99.4265375490203
20
9.60409839365376
30
0
41
1
10
99.4796595437776
20
9.71747041685934
30
0
41
1
10
99.5313315140987
20
9.83100630675983
30
0
41
1
10
99.5810462053159
20
9.94362906057474
30
0
41
1
10
99.628820906809
20
10.055335297097
30
0
41
1
10
99.6746761561675
20
10.1661209058225
30
0
41
1
10
99.7190441186096
20
10.2770618165782
30
0
41
1
10
99.7618941693355
20
10.3881527496566
30
0
41
1
10
99.8031957622767
20
10.4993884179866
30
0
41
1
10
99.8429183913675
20
10.6107635188194
30
0
41
1
10
99.879449961325
20
10.7176461725708
30
0
41
1
10
99.9129911758075
20
10.8200156278567
30
0
41
1
10
99.9437421911236
20
10.9178531837752
30
0
41
1
10
99.9732029952972
20
11.0157899089586
30
0
41
1
10
100.001348294462
20
11.113797949416
30
0
41
1
10
100.028160906291
20
11.2118748426786
30
0
41
1
10
100.053626166066
20
11.3100176716016
30
0
41
1
10
100.077734460432
20
11.4082461150587
30
0
41
1
10
100.100476133224
20
11.5065843618298
30
0
41
1
10
100.121833516018
20
11.6050293997949
30
0
41
1
10
100.14179215137
20
11.703577759183
30
0
41
1
10
100.160332402435
20
11.8021953350166
30
0
41
1
10
100.177435879715
20
11.9008484510702
30
0
41
1
10
100.193090554156
20
11.9995332769439
30
0
41
1
10
100.207288432036
20
12.0982456229919
30
0
41
1
10
100.220024136534
20
12.1970078076492
30
0
41
1
10
100.231247665483
20
12.2954587486022
30
0
41
1
10
100.240966498561
20
12.3935945750192
30
0
41
1
10
100.249193891138
20
12.4914113223844
30
0
41
1
10
100.255961084272
20
12.5892587666138
30
0
41
1
10
100.261263408749
20
12.6871287497164
30
0
41
1
10
100.265096322423
20
12.7850131077491
30
-9E-16
41
1
10
100.267440813407
20
12.8823051915869
30
-9E-16
41
1
10
100.268323873651
20
12.9790019793247
30
-9E-16
41
1
10
100.267779134178
20
13.0751007771978
30
-9E-16
41
1
10
100.265814064745
20
13.1711975653199
30
-9E-16
41
1
10
100.262430630951
20
13.2672845047065
30
-9E-16
41
1
10
100.257630809572
20
13.3633537550329
30
-9E-16
41
1
10
100.251416379397
20
13.4593996854323
30
-9E-16
41
1
10
100.243788945013
20
13.5554196419916
30
-9E-16
41
1
10
100.234756438772
20
13.6514112162297
30
-9E-16
41
1
10
100.224326530182
20
13.7473699320788
30
-9E-16
41
1
10
100.21250716434
20
13.8432884433036
30
-9E-16
41
1
10
100.199306300841
20
13.939159420513
30
-9E-16
41
1
10
100.183759876039
20
14.0413650692332
30
-9E-16
41
1
10
100.165538019838
20
14.1498903302585
30
-9E-16
41
1
10
100.144298406586
20
14.2647154387577
30
-9E-16
41
1
10
100.121134434182
20
14.3794496246239
30
-9E-16
41
1
10
100.096068504703
20
14.4940819112925
30
-9E-16
41
1
10
100.069217781989
20
14.6081975459504
30
-9E-16
41
1
10
100.040626379025
20
14.7217937231489
30
-9E-16
41
1
10
100.010344223975
20
14.8348689213524
30
-9E-16
41
1
10
99.9782955773136
20
14.9478241915153
30
-9E-16
41
1
10
99.9445080238727
20
15.0606510845946
30
-9E-16
41
1
10
99.9091317230422
20
15.172951259237
30
-9E-16
41
1
10
99.8722131733236
20
15.2847237567411
30
-9E-16
41
1
10
99.833801871375
20
15.3959687808174
30
-9E-16
41
1
10
99.7937971650158
20
15.5070748884036
30
-9E-16
41
1
10
99.7522289521887
20
15.6180360882101
30
-9E-16
41
1
10
99.7091264364825
20
15.7288476474134
30
-9E-16
41
1
10
99.6645178525918
20
15.8395084886525
30
-9E-16
41
1
10
99.6184331793623
20
15.9500183565932
30
-9E-16
41
1
10
99.5709019062887
20
16.0603762689426
30
-9E-16
41
1
10
99.5219549125434
20
16.1705782662004
30
-9E-16
41
1
10
99.4716224581681
20
16.2806213511284
30
-9E-16
41
1
10
99.4199337915891
20
16.3905056689248
30
-1.1E-15
41
1
10
99.3669179345928
20
16.5002319727303
30
-1.1E-15
41
1
10
99.3126045704313
20
16.6098005414943
30
-1.1E-15
41
1
10
99.2570208397866
20
16.7192091304522
30
-1.1E-15
41
1
10
99.2191449850865
20
16.7920415146472
30
-1E-15
41
1
10
99.2
20
16.8284306916723
30
-1E-15
0
LINE
5
70
100
AcDbEntity
8
1
62
256
6
ByLayer
370
18
48
1
60
0
100
AcDbLine
10
90.2
20
7.676099
30
0
11
99.2
21
7.676099
31
0
39
0
210
0
220
0
230
1
0
LINE
5
72
100
AcDbEntity
8
1
62
256
6
ByLayer
370
18
48
1
60
0
100
AcDbLine
10
99.2
20
9.152331
30
0
11
99.2
21
7.676099
31
0
39
0
210
0
220
0
230
1
0
LINE
5
73
100
AcDbEntity
8
1
62
256
6
ByLayer
370
18
48
1
60
0
100
AcDbLine
10
90.2
20
-9.152331
30
0
11
99.2
21
-9.152331
31
0
39
0
210
0
220
0
230
1
0
LINE
5
74
100
AcDbEntity
8
1
62
256
6
ByLayer
370
18
48
1
60
0
100
AcDbLine
10
99.2
20
-7.676099
30
0
11
99.2
21
-9.152331
31
0
39
0
210
0
220
0
230
1
0
LINE
5
75
100
AcDbEntity
8
1
62
256
6
ByLayer
370
18
48
1
60
0
100
AcDbLine
10
90.2
20
-7.676099
30
0
11
99.2
21
-7.676099
31
0
39
0
210
0
220
0
230
1
0
LINE
5
76
100
AcDbEntity
8
1
62
256
6
ByLayer
370
18
48
1
60
0
100
AcDbLine
10
90.2
20
7.676099
30
0
11
90.2
21
-7.676099
31
0
39
0
210
0
220
0
230
1
0
LINE
5
77
100
AcDbEntity
8
1
62
256
6
ByLayer
370
18
48
1
60
0
100
AcDbLine
10
99.2
20
16.828431
30
0
11
90.2
21
16.828431
31
0
39
0
210
0
220
0
230
1
0
LINE
5
78
100
AcDbEntity
8
1
62
256
6
ByLayer
370
18
48
1
60
0
100
AcDbLine
10
90.2
20
9.152331
30
0
11
99.2
21
9.152331
31
0
39
0
210
0
220
0
230
1
0
LINE
5
79
100
AcDbEntity
8
1
62
256
6
ByLayer
370
18
48
1
60
0
100
AcDbLine
10
90.2
20
16.828431
30
0
11
90.2
21
9.152331
31
0
39
0
210
0
220
0
230
1
0
LINE
5
7A
100
AcDbEntity
8
1
62
256
6
ByLayer
370
18
48
1
60
0
100
AcDbLine
10
90.2
20
-16.828431
30
0
11
99.2
21
-16.828431
31
0
39
0
210
0
220
0
230
1
0
LINE
5
7B
100
AcDbEntity
8
1
62
256
6
ByLayer
370
18
48
1
60
0
100
AcDbLine
10
90.2
20
-9.152331
30
0
11
90.2
21
-16.828431
31
0
39
0
210
0
220
0
230
1
0
LINE
5
7C
100
AcDbEntity
8
1
62
256
6
ByLayer
370
18
48
1
60
0
100
AcDbLine
10
77.591652
20
12.97051
30
0
11
79.37599
21
12.97051
31
0
39
0
210
0
220
0
230
1
0
LINE
5
7D
100
AcDbEntity
8
1
62
256
6
ByLayer
370
18
48
1
60
0
100
AcDbLine
10
79.37599
20
-12.97051
30
0
11
77.591652
21
-12.97051
31
0
39
0
210
0
220
0
230
1
0
LINE
5
7E
100
AcDbEntity
8
1
62
256
6
ByLayer
370
18
48
1
60
0
100
AcDbLine
10
79.37599
20
12.97051
30
0
11
79.9132
21
12.4333
31
0
39
0
210
0
220
0
230
1
0
LINE
5
7F
100
AcDbEntity
8
1
62
256
6
ByLayer
370
18
48
1
60
0
100
AcDbLine
10
79.9132
20
-12.4333
30
0
11
79.37599
21
-12.97051
31
0
39
0
210
0
220
0
230
1
0
LINE
5
80
100
AcDbEntity
8
1
62
256
6
ByLayer
370
18
48
1
60
0
100
AcDbLine
10
70.7434
20
15.4813
30
0
11
71.2514
21
14.9733
31
0
39
0
210
0
220
0
230
1
0
LINE
5
81
100
AcDbEntity
8
1
62
256
6
ByLayer
370
18
48
1
60
0
100
AcDbLine
10
71.2514
20
-14.9733
30
0
11
70.7434
21
-15.4813
31
0
39
0
210
0
220
0
230
1
0
LINE
5
82
100
AcDbEntity
8
1
62
256
6
ByLayer
370
18
48
0.05
60
0
100
AcDbLine
10
65.9432
20
15.4813
30
0
11
67.5434
21
15.4813
31
0
39
0
210
0
220
0
230
1
0
LINE
5
83
100
AcDbEntity
8
1
62
256
6
ByLayer
370
18
48
0.05
60
0
100
AcDbLine
10
67.5434
20
-15.4813
30
0
11
65.9432
21
-15.4813
31
0
39
0
210
0
220
0
230
1
0
LINE
5
84
100
AcDbEntity
8
1
62
256
6
ByLayer
370
18
48
1
60
0
100
AcDbLine
10
65.5622
20
17.2974
30
0
11
65.9432
21
16.9164
31
0
39
0
210
0
220
0
230
1
0
LINE
5
85
100
AcDbEntity
8
1
62
256
6
ByLayer
370
18
48
1
60
0
100
AcDbLine
10
65.9432
20
-16.9164
30
0
11
65.5622
21
-17.2974
31
0
39
0
210
0
220
0
230
1
0
LINE
5
86
100
AcDbEntity
8
1
62
256
6
ByLayer
370
18
48
1
60
0
100
AcDbLine
10
72.0138
20
11.1125
30
0
11
71.515948
21
12.97051
31
0
39
0
210
0
220
0
230
1
0
LINE
5
87
100
AcDbEntity
8
1
62
256
6
ByLayer
370
18
48
1
60
0
100
AcDbLine
10
77.0938
20
11.1125
30
0
11
72.0138
21
11.1125
31
0
39
0
210
0
220
0
230
1
0
LINE
5
88
100
AcDbEntity
8
1
62
256
6
ByLayer
370
18
48
1
60
0
100
AcDbLine
10
77.591652
20
12.97051
30
0
11
77.0938
21
11.1125
31
0
39
0
210
0
220
0
230
1
0
LINE
5
89
100
AcDbEntity
8
1
62
256
6
ByLayer
370
18
48
1
60
0
100
AcDbLine
10
71.515948
20
-12.97051
30
0
11
72.0138
21
-11.1125
31
0
39
0
210
0
220
0
230
1
0
LINE
5
8A
100
AcDbEntity
8
1
62
256
6
ByLayer
370
18
48
1
60
0
100
AcDbLine
10
72.0138
20
-11.1125
30
0
11
77.0938
21
-11.1125
31
0
39
0
210
0
220
0
230
1
0
LINE
5
8B
100
AcDbEntity
8
1
62
256
6
ByLayer
370
18
48
1
60
0
100
AcDbLine
10
77.0938
20
-11.1125
30
0
11
77.591652
21
-12.97051
31
0
39
0
210
0
220
0
230
1
0
LINE
5
8C
100
AcDbEntity
8
1
62
256
6
ByLayer
370
18
48
1
60
0
100
AcDbLine
10
99.2
20
16.85
30
0
11
101.2
21
13.385898
31
0
39
0
210
0
220
0
230
1
0
LINE
5
8D
100
AcDbEntity
8
1
62
256
6
ByLayer
370
18
48
1
60
0
100
AcDbLine
10
101.2
20
-13.385898
30
0
11
99.2
21
-16.85
31
0
39
0
210
0
220
0
230
1
0
LINE
5
8E
100
AcDbEntity
8
1
62
256
6
ByLayer
370
18
48
1
60
0
100
AcDbLine
10
65.5622
20
-17.2974
30
0
11
65.5622
21
17.2974
31
0
39
0
210
0
220
0
230
1
0
LINE
5
8F
100
AcDbEntity
8
1
62
256
6
ByLayer
370
18
48
1
60
0
100
AcDbLine
10
65.9432
20
-16.9164
30
0
11
65.9432
21
16.9164
31
0
39
0
210
0
220
0
230
1
0
LINE
5
90
100
AcDbEntity
8
1
62
256
6
ByLayer
370
18
48
1
60
0
100
AcDbLine
10
71.2514
20
14.9733
30
0
11
71.2514
21
-14.9733
31
0
39
0
210
0
220
0
230
1
0
LINE
5
91
100
AcDbEntity
8
1
62
256
6
ByLayer
370
18
48
1
60
0
100
AcDbLine
10
70.7434
20
-15.4813
30
0
11
70.7434
21
15.4813
31
0
39
0
210
0
220
0
230
1
0
LINE
5
92
100
AcDbEntity
8
1
62
256
6
ByLayer
370
18
48
1
60
0
100
AcDbLine
10
79.9132
20
-12.4333
30
0
11
79.9132
21
12.4333
31
0
39
0
210
0
220
0
230
1
0
LINE
5
93
100
AcDbEntity
8
1
62
256
6
ByLayer
370
18
48
1
60
0
100
AcDbLine
10
79.37599
20
-12.97051
30
0
11
79.37599
21
12.97051
31
0
39
0
210
0
220
0
230
1
0
LINE
5
94
100
AcDbEntity
8
1
62
256
6
ByLayer
370
18
48
1
60
0
100
AcDbLine
10
82.2
20
-16.05
30
0
11
82.2
21
16.05
31
0
39
0
210
0
220
0
230
1
0
LINE
5
95
100
AcDbEntity
8
1
62
256
6
ByLayer
370
18
48
1
60
0
100
AcDbLine
10
101.2
20
-13.385898
30
0
11
101.2
21
13.385898
31
0
39
0
210
0
220
0
230
1
0
LINE
5
96
100
AcDbEntity
8
1
62
256
6
ByLayer
370
18
48
1
60
0
100
AcDbLine
10
79.9132
20
12.4333
30
0
11
82.3
21
12.4333
31
0
39
0
210
0
220
0
230
1
0
LINE
5
97
100
AcDbEntity
8
1
62
256
6
ByLayer
370
18
48
1
60
0
100
AcDbLine
10
82.3
20
-12.4333
30
0
11
79.9132
21
-12.4333
31
0
39
0
210
0
220
0
230
1
0
LINE
5
98
100
AcDbEntity
8
80
62
256
6
ByLayer
370
13
48
1
60
0
100
AcDbLine
10
0
20
0
30
0
11
-7.999987
21
0
31
0
39
0
210
0
220
0
230
1
0
LINE
5
99
100
AcDbEntity
8
1
62
256
6
ByLayer
370
18
48
1
60
0
100
AcDbLine
10
37.550062
20
16.8975
30
0
11
37.150062
21
17.2975
31
0
39
0
210
0
220
0
230
1
0
LINE
5
9A
100
AcDbEntity
8
1
62
256
6
ByLayer
370
18
48
1
60
0
100
AcDbLine
10
37.150062
20
-17.2975
30
0
11
37.550062
21
-16.8975
31
0
39
0
210
0
220
0
230
1
0
LINE
5
9B
100
AcDbEntity
8
1
62
256
6
ByLayer
370
18
48
1
60
0
100
AcDbLine
10
47.250062
20
17.297409
30
0
11
37.950058
21
17.297493
31
0
39
0
210
0
220
0
230
1
0
LINE
5
9C
100
AcDbEntity
8
1
62
256
6
ByLayer
370
18
48
1
60
0
100
AcDbLine
10
47.250053
20
-17.297409
30
0
11
37.950062
21
-17.297493
31
0
39
0
210
0
220
0
230
1
0
LINE
5
9D
100
AcDbEntity
8
1
62
256
6
ByLayer
370
18
48
1
60
0
100
AcDbLine
10
37.950058
20
17.297493
30
0
11
37.550062
21
16.897496
31
0
39
0
210
0
220
0
230
1
0
LINE
5
9E
100
AcDbEntity
8
1
62
256
6
ByLayer
370
18
48
1
60
0
100
AcDbLine
10
37.550062
20
-16.8975
30
0
11
37.950062
21
-17.297493
31
0
39
0
210
0
220
0
230
1
0
LINE
5
9F
100
AcDbEntity
8
1
62
256
6
ByLayer
370
18
48
1
60
0
100
AcDbLine
10
48.650062
20
-16.25
30
0
11
48.250062
21
-16.25
31
0
39
0
210
0
220
0
230
1
0
LINE
5
A0
100
AcDbEntity
8
1
62
256
6
ByLayer
370
18
48
1
60
0
100
AcDbLine
10
48.250062
20
16.297391
30
0
11
47.250062
21
17.297409
31
0
39
0
210
0
220
0
230
1
0
LINE
5
A1
100
AcDbEntity
8
1
62
256
6
ByLayer
370
18
48
1
60
0
100
AcDbLine
10
47.250053
20
-17.297409
30
0
11
48.250062
21
-16.2974
31
0
39
0
210
0
220
0
230
1
0
LINE
5
A2
100
AcDbEntity
8
1
62
256
6
ByLayer
370
18
48
1
60
0
100
AcDbLine
10
49.050062
20
17.2974
30
0
11
48.650062
21
16.8974
31
0
39
0
210
0
220
0
230
1
0
LINE
5
A3
100
AcDbEntity
8
1
62
256
6
ByLayer
370
18
48
1
60
0
100
AcDbLine
10
48.650062
20
-16.8974
30
0
11
49.050062
21
-17.2974
31
0
39
0
210
0
220
0
230
1
0
LINE
5
A4
100
AcDbEntity
8
1
62
256
6
ByLayer
370
18
48
1
60
0
100
AcDbLine
10
47.250062
20
17.297409
30
0
11
47.250053
21
-17.297409
31
0
39
0
210
0
220
0
230
1
0
LINE
5
A5
100
AcDbEntity
8
SK3
62
256
6
ByLayer
370
13
48
0.05
60
0
100
AcDbLine
10
95.3
20
-10.88
30
0
11
100.288306
21
-8
31
0
39
0
210
0
220
0
230
1
0
LINE
5
A7
100
AcDbEntity
8
SK3
62
256
6
ByLayer
370
13
48
0.05
60
0
100
AcDbLine
10
95.3
20
9
30
0
11
94.1
21
9
31
0
39
0
210
0
220
0
230
1
0
LINE
5
A8
100
AcDbEntity
8
SK3
62
256
6
ByLayer
370
13
48
0.05
60
0
100
AcDbLine
10
70.518936
20
6.8072
30
0
11
66.7084
21
6.8072
31
0
39
0
210
0
220
0
230
1
0
LINE
5
A9
100
AcDbEntity
8
SK3
62
256
6
ByLayer
370
13
48
0.05
60
0
100
AcDbLine
10
70.518936
20
-6.8072
30
0
11
92.09577
21
-9.839626
31
0
39
0
210
0
220
0
230
1
0
LINE
5
AA
100
AcDbEntity
8
SK3
62
256
6
ByLayer
370
13
48
0.05
60
0
100
AcDbLine
10
91.9306
20
12.4333
30
0
11
93.2006
21
11.1633
31
0
39
0
210
0
220
0
230
1
0
LINE
5
AB
100
AcDbEntity
8
SK3
62
256
6
ByLayer
370
13
48
0.05
60
0
100
AcDbLine
10
94.1
20
11.75
30
0
11
94.1
21
-11.75
31
0
39
0
210
0
220
0
230
1
0
LINE
5
AC
100
AcDbEntity
8
SK3
62
256
6
ByLayer
370
13
48
0.05
60
0
100
AcDbLine
10
95.3
20
-10.88
30
0
11
95.3
21
10.88
31
0
39
0
210
0
220
0
230
1
0
LINE
5
AD
100
AcDbEntity
8
SK3
62
256
6
ByLayer
370
13
48
0.05
60
0
100
AcDbLine
10
93.2006
20
-11.1633
30
0
11
91.9306
21
-12.4333
31
0
39
0
210
0
220
0
230
1
0
LINE
5
AE
100
AcDbEntity
8
SK3
62
256
6
ByLayer
370
13
48
0.05
60
0
100
AcDbLine
10
82.1
20
12.4333
30
0
11
91.9306
21
12.4333
31
0
39
0
210
0
220
0
230
1
0
LINE
5
AF
100
AcDbEntity
8
SK3
62
256
6
ByLayer
370
13
48
0.05
60
0
100
AcDbLine
10
92.1
20
11.75
30
0
11
82.1
21
11.75
31
0
39
0
210
0
220
0
230
1
0
LINE
5
B0
100
AcDbEntity
8
SK3
62
256
6
ByLayer
370
13
48
0.05
60
0
100
AcDbLine
10
100.288306
20
8
30
0
11
100.288306
21
-8
31
0
39
0
210
0
220
0
230
1
0
LINE
5
B1
100
AcDbEntity
8
SK3
62
256
6
ByLayer
370
13
48
0.05
60
0
100
AcDbLine
10
92.09577
20
9.839626
30
0
11
70.518936
21
6.8072
31
0
39
0
210
0
220
0
230
1
0
LINE
5
B2
100
AcDbEntity
8
SK3
62
256
6
ByLayer
370
13
48
0.05
60
0
100
AcDbLine
10
92.09577
20
-9.839626
30
0
11
93.2006
21
-10.4775
31
0
39
0
210
0
220
0
230
1
0
LINE
5
B3
100
AcDbEntity
8
SK3
62
256
6
ByLayer
370
13
48
0.05
60
0
100
AcDbLine
10
94.1
20
-9
30
0
11
95.3
21
-9
31
0
39
0
210
0
220
0
230
1
0
LINE
5
B4
100
AcDbEntity
8
SK3
62
256
6
ByLayer
370
13
48
0.05
60
0
100
AcDbLine
10
82.1
20
-11.75
30
0
11
92.1
21
-11.75
31
0
39
0
210
0
220
0
230
1
0
LINE
5
B5
100
AcDbEntity
8
SK3
62
256
6
ByLayer
370
13
48
0.05
60
0
100
AcDbLine
10
100.288306
20
8
30
0
11
95.3
21
10.88
31
0
39
0
210
0
220
0
230
1
0
LINE
5
B6
100
AcDbEntity
8
SK3
62
256
6
ByLayer
370
13
48
0.05
60
0
100
AcDbLine
10
82.1
20
-12.4333
30
0
11
91.9306
21
-12.4333
31
0
39
0
210
0
220
0
230
1
0
LINE
5
B7
100
AcDbEntity
8
SK3
62
256
6
ByLayer
370
13
48
0.05
60
0
100
AcDbLine
10
66.7084
20
-6.8072
30
0
11
70.518936
21
-6.8072
31
0
39
0
210
0
220
0
230
1
0
LINE
5
B8
100
AcDbEntity
8
SK3
62
256
6
ByLayer
370
13
48
0.05
60
0
100
AcDbLine
10
93.2006
20
-11.1633
30
0
11
93.2006
21
11.1633
31
0
39
0
210
0
220
0
230
1
0
LINE
5
B9
100
AcDbEntity
8
SK3
62
256
6
ByLayer
370
13
48
0.05
60
0
100
AcDbLine
10
66.7084
20
-6.8072
30
0
11
66.7084
21
6.8072
31
0
39
0
210
0
220
0
230
1
0
LINE
5
BA
100
AcDbEntity
8
1
62
256
6
ByLayer
370
18
48
1
60
0
100
AcDbLine
10
4
20
49.2
30
0
11
7.578163
21
49.2
31
0
39
0
210
0
220
0
230
1
0
LINE
5
BB
100
AcDbEntity
8
1
62
256
6
ByLayer
370
18
48
1
60
0
100
AcDbLine
10
14.621837
20
49.2
30
0
11
18.3
21
49.2
31
0
39
0
210
0
220
0
230
1
0
LINE
5
BC
100
AcDbEntity
8
1
62
256
6
ByLayer
370
18
48
1
60
0
100
AcDbLine
10
7.578163
20
49.2
30
0
11
9.1875
21
46.412547
31
0
39
0
210
0
220
0
230
1
0
LINE
5
BD
100
AcDbEntity
8
1
62
256
6
ByLayer
370
18
48
1
60
0
100
AcDbLine
10
13.0125
20
46.412547
30
0
11
14.621837
21
49.2
31
0
39
0
210
0
220
0
230
1
0
LINE
5
BE
100
AcDbEntity
8
1
62
256
6
ByLayer
370
18
48
1
60
0
100
AcDbLine
10
9.1875
20
45
30
0
11
13.0125
21
45
31
0
39
0
210
0
220
0
230
1
0
LINE
5
BF
100
AcDbEntity
8
SK1
62
256
6
ByLayer
370
18
48
1
60
0
100
AcDbLine
10
0.7
20
35.027084
30
0
11
-99.460771
21
20.420167
31
0
39
0
210
0
220
0
230
1
0
LINE
5
C1
100
AcDbEntity
8
1
62
256
6
ByLayer
370
18
48
1
60
0
100
AcDbLine
10
19.05
20
0
30
0
11
19.05
21
48.4
31
0
39
0
210
0
220
0
230
1
0
LINE
5
C2
100
AcDbEntity
8
SK1
62
256
6
ByLayer
370
18
48
1
60
0
100
AcDbLine
10
-101.6
20
0
30
0
11
-101.6
21
17.946335
31
0
39
0
210
0
220
0
230
1
0
LINE
5
C3
100
AcDbEntity
8
SK1
62
256
6
ByLayer
370
18
48
1
60
0
100
AcDbLine
10
-101.6
20
0
30
0
11
-101.6
21
-17.946335
31
0
39
0
210
0
220
0
230
1
0
LINE
5
C4
100
AcDbEntity
8
1
62
256
6
ByLayer
370
18
48
1
60
0
100
AcDbLine
10
19.05
20
0
30
0
11
19.05
21
-48.4
31
0
39
0
210
0
220
0
230
1
0
LINE
5
C5
100
AcDbEntity
8
SK1
62
256
6
ByLayer
370
18
48
1
60
0
100
AcDbLine
10
0.699999
20
-35.027084
30
0
11
-99.460771
21
-20.420167
31
0
39
0
210
0
220
0
230
1
0
LINE
5
C6
100
AcDbEntity
8
1
62
256
6
ByLayer
370
18
48
1
60
0
100
AcDbLine
10
3.18
20
0
30
0
11
3.18
21
-48.4
31
0
39
0
210
0
220
0
230
1
0
LINE
5
C7
100
AcDbEntity
8
1
62
256
6
ByLayer
370
18
48
1
60
0
100
AcDbLine
10
9.1875
20
-45
30
0
11
13.0125
21
-45
31
0
39
0
210
0
220
0
230
1
0
LINE
5
C8
100
AcDbEntity
8
1
62
256
6
ByLayer
370
18
48
1
60
0
100
AcDbLine
10
13.0125
20
-46.412547
30
0
11
14.621837
21
-49.2
31
0
39
0
210
0
220
0
230
1
0
LINE
5
C9
100
AcDbEntity
8
1
62
256
6
ByLayer
370
18
48
1
60
0
100
AcDbLine
10
7.578163
20
-49.2
30
0
11
9.1875
21
-46.412547
31
0
39
0
210
0
220
0
230
1
0
LINE
5
CA
100
AcDbEntity
8
1
62
256
6
ByLayer
370
18
48
1
60
0
100
AcDbLine
10
14.621837
20
-49.2
30
0
11
18.3
21
-49.2
31
0
39
0
210
0
220
0
230
1
0
LINE
5
CB
100
AcDbEntity
8
1
62
256
6
ByLayer
370
18
48
1
60
0
100
AcDbLine
10
4
20
-49.2
30
0
11
7.578163
21
-49.2
31
0
39
0
210
0
220
0
230
1
0
LINE
5
CC
100
AcDbEntity
8
1
62
256
6
ByLayer
370
18
48
1
60
0
100
AcDbLine
10
3.18
20
0
30
0
11
3.18
21
48.4
31
0
39
0
210
0
220
0
230
1
0
LINE
5
CD
100
AcDbEntity
8
1
62
256
6
ByLayer
370
13
48
0.05
60
0
100
AcDbLine
10
1.3E-05
20
-39.315393
30
0
11
1.3E-05
21
-32.260198
31
0
39
0
210
0
220
0
230
1
0
LINE
5
CE
100
AcDbEntity
8
1
62
256
6
ByLayer
370
13
48
0.05
60
0
100
AcDbLine
10
1.3E-05
20
31.55691
30
0
11
1.3E-05
21
38.159679
31
0
39
0
210
0
220
0
230
1
0
LINE
5
CF
100
AcDbEntity
8
1
62
256
6
ByLayer
370
18
48
1
60
0
100
AcDbLine
10
0.7
20
0
30
0
11
0.7
21
35.027084
31
0
39
0
210
0
220
0
230
1
0
LINE
5
D0
100
AcDbEntity
8
1
62
256
6
ByLayer
370
18
48
1
60
0
100
AcDbLine
10
2.6
20
34.727084
30
0
11
1.819615
21
34.727084
31
0
39
0
210
0
220
0
230
1
0
LINE
5
D1
100
AcDbEntity
8
1
62
256
6
ByLayer
370
18
48
1
60
0
100
AcDbLine
10
1.819615
20
34.727084
30
0
11
0.7
21
35.027084
31
0
39
0
210
0
220
0
230
1
0
LINE
5
D2
100
AcDbEntity
8
1
62
256
6
ByLayer
370
18
48
1
60
0
100
AcDbLine
10
1.819615
20
0
30
0
11
1.819615
21
34.727084
31
0
39
0
210
0
220
0
230
1
0
LINE
5
D3
100
AcDbEntity
8
1
62
256
6
ByLayer
370
18
48
1
60
0
100
AcDbLine
10
2.6
20
-34.727084
30
0
11
1.819615
21
-34.727084
31
0
39
0
210
0
220
0
230
1
0
LINE
5
D4
100
AcDbEntity
8
1
62
256
6
ByLayer
370
18
48
1
60
0
100
AcDbLine
10
1.819615
20
-34.727084
30
0
11
0.699999
21
-35.027084
31
0
39
0
210
0
220
0
230
1
0
LINE
5
D5
100
AcDbEntity
8
1
62
256
6
ByLayer
370
18
48
1
60
0
100
AcDbLine
10
1.819615
20
0
30
0
11
1.819615
21
-34.727084
31
0
39
0
210
0
220
0
230
1
0
LINE
5
D6
100
AcDbEntity
8
1
62
256
6
ByLayer
370
18
48
1
60
0
100
AcDbLine
10
0.7
20
0
30
0
11
0.7
21
-35.027084
31
0
39
0
210
0
220
0
230
1
0
LINE
5
D7
100
AcDbEntity
8
1
62
256
6
ByLayer
370
18
48
1
60
0
100
AcDbLine
10
3.98
20
49.2
30
0
11
3.18
21
48.4
31
0
39
0
210
0
220
0
230
1
0
LINE
5
D8
100
AcDbEntity
8
1
62
256
6
ByLayer
370
18
48
1
60
0
100
AcDbLine
10
19.05
20
48.4
30
0
11
18.25
21
49.2
31
0
39
0
210
0
220
0
230
1
0
LINE
5
D9
100
AcDbEntity
8
1
62
256
6
ByLayer
370
18
48
1
60
0
100
AcDbLine
10
3.18
20
-48.4
30
0
11
3.98
21
-49.2
31
0
39
0
210
0
220
0
230
1
0
LINE
5
DA
100
AcDbEntity
8
1
62
256
6
ByLayer
370
18
48
1
60
0
100
AcDbLine
10
19.05
20
-48.4
30
0
11
18.25
21
-49.2
31
0
39
0
210
0
220
0
230
1
0
LINE
5
DB
100
AcDbEntity
8
1
62
256
6
ByLayer
370
18
48
1
60
0
100
AcDbLine
10
71.515948
20
12.97051
30
0
11
71.250948
21
12.97051
31
0
39
0
210
0
220
0
230
1
0
LINE
5
DC
100
AcDbEntity
8
1
62
256
6
ByLayer
370
18
48
1
60
0
100
AcDbLine
10
71.515948
20
-12.97051
30
0
11
71.250948
21
-12.97051
31
0
39
0
210
0
220
0
230
1
0
LINE
5
DD
100
AcDbEntity
8
1
62
256
6
ByLayer
370
18
48
1
60
0
100
AcDbLine
10
24.100013
20
17.2975
30
0
11
37.150062
21
17.2975
31
0
39
0
210
0
220
0
230
1
0
LINE
5
DE
100
AcDbEntity
8
1
62
256
6
ByLayer
370
18
48
1
60
0
100
AcDbLine
10
24.100013
20
-17.2975
30
0
11
37.150062
21
-17.2975
31
0
39
0
210
0
220
0
230
1
0
LINE
5
DF
100
AcDbEntity
8
1
62
256
6
ByLayer
370
18
48
1
60
0
100
AcDbLine
10
48.250062
20
16.297391
30
0
11
48.250062
21
-16.25
31
0
39
0
210
0
220
0
230
1
0
LINE
5
E0
100
AcDbEntity
8
1
62
256
6
ByLayer
370
18
48
1
60
0
100
AcDbLine
10
48.650062
20
16.25
30
0
11
48.250062
21
16.25
31
0
39
0
210
0
220
0
230
1
0
LINE
5
E1
100
AcDbEntity
8
1
62
256
6
ByLayer
370
18
48
1
60
0
100
AcDbLine
10
65.5622
20
17.2974
30
0
11
49.050062
21
17.2974
31
0
39
0
210
0
220
0
230
1
0
LINE
5
E2
100
AcDbEntity
8
1
62
256
6
ByLayer
370
18
48
1
60
0
100
AcDbLine
10
48.650062
20
16.8974
30
0
11
48.650062
21
-16.8974
31
0
39
0
210
0
220
0
230
1
0
LINE
5
E3
100
AcDbEntity
8
1
62
256
6
ByLayer
370
18
48
1
60
0
100
AcDbLine
10
65.5622
20
-17.2974
30
0
11
49.050062
21
-17.2974
31
0
39
0
210
0
220
0
230
1
0
LINE
5
E4
100
AcDbEntity
8
SK4
62
256
6
ByLayer
370
13
48
0.05
60
0
100
AcDbLine
10
-107.689951
20
0
30
0
11
113.005763
21
0
31
0
39
0
210
0
220
0
230
1
0
LINE
5
E6
100
AcDbEntity
8
81
62
256
6
ByLayer
370
13
48
1
60
0
100
AcDbLine
10
93.2
20
0
30
0
11
99.2
21
0
31
0
39
0
210
0
220
0
230
1
0
LINE
5
E7
100
AcDbEntity
8
1
62
256
6
ByLayer
370
18
48
1
60
0
100
AcDbLine
10
37.550062
20
16.897496
30
0
11
37.550062
21
-16.8975
31
0
39
0
210
0
220
0
230
1
0
LINE
5
E8
100
AcDbEntity
8
4
62
256
6
ByLayer
370
13
48
0.05
60
0
100
AcDbLine
10
0
20
0
30
0
11
93.2006
21
0
31
0
39
0
210
0
220
0
230
1
0
LINE
5
EA
100
AcDbEntity
8
SK3
62
256
6
ByLayer
370
13
48
0.05
60
0
100
AcDbLine
10
3.18
20
37.5
30
0
11
19.05
21
37.5
31
0
39
0
210
0
220
0
230
1
0
LINE
5
EB
100
AcDbEntity
8
SK3
62
256
6
ByLayer
370
13
48
0.05
60
0
100
AcDbLine
10
3.18
20
-35.1
30
0
11
19.05
21
-35.1
31
0
39
0
210
0
220
0
230
1
0
LINE
5
EC
100
AcDbEntity
8
1
62
256
6
ByLayer
370
18
48
1
60
0
100
AcDbLine
10
4
20
49.2
30
0
11
4
21
0
31
0
39
0
210
0
220
0
230
1
0
LINE
5
ED
100
AcDbEntity
8
1
62
256
6
ByLayer
370
18
48
1
60
0
100
AcDbLine
10
7.578163
20
49.2
30
0
11
7.578163
21
0
31
0
39
0
210
0
220
0
230
1
0
LINE
5
EE
100
AcDbEntity
8
1
62
256
6
ByLayer
370
18
48
1
60
0
100
AcDbLine
10
9.1875
20
46.412547
30
0
11
9.1875
21
0
31
0
39
0
210
0
220
0
230
1
0
LINE
5
EF
100
AcDbEntity
8
1
62
256
6
ByLayer
370
18
48
1
60
0
100
AcDbLine
10
13.0125
20
46.412547
30
0
11
13.0125
21
0
31
0
39
0
210
0
220
0
230
1
0
LINE
5
F0
100
AcDbEntity
8
1
62
256
6
ByLayer
370
18
48
1
60
0
100
AcDbLine
10
14.621837
20
0
30
0
11
14.621837
21
49.2
31
0
39
0
210
0
220
0
230
1
0
LINE
5
F1
100
AcDbEntity
8
1
62
256
6
ByLayer
370
18
48
1
60
0
100
AcDbLine
10
18.25
20
0
30
0
11
18.25
21
49.2
31
0
39
0
210
0
220
0
230
1
0
LINE
5
F2
100
AcDbEntity
8
1
62
256
6
ByLayer
370
18
48
1
60
0
100
AcDbLine
10
18.25
20
0
30
0
11
18.25
21
-49.2
31
0
39
0
210
0
220
0
230
1
0
LINE
5
F3
100
AcDbEntity
8
1
62
256
6
ByLayer
370
18
48
1
60
0
100
AcDbLine
10
14.621837
20
0
30
0
11
14.621837
21
-49.2
31
0
39
0
210
0
220
0
230
1
0
LINE
5
F4
100
AcDbEntity
8
1
62
256
6
ByLayer
370
18
48
1
60
0
100
AcDbLine
10
13.0125
20
-46.412547
30
0
11
13.0125
21
0
31
0
39
0
210
0
220
0
230
1
0
LINE
5
F5
100
AcDbEntity
8
1
62
256
6
ByLayer
370
18
48
1
60
0
100
AcDbLine
10
9.1875
20
-46.412547
30
0
11
9.1875
21
0
31
0
39
0
210
0
220
0
230
1
0
LINE
5
F6
100
AcDbEntity
8
1
62
256
6
ByLayer
370
18
48
1
60
0
100
AcDbLine
10
7.578163
20
-49.2
30
0
11
7.578163
21
0
31
0
39
0
210
0
220
0
230
1
0
LINE
5
F7
100
AcDbEntity
8
1
62
256
6
ByLayer
370
18
48
1
60
0
100
AcDbLine
10
4
20
-49.2
30
0
11
4
21
0
31
0
39
0
210
0
220
0
230
1
0
LINE
5
F8
100
AcDbEntity
8
3
62
256
6
ByLayer
370
13
48
0.05
60
0
100
AcDbLine
10
82.1
20
-12.4333
30
0
11
91.9306
21
-12.4333
31
0
39
0
210
0
220
0
230
1
0
LINE
5
FA
100
AcDbEntity
8
3
62
256
6
ByLayer
370
13
48
0.05
60
0
100
AcDbLine
10
82.1
20
12.4333
30
0
11
91.9306
21
12.4333
31
0
39
0
210
0
220
0
230
1
0
LINE
5
FB
100
AcDbEntity
8
3
62
256
6
ByLayer
370
13
48
0.05
60
0
100
AcDbLine
10
91.9306
20
12.4333
30
0
11
93.2006
21
11.1633
31
0
39
0
210
0
220
0
230
1
0
LINE
5
FC
100
AcDbEntity
8
3
62
256
6
ByLayer
370
13
48
0.05
60
0
100
AcDbLine
10
93.2006
20
-11.1633
30
0
11
91.9306
21
-12.4333
31
0
39
0
210
0
220
0
230
1
0
LINE
5
FD
100
AcDbEntity
8
3
62
256
6
ByLayer
370
13
48
0.05
60
0
100
AcDbLine
10
93.2006
20
-11.1633
30
0
11
93.2006
21
-9.9949
31
0
39
0
210
0
220
0
230
1
0
LINE
5
FE
100
AcDbEntity
8
3
62
256
6
ByLayer
370
13
48
0.05
60
0
100
AcDbLine
10
93.2006
20
9.9949
30
0
11
93.2006
21
11.1633
31
0
39
0
210
0
220
0
230
1
0
LINE
5
FF
100
AcDbEntity
8
1
62
256
6
ByLayer
370
18
48
0.05
60
0
100
AcDbLine
10
88
20
16.85
30
0
11
99.2
21
16.85
31
0
39
0
210
0
220
0
230
1
0
LINE
5
100
100
AcDbEntity
8
1
62
256
6
ByLayer
370
18
48
0.05
60
0
100
AcDbLine
10
99.2
20
-16.85
30
0
11
88
21
-16.85
31
0
39
0
210
0
220
0
230
1
0
LINE
5
101
100
AcDbEntity
8
SK3
62
256
6
ByLayer
370
13
48
0.05
60
0
100
AcDbLine
10
101.2
20
8
30
0
11
100.288306
21
8
31
0
39
0
210
0
220
0
230
1
0
LINE
5
102
100
AcDbEntity
8
SK3
62
256
6
ByLayer
370
13
48
0.05
60
0
100
AcDbLine
10
100.288306
20
-8
30
0
11
101.2
21
-8
31
0
39
0
210
0
220
0
230
1
0
LINE
5
103
100
AcDbEntity
8
1
62
256
6
ByLayer
370
18
48
1
60
0
100
AcDbLine
10
83
20
-16.85
30
0
11
99.2
21
-16.85
31
0
39
0
210
0
220
0
230
1
0
LINE
5
104
100
AcDbEntity
8
1
62
256
6
ByLayer
370
18
48
1
60
0
100
AcDbLine
10
83
20
16.85
30
0
11
99.2
21
16.85
31
0
39
0
210
0
220
0
230
1
0
LINE
5
105
100
AcDbEntity
8
1
62
256
6
ByLayer
370
18
48
1
60
0
100
AcDbLine
10
70.7434
20
-15.4813
30
0
11
65.9432
21
-15.4813
31
0
39
0
210
0
220
0
230
1
0
LINE
5
106
100
AcDbEntity
8
1
62
256
6
ByLayer
370
18
48
1
60
0
100
AcDbLine
10
70.7434
20
15.4813
30
0
11
65.9432
21
15.4813
31
0
39
0
210
0
220
0
230
1
0
MTEXT
5
114
100
AcDbEntity
8
SK6
62
256
6
ByLayer
370
18
48
1
60
0
100
AcDbMText
10
31.328963
20
-38.158531
30
0
210
0
220
0
230
1
1
\W0.7214;970-V50-20-106
40
3.5
41
0
44
1.084337
50
0
71
7
72
5
7
iso_b_vert
0
DIMENSION
5
122
100
AcDbEntity
8
SK2
62
256
6
ByLayer
370
13
48
1
60
0
100
AcDbDimension
2
DimnDraft3D1
10
101.2
20
70.896081
30
0
11
46.709658
21
70.896081
31
0
70
32
71
5
72
1
41
1
210
0
220
0
230
1
3
Standard
100
AcDbAlignedDimension
13
1.3E-05
23
39.747179
33
0
14
101.2
24
14.973398
34
0
50
0
100
AcDbRotatedDimension
1001
ACAD
1000
DSTYLE
1002
{
1070
   279
1070
     0
1070
   172
1070
     1
1070
   173
1070
     1
1070
   340
1005
115
1070
   271
1070
     3
1070
   272
1070
     3
1070
    77
1070
     1
1070
    73
1070
     0
1070
   171
1070
     4
1070
   274
1070
     4
1070
   177
1070
     7
1070
   176
1070
     7
1070
   178
1070
     7
1070
    78
1070
     8
1070
    48
1040
-0.005
1070
    41
1041
3.175
1070
   147
1041
1.500003
1070
    42
1041
1.5875
1070
    44
1041
3.175
1070
   140
1041
3.000007
1070
   343
1005
0
1070
   344
1005
0
1002
}
0
DIMENSION
5
12C
100
AcDbEntity
8
SK2
62
256
6
ByLayer
370
13
48
1
60
0
100
AcDbDimension
2
DimnDraft3D2
10
101.2
20
31.037621
30
0
11
90.283569
21
31.037621
31
0
70
32
71
5
72
1
41
1
210
0
220
0
230
1
3
Standard
100
AcDbAlignedDimension
13
82.2
23
17.6375
33
0
14
101.2
24
14.973398
34
0
50
0
100
AcDbRotatedDimension
1001
ACAD
1000
DSTYLE
1002
{
1070
   279
1070
     0
1070
   172
1070
     1
1070
   173
1070
     1
1070
   340
1005
115
1070
   271
1070
     3
1070
   272
1070
     3
1070
    77
1070
     1
1070
    73
1070
     0
1070
   171
1070
     4
1070
   274
1070
     4
1070
   177
1070
     7
1070
   176
1070
     7
1070
   178
1070
     7
1070
    78
1070
     8
1070
    48
1040
-0.005
1070
    41
1041
3.175
1070
   147
1041
1.500003
1070
    42
1041
1.5875
1070
    44
1041
3.175
1070
   140
1041
3.000007
1070
   343
1005
0
1070
   344
1005
0
1002
}
0
DIMENSION
5
136
100
AcDbEntity
8
SK2
62
256
6
ByLayer
370
13
48
1
60
0
100
AcDbDimension
2
DimnDraft3D3
10
65.9432
20
42.003972
30
0
11
80.052051
21
42.003972
31
0
70
32
71
5
72
1
41
1
210
0
220
0
230
1
3
Standard
100
AcDbAlignedDimension
13
101.2
23
14.973398
33
0
14
65.9432
24
18.5039
34
0
50
0
100
AcDbRotatedDimension
1001
ACAD
1000
DSTYLE
1002
{
1070
   279
1070
     0
1070
   172
1070
     1
1070
   173
1070
     1
1070
   340
1005
115
1070
   271
1070
     1
1070
   272
1070
     3
1070
    77
1070
     1
1070
    73
1070
     0
1070
   171
1070
     4
1070
   274
1070
     4
1070
   177
1070
     7
1070
   176
1070
     7
1070
   178
1070
     7
1070
    78
1070
     8
1070
    48
1040
-0.005
1070
    41
1041
3.175
1070
   147
1041
1.500003
1070
    42
1041
1.5875
1070
    44
1041
3.175
1070
   140
1041
3.000007
1070
   343
1005
0
1070
   344
1005
0
1002
}
0
DIMENSION
5
140
100
AcDbEntity
8
SK2
62
256
6
ByLayer
370
13
48
1
60
0
100
AcDbDimension
2
DimnDraft3D4
10
117.652769
20
-8
30
0
11
117.652769
21
11.858755
31
0
70
32
71
5
72
1
41
1
210
0
220
0
230
1
3
Standard
100
AcDbAlignedDimension
13
102.7875
23
8
33
0
14
102.7875
24
-8
34
0
50
90
100
AcDbRotatedDimension
1001
ACAD
1000
DSTYLE
1002
{
1070
    74
1070
     0
1070
   279
1070
     0
1070
   172
1070
     1
1070
   173
1070
     1
1070
   340
1005
115
1070
   271
1070
     3
1070
   272
1070
     3
1070
    77
1070
     1
1070
    73
1070
     0
1070
   171
1070
     4
1070
   274
1070
     4
1070
   177
1070
     7
1070
   176
1070
     7
1070
   178
1070
     7
1070
    78
1070
     8
1070
    48
1040
-0.005
1070
    41
1041
3.175
1070
   147
1041
1.500003
1070
    42
1041
1.5875
1070
    44
1041
3.175
1070
   140
1041
3.000007
1070
   343
1005
0
1070
   344
1005
0
1002
}
0
DIMENSION
5
14A
100
AcDbEntity
8
SK2
62
256
6
ByLayer
370
13
48
1
60
0
100
AcDbDimension
2
DimnDraft3D5
10
129.994556
20
16.85
30
0
11
129.994556
21
-5.879496
31
0
70
32
71
5
72
1
41
1
210
0
220
0
230
1
3
Standard
100
AcDbAlignedDimension
13
100.7875
23
-16.85
33
0
14
100.7875
24
16.85
34
0
50
90
100
AcDbRotatedDimension
1001
ACAD
1000
DSTYLE
1002
{
1070
    74
1070
     0
1070
   279
1070
     0
1070
   172
1070
     1
1070
   173
1070
     1
1070
   340
1005
115
1070
   271
1070
     0
1070
   272
1070
     3
1070
    77
1070
     1
1070
    73
1070
     0
1070
   171
1070
     4
1070
   274
1070
     4
1070
   177
1070
     7
1070
   176
1070
     7
1070
   178
1070
     7
1070
    78
1070
     8
1070
    48
1040
-0.005
1070
    41
1041
3.175
1070
   147
1041
1.500003
1070
    42
1041
1.5875
1070
    44
1041
3.175
1070
   140
1041
3.000007
1070
   343
1005
0
1070
   344
1005
0
1002
}
0
DIMENSION
5
158
100
AcDbEntity
8
SK2
62
256
6
ByLayer
370
13
48
1
60
0
100
AcDbDimension
2
DimnDraft3D6
10
1.3E-05
20
71.087559
30
0
11
-54.593414
21
71.087559
31
0
70
32
71
5
72
1
41
1
210
0
220
0
230
1
3
Standard
100
AcDbAlignedDimension
13
-101.6
23
19.446335
33
0
14
1.3E-05
24
39.659679
34
0
50
0
100
AcDbRotatedDimension
1001
ACAD
1000
DSTYLE
1002
{
1070
   279
1070
     0
1070
   173
1070
     1
1070
   340
1005
115
1070
   271
1070
     1
1070
   272
1070
     2
1070
    77
1070
     1
1070
    73
1070
     0
1070
   171
1070
     4
1070
   274
1070
     4
1070
   177
1070
     7
1070
   176
1070
     7
1070
   178
1070
     7
1070
    41
1041
3.0
1070
   147
1041
1.5
1070
    42
1041
1.5
1070
    44
1041
3.0
1070
   140
1041
3.0
1070
   343
1005
159
1070
   344
1005
159
1002
}
0
DIMENSION
5
16D
100
AcDbEntity
8
SK2
62
256
6
ByLayer
370
13
48
1
60
0
100
AcDbDimension
2
DimnDraft3D7
10
-116.982225
20
49.2
30
0
11
-116.982225
21
-5.921053
31
0
70
32
71
5
72
1
41
1
210
0
220
0
230
1
3
Standard
100
AcDbAlignedDimension
13
2.5
23
-49.2
33
0
14
2.5
24
49.2
34
0
50
90
100
AcDbRotatedDimension
1001
ACAD
1000
DSTYLE
1002
{
1070
    74
1070
     0
1070
   279
1070
     0
1070
   173
1070
     1
1070
   340
1005
115
1070
   271
1070
     2
1070
   272
1070
     2
1070
    77
1070
     1
1070
    73
1070
     0
1070
   171
1070
     4
1070
   274
1070
     4
1070
   177
1070
     7
1070
   176
1070
     7
1070
   178
1070
     7
1070
    41
1041
3.0
1070
   147
1041
1.5
1070
    42
1041
1.5
1070
    44
1041
3.0
1070
   140
1041
3.0
1070
   343
1005
159
1070
   344
1005
159
1002
}
0
DIMENSION
5
17B
100
AcDbEntity
8
SK2
62
256
6
ByLayer
370
13
48
1
60
0
100
AcDbDimension
2
DimnDraft3D8
10
-9.865666
20
40.620955
30
0
11
-9.865666
21
7.152953
31
0
70
32
71
5
72
1
41
1
210
0
220
0
230
1
3
Standard
100
AcDbAlignedDimension
13
-1.299025
23
-34.175002
33
0
14
-1.299025
24
35.675002
34
0
50
90
100
AcDbRotatedDimension
1001
ACAD
1000
DSTYLE
1002
{
1070
    74
1070
     0
1070
   279
1070
     0
1070
   173
1070
     1
1070
   340
1005
115
1070
   271
1070
     2
1070
   272
1070
     2
1070
    77
1070
     1
1070
    73
1070
     0
1070
   171
1070
     4
1070
   274
1070
     4
1070
   177
1070
     7
1070
   176
1070
     7
1070
   178
1070
     7
1070
    41
1041
3.0
1070
   147
1041
1.5
1070
    42
1041
1.5
1070
    44
1041
3.0
1070
   140
1041
3.0
1070
   343
1005
159
1070
   344
1005
159
1002
}
0
DIMENSION
5
185
100
AcDbEntity
8
SK2
62
256
6
ByLayer
370
13
48
1
60
0
100
AcDbDimension
2
DimnDraft3D9
10
19.05
20
59.491551
30
0
11
5.257892
21
59.491551
31
0
70
32
71
5
72
1
41
1
210
0
220
0
230
1
3
Standard
100
AcDbAlignedDimension
13
1.3E-05
23
39.747179
33
0
14
19.05
24
49.9875
34
0
50
0
100
AcDbRotatedDimension
1001
ACAD
1000
DSTYLE
1002
{
1070
   279
1070
     0
1070
   172
1070
     1
1070
   173
1070
     1
1070
   340
1005
115
1070
   271
1070
     3
1070
   272
1070
     3
1070
    77
1070
     1
1070
    73
1070
     0
1070
   171
1070
     4
1070
   274
1070
     4
1070
   177
1070
     7
1070
   176
1070
     7
1070
   178
1070
     7
1070
    78
1070
     8
1070
    48
1040
-0.005
1070
    41
1041
3.175
1070
   147
1041
1.500003
1070
    42
1041
1.5875
1070
    44
1041
3.175
1070
   140
1041
3.000007
1070
   343
1005
0
1070
   344
1005
0
1002
}
0
DIMENSION
5
18E
100
AcDbEntity
8
SK2
62
256
6
ByLayer
370
13
48
1
60
0
100
AcDbDimension
2
DimnDraft3D10
10
57.15906
20
-5.692118
30
0
11
56.409059
21
2.107899
31
0
70
33
71
5
72
1
41
1
210
0
220
0
230
1
3
Standard
100
AcDbAlignedDimension
13
65.5622
23
-17.2974
33
0
14
49.050062
24
17.2974
34
0
1001
ACAD
1000
DSTYLE
1002
{
1070
   279
1070
     0
1070
    74
1070
     0
1070
   173
1070
     1
1070
   340
1005
115
1070
   271
1070
     0
1070
   272
1070
     3
1070
    77
1070
     1
1070
    73
1070
     0
1070
   171
1070
     4
1070
   274
1070
     4
1070
   177
1070
     7
1070
   176
1070
     7
1070
   178
1070
     7
1070
    78
1070
     8
1070
    48
1040
-0.005
1070
    41
1041
3.175
1070
   147
1041
1.500003
1070
    42
1041
1.5875
1070
    44
1041
3.175
1070
   140
1041
3.000007
1070
   343
1005
0
1070
   344
1005
0
1002
}
0
DIMENSION
5
199
100
AcDbEntity
8
2
62
256
6
ByLayer
370
13
48
1
60
0
100
AcDbDimension
2
DimnDraft3D11
10
93.2006
20
-57.347014
30
0
11
43.079246
21
-57.347014
31
0
70
32
71
5
72
1
41
1
210
0
220
0
230
1
3
Standard
100
AcDbAlignedDimension
13
1.3E-05
23
-40.902893
33
0
14
93.2006
24
-12.7508
34
0
50
0
100
AcDbRotatedDimension
1001
ACAD
1000
DSTYLE
1002
{
1070
   279
1070
     0
1070
   172
1070
     1
1070
   173
1070
     1
1070
   340
1005
115
1070
   271
1070
     1
1070
   272
1070
     3
1070
    77
1070
     1
1070
    73
1070
     0
1070
   171
1070
     4
1070
   274
1070
     4
1070
   177
1070
     7
1070
   176
1070
     7
1070
   178
1070
     7
1070
    78
1070
     8
1070
    48
1040
-0.005
1070
    41
1041
3.175
1070
   147
1041
1.500003
1070
    42
1041
1.5875
1070
    44
1041
3.175
1070
   140
1041
3.000007
1070
   343
1005
0
1070
   344
1005
0
1002
}
0
ENDSEC
0
SECTION
2
OBJECTS
0
DICTIONARY
5
207
330
0
100
AcDbDictionary
280
0
281
1
3
ACAD_GROUP
350
208
3
ACAD_GROUP
350
209
3
ACAD_MLINESTYLE
350
20a
0
DICTIONARY
5
208
330
0
100
AcDbDictionary
280
0
281
1
0
DICTIONARY
5
209
330
0
100
AcDbDictionary
280
0
281
1
3
<112004407MOD000_01>
350
1A2
0
DICTIONARY
5
20a
330
0
100
AcDbDictionary
280
0
281
1
3
Standard
350
18
0
GROUP
5
1A2
330
209
100
AcDbGroup
300

70
0
71
1
340
6C
340
6E
340
70
340
72
340
73
340
74
340
75
340
76
340
77
340
78
340
79
340
7A
340
7B
340
7C
340
7D
340
7E
340
7F
340
80
340
81
340
82
340
83
340
84
340
85
340
86
340
87
340
88
340
89
340
8A
340
8B
340
8C
340
8D
340
8E
340
8F
340
90
340
91
340
92
340
93
340
94
340
95
340
96
340
97
340
98
340
99
340
9A
340
9B
340
9C
340
9D
340
9E
340
9F
340
A0
340
A1
340
A2
340
A3
340
A4
340
A5
340
A7
340
A8
340
A9
340
AA
340
AB
340
AC
340
AD
340
AE
340
AF
340
B0
340
B1
340
B2
340
B3
340
B4
340
B5
340
B6
340
B7
340
B8
340
B9
340
BA
340
BB
340
BC
340
BD
340
BE
340
BF
340
C1
340
C2
340
C3
340
C4
340
C5
340
C6
340
C7
340
C8
340
C9
340
CA
340
CB
340
CC
340
CD
340
CE
340
CF
340
D0
340
D1
340
D2
340
D3
340
D4
340
D5
340
D6
340
D7
340
D8
340
D9
340
DA
340
DB
340
DC
340
DD
340
DE
340
DF
340
E0
340
E1
340
E2
340
E3
340
E4
340
E6
340
E7
340
E8
340
EA
340
EB
340
EC
340
ED
340
EE
340
EF
340
F0
340
F1
340
F2
340
F3
340
F4
340
F5
340
F6
340
F7
340
F8
340
FA
340
FB
340
FC
340
FD
340
FE
340
FF
340
100
340
101
340
102
340
103
340
104
340
105
340
106
340
107
340
108
340
109
340
10A
340
10B
340
10C
340
10D
340
10E
340
10F
340
110
340
111
340
112
340
113
340
114
340
122
340
12C
340
136
340
140
340
14A
340
158
340
16D
340
17B
340
185
340
18E
340
199
0
MLINESTYLE
5
18
330
20a
100
AcDbMlineStyle
2
Standard
70
0
3

62
256
51
90
52
90
71
2
49
-0.5
62
256
6
ByLayer
49
0.5
62
256
6
ByLayer
0
RASTERVARIABLES
5
1f3
330

100
AcDbRasterVariables
90
0
70
1
71
1
72
1
0
ENDSEC
0
EOF
