0
SECTION
2
HEADER
9
$ACADVER
1
AC1015
9
$DWGCODEPAGE
3
ANSI_1252
9
$HANDSEED
5
222
9
$ANGBASE
50
0
9
$ANGDIR
70
0
9
$ATTMODE
70
1
9
$AUNITS
70
0
9
$AUPREC
70
0
9
$CECOLOR
62
256
9
$CELTSCALE
40
1
9
$CELTYPE
6
ByLayer
9
$CELWEIGHT
370
18
9
$CLAYER
8
0
9
$CMLJUST
70
0
9
$CMLSCALE
40
1
9
$CMLSTYLE
2
Standard
9
$DIMSTYLE
2
Standard
9
$TEXTSIZE
40
0.2
9
$TEXTSTYLE
7
Standard
9
$LUNITS
70
2
9
$LUPREC
70
4
9
$EXTNAMES
290
1
9
$INSUNITS
70
4
9
$LTSCALE
40
1
9
$LWDISPLAY
290
1
9
$PDMODE
70
0
9
$PDSIZE
40
0
9
$PLINEGEN
70
0
0
ENDSEC
0
SECTION
2
CLASSES
0
CLASS
1
RASTERVARIABLES
2
AcDbRasterVariables
3
ISM
90
0
280
0
281
0
0
ENDSEC
0
SECTION
2
TABLES
0
TABLE
2
VPORT
5
218
100
AcDbSymbolTable
0
VPORT
5
1
100
AcDbSymbolTableRecord
100
AcDbViewportTableRecord
2
*Active
70
0
10
0
20
0
11
1
21
1
12
-1
22
1
13
0
23
0
14
0.5
24
0.5
15
10
25
10
16
0
26
0
36
1
17
0
27
0
37
0
0
ENDTAB
0
TABLE
2
LTYPE
5
219
100
AcDbSymbolTable
0
LTYPE
5
14
100
AcDbSymbolTableRecord
100
AcDbLinetypeTableRecord
70
0
2
ByBlock
3

72
65
73
0
40
0
0
LTYPE
5
15
100
AcDbSymbolTableRecord
100
AcDbLinetypeTableRecord
70
0
2
ByLayer
3

72
65
73
0
40
0
0
LTYPE
5
16
100
AcDbSymbolTableRecord
100
AcDbLinetypeTableRecord
70
0
2
CONTINUOUS
3
Solid line
72
65
73
0
40
0
0
LTYPE
5
6A
100
AcDbSymbolTableRecord
100
AcDbLinetypeTableRecord
70
0
2
CENTER
3
____ _ ____ _ ____ _ ____
72
65
73
4
40
47.5
49
22
74
0
49
-8.5
74
0
49
8.5
74
0
49
-8.5
74
0
0
LTYPE
5
6B
100
AcDbSymbolTableRecord
100
AcDbLinetypeTableRecord
70
0
2
DASHED
3
__ __ __ __ __ __ __ __ __
72
65
73
2
40
25.72
49
12.86
74
0
49
-12.86
74
0
0
ENDTAB
0
TABLE
2
LAYER
5
21a
100
AcDbSymbolTable
0
LAYER
5
10
100
AcDbSymbolTableRecord
100
AcDbLayerTableRecord
2
0
70
0
62
7
6
CONTINUOUS
290
1
370
-3
390
0
0
LAYER
5
6D
100
AcDbSymbolTableRecord
100
AcDbLayerTableRecord
2
81
70
0
62
-3
6
CONTINUOUS
290
1
370
-3
390
0
0
LAYER
5
6F
100
AcDbSymbolTableRecord
100
AcDbLayerTableRecord
2
80
70
0
62
-6
6
CONTINUOUS
290
1
370
-3
390
0
0
LAYER
5
76
100
AcDbSymbolTableRecord
100
AcDbLayerTableRecord
2
1
70
0
62
4
6
CONTINUOUS
290
1
370
-3
390
0
0
LAYER
5
EB
100
AcDbSymbolTableRecord
100
AcDbLayerTableRecord
2
4
70
0
62
-2
6
CENTER
290
1
370
-3
390
0
0
LAYER
5
FC
100
AcDbSymbolTableRecord
100
AcDbLayerTableRecord
2
3
70
0
62
1
6
DASHED
290
1
370
-3
390
0
0
LAYER
5
19E
100
AcDbSymbolTableRecord
100
AcDbLayerTableRecord
2
2
70
0
62
7
6
CONTINUOUS
290
1
370
-3
390
0
0
LAYER
5
201
100
AcDbSymbolTableRecord
100
AcDbLayerTableRecord
2
SK3
70
0
62
1
6
DASHED
290
1
370
-3
390
0
0
LAYER
5
202
100
AcDbSymbolTableRecord
100
AcDbLayerTableRecord
2
SK1
70
0
62
4
6
CONTINUOUS
290
1
370
-3
390
0
0
LAYER
5
203
100
AcDbSymbolTableRecord
100
AcDbLayerTableRecord
2
SK4
70
0
62
2
6
CENTER
290
1
370
-3
390
0
0
LAYER
5
204
100
AcDbSymbolTableRecord
100
AcDbLayerTableRecord
2
SK6
70
0
62
5
6
CONTINUOUS
290
1
370
-3
390
0
0
LAYER
5
205
100
AcDbSymbolTableRecord
100
AcDbLayerTableRecord
2
SK2
70
0
62
7
6
CONTINUOUS
290
1
370
-3
390
0
0
ENDTAB
0
TABLE
2
STYLE
5
21b
100
AcDbSymbolTable
0
STYLE
5
11
100
AcDbSymbolTableRecord
100
AcDbTextStyleTableRecord
2
Standard
3
txt
70
0
71
0
40
0
41
1
42
0
50
0
0
STYLE
5
122
100
AcDbSymbolTableRecord
100
AcDbTextStyleTableRecord
2
iso_b_vert
3
simplex.shx
70
0
71
0
40
0
41
1
42
0
50
0
0
STYLE
5
123
100
AcDbSymbolTableRecord
100
AcDbTextStyleTableRecord
2
DWGDirectTextStyle
3
simplex
70
0
71
0
40
0
41
1
42
0
50
0
0
ENDTAB
0
TABLE
2
DIMSTYLE
5
21c
100
AcDbSymbolTable
100
AcDbDimStyleTable
0
DIMSTYLE
105
27
100
AcDbSymbolTableRecord
100
AcDbDimStyleTableRecord
2
Standard
70
0
3
<>
41
0.18
42
0.0625
44
0.18
140
0.18
147
0.09
73
0
74
0
77
1
271
2
275
0
278
52
280
0
340
11
0
ENDTAB
0
TABLE
2
VIEW
5
21d
100
AcDbSymbolTable
0
ENDTAB
0
TABLE
2
UCS
5
21e
100
AcDbSymbolTable
0
ENDTAB
0
TABLE
2
APPID
5
21f
100
AcDbSymbolTable
0
APPID
5
12
100
AcDbSymbolTableRecord
100
AcDbRegAppTableRecord
2
ACAD
70
0
0
ENDTAB
0
TABLE
2
BLOCK_RECORD
5
220
100
AcDbSymbolTable
0
BLOCK_RECORD
5
1F
100
AcDbSymbolTableRecord
100
AcDbBlockTableRecord
2
*Model_Space
340
0
70
0
0
BLOCK_RECORD
5
1B
100
AcDbSymbolTableRecord
100
AcDbBlockTableRecord
2
*Paper_Space
340
0
70
0
0
BLOCK_RECORD
5
23
100
AcDbSymbolTableRecord
100
AcDbBlockTableRecord
2
*Paper_Space0
340
0
70
0
0
BLOCK_RECORD
5
125
100
AcDbSymbolTableRecord
100
AcDbBlockTableRecord
2
DimnDraft3D1
340
0
70
0
0
BLOCK_RECORD
5
130
100
AcDbSymbolTableRecord
100
AcDbBlockTableRecord
2
DimnDraft3D2
340
0
70
0
0
BLOCK_RECORD
5
13A
100
AcDbSymbolTableRecord
100
AcDbBlockTableRecord
2
DimnDraft3D3
340
0
70
0
0
BLOCK_RECORD
5
144
100
AcDbSymbolTableRecord
100
AcDbBlockTableRecord
2
DimnDraft3D4
340
0
70
0
0
BLOCK_RECORD
5
14F
100
AcDbSymbolTableRecord
100
AcDbBlockTableRecord
2
DimnDraft3D5
340
0
70
0
0
BLOCK_RECORD
5
157
100
AcDbSymbolTableRecord
100
AcDbBlockTableRecord
2
DimnDraft3D6
340
0
70
0
0
BLOCK_RECORD
5
161
100
AcDbSymbolTableRecord
100
AcDbBlockTableRecord
2
DimnDraft3D7
340
0
70
0
0
BLOCK_RECORD
5
16F
100
AcDbSymbolTableRecord
100
AcDbBlockTableRecord
2
_CLOSED
340
0
70
0
0
BLOCK_RECORD
5
176
100
AcDbSymbolTableRecord
100
AcDbBlockTableRecord
2
DimnDraft3D8
340
0
70
0
0
BLOCK_RECORD
5
184
100
AcDbSymbolTableRecord
100
AcDbBlockTableRecord
2
DimnDraft3D9
340
0
70
0
0
BLOCK_RECORD
5
192
100
AcDbSymbolTableRecord
100
AcDbBlockTableRecord
2
DimnDraft3D10
340
0
70
0
0
BLOCK_RECORD
5
19C
100
AcDbSymbolTableRecord
100
AcDbBlockTableRecord
2
DimnDraft3D11
340
0
70
0
0
ENDTAB
0
ENDSEC
0
SECTION
2
BLOCKS
0
BLOCK
5
20
100
AcDbEntity
8
0
100
AcDbBlockBegin
2
*Model_Space
70
0
10
0
20
0
30
0
3
*Model_Space
0
ENDBLK
5
21
100
AcDbEntity
8
0
100
AcDbBlockEnd
0
BLOCK
5
1C
100
AcDbEntity
8
0
100
AcDbBlockBegin
2
*Paper_Space
70
0
10
0
20
0
30
0
3
*Paper_Space
0
ENDBLK
5
1D
100
AcDbEntity
8
0
100
AcDbBlockEnd
0
BLOCK
5
24
100
AcDbEntity
8
0
100
AcDbBlockBegin
2
*Paper_Space0
70
0
10
0
20
0
30
0
3
*Paper_Space0
0
ENDBLK
5
25
100
AcDbEntity
8
0
100
AcDbBlockEnd
0
BLOCK
5
12D
100
AcDbEntity
8
0
100
AcDbBlockBegin
2
DimnDraft3D1
70
0
10
0
20
0
30
0
3
DimnDraft3D1
0
MTEXT
5
126
100
AcDbEntity
8
SK2
62
256
6
ByLayer
370
18
48
1
60
0
100
AcDbMText
10
105.558627
20
33.945603
30
0
210
0
220
0
230
1
1
\W0.6337;20
40
3.000007
41
0
44
1.084337
50
0
71
7
72
5
7
iso_b_vert
0
LINE
5
128
100
AcDbEntity
8
SK2
62
256
6
ByLayer
370
13
48
1
60
0
100
AcDbLine
10
96.6
20
21.5875
30
0
11
96.6
21
36.370487
31
0
39
0
210
0
220
0
230
1
0
LINE
5
129
100
AcDbEntity
8
SK2
62
256
6
ByLayer
370
13
48
1
60
0
100
AcDbLine
10
116.6
20
17.391348
30
0
11
116.6
21
36.370487
31
0
39
0
210
0
220
0
230
1
0
LINE
5
12A
100
AcDbEntity
8
SK2
62
256
6
ByLayer
370
13
48
1
60
0
100
AcDbLine
10
96.6
20
33.195487
30
0
11
116.6
21
33.195487
31
0
39
0
210
0
220
0
230
1
0
SOLID
5
12B
100
AcDbEntity
8
SK2
62
256
6
ByLayer
370
13
48
1
60
0
100
AcDbTrace
10
96.6
20
33.195487
30
0
11
99.774998
21
33.698358
31
0
12
99.775002
22
32.692616
32
0
13
96.6
23
33.195487
33
0
39
0
210
0
220
0
230
1
0
SOLID
5
12C
100
AcDbEntity
8
SK2
62
256
6
ByLayer
370
13
48
1
60
0
100
AcDbTrace
10
116.6
20
33.195487
30
0
11
113.425002
21
32.692616
31
0
12
113.424998
22
33.698358
32
0
13
116.6
23
33.195487
33
0
39
0
210
0
220
0
230
1
0
ENDBLK
5
12E
100
AcDbEntity
8
0
100
AcDbBlockEnd
0
BLOCK
5
137
100
AcDbEntity
8
0
100
AcDbBlockBegin
2
DimnDraft3D2
70
0
10
0
20
0
30
0
3
DimnDraft3D2
0
MTEXT
5
131
100
AcDbEntity
8
SK2
62
256
6
ByLayer
370
18
48
1
60
0
100
AcDbMText
10
95.679697
20
43.067025
30
0
210
0
220
0
230
1
1
\W0.6778;37.1
40
3.000007
41
0
44
1.084337
50
0
71
7
72
5
7
iso_b_vert
0
LINE
5
132
100
AcDbEntity
8
SK2
62
256
6
ByLayer
370
13
48
1
60
0
100
AcDbLine
10
116.6
20
17.391348
30
0
11
116.6
21
45.491909
31
0
39
0
210
0
220
0
230
1
0
LINE
5
133
100
AcDbEntity
8
SK2
62
256
6
ByLayer
370
13
48
1
60
0
100
AcDbLine
10
79.5486
20
23.2156
30
0
11
79.5486
21
45.491909
31
0
39
0
210
0
220
0
230
1
0
LINE
5
134
100
AcDbEntity
8
SK2
62
256
6
ByLayer
370
13
48
1
60
0
100
AcDbLine
10
116.6
20
42.316909
30
0
11
79.5486
21
42.316909
31
0
39
0
210
0
220
0
230
1
0
SOLID
5
135
100
AcDbEntity
8
SK2
62
256
6
ByLayer
370
13
48
1
60
0
100
AcDbTrace
10
116.6
20
42.316909
30
0
11
113.425002
21
41.814038
31
0
12
113.424998
22
42.819779
32
0
13
116.6
23
42.316909
33
0
39
0
210
0
220
0
230
1
0
SOLID
5
136
100
AcDbEntity
8
SK2
62
256
6
ByLayer
370
13
48
1
60
0
100
AcDbTrace
10
79.5486
20
42.316909
30
0
11
82.723598
21
42.819779
31
0
12
82.723602
22
41.814038
32
0
13
79.5486
23
42.316909
33
0
39
0
210
0
220
0
230
1
0
ENDBLK
5
138
100
AcDbEntity
8
0
100
AcDbBlockEnd
0
BLOCK
5
141
100
AcDbEntity
8
0
100
AcDbBlockBegin
2
DimnDraft3D3
70
0
10
0
20
0
30
0
3
DimnDraft3D3
0
MTEXT
5
13B
100
AcDbEntity
8
SK2
62
256
6
ByLayer
370
18
48
1
60
0
100
AcDbMText
10
136.248082
20
-4.807237
30
0
210
0
220
0
230
1
1
\W0.8817;%%c8-%%c16
40
3.000007
41
0
44
1.084337
50
90
71
7
72
5
7
iso_b_vert
0
LINE
5
13C
100
AcDbEntity
8
SK2
62
256
6
ByLayer
370
13
48
1
60
0
100
AcDbLine
10
118.1875
20
10.204574
30
0
11
140.173198
21
10.204574
31
0
39
0
210
0
220
0
230
1
0
LINE
5
13D
100
AcDbEntity
8
SK2
62
256
6
ByLayer
370
13
48
1
60
0
100
AcDbLine
10
118.1875
20
-10.204574
30
0
11
140.173198
21
-10.204574
31
0
39
0
210
0
220
0
230
1
0
LINE
5
13E
100
AcDbEntity
8
SK2
62
256
6
ByLayer
370
13
48
1
60
0
100
AcDbLine
10
136.998198
20
10.204574
30
0
11
136.998198
21
-10.204574
31
0
39
0
210
0
220
0
230
1
0
SOLID
5
13F
100
AcDbEntity
8
SK2
62
256
6
ByLayer
370
13
48
1
60
0
100
AcDbTrace
10
136.998198
20
10.204574
30
0
11
137.501069
21
7.029575
31
0
12
136.495327
22
7.029572
32
0
13
136.998198
23
10.204574
33
0
39
0
210
0
220
0
230
1
0
SOLID
5
140
100
AcDbEntity
8
SK2
62
256
6
ByLayer
370
13
48
1
60
0
100
AcDbTrace
10
136.998198
20
-10.204574
30
0
11
136.495327
21
-7.029575
31
0
12
137.501069
22
-7.029572
32
0
13
136.998198
23
-10.204574
33
0
39
0
210
0
220
0
230
1
0
ENDBLK
5
142
100
AcDbEntity
8
0
100
AcDbBlockEnd
0
BLOCK
5
14C
100
AcDbEntity
8
0
100
AcDbBlockBegin
2
DimnDraft3D4
70
0
10
0
20
0
30
0
3
DimnDraft3D4
0
MTEXT
5
145
100
AcDbEntity
8
SK2
62
256
6
ByLayer
370
18
48
1
60
0
100
AcDbMText
10
147.533726
20
1.306946
30
0
210
0
220
0
230
1
1
\W0.6920;42
40
3.000007
41
0
44
1.084337
50
90
71
7
72
5
7
iso_b_vert
0
MTEXT
5
146
100
AcDbEntity
8
SK2
62
256
6
ByLayer
370
18
48
1
60
0
100
AcDbMText
10
147.533726
20
-3.705578
30
0
210
0
220
0
230
1
1
\W1.1719;%%c
40
3.000007
41
0
44
1.084337
50
90
71
7
72
5
7
iso_b_vert
0
LINE
5
147
100
AcDbEntity
8
SK2
62
256
6
ByLayer
370
13
48
1
60
0
100
AcDbLine
10
115.1875
20
-21
30
0
11
151.458842
21
-21
31
0
39
0
210
0
220
0
230
1
0
LINE
5
148
100
AcDbEntity
8
SK2
62
256
6
ByLayer
370
13
48
1
60
0
100
AcDbLine
10
115.1875
20
21
30
0
11
151.458842
21
21
31
0
39
0
210
0
220
0
230
1
0
LINE
5
149
100
AcDbEntity
8
SK2
62
256
6
ByLayer
370
13
48
1
60
0
100
AcDbLine
10
148.283842
20
-21
30
0
11
148.283842
21
21
31
0
39
0
210
0
220
0
230
1
0
SOLID
5
14A
100
AcDbEntity
8
SK2
62
256
6
ByLayer
370
13
48
1
60
0
100
AcDbTrace
10
148.283842
20
-21
30
0
11
147.780971
21
-17.825002
31
0
12
148.786712
22
-17.824998
32
0
13
148.283842
23
-21
33
0
39
0
210
0
220
0
230
1
0
SOLID
5
14B
100
AcDbEntity
8
SK2
62
256
6
ByLayer
370
13
48
1
60
0
100
AcDbTrace
10
148.283842
20
21
30
0
11
148.786712
21
17.825002
31
0
12
147.780971
22
17.824998
32
0
13
148.283842
23
21
33
0
39
0
210
0
220
0
230
1
0
ENDBLK
5
14D
100
AcDbEntity
8
0
100
AcDbBlockEnd
0
BLOCK
5
154
100
AcDbEntity
8
0
100
AcDbBlockBegin
2
DimnDraft3D5
70
0
10
0
20
0
30
0
3
DimnDraft3D5
0
MTEXT
5
150
100
AcDbEntity
8
SK2
62
256
6
ByLayer
370
18
48
1
60
0
100
AcDbMText
10
63.47691
20
4.360237
30
0
210
0
220
0
230
1
1
\W0.8790;%%c 44
40
3.000007
41
0
44
1.084337
50
90
71
7
72
5
7
iso_b_vert
0
LINE
5
151
100
AcDbEntity
8
SK2
62
256
6
ByLayer
370
13
48
1
60
0
100
AcDbLine
10
64.227026
20
22.0091
30
0
11
64.227026
21
-22.0091
31
0
39
0
210
0
220
0
230
1
0
SOLID
5
152
100
AcDbEntity
8
SK2
62
256
6
ByLayer
370
13
48
1
60
0
100
AcDbTrace
10
64.227026
20
22.0091
30
0
11
64.729896
21
18.834102
31
0
12
63.724155
22
18.834098
32
0
13
64.227026
23
22.0091
33
0
39
0
210
0
220
0
230
1
0
SOLID
5
153
100
AcDbEntity
8
SK2
62
256
6
ByLayer
370
13
48
1
60
0
100
AcDbTrace
10
64.227026
20
-22.0091
30
0
11
63.724155
21
-18.834102
31
0
12
64.729896
22
-18.834098
32
0
13
64.227026
23
-22.0091
33
0
39
0
210
0
220
0
230
1
0
ENDBLK
5
155
100
AcDbEntity
8
0
100
AcDbBlockEnd
0
BLOCK
5
15E
100
AcDbEntity
8
0
100
AcDbBlockBegin
2
DimnDraft3D6
70
0
10
0
20
0
30
0
3
DimnDraft3D6
0
MTEXT
5
158
100
AcDbEntity
8
SK2
62
256
6
ByLayer
370
18
48
1
60
0
100
AcDbMText
10
55.159659
20
56.165919
30
0
210
0
220
0
230
1
1
\W0.6717;116.6
40
3.000007
41
0
44
1.084337
50
0
71
7
72
5
7
iso_b_vert
0
LINE
5
159
100
AcDbEntity
8
SK2
62
256
6
ByLayer
370
13
48
1
60
0
100
AcDbLine
10
1.3E-05
20
27.047179
30
0
11
1.3E-05
21
58.590803
31
0
39
0
210
0
220
0
230
1
0
LINE
5
15A
100
AcDbEntity
8
SK2
62
256
6
ByLayer
370
13
48
1
60
0
100
AcDbLine
10
116.6
20
17.391348
30
0
11
116.6
21
58.590803
31
0
39
0
210
0
220
0
230
1
0
LINE
5
15B
100
AcDbEntity
8
SK2
62
256
6
ByLayer
370
13
48
1
60
0
100
AcDbLine
10
1.3E-05
20
55.415803
30
0
11
116.6
21
55.415803
31
0
39
0
210
0
220
0
230
1
0
SOLID
5
15C
100
AcDbEntity
8
SK2
62
256
6
ByLayer
370
13
48
1
60
0
100
AcDbTrace
10
1.3E-05
20
55.415803
30
0
11
3.175012
21
55.918674
31
0
12
3.175015
22
54.912932
32
0
13
1.3E-05
23
55.415803
33
0
39
0
210
0
220
0
230
1
0
SOLID
5
15D
100
AcDbEntity
8
SK2
62
256
6
ByLayer
370
13
48
1
60
0
100
AcDbTrace
10
116.6
20
55.415803
30
0
11
113.425002
21
54.912932
31
0
12
113.424998
22
55.918674
32
0
13
116.6
23
55.415803
33
0
39
0
210
0
220
0
230
1
0
ENDBLK
5
15F
100
AcDbEntity
8
0
100
AcDbBlockEnd
0
BLOCK
5
16C
100
AcDbEntity
8
0
100
AcDbBlockBegin
2
DimnDraft3D7
70
0
10
0
20
0
30
0
3
DimnDraft3D7
0
MTEXT
5
162
100
AcDbEntity
8
SK2
62
256
6
ByLayer
370
13
48
1
60
0
100
AcDbMText
10
-10.258681
20
3.249187
30
0
210
0
220
0
230
1
1
\W0.8635;%%c 44.45
40
2.999994
41
0
44
1.084337
50
90
71
7
72
5
7
iso_b_vert
0
LINE
5
163
100
AcDbEntity
8
SK2
62
256
6
ByLayer
370
13
48
1
60
0
100
AcDbLine
10
-1.299022
20
22.975
30
0
11
-12.106639
21
29.214781
31
0
39
0
210
0
220
0
230
1
0
LINE
5
164
100
AcDbEntity
8
SK2
62
256
6
ByLayer
370
13
48
1
60
0
100
AcDbLine
10
-1.299022
20
-21.475003
30
0
11
-12.106639
21
-15.235223
31
0
39
0
210
0
220
0
230
1
0
LINE
5
165
100
AcDbEntity
8
SK2
62
256
6
ByLayer
370
13
48
1
60
0
100
AcDbLine
10
-9.508568
20
27.714784
30
0
11
-9.508568
21
-16.73522
31
0
39
0
210
0
220
0
230
1
0
LINE
5
166
100
AcDbEntity
8
SK2
62
256
6
ByLayer
370
13
48
1
60
0
100
AcDbLine
10
-9.508568
20
27.714784
30
0
11
-9.113611
21
24.714791
31
0
39
0
210
0
220
0
230
1
0
LINE
5
167
100
AcDbEntity
8
SK2
62
256
6
ByLayer
370
13
48
1
60
0
100
AcDbLine
10
-9.508568
20
27.714784
30
0
11
-9.903524
21
24.714788
31
0
39
0
210
0
220
0
230
1
0
LINE
5
168
100
AcDbEntity
8
SK2
62
256
6
ByLayer
370
13
48
1
60
0
100
AcDbLine
10
-9.113611
20
24.714791
30
0
11
-9.903524
21
24.714788
31
0
39
0
210
0
220
0
230
1
0
LINE
5
169
100
AcDbEntity
8
SK2
62
256
6
ByLayer
370
13
48
1
60
0
100
AcDbLine
10
-9.508568
20
-16.73522
30
0
11
-9.903524
21
-13.735228
31
0
39
0
210
0
220
0
230
1
0
LINE
5
16A
100
AcDbEntity
8
SK2
62
256
6
ByLayer
370
13
48
1
60
0
100
AcDbLine
10
-9.508568
20
-16.73522
30
0
11
-9.113611
21
-13.735225
31
0
39
0
210
0
220
0
230
1
0
LINE
5
16B
100
AcDbEntity
8
SK2
62
256
6
ByLayer
370
13
48
1
60
0
100
AcDbLine
10
-9.903524
20
-13.735228
30
0
11
-9.113611
21
-13.735225
31
0
39
0
210
0
220
0
230
1
0
ENDBLK
5
16D
100
AcDbEntity
8
0
100
AcDbBlockEnd
0
BLOCK
5
170
100
AcDbEntity
8
0
100
AcDbBlockBegin
2
_CLOSED
70
0
10
0
20
0
30
0
3
_CLOSED
0
LINE
5
172
100
AcDbEntity
8
0
62
256
6
ByLayer
370
-2
48
1
60
0
100
AcDbLine
10
-1
20
0.166667
30
0
11
0
21
0
31
0
39
0
210
0
220
0
230
1
0
LINE
5
173
100
AcDbEntity
8
0
62
256
6
ByLayer
370
-2
48
1
60
0
100
AcDbLine
10
0
20
0
30
0
11
-1
21
-0.166667
31
0
39
0
210
0
220
0
230
1
0
LINE
5
174
100
AcDbEntity
8
0
62
256
6
ByLayer
370
-2
48
1
60
0
100
AcDbLine
10
-1
20
0.166667
30
0
11
-1
21
-0.166667
31
0
39
0
210
0
220
0
230
1
0
LINE
5
175
100
AcDbEntity
8
0
62
256
6
ByLayer
370
-2
48
1
60
0
100
AcDbLine
10
0
20
0
30
0
11
-1
21
0
31
0
39
0
210
0
220
0
230
1
0
ENDBLK
5
171
100
AcDbEntity
8
0
100
AcDbBlockEnd
0
BLOCK
5
181
100
AcDbEntity
8
0
100
AcDbBlockBegin
2
DimnDraft3D8
70
0
10
0
20
0
30
0
3
DimnDraft3D8
0
MTEXT
5
177
100
AcDbEntity
8
SK2
62
256
6
ByLayer
370
18
48
1
60
0
100
AcDbMText
10
-74.686589
20
-5.013158
30
0
210
0
220
0
230
1
1
\W0.8098;%%c 63.5
40
3
41
0
44
1.084337
50
90
71
7
72
5
7
iso_b_vert
0
LINE
5
178
100
AcDbEntity
8
SK2
62
256
6
ByLayer
370
13
48
1
60
0
100
AcDbLine
10
2.48
20
-31.75
30
0
11
-76.936475
21
-31.75
31
0
39
0
210
0
220
0
230
1
0
LINE
5
179
100
AcDbEntity
8
SK2
62
256
6
ByLayer
370
13
48
1
60
0
100
AcDbLine
10
2.48
20
31.75
30
0
11
-76.936475
21
31.75
31
0
39
0
210
0
220
0
230
1
0
LINE
5
17A
100
AcDbEntity
8
SK2
62
256
6
ByLayer
370
13
48
1
60
0
100
AcDbLine
10
-73.936475
20
-31.75
30
0
11
-73.936475
21
31.75
31
0
39
0
210
0
220
0
230
1
0
LINE
5
17B
100
AcDbEntity
8
SK2
62
256
6
ByLayer
370
13
48
1
60
0
100
AcDbLine
10
-73.936475
20
-31.75
30
0
11
-74.465456
21
-28.750002
31
0
39
0
210
0
220
0
230
1
0
LINE
5
17C
100
AcDbEntity
8
SK2
62
256
6
ByLayer
370
13
48
1
60
0
100
AcDbLine
10
-73.936475
20
-31.75
30
0
11
-73.407494
21
-28.749998
31
0
39
0
210
0
220
0
230
1
0
LINE
5
17D
100
AcDbEntity
8
SK2
62
256
6
ByLayer
370
13
48
1
60
0
100
AcDbLine
10
-74.465456
20
-28.750002
30
0
11
-73.407494
21
-28.749998
31
0
39
0
210
0
220
0
230
1
0
LINE
5
17E
100
AcDbEntity
8
SK2
62
256
6
ByLayer
370
13
48
1
60
0
100
AcDbLine
10
-73.936475
20
31.75
30
0
11
-73.407494
21
28.750002
31
0
39
0
210
0
220
0
230
1
0
LINE
5
17F
100
AcDbEntity
8
SK2
62
256
6
ByLayer
370
13
48
1
60
0
100
AcDbLine
10
-73.936475
20
31.75
30
0
11
-74.465456
21
28.749998
31
0
39
0
210
0
220
0
230
1
0
LINE
5
180
100
AcDbEntity
8
SK2
62
256
6
ByLayer
370
13
48
1
60
0
100
AcDbLine
10
-73.407494
20
28.750002
30
0
11
-74.465456
21
28.749998
31
0
39
0
210
0
220
0
230
1
0
ENDBLK
5
182
100
AcDbEntity
8
0
100
AcDbBlockEnd
0
BLOCK
5
18F
100
AcDbEntity
8
0
100
AcDbBlockBegin
2
DimnDraft3D9
70
0
10
0
20
0
30
0
3
DimnDraft3D9
0
MTEXT
5
185
100
AcDbEntity
8
SK2
62
256
6
ByLayer
370
18
48
1
60
0
100
AcDbMText
10
-37.918414
20
56.141498
30
0
210
0
220
0
230
1
1
\W0.7156;68.25
40
3
41
0
44
1.084337
50
0
71
7
72
5
7
iso_b_vert
0
LINE
5
186
100
AcDbEntity
8
SK2
62
256
6
ByLayer
370
13
48
1
60
0
100
AcDbLine
10
-68.25
20
12.885163
30
0
11
-68.25
21
58.391383
31
0
39
0
210
0
220
0
230
1
0
LINE
5
187
100
AcDbEntity
8
SK2
62
256
6
ByLayer
370
13
48
1
60
0
100
AcDbLine
10
1.3E-05
20
26.959679
30
0
11
1.3E-05
21
58.391383
31
0
39
0
210
0
220
0
230
1
0
LINE
5
188
100
AcDbEntity
8
SK2
62
256
6
ByLayer
370
13
48
1
60
0
100
AcDbLine
10
-68.25
20
55.391383
30
0
11
1.3E-05
21
55.391383
31
0
39
0
210
0
220
0
230
1
0
LINE
5
189
100
AcDbEntity
8
SK2
62
256
6
ByLayer
370
13
48
1
60
0
100
AcDbLine
10
-68.25
20
55.391383
30
0
11
-65.250002
21
55.920364
31
0
39
0
210
0
220
0
230
1
0
LINE
5
18A
100
AcDbEntity
8
SK2
62
256
6
ByLayer
370
13
48
1
60
0
100
AcDbLine
10
-68.25
20
55.391383
30
0
11
-65.249998
21
54.862402
31
0
39
0
210
0
220
0
230
1
0
LINE
5
18B
100
AcDbEntity
8
SK2
62
256
6
ByLayer
370
13
48
1
60
0
100
AcDbLine
10
-65.250002
20
55.920364
30
0
11
-65.249998
21
54.862402
31
0
39
0
210
0
220
0
230
1
0
LINE
5
18C
100
AcDbEntity
8
SK2
62
256
6
ByLayer
370
13
48
1
60
0
100
AcDbLine
10
1.3E-05
20
55.391383
30
0
11
-2.999985
21
54.862402
31
0
39
0
210
0
220
0
230
1
0
LINE
5
18D
100
AcDbEntity
8
SK2
62
256
6
ByLayer
370
13
48
1
60
0
100
AcDbLine
10
1.3E-05
20
55.391383
30
0
11
-2.999988
21
55.920364
31
0
39
0
210
0
220
0
230
1
0
LINE
5
18E
100
AcDbEntity
8
SK2
62
256
6
ByLayer
370
13
48
1
60
0
100
AcDbLine
10
-2.999985
20
54.862402
30
0
11
-2.999988
21
55.920364
31
0
39
0
210
0
220
0
230
1
0
ENDBLK
5
190
100
AcDbEntity
8
0
100
AcDbBlockEnd
0
BLOCK
5
199
100
AcDbEntity
8
0
100
AcDbBlockBegin
2
DimnDraft3D10
70
0
10
0
20
0
30
0
3
DimnDraft3D10
0
MTEXT
5
193
100
AcDbEntity
8
SK2
62
256
6
ByLayer
370
18
48
1
60
0
100
AcDbMText
10
8.207326
20
44.647849
30
0
210
0
220
0
230
1
1
\W0.7063;19.05
40
3.000007
41
0
44
1.084337
50
0
71
7
72
5
7
iso_b_vert
0
LINE
5
194
100
AcDbEntity
8
SK2
62
256
6
ByLayer
370
13
48
1
60
0
100
AcDbLine
10
1.3E-05
20
27.047179
30
0
11
1.3E-05
21
47.072733
31
0
39
0
210
0
220
0
230
1
0
LINE
5
195
100
AcDbEntity
8
SK2
62
256
6
ByLayer
370
13
48
1
60
0
100
AcDbLine
10
19.05
20
32.5375
30
0
11
19.05
21
47.072733
31
0
39
0
210
0
220
0
230
1
0
LINE
5
196
100
AcDbEntity
8
SK2
62
256
6
ByLayer
370
13
48
1
60
0
100
AcDbLine
10
1.3E-05
20
43.897733
30
0
11
19.05
21
43.897733
31
0
39
0
210
0
220
0
230
1
0
SOLID
5
197
100
AcDbEntity
8
SK2
62
256
6
ByLayer
370
13
48
1
60
0
100
AcDbTrace
10
1.3E-05
20
43.897733
30
0
11
3.175012
21
44.400603
31
0
12
3.175015
22
43.394862
32
0
13
1.3E-05
23
43.897733
33
0
39
0
210
0
220
0
230
1
0
SOLID
5
198
100
AcDbEntity
8
SK2
62
256
6
ByLayer
370
13
48
1
60
0
100
AcDbTrace
10
19.05
20
43.897733
30
0
11
15.875002
21
43.394862
31
0
12
15.874998
22
44.400603
32
0
13
19.05
23
43.897733
33
0
39
0
210
0
220
0
230
1
0
ENDBLK
5
19A
100
AcDbEntity
8
0
100
AcDbBlockEnd
0
BLOCK
5
1A4
100
AcDbEntity
8
0
100
AcDbBlockBegin
2
DimnDraft3D11
70
0
10
0
20
0
30
0
3
DimnDraft3D11
0
MTEXT
5
19D
100
AcDbEntity
8
2
62
256
6
ByLayer
370
18
48
1
60
0
100
AcDbMText
10
50.907794
20
-44.215813
30
0
210
0
220
0
230
1
1
\W0.6758;108.1
40
3.000007
41
0
44
1.084337
50
0
71
7
72
5
7
iso_b_vert
0
LINE
5
19F
100
AcDbEntity
8
2
62
256
6
ByLayer
370
13
48
1
60
0
100
AcDbLine
10
1.3E-05
20
-28.202893
30
0
11
1.3E-05
21
-48.140929
31
0
39
0
210
0
220
0
230
1
0
LINE
5
1A0
100
AcDbEntity
8
2
62
256
6
ByLayer
370
13
48
1
60
0
100
AcDbLine
10
108.0998
20
-16.383
30
0
11
108.0998
21
-48.140929
31
0
39
0
210
0
220
0
230
1
0
LINE
5
1A1
100
AcDbEntity
8
2
62
256
6
ByLayer
370
13
48
1
60
0
100
AcDbLine
10
1.3E-05
20
-44.965929
30
0
11
108.0998
21
-44.965929
31
0
39
0
210
0
220
0
230
1
0
SOLID
5
1A2
100
AcDbEntity
8
2
62
256
6
ByLayer
370
13
48
1
60
0
100
AcDbTrace
10
1.3E-05
20
-44.965929
30
0
11
3.175012
21
-44.463058
31
0
12
3.175015
22
-45.4688
32
0
13
1.3E-05
23
-44.965929
33
0
39
0
210
0
220
0
230
1
0
SOLID
5
1A3
100
AcDbEntity
8
2
62
256
6
ByLayer
370
13
48
1
60
0
100
AcDbTrace
10
108.0998
20
-44.965929
30
0
11
104.924802
21
-45.4688
31
0
12
104.924798
22
-44.463058
32
0
13
108.0998
23
-44.965929
33
0
39
0
210
0
220
0
230
1
0
ENDBLK
5
1A5
100
AcDbEntity
8
0
100
AcDbBlockEnd
0
ENDSEC
0
SECTION
2
ENTITIES
0
ARC
5
102
100
AcDbEntity
8
SK3
62
256
6
ByLayer
370
13
48
0.05
60
0
100
AcDbCircle
39
0
10
-108.6
20
15.5
30
0
40
1
210
0
220
0
230
-1
100
AcDbArc
50
0
51
180
0
ARC
5
103
100
AcDbEntity
8
SK3
62
256
6
ByLayer
370
13
48
0.05
60
0
100
AcDbCircle
39
0
10
-108.6
20
-15.5
30
0
40
1
210
0
220
0
230
-1
100
AcDbArc
50
180
51
0
0
ARC
5
104
100
AcDbEntity
8
1
62
256
6
ByLayer
370
18
48
1
60
0
100
AcDbCircle
39
0
10
-97.6
20
20
30
0
40
1
210
0
220
0
230
-1
100
AcDbArc
50
0
51
90
0
ARC
5
105
100
AcDbEntity
8
1
62
256
6
ByLayer
370
18
48
1
60
0
100
AcDbCircle
39
0
10
-97.6
20
-20
30
0
40
1
210
0
220
0
230
-1
100
AcDbArc
50
270
51
0
0
ARC
5
106
100
AcDbEntity
8
1
62
256
6
ByLayer
370
18
48
1
60
0
100
AcDbCircle
39
0
10
20
20
-18.3
30
0
40
1
210
0
220
0
230
1
100
AcDbArc
50
90
51
180
0
ARC
5
107
100
AcDbEntity
8
1
62
256
6
ByLayer
370
18
48
1
60
0
100
AcDbCircle
39
0
10
-20
20
18.3
30
0
40
1
210
0
220
6.12303176911188E-17
230
-1
100
AcDbArc
50
270
51
360
0
ARC
5
108
100
AcDbEntity
8
SK1
62
256
6
ByLayer
370
18
48
1
60
0
100
AcDbCircle
39
0
10
-67.25
20
11.385163
30
0
40
1
210
0
220
0
230
1
100
AcDbArc
50
98.297222
51
180
0
ARC
5
109
100
AcDbEntity
8
SK1
62
256
6
ByLayer
370
18
48
1
60
0
100
AcDbCircle
39
0
10
67.25
20
-11.385163
30
0
40
1
210
0
220
0
230
-1
100
AcDbArc
50
278.297222
51
0
0
ARC
5
10A
100
AcDbEntity
8
1
62
256
6
ByLayer
370
18
48
1
60
0
100
AcDbCircle
39
0
10
52
20
21.5091
30
0
40
0.5
210
0
220
0
230
1
100
AcDbArc
50
90
51
180
0
ARC
5
10B
100
AcDbEntity
8
1
62
256
6
ByLayer
370
18
48
1
60
0
100
AcDbCircle
39
0
10
52
20
-21.5091
30
0
40
0.5
210
0
220
0
230
1
100
AcDbArc
50
180
51
270
0
ARC
5
10C
100
AcDbEntity
8
1
62
256
6
ByLayer
370
18
48
1
60
0
100
AcDbCircle
39
0
10
-2.58
20
-22.627084
30
0
40
0.600000000000001
210
0
220
0
230
-1
100
AcDbArc
50
90
51
180
0
ELLIPSE
5
10D
100
AcDbEntity
8
1
62
256
6
ByLayer
370
18
48
1
60
0
100
AcDbEllipse
10
110.1
20
-28.962813
30
0
11
-13.9999999999967
21
0
31
0
210
0
220
0
230
-1
40
0.866025
41
0.921288348460673
42
1.5707963267949
0
ELLIPSE
5
10E
100
AcDbEntity
8
1
62
256
6
ByLayer
370
18
48
1
60
0
100
AcDbEllipse
10
110.1
20
28.962813
30
0
11
-14.0000000000038
21
0
31
0
210
0
220
0
230
-1
40
0.866025
41
-1.5707963267949
42
-0.921288348461006
0
POINT
5
6C
100
AcDbEntity
8
81
62
256
6
ByLayer
370
13
48
1
60
0
100
AcDbPoint
10
108.1
20
0
30
0
39
0
210
0
220
0
230
1
50
360
0
POINT
5
6E
100
AcDbEntity
8
80
62
256
6
ByLayer
370
18
48
1
60
0
100
AcDbPoint
10
0
20
0
30
0
39
0
210
0
220
0
230
1
50
360
0
SPLINE
5
10F
100
AcDbEntity
8
1
62
256
6
ByLayer
370
18
48
1
60
0
100
AcDbSpline
70
4
71
3
72
9
73
5
40
0
40
0
40
0
40
0
40
0.5
40
1
40
1
40
1
40
1
41
1
10
115.232295162624
20
-14.3384572681199
30
0
41
1
10
115.298482776114
20
-14.7551239347866
30
0
41
1
10
115.365618839024
20
-15.5884572681199
30
0
41
1
10
115.298482776114
20
-16.4217906014532
30
0
41
1
10
115.232295162624
20
-16.8384572681199
30
0
0
SPLINE
5
110
100
AcDbEntity
8
1
62
256
6
ByLayer
370
18
48
1
60
0
100
AcDbSpline
70
4
71
3
72
8
73
4
40
0
40
0
40
0
40
0
40
1
40
1
40
1
40
1
41
1
10
115.232295162624
20
-16.8384572681199
30
0
41
1
10
114.688267636899
20
-17.6935564659624
30
0
41
1
10
114.14415970184
20
-18.548613644744
30
0
41
1
10
113.6
20
-19.4036437583313
30
0
0
SPLINE
5
111
100
AcDbEntity
8
1
62
256
6
ByLayer
370
18
48
1
60
0
100
AcDbSpline
70
4
71
3
72
9
73
5
40
0
40
0
40
0
40
0
40
0.5
40
1
40
1
40
1
40
1
41
1
10
115.232295162624
20
16.8384572681199
30
0
41
1
10
115.298482776114
20
16.4217906014532
30
0
41
1
10
115.365618839024
20
15.5884572681199
30
0
41
1
10
115.298482776114
20
14.7551239347866
30
0
41
1
10
115.232295162624
20
14.3384572681199
30
0
0
SPLINE
5
112
100
AcDbEntity
8
1
62
256
6
ByLayer
370
18
48
1
60
0
100
AcDbSpline
70
4
71
3
72
8
73
4
40
0
40
0
40
0
40
0
40
1
40
1
40
1
40
1
41
1
10
115.232295162624
20
14.3384572681199
30
0
41
1
10
114.688267636899
20
15.1113252341702
30
0
41
1
10
114.14415970184
20
15.8841552219529
30
0
41
1
10
113.6
20
16.6569607472853
30
0
0
SPLINE
5
113
100
AcDbEntity
8
1
62
256
6
ByLayer
370
18
48
1
60
0
100
AcDbSpline
70
4
71
3
72
8
73
4
40
0
40
0
40
0
40
0
40
1
40
1
40
1
40
1
41
1
10
115.232295162624
20
-2.49999999999999
30
0
41
1
10
114.688267636899
20
-2.58223123179219
30
0
41
1
10
114.14415970184
20
-2.66445842279107
30
0
41
1
10
113.6
20
-2.74668301104598
30
0
0
SPLINE
5
114
100
AcDbEntity
8
1
62
256
6
ByLayer
370
18
48
1
60
0
100
AcDbSpline
70
4
71
3
72
12
73
8
40
0
40
0
40
0
40
0
40
0.5
40
0.5
40
0.75
40
0.75
40
1
40
1
40
1
40
1
41
1
10
115.232295162624
20
2.50000000000001
30
0
41
1
10
115.298024505647
20
1.67243650841368
30
0
41
1
10
115.331829257184
20
0.84190288258077
30
0
41
1
10
115.332159947531
20
-0.408584375127464
30
0
41
1
10
115.323900911531
20
-0.826192103535963
30
0
41
1
10
115.290576276637
20
-1.66297117466071
30
0
41
1
10
115.265439692418
20
-2.08269470617554
30
0
41
1
10
115.232295162624
20
-2.49999999999999
30
0
0
SPLINE
5
115
100
AcDbEntity
8
1
62
256
6
ByLayer
370
18
48
1
60
0
100
AcDbSpline
70
4
71
3
72
13
73
9
40
0
40
0
40
0
40
0
40
0.25
40
0.25
40
0.5
40
0.75
40
0.75
40
1
40
1
40
1
40
1
41
1
10
101.632875011696
20
-16.8072007797443
30
0
41
1
10
101.56709072327
20
-17.0587994015091
30
0
41
1
10
101.519091290824
20
-17.2994363938602
30
0
41
1
10
101.455411921438
20
-17.7591369738722
30
0
41
1
10
101.424080002874
20
-18.1972633184076
30
0
41
1
10
101.455411921438
20
-18.5924703072055
30
0
41
1
10
101.519091290824
20
-18.9661030605268
30
0
41
1
10
101.56709072327
20
-19.1421327348425
30
0
41
1
10
101.632875011696
20
-19.3072007797443
30
0
0
SPLINE
5
116
100
AcDbEntity
8
1
62
256
6
ByLayer
370
18
48
1
60
0
100
AcDbSpline
70
4
71
3
72
10
73
6
40
0
40
0
40
0
40
0
40
0.5
40
0.5
40
1
40
1
40
1
40
1
41
1
10
101.632875011696
20
-19.3072007797443
30
0
41
1
10
103.042768167759
20
-19.33651019503
30
0
41
1
10
104.453121598121
20
-19.3608224446763
30
0
41
1
10
107.275322062475
20
-19.3944836147354
30
0
41
1
10
108.68719090958
20
-19.4036437583313
30
0
41
1
10
110.1
20
-19.4036437583313
30
0
0
SPLINE
5
117
100
AcDbEntity
8
1
62
256
6
ByLayer
370
18
48
1
60
0
100
AcDbSpline
70
4
71
3
72
10
73
6
40
0
40
0
40
0
40
0
40
0.5
40
0.5
40
1
40
1
40
1
40
1
41
1
10
110.1
20
19.4036437583313
30
0
41
1
10
108.687309014999
20
19.4036437583313
30
0
41
1
10
107.275489669691
20
19.3944850426678
30
0
41
1
10
104.453276419126
20
19.3608248623697
30
0
41
1
10
103.042862289607
20
19.3365121516721
30
0
41
1
10
101.632875011696
20
19.3072007797444
30
0
0
SPLINE
5
118
100
AcDbEntity
8
1
62
256
6
ByLayer
370
18
48
1
60
0
100
AcDbSpline
70
4
71
3
72
13
73
9
40
0
40
0
40
0
40
0
40
0.25
40
0.25
40
0.5
40
0.75
40
0.75
40
1
40
1
40
1
40
1
41
1
10
101.632875011696
20
19.3072007797444
30
0
41
1
10
101.56709072327
20
19.1421327348425
30
0
41
1
10
101.519091290824
20
18.9661030605268
30
0
41
1
10
101.455411921438
20
18.5924703072055
30
0
41
1
10
101.424080002874
20
18.1972633184076
30
0
41
1
10
101.455411921438
20
17.7591369738722
30
0
41
1
10
101.519091290824
20
17.2994363938602
30
0
41
1
10
101.56709072327
20
17.0587994015091
30
0
41
1
10
101.632875011696
20
16.8072007797444
30
0
0
SPLINE
5
119
100
AcDbEntity
8
1
62
256
6
ByLayer
370
18
48
1
60
0
100
AcDbSpline
70
4
71
3
72
13
73
9
40
0
40
0
40
0
40
0
40
0.25
40
0.25
40
0.5
40
0.75
40
0.75
40
1
40
1
40
1
40
1
41
1
10
101.632875011696
20
2.50000000000001
30
0
41
1
10
101.56709072327
20
2.08333333333334
30
0
41
1
10
101.519091290824
20
1.66666666666668
30
0
41
1
10
101.455411921438
20
0.833333333333343
30
0
41
1
10
101.424080002874
20
1.01E-14
30
0
41
1
10
101.455411921438
20
-0.833333333333323
30
0
41
1
10
101.519091290824
20
-1.66666666666666
30
0
41
1
10
101.56709072327
20
-2.08333333333333
30
0
41
1
10
101.632875011696
20
-2.49999999999999
30
0
0
SPLINE
5
11A
100
AcDbEntity
8
1
62
256
6
ByLayer
370
18
48
1
60
0
100
AcDbSpline
70
4
71
3
72
10
73
6
40
0
40
0
40
0
40
0
40
0.5
40
0.5
40
1
40
1
40
1
40
1
41
1
10
101.632875011696
20
-2.49999999999999
30
0
41
1
10
103.043090510144
20
-2.57400007949187
30
0
41
1
10
104.453651797606
20
-2.63626138651858
30
0
41
1
10
107.275895998548
20
-2.72287749049152
30
0
41
1
10
108.687595284286
20
-2.74668301104598
30
0
41
1
10
110.1
20
-2.74668301104598
30
0
0
SPLINE
5
11B
100
AcDbEntity
8
1
62
256
6
ByLayer
370
18
48
1
60
0
100
AcDbSpline
70
4
71
3
72
10
73
6
40
0
40
0
40
0
40
0
40
0.5
40
0.5
40
1
40
1
40
1
40
1
41
1
10
110.1
20
16.6569607472853
30
0
41
1
10
108.68719090958
20
16.6569607472853
30
0
41
1
10
107.275322062475
20
16.67161878623
30
0
41
1
10
104.453121598121
20
16.724582284589
30
0
41
1
10
103.042768167759
20
16.762527030231
30
0
41
1
10
101.632875011696
20
16.8072007797444
30
0
0
SPLINE
5
11C
100
AcDbEntity
8
1
62
256
6
ByLayer
370
18
48
1
60
0
100
AcDbSpline
70
4
71
3
72
8
73
4
40
0
40
0
40
0
40
0
40
1
40
1
40
1
40
1
41
1
10
113.6
20
2.746683011046
30
0
41
1
10
114.14415970184
20
2.66445842279109
30
0
41
1
10
114.688267636899
20
2.58223123179221
30
0
41
1
10
115.232295162624
20
2.50000000000001
30
0
0
SPLINE
5
11D
100
AcDbEntity
8
1
62
256
6
ByLayer
370
18
48
1
60
0
100
AcDbSpline
70
4
71
3
72
10
73
6
40
0
40
0
40
0
40
0
40
0.5
40
0.5
40
1
40
1
40
1
40
1
41
1
10
101.632875011696
20
2.50000000000001
30
0
41
1
10
103.043090510144
20
2.57400007949189
30
0
41
1
10
104.453651797606
20
2.6362613865186
30
0
41
1
10
107.275895998548
20
2.72287749049154
30
0
41
1
10
108.687595284286
20
2.746683011046
30
0
41
1
10
110.1
20
2.746683011046
30
0
0
SPLINE
5
11E
100
AcDbEntity
8
1
62
256
6
ByLayer
370
18
48
1
60
0
100
AcDbSpline
70
4
71
3
72
10
73
6
40
0
40
0
40
0
40
0
40
0.5
40
0.5
40
1
40
1
40
1
40
1
41
1
10
110.1
20
-16.6569607472853
30
0
41
1
10
108.687309014999
20
-16.6569607472853
30
0
41
1
10
107.275489669691
20
-16.6716165161655
30
0
41
1
10
104.453276419126
20
-16.7245785038274
30
0
41
1
10
103.042862289607
20
-16.7625240478945
30
0
41
1
10
101.632875011696
20
-16.8072007797443
30
0
0
SPLINE
5
11F
100
AcDbEntity
8
1
62
256
6
ByLayer
370
18
48
1
60
0
100
AcDbSpline
70
4
71
3
72
8
73
4
40
0
40
0
40
0
40
0
40
1
40
1
40
1
40
1
41
1
10
115.232295162624
20
-14.3384572681199
30
0
41
1
10
114.688267636899
20
-15.1113252341702
30
0
41
1
10
114.14415970184
20
-15.8841552219529
30
0
41
1
10
113.6
20
-16.6569607472853
30
0
0
SPLINE
5
120
100
AcDbEntity
8
1
62
256
6
ByLayer
370
18
48
1
60
0
100
AcDbSpline
70
4
71
3
72
8
73
4
40
0
40
0
40
0
40
0
40
1
40
1
40
1
40
1
41
1
10
115.232295162624
20
16.8384572681199
30
0
41
1
10
114.688267636899
20
17.6935564659624
30
0
41
1
10
114.14415970184
20
18.548613644744
30
0
41
1
10
113.6
20
19.4036437583313
30
0
0
LINE
5
70
100
AcDbEntity
8
SK3
62
256
6
ByLayer
370
13
48
0.05
60
0
100
AcDbLine
10
107.6
20
15.25
30
0
11
107.6
21
15.5
31
0
39
0
210
0
220
0
230
1
0
LINE
5
72
100
AcDbEntity
8
SK3
62
256
6
ByLayer
370
13
48
0.05
60
0
100
AcDbLine
10
107.6
20
-15.5
30
0
11
107.6
21
-15.25
31
0
39
0
210
0
220
0
230
1
0
LINE
5
73
100
AcDbEntity
8
SK3
62
256
6
ByLayer
370
13
48
0.05
60
0
100
AcDbLine
10
96.6
20
15.25
30
0
11
107.6
21
15.25
31
0
39
0
210
0
220
0
230
1
0
LINE
5
74
100
AcDbEntity
8
SK3
62
256
6
ByLayer
370
13
48
0.05
60
0
100
AcDbLine
10
107.6
20
-15.25
30
0
11
96.6
21
-15.25
31
0
39
0
210
0
220
0
230
1
0
LINE
5
75
100
AcDbEntity
8
1
62
256
6
ByLayer
370
18
48
1
60
0
100
AcDbLine
10
113.6
20
-21
30
0
11
116.6
21
-15.803848
31
0
39
0
210
0
220
0
230
1
0
LINE
5
77
100
AcDbEntity
8
1
62
256
6
ByLayer
370
18
48
1
60
0
100
AcDbLine
10
116.6
20
15.803848
30
0
11
113.6
21
21
31
0
39
0
210
0
220
0
230
1
0
LINE
5
78
100
AcDbEntity
8
SK3
62
256
6
ByLayer
370
13
48
0.05
60
0
100
AcDbLine
10
116.6
20
-10.204574
30
0
11
111.1
21
-13.38
31
0
39
0
210
0
220
0
230
1
0
LINE
5
79
100
AcDbEntity
8
SK3
62
256
6
ByLayer
370
13
48
0.05
60
0
100
AcDbLine
10
111.1
20
13.38
30
0
11
116.6
21
10.204574
31
0
39
0
210
0
220
0
230
1
0
LINE
5
7A
100
AcDbEntity
8
SK3
62
256
6
ByLayer
370
13
48
0.05
60
0
100
AcDbLine
10
109.6
20
11.5
30
0
11
111.1
21
11.5
31
0
39
0
210
0
220
0
230
1
0
LINE
5
7B
100
AcDbEntity
8
SK3
62
256
6
ByLayer
370
13
48
0.05
60
0
100
AcDbLine
10
111.1
20
-11.5
30
0
11
109.6
21
-11.5
31
0
39
0
210
0
220
0
230
1
0
LINE
5
7C
100
AcDbEntity
8
1
62
256
6
ByLayer
370
18
48
1
60
0
100
AcDbLine
10
93.113339
20
-14.7955
30
0
11
94.3044
21
-14.7955
31
0
39
0
210
0
220
0
230
1
0
LINE
5
7D
100
AcDbEntity
8
1
62
256
6
ByLayer
370
18
48
1
60
0
100
AcDbLine
10
94.3044
20
14.7955
30
0
11
93.113339
21
14.7955
31
0
39
0
210
0
220
0
230
1
0
LINE
5
7E
100
AcDbEntity
8
1
62
256
6
ByLayer
370
18
48
1
60
0
100
AcDbLine
10
95.4982
20
15.9893
30
0
11
94.3044
21
14.7955
31
0
39
0
210
0
220
0
230
1
0
LINE
5
7F
100
AcDbEntity
8
1
62
256
6
ByLayer
370
18
48
1
60
0
100
AcDbLine
10
94.3044
20
-14.7955
30
0
11
95.4982
21
-15.9893
31
0
39
0
210
0
220
0
230
1
0
LINE
5
80
100
AcDbEntity
8
SK3
62
256
6
ByLayer
370
13
48
0.05
60
0
100
AcDbLine
10
83.449371
20
9.0043
30
0
11
107.7918
21
12.425405
31
0
39
0
210
0
220
0
230
1
0
LINE
5
81
100
AcDbEntity
8
SK3
62
256
6
ByLayer
370
13
48
0.05
60
0
100
AcDbLine
10
107.7918
20
-12.425405
30
0
11
83.449371
21
-9.0043
31
0
39
0
210
0
220
0
230
1
0
LINE
5
82
100
AcDbEntity
8
SK3
62
256
6
ByLayer
370
13
48
0.05
60
0
100
AcDbLine
10
83.449371
20
-9.0043
30
0
11
79.293
21
-9.0043
31
0
39
0
210
0
220
0
230
1
0
LINE
5
83
100
AcDbEntity
8
SK3
62
256
6
ByLayer
370
13
48
0.05
60
0
100
AcDbLine
10
79.293
20
9.0043
30
0
11
83.449371
21
9.0043
31
0
39
0
210
0
220
0
230
1
0
LINE
5
84
100
AcDbEntity
8
1
62
256
6
ByLayer
370
18
48
1
60
0
100
AcDbLine
10
79.4486
20
-21.6281
30
0
11
79.0676
21
-22.0091
31
0
39
0
210
0
220
0
230
1
0
LINE
5
85
100
AcDbEntity
8
1
62
256
6
ByLayer
370
18
48
1
60
0
100
AcDbLine
10
79.0676
20
22.0091
30
0
11
79.4486
21
21.6281
31
0
39
0
210
0
220
0
230
1
0
LINE
5
86
100
AcDbEntity
8
1
62
256
6
ByLayer
370
18
48
1
60
0
100
AcDbLine
10
84.7568
20
-19.685
30
0
11
84.2488
21
-20.193
31
0
39
0
210
0
220
0
230
1
0
LINE
5
87
100
AcDbEntity
8
1
62
256
6
ByLayer
370
18
48
1
60
0
100
AcDbLine
10
84.2488
20
20.193
30
0
11
84.7568
21
19.685
31
0
39
0
210
0
220
0
230
1
0
LINE
5
88
100
AcDbEntity
8
1
62
256
6
ByLayer
370
18
48
1
60
0
100
AcDbLine
10
110.1
20
-16.838457
30
0
11
115.232295
21
-16.838457
31
0
39
0
210
0
220
0
230
1
0
LINE
5
89
100
AcDbEntity
8
1
62
256
6
ByLayer
370
18
48
1
60
0
100
AcDbLine
10
110.1
20
16.838457
30
0
11
115.232295
21
16.838457
31
0
39
0
210
0
220
0
230
1
0
LINE
5
8A
100
AcDbEntity
8
1
62
256
6
ByLayer
370
18
48
1
60
0
100
AcDbLine
10
110.1
20
-2.5
30
0
11
115.232295
21
-2.5
31
0
39
0
210
0
220
0
230
1
0
LINE
5
8B
100
AcDbEntity
8
1
62
256
6
ByLayer
370
18
48
1
60
0
100
AcDbLine
10
110.1
20
2.5
30
0
11
101.632875
21
2.5
31
0
39
0
210
0
220
0
230
1
0
LINE
5
8C
100
AcDbEntity
8
1
62
256
6
ByLayer
370
18
48
1
60
0
100
AcDbLine
10
110.1
20
2.5
30
0
11
115.232295
21
2.5
31
0
39
0
210
0
220
0
230
1
0
LINE
5
8D
100
AcDbEntity
8
1
62
256
6
ByLayer
370
18
48
1
60
0
100
AcDbLine
10
110.1
20
-2.5
30
0
11
101.632875
21
-2.5
31
0
39
0
210
0
220
0
230
1
0
LINE
5
8E
100
AcDbEntity
8
1
62
256
6
ByLayer
370
18
48
1
60
0
100
AcDbLine
10
113.6
20
16.656961
30
0
11
110.1
21
16.656961
31
0
39
0
210
0
220
0
230
1
0
LINE
5
8F
100
AcDbEntity
8
1
62
256
6
ByLayer
370
18
48
1
60
0
100
AcDbLine
10
110.1
20
-19.403644
30
0
11
113.6
21
-19.403644
31
0
39
0
210
0
220
0
230
1
0
LINE
5
90
100
AcDbEntity
8
1
62
256
6
ByLayer
370
18
48
1
60
0
100
AcDbLine
10
110.1
20
2.746683
30
0
11
113.6
21
2.746683
31
0
39
0
210
0
220
0
230
1
0
LINE
5
91
100
AcDbEntity
8
1
62
256
6
ByLayer
370
18
48
1
60
0
100
AcDbLine
10
113.6
20
-16.656961
30
0
11
110.1
21
-16.656961
31
0
39
0
210
0
220
0
230
1
0
LINE
5
92
100
AcDbEntity
8
1
62
256
6
ByLayer
370
18
48
1
60
0
100
AcDbLine
10
113.6
20
19.403644
30
0
11
110.1
21
19.403644
31
0
39
0
210
0
220
0
230
1
0
LINE
5
93
100
AcDbEntity
8
1
62
256
6
ByLayer
370
18
48
1
60
0
100
AcDbLine
10
110.1
20
-2.746683
30
0
11
113.6
21
-2.746683
31
0
39
0
210
0
220
0
230
1
0
LINE
5
94
100
AcDbEntity
8
1
62
256
6
ByLayer
370
18
48
1
60
0
100
AcDbLine
10
79.5486
20
21.6281
30
0
11
79.5486
21
-21.6281
31
0
39
0
210
0
220
0
230
1
0
LINE
5
95
100
AcDbEntity
8
1
62
256
6
ByLayer
370
18
48
1
60
0
100
AcDbLine
10
84.7568
20
19.685
30
0
11
84.7568
21
-19.685
31
0
39
0
210
0
220
0
230
1
0
LINE
5
96
100
AcDbEntity
8
1
62
256
6
ByLayer
370
18
48
1
60
0
100
AcDbLine
10
96.6
20
20
30
0
11
96.6
21
-20
31
0
39
0
210
0
220
0
230
1
0
LINE
5
97
100
AcDbEntity
8
1
62
256
6
ByLayer
370
18
48
1
60
0
100
AcDbLine
10
116.6
20
-15.803848
30
0
11
116.6
21
15.803848
31
0
39
0
210
0
220
0
230
1
0
LINE
5
98
100
AcDbEntity
8
1
62
256
6
ByLayer
370
18
48
1
60
0
100
AcDbLine
10
113.6
20
21
30
0
11
113.6
21
19.403644
31
0
39
0
210
0
220
0
230
1
0
LINE
5
99
100
AcDbEntity
8
1
62
256
6
ByLayer
370
18
48
1
60
0
100
AcDbLine
10
113.6
20
16.656961
30
0
11
113.6
21
2.746683
31
0
39
0
210
0
220
0
230
1
0
LINE
5
9A
100
AcDbEntity
8
1
62
256
6
ByLayer
370
18
48
1
60
0
100
AcDbLine
10
113.6
20
-2.746683
30
0
11
113.6
21
-16.656961
31
0
39
0
210
0
220
0
230
1
0
LINE
5
9B
100
AcDbEntity
8
1
62
256
6
ByLayer
370
18
48
1
60
0
100
AcDbLine
10
113.6
20
-19.403644
30
0
11
113.6
21
-21
31
0
39
0
210
0
220
0
230
1
0
LINE
5
9C
100
AcDbEntity
8
1
62
256
6
ByLayer
370
18
48
1
60
0
100
AcDbLine
10
94.3044
20
14.7955
30
0
11
94.3044
21
-14.7955
31
0
39
0
210
0
220
0
230
1
0
LINE
5
9D
100
AcDbEntity
8
1
62
256
6
ByLayer
370
18
48
1
60
0
100
AcDbLine
10
95.4982
20
-15.9893
30
0
11
95.4982
21
15.9893
31
0
39
0
210
0
220
0
230
1
0
LINE
5
9E
100
AcDbEntity
8
SK3
62
256
6
ByLayer
370
13
48
0.05
60
0
100
AcDbLine
10
108.0998
20
14.7955
30
0
11
108.0998
21
-14.7955
31
0
39
0
210
0
220
0
230
1
0
LINE
5
9F
100
AcDbEntity
8
SK3
62
256
6
ByLayer
370
13
48
0.05
60
0
100
AcDbLine
10
109.6
20
-15.5
30
0
11
109.6
21
15.5
31
0
39
0
210
0
220
0
230
1
0
LINE
5
A0
100
AcDbEntity
8
SK3
62
256
6
ByLayer
370
13
48
0.05
60
0
100
AcDbLine
10
111.1
20
13.38
30
0
11
111.1
21
-13.38
31
0
39
0
210
0
220
0
230
1
0
LINE
5
A1
100
AcDbEntity
8
1
62
256
6
ByLayer
370
18
48
1
60
0
100
AcDbLine
10
95.4982
20
15.9893
30
0
11
96.6
21
15.9893
31
0
39
0
210
0
220
0
230
1
0
LINE
5
A2
100
AcDbEntity
8
SK3
62
256
6
ByLayer
370
13
48
0.05
60
0
100
AcDbLine
10
96.6
20
15.9893
30
0
11
107.106
21
15.9893
31
0
39
0
210
0
220
0
230
1
0
LINE
5
A3
100
AcDbEntity
8
1
62
256
6
ByLayer
370
18
48
1
60
0
100
AcDbLine
10
95.4982
20
-15.9893
30
0
11
96.6
21
-15.9893
31
0
39
0
210
0
220
0
230
1
0
LINE
5
A4
100
AcDbEntity
8
SK3
62
256
6
ByLayer
370
13
48
0.05
60
0
100
AcDbLine
10
96.6
20
-15.9893
30
0
11
107.106
21
-15.9893
31
0
39
0
210
0
220
0
230
1
0
LINE
5
A5
100
AcDbEntity
8
SK3
62
256
6
ByLayer
370
13
48
0.05
60
0
100
AcDbLine
10
79.293
20
9.0043
30
0
11
79.293
21
-9.0043
31
0
39
0
210
0
220
0
230
1
0
LINE
5
A6
100
AcDbEntity
8
81
62
256
6
ByLayer
370
13
48
1
60
0
100
AcDbLine
10
108.1
20
0
30
0
11
116.1
21
0
31
0
39
0
210
0
220
0
230
1
0
LINE
5
A7
100
AcDbEntity
8
1
62
256
6
ByLayer
370
18
48
0.05
60
0
100
AcDbLine
10
51.5
20
-21.6091
30
0
11
51.5
21
21.6091
31
0
39
0
210
0
220
0
230
1
0
LINE
5
A8
100
AcDbEntity
8
1
62
256
6
ByLayer
370
18
48
1
60
0
100
AcDbLine
10
51.5
20
-20.75
30
0
11
50.7
21
-20.75
31
0
39
0
210
0
220
0
230
1
0
LINE
5
A9
100
AcDbEntity
8
1
62
256
6
ByLayer
370
18
48
1
60
0
100
AcDbLine
10
35.73
20
22.0091
30
0
11
32.43
21
18.7091
31
0
39
0
210
0
220
0
230
1
0
LINE
5
AA
100
AcDbEntity
8
1
62
256
6
ByLayer
370
18
48
1
60
0
100
AcDbLine
10
32.43
20
-18.7091
30
0
11
35.73
21
-22.0091
31
0
39
0
210
0
220
0
230
1
0
LINE
5
AB
100
AcDbEntity
8
1
62
256
6
ByLayer
370
18
48
1
60
0
100
AcDbLine
10
50.7
20
21.0091
30
0
11
49.7
21
22.0091
31
0
39
0
210
0
220
0
230
1
0
LINE
5
AC
100
AcDbEntity
8
1
62
256
6
ByLayer
370
18
48
1
60
0
100
AcDbLine
10
49.7
20
-22.0091
30
0
11
50.7
21
-21.0091
31
0
39
0
210
0
220
0
230
1
0
LINE
5
AD
100
AcDbEntity
8
1
62
256
6
ByLayer
370
18
48
1
60
0
100
AcDbLine
10
35.73
20
22.0091
30
0
11
35.73
21
-22.0091
31
0
39
0
210
0
220
0
230
1
0
LINE
5
AE
100
AcDbEntity
8
1
62
256
6
ByLayer
370
18
48
1
60
0
100
AcDbLine
10
49.7
20
22.0091
30
0
11
49.7
21
-22.0091
31
0
39
0
210
0
220
0
230
1
0
LINE
5
AF
100
AcDbEntity
8
1
62
256
6
ByLayer
370
18
48
1
60
0
100
AcDbLine
10
93.113339
20
14.7955
30
0
11
93.113339
21
-14.7955
31
0
39
0
210
0
220
0
230
1
0
LINE
5
B0
100
AcDbEntity
8
1
62
256
6
ByLayer
370
18
48
1
60
0
100
AcDbLine
10
93.113339
20
-14.7955
30
0
11
93.113339
21
-13.9954
31
0
39
0
210
0
220
0
230
1
0
LINE
5
B1
100
AcDbEntity
8
1
62
256
6
ByLayer
370
18
48
1
60
0
100
AcDbLine
10
7.578163
20
31.75
30
0
11
9.1875
21
28.962547
31
0
39
0
210
0
220
0
230
1
0
LINE
5
B2
100
AcDbEntity
8
1
62
256
6
ByLayer
370
18
48
1
60
0
100
AcDbLine
10
13.0125
20
28.962547
30
0
11
14.621837
21
31.75
31
0
39
0
210
0
220
0
230
1
0
LINE
5
B3
100
AcDbEntity
8
1
62
256
6
ByLayer
370
18
48
1
60
0
100
AcDbLine
10
9.1875
20
28
30
0
11
13.0125
21
28
31
0
39
0
210
0
220
0
230
1
0
LINE
5
B4
100
AcDbEntity
8
1
62
256
6
ByLayer
370
18
48
1
60
0
100
AcDbLine
10
3.18
20
0
30
0
11
3.18
21
30.95
31
0
39
0
210
0
220
0
230
1
0
LINE
5
B5
100
AcDbEntity
8
SK1
62
256
6
ByLayer
370
18
48
1
60
0
100
AcDbLine
10
1.3E-05
20
22.225002
30
0
11
-67.544308
21
12.374695
31
0
39
0
210
0
220
0
230
1
0
LINE
5
B7
100
AcDbEntity
8
1
62
256
6
ByLayer
370
18
48
1
60
0
100
AcDbLine
10
19.05
20
0
30
0
11
19.05
21
30.95
31
0
39
0
210
0
220
0
230
1
0
LINE
5
B8
100
AcDbEntity
8
SK1
62
256
6
ByLayer
370
18
48
1
60
0
100
AcDbLine
10
-68.25
20
0
30
0
11
-68.25
21
11.385163
31
0
39
0
210
0
220
0
230
1
0
LINE
5
B9
100
AcDbEntity
8
SK1
62
256
6
ByLayer
370
18
48
1
60
0
100
AcDbLine
10
-68.25
20
0
30
0
11
-68.25
21
-11.385163
31
0
39
0
210
0
220
0
230
1
0
LINE
5
BA
100
AcDbEntity
8
1
62
256
6
ByLayer
370
18
48
1
60
0
100
AcDbLine
10
19.05
20
0
30
0
11
19.05
21
-30.95
31
0
39
0
210
0
220
0
230
1
0
LINE
5
BB
100
AcDbEntity
8
SK1
62
256
6
ByLayer
370
18
48
1
60
0
100
AcDbLine
10
1.3E-05
20
-22.225002
30
0
11
-67.544308
21
-12.374695
31
0
39
0
210
0
220
0
230
1
0
LINE
5
BC
100
AcDbEntity
8
1
62
256
6
ByLayer
370
18
48
1
60
0
100
AcDbLine
10
3.18
20
0
30
0
11
3.18
21
-30.95
31
0
39
0
210
0
220
0
230
1
0
LINE
5
BD
100
AcDbEntity
8
1
62
256
6
ByLayer
370
18
48
1
60
0
100
AcDbLine
10
9.1875
20
-28
30
0
11
13.0125
21
-28
31
0
39
0
210
0
220
0
230
1
0
LINE
5
BE
100
AcDbEntity
8
1
62
256
6
ByLayer
370
18
48
1
60
0
100
AcDbLine
10
13.0125
20
-28.962547
30
0
11
14.621837
21
-31.75
31
0
39
0
210
0
220
0
230
1
0
LINE
5
BF
100
AcDbEntity
8
1
62
256
6
ByLayer
370
18
48
1
60
0
100
AcDbLine
10
7.578163
20
-31.75
30
0
11
9.1875
21
-28.962547
31
0
39
0
210
0
220
0
230
1
0
LINE
5
C0
100
AcDbEntity
8
1
62
256
6
ByLayer
370
13
48
0.05
60
0
100
AcDbLine
10
1.3E-05
20
-26.615393
30
0
11
1.3E-05
21
-19.560198
31
0
39
0
210
0
220
0
230
1
0
LINE
5
C1
100
AcDbEntity
8
1
62
256
6
ByLayer
370
13
48
0.05
60
0
100
AcDbLine
10
1.3E-05
20
18.85691
30
0
11
1.3E-05
21
25.459679
31
0
39
0
210
0
220
0
230
1
0
LINE
5
C2
100
AcDbEntity
8
1
62
256
6
ByLayer
370
18
48
1
60
0
100
AcDbLine
10
3.18
20
30.95
30
0
11
3.98
21
31.75
31
0
39
0
210
0
220
0
230
1
0
LINE
5
C3
100
AcDbEntity
8
1
62
256
6
ByLayer
370
18
48
1
60
0
100
AcDbLine
10
19.05
20
30.95
30
0
11
18.25
21
31.75
31
0
39
0
210
0
220
0
230
1
0
LINE
5
C4
100
AcDbEntity
8
1
62
256
6
ByLayer
370
18
48
1
60
0
100
AcDbLine
10
3.98
20
-31.75
30
0
11
3.18
21
-30.95
31
0
39
0
210
0
220
0
230
1
0
LINE
5
C5
100
AcDbEntity
8
1
62
256
6
ByLayer
370
18
48
1
60
0
100
AcDbLine
10
18.25
20
-31.75
30
0
11
19.05
21
-30.95
31
0
39
0
210
0
220
0
230
1
0
LINE
5
C6
100
AcDbEntity
8
1
62
256
6
ByLayer
370
18
48
1
60
0
100
AcDbLine
10
52
20
22.0091
30
0
11
79.0676
21
22.0091
31
0
39
0
210
0
220
0
230
1
0
LINE
5
C7
100
AcDbEntity
8
1
62
256
6
ByLayer
370
18
48
1
60
0
100
AcDbLine
10
52
20
-22.0091
30
0
11
79.0676
21
-22.0091
31
0
39
0
210
0
220
0
230
1
0
LINE
5
C8
100
AcDbEntity
8
1
62
256
6
ByLayer
370
18
48
1
60
0
100
AcDbLine
10
51.5
20
-21.5091
30
0
11
51.5
21
21.5091
31
0
39
0
210
0
220
0
230
1
0
LINE
5
C9
100
AcDbEntity
8
1
62
256
6
ByLayer
370
18
48
1
60
0
100
AcDbLine
10
84.2488
20
20.193
30
0
11
79.5488
21
20.193
31
0
39
0
210
0
220
0
230
1
0
LINE
5
CA
100
AcDbEntity
8
1
62
256
6
ByLayer
370
18
48
1
60
0
100
AcDbLine
10
113.6
20
21
30
0
11
97.6
21
21
31
0
39
0
210
0
220
0
230
1
0
LINE
5
CB
100
AcDbEntity
8
1
62
256
6
ByLayer
370
18
48
1
60
0
100
AcDbLine
10
97.6
20
-21
30
0
11
113.6
21
-21
31
0
39
0
210
0
220
0
230
1
0
LINE
5
CC
100
AcDbEntity
8
1
62
256
6
ByLayer
370
18
48
1
60
0
100
AcDbLine
10
51.5
20
20.75
30
0
11
50.7
21
20.75
31
0
39
0
210
0
220
0
230
1
0
LINE
5
CD
100
AcDbEntity
8
1
62
256
6
ByLayer
370
18
48
1
60
0
100
AcDbLine
10
50.7
20
21.0091
30
0
11
50.7
21
-21.0091
31
0
39
0
210
0
220
0
230
1
0
LINE
5
CE
100
AcDbEntity
8
1
62
256
6
ByLayer
370
18
48
1
60
0
100
AcDbLine
10
32.43
20
18.7091
30
0
11
32.43
21
-18.840036
31
0
39
0
210
0
220
0
230
1
0
LINE
5
CF
100
AcDbEntity
8
1
62
256
6
ByLayer
370
18
48
1
60
0
100
AcDbLine
10
31.93
20
17.3
30
0
11
32.428878
21
16.924068
31
0
39
0
210
0
220
0
230
1
0
LINE
5
D0
100
AcDbEntity
8
1
62
256
6
ByLayer
370
18
48
1
60
0
100
AcDbLine
10
31.93
20
-17.3
30
0
11
32.428878
21
-16.924068
31
0
39
0
210
0
220
0
230
1
0
LINE
5
D1
100
AcDbEntity
8
1
62
256
6
ByLayer
370
18
48
1
60
0
100
AcDbLine
10
84.7568
20
13.9954
30
0
11
93.1138
21
13.9954
31
0
39
0
210
0
220
0
230
1
0
LINE
5
D2
100
AcDbEntity
8
1
62
256
6
ByLayer
370
18
48
1
60
0
100
AcDbLine
10
84.2488
20
-20.193
30
0
11
79.5488
21
-20.193
31
0
39
0
210
0
220
0
230
1
0
LINE
5
D3
100
AcDbEntity
8
1
62
256
6
ByLayer
370
18
48
1
60
0
100
AcDbLine
10
84.7568
20
-13.9954
30
0
11
93.1138
21
-13.9954
31
0
39
0
210
0
220
0
230
1
0
LINE
5
D4
100
AcDbEntity
8
1
62
256
6
ByLayer
370
18
48
1
60
0
100
AcDbLine
10
49.8
20
22.0091
30
0
11
49.7
21
22.0091
31
0
39
0
210
0
220
0
230
1
0
LINE
5
D5
100
AcDbEntity
8
1
62
256
6
ByLayer
370
18
48
1
60
0
100
AcDbLine
10
35.73
20
22.0091
30
0
11
49.8
21
22.0091
31
0
39
0
210
0
220
0
230
1
0
LINE
5
D6
100
AcDbEntity
8
1
62
256
6
ByLayer
370
18
48
1
60
0
100
AcDbLine
10
35.73
20
-22.0091
30
0
11
49.8
21
-22.0091
31
0
39
0
210
0
220
0
230
1
0
LINE
5
D7
100
AcDbEntity
8
1
62
256
6
ByLayer
370
18
48
1
60
0
100
AcDbLine
10
3.98
20
31.75
30
0
11
7.578163
21
31.75
31
0
39
0
210
0
220
0
230
1
0
LINE
5
D8
100
AcDbEntity
8
1
62
256
6
ByLayer
370
18
48
1
60
0
100
AcDbLine
10
3.98
20
-31.75
30
0
11
7.578163
21
-31.75
31
0
39
0
210
0
220
0
230
1
0
LINE
5
D9
100
AcDbEntity
8
1
62
256
6
ByLayer
370
18
48
1
60
0
100
AcDbLine
10
2.58
20
22.027084
30
0
11
1.28
21
22.027084
31
0
39
0
210
0
220
0
230
1
0
LINE
5
DA
100
AcDbEntity
8
1
62
256
6
ByLayer
370
18
48
1
60
0
100
AcDbLine
10
1.3E-05
20
22.225002
30
0
11
0.753
21
22.332303
31
0
39
0
210
0
220
0
230
1
0
LINE
5
DB
100
AcDbEntity
8
1
62
256
6
ByLayer
370
18
48
1
60
0
100
AcDbLine
10
1.28
20
22.027084
30
0
11
0.753
21
22.332303
31
0
39
0
210
0
220
0
230
1
0
LINE
5
DC
100
AcDbEntity
8
1
62
256
6
ByLayer
370
18
48
1
60
0
100
AcDbLine
10
0.753
20
22.332303
30
0
11
0.753
21
-22.332303
31
0
39
0
210
0
220
0
230
1
0
LINE
5
DD
100
AcDbEntity
8
1
62
256
6
ByLayer
370
18
48
1
60
0
100
AcDbLine
10
1.28
20
22.027084
30
0
11
1.339872
21
-22.035151
31
0
39
0
210
0
220
0
230
1
0
LINE
5
DE
100
AcDbEntity
8
1
62
256
6
ByLayer
370
18
48
1
60
0
100
AcDbLine
10
1.3E-05
20
-22.225002
30
0
11
0.753
21
-22.332303
31
0
39
0
210
0
220
0
230
1
0
LINE
5
DF
100
AcDbEntity
8
1
62
256
6
ByLayer
370
18
48
1
60
0
100
AcDbLine
10
1.28
20
-22.027084
30
0
11
0.753
21
-22.332303
31
0
39
0
210
0
220
0
230
1
0
LINE
5
E0
100
AcDbEntity
8
1
62
256
6
ByLayer
370
18
48
1
60
0
100
AcDbLine
10
2.58
20
-22.027084
30
0
11
1.28
21
-22.027084
31
0
39
0
210
0
220
0
230
1
0
LINE
5
E1
100
AcDbEntity
8
1
62
256
6
ByLayer
370
18
48
1
60
0
100
AcDbLine
10
20
20
17.3
30
0
11
31.93
21
17.3
31
0
39
0
210
0
220
0
230
1
0
LINE
5
E2
100
AcDbEntity
8
1
62
256
6
ByLayer
370
18
48
1
60
0
100
AcDbLine
10
20
20
-17.3
30
0
11
31.93
21
-17.3
31
0
39
0
210
0
220
0
230
1
0
LINE
5
E3
100
AcDbEntity
8
1
62
256
6
ByLayer
370
18
48
1
60
0
100
AcDbLine
10
14.621837
20
-31.75
30
0
11
18.25
21
-31.75
31
0
39
0
210
0
220
0
230
1
0
LINE
5
E4
100
AcDbEntity
8
1
62
256
6
ByLayer
370
18
48
1
60
0
100
AcDbLine
10
14.621837
20
31.75
30
0
11
18.25
21
31.75
31
0
39
0
210
0
220
0
230
1
0
LINE
5
E5
100
AcDbEntity
8
80
62
256
6
ByLayer
370
13
48
1
60
0
100
AcDbLine
10
0
20
0
30
0
11
-6
21
0
31
0
39
0
210
0
220
0
230
1
0
LINE
5
E6
100
AcDbEntity
8
SK3
62
256
6
ByLayer
370
13
48
0.05
60
0
100
AcDbLine
10
107.106
20
15.9893
30
0
11
108.0998
21
14.9955
31
0
39
0
210
0
220
0
230
1
0
LINE
5
E7
100
AcDbEntity
8
SK3
62
256
6
ByLayer
370
13
48
0.05
60
0
100
AcDbLine
10
107.7918
20
12.425405
30
0
11
108.0998
21
12.603229
31
0
39
0
210
0
220
0
230
1
0
LINE
5
E8
100
AcDbEntity
8
SK3
62
256
6
ByLayer
370
13
48
0.05
60
0
100
AcDbLine
10
108.0998
20
-12.603229
30
0
11
107.7918
21
-12.425405
31
0
39
0
210
0
220
0
230
1
0
LINE
5
E9
100
AcDbEntity
8
SK3
62
256
6
ByLayer
370
13
48
0.05
60
0
100
AcDbLine
10
108.0998
20
-14.9955
30
0
11
107.106
21
-15.9893
31
0
39
0
210
0
220
0
230
1
0
LINE
5
EA
100
AcDbEntity
8
4
62
256
6
ByLayer
370
13
48
0.05
60
0
100
AcDbLine
10
0
20
0
30
0
11
108.0998
21
0
31
0
39
0
210
0
220
0
230
1
0
LINE
5
EC
100
AcDbEntity
8
SK3
62
256
6
ByLayer
370
13
48
0.05
60
0
100
AcDbLine
10
3.18
20
24.82
30
0
11
19.05
21
24.82
31
0
39
0
210
0
220
0
230
1
0
LINE
5
ED
100
AcDbEntity
8
SK3
62
256
6
ByLayer
370
13
48
0.05
60
0
100
AcDbLine
10
3.18
20
-22.42
30
0
11
19.05
21
-22.42
31
0
39
0
210
0
220
0
230
1
0
LINE
5
EE
100
AcDbEntity
8
1
62
256
6
ByLayer
370
18
48
1
60
0
100
AcDbLine
10
3.98
20
31.75
30
0
11
3.98
21
0
31
0
39
0
210
0
220
0
230
1
0
LINE
5
EF
100
AcDbEntity
8
1
62
256
6
ByLayer
370
18
48
1
60
0
100
AcDbLine
10
7.578163
20
31.75
30
0
11
7.578163
21
0
31
0
39
0
210
0
220
0
230
1
0
LINE
5
F0
100
AcDbEntity
8
1
62
256
6
ByLayer
370
18
48
1
60
0
100
AcDbLine
10
9.1875
20
28.962547
30
0
11
9.1875
21
0
31
0
39
0
210
0
220
0
230
1
0
LINE
5
F1
100
AcDbEntity
8
1
62
256
6
ByLayer
370
18
48
1
60
0
100
AcDbLine
10
13.0125
20
28.962547
30
0
11
13.0125
21
0
31
0
39
0
210
0
220
0
230
1
0
LINE
5
F2
100
AcDbEntity
8
1
62
256
6
ByLayer
370
18
48
1
60
0
100
AcDbLine
10
14.621837
20
31.75
30
0
11
14.621837
21
0
31
0
39
0
210
0
220
0
230
1
0
LINE
5
F3
100
AcDbEntity
8
1
62
256
6
ByLayer
370
18
48
1
60
0
100
AcDbLine
10
18.25
20
-31.75
30
0
11
18.25
21
31.75
31
0
39
0
210
0
220
0
230
1
0
LINE
5
F4
100
AcDbEntity
8
1
62
256
6
ByLayer
370
18
48
1
60
0
100
AcDbLine
10
14.621837
20
-31.75
30
0
11
14.621837
21
0
31
0
39
0
210
0
220
0
230
1
0
LINE
5
F5
100
AcDbEntity
8
1
62
256
6
ByLayer
370
18
48
1
60
0
100
AcDbLine
10
13.0125
20
-28.962547
30
0
11
13.0125
21
0
31
0
39
0
210
0
220
0
230
1
0
LINE
5
F6
100
AcDbEntity
8
1
62
256
6
ByLayer
370
18
48
1
60
0
100
AcDbLine
10
9.1875
20
-28.962547
30
0
11
9.1875
21
0
31
0
39
0
210
0
220
0
230
1
0
LINE
5
F7
100
AcDbEntity
8
1
62
256
6
ByLayer
370
18
48
1
60
0
100
AcDbLine
10
7.578163
20
-31.75
30
0
11
7.578163
21
0
31
0
39
0
210
0
220
0
230
1
0
LINE
5
F8
100
AcDbEntity
8
1
62
256
6
ByLayer
370
18
48
1
60
0
100
AcDbLine
10
3.98
20
-31.75
30
0
11
3.98
21
0
31
0
39
0
210
0
220
0
230
1
0
LINE
5
F9
100
AcDbEntity
8
SK4
62
256
6
ByLayer
370
13
48
0.05
60
0
100
AcDbLine
10
123.639829
20
0
30
0
11
-72.029383
21
0
31
0
39
0
210
0
220
0
230
1
0
LINE
5
FB
100
AcDbEntity
8
3
62
256
6
ByLayer
370
13
48
0.05
60
0
100
AcDbLine
10
107.106
20
15.9893
30
0
11
108.0998
21
14.9955
31
0
39
0
210
0
220
0
230
1
0
LINE
5
FD
100
AcDbEntity
8
3
62
256
6
ByLayer
370
13
48
0.05
60
0
100
AcDbLine
10
108.0998
20
-14.9955
30
0
11
107.106
21
-15.9893
31
0
39
0
210
0
220
0
230
1
0
LINE
5
FE
100
AcDbEntity
8
3
62
256
6
ByLayer
370
13
48
0.05
60
0
100
AcDbLine
10
96.6
20
-15.9893
30
0
11
107.106
21
-15.9893
31
0
39
0
210
0
220
0
230
1
0
LINE
5
FF
100
AcDbEntity
8
3
62
256
6
ByLayer
370
13
48
0.05
60
0
100
AcDbLine
10
96.6
20
15.9893
30
0
11
107.106
21
15.9893
31
0
39
0
210
0
220
0
230
1
0
LINE
5
100
100
AcDbEntity
8
3
62
256
6
ByLayer
370
13
48
0.05
60
0
100
AcDbLine
10
108.0998
20
-12.468692
30
0
11
108.0998
21
-14.7955
31
0
39
0
210
0
220
0
230
1
0
LINE
5
101
100
AcDbEntity
8
3
62
256
6
ByLayer
370
13
48
0.05
60
0
100
AcDbLine
10
108.0998
20
14.7955
30
0
11
108.0998
21
12.468692
31
0
39
0
210
0
220
0
230
1
0
MTEXT
5
121
100
AcDbEntity
8
SK6
62
256
6
ByLayer
370
18
48
1
60
0
100
AcDbMText
10
31.52928
20
-36.026506
30
0
210
0
220
0
230
1
1
\W0.7293;970-V40-25-122
40
3.5
41
0
44
1.084337
50
0
71
7
72
5
7
iso_b_vert
0
DIMENSION
5
12F
100
AcDbEntity
8
SK2
62
256
6
ByLayer
370
13
48
1
60
0
100
AcDbDimension
2
DimnDraft3D1
10
116.6
20
33.195487
30
0
11
104.808626
21
33.195487
31
0
70
32
71
5
72
1
41
1
210
0
220
0
230
1
3
Standard
100
AcDbAlignedDimension
13
96.6
23
21.5875
33
0
14
116.6
24
17.391348
34
0
50
0
100
AcDbRotatedDimension
1001
ACAD
1000
DSTYLE
1002
{
1070
   279
1070
     0
1070
   172
1070
     1
1070
   173
1070
     1
1070
   340
1005
122
1070
   271
1070
     3
1070
   272
1070
     3
1070
    77
1070
     1
1070
    73
1070
     0
1070
   171
1070
     4
1070
   274
1070
     4
1070
   177
1070
     7
1070
   176
1070
     7
1070
   178
1070
     7
1070
    78
1070
     8
1070
    48
1040
-0.005
1070
    41
1041
3.175
1070
   147
1041
1.500003
1070
    42
1041
1.5875
1070
    44
1041
3.175
1070
   140
1041
3.000007
1070
   343
1005
0
1070
   344
1005
0
1002
}
0
DIMENSION
5
139
100
AcDbEntity
8
SK2
62
256
6
ByLayer
370
13
48
1
60
0
100
AcDbDimension
2
DimnDraft3D2
10
79.5486
20
42.316909
30
0
11
94.929695
21
42.316909
31
0
70
32
71
5
72
1
41
1
210
0
220
0
230
1
3
Standard
100
AcDbAlignedDimension
13
116.6
23
17.391348
33
0
14
79.5486
24
23.2156
34
0
50
0
100
AcDbRotatedDimension
1001
ACAD
1000
DSTYLE
1002
{
1070
   279
1070
     0
1070
   172
1070
     1
1070
   173
1070
     1
1070
   340
1005
122
1070
   271
1070
     1
1070
   272
1070
     3
1070
    77
1070
     1
1070
    73
1070
     0
1070
   171
1070
     4
1070
   274
1070
     4
1070
   177
1070
     7
1070
   176
1070
     7
1070
   178
1070
     7
1070
    78
1070
     8
1070
    48
1040
-0.005
1070
    41
1041
3.175
1070
   147
1041
1.500003
1070
    42
1041
1.5875
1070
    44
1041
3.175
1070
   140
1041
3.000007
1070
   343
1005
0
1070
   344
1005
0
1002
}
0
DIMENSION
5
143
100
AcDbEntity
8
SK2
62
256
6
ByLayer
370
13
48
1
60
0
100
AcDbDimension
2
DimnDraft3D3
10
136.998198
20
-10.204574
30
0
11
136.998198
21
-5.557239
31
0
70
32
71
5
72
1
41
1
210
0
220
0
230
1
3
Standard
100
AcDbAlignedDimension
13
118.1875
23
10.204574
33
0
14
118.1875
24
-10.204574
34
0
50
90
100
AcDbRotatedDimension
1001
ACAD
1000
DSTYLE
1002
{
1070
    74
1070
     0
1070
   279
1070
     0
1070
   172
1070
     1
1070
   173
1070
     1
1070
   340
1005
122
1070
   271
1070
     3
1070
   272
1070
     3
1070
    77
1070
     1
1070
    73
1070
     0
1070
   171
1070
     4
1070
   274
1070
     4
1070
   177
1070
     7
1070
   176
1070
     7
1070
   178
1070
     7
1070
    78
1070
     8
1070
    48
1040
-0.005
1070
    41
1041
3.175
1070
   147
1041
1.500003
1070
    42
1041
1.5875
1070
    44
1041
3.175
1070
   140
1041
3.000007
1070
   343
1005
0
1070
   344
1005
0
1002
}
0
DIMENSION
5
14E
100
AcDbEntity
8
SK2
62
256
6
ByLayer
370
13
48
1
60
0
100
AcDbDimension
2
DimnDraft3D4
10
148.283842
20
21
30
0
11
148.283842
21
-4.45558
31
0
70
32
71
5
72
1
41
1
210
0
220
0
230
1
3
Standard
100
AcDbAlignedDimension
13
115.1875
23
-21
33
0
14
115.1875
24
21
34
0
50
90
100
AcDbRotatedDimension
1001
ACAD
1000
DSTYLE
1002
{
1070
    74
1070
     0
1070
   279
1070
     0
1070
   172
1070
     1
1070
   173
1070
     1
1070
   340
1005
122
1070
   271
1070
     0
1070
   272
1070
     3
1070
    77
1070
     1
1070
    73
1070
     0
1070
   171
1070
     4
1070
   274
1070
     4
1070
   177
1070
     7
1070
   176
1070
     7
1070
   178
1070
     7
1070
    78
1070
     8
1070
    48
1040
-0.005
1070
    41
1041
3.175
1070
   147
1041
1.500003
1070
    42
1041
1.5875
1070
    44
1041
3.175
1070
   140
1041
3.000007
1070
   343
1005
0
1070
   344
1005
0
1002
}
0
DIMENSION
5
156
100
AcDbEntity
8
SK2
62
256
6
ByLayer
370
13
48
1
60
0
100
AcDbDimension
2
DimnDraft3D5
10
64.227026
20
-22.0091
30
0
11
64.227026
21
3.610235
31
0
70
32
71
5
72
1
41
1
210
0
220
0
230
1
3
Standard
100
AcDbAlignedDimension
13
64.227026
23
22.0091
33
0
14
64.227026
24
-22.0091
34
0
50
90
100
AcDbRotatedDimension
1001
ACAD
1000
DSTYLE
1002
{
1070
    74
1070
     0
1070
   279
1070
     0
1070
   172
1070
     1
1070
   173
1070
     1
1070
   340
1005
122
1070
   271
1070
     0
1070
   272
1070
     3
1070
    77
1070
     1
1070
    73
1070
     0
1070
   171
1070
     4
1070
   274
1070
     4
1070
   177
1070
     7
1070
   176
1070
     7
1070
   178
1070
     7
1070
    78
1070
     8
1070
    48
1040
-0.005
1070
    41
1041
3.175
1070
   147
1041
1.500003
1070
    42
1041
1.5875
1070
    44
1041
3.175
1070
   140
1041
3.000007
1070
   343
1005
0
1070
   344
1005
0
1002
}
0
DIMENSION
5
160
100
AcDbEntity
8
SK2
62
256
6
ByLayer
370
13
48
1
60
0
100
AcDbDimension
2
DimnDraft3D6
10
116.6
20
55.415803
30
0
11
54.409658
21
55.415803
31
0
70
32
71
5
72
1
41
1
210
0
220
0
230
1
3
Standard
100
AcDbAlignedDimension
13
1.3E-05
23
27.047179
33
0
14
116.6
24
17.391348
34
0
50
0
100
AcDbRotatedDimension
1001
ACAD
1000
DSTYLE
1002
{
1070
   279
1070
     0
1070
   172
1070
     1
1070
   173
1070
     1
1070
   340
1005
122
1070
   271
1070
     3
1070
   272
1070
     3
1070
    77
1070
     1
1070
    73
1070
     0
1070
   171
1070
     4
1070
   274
1070
     4
1070
   177
1070
     7
1070
   176
1070
     7
1070
   178
1070
     7
1070
    78
1070
     8
1070
    48
1040
-0.005
1070
    41
1041
3.175
1070
   147
1041
1.500003
1070
    42
1041
1.5875
1070
    44
1041
3.175
1070
   140
1041
3.000007
1070
   343
1005
0
1070
   344
1005
0
1002
}
0
DIMENSION
5
16E
100
AcDbEntity
8
SK2
62
256
6
ByLayer
370
13
48
1
60
0
100
AcDbDimension
2
DimnDraft3D7
10
-9.508568
20
-16.73522
30
0
11
-9.508568
21
2.499188
31
0
70
32
71
5
72
1
41
1
210
0
220
0
230
1
3
Standard
100
AcDbAlignedDimension
13
-1.299022
23
22.975
33
0
14
-1.299022
24
-21.475003
34
0
50
90
100
AcDbRotatedDimension
1001
ACAD
1000
DSTYLE
1002
{
1070
    74
1070
     0
1070
   279
1070
     0
1070
   173
1070
     1
1070
   340
1005
122
1070
   271
1070
     0
1070
   272
1070
     2
1070
    77
1070
     1
1070
    73
1070
     0
1070
   171
1070
     4
1070
   274
1070
     4
1070
   177
1070
     7
1070
   176
1070
     7
1070
   178
1070
     7
1070
    41
1041
2.999994
1070
   147
1041
1.499997
1070
    42
1041
1.499997
1070
    44
1041
2.999994
1070
   140
1041
2.999994
1070
   343
1005
16F
1070
   344
1005
16F
1002
}
0
DIMENSION
5
183
100
AcDbEntity
8
SK2
62
256
6
ByLayer
370
13
48
1
60
0
100
AcDbDimension
2
DimnDraft3D8
10
-73.936475
20
31.75
30
0
11
-73.936475
21
-5.763158
31
0
70
32
71
5
72
1
41
1
210
0
220
0
230
1
3
Standard
100
AcDbAlignedDimension
13
2.48
23
-31.75
33
0
14
2.48
24
31.75
34
0
50
90
100
AcDbRotatedDimension
1001
ACAD
1000
DSTYLE
1002
{
1070
    74
1070
     0
1070
   279
1070
     0
1070
   173
1070
     1
1070
   340
1005
122
1070
   271
1070
     2
1070
   272
1070
     2
1070
    77
1070
     1
1070
    73
1070
     0
1070
   171
1070
     4
1070
   274
1070
     4
1070
   177
1070
     7
1070
   176
1070
     7
1070
   178
1070
     7
1070
    41
1041
3.0
1070
   147
1041
1.5
1070
    42
1041
1.5
1070
    44
1041
3.0
1070
   140
1041
3.0
1070
   343
1005
16F
1070
   344
1005
16F
1002
}
0
DIMENSION
5
191
100
AcDbEntity
8
SK2
62
256
6
ByLayer
370
13
48
1
60
0
100
AcDbDimension
2
DimnDraft3D9
10
1.3E-05
20
55.391383
30
0
11
-38.668414
21
55.391383
31
0
70
32
71
5
72
1
41
1
210
0
220
0
230
1
3
Standard
100
AcDbAlignedDimension
13
-68.25
23
12.885163
33
0
14
1.3E-05
24
26.959679
34
0
50
0
100
AcDbRotatedDimension
1001
ACAD
1000
DSTYLE
1002
{
1070
   279
1070
     0
1070
   173
1070
     1
1070
   340
1005
122
1070
   271
1070
     2
1070
   272
1070
     2
1070
    77
1070
     1
1070
    73
1070
     0
1070
   171
1070
     4
1070
   274
1070
     4
1070
   177
1070
     7
1070
   176
1070
     7
1070
   178
1070
     7
1070
    41
1041
3.0
1070
   147
1041
1.5
1070
    42
1041
1.5
1070
    44
1041
3.0
1070
   140
1041
3.0
1070
   343
1005
0
1070
   344
1005
0
1002
}
0
DIMENSION
5
19B
100
AcDbEntity
8
SK2
62
256
6
ByLayer
370
13
48
1
60
0
100
AcDbDimension
2
DimnDraft3D10
10
19.05
20
43.897733
30
0
11
7.457324
21
43.897733
31
0
70
32
71
5
72
1
41
1
210
0
220
0
230
1
3
Standard
100
AcDbAlignedDimension
13
1.3E-05
23
27.047179
33
0
14
19.05
24
32.5375
34
0
50
0
100
AcDbRotatedDimension
1001
ACAD
1000
DSTYLE
1002
{
1070
   279
1070
     0
1070
   172
1070
     1
1070
   173
1070
     1
1070
   340
1005
122
1070
   271
1070
     3
1070
   272
1070
     3
1070
    77
1070
     1
1070
    73
1070
     0
1070
   171
1070
     4
1070
   274
1070
     4
1070
   177
1070
     7
1070
   176
1070
     7
1070
   178
1070
     7
1070
    78
1070
     8
1070
    48
1040
-0.005
1070
    41
1041
3.175
1070
   147
1041
1.500003
1070
    42
1041
1.5875
1070
    44
1041
3.175
1070
   140
1041
3.000007
1070
   343
1005
0
1070
   344
1005
0
1002
}
0
DIMENSION
5
1A6
100
AcDbEntity
8
2
62
256
6
ByLayer
370
13
48
1
60
0
100
AcDbDimension
2
DimnDraft3D11
10
108.0998
20
-44.965929
30
0
11
50.157793
21
-44.965929
31
0
70
32
71
5
72
1
41
1
210
0
220
0
230
1
3
Standard
100
AcDbAlignedDimension
13
1.3E-05
23
-28.202893
33
0
14
108.0998
24
-16.383
34
0
50
0
100
AcDbRotatedDimension
1001
ACAD
1000
DSTYLE
1002
{
1070
   279
1070
     0
1070
   172
1070
     1
1070
   173
1070
     1
1070
   340
1005
122
1070
   271
1070
     3
1070
   272
1070
     3
1070
    77
1070
     1
1070
    73
1070
     0
1070
   171
1070
     4
1070
   274
1070
     4
1070
   177
1070
     7
1070
   176
1070
     7
1070
   178
1070
     7
1070
    78
1070
     8
1070
    48
1040
-0.005
1070
    41
1041
3.175
1070
   147
1041
1.500003
1070
    42
1041
1.5875
1070
    44
1041
3.175
1070
   140
1041
3.000007
1070
   343
1005
0
1070
   344
1005
0
1002
}
0
ENDSEC
0
SECTION
2
OBJECTS
0
DICTIONARY
5
214
330
0
100
AcDbDictionary
280
0
281
1
3
ACAD_GROUP
350
215
3
ACAD_GROUP
350
216
3
ACAD_MLINESTYLE
350
217
0
DICTIONARY
5
215
330
0
100
AcDbDictionary
280
0
281
1
0
DICTIONARY
5
216
330
0
100
AcDbDictionary
280
0
281
1
3
<112004406MOD000_01>
350
1AF
0
DICTIONARY
5
217
330
0
100
AcDbDictionary
280
0
281
1
3
Standard
350
18
0
GROUP
5
1AF
330
216
100
AcDbGroup
300

70
0
71
1
340
6C
340
6E
340
70
340
72
340
73
340
74
340
75
340
77
340
78
340
79
340
7A
340
7B
340
7C
340
7D
340
7E
340
7F
340
80
340
81
340
82
340
83
340
84
340
85
340
86
340
87
340
88
340
89
340
8A
340
8B
340
8C
340
8D
340
8E
340
8F
340
90
340
91
340
92
340
93
340
94
340
95
340
96
340
97
340
98
340
99
340
9A
340
9B
340
9C
340
9D
340
9E
340
9F
340
A0
340
A1
340
A2
340
A3
340
A4
340
A5
340
A6
340
A7
340
A8
340
A9
340
AA
340
AB
340
AC
340
AD
340
AE
340
AF
340
B0
340
B1
340
B2
340
B3
340
B4
340
B5
340
B7
340
B8
340
B9
340
BA
340
BB
340
BC
340
BD
340
BE
340
BF
340
C0
340
C1
340
C2
340
C3
340
C4
340
C5
340
C6
340
C7
340
C8
340
C9
340
CA
340
CB
340
CC
340
CD
340
CE
340
CF
340
D0
340
D1
340
D2
340
D3
340
D4
340
D5
340
D6
340
D7
340
D8
340
D9
340
DA
340
DB
340
DC
340
DD
340
DE
340
DF
340
E0
340
E1
340
E2
340
E3
340
E4
340
E5
340
E6
340
E7
340
E8
340
E9
340
EA
340
EC
340
ED
340
EE
340
EF
340
F0
340
F1
340
F2
340
F3
340
F4
340
F5
340
F6
340
F7
340
F8
340
F9
340
FB
340
FD
340
FE
340
FF
340
100
340
101
340
102
340
103
340
104
340
105
340
106
340
107
340
108
340
109
340
10A
340
10B
340
10C
340
10D
340
10E
340
10F
340
110
340
111
340
112
340
113
340
114
340
115
340
116
340
117
340
118
340
119
340
11A
340
11B
340
11C
340
11D
340
11E
340
11F
340
120
340
121
340
12F
340
139
340
143
340
14E
340
156
340
160
340
16E
340
183
340
191
340
19B
340
1A6
0
MLINESTYLE
5
18
330
217
100
AcDbMlineStyle
2
Standard
70
0
3

62
256
51
90
52
90
71
2
49
-0.5
62
256
6
ByLayer
49
0.5
62
256
6
ByLayer
0
RASTERVARIABLES
5
200
330

100
AcDbRasterVariables
90
0
70
1
71
1
72
1
0
ENDSEC
0
EOF
