0
SECTION
2
HEADER
9
$ACADVER
1
AC1015
9
$DWGCODEPAGE
3
ANSI_1252
9
$HANDSEED
5
209
9
$ANGBASE
50
0
9
$ANGDIR
70
0
9
$ATTMODE
70
1
9
$AUNITS
70
0
9
$AUPREC
70
0
9
$CECOLOR
62
256
9
$CELTSCALE
40
1
9
$CELTYPE
6
ByLayer
9
$CELWEIGHT
370
18
9
$CLAYER
8
0
9
$CMLJUST
70
0
9
$CMLSCALE
40
1
9
$CMLSTYLE
2
Standard
9
$DIMSTYLE
2
Standard
9
$TEXTSIZE
40
0.2
9
$TEXTSTYLE
7
Standard
9
$LUNITS
70
2
9
$LUPREC
70
4
9
$EXTNAMES
290
1
9
$INSUNITS
70
4
9
$LTSCALE
40
1
9
$LWDISPLAY
290
1
9
$PDMODE
70
0
9
$PDSIZE
40
0
9
$PLINEGEN
70
0
0
ENDSEC
0
SECTION
2
CLASSES
0
CLASS
1
RASTERVARIABLES
2
AcDbRasterVariables
3
ISM
90
0
280
0
281
0
0
ENDSEC
0
SECTION
2
TABLES
0
TABLE
2
VPORT
5
1ff
100
AcDbSymbolTable
0
VPORT
5
1
100
AcDbSymbolTableRecord
100
AcDbViewportTableRecord
2
*Active
70
0
10
0
20
0
11
1
21
1
12
-1
22
1
13
0
23
0
14
0.5
24
0.5
15
10
25
10
16
0
26
0
36
1
17
0
27
0
37
0
0
ENDTAB
0
TABLE
2
LTYPE
5
200
100
AcDbSymbolTable
0
LTYPE
5
14
100
AcDbSymbolTableRecord
100
AcDbLinetypeTableRecord
70
0
2
ByBlock
3

72
65
73
0
40
0
0
LTYPE
5
15
100
AcDbSymbolTableRecord
100
AcDbLinetypeTableRecord
70
0
2
ByLayer
3

72
65
73
0
40
0
0
LTYPE
5
16
100
AcDbSymbolTableRecord
100
AcDbLinetypeTableRecord
70
0
2
CONTINUOUS
3
Solid line
72
65
73
0
40
0
0
LTYPE
5
6A
100
AcDbSymbolTableRecord
100
AcDbLinetypeTableRecord
70
0
2
CENTER
3
____ _ ____ _ ____ _ ____
72
65
73
4
40
47.5
49
22
74
0
49
-8.5
74
0
49
8.5
74
0
49
-8.5
74
0
0
LTYPE
5
6B
100
AcDbSymbolTableRecord
100
AcDbLinetypeTableRecord
70
0
2
DASHED
3
__ __ __ __ __ __ __ __ __
72
65
73
2
40
25.72
49
12.86
74
0
49
-12.86
74
0
0
ENDTAB
0
TABLE
2
LAYER
5
201
100
AcDbSymbolTable
0
LAYER
5
10
100
AcDbSymbolTableRecord
100
AcDbLayerTableRecord
2
0
70
0
62
7
6
CONTINUOUS
290
1
370
-3
390
0
0
LAYER
5
6D
100
AcDbSymbolTableRecord
100
AcDbLayerTableRecord
2
80
70
0
62
-6
6
CONTINUOUS
290
1
370
-3
390
0
0
LAYER
5
6F
100
AcDbSymbolTableRecord
100
AcDbLayerTableRecord
2
81
70
0
62
-3
6
CONTINUOUS
290
1
370
-3
390
0
0
LAYER
5
71
100
AcDbSymbolTableRecord
100
AcDbLayerTableRecord
2
1
70
0
62
4
6
CONTINUOUS
290
1
370
-3
390
0
0
LAYER
5
A9
100
AcDbSymbolTableRecord
100
AcDbLayerTableRecord
2
4
70
0
62
-2
6
CENTER
290
1
370
-3
390
0
0
LAYER
5
F0
100
AcDbSymbolTableRecord
100
AcDbLayerTableRecord
2
3
70
0
62
1
6
DASHED
290
1
370
-3
390
0
0
LAYER
5
185
100
AcDbSymbolTableRecord
100
AcDbLayerTableRecord
2
2
70
0
62
7
6
CONTINUOUS
290
1
370
-3
390
0
0
LAYER
5
1e8
100
AcDbSymbolTableRecord
100
AcDbLayerTableRecord
2
SK3
70
0
62
1
6
DASHED
290
1
370
-3
390
0
0
LAYER
5
1e9
100
AcDbSymbolTableRecord
100
AcDbLayerTableRecord
2
SK1
70
0
62
4
6
CONTINUOUS
290
1
370
-3
390
0
0
LAYER
5
1ea
100
AcDbSymbolTableRecord
100
AcDbLayerTableRecord
2
SK4
70
0
62
2
6
CENTER
290
1
370
-3
390
0
0
LAYER
5
1eb
100
AcDbSymbolTableRecord
100
AcDbLayerTableRecord
2
SK6
70
0
62
5
6
CONTINUOUS
290
1
370
-3
390
0
0
LAYER
5
1ec
100
AcDbSymbolTableRecord
100
AcDbLayerTableRecord
2
SK2
70
0
62
7
6
CONTINUOUS
290
1
370
-3
390
0
0
ENDTAB
0
TABLE
2
STYLE
5
202
100
AcDbSymbolTable
0
STYLE
5
11
100
AcDbSymbolTableRecord
100
AcDbTextStyleTableRecord
2
Standard
3
txt
70
0
71
0
40
0
41
1
42
0
50
0
0
STYLE
5
126
100
AcDbSymbolTableRecord
100
AcDbTextStyleTableRecord
2
iso_b_vert
3
simplex.shx
70
0
71
0
40
0
41
1
42
0
50
0
0
STYLE
5
127
100
AcDbSymbolTableRecord
100
AcDbTextStyleTableRecord
2
DWGDirectTextStyle
3
simplex
70
0
71
0
40
0
41
1
42
0
50
0
0
ENDTAB
0
TABLE
2
DIMSTYLE
5
203
100
AcDbSymbolTable
100
AcDbDimStyleTable
0
DIMSTYLE
105
27
100
AcDbSymbolTableRecord
100
AcDbDimStyleTableRecord
2
Standard
70
0
3
<>
41
0.18
42
0.0625
44
0.18
140
0.18
147
0.09
73
0
74
0
77
1
271
2
275
0
278
52
280
0
340
11
0
ENDTAB
0
TABLE
2
VIEW
5
204
100
AcDbSymbolTable
0
ENDTAB
0
TABLE
2
UCS
5
205
100
AcDbSymbolTable
0
ENDTAB
0
TABLE
2
APPID
5
206
100
AcDbSymbolTable
0
APPID
5
12
100
AcDbSymbolTableRecord
100
AcDbRegAppTableRecord
2
ACAD
70
0
0
ENDTAB
0
TABLE
2
BLOCK_RECORD
5
207
100
AcDbSymbolTable
0
BLOCK_RECORD
5
1F
100
AcDbSymbolTableRecord
100
AcDbBlockTableRecord
2
*Model_Space
340
0
70
0
0
BLOCK_RECORD
5
1B
100
AcDbSymbolTableRecord
100
AcDbBlockTableRecord
2
*Paper_Space
340
0
70
0
0
BLOCK_RECORD
5
23
100
AcDbSymbolTableRecord
100
AcDbBlockTableRecord
2
*Paper_Space0
340
0
70
0
0
BLOCK_RECORD
5
129
100
AcDbSymbolTableRecord
100
AcDbBlockTableRecord
2
DimnDraft3D1
340
0
70
0
0
BLOCK_RECORD
5
134
100
AcDbSymbolTableRecord
100
AcDbBlockTableRecord
2
DimnDraft3D2
340
0
70
0
0
BLOCK_RECORD
5
13C
100
AcDbSymbolTableRecord
100
AcDbBlockTableRecord
2
DimnDraft3D3
340
0
70
0
0
BLOCK_RECORD
5
146
100
AcDbSymbolTableRecord
100
AcDbBlockTableRecord
2
DimnDraft3D4
340
0
70
0
0
BLOCK_RECORD
5
150
100
AcDbSymbolTableRecord
100
AcDbBlockTableRecord
2
DimnDraft3D5
340
0
70
0
0
BLOCK_RECORD
5
15A
100
AcDbSymbolTableRecord
100
AcDbBlockTableRecord
2
DimnDraft3D6
340
0
70
0
0
BLOCK_RECORD
5
168
100
AcDbSymbolTableRecord
100
AcDbBlockTableRecord
2
_CLOSED
340
0
70
0
0
BLOCK_RECORD
5
16F
100
AcDbSymbolTableRecord
100
AcDbBlockTableRecord
2
DimnDraft3D7
340
0
70
0
0
BLOCK_RECORD
5
179
100
AcDbSymbolTableRecord
100
AcDbBlockTableRecord
2
DimnDraft3D8
340
0
70
0
0
BLOCK_RECORD
5
183
100
AcDbSymbolTableRecord
100
AcDbBlockTableRecord
2
DimnDraft3D9
340
0
70
0
0
ENDTAB
0
ENDSEC
0
SECTION
2
BLOCKS
0
BLOCK
5
20
100
AcDbEntity
8
0
100
AcDbBlockBegin
2
*Model_Space
70
0
10
0
20
0
30
0
3
*Model_Space
0
ENDBLK
5
21
100
AcDbEntity
8
0
100
AcDbBlockEnd
0
BLOCK
5
1C
100
AcDbEntity
8
0
100
AcDbBlockBegin
2
*Paper_Space
70
0
10
0
20
0
30
0
3
*Paper_Space
0
ENDBLK
5
1D
100
AcDbEntity
8
0
100
AcDbBlockEnd
0
BLOCK
5
24
100
AcDbEntity
8
0
100
AcDbBlockBegin
2
*Paper_Space0
70
0
10
0
20
0
30
0
3
*Paper_Space0
0
ENDBLK
5
25
100
AcDbEntity
8
0
100
AcDbBlockEnd
0
BLOCK
5
131
100
AcDbEntity
8
0
100
AcDbBlockBegin
2
DimnDraft3D1
70
0
10
0
20
0
30
0
3
DimnDraft3D1
0
MTEXT
5
12A
100
AcDbEntity
8
SK2
62
256
6
ByLayer
370
18
48
1
60
0
100
AcDbMText
10
175.569172
20
-5.129494
30
0
210
0
220
0
230
1
1
\W0.8264;%%c 62.7
40
3.000007
41
0
44
1.084337
50
90
71
7
72
5
7
iso_b_vert
0
LINE
5
12C
100
AcDbEntity
8
SK2
62
256
6
ByLayer
370
18
48
1
60
0
100
AcDbLine
10
146.6575
20
-31.35
30
0
11
179.494288
21
-31.35
31
0
39
0
210
0
220
0
230
1
0
LINE
5
12D
100
AcDbEntity
8
SK2
62
256
6
ByLayer
370
18
48
1
60
0
100
AcDbLine
10
146.6575
20
31.35
30
0
11
179.494288
21
31.35
31
0
39
0
210
0
220
0
230
1
0
LINE
5
12E
100
AcDbEntity
8
SK2
62
256
6
ByLayer
370
18
48
1
60
0
100
AcDbLine
10
176.319288
20
-31.35
30
0
11
176.319288
21
31.35
31
0
39
0
210
0
220
0
230
1
0
SOLID
5
12F
100
AcDbEntity
8
SK2
62
256
6
ByLayer
370
18
48
1
60
0
100
AcDbTrace
10
176.319288
20
-31.35
30
0
11
175.816418
21
-28.175002
31
0
12
176.822159
22
-28.174998
32
0
13
176.319288
23
-31.35
33
0
39
0
210
0
220
0
230
1
0
SOLID
5
130
100
AcDbEntity
8
SK2
62
256
6
ByLayer
370
18
48
1
60
0
100
AcDbTrace
10
176.319288
20
31.35
30
0
11
176.822159
21
28.175002
31
0
12
175.816418
22
28.174998
32
0
13
176.319288
23
31.35
33
0
39
0
210
0
220
0
230
1
0
ENDBLK
5
132
100
AcDbEntity
8
0
100
AcDbBlockEnd
0
BLOCK
5
139
100
AcDbEntity
8
0
100
AcDbBlockBegin
2
DimnDraft3D2
70
0
10
0
20
0
30
0
3
DimnDraft3D2
0
MTEXT
5
135
100
AcDbEntity
8
SK2
62
256
6
ByLayer
370
18
48
1
60
0
100
AcDbMText
10
80.808029
20
11.591835
30
0
210
0
220
0
230
1
1
\W0.8132;%%c 62
40
3.000007
41
0
44
1.084337
50
90
71
7
72
5
7
iso_b_vert
0
LINE
5
136
100
AcDbEntity
8
SK2
62
256
6
ByLayer
370
18
48
1
60
0
100
AcDbLine
10
81.558145
20
31.0007
30
0
11
81.558145
21
-31.0007
31
0
39
0
210
0
220
0
230
1
0
SOLID
5
137
100
AcDbEntity
8
SK2
62
256
6
ByLayer
370
18
48
1
60
0
100
AcDbTrace
10
81.558145
20
31.0007
30
0
11
82.061016
21
27.825702
31
0
12
81.055275
22
27.825698
32
0
13
81.558145
23
31.0007
33
0
39
0
210
0
220
0
230
1
0
SOLID
5
138
100
AcDbEntity
8
SK2
62
256
6
ByLayer
370
18
48
1
60
0
100
AcDbTrace
10
81.558145
20
-31.0007
30
0
11
81.055275
21
-27.825702
31
0
12
82.061016
22
-27.825698
32
0
13
81.558145
23
-31.0007
33
0
39
0
210
0
220
0
230
1
0
ENDBLK
5
13A
100
AcDbEntity
8
0
100
AcDbBlockEnd
0
BLOCK
5
143
100
AcDbEntity
8
0
100
AcDbBlockBegin
2
DimnDraft3D3
70
0
10
0
20
0
30
0
3
DimnDraft3D3
0
MTEXT
5
13D
100
AcDbEntity
8
SK2
62
256
6
ByLayer
370
18
48
1
60
0
100
AcDbMText
10
162.575493
20
-6.941012
30
0
210
0
220
0
230
1
1
\W0.8688;%%c12-%%c22
40
3.000007
41
0
44
1.084337
50
90
71
7
72
5
7
iso_b_vert
0
LINE
5
13E
100
AcDbEntity
8
SK2
62
256
6
ByLayer
370
18
48
1
60
0
100
AcDbLine
10
149.6575
20
16.910625
30
0
11
166.500609
21
16.910625
31
0
39
0
210
0
220
0
230
1
0
LINE
5
13F
100
AcDbEntity
8
SK2
62
256
6
ByLayer
370
18
48
1
60
0
100
AcDbLine
10
149.6575
20
-16.910625
30
0
11
166.500609
21
-16.910625
31
0
39
0
210
0
220
0
230
1
0
LINE
5
140
100
AcDbEntity
8
SK2
62
256
6
ByLayer
370
18
48
1
60
0
100
AcDbLine
10
163.325609
20
16.910625
30
0
11
163.325609
21
-16.910625
31
0
39
0
210
0
220
0
230
1
0
SOLID
5
141
100
AcDbEntity
8
SK2
62
256
6
ByLayer
370
18
48
1
60
0
100
AcDbTrace
10
163.325609
20
16.910625
30
0
11
163.82848
21
13.735627
31
0
12
162.822739
22
13.735623
32
0
13
163.325609
23
16.910625
33
0
39
0
210
0
220
0
230
1
0
SOLID
5
142
100
AcDbEntity
8
SK2
62
256
6
ByLayer
370
18
48
1
60
0
100
AcDbTrace
10
163.325609
20
-16.910625
30
0
11
162.822739
21
-13.735627
31
0
12
163.82848
22
-13.735623
32
0
13
163.325609
23
-16.910625
33
0
39
0
210
0
220
0
230
1
0
ENDBLK
5
144
100
AcDbEntity
8
0
100
AcDbBlockEnd
0
BLOCK
5
14D
100
AcDbEntity
8
0
100
AcDbBlockBegin
2
DimnDraft3D4
70
0
10
0
20
0
30
0
3
DimnDraft3D4
0
MTEXT
5
147
100
AcDbEntity
8
SK2
62
256
6
ByLayer
370
18
48
1
60
0
100
AcDbMText
10
121.85071
20
54.677539
30
0
210
0
220
0
230
1
1
\W0.7438;46.6
40
3.000007
41
0
44
1.084337
50
0
71
7
72
5
7
iso_b_vert
0
LINE
5
148
100
AcDbEntity
8
SK2
62
256
6
ByLayer
370
13
48
1
60
0
100
AcDbLine
10
101.4864
20
32.2072
30
0
11
101.4864
21
57.102423
31
0
39
0
210
0
220
0
230
1
0
LINE
5
149
100
AcDbEntity
8
SK2
62
256
6
ByLayer
370
13
48
1
60
0
100
AcDbLine
10
148.07
20
27.741348
30
0
11
148.07
21
57.102423
31
0
39
0
210
0
220
0
230
1
0
LINE
5
14A
100
AcDbEntity
8
SK2
62
256
6
ByLayer
370
13
48
1
60
0
100
AcDbLine
10
101.4864
20
53.927423
30
0
11
148.07
21
53.927423
31
0
39
0
210
0
220
0
230
1
0
SOLID
5
14B
100
AcDbEntity
8
SK2
62
256
6
ByLayer
370
13
48
1
60
0
100
AcDbTrace
10
101.4864
20
53.927423
30
0
11
104.661398
21
54.430294
31
0
12
104.661402
22
53.424552
32
0
13
101.4864
23
53.927423
33
0
39
0
210
0
220
0
230
1
0
SOLID
5
14C
100
AcDbEntity
8
SK2
62
256
6
ByLayer
370
13
48
1
60
0
100
AcDbTrace
10
148.07
20
53.927423
30
0
11
144.895002
21
53.424552
31
0
12
144.894998
22
54.430294
32
0
13
148.07
23
53.927423
33
0
39
0
210
0
220
0
230
1
0
ENDBLK
5
14E
100
AcDbEntity
8
0
100
AcDbBlockEnd
0
BLOCK
5
157
100
AcDbEntity
8
0
100
AcDbBlockBegin
2
DimnDraft3D5
70
0
10
0
20
0
30
0
3
DimnDraft3D5
0
MTEXT
5
151
100
AcDbEntity
8
SK2
62
256
6
ByLayer
370
18
48
1
60
0
100
AcDbMText
10
132.545553
20
43.387146
30
0
210
0
220
0
230
1
1
\W0.7152;25.5
40
3.000007
41
0
44
1.084337
50
0
71
7
72
5
7
iso_b_vert
0
LINE
5
152
100
AcDbEntity
8
SK2
62
256
6
ByLayer
370
13
48
1
60
0
100
AcDbLine
10
122.5602
20
32.4275
30
0
11
122.5602
21
45.81203
31
0
39
0
210
0
220
0
230
1
0
LINE
5
153
100
AcDbEntity
8
SK2
62
256
6
ByLayer
370
13
48
1
60
0
100
AcDbLine
10
148.07
20
27.741348
30
0
11
148.07
21
45.81203
31
0
39
0
210
0
220
0
230
1
0
LINE
5
154
100
AcDbEntity
8
SK2
62
256
6
ByLayer
370
13
48
1
60
0
100
AcDbLine
10
122.5602
20
42.63703
30
0
11
148.07
21
42.63703
31
0
39
0
210
0
220
0
230
1
0
SOLID
5
155
100
AcDbEntity
8
SK2
62
256
6
ByLayer
370
13
48
1
60
0
100
AcDbTrace
10
122.5602
20
42.63703
30
0
11
125.735198
21
43.1399
31
0
12
125.735202
22
42.134159
32
0
13
122.5602
23
42.63703
33
0
39
0
210
0
220
0
230
1
0
SOLID
5
156
100
AcDbEntity
8
SK2
62
256
6
ByLayer
370
13
48
1
60
0
100
AcDbTrace
10
148.07
20
42.63703
30
0
11
144.895002
21
42.134159
31
0
12
144.894998
22
43.1399
32
0
13
148.07
23
42.63703
33
0
39
0
210
0
220
0
230
1
0
ENDBLK
5
158
100
AcDbEntity
8
0
100
AcDbBlockEnd
0
BLOCK
5
165
100
AcDbEntity
8
0
100
AcDbBlockBegin
2
DimnDraft3D6
70
0
10
0
20
0
30
0
3
DimnDraft3D6
0
MTEXT
5
15B
100
AcDbEntity
8
SK2
62
256
6
ByLayer
370
18
48
1
60
0
100
AcDbMText
10
-51.263266
20
-3.323684
30
0
210
0
220
0
230
1
1
\W0.8132;%%c 63
40
3
41
0
44
1.084337
50
90
71
7
72
5
7
iso_b_vert
0
LINE
5
15C
100
AcDbEntity
8
SK2
62
256
6
ByLayer
370
13
48
1
60
0
100
AcDbLine
10
-1.2
20
-31.5
30
0
11
-53.513151
21
-31.5
31
0
39
0
210
0
220
0
230
1
0
LINE
5
15D
100
AcDbEntity
8
SK2
62
256
6
ByLayer
370
13
48
1
60
0
100
AcDbLine
10
-1.2
20
31.5
30
0
11
-53.513151
21
31.5
31
0
39
0
210
0
220
0
230
1
0
LINE
5
15E
100
AcDbEntity
8
SK2
62
256
6
ByLayer
370
13
48
1
60
0
100
AcDbLine
10
-50.513151
20
-31.5
30
0
11
-50.513151
21
31.5
31
0
39
0
210
0
220
0
230
1
0
LINE
5
15F
100
AcDbEntity
8
SK2
62
256
6
ByLayer
370
13
48
1
60
0
100
AcDbLine
10
-50.513151
20
-31.5
30
0
11
-51.042132
21
-28.500002
31
0
39
0
210
0
220
0
230
1
0
LINE
5
160
100
AcDbEntity
8
SK2
62
256
6
ByLayer
370
13
48
1
60
0
100
AcDbLine
10
-50.513151
20
-31.5
30
0
11
-49.98417
21
-28.499998
31
0
39
0
210
0
220
0
230
1
0
LINE
5
161
100
AcDbEntity
8
SK2
62
256
6
ByLayer
370
13
48
1
60
0
100
AcDbLine
10
-51.042132
20
-28.500002
30
0
11
-49.98417
21
-28.499998
31
0
39
0
210
0
220
0
230
1
0
LINE
5
162
100
AcDbEntity
8
SK2
62
256
6
ByLayer
370
13
48
1
60
0
100
AcDbLine
10
-50.513151
20
31.5
30
0
11
-49.98417
21
28.500002
31
0
39
0
210
0
220
0
230
1
0
LINE
5
163
100
AcDbEntity
8
SK2
62
256
6
ByLayer
370
13
48
1
60
0
100
AcDbLine
10
-50.513151
20
31.5
30
0
11
-51.042132
21
28.499998
31
0
39
0
210
0
220
0
230
1
0
LINE
5
164
100
AcDbEntity
8
SK2
62
256
6
ByLayer
370
13
48
1
60
0
100
AcDbLine
10
-49.98417
20
28.500002
30
0
11
-51.042132
21
28.499998
31
0
39
0
210
0
220
0
230
1
0
ENDBLK
5
166
100
AcDbEntity
8
0
100
AcDbBlockEnd
0
BLOCK
5
169
100
AcDbEntity
8
0
100
AcDbBlockBegin
2
_CLOSED
70
0
10
0
20
0
30
0
3
_CLOSED
0
LINE
5
16B
100
AcDbEntity
8
0
62
256
6
ByLayer
370
-2
48
1
60
0
100
AcDbLine
10
-1
20
0.166667
30
0
11
0
21
0
31
0
39
0
210
0
220
0
230
1
0
LINE
5
16C
100
AcDbEntity
8
0
62
256
6
ByLayer
370
-2
48
1
60
0
100
AcDbLine
10
0
20
0
30
0
11
-1
21
-0.166667
31
0
39
0
210
0
220
0
230
1
0
LINE
5
16D
100
AcDbEntity
8
0
62
256
6
ByLayer
370
-2
48
1
60
0
100
AcDbLine
10
-1
20
0.166667
30
0
11
-1
21
-0.166667
31
0
39
0
210
0
220
0
230
1
0
LINE
5
16E
100
AcDbEntity
8
0
62
256
6
ByLayer
370
-2
48
1
60
0
100
AcDbLine
10
0
20
0
30
0
11
-1
21
0
31
0
39
0
210
0
220
0
230
1
0
ENDBLK
5
16A
100
AcDbEntity
8
0
100
AcDbBlockEnd
0
BLOCK
5
176
100
AcDbEntity
8
0
100
AcDbBlockBegin
2
DimnDraft3D7
70
0
10
0
20
0
30
0
3
DimnDraft3D7
0
MTEXT
5
170
100
AcDbEntity
8
SK2
62
256
6
ByLayer
370
18
48
1
60
0
100
AcDbMText
10
70.736709
20
78.590482
30
0
210
0
220
0
230
1
1
\W0.7002;148.1
40
3.000007
41
0
44
1.084337
50
0
71
7
72
5
7
iso_b_vert
0
LINE
5
171
100
AcDbEntity
8
SK2
62
256
6
ByLayer
370
13
48
1
60
0
100
AcDbLine
10
0
20
32.7875
30
0
11
0
21
81.015366
31
0
39
0
210
0
220
0
230
1
0
LINE
5
172
100
AcDbEntity
8
SK2
62
256
6
ByLayer
370
13
48
1
60
0
100
AcDbLine
10
148.07
20
27.741348
30
0
11
148.07
21
81.015366
31
0
39
0
210
0
220
0
230
1
0
LINE
5
173
100
AcDbEntity
8
SK2
62
256
6
ByLayer
370
13
48
1
60
0
100
AcDbLine
10
0
20
77.840366
30
0
11
148.07
21
77.840366
31
0
39
0
210
0
220
0
230
1
0
SOLID
5
174
100
AcDbEntity
8
SK2
62
256
6
ByLayer
370
13
48
1
60
0
100
AcDbTrace
10
0
20
77.840366
30
0
11
3.174998
21
78.343236
31
0
12
3.175002
22
77.337495
32
0
13
0
23
77.840366
33
0
39
0
210
0
220
0
230
1
0
SOLID
5
175
100
AcDbEntity
8
SK2
62
256
6
ByLayer
370
13
48
1
60
0
100
AcDbTrace
10
148.07
20
77.840366
30
0
11
144.895002
21
77.337495
31
0
12
144.894998
22
78.343236
32
0
13
148.07
23
77.840366
33
0
39
0
210
0
220
0
230
1
0
ENDBLK
5
177
100
AcDbEntity
8
0
100
AcDbBlockEnd
0
BLOCK
5
180
100
AcDbEntity
8
0
100
AcDbBlockBegin
2
DimnDraft3D8
70
0
10
0
20
0
30
0
3
DimnDraft3D8
0
MTEXT
5
17A
100
AcDbEntity
8
SK2
62
256
6
ByLayer
370
18
48
1
60
0
100
AcDbMText
10
81.894677
20
66.718452
30
0
210
0
220
0
230
1
1
\W0.6717;126.1
40
3.000007
41
0
44
1.084337
50
0
71
7
72
5
7
iso_b_vert
0
LINE
5
17B
100
AcDbEntity
8
SK2
62
256
6
ByLayer
370
13
48
1
60
0
100
AcDbLine
10
22.000048
20
32.5875
30
0
11
22.000048
21
69.143336
31
0
39
0
210
0
220
0
230
1
0
LINE
5
17C
100
AcDbEntity
8
SK2
62
256
6
ByLayer
370
13
48
1
60
0
100
AcDbLine
10
148.07
20
27.741348
30
0
11
148.07
21
69.143336
31
0
39
0
210
0
220
0
230
1
0
LINE
5
17D
100
AcDbEntity
8
SK2
62
256
6
ByLayer
370
13
48
1
60
0
100
AcDbLine
10
22.000048
20
65.968336
30
0
11
148.07
21
65.968336
31
0
39
0
210
0
220
0
230
1
0
SOLID
5
17E
100
AcDbEntity
8
SK2
62
256
6
ByLayer
370
13
48
1
60
0
100
AcDbTrace
10
22.000048
20
65.968336
30
0
11
25.175046
21
66.471207
31
0
12
25.17505
22
65.465466
32
0
13
22.000048
23
65.968336
33
0
39
0
210
0
220
0
230
1
0
SOLID
5
17F
100
AcDbEntity
8
SK2
62
256
6
ByLayer
370
13
48
1
60
0
100
AcDbTrace
10
148.07
20
65.968336
30
0
11
144.895002
21
65.465466
31
0
12
144.894998
22
66.471207
32
0
13
148.07
23
65.968336
33
0
39
0
210
0
220
0
230
1
0
ENDBLK
5
181
100
AcDbEntity
8
0
100
AcDbBlockEnd
0
BLOCK
5
18B
100
AcDbEntity
8
0
100
AcDbBlockBegin
2
DimnDraft3D9
70
0
10
0
20
0
30
0
3
DimnDraft3D9
0
MTEXT
5
184
100
AcDbEntity
8
2
62
256
6
ByLayer
370
18
48
1
60
0
100
AcDbMText
10
64.812987
20
-49.074668
30
0
210
0
220
0
230
1
1
\W0.7063;136.7
40
3.000007
41
0
44
1.084337
50
0
71
7
72
5
7
iso_b_vert
0
LINE
5
186
100
AcDbEntity
8
2
62
256
6
ByLayer
370
13
48
1
60
0
100
AcDbLine
10
0
20
-32.7875
30
0
11
0
21
-52.999784
31
0
39
0
210
0
220
0
230
1
0
LINE
5
187
100
AcDbEntity
8
2
62
256
6
ByLayer
370
13
48
1
60
0
100
AcDbLine
10
136.6602
20
-25.3111
30
0
11
136.6602
21
-52.999784
31
0
39
0
210
0
220
0
230
1
0
LINE
5
188
100
AcDbEntity
8
2
62
256
6
ByLayer
370
13
48
1
60
0
100
AcDbLine
10
0
20
-49.824784
30
0
11
136.6602
21
-49.824784
31
0
39
0
210
0
220
0
230
1
0
SOLID
5
189
100
AcDbEntity
8
2
62
256
6
ByLayer
370
13
48
1
60
0
100
AcDbTrace
10
0
20
-49.824784
30
0
11
3.174998
21
-49.321914
31
0
12
3.175002
22
-50.327655
32
0
13
0
23
-49.824784
33
0
39
0
210
0
220
0
230
1
0
SOLID
5
18A
100
AcDbEntity
8
2
62
256
6
ByLayer
370
13
48
1
60
0
100
AcDbTrace
10
136.6602
20
-49.824784
30
0
11
133.485202
21
-50.327655
31
0
12
133.485198
22
-49.321914
32
0
13
136.6602
23
-49.824784
33
0
39
0
210
0
220
0
230
1
0
ENDBLK
5
18C
100
AcDbEntity
8
0
100
AcDbBlockEnd
0
ENDSEC
0
SECTION
2
ENTITIES
0
ARC
5
10F
100
AcDbEntity
8
SK3
62
256
6
ByLayer
370
13
48
0.05
60
0
100
AcDbCircle
39
0
10
-137.9602
20
24.5
30
0
40
1
210
0
220
0
230
-1
100
AcDbArc
50
0
51
180
0
ARC
5
110
100
AcDbEntity
8
SK3
62
256
6
ByLayer
370
13
48
0.05
60
0
100
AcDbCircle
39
0
10
-137.9602
20
-24.5
30
0
40
1
210
0
220
0
230
-1
100
AcDbArc
50
180
51
0
0
ARC
5
111
100
AcDbEntity
8
1
62
256
6
ByLayer
370
18
48
1
60
0
100
AcDbCircle
39
0
10
23.000048
20
28.5
30
0
40
1
210
0
220
0
230
1
100
AcDbArc
50
180
51
270
0
ARC
5
112
100
AcDbEntity
8
1
62
256
6
ByLayer
370
18
48
1
60
0
100
AcDbCircle
39
0
10
23.000048
20
-28.5
30
0
40
1
210
0
220
0
230
1
100
AcDbArc
50
90
51
180
0
ELLIPSE
5
113
100
AcDbEntity
8
1
62
256
6
ByLayer
370
18
48
1
60
0
100
AcDbEllipse
10
138.4602
20
-38.489092
30
0
11
-14.9999999999889
21
0
31
-1.83690953073221E-15
210
1.22460635382238E-16
220
0
230
-1
40
0.866025
41
0.88401507772631
42
1.35643051704764
0
ELLIPSE
5
114
100
AcDbEntity
8
1
62
256
6
ByLayer
370
18
48
1
60
0
100
AcDbEllipse
10
138.4602
20
38.489092
30
0
11
-14.999999999998
21
0
31
-1.83690953073332E-15
210
1.22460635382238E-16
220
0
230
-1
40
0.866025
41
-1.35643050981319
42
-0.884015077726737
0
POINT
5
6C
100
AcDbEntity
8
80
62
256
6
ByLayer
370
13
48
1
60
0
100
AcDbPoint
10
0
20
0
30
0
39
0
210
0
220
0
230
1
50
360
0
POINT
5
6E
100
AcDbEntity
8
81
62
256
6
ByLayer
370
18
48
1
60
0
100
AcDbPoint
10
136.7
20
0
30
0
39
0
210
0
220
0
230
1
50
360
0
SPLINE
5
115
100
AcDbEntity
8
1
62
256
6
ByLayer
370
18
48
1
60
0
100
AcDbSpline
70
4
71
3
72
39
73
35
40
0
40
0
40
0
40
0
40
0.0309310129296111
40
0.0618629706121604
40
0.0927949372645877
40
0.123725962426224
40
0.154687006462467
40
0.185648980848771
40
0.216610961534709
40
0.247572014161616
40
0.278502892287667
40
0.309434686666698
40
0.340366484785501
40
0.371297368011389
40
0.402257522350492
40
0.433218589593706
40
0.464179658141021
40
0.495139814258494
40
0.526070661564424
40
0.557002418537926
40
0.587934174402869
40
0.618865020197086
40
0.64982508175465
40
0.680786060201914
40
0.71174703509145
40
0.742707091797424
40
0.774851428545485
40
0.806996802985531
40
0.839142170286205
40
0.871286497298448
40
0.903464349382742
40
0.935643260988039
40
0.967822162153
40
1
40
1
40
1
40
1
41
1
10
128.949428395419
20
25.9437492817743
30
0
41
1
10
128.944449338484
20
25.9729271255976
30
0
41
1
10
128.934805890176
20
26.0310909195419
30
0
41
1
10
128.92128707813
20
26.1177616894025
30
0
41
1
10
128.908708824843
20
26.2038481092747
30
0
41
1
10
128.897063821041
20
26.2893711654147
30
0
41
1
10
128.886348873591
20
26.3743243505078
30
0
41
1
10
128.876561839759
20
26.4587021030753
30
0
41
1
10
128.867703258182
20
26.5424702553203
30
0
41
1
10
128.859772844207
20
26.6255950973934
30
0
41
1
10
128.852766627408
20
26.7080722421034
30
0
41
1
10
128.846681549773
20
26.7898980140456
30
0
41
1
10
128.84151356104
20
26.8710931468315
30
0
41
1
10
128.837259600523
20
26.9516769530895
30
0
41
1
10
128.833918972792
20
27.0316441571766
30
0
41
1
10
128.831491882485
20
27.1109901184117
30
0
41
1
10
128.82997874255
20
27.1896840573417
30
0
41
1
10
128.829379155663
20
27.2676957462971
30
0
41
1
10
128.829691614741
20
27.3450217744402
30
0
41
1
10
128.830915515546
20
27.4216593741718
30
0
41
1
10
128.833051451902
20
27.4976278699917
30
0
41
1
10
128.836100932586
20
27.572945834164
30
0
41
1
10
128.840065671022
20
27.6476087878314
30
0
41
1
10
128.844948287138
20
27.7216128463433
30
0
41
1
10
128.850749167065
20
27.7949298309775
30
0
41
1
10
128.85755569515
20
27.8684810034137
30
0
41
1
10
128.865411380026
20
27.9422317122527
30
0
41
1
10
128.874361644181
20
28.0161468487904
30
0
41
1
10
128.884311944522
20
28.0893046435389
30
0
41
1
10
128.895269287155
20
28.1617253701855
30
0
41
1
10
128.907238404359
20
28.2334046970932
30
0
41
1
10
128.920225269363
20
28.3043388457719
30
0
41
1
10
128.934229688816
20
28.3744989084454
30
0
41
1
10
128.94424867075
20
28.4207524723238
30
0
41
1
10
128.949428395419
20
28.4437492817743
30
0
0
SPLINE
5
116
100
AcDbEntity
8
1
62
256
6
ByLayer
370
18
48
1
60
0
100
AcDbSpline
70
4
71
3
72
26
73
22
40
0
40
0
40
0
40
0
40
0.062474429148334
40
0.124949032230857
40
0.187423587455482
40
0.249897951342851
40
0.299877940029927
40
0.349858174558192
40
0.399838448875607
40
0.449818602655189
40
0.499798523617235
40
0.549779109343347
40
0.599760065059332
40
0.649741099758154
40
0.699721970767558
40
0.749702485448924
40
0.79976169797265
40
0.849821373588142
40
0.899881183183667
40
0.949940820009677
40
1
40
1
40
1
40
1
41
1
10
128.949428395419
20
28.4437492817743
30
0
41
1
10
129.147307375683
20
28.4484599884288
30
0
41
1
10
129.543089528655
20
28.4576800997532
30
0
41
1
10
130.136832736101
20
28.4709251272732
30
0
41
1
10
130.730648802777
20
28.4835285957177
30
0
41
1
10
131.284947310299
20
28.4946595384855
30
0
41
1
10
131.799713370217
20
28.5044336312995
30
0
41
1
10
132.274933094077
20
28.5129711291749
30
0
41
1
10
132.750201315337
20
28.5210009149639
30
0
41
1
10
133.225515862613
20
28.5284996428945
30
0
41
1
10
133.70087754273
20
28.535444638063
30
0
41
1
10
134.176286438602
20
28.5418110716062
30
0
41
1
10
134.651741260927
20
28.5475776037554
30
0
41
1
10
135.12723649398
20
28.5527249856137
30
0
41
1
10
135.602766534956
20
28.5572332495699
30
0
41
1
10
136.078576931401
20
28.5610851774583
30
0
41
1
10
136.554665489467
20
28.5642581348908
30
0
41
1
10
137.031028676741
20
28.566741308253
30
0
41
1
10
137.507410706998
20
28.5685252346358
30
0
41
1
10
137.983803646782
20
28.5696026110261
30
0
41
1
10
138.301400921895
20
28.5698423923007
30
0
41
1
10
138.4602
20
28.569843286758
30
0
0
SPLINE
5
117
100
AcDbEntity
8
1
62
256
6
ByLayer
370
18
48
1
60
0
100
AcDbSpline
70
4
71
3
72
26
73
22
40
0
40
0
40
0
40
0
40
0.0499714257902831
40
0.0999433060915508
40
0.149915358212572
40
0.19988727697262
40
0.24985873501895
40
0.299829729646609
40
0.34980108062803
40
0.399772595255034
40
0.449744030844827
40
0.49971509643486
40
0.549685489808741
40
0.599656116102791
40
0.649626862958093
40
0.699597569981008
40
0.749568031063291
40
0.812175898404918
40
0.874783958457921
40
0.937392066803995
40
1
40
1
40
1
40
1
41
1
10
138.4602
20
-2.79533762447011
30
0
41
1
10
138.301679300716
20
-2.7953353734878
30
0
41
1
10
137.98463877842
20
-2.79477015028991
30
0
41
1
10
137.509080952115
20
-2.79223077169221
30
0
41
1
10
137.033533978862
20
-2.78802792455316
30
0
41
1
10
136.558005752213
20
-2.78217998927916
30
0
41
1
10
136.082503882557
20
-2.77470662836243
30
0
41
1
10
135.607031930634
20
-2.76563191802564
30
0
41
1
10
135.131592154105
20
-2.7550099675562
30
0
41
1
10
134.656187138651
20
-2.74288945630473
30
0
41
1
10
134.180822490727
20
-2.72932092157046
30
0
41
1
10
133.705503753324
20
-2.71435308452604
30
0
41
1
10
133.230232219766
20
-2.69803997386615
30
0
41
1
10
132.755007811034
20
-2.68044448141928
30
0
41
1
10
132.279829700801
20
-2.66162404527974
30
0
41
1
10
131.804700065081
20
-2.641637797724
30
0
41
1
10
131.289570757192
20
-2.61876562807124
30
0
41
1
10
130.734455844444
20
-2.59273646695864
30
0
41
1
10
130.139370431757
20
-2.5632945857928
30
0
41
1
10
129.544358198237
20
-2.53240930642455
30
0
41
1
10
129.147730229932
20
-2.51095280787003
30
0
41
1
10
128.949428395419
20
-2.5
30
0
0
SPLINE
5
118
100
AcDbEntity
8
1
62
256
6
ByLayer
370
18
48
1
60
0
100
AcDbSpline
70
4
71
3
72
39
73
35
40
0
40
0
40
0
40
0
40
0.0309310129296107
40
0.0618629706121605
40
0.0927949372645875
40
0.123725962426224
40
0.154687006462467
40
0.185648980848771
40
0.216610961534708
40
0.247572014161617
40
0.278502892287667
40
0.309434686666698
40
0.3403664847855
40
0.371297368011388
40
0.402257522350492
40
0.433218589593706
40
0.46417965814102
40
0.495139814258494
40
0.526070661564424
40
0.557002418537925
40
0.587934174402869
40
0.618865020197085
40
0.649825081754649
40
0.680786060201913
40
0.711747035091449
40
0.742707091797423
40
0.774851428545484
40
0.80699680298553
40
0.839142170286206
40
0.871286497298448
40
0.903464349382741
40
0.935643260988039
40
0.967822162153
40
1
40
1
40
1
40
1
41
1
10
128.949428395419
20
-28.4437492817743
30
0
41
1
10
128.944449338484
20
-28.4216435886421
30
0
41
1
10
128.934805890176
20
-28.3771919882249
30
0
41
1
10
128.92128707813
20
-28.3097940560553
30
0
41
1
10
128.908708824843
20
-28.2416805804338
30
0
41
1
10
128.897063821041
20
-28.1728328510139
30
0
41
1
10
128.886348873591
20
-28.103252584648
30
0
41
1
10
128.876561839759
20
-28.0329419971779
30
0
41
1
10
128.867703258182
20
-27.9619279315438
30
0
41
1
10
128.859772844207
20
-27.8902379605972
30
0
41
1
10
128.852766627408
20
-27.8178756395781
30
0
41
1
10
128.846681549773
20
-27.7448451119033
30
0
41
1
10
128.84151356104
20
-27.6711275512647
30
0
41
1
10
128.837259600523
20
-27.5967041321193
30
0
41
1
10
128.833918972792
20
-27.5215771976458
30
0
41
1
10
128.831491882485
20
-27.4457497155086
30
0
41
1
10
128.82997874255
20
-27.3692504837062
30
0
41
1
10
128.829379155663
20
-27.2921089226139
30
0
41
1
10
128.829691614741
20
-27.21432924766
30
0
41
1
10
128.830915515546
20
-27.1359162825031
30
0
41
1
10
128.833051451902
20
-27.05685101781
30
0
41
1
10
128.836100932586
20
-26.9771138728809
30
0
41
1
10
128.840065671022
20
-26.8967080186117
30
0
41
1
10
128.844948287138
20
-26.8156372957089
30
0
41
1
10
128.850749167065
20
-26.7339330735383
30
0
41
1
10
128.85755569515
20
-26.6505516459152
30
0
41
1
10
128.865411380026
20
-26.5654691128358
30
0
41
1
10
128.874361644181
20
-26.4786626922023
30
0
41
1
10
128.884311944522
20
-26.3911976977115
30
0
41
1
10
128.895269287155
20
-26.3030509578499
30
0
41
1
10
128.907238404359
20
-26.2142271031652
30
0
41
1
10
128.920225269363
20
-26.1247319083466
30
0
41
1
10
128.934229688816
20
-26.034603728027
30
0
41
1
10
128.94424867075
20
-25.9741033462015
30
0
41
1
10
128.949428395419
20
-25.9437492817743
30
0
0
SPLINE
5
119
100
AcDbEntity
8
1
62
256
6
ByLayer
370
18
48
1
60
0
100
AcDbSpline
70
4
71
3
72
39
73
35
40
0
40
0
40
0
40
0
40
0.0309310129296113
40
0.0618629706121604
40
0.0927949372645876
40
0.123725962426224
40
0.154687006462467
40
0.185648980848771
40
0.216610961534708
40
0.247572014161616
40
0.278502892287667
40
0.309434686666698
40
0.3403664847855
40
0.371297368011389
40
0.402257522350492
40
0.433218589593707
40
0.46417965814102
40
0.495139814258494
40
0.526070661564424
40
0.557002418537926
40
0.587934174402869
40
0.618865020197086
40
0.649825081754649
40
0.680786060201914
40
0.71174703509145
40
0.742707091797424
40
0.774851428545485
40
0.806996802985531
40
0.839142170286206
40
0.871286497298448
40
0.903464349382742
40
0.935643260988039
40
0.967822162153
40
1
40
1
40
1
40
1
41
1
10
128.949428395419
20
-2.5
30
0
41
1
10
128.944449338484
20
-2.44871646304448
30
0
41
1
10
128.934805890176
20
-2.34610106868297
30
0
41
1
10
128.92128707813
20
-2.19203236665282
30
0
41
1
10
128.908708824843
20
-2.0378324711591
30
0
41
1
10
128.897063821041
20
-1.88346168559916
30
0
41
1
10
128.886348873591
20
-1.72892823414019
30
0
41
1
10
128.876561839759
20
-1.57423989410258
30
0
41
1
10
128.867703258182
20
-1.41945767622352
30
0
41
1
10
128.859772844207
20
-1.26464286320383
30
0
41
1
10
128.852766627408
20
-1.10980339747464
30
0
41
1
10
128.846681549773
20
-0.954947097857678
30
0
41
1
10
128.84151356104
20
-0.80003440443313
30
0
41
1
10
128.837259600523
20
-0.645027179029707
30
0
41
1
10
128.833918972792
20
-0.489933040469131
30
0
41
1
10
128.831491882485
20
-0.334759597096882
30
0
41
1
10
128.82997874255
20
-0.179566426364449
30
0
41
1
10
128.829379155663
20
-0.0244131763167977
30
0
41
1
10
128.829691614741
20
0.130692526780247
30
0
41
1
10
128.830915515546
20
0.285743091668775
30
0
41
1
10
128.833051451902
20
0.440776852181675
30
0
41
1
10
128.836100932586
20
0.595831961283028
30
0
41
1
10
128.840065671022
20
0.75090076921969
30
0
41
1
10
128.844948287138
20
0.9059755506344
30
0
41
1
10
128.850749167065
20
1.06099675743922
30
0
41
1
10
128.85755569515
20
1.2179293574985
30
0
41
1
10
128.865411380026
20
1.37676259941689
30
0
41
1
10
128.874361644181
20
1.53748415658804
30
0
41
1
10
128.884311944522
20
1.69810694582747
30
0
41
1
10
128.895269287155
20
1.85867441233563
30
0
41
1
10
128.907238404359
20
2.01917759392802
30
0
41
1
10
128.920225269363
20
2.17960693742538
30
0
41
1
10
128.934229688816
20
2.33989518041848
30
0
41
1
10
128.94424867075
20
2.44664912612215
30
0
41
1
10
128.949428395419
20
2.5
30
0
0
SPLINE
5
11A
100
AcDbEntity
8
1
62
256
6
ByLayer
370
18
48
1
60
0
100
AcDbSpline
70
4
71
3
72
26
73
22
40
0
40
0
40
0
40
0
40
0.0499714257902831
40
0.0999433060915508
40
0.149915358212572
40
0.19988727697262
40
0.24985873501895
40
0.299829729646609
40
0.34980108062803
40
0.399772595255037
40
0.449744030844827
40
0.49971509643486
40
0.549685489808741
40
0.599656116102795
40
0.649626862958093
40
0.699597569981008
40
0.749568031063291
40
0.812175898404918
40
0.874783958457921
40
0.937392066803995
40
1
40
1
40
1
40
1
41
1
10
138.4602
20
25.7745056622879
30
0
41
1
10
138.301679300716
20
25.7745070249431
30
0
41
1
10
137.98463877842
20
25.7748333096251
30
0
41
1
10
137.509080952115
20
25.7762990929564
30
0
41
1
10
137.033533978862
20
25.7787242355419
30
0
41
1
10
136.558005752213
20
25.7820976093135
30
0
41
1
10
136.082503882557
20
25.7864073097357
30
0
41
1
10
135.607031930634
20
25.7916387572307
30
0
41
1
10
135.131592154105
20
25.7977591924121
30
0
41
1
10
134.656187138651
20
25.8047391422908
30
0
41
1
10
134.180822490727
20
25.8125480106469
30
0
41
1
10
133.705503753324
20
25.8211563006894
30
0
41
1
10
133.230232219766
20
25.8305312979808
30
0
41
1
10
132.755007811034
20
25.840634926596
30
0
41
1
10
132.279829700801
20
25.8514324101387
30
0
41
1
10
131.804700065081
20
25.8628879497683
30
0
41
1
10
131.289570757192
20
25.8759845745713
30
0
41
1
10
130.734455844444
20
25.8908712830829
30
0
41
1
10
130.139370431757
20
25.9076862675972
30
0
41
1
10
129.544358198237
20
25.9253001590576
30
0
41
1
10
129.147730229931
20
25.9375172672015
30
0
41
1
10
128.949428395419
20
25.9437492817743
30
0
0
SPLINE
5
11B
100
AcDbEntity
8
1
62
256
6
ByLayer
370
18
48
1
60
0
100
AcDbSpline
70
4
71
3
72
26
73
22
40
0
40
0
40
0
40
0
40
0.062474429148334
40
0.124949032230857
40
0.187423587455482
40
0.249897951342851
40
0.299877940029927
40
0.349858174558192
40
0.399838448875607
40
0.449818602655189
40
0.499798523617235
40
0.549779109343347
40
0.599760065059332
40
0.649741099758154
40
0.699721970767558
40
0.749702485448924
40
0.79976169797265
40
0.849821373588142
40
0.899881183183664
40
0.949940820009677
40
1
40
1
40
1
40
1
41
1
10
128.949428395419
20
-25.9437492817743
30
0
41
1
10
129.147307375683
20
-25.9375305870929
30
0
41
1
10
129.543089528655
20
-25.9253390164651
30
0
41
1
10
130.136832736101
20
-25.9077603153485
30
0
41
1
10
130.730648802777
20
-25.8909768314938
30
0
41
1
10
131.284947310299
20
-25.876105855869
30
0
41
1
10
131.799713370217
20
-25.8630115083823
30
0
41
1
10
132.274933094078
20
-25.8515471210203
30
0
41
1
10
132.750201315337
20
-25.8407406772279
30
0
41
1
10
133.225515862613
20
-25.8306279947628
30
0
41
1
10
133.70087754273
20
-25.821243870218
30
0
41
1
10
134.176286438602
20
-25.8126263994166
30
0
41
1
10
134.651741260927
20
-25.8048083359687
30
0
41
1
10
135.12723649398
20
-25.7978192143364
30
0
41
1
10
135.602766534956
20
-25.7916896714446
30
0
41
1
10
136.078576931401
20
-25.7864464775415
30
0
41
1
10
136.554665489467
20
-25.7821241417151
30
0
41
1
10
137.031028676741
20
-25.7787390429768
30
0
41
1
10
137.507410706998
20
-25.7763054172438
30
0
41
1
10
137.983803646782
20
-25.7748344703386
30
0
41
1
10
138.301400921895
20
-25.7745070343466
30
0
41
1
10
138.4602
20
-25.7745056622879
30
0
0
SPLINE
5
11C
100
AcDbEntity
8
1
62
256
6
ByLayer
370
18
48
1
60
0
100
AcDbSpline
70
4
71
3
72
26
73
22
40
0
40
0
40
0
40
0
40
0.0499714257902831
40
0.0999433060915508
40
0.149915358212572
40
0.19988727697262
40
0.24985873501895
40
0.299829729646609
40
0.34980108062803
40
0.399772595255034
40
0.449744030844827
40
0.499715096434857
40
0.549685489808741
40
0.599656116102792
40
0.64962686295809
40
0.699597569981008
40
0.749568031063291
40
0.812175898404918
40
0.874783958457921
40
0.937392066803992
40
1
40
1
40
1
40
1
41
1
10
138.4602
20
-28.569843286758
30
0
41
1
10
138.301679300716
20
-28.5698423984309
30
0
41
1
10
137.98463877842
20
-28.569603459915
30
0
41
1
10
137.509080952115
20
-28.5685298646486
30
0
41
1
10
137.033533978862
20
-28.5667521600951
30
0
41
1
10
136.558005752213
20
-28.5642775985927
30
0
41
1
10
136.082503882557
20
-28.5611139380982
30
0
41
1
10
135.607031930634
20
-28.5572706752563
30
0
41
1
10
135.131592154105
20
-28.5527691599683
30
0
41
1
10
134.656187138651
20
-28.5476285985955
30
0
41
1
10
134.180822490727
20
-28.5418689322173
30
0
41
1
10
133.705503753324
20
-28.5355093852155
30
0
41
1
10
133.230232219766
20
-28.528571271847
30
0
41
1
10
132.755007811034
20
-28.5210794080153
30
0
41
1
10
132.279829700801
20
-28.5130564554184
30
0
41
1
10
131.804700065081
20
-28.5045257474924
30
0
41
1
10
131.289570757192
20
-28.4947502026426
30
0
41
1
10
130.734455844444
20
-28.4836077500415
30
0
41
1
10
130.139370431757
20
-28.47098085339
30
0
41
1
10
129.544358198237
20
-28.4577094654821
30
0
41
1
10
129.147730229931
20
-28.4484700750715
30
0
41
1
10
128.949428395419
20
-28.4437492817743
30
0
0
SPLINE
5
11D
100
AcDbEntity
8
1
62
256
6
ByLayer
370
18
48
1
60
0
100
AcDbSpline
70
4
71
3
72
26
73
22
40
0
40
0
40
0
40
0
40
0.062474429148334
40
0.124949032230857
40
0.187423587455482
40
0.249897951342851
40
0.299877940029927
40
0.349858174558192
40
0.399838448875607
40
0.449818602655189
40
0.499798523617235
40
0.549779109343347
40
0.599760065059332
40
0.649741099758154
40
0.699721970767558
40
0.749702485448924
40
0.79976169797265
40
0.849821373588142
40
0.899881183183664
40
0.949940820009677
40
1
40
1
40
1
40
1
41
1
10
128.949428395419
20
2.5
30
0
41
1
10
129.147307375683
20
2.51092940133594
30
0
41
1
10
129.543089528655
20
2.5323410832881
30
0
41
1
10
130.136832736101
20
2.56316481192471
30
0
41
1
10
130.730648802777
20
2.59255176422382
30
0
41
1
10
131.284947310299
20
2.61855368261656
30
0
41
1
10
131.799713370217
20
2.64142212291726
30
0
41
1
10
132.274933094077
20
2.66142400815462
30
0
41
1
10
132.750201315337
20
2.680260237736
30
0
41
1
10
133.225515862613
20
2.69787164813168
30
0
41
1
10
133.70087754273
20
2.71420076784498
30
0
41
1
10
134.176286438602
20
2.72918467218964
30
0
41
1
10
134.651741260927
20
2.74276926778671
30
0
41
1
10
135.12723649398
20
2.75490577127728
30
0
41
1
10
135.602766534956
20
2.76554357812534
30
0
41
1
10
136.078576931401
20
2.77463869991675
30
0
41
1
10
136.554665489467
20
2.78213399317568
30
0
41
1
10
137.031028676741
20
2.78800226527624
30
0
41
1
10
137.507410706998
20
2.79221981739201
30
0
41
1
10
137.983803646782
20
2.79476814068746
30
0
41
1
10
138.301400921894
20
2.79533535795418
30
0
41
1
10
138.4602
20
2.79533762447011
30
0
0
SPLINE
5
11E
100
AcDbEntity
8
SK1
62
256
6
ByLayer
370
18
48
1
60
0
100
AcDbSpline
70
4
71
3
72
21
73
17
40
0
40
0
40
0
40
0
40
0.0516512852812926
40
0.0935350199252282
40
0.130231157575614
40
0.191789079216958
40
0.275258802016462
40
0.349809170369445
40
0.462727739307038
40
0.593133413578286
40
0.710538474857416
40
0.823987933643521
40
0.875952285318454
40
0.914499432865537
40
0.956509970244687
40
1
40
1
40
1
40
1
41
1
10
-2.09186392960638
20
22.0183271962844
30
0
41
1
10
-2.07954853506493
20
21.9776191706807
30
0
41
1
10
-2.04474289382461
20
21.920906530306
30
0
41
1
10
-1.9543727429629
20
21.8693482121739
30
0
41
1
10
-1.84958947683287
20
21.8838651990787
30
0
41
1
10
-1.71620595499288
20
21.8816457007454
30
0
41
1
10
-1.55389065250599
20
21.8815187360382
30
0
41
1
10
-1.35439023756634
20
21.8934132880981
30
0
41
1
10
-1.11993134115308
20
21.8997558613863
30
0
41
1
10
-0.85371599623315
20
21.9004232530316
30
0
41
1
10
-0.587745730481039
20
21.9170978309203
30
0
41
1
10
-0.378403980349104
20
21.9119701866265
30
0
41
1
10
-0.229135530022754
20
21.9249399429851
30
0
41
1
10
-0.129426210953035
20
21.9227191289627
30
0
41
1
10
-0.0474859940065482
20
21.9755395609382
30
0
41
1
10
-0.0130249002769407
20
22.0264281695365
30
0
41
1
10
-2.62105502689E-05
20
22.058248563293
30
0
0
SPLINE
5
11F
100
AcDbEntity
8
SK1
62
256
6
ByLayer
370
18
48
1
60
0
100
AcDbSpline
70
4
71
3
72
21
73
17
40
0
40
0
40
0
40
0
40
0.0516512852812926
40
0.0935350199252282
40
0.130231157575614
40
0.191789079216958
40
0.275258802016462
40
0.349809170369445
40
0.462727739307038
40
0.593133413578286
40
0.710538474857416
40
0.823987933643521
40
0.875952285318454
40
0.914499432865537
40
0.956509970244687
40
1
40
1
40
1
40
1
41
1
10
-2.09186392960638
20
-22.0183271962844
30
0
41
1
10
-2.07954853506493
20
-21.9776191706807
30
0
41
1
10
-2.04474289382461
20
-21.920906530306
30
0
41
1
10
-1.9543727429629
20
-21.8693482121739
30
0
41
1
10
-1.84958947683287
20
-21.8838651990787
30
0
41
1
10
-1.71620595499288
20
-21.8816457007455
30
0
41
1
10
-1.55389065250599
20
-21.8815187360382
30
0
41
1
10
-1.35439023756634
20
-21.8934132880981
30
0
41
1
10
-1.11993134115308
20
-21.8997558613863
30
0
41
1
10
-0.85371599623315
20
-21.9004232530315
30
0
41
1
10
-0.587745730481039
20
-21.9170978309203
30
0
41
1
10
-0.378403980349104
20
-21.9119701866265
30
0
41
1
10
-0.229135530022754
20
-21.9249399429851
30
0
41
1
10
-0.129426210953035
20
-21.9227191289627
30
0
41
1
10
-0.0474859940065482
20
-21.9755395609382
30
0
41
1
10
-0.0130249002769407
20
-22.0264281695365
30
0
41
1
10
-2.62105502689E-05
20
-22.058248563293
30
0
0
SPLINE
5
120
100
AcDbEntity
8
1
62
256
6
ByLayer
370
18
48
1
60
0
100
AcDbSpline
70
4
71
3
72
12
73
8
40
0
40
0
40
0
40
0
40
0.572625769168314
40
0.572625769168314
40
0.961304022014957
40
0.961304022014957
40
1
40
1
40
1
40
1
41
1
10
10.25
20
-30.0805856895312
30
0
41
1
10
8.74004435261178
20
-28.4126131172084
30
0
41
1
10
7.96314503905199
20
-24.9790137307284
30
0
41
1
10
8.37720331697552
20
-17.5890512557807
30
0
41
1
10
8.99589154344229
20
-14.0490050657315
30
0
41
1
10
10.0491801140302
20
-10.0734255326476
30
0
41
1
10
10.1479626596711
20
-9.71189903534956
30
0
41
1
10
10.25
20
-9.34924406434925
30
0
0
SPLINE
5
121
100
AcDbEntity
8
1
62
256
6
ByLayer
370
18
48
1
60
0
100
AcDbSpline
70
4
71
3
72
12
73
8
40
0
40
0
40
0
40
0
40
0.572625769168314
40
0.572625769168314
40
0.961304022014957
40
0.961304022014957
40
1
40
1
40
1
40
1
41
1
10
10.25
20
9.34924406434931
30
0
41
1
10
8.74004435261178
20
14.7158375070071
30
0
41
1
10
7.96314503905199
20
20.052443793227
30
0
41
1
10
8.37720331697552
20
26.4281747634865
30
0
41
1
10
8.99589154344229
20
28.4527504887667
30
0
41
1
10
10.0491801140302
20
29.8483104720045
30
0
41
1
10
10.1479626596711
20
29.9678701370474
30
0
41
1
10
10.25
20
30.0805856895312
30
0
0
SPLINE
5
122
100
AcDbEntity
8
1
62
256
6
ByLayer
370
18
48
1
60
0
100
AcDbSpline
70
4
71
3
72
12
73
8
40
0
40
0
40
0
40
0
40
0.0238069036086083
40
0.0238069036086083
40
0.412781952217015
40
0.412781952217015
40
1
40
1
40
1
40
1
41
1
10
13.75
20
-9.34924406434723
30
0
41
1
10
13.8127287161885
20
-9.57219069032656
30
0
41
1
10
13.8742247248165
20
-9.7947005087937
30
0
41
1
10
14.9184698304632
20
-13.6434259207234
30
0
41
1
10
15.5689245664743
20
-17.2069737328843
30
0
41
1
10
16.0711357802983
20
-24.7953579571968
30
0
41
1
10
15.2972585123096
20
-28.3714065058317
30
0
41
1
10
13.75
20
-30.0805856895312
30
0
0
SPLINE
5
123
100
AcDbEntity
8
1
62
256
6
ByLayer
370
18
48
1
60
0
100
AcDbSpline
70
4
71
3
72
12
73
8
40
0
40
0
40
0
40
0
40
0.0238069036086083
40
0.0238069036086083
40
0.412781952217015
40
0.412781952217015
40
1
40
1
40
1
40
1
41
1
10
13.75
20
30.0805856895325
30
0
41
1
10
13.8127287161885
20
30.0112924104349
30
0
41
1
10
13.8742247248165
20
29.9394164342885
30
0
41
1
10
14.9184698304632
20
28.648558697592
30
0
41
1
10
15.5689245664743
20
26.6782930894712
30
0
41
1
10
16.0711357802983
20
20.3200700821315
30
0
41
1
10
15.2972585123096
20
14.8484171033851
30
0
41
1
10
13.75
20
9.34924406434931
30
0
0
SPLINE
5
124
100
AcDbEntity
8
1
62
256
6
ByLayer
370
18
48
1
60
0
100
AcDbSpline
70
4
71
3
72
26
73
22
40
0
40
0
40
0
40
0
40
0.0317788179427415
40
0.063557635677512
40
0.0953377853241655
40
0.127117934789289
40
0.185239551941531
40
0.243362725532787
40
0.301486408517922
40
0.359609564086012
40
0.417731166121646
40
0.475852842730354
40
0.533976083408056
40
0.592099848169877
40
0.65022309388234
40
0.708344774713864
40
0.766674769872597
40
0.825006319922272
40
0.883338403148084
40
0.941669981284237
40
1
40
1
40
1
40
1
41
1
10
146.886617439634
20
-2.5
30
0
41
1
10
146.889334637752
20
-2.44708154577946
30
0
41
1
10
146.894597898278
20
-2.34123649014374
30
0
41
1
10
146.901979981907
20
-2.18244150291476
30
0
41
1
10
146.908847742812
20
-2.02362133992822
30
0
41
1
10
146.916955666448
20
-1.82089082437789
30
0
41
1
10
146.925684629554
20
-1.57422705619507
30
0
41
1
10
146.934235696429
20
-1.28360937445022
30
0
41
1
10
146.941052614272
20
-0.992943227230016
30
0
41
1
10
146.946132036708
20
-0.702244153701329
30
0
41
1
10
146.949470748783
20
-0.411523212163457
30
0
41
1
10
146.951065399771
20
-0.120787329946525
30
0
41
1
10
146.950917079021
20
0.16995649061686
30
0
41
1
10
146.949026728103
20
0.46069681879169
30
0
41
1
10
146.945395264241
20
0.75141800893836
30
0
41
1
10
146.940017094571
20
1.04245606416112
30
0
41
1
10
146.932885587743
20
1.33380386085806
30
0
41
1
10
146.923998500112
20
1.62545443012889
30
0
41
1
10
146.913369473989
20
1.91704911678356
30
0
41
1
10
146.901003138878
20
2.20857357990255
30
0
41
1
10
146.891605172676
20
2.40286728807987
30
0
41
1
10
146.886617439634
20
2.5
30
0
0
LINE
5
70
100
AcDbEntity
8
1
62
256
6
ByLayer
370
18
48
1
60
0
100
AcDbLine
10
36
20
27
30
0
11
35.5
21
27.5
31
0
39
0
210
0
220
0
230
1
0
LINE
5
72
100
AcDbEntity
8
SK3
62
256
6
ByLayer
370
13
48
0.05
60
0
100
AcDbLine
10
98.6618
20
15.24
30
0
11
102.773252
21
15.24
31
0
39
0
210
0
220
0
230
1
0
LINE
5
74
100
AcDbEntity
8
1
62
256
6
ByLayer
370
18
48
1
60
0
100
AcDbLine
10
108.3646
20
19.7485
30
0
11
113.4446
21
19.7485
31
0
39
0
210
0
220
0
230
1
0
LINE
5
75
100
AcDbEntity
8
1
62
256
6
ByLayer
370
18
48
1
60
0
100
AcDbLine
10
122.5602
20
30.84
30
0
11
123.0702
21
31.35
31
0
39
0
210
0
220
0
230
1
0
LINE
5
76
100
AcDbEntity
8
SK1
62
256
6
ByLayer
370
18
48
0.05
60
1
100
AcDbLine
10
35.5
20
18.4
30
0
11
35.5
21
-18.4
31
0
39
0
210
0
220
0
230
1
0
LINE
5
78
100
AcDbEntity
8
1
62
256
6
ByLayer
370
18
48
1
60
0
100
AcDbLine
10
36
20
-27
30
0
11
35.5
21
-27.5
31
0
39
0
210
0
220
0
230
1
0
LINE
5
79
100
AcDbEntity
8
1
62
256
6
ByLayer
370
18
48
1
60
0
100
AcDbLine
10
101.4864
20
30.6197
30
0
11
101.1054
21
31.0007
31
0
39
0
210
0
220
0
230
1
0
LINE
5
7A
100
AcDbEntity
8
1
62
256
6
ByLayer
370
18
48
1
60
0
100
AcDbLine
10
138.4602
20
-2.5
30
0
11
128.949428
21
-2.5
31
0
39
0
210
0
220
0
230
1
0
LINE
5
7B
100
AcDbEntity
8
SK3
62
256
6
ByLayer
370
13
48
0.05
60
0
100
AcDbLine
10
102.773252
20
15.24
30
0
11
136.6602
21
20.0025
31
0
39
0
210
0
220
0
230
1
0
LINE
5
7C
100
AcDbEntity
8
1
62
256
6
ByLayer
370
18
48
1
60
0
100
AcDbLine
10
113.4446
20
19.7485
30
0
11
114.85002
21
24.9936
31
0
39
0
210
0
220
0
230
1
0
LINE
5
7D
100
AcDbEntity
8
1
62
256
6
ByLayer
370
18
48
1
60
0
100
AcDbLine
10
108.3646
20
-19.7485
30
0
11
107.0438
21
-24.677793
31
0
39
0
210
0
220
0
230
1
0
LINE
5
7E
100
AcDbEntity
8
1
62
256
6
ByLayer
370
18
48
1
60
0
100
AcDbLine
10
138.4602
20
25.774506
30
0
11
146.5302
21
25.774506
31
0
39
0
210
0
220
0
230
1
0
LINE
5
7F
100
AcDbEntity
8
SK3
62
256
6
ByLayer
370
13
48
0.05
60
0
100
AcDbLine
10
136.9602
20
24.25
30
0
11
136.9602
21
24.5
31
0
39
0
210
0
220
0
230
1
0
LINE
5
80
100
AcDbEntity
8
1
62
256
6
ByLayer
370
18
48
1
60
0
100
AcDbLine
10
145.07
20
-31.35
30
0
11
123.0702
21
-31.35
31
0
39
0
210
0
220
0
230
1
0
LINE
5
81
100
AcDbEntity
8
SK3
62
256
6
ByLayer
370
13
48
0.05
60
0
100
AcDbLine
10
98.6618
20
-15.24
30
0
11
98.6618
21
15.24
31
0
39
0
210
0
220
0
230
1
0
LINE
5
82
100
AcDbEntity
8
1
62
256
6
ByLayer
370
18
48
1
60
0
100
AcDbLine
10
113.4446
20
-19.7485
30
0
11
108.3646
21
-19.7485
31
0
39
0
210
0
220
0
230
1
0
LINE
5
83
100
AcDbEntity
8
1
62
256
6
ByLayer
370
18
48
1
60
0
100
AcDbLine
10
146.5302
20
-25.774506
30
0
11
138.4602
21
-25.774506
31
0
39
0
210
0
220
0
230
1
0
LINE
5
84
100
AcDbEntity
8
1
62
256
6
ByLayer
370
18
48
1
60
0
100
AcDbLine
10
145.07
20
2.795338
30
0
11
138.4602
21
2.795338
31
0
39
0
210
0
220
0
230
1
0
LINE
5
85
100
AcDbEntity
8
1
62
256
6
ByLayer
370
18
48
1
60
0
100
AcDbLine
10
145.07
20
28.569843
30
0
11
138.4602
21
28.569843
31
0
39
0
210
0
220
0
230
1
0
LINE
5
86
100
AcDbEntity
8
SK3
62
256
6
ByLayer
370
13
48
0.05
60
0
100
AcDbLine
10
136.6602
20
23.7236
30
0
11
135.3902
21
24.9936
31
0
39
0
210
0
220
0
230
1
0
LINE
5
87
100
AcDbEntity
8
1
62
256
6
ByLayer
370
18
48
1
60
0
100
AcDbLine
10
122.5602
20
30.84
30
0
11
122.5602
21
-30.84
31
0
39
0
210
0
220
0
230
1
0
LINE
5
88
100
AcDbEntity
8
1
62
256
6
ByLayer
370
18
48
1
60
0
100
AcDbLine
10
123.0702
20
-31.35
30
0
11
122.5602
21
-30.84
31
0
39
0
210
0
220
0
230
1
0
LINE
5
89
100
AcDbEntity
8
1
62
256
6
ByLayer
370
18
48
1
60
0
100
AcDbLine
10
114.85002
20
-24.9936
30
0
11
113.4446
21
-19.7485
31
0
39
0
210
0
220
0
230
1
0
LINE
5
8A
100
AcDbEntity
8
SK1
62
256
6
ByLayer
370
18
48
0.05
60
1
100
AcDbLine
10
106.5358
20
28.656637
30
0
11
104.9864
21
28.656637
31
0
39
0
210
0
220
0
230
1
0
LINE
5
8B
100
AcDbEntity
8
1
62
256
6
ByLayer
370
18
48
1
60
0
100
AcDbLine
10
106.5358
20
-28.656637
30
0
11
107.0438
21
-28.148637
31
0
39
0
210
0
220
0
230
1
0
LINE
5
8C
100
AcDbEntity
8
1
62
256
6
ByLayer
370
18
48
1
60
0
100
AcDbLine
10
138.4602
20
2.5
30
0
11
128.949428
21
2.5
31
0
39
0
210
0
220
0
230
1
0
LINE
5
8D
100
AcDbEntity
8
SK3
62
256
6
ByLayer
370
13
48
0.05
60
0
100
AcDbLine
10
141.1602
20
-18.5
30
0
11
138.9602
21
-18.5
31
0
39
0
210
0
220
0
230
1
0
LINE
5
8E
100
AcDbEntity
8
1
62
256
6
ByLayer
370
18
48
1
60
0
100
AcDbLine
10
107.0438
20
24.677793
30
0
11
108.3646
21
19.7485
31
0
39
0
210
0
220
0
230
1
0
LINE
5
8F
100
AcDbEntity
8
SK3
62
256
6
ByLayer
370
13
48
0.05
60
0
100
AcDbLine
10
136.6602
20
-20.0025
30
0
11
102.773252
21
-15.24
31
0
39
0
210
0
220
0
230
1
0
LINE
5
90
100
AcDbEntity
8
1
62
256
6
ByLayer
370
18
48
1
60
0
100
AcDbLine
10
107.0438
20
-28.148637
30
0
11
107.0438
21
28.148637
31
0
39
0
210
0
220
0
230
1
0
LINE
5
91
100
AcDbEntity
8
1
62
256
6
ByLayer
370
18
48
1
60
0
100
AcDbLine
10
138.4602
20
-2.795338
30
0
11
145.07
21
-2.795338
31
0
39
0
210
0
220
0
230
1
0
LINE
5
92
100
AcDbEntity
8
SK1
62
256
6
ByLayer
370
18
48
0.05
60
1
100
AcDbLine
10
57.1074
20
-31.0007
30
0
11
104.6054
21
-31.0007
31
0
39
0
210
0
220
0
230
1
0
LINE
5
93
100
AcDbEntity
8
SK3
62
256
6
ByLayer
370
13
48
0.05
60
0
100
AcDbLine
10
138.9602
20
18.5
30
0
11
141.1602
21
18.5
31
0
39
0
210
0
220
0
230
1
0
LINE
5
94
100
AcDbEntity
8
SK1
62
256
6
ByLayer
370
18
48
0.05
60
1
100
AcDbLine
10
36
20
27.432
30
0
11
36
21
-27.432
31
0
39
0
210
0
220
0
230
1
0
LINE
5
95
100
AcDbEntity
8
1
62
256
6
ByLayer
370
18
48
1
60
0
100
AcDbLine
10
101.1054
20
-31.0007
30
0
11
101.4864
21
-30.6197
31
0
39
0
210
0
220
0
230
1
0
LINE
5
96
100
AcDbEntity
8
1
62
256
6
ByLayer
370
18
48
1
60
0
100
AcDbLine
10
138.4602
20
2.5
30
0
11
146.886617
21
2.5
31
0
39
0
210
0
220
0
230
1
0
LINE
5
97
100
AcDbEntity
8
1
62
256
6
ByLayer
370
18
48
1
60
0
100
AcDbLine
10
123.0702
20
31.35
30
0
11
145.07
21
31.35
31
0
39
0
210
0
220
0
230
1
0
LINE
5
98
100
AcDbEntity
8
1
62
256
6
ByLayer
370
18
48
1
60
0
100
AcDbLine
10
107.0438
20
28.148637
30
0
11
106.5358
21
28.656637
31
0
39
0
210
0
220
0
230
1
0
LINE
5
99
100
AcDbEntity
8
SK1
62
256
6
ByLayer
370
18
48
0.05
60
1
100
AcDbLine
10
104.6054
20
31.0007
30
0
11
57.1074
21
31.0007
31
0
39
0
210
0
220
0
230
1
0
LINE
5
9A
100
AcDbEntity
8
1
62
256
6
ByLayer
370
18
48
1
60
0
100
AcDbLine
10
101.4864
20
-30.6197
30
0
11
101.4864
21
30.6197
31
0
39
0
210
0
220
0
230
1
0
LINE
5
9B
100
AcDbEntity
8
SK3
62
256
6
ByLayer
370
13
48
0.05
60
0
100
AcDbLine
10
135.3902
20
-24.9936
30
0
11
136.6602
21
-23.7236
31
0
39
0
210
0
220
0
230
1
0
LINE
5
9C
100
AcDbEntity
8
SK3
62
256
6
ByLayer
370
13
48
0.05
60
0
100
AcDbLine
10
134.9702
20
-25.5
30
0
11
134.9702
21
-25.488066
31
0
39
0
210
0
220
0
230
1
0
LINE
5
9D
100
AcDbEntity
8
1
62
256
6
ByLayer
370
18
48
1
60
0
100
AcDbLine
10
138.4602
20
-28.569843
30
0
11
145.07
21
-28.569843
31
0
39
0
210
0
220
0
230
1
0
LINE
5
9E
100
AcDbEntity
8
SK3
62
256
6
ByLayer
370
13
48
0.05
60
0
100
AcDbLine
10
138.9602
20
24.5
30
0
11
138.9602
21
-24.5
31
0
39
0
210
0
220
0
230
1
0
LINE
5
9F
100
AcDbEntity
8
SK3
62
256
6
ByLayer
370
13
48
0.05
60
0
100
AcDbLine
10
141.1602
20
-20.9
30
0
11
141.1602
21
20.9
31
0
39
0
210
0
220
0
230
1
0
LINE
5
A0
100
AcDbEntity
8
SK3
62
256
6
ByLayer
370
13
48
0.05
60
0
100
AcDbLine
10
136.6602
20
-23.7236
30
0
11
136.6602
21
23.7236
31
0
39
0
210
0
220
0
230
1
0
LINE
5
A1
100
AcDbEntity
8
1
62
256
6
ByLayer
370
18
48
1
60
0
100
AcDbLine
10
115.560169
20
-24.9936
30
0
11
115.560169
21
24.9936
31
0
39
0
210
0
220
0
230
1
0
LINE
5
A2
100
AcDbEntity
8
SK1
62
256
6
ByLayer
370
18
48
0.05
60
1
100
AcDbLine
10
35.5
20
27.5
30
0
11
10.000048
21
27.5
31
0
39
0
210
0
220
0
230
1
0
LINE
5
A3
100
AcDbEntity
8
SK1
62
256
6
ByLayer
370
18
48
0.05
60
1
100
AcDbLine
10
35.5
20
-27.5
30
0
11
10.000048
21
-27.5
31
0
39
0
210
0
220
0
230
1
0
LINE
5
A4
100
AcDbEntity
8
SK3
62
256
6
ByLayer
370
13
48
0.05
60
0
100
AcDbLine
10
102.773252
20
-15.24
30
0
11
98.6618
21
-15.24
31
0
39
0
210
0
220
0
230
1
0
LINE
5
A5
100
AcDbEntity
8
SK1
62
256
6
ByLayer
370
18
48
0.05
60
1
100
AcDbLine
10
104.9864
20
-28.656637
30
0
11
106.5358
21
-28.656637
31
0
39
0
210
0
220
0
230
1
0
LINE
5
A6
100
AcDbEntity
8
SK3
62
256
6
ByLayer
370
13
48
0.05
60
0
100
AcDbLine
10
136.9602
20
-24.5
30
0
11
136.9602
21
-24.25
31
0
39
0
210
0
220
0
230
1
0
LINE
5
A7
100
AcDbEntity
8
1
62
256
6
ByLayer
370
18
48
1
60
0
100
AcDbLine
10
138.4602
20
-2.5
30
0
11
146.886617
21
-2.5
31
0
39
0
210
0
220
0
230
1
0
LINE
5
A8
100
AcDbEntity
8
4
62
256
6
ByLayer
370
13
48
0.05
60
1
100
AcDbLine
10
0
20
0
30
0
11
166.4702
21
0
31
0
39
0
210
0
220
0
230
1
0
LINE
5
AA
100
AcDbEntity
8
1
62
256
6
ByLayer
370
18
48
1
60
0
100
AcDbLine
10
22.000048
20
-31
30
0
11
22.000048
21
31
31
0
39
0
210
0
220
0
230
1
0
LINE
5
AB
100
AcDbEntity
8
1
62
256
6
ByLayer
370
18
48
1
60
0
100
AcDbLine
10
0
20
-31.2
30
0
11
0
21
31.2
31
0
39
0
210
0
220
0
230
1
0
LINE
5
AC
100
AcDbEntity
8
1
62
256
6
ByLayer
370
18
48
1
60
0
100
AcDbLine
10
21.500048
20
31.5
30
0
11
0.3
21
31.5
31
0
39
0
210
0
220
0
230
1
0
LINE
5
AD
100
AcDbEntity
8
SK1
62
256
6
ByLayer
370
18
48
1
60
0
100
AcDbLine
10
-38
20
-20.279849
30
0
11
-38
21
20.279849
31
0
39
0
210
0
220
0
230
1
0
LINE
5
AE
100
AcDbEntity
8
SK1
62
256
6
ByLayer
370
18
48
1
60
0
100
AcDbLine
10
-2.1
20
-22.022494
30
0
11
-2.1
21
22.022494
31
0
39
0
210
0
220
0
230
1
0
LINE
5
AF
100
AcDbEntity
8
1
62
256
6
ByLayer
370
18
48
1
60
0
100
AcDbLine
10
21.500048
20
-31.5
30
0
11
0.3
21
-31.5
31
0
39
0
210
0
220
0
230
1
0
LINE
5
B0
100
AcDbEntity
8
1
62
256
6
ByLayer
370
18
48
1
60
0
100
AcDbLine
10
0
20
31.2
30
0
11
0.3
21
31.5
31
0
39
0
210
0
220
0
230
1
0
LINE
5
B1
100
AcDbEntity
8
1
62
256
6
ByLayer
370
18
48
1
60
0
100
AcDbLine
10
0
20
-31.2
30
0
11
0.3
21
-31.5
31
0
39
0
210
0
220
0
230
1
0
LINE
5
B2
100
AcDbEntity
8
SK1
62
256
6
ByLayer
370
18
48
1
60
0
100
AcDbLine
10
-2.1
20
22.022939
30
0
11
-36.5
21
21.145874
31
0
39
0
210
0
220
0
230
1
0
LINE
5
B3
100
AcDbEntity
8
SK1
62
256
6
ByLayer
370
18
48
1
60
0
100
AcDbLine
10
-2.1
20
-22.022939
30
0
11
-36.5
21
-21.145874
31
0
39
0
210
0
220
0
230
1
0
LINE
5
B4
100
AcDbEntity
8
SK1
62
256
6
ByLayer
370
18
48
1
60
0
100
AcDbLine
10
-36.5
20
-21.145874
30
0
11
-36.5
21
21.145874
31
0
39
0
210
0
220
0
230
1
0
LINE
5
B5
100
AcDbEntity
8
SK1
62
256
6
ByLayer
370
18
48
1
60
0
100
AcDbLine
10
-38
20
20.279849
30
0
11
-36.5
21
21.145874
31
0
39
0
210
0
220
0
230
1
0
LINE
5
B6
100
AcDbEntity
8
SK1
62
256
6
ByLayer
370
18
48
1
60
0
100
AcDbLine
10
-38
20
-20.279849
30
0
11
-36.5
21
-21.145874
31
0
39
0
210
0
220
0
230
1
0
LINE
5
B7
100
AcDbEntity
8
80
62
256
6
ByLayer
370
13
48
1
60
0
100
AcDbLine
10
0
20
0
30
0
11
-8
21
0
31
0
39
0
210
0
220
0
230
1
0
LINE
5
B8
100
AcDbEntity
8
1
62
256
6
ByLayer
370
18
48
1
60
0
100
AcDbLine
10
22.000048
20
31
30
0
11
21.500048
21
31.5
31
0
39
0
210
0
220
0
230
1
0
LINE
5
B9
100
AcDbEntity
8
1
62
256
6
ByLayer
370
18
48
1
60
0
100
AcDbLine
10
22.000048
20
-31
30
0
11
21.500048
21
-31.5
31
0
39
0
210
0
220
0
230
1
0
LINE
5
BA
100
AcDbEntity
8
1
62
256
6
ByLayer
370
18
48
1
60
0
100
AcDbLine
10
10.25
20
-9.349244
30
0
11
10.25
21
-30.080586
31
0
39
0
210
0
220
0
230
1
0
LINE
5
BB
100
AcDbEntity
8
1
62
256
6
ByLayer
370
18
48
1
60
0
100
AcDbLine
10
13.75
20
-30.080586
30
0
11
10.25
21
-30.080586
31
0
39
0
210
0
220
0
230
1
0
LINE
5
BC
100
AcDbEntity
8
1
62
256
6
ByLayer
370
18
48
1
60
0
100
AcDbLine
10
10.25
20
30.080586
30
0
11
10.25
21
9.349244
31
0
39
0
210
0
220
0
230
1
0
LINE
5
BD
100
AcDbEntity
8
1
62
256
6
ByLayer
370
18
48
1
60
0
100
AcDbLine
10
13.75
20
9.349244
30
0
11
10.25
21
9.349244
31
0
39
0
210
0
220
0
230
1
0
LINE
5
BE
100
AcDbEntity
8
1
62
256
6
ByLayer
370
18
48
1
60
0
100
AcDbLine
10
13.75
20
-9.349244
30
0
11
10.25
21
-9.349244
31
0
39
0
210
0
220
0
230
1
0
LINE
5
BF
100
AcDbEntity
8
1
62
256
6
ByLayer
370
18
48
1
60
0
100
AcDbLine
10
13.75
20
-9.349244
30
0
11
13.75
21
-30.080586
31
0
39
0
210
0
220
0
230
1
0
LINE
5
C0
100
AcDbEntity
8
1
62
256
6
ByLayer
370
18
48
1
60
0
100
AcDbLine
10
13.75
20
30.080586
30
0
11
13.75
21
9.349244
31
0
39
0
210
0
220
0
230
1
0
LINE
5
C1
100
AcDbEntity
8
1
62
256
6
ByLayer
370
18
48
1
60
0
100
AcDbLine
10
13.75
20
30.080586
30
0
11
10.25
21
30.080586
31
0
39
0
210
0
220
0
230
1
0
LINE
5
C2
100
AcDbEntity
8
SK4
62
256
6
ByLayer
370
13
48
0.05
60
1
100
AcDbLine
10
-41.952857
20
0
30
0
11
169.804242
21
0
31
0
39
0
210
0
220
0
230
1
0
LINE
5
C4
100
AcDbEntity
8
1
62
256
6
ByLayer
370
18
48
0.05
60
1
100
AcDbLine
10
56.4004
20
30.6197
30
0
11
56.4004
21
-30.6197
31
0
39
0
210
0
220
0
230
1
0
LINE
5
C5
100
AcDbEntity
8
1
62
256
6
ByLayer
370
18
48
0.05
60
1
100
AcDbLine
10
56.9004
20
30.6197
30
0
11
56.9004
21
-30.6197
31
0
39
0
210
0
220
0
230
1
0
LINE
5
C6
100
AcDbEntity
8
1
62
256
6
ByLayer
370
18
48
0.05
60
1
100
AcDbLine
10
0
20
29.85
30
0
11
153.4702
21
29.85
31
0
39
0
210
0
220
0
230
1
0
LINE
5
C7
100
AcDbEntity
8
1
62
256
6
ByLayer
370
18
48
1
60
0
100
AcDbLine
10
39.6
20
31.0007
30
0
11
55.9004
21
31.0007
31
0
39
0
210
0
220
0
230
1
0
LINE
5
C8
100
AcDbEntity
8
1
62
256
6
ByLayer
370
18
48
1
60
0
100
AcDbLine
10
57.2004
20
31.0007
30
0
11
56.9004
21
30.7007
31
0
39
0
210
0
220
0
230
1
0
LINE
5
C9
100
AcDbEntity
8
1
62
256
6
ByLayer
370
18
48
1
60
0
100
AcDbLine
10
56.4004
20
30.5007
30
0
11
55.9004
21
31.0007
31
0
39
0
210
0
220
0
230
1
0
LINE
5
CA
100
AcDbEntity
8
1
62
256
6
ByLayer
370
18
48
1
60
0
100
AcDbLine
10
39.6
20
31.0007
30
0
11
36
21
27.4007
31
0
39
0
210
0
220
0
230
1
0
LINE
5
CB
100
AcDbEntity
8
1
62
256
6
ByLayer
370
18
48
1
60
0
100
AcDbLine
10
39.6
20
-31.0007
30
0
11
36
21
-27.4007
31
0
39
0
210
0
220
0
230
1
0
LINE
5
CC
100
AcDbEntity
8
1
62
256
6
ByLayer
370
18
48
1
60
0
100
AcDbLine
10
39.6
20
-31.0007
30
0
11
55.9004
21
-31.0007
31
0
39
0
210
0
220
0
230
1
0
LINE
5
CD
100
AcDbEntity
8
1
62
256
6
ByLayer
370
18
48
1
60
0
100
AcDbLine
10
56.4004
20
-30.5007
30
0
11
55.9004
21
-31.0007
31
0
39
0
210
0
220
0
230
1
0
LINE
5
CE
100
AcDbEntity
8
1
62
256
6
ByLayer
370
18
48
1
60
0
100
AcDbLine
10
57.2004
20
-31.0007
30
0
11
56.9004
21
-30.7007
31
0
39
0
210
0
220
0
230
1
0
LINE
5
CF
100
AcDbEntity
8
1
62
256
6
ByLayer
370
18
48
1
60
0
100
AcDbLine
10
56.9004
20
-29.85
30
0
11
56.4004
21
-29.85
31
0
39
0
210
0
220
0
230
1
0
LINE
5
D0
100
AcDbEntity
8
1
62
256
6
ByLayer
370
18
48
1
60
0
100
AcDbLine
10
39.6
20
31.0007
30
0
11
39.6
21
-31.0007
31
0
39
0
210
0
220
0
230
1
0
LINE
5
D1
100
AcDbEntity
8
4
62
256
6
ByLayer
370
13
48
0.05
60
0
100
AcDbLine
10
0
20
0
30
0
11
136.6602
21
0
31
0
39
0
210
0
220
0
230
1
0
LINE
5
D2
100
AcDbEntity
8
SK1
62
256
6
ByLayer
370
18
48
0.05
60
1
100
AcDbLine
10
101.1054
20
31.0007
30
0
11
57.1074
21
31.0007
31
0
39
0
210
0
220
0
230
1
0
LINE
5
D3
100
AcDbEntity
8
SK1
62
256
6
ByLayer
370
18
48
0.05
60
1
100
AcDbLine
10
101.1054
20
-31.0007
30
0
11
57.1074
21
-31.0007
31
0
39
0
210
0
220
0
230
1
0
LINE
5
D4
100
AcDbEntity
8
1
62
256
6
ByLayer
370
18
48
1
60
0
100
AcDbLine
10
101.4864
20
-28.656637
30
0
11
106.5358
21
-28.656637
31
0
39
0
210
0
220
0
230
1
0
LINE
5
D5
100
AcDbEntity
8
1
62
256
6
ByLayer
370
18
48
1
60
0
100
AcDbLine
10
101.4864
20
28.656637
30
0
11
106.5358
21
28.656637
31
0
39
0
210
0
220
0
230
1
0
LINE
5
D6
100
AcDbEntity
8
SK1
62
256
6
ByLayer
370
18
48
0.05
60
1
100
AcDbLine
10
35.5
20
27.5
30
0
11
35.5
21
-18.4
31
0
39
0
210
0
220
0
230
1
0
LINE
5
D7
100
AcDbEntity
8
1
62
256
6
ByLayer
370
18
48
1
60
0
100
AcDbLine
10
35.5
20
-27.5
30
0
11
35.5
21
27.5
31
0
39
0
210
0
220
0
230
1
0
LINE
5
D8
100
AcDbEntity
8
1
62
256
6
ByLayer
370
18
48
1
60
0
100
AcDbLine
10
23.000048
20
27.5
30
0
11
35.5
21
27.5
31
0
39
0
210
0
220
0
230
1
0
LINE
5
D9
100
AcDbEntity
8
1
62
256
6
ByLayer
370
18
48
1
60
0
100
AcDbLine
10
23.000048
20
-27.5
30
0
11
35.5
21
-27.5
31
0
39
0
210
0
220
0
230
1
0
LINE
5
DA
100
AcDbEntity
8
SK1
62
256
6
ByLayer
370
18
48
0.05
60
1
100
AcDbLine
10
36
20
27
30
0
11
36
21
-27.432
31
0
39
0
210
0
220
0
230
1
0
LINE
5
DB
100
AcDbEntity
8
SK1
62
256
6
ByLayer
370
18
48
0.05
60
1
100
AcDbLine
10
36
20
-27.432
30
0
11
36
21
27
31
0
39
0
210
0
220
0
230
1
0
LINE
5
DC
100
AcDbEntity
8
SK1
62
256
6
ByLayer
370
18
48
0.05
60
1
100
AcDbLine
10
36
20
-27
30
0
11
36
21
27
31
0
39
0
210
0
220
0
230
1
0
LINE
5
DD
100
AcDbEntity
8
SK1
62
256
6
ByLayer
370
18
48
0.05
60
1
100
AcDbLine
10
36
20
31.0007
30
0
11
36
21
-27
31
0
39
0
210
0
220
0
230
1
0
LINE
5
DE
100
AcDbEntity
8
SK1
62
256
6
ByLayer
370
18
48
0.05
60
1
100
AcDbLine
10
36
20
-31.0007
30
0
11
36
21
31.0007
31
0
39
0
210
0
220
0
230
1
0
LINE
5
DF
100
AcDbEntity
8
1
62
256
6
ByLayer
370
18
48
0.05
60
1
100
AcDbLine
10
0
20
29.85
30
0
11
56.9004
21
29.85
31
0
39
0
210
0
220
0
230
1
0
LINE
5
E0
100
AcDbEntity
8
1
62
256
6
ByLayer
370
18
48
1
60
0
100
AcDbLine
10
56.9004
20
29.85
30
0
11
56.4004
21
29.85
31
0
39
0
210
0
220
0
230
1
0
LINE
5
E1
100
AcDbEntity
8
SK1
62
256
6
ByLayer
370
18
48
0.05
60
1
100
AcDbLine
10
36
20
31.0007
30
0
11
36
21
-31.0007
31
0
39
0
210
0
220
0
230
1
0
LINE
5
E2
100
AcDbEntity
8
1
62
256
6
ByLayer
370
18
48
0.05
60
1
100
AcDbLine
10
56.4004
20
31.0007
30
0
11
56.4004
21
-30.6197
31
0
39
0
210
0
220
0
230
1
0
LINE
5
E3
100
AcDbEntity
8
1
62
256
6
ByLayer
370
18
48
0.05
60
1
100
AcDbLine
10
56.4004
20
31.0007
30
0
11
56.4004
21
-30.6197
31
0
39
0
210
0
220
0
230
1
0
LINE
5
E4
100
AcDbEntity
8
1
62
256
6
ByLayer
370
18
48
0.05
60
1
100
AcDbLine
10
56.9004
20
30.6197
30
0
11
56.9004
21
-30.6197
31
0
39
0
210
0
220
0
230
1
0
LINE
5
E5
100
AcDbEntity
8
1
62
256
6
ByLayer
370
18
48
0.05
60
1
100
AcDbLine
10
56.9004
20
30.6197
30
0
11
56.9004
21
-30.6197
31
0
39
0
210
0
220
0
230
1
0
LINE
5
E6
100
AcDbEntity
8
1
62
256
6
ByLayer
370
18
48
0.05
60
1
100
AcDbLine
10
56.9004
20
31.0007
30
0
11
56.9004
21
-30.6197
31
0
39
0
210
0
220
0
230
1
0
LINE
5
E7
100
AcDbEntity
8
SK1
62
256
6
ByLayer
370
18
48
0.05
60
1
100
AcDbLine
10
56.9004
20
31.0007
30
0
11
101.1054
21
31.0007
31
0
39
0
210
0
220
0
230
1
0
LINE
5
E8
100
AcDbEntity
8
1
62
256
6
ByLayer
370
18
48
1
60
0
100
AcDbLine
10
57.2004
20
31.0007
30
0
11
101.1054
21
31.0007
31
0
39
0
210
0
220
0
230
1
0
LINE
5
E9
100
AcDbEntity
8
1
62
256
6
ByLayer
370
18
48
1
60
0
100
AcDbLine
10
57.2004
20
-31.0007
30
0
11
101.1054
21
-31.0007
31
0
39
0
210
0
220
0
230
1
0
LINE
5
EA
100
AcDbEntity
8
81
62
256
6
ByLayer
370
13
48
1
60
0
100
AcDbLine
10
136.7
20
0
30
0
11
144.7
21
0
31
0
39
0
210
0
220
0
230
1
0
LINE
5
EB
100
AcDbEntity
8
1
62
256
6
ByLayer
370
18
48
1
60
0
100
AcDbLine
10
36
20
-27.4007
30
0
11
36
21
27.4007
31
0
39
0
210
0
220
0
230
1
0
LINE
5
EC
100
AcDbEntity
8
SK4
62
256
6
ByLayer
370
13
48
0.05
60
0
100
AcDbLine
10
-41.829788
20
0
30
0
11
151.670212
21
0
31
0
39
0
210
0
220
0
230
1
0
LINE
5
ED
100
AcDbEntity
8
1
62
256
6
ByLayer
370
18
48
1
60
0
100
AcDbLine
10
56.4004
20
-30.5007
30
0
11
56.4004
21
30.5007
31
0
39
0
210
0
220
0
230
1
0
LINE
5
EE
100
AcDbEntity
8
1
62
256
6
ByLayer
370
18
48
1
60
0
100
AcDbLine
10
56.9004
20
-30.7007
30
0
11
56.9004
21
30.7007
31
0
39
0
210
0
220
0
230
1
0
LINE
5
EF
100
AcDbEntity
8
3
62
256
6
ByLayer
370
13
48
0.05
60
0
100
AcDbLine
10
136.6602
20
23.7236
30
0
11
135.3902
21
24.9936
31
0
39
0
210
0
220
0
230
1
0
LINE
5
F1
100
AcDbEntity
8
3
62
256
6
ByLayer
370
13
48
0.05
60
0
100
AcDbLine
10
135.3902
20
-24.9936
30
0
11
136.6602
21
-23.7236
31
0
39
0
210
0
220
0
230
1
0
LINE
5
F2
100
AcDbEntity
8
3
62
256
6
ByLayer
370
13
48
0.05
60
0
100
AcDbLine
10
136.6602
20
-23.7236
30
0
11
136.6602
21
-20.0025
31
0
39
0
210
0
220
0
230
1
0
LINE
5
F3
100
AcDbEntity
8
3
62
256
6
ByLayer
370
13
48
0.05
60
0
100
AcDbLine
10
136.6602
20
20.0025
30
0
11
136.6602
21
23.7236
31
0
39
0
210
0
220
0
230
1
0
LINE
5
F4
100
AcDbEntity
8
1
62
256
6
ByLayer
370
18
48
1
60
0
100
AcDbLine
10
145.07
20
2.795338
30
0
11
146.886617
21
2.5
31
0
39
0
210
0
220
0
230
1
0
LINE
5
F5
100
AcDbEntity
8
1
62
256
6
ByLayer
370
18
48
1
60
0
100
AcDbLine
10
146.886617
20
-2.5
30
0
11
145.07
21
-2.795338
31
0
39
0
210
0
220
0
230
1
0
LINE
5
F6
100
AcDbEntity
8
1
62
256
6
ByLayer
370
18
48
1
60
0
100
AcDbLine
10
148.07
20
26.153848
30
0
11
148.07
21
-26.153848
31
0
39
0
210
0
220
0
230
1
0
LINE
5
F7
100
AcDbEntity
8
1
62
256
6
ByLayer
370
18
48
1
60
0
100
AcDbLine
10
145.07
20
25.774506
30
0
11
145.07
21
2.795338
31
0
39
0
210
0
220
0
230
1
0
LINE
5
F8
100
AcDbEntity
8
1
62
256
6
ByLayer
370
18
48
1
60
0
100
AcDbLine
10
145.07
20
28.569843
30
0
11
146.5302
21
25.774506
31
0
39
0
210
0
220
0
230
1
0
LINE
5
F9
100
AcDbEntity
8
1
62
256
6
ByLayer
370
18
48
1
60
0
100
AcDbLine
10
145.07
20
25.774506
30
0
11
146.57
21
23.176429
31
0
39
0
210
0
220
0
230
1
0
LINE
5
FA
100
AcDbEntity
8
1
62
256
6
ByLayer
370
18
48
1
60
0
100
AcDbLine
10
146.5302
20
25.774506
30
0
11
146.57
21
23.176429
31
0
39
0
210
0
220
0
230
1
0
LINE
5
FB
100
AcDbEntity
8
1
62
256
6
ByLayer
370
18
48
1
60
0
100
AcDbLine
10
145.07
20
31.35
30
0
11
148.07
21
26.153848
31
0
39
0
210
0
220
0
230
1
0
LINE
5
FC
100
AcDbEntity
8
1
62
256
6
ByLayer
370
18
48
1
60
0
100
AcDbLine
10
145.07
20
31.35
30
0
11
145.07
21
28.569843
31
0
39
0
210
0
220
0
230
1
0
LINE
5
FD
100
AcDbEntity
8
1
62
256
6
ByLayer
370
18
48
1
60
0
100
AcDbLine
10
145.07
20
-31.35
30
0
11
148.07
21
-26.153848
31
0
39
0
210
0
220
0
230
1
0
LINE
5
FE
100
AcDbEntity
8
1
62
256
6
ByLayer
370
18
48
1
60
0
100
AcDbLine
10
145.07
20
-31.35
30
0
11
145.07
21
-28.569843
31
0
39
0
210
0
220
0
230
1
0
LINE
5
FF
100
AcDbEntity
8
1
62
256
6
ByLayer
370
18
48
1
60
0
100
AcDbLine
10
145.07
20
-28.569843
30
0
11
146.5302
21
-25.774506
31
0
39
0
210
0
220
0
230
1
0
LINE
5
100
100
AcDbEntity
8
1
62
256
6
ByLayer
370
18
48
1
60
0
100
AcDbLine
10
145.07
20
-25.774506
30
0
11
145.07
21
-2.795338
31
0
39
0
210
0
220
0
230
1
0
LINE
5
101
100
AcDbEntity
8
1
62
256
6
ByLayer
370
18
48
1
60
0
100
AcDbLine
10
146.5302
20
-25.774506
30
0
11
146.57
21
-23.176429
31
0
39
0
210
0
220
0
230
1
0
LINE
5
102
100
AcDbEntity
8
1
62
256
6
ByLayer
370
18
48
1
60
0
100
AcDbLine
10
145.07
20
-25.774506
30
0
11
146.57
21
-23.176429
31
0
39
0
210
0
220
0
230
1
0
LINE
5
103
100
AcDbEntity
8
SK3
62
256
6
ByLayer
370
13
48
0.05
60
0
100
AcDbLine
10
141.1602
20
20.9
30
0
11
148.07
21
16.910625
31
0
39
0
210
0
220
0
230
1
0
LINE
5
104
100
AcDbEntity
8
SK3
62
256
6
ByLayer
370
13
48
0.05
60
0
100
AcDbLine
10
148.07
20
-16.910625
30
0
11
141.1602
21
-20.9
31
0
39
0
210
0
220
0
230
1
0
LINE
5
105
100
AcDbEntity
8
1
62
256
6
ByLayer
370
18
48
1
60
0
100
AcDbLine
10
122.5602
20
24.9936
30
0
11
114.85002
21
24.9936
31
0
39
0
210
0
220
0
230
1
0
LINE
5
106
100
AcDbEntity
8
SK3
62
256
6
ByLayer
370
13
48
0.05
60
0
100
AcDbLine
10
135.3902
20
24.9936
30
0
11
122.5602
21
24.9936
31
0
39
0
210
0
220
0
230
1
0
LINE
5
107
100
AcDbEntity
8
3
62
256
6
ByLayer
370
13
48
0.05
60
0
100
AcDbLine
10
135.3902
20
24.9936
30
0
11
122.5602
21
24.9936
31
0
39
0
210
0
220
0
230
1
0
LINE
5
108
100
AcDbEntity
8
1
62
256
6
ByLayer
370
18
48
1
60
0
100
AcDbLine
10
115.560169
20
24.25
30
0
11
122.5602
21
24.25
31
0
39
0
210
0
220
0
230
1
0
LINE
5
109
100
AcDbEntity
8
SK3
62
256
6
ByLayer
370
13
48
0.05
60
0
100
AcDbLine
10
122.5602
20
24.25
30
0
11
136.9602
21
24.25
31
0
39
0
210
0
220
0
230
1
0
LINE
5
10A
100
AcDbEntity
8
1
62
256
6
ByLayer
370
18
48
1
60
0
100
AcDbLine
10
114.85002
20
-24.9936
30
0
11
122.5602
21
-24.9936
31
0
39
0
210
0
220
0
230
1
0
LINE
5
10B
100
AcDbEntity
8
SK3
62
256
6
ByLayer
370
13
48
0.05
60
0
100
AcDbLine
10
122.5602
20
-24.9936
30
0
11
135.3902
21
-24.9936
31
0
39
0
210
0
220
0
230
1
0
LINE
5
10C
100
AcDbEntity
8
3
62
256
6
ByLayer
370
13
48
0.05
60
0
100
AcDbLine
10
122.5602
20
-24.9936
30
0
11
135.3902
21
-24.9936
31
0
39
0
210
0
220
0
230
1
0
LINE
5
10D
100
AcDbEntity
8
1
62
256
6
ByLayer
370
18
48
1
60
0
100
AcDbLine
10
122.5602
20
-24.25
30
0
11
115.560169
21
-24.25
31
0
39
0
210
0
220
0
230
1
0
LINE
5
10E
100
AcDbEntity
8
SK3
62
256
6
ByLayer
370
13
48
0.05
60
0
100
AcDbLine
10
136.9602
20
-24.25
30
0
11
122.5602
21
-24.25
31
0
39
0
210
0
220
0
230
1
0
MTEXT
5
125
100
AcDbEntity
8
SK6
62
256
6
ByLayer
370
18
48
1
60
0
100
AcDbMText
10
4.712272
20
-40.118305
30
0
210
0
220
0
230
1
1
\W0.7039;970-C6-40-154
40
3.500001
41
0
44
1.084337
50
0
71
7
72
5
7
iso_b_vert
0
DIMENSION
5
133
100
AcDbEntity
8
SK2
62
256
6
ByLayer
370
18
48
1
60
0
100
AcDbDimension
2
DimnDraft3D1
10
176.319288
20
31.35
30
0
11
176.319288
21
-5.879496
31
0
70
32
71
5
72
1
41
1
210
0
220
0
230
1
3
Standard
100
AcDbAlignedDimension
13
146.6575
23
-31.35
33
0
14
146.6575
24
31.35
34
0
50
90
100
AcDbRotatedDimension
1001
ACAD
1000
DSTYLE
1002
{
1070
    74
1070
     0
1070
   279
1070
     0
1070
   172
1070
     1
1070
   173
1070
     1
1070
   340
1005
126
1070
   271
1070
     0
1070
   272
1070
     3
1070
    77
1070
     1
1070
    73
1070
     0
1070
   171
1070
     4
1070
   274
1070
     4
1070
   177
1070
     7
1070
   176
1070
     7
1070
   178
1070
     7
1070
    78
1070
     8
1070
    48
1040
-0.005
1070
    41
1041
3.175
1070
   147
1041
1.500003
1070
    42
1041
1.5875
1070
    44
1041
3.175
1070
   140
1041
3.000007
1070
   343
1005
0
1070
   344
1005
0
1002
}
0
DIMENSION
5
13B
100
AcDbEntity
8
SK2
62
256
6
ByLayer
370
18
48
1
60
0
100
AcDbDimension
2
DimnDraft3D2
10
81.558145
20
-31.0007
30
0
11
81.558145
21
10.841834
31
0
70
32
71
5
72
1
41
1
210
0
220
0
230
1
3
Standard
100
AcDbAlignedDimension
13
81.558145
23
31.0007
33
0
14
81.558145
24
-31.0007
34
0
50
90
100
AcDbRotatedDimension
1001
ACAD
1000
DSTYLE
1002
{
1070
    74
1070
     0
1070
   279
1070
     0
1070
   172
1070
     1
1070
   173
1070
     1
1070
   340
1005
126
1070
   271
1070
     0
1070
   272
1070
     3
1070
    77
1070
     1
1070
    73
1070
     0
1070
   171
1070
     4
1070
   274
1070
     4
1070
   177
1070
     7
1070
   176
1070
     7
1070
   178
1070
     7
1070
    78
1070
     8
1070
    48
1040
-0.005
1070
    41
1041
3.175
1070
   147
1041
1.500003
1070
    42
1041
1.5875
1070
    44
1041
3.175
1070
   140
1041
3.000007
1070
   343
1005
0
1070
   344
1005
0
1002
}
0
DIMENSION
5
145
100
AcDbEntity
8
SK2
62
256
6
ByLayer
370
18
48
1
60
0
100
AcDbDimension
2
DimnDraft3D3
10
163.325609
20
-16.910625
30
0
11
163.325609
21
-7.691014
31
0
70
32
71
5
72
1
41
1
210
0
220
0
230
1
3
Standard
100
AcDbAlignedDimension
13
149.6575
23
16.910625
33
0
14
149.6575
24
-16.910625
34
0
50
90
100
AcDbRotatedDimension
1001
ACAD
1000
DSTYLE
1002
{
1070
    74
1070
     0
1070
   279
1070
     0
1070
   172
1070
     1
1070
   173
1070
     1
1070
   340
1005
126
1070
   271
1070
     3
1070
   272
1070
     3
1070
    77
1070
     1
1070
    73
1070
     0
1070
   171
1070
     4
1070
   274
1070
     4
1070
   177
1070
     7
1070
   176
1070
     7
1070
   178
1070
     7
1070
    78
1070
     8
1070
    48
1040
-0.005
1070
    41
1041
3.175
1070
   147
1041
1.500003
1070
    42
1041
1.5875
1070
    44
1041
3.175
1070
   140
1041
3.000007
1070
   343
1005
0
1070
   344
1005
0
1002
}
0
DIMENSION
5
14F
100
AcDbEntity
8
SK2
62
256
6
ByLayer
370
13
48
1
60
0
100
AcDbDimension
2
DimnDraft3D4
10
148.07
20
53.927423
30
0
11
121.100708
21
53.927423
31
0
70
32
71
5
72
1
41
1
210
0
220
0
230
1
3
Standard
100
AcDbAlignedDimension
13
101.4864
23
32.2072
33
0
14
148.07
24
27.741348
34
0
50
0
100
AcDbRotatedDimension
1001
ACAD
1000
DSTYLE
1002
{
1070
   279
1070
     0
1070
   172
1070
     1
1070
   173
1070
     1
1070
   340
1005
126
1070
   271
1070
     1
1070
   272
1070
     3
1070
    77
1070
     1
1070
    73
1070
     0
1070
   171
1070
     4
1070
   274
1070
     4
1070
   177
1070
     7
1070
   176
1070
     7
1070
   178
1070
     7
1070
    78
1070
     8
1070
    48
1040
-0.005
1070
    41
1041
3.175
1070
   147
1041
1.500003
1070
    42
1041
1.5875
1070
    44
1041
3.175
1070
   140
1041
3.000007
1070
   343
1005
0
1070
   344
1005
0
1002
}
0
DIMENSION
5
159
100
AcDbEntity
8
SK2
62
256
6
ByLayer
370
13
48
1
60
0
100
AcDbDimension
2
DimnDraft3D5
10
148.07
20
42.63703
30
0
11
131.795551
21
42.63703
31
0
70
32
71
5
72
1
41
1
210
0
220
0
230
1
3
Standard
100
AcDbAlignedDimension
13
122.5602
23
32.4275
33
0
14
148.07
24
27.741348
34
0
50
0
100
AcDbRotatedDimension
1001
ACAD
1000
DSTYLE
1002
{
1070
   279
1070
     0
1070
   172
1070
     1
1070
   173
1070
     1
1070
   340
1005
126
1070
   271
1070
     1
1070
   272
1070
     3
1070
    77
1070
     1
1070
    73
1070
     0
1070
   171
1070
     4
1070
   274
1070
     4
1070
   177
1070
     7
1070
   176
1070
     7
1070
   178
1070
     7
1070
    78
1070
     8
1070
    48
1040
-0.005
1070
    41
1041
3.175
1070
   147
1041
1.500003
1070
    42
1041
1.5875
1070
    44
1041
3.175
1070
   140
1041
3.000007
1070
   343
1005
0
1070
   344
1005
0
1002
}
0
DIMENSION
5
167
100
AcDbEntity
8
SK2
62
256
6
ByLayer
370
13
48
1
60
0
100
AcDbDimension
2
DimnDraft3D6
10
-50.513151
20
31.5
30
0
11
-50.513151
21
-4.073684
31
0
70
32
71
5
72
1
41
1
210
0
220
0
230
1
3
Standard
100
AcDbAlignedDimension
13
-1.2
23
-31.5
33
0
14
-1.2
24
31.5
34
0
50
90
100
AcDbRotatedDimension
1001
ACAD
1000
DSTYLE
1002
{
1070
    74
1070
     0
1070
   279
1070
     0
1070
   173
1070
     1
1070
   340
1005
126
1070
   271
1070
     0
1070
   272
1070
     2
1070
    77
1070
     1
1070
    73
1070
     0
1070
   171
1070
     4
1070
   274
1070
     4
1070
   177
1070
     7
1070
   176
1070
     7
1070
   178
1070
     7
1070
    41
1041
3.0
1070
   147
1041
1.5
1070
    42
1041
1.5
1070
    44
1041
3.0
1070
   140
1041
3.0
1070
   343
1005
168
1070
   344
1005
168
1002
}
0
DIMENSION
5
178
100
AcDbEntity
8
SK2
62
256
6
ByLayer
370
13
48
1
60
0
100
AcDbDimension
2
DimnDraft3D7
10
148.07
20
77.840366
30
0
11
69.986708
21
77.840366
31
0
70
32
71
5
72
1
41
1
210
0
220
0
230
1
3
Standard
100
AcDbAlignedDimension
13
0
23
32.7875
33
0
14
148.07
24
27.741348
34
0
50
0
100
AcDbRotatedDimension
1001
ACAD
1000
DSTYLE
1002
{
1070
   279
1070
     0
1070
   172
1070
     1
1070
   173
1070
     1
1070
   340
1005
126
1070
   271
1070
     1
1070
   272
1070
     3
1070
    77
1070
     1
1070
    73
1070
     0
1070
   171
1070
     4
1070
   274
1070
     4
1070
   177
1070
     7
1070
   176
1070
     7
1070
   178
1070
     7
1070
    78
1070
     8
1070
    48
1040
-0.005
1070
    41
1041
3.175
1070
   147
1041
1.500003
1070
    42
1041
1.5875
1070
    44
1041
3.175
1070
   140
1041
3.000007
1070
   343
1005
0
1070
   344
1005
0
1002
}
0
DIMENSION
5
182
100
AcDbEntity
8
SK2
62
256
6
ByLayer
370
13
48
1
60
0
100
AcDbDimension
2
DimnDraft3D8
10
148.07
20
65.968336
30
0
11
81.144675
21
65.968336
31
0
70
32
71
5
72
1
41
1
210
0
220
0
230
1
3
Standard
100
AcDbAlignedDimension
13
22.000048
23
32.5875
33
0
14
148.07
24
27.741348
34
0
50
0
100
AcDbRotatedDimension
1001
ACAD
1000
DSTYLE
1002
{
1070
   279
1070
     0
1070
   172
1070
     1
1070
   173
1070
     1
1070
   340
1005
126
1070
   271
1070
     1
1070
   272
1070
     3
1070
    77
1070
     1
1070
    73
1070
     0
1070
   171
1070
     4
1070
   274
1070
     4
1070
   177
1070
     7
1070
   176
1070
     7
1070
   178
1070
     7
1070
    78
1070
     8
1070
    48
1040
-0.005
1070
    41
1041
3.175
1070
   147
1041
1.500003
1070
    42
1041
1.5875
1070
    44
1041
3.175
1070
   140
1041
3.000007
1070
   343
1005
0
1070
   344
1005
0
1002
}
0
DIMENSION
5
18D
100
AcDbEntity
8
2
62
256
6
ByLayer
370
13
48
1
60
0
100
AcDbDimension
2
DimnDraft3D9
10
136.6602
20
-49.824784
30
0
11
64.062985
21
-49.824784
31
0
70
32
71
5
72
1
41
1
210
0
220
0
230
1
3
Standard
100
AcDbAlignedDimension
13
0
23
-32.7875
33
0
14
136.6602
24
-25.3111
34
0
50
0
100
AcDbRotatedDimension
1001
ACAD
1000
DSTYLE
1002
{
1070
   279
1070
     0
1070
   172
1070
     1
1070
   173
1070
     1
1070
   340
1005
126
1070
   271
1070
     1
1070
   272
1070
     3
1070
    77
1070
     1
1070
    73
1070
     0
1070
   171
1070
     4
1070
   274
1070
     4
1070
   177
1070
     7
1070
   176
1070
     7
1070
   178
1070
     7
1070
    78
1070
     8
1070
    48
1040
-0.005
1070
    41
1041
3.175
1070
   147
1041
1.500003
1070
    42
1041
1.5875
1070
    44
1041
3.175
1070
   140
1041
3.000007
1070
   343
1005
0
1070
   344
1005
0
1002
}
0
ENDSEC
0
SECTION
2
OBJECTS
0
DICTIONARY
5
1fb
330
0
100
AcDbDictionary
280
0
281
1
3
ACAD_GROUP
350
1fc
3
ACAD_GROUP
350
1fd
3
ACAD_MLINESTYLE
350
1fe
0
DICTIONARY
5
1fc
330
0
100
AcDbDictionary
280
0
281
1
0
DICTIONARY
5
1fd
330
0
100
AcDbDictionary
280
0
281
1
3
<112004386MOD000_01>
350
196
0
DICTIONARY
5
1fe
330
0
100
AcDbDictionary
280
0
281
1
3
Standard
350
18
0
GROUP
5
196
330
1fd
100
AcDbGroup
300

70
0
71
1
340
6C
340
6E
340
70
340
72
340
74
340
75
340
76
340
78
340
79
340
7A
340
7B
340
7C
340
7D
340
7E
340
7F
340
80
340
81
340
82
340
83
340
84
340
85
340
86
340
87
340
88
340
89
340
8A
340
8B
340
8C
340
8D
340
8E
340
8F
340
90
340
91
340
92
340
93
340
94
340
95
340
96
340
97
340
98
340
99
340
9A
340
9B
340
9C
340
9D
340
9E
340
9F
340
A0
340
A1
340
A2
340
A3
340
A4
340
A5
340
A6
340
A7
340
A8
340
AA
340
AB
340
AC
340
AD
340
AE
340
AF
340
B0
340
B1
340
B2
340
B3
340
B4
340
B5
340
B6
340
B7
340
B8
340
B9
340
BA
340
BB
340
BC
340
BD
340
BE
340
BF
340
C0
340
C1
340
C2
340
C4
340
C5
340
C6
340
C7
340
C8
340
C9
340
CA
340
CB
340
CC
340
CD
340
CE
340
CF
340
D0
340
D1
340
D2
340
D3
340
D4
340
D5
340
D6
340
D7
340
D8
340
D9
340
DA
340
DB
340
DC
340
DD
340
DE
340
DF
340
E0
340
E1
340
E2
340
E3
340
E4
340
E5
340
E6
340
E7
340
E8
340
E9
340
EA
340
EB
340
EC
340
ED
340
EE
340
EF
340
F1
340
F2
340
F3
340
F4
340
F5
340
F6
340
F7
340
F8
340
F9
340
FA
340
FB
340
FC
340
FD
340
FE
340
FF
340
100
340
101
340
102
340
103
340
104
340
105
340
106
340
107
340
108
340
109
340
10A
340
10B
340
10C
340
10D
340
10E
340
10F
340
110
340
111
340
112
340
113
340
114
340
115
340
116
340
117
340
118
340
119
340
11A
340
11B
340
11C
340
11D
340
11E
340
11F
340
120
340
121
340
122
340
123
340
124
340
125
340
133
340
13B
340
145
340
14F
340
159
340
167
340
178
340
182
340
18D
0
MLINESTYLE
5
18
330
1fe
100
AcDbMlineStyle
2
Standard
70
0
3

62
256
51
90
52
90
71
2
49
-0.5
62
256
6
ByLayer
49
0.5
62
256
6
ByLayer
0
RASTERVARIABLES
5
1e7
330

100
AcDbRasterVariables
90
0
70
1
71
1
72
1
0
ENDSEC
0
EOF
