  0
SECTION
  2
HEADER
  9
$ACADVER
  1
AC1015
  9
$ACADMAINTVER
 70
     6
  9
$DWGCODEPAGE
  3
ANSI_1252
  9
$INSBASE
 10
0.0
 20
0.0
 30
0.0
  9
$EXTMIN
 10
0.0
 20
0.0
 30
0.0
  9
$EXTMAX
 10
297.0
 20
210.0
 30
0.0
  9
$LIMMIN
 10
0.0
 20
0.0
  9
$LIMMAX
 10
12.0
 20
9.0
  9
$ORTHOMODE
 70
     0
  9
$REGENMODE
 70
     1
  9
$FILLMODE
 70
     1
  9
$QTEXTMODE
 70
     0
  9
$MIRRTEXT
 70
     1
  9
$LTSCALE
 40
1.0
  9
$ATTMODE
 70
     1
  9
$TEXTSIZE
 40
0.2
  9
$TRACEWID
 40
0.05
  9
$TEXTSTYLE
  7
Standard
  9
$CLAYER
  8
0
  9
$CELTYPE
  6
ByLayer
  9
$CECOLOR
 62
   256
  9
$CELTSCALE
 40
1.0
  9
$DISPSILH
 70
     0
  9
$DIMSCALE
 40
1.0
  9
$DIMASZ
 40
0.18
  9
$DIMEXO
 40
0.0625
  9
$DIMDLI
 40
0.38
  9
$DIMRND
 40
0.0
  9
$DIMDLE
 40
0.0
  9
$DIMEXE
 40
0.18
  9
$DIMTP
 40
0.0
  9
$DIMTM
 40
0.0
  9
$DIMTXT
 40
0.18
  9
$DIMCEN
 40
0.09
  9
$DIMTSZ
 40
0.0
  9
$DIMTOL
 70
     0
  9
$DIMLIM
 70
     0
  9
$DIMTIH
 70
     1
  9
$DIMTOH
 70
     1
  9
$DIMSE1
 70
     0
  9
$DIMSE2
 70
     0
  9
$DIMTAD
 70
     0
  9
$DIMZIN
 70
     0
  9
$DIMBLK
  1

  9
$DIMASO
 70
     1
  9
$DIMSHO
 70
     1
  9
$DIMPOST
  1

  9
$DIMAPOST
  1

  9
$DIMALT
 70
     0
  9
$DIMALTD
 70
     2
  9
$DIMALTF
 40
25.4
  9
$DIMLFAC
 40
1.0
  9
$DIMTOFL
 70
     0
  9
$DIMTVP
 40
0.0
  9
$DIMTIX
 70
     0
  9
$DIMSOXD
 70
     0
  9
$DIMSAH
 70
     0
  9
$DIMBLK1
  1

  9
$DIMBLK2
  1

  9
$DIMSTYLE
  2
Standard
  9
$DIMCLRD
 70
     0
  9
$DIMCLRE
 70
     0
  9
$DIMCLRT
 70
     0
  9
$DIMTFAC
 40
1.0
  9
$DIMGAP
 40
0.09
  9
$DIMJUST
 70
     0
  9
$DIMSD1
 70
     0
  9
$DIMSD2
 70
     0
  9
$DIMTOLJ
 70
     1
  9
$DIMTZIN
 70
     0
  9
$DIMALTZ
 70
     0
  9
$DIMALTTZ
 70
     0
  9
$DIMUPT
 70
     0
  9
$DIMDEC
 70
     4
  9
$DIMTDEC
 70
     4
  9
$DIMALTU
 70
     2
  9
$DIMALTTD
 70
     2
  9
$DIMTXSTY
  7
Standard
  9
$DIMAUNIT
 70
     0
  9
$DIMADEC
 70
     0
  9
$DIMALTRND
 40
0.0
  9
$DIMAZIN
 70
     0
  9
$DIMDSEP
 70
    46
  9
$DIMATFIT
 70
     3
  9
$DIMFRAC
 70
     0
  9
$DIMLDRBLK
  1

  9
$DIMLUNIT
 70
     2
  9
$DIMLWD
 70
    -2
  9
$DIMLWE
 70
    -2
  9
$DIMTMOVE
 70
     0
  9
$LUNITS
 70
     2
  9
$LUPREC
 70
     4
  9
$SKETCHINC
 40
0.1
  9
$FILLETRAD
 40
0.5
  9
$AUNITS
 70
     0
  9
$AUPREC
 70
     0
  9
$MENU
  1
.
  9
$ELEVATION
 40
0.0
  9
$PELEVATION
 40
0.0
  9
$THICKNESS
 40
0.0
  9
$LIMCHECK
 70
     0
  9
$CHAMFERA
 40
0.5
  9
$CHAMFERB
 40
0.5
  9
$CHAMFERC
 40
1.0
  9
$CHAMFERD
 40
0.0
  9
$SKPOLY
 70
     0
  9
$TDCREATE
 40
2455758.475681528
  9
$TDUCREATE
 40
2455758.392348194
  9
$TDUPDATE
 40
2455758.475681539
  9
$TDUUPDATE
 40
2455758.392348206
  9
$TDINDWG
 40
0.0000000116
  9
$TDUSRTIMER
 40
0.0000000116
  9
$USRTIMER
 70
     1
  9
$ANGBASE
 50
0.0
  9
$ANGDIR
 70
     0
  9
$PDMODE
 70
     0
  9
$PDSIZE
 40
0.0
  9
$PLINEWID
 40
0.0
  9
$SPLFRAME
 70
     0
  9
$SPLINETYPE
 70
     6
  9
$SPLINESEGS
 70
     8
  9
$HANDSEED
  5
15A
  9
$SURFTAB1
 70
     6
  9
$SURFTAB2
 70
     6
  9
$SURFTYPE
 70
     6
  9
$SURFU
 70
     6
  9
$SURFV
 70
     6
  9
$UCSBASE
  2

  9
$UCSNAME
  2

  9
$UCSORG
 10
0.0
 20
0.0
 30
0.0
  9
$UCSXDIR
 10
1.0
 20
0.0
 30
0.0
  9
$UCSYDIR
 10
0.0
 20
1.0
 30
0.0
  9
$UCSORTHOREF
  2

  9
$UCSORTHOVIEW
 70
     0
  9
$UCSORGTOP
 10
0.0
 20
0.0
 30
0.0
  9
$UCSORGBOTTOM
 10
0.0
 20
0.0
 30
0.0
  9
$UCSORGLEFT
 10
0.0
 20
0.0
 30
0.0
  9
$UCSORGRIGHT
 10
0.0
 20
0.0
 30
0.0
  9
$UCSORGFRONT
 10
0.0
 20
0.0
 30
0.0
  9
$UCSORGBACK
 10
0.0
 20
0.0
 30
0.0
  9
$PUCSBASE
  2

  9
$PUCSNAME
  2

  9
$PUCSORG
 10
0.0
 20
0.0
 30
0.0
  9
$PUCSXDIR
 10
1.0
 20
0.0
 30
0.0
  9
$PUCSYDIR
 10
0.0
 20
1.0
 30
0.0
  9
$PUCSORTHOREF
  2

  9
$PUCSORTHOVIEW
 70
     0
  9
$PUCSORGTOP
 10
0.0
 20
0.0
 30
0.0
  9
$PUCSORGBOTTOM
 10
0.0
 20
0.0
 30
0.0
  9
$PUCSORGLEFT
 10
0.0
 20
0.0
 30
0.0
  9
$PUCSORGRIGHT
 10
0.0
 20
0.0
 30
0.0
  9
$PUCSORGFRONT
 10
0.0
 20
0.0
 30
0.0
  9
$PUCSORGBACK
 10
0.0
 20
0.0
 30
0.0
  9
$USERI1
 70
     0
  9
$USERI2
 70
     0
  9
$USERI3
 70
     0
  9
$USERI4
 70
     0
  9
$USERI5
 70
     0
  9
$USERR1
 40
16.5
  9
$USERR2
 40
0.0
  9
$USERR3
 40
0.0
  9
$USERR4
 40
0.0
  9
$USERR5
 40
0.0
  9
$WORLDVIEW
 70
     1
  9
$SHADEDGE
 70
     3
  9
$SHADEDIF
 70
    70
  9
$TILEMODE
 70
     1
  9
$MAXACTVP
 70
    64
  9
$PINSBASE
 10
0.0
 20
0.0
 30
0.0
  9
$PLIMCHECK
 70
     0
  9
$PEXTMIN
 10
1.00000000000000E+20
 20
1.00000000000000E+20
 30
1.00000000000000E+20
  9
$PEXTMAX
 10
-1.00000000000000E+20
 20
-1.00000000000000E+20
 30
-1.00000000000000E+20
  9
$PLIMMIN
 10
0.0
 20
0.0
  9
$PLIMMAX
 10
12.0
 20
9.0
  9
$UNITMODE
 70
     0
  9
$VISRETAIN
 70
     1
  9
$PLINEGEN
 70
     0
  9
$PSLTSCALE
 70
     1
  9
$TREEDEPTH
 70
  3020
  9
$CMLSTYLE
  2
Standard
  9
$CMLJUST
 70
     0
  9
$CMLSCALE
 40
1.0
  9
$PROXYGRAPHICS
 70
     1
  9
$MEASUREMENT
 70
     1
  9
$CELWEIGHT
370
    -1
  9
$ENDCAPS
280
     0
  9
$JOINSTYLE
280
     0
  9
$LWDISPLAY
290
     0
  9
$INSUNITS
 70
     1
  9
$HYPERLINKBASE
  1

  9
$STYLESHEET
  1

  9
$XEDIT
290
     1
  9
$CEPSNTYPE
380
     0
  9
$PSTYLEMODE
290
     1
  9
$FINGERPRINTGUID
  2
{4673E9AF-C697-417C-8FEE-CBA9BAB575ED}
  9
$VERSIONGUID
  2
{FAEB1C32-E019-11D5-929B-00C0DF256EC4}
  9
$EXTNAMES
290
     1
  9
$PSVPSCALE
 40
0.0
  9
$OLESTARTUP
290
     0
  0
ENDSEC
  0
SECTION
  2
CLASSES
  0
CLASS
  1
ACDBDICTIONARYWDFLT
  2
AcDbDictionaryWithDefault
  3
ObjectDBX Classes
 90
        0
280
     0
281
     0
  0
CLASS
  1
VISUALSTYLE
  2
AcDbVisualStyle
  3
ObjectDBX Classes
 90
     4095
280
     0
281
     0
  0
CLASS
  1

  2
exOdDbSpline
  3

 90
        0
280
     0
281
     1
  0
CLASS
  1
SCALE
  2
AcDbScale
  3
ObjectDBX Classes
 90
     1153
280
     0
281
     0
  0
CLASS
  1
DICTIONARYVAR
  2
AcDbDictionaryVar
  3
ObjectDBX Classes
 90
        0
280
     0
281
     0
  0
CLASS
  1
ACDBPLACEHOLDER
  2
AcDbPlaceHolder
  3
ObjectDBX Classes
 90
        0
280
     0
281
     0
  0
CLASS
  1
LAYOUT
  2
AcDbLayout
  3
ObjectDBX Classes
 90
        0
280
     0
281
     0
  0
ENDSEC
  0
SECTION
  2
TABLES
  0
TABLE
  2
VPORT
  5
8
330
0
100
AcDbSymbolTable
 70
     1
  0
VPORT
  5
29
330
8
100
AcDbSymbolTableRecord
100
AcDbViewportTableRecord
  2
*Active
 70
     0
 10
0.0
 20
0.0
 11
1.0
 21
1.0
 12
148.5
 22
105.0
 13
0.0
 23
0.0
 14
0.5
 24
0.5
 15
0.5
 25
0.5
 16
0.0
 26
0.0
 36
1.0
 17
0.0
 27
0.0
 37
0.0
 40
231.0
 41
1.60267857142857
 42
50.0
 43
0.0
 44
0.0
 50
0.0
 51
0.0
 71
     0
 72
   100
 73
     1
 74
     3
 75
     0
 76
     0
 77
     0
 78
     0
281
     0
 65
     1
110
0.0
120
0.0
130
0.0
111
1.0
121
0.0
131
0.0
112
0.0
122
1.0
132
0.0
 79
     0
146
0.0
  0
ENDTAB
  0
TABLE
  2
LTYPE
  5
5
330
0
100
AcDbSymbolTable
 70
    10
  0
LTYPE
  5
14
330
5
100
AcDbSymbolTableRecord
100
AcDbLinetypeTableRecord
  2
ByBlock
 70
     0
  3

 72
    65
 73
     0
 40
0.0
  0
LTYPE
  5
15
330
5
100
AcDbSymbolTableRecord
100
AcDbLinetypeTableRecord
  2
ByLayer
 70
     0
  3

 72
    65
 73
     0
 40
0.0
  0
LTYPE
  5
16
330
5
100
AcDbSymbolTableRecord
100
AcDbLinetypeTableRecord
  2
Continuous
 70
     0
  3
Solid line
 72
    65
 73
     0
 40
0.0
  0
LTYPE
  5
3B
330
5
100
AcDbSymbolTableRecord
100
AcDbLinetypeTableRecord
  2
DASHED
 70
     0
  3
Dashed
 72
    65
 73
     2
 40
15.0
 49
7.0
 74
     0
 49
-8.0
 74
     0
  0
LTYPE
  5
3C
330
5
100
AcDbSymbolTableRecord
100
AcDbLinetypeTableRecord
  2
DOTTED
 70
     0
  3
Dotted
 72
    65
 73
     2
 40
1.0
 49
0.0
 74
     0
 49
-1.0
 74
     0
  0
LTYPE
  5
3D
330
5
100
AcDbSymbolTableRecord
100
AcDbLinetypeTableRecord
  2
DOT_CENTER
 70
     0
  3
Dot_Center
 72
    65
 73
     4
 40
14.0
 49
12.0
 74
     0
 49
-1.0
 74
     0
 49
0.0
 74
     0
 49
-1.0
 74
     0
  0
LTYPE
  5
3E
330
5
100
AcDbSymbolTableRecord
100
AcDbLinetypeTableRecord
  2
LONG_DASHED
 70
     0
  3
Long_Dashed
 72
    65
 73
     2
 40
15.0
 49
10.0
 74
     0
 49
-5.0
 74
     0
  0
LTYPE
  5
3F
330
5
100
AcDbSymbolTableRecord
100
AcDbLinetypeTableRecord
  2
DASH_CENTER
 70
     0
  3
Dash_Center
 72
    65
 73
     4
 40
14.0
 49
11.0
 74
     0
 49
-1.0
 74
     0
 49
1.0
 74
     0
 49
-1.0
 74
     0
  0
LTYPE
  5
40
330
5
100
AcDbSymbolTableRecord
100
AcDbLinetypeTableRecord
  2
PHANTOM
 70
     0
  3
Phantom
 72
    65
 73
     6
 40
13.0
 49
10.0
 74
     0
 49
-1.0
 74
     0
 49
0.0
 74
     0
 49
-1.0
 74
     0
 49
0.0
 74
     0
 49
-1.0
 74
     0
  0
LTYPE
  5
41
330
5
100
AcDbSymbolTableRecord
100
AcDbLinetypeTableRecord
  2
CENTER_DASH_DASH
 70
     0
  3
Center_Dash_Dash
 72
    65
 73
     6
 40
14.0
 49
9.0
 74
     0
 49
-1.0
 74
     0
 49
1.0
 74
     0
 49
-1.0
 74
     0
 49
1.0
 74
     0
 49
-1.0
 74
     0
  0
LTYPE
  5
42
330
5
100
AcDbSymbolTableRecord
100
AcDbLinetypeTableRecord
  2
HIDDEN
 70
     0
  3
HIDDEN
 72
    65
 73
     2
 40
4.0
 49
2.0
 74
     0
 49
-2.0
 74
     0
  0
LTYPE
  5
43
330
5
100
AcDbSymbolTableRecord
100
AcDbLinetypeTableRecord
  2
CENTER
 70
     0
  3
CENTER
 72
    65
 73
     4
 40
13.0
 49
7.0
 74
     0
 49
-2.0
 74
     0
 49
2.0
 74
     0
 49
-2.0
 74
     0
  0
ENDTAB
  0
TABLE
  2
LAYER
  5
2
330
0
100
AcDbSymbolTable
 70
     7
  0
LAYER
  5
10
330
2
100
AcDbSymbolTableRecord
100
AcDbLayerTableRecord
  2
0
 70
     0
 62
     7
  6
Continuous
370
    -3
390
F
  0
LAYER
  5
44
330
2
100
AcDbSymbolTableRecord
100
AcDbLayerTableRecord
  2
ACHSEN
 70
     0
 62
     7
  6
Continuous
370
    -3
390
F
  0
LAYER
  5
45
330
2
100
AcDbSymbolTableRecord
100
AcDbLayerTableRecord
  2
DEFAULT_1
 70
     0
 62
     7
  6
Continuous
370
    -3
390
F
  0
LAYER
  5
46
330
2
100
AcDbSymbolTableRecord
100
AcDbLayerTableRecord
  2
DEFAULT_2
 70
     0
 62
     7
  6
Continuous
370
    -3
390
F
  0
LAYER
  5
47
330
2
100
AcDbSymbolTableRecord
100
AcDbLayerTableRecord
  2
FASEN
 70
     0
 62
     7
  6
Continuous
370
    -3
390
F
  0
LAYER
  5
48
330
2
100
AcDbSymbolTableRecord
100
AcDbLayerTableRecord
  2
RUNDUNGEN
 70
     0
 62
     7
  6
Continuous
370
    -3
390
F
  0
LAYER
  5
49
330
2
100
AcDbSymbolTableRecord
100
AcDbLayerTableRecord
  2
S_ACHSEN
 70
     0
 62
     7
  6
Continuous
370
    -3
390
F
  0
ENDTAB
  0
TABLE
  2
STYLE
  5
3
330
0
100
AcDbSymbolTable
 70
     2
  0
STYLE
  5
11
330
3
100
AcDbSymbolTableRecord
100
AcDbTextStyleTableRecord
  2
Standard
 70
     0
 40
0.0
 41
1.0
 50
0.0
 71
     0
 42
0.2
  3
txt
  4

  0
STYLE
  5
F0
330
3
100
AcDbSymbolTableRecord
100
AcDbTextStyleTableRecord
  2
CONVERTER_11
 70
     0
 40
0.0
 41
0.7
 50
0.0
 71
     0
 42
0.2
  3
txt.shx
  4

  0
ENDTAB
  0
TABLE
  2
VIEW
  5
6
330
0
100
AcDbSymbolTable
 70
     0
  0
ENDTAB
  0
TABLE
  2
UCS
  5
7
330
0
100
AcDbSymbolTable
 70
     0
  0
ENDTAB
  0
TABLE
  2
APPID
  5
9
330
0
100
AcDbSymbolTable
 70
     1
  0
APPID
  5
12
330
9
100
AcDbSymbolTableRecord
100
AcDbRegAppTableRecord
  2
ACAD
 70
     0
  0
ENDTAB
  0
TABLE
  2
DIMSTYLE
  5
A
330
0
100
AcDbSymbolTable
 70
     7
100
AcDbDimStyleTable
  0
DIMSTYLE
105
27
330
A
100
AcDbSymbolTableRecord
100
AcDbDimStyleTableRecord
  2
Standard
 70
     0
340
11
  0
DIMSTYLE
105
11D
102
{ACAD_REACTORS
330
11E
102
}
330
A
100
AcDbSymbolTableRecord
100
AcDbDimStyleTableRecord
  2
ME10_DIM_10
 70
     0
 41
3.5
 73
     0
 74
     0
 77
     1
 78
    12
140
3.5
172
     1
173
     1
176
     2
177
     2
178
     5
271
     2
340
F0
  0
DIMSTYLE
105
128
102
{ACAD_REACTORS
330
129
102
}
330
A
100
AcDbSymbolTableRecord
100
AcDbDimStyleTableRecord
  2
ME10_DIM_11
 70
     0
  3
{\Fgdt;n}<>
 41
3.5
 73
     0
 74
     0
 77
     1
 78
    12
140
3.5
172
     1
173
     1
176
     2
177
     2
178
     5
271
     2
340
F0
  0
DIMSTYLE
105
133
102
{ACAD_REACTORS
330
134
102
}
330
A
100
AcDbSymbolTableRecord
100
AcDbDimStyleTableRecord
  2
ME10_DIM_12
 70
     0
 41
3.5
 73
     0
 74
     0
 77
     1
 78
    12
140
3.5
172
     1
173
     1
176
     2
177
     2
178
     5
271
     2
340
F0
  0
DIMSTYLE
105
13E
102
{ACAD_REACTORS
330
13F
102
}
330
A
100
AcDbSymbolTableRecord
100
AcDbDimStyleTableRecord
  2
ME10_DIM_13
 70
     0
  3
{\Fgdt;n}<>
 41
3.5
 73
     0
 74
     0
 77
     1
 78
    12
140
3.5
172
     1
173
     1
176
     2
177
     2
178
     5
271
     2
340
F0
  0
DIMSTYLE
105
149
102
{ACAD_REACTORS
330
14A
102
}
330
A
100
AcDbSymbolTableRecord
100
AcDbDimStyleTableRecord
  2
ME10_DIM_14
 70
     0
 41
3.5
 73
     0
 74
     0
 77
     1
 78
    12
140
3.5
172
     1
173
     1
176
     2
177
     2
178
     5
271
     2
340
F0
  0
DIMSTYLE
105
154
102
{ACAD_REACTORS
330
155
102
}
330
A
100
AcDbSymbolTableRecord
100
AcDbDimStyleTableRecord
  2
ME10_DIM_15
 70
     0
 41
3.5
 73
     0
 74
     0
 77
     1
 78
    12
140
3.5
172
     1
173
     1
176
     2
177
     2
178
     5
271
     2
340
F0
  0
ENDTAB
  0
TABLE
  2
BLOCK_RECORD
  5
1
330
0
100
AcDbSymbolTable
 70
     7
  0
BLOCK_RECORD
  5
1F
330
1
100
AcDbSymbolTableRecord
100
AcDbBlockTableRecord
  2
*Model_Space
340
22
  0
BLOCK_RECORD
  5
1B
330
1
100
AcDbSymbolTableRecord
100
AcDbBlockTableRecord
  2
*Paper_Space
340
1E
  0
BLOCK_RECORD
  5
23
330
1
100
AcDbSymbolTableRecord
100
AcDbBlockTableRecord
  2
*Paper_Space0
340
26
  0
BLOCK_RECORD
  5
114
330
1
100
AcDbSymbolTableRecord
100
AcDbBlockTableRecord
  2
*D1
340
0
  0
BLOCK_RECORD
  5
11F
330
1
100
AcDbSymbolTableRecord
100
AcDbBlockTableRecord
  2
*D2
340
0
  0
BLOCK_RECORD
  5
12A
330
1
100
AcDbSymbolTableRecord
100
AcDbBlockTableRecord
  2
*D3
340
0
  0
BLOCK_RECORD
  5
135
330
1
100
AcDbSymbolTableRecord
100
AcDbBlockTableRecord
  2
*D4
340
0
  0
BLOCK_RECORD
  5
140
330
1
100
AcDbSymbolTableRecord
100
AcDbBlockTableRecord
  2
*D5
340
0
  0
BLOCK_RECORD
  5
14B
330
1
100
AcDbSymbolTableRecord
100
AcDbBlockTableRecord
  2
*D6
340
0
  0
ENDTAB
  0
ENDSEC
  0
SECTION
  2
BLOCKS
  0
BLOCK
  5
20
330
1F
100
AcDbEntity
  8
0
100
AcDbBlockBegin
  2
*Model_Space
 70
     0
 10
0.0
 20
0.0
 30
0.0
  3
*Model_Space
  1

  0
ENDBLK
  5
21
330
1F
100
AcDbEntity
  8
0
100
AcDbBlockEnd
  0
BLOCK
  5
1C
330
1B
100
AcDbEntity
 67
     1
  8
0
100
AcDbBlockBegin
  2
*Paper_Space
 70
     0
 10
0.0
 20
0.0
 30
0.0
  3
*Paper_Space
  1

  0
ENDBLK
  5
1D
330
1B
100
AcDbEntity
 67
     1
  8
0
100
AcDbBlockEnd
  0
BLOCK
  5
24
330
23
100
AcDbEntity
  8
0
100
AcDbBlockBegin
  2
*Paper_Space0
 70
     0
 10
0.0
 20
0.0
 30
0.0
  3
*Paper_Space0
  1

  0
ENDBLK
  5
25
330
23
100
AcDbEntity
  8
0
100
AcDbBlockEnd
  0
BLOCK
  5
11B
330
114
100
AcDbEntity
  8
0
100
AcDbBlockBegin
  2
*D1
 70
     1
 10
0.0
 20
0.0
 30
0.0
  3
*D1
  1

  0
LINE
  5
115
330
114
100
AcDbEntity
  8
0
  6
Continuous
 62
     2
100
AcDbLine
 10
123.379530883
 20
174.4665727636
 30
0.0
 11
253.379530883
 21
174.4665727636
 31
0.0
  0
LINE
  5
116
330
114
100
AcDbEntity
  8
0
  6
Continuous
 62
     2
100
AcDbLine
 10
123.379530883
 20
156.7776492798
 30
0.0
 11
123.379530883
 21
174.6465727636
 31
0.0
  0
LINE
  5
117
330
114
100
AcDbEntity
  8
0
  6
Continuous
 62
     2
100
AcDbLine
 10
253.379530883
 20
129.6474836905
 30
0.0
 11
253.379530883
 21
174.6465727636
 31
0.0
  0
SOLID
  5
118
330
114
100
AcDbEntity
  8
0
 62
     2
100
AcDbTrace
 10
249.879530883
 20
174.0057890220441
 30
0.0
 11
249.879530883
 21
174.9273565051559
 31
0.0
 12
253.379530883
 22
174.4665727636
 32
0.0
 13
253.379530883
 23
174.4665727636
 33
0.0
  0
SOLID
  5
119
330
114
100
AcDbEntity
  8
0
 62
     2
100
AcDbTrace
 10
126.879530883
 20
174.9273565051559
 30
0.0
 11
126.879530883
 21
174.0057890220441
 31
0.0
 12
123.379530883
 22
174.4665727636
 32
0.0
 13
123.379530883
 23
174.4665727636
 33
0.0
  0
MTEXT
  5
11A
330
114
100
AcDbEntity
  8
0
 62
     5
100
AcDbMText
 10
185.366030883
 20
177.0915727636
 30
0.0
 40
3.5
 41
0.0
 71
     7
 72
     1
  1
130
  7
CONVERTER_11
 11
0.9999999999970619
 21
2.424068405545306E-6
 31
0.0
 73
     1
 44
0.60024009603842
  0
ENDBLK
  5
11C
330
114
100
AcDbEntity
  8
0
100
AcDbBlockEnd
  0
BLOCK
  5
126
330
11F
100
AcDbEntity
  8
0
100
AcDbBlockBegin
  2
*D2
 70
     1
 10
0.0
 20
0.0
 30
0.0
  3
*D2
  1

  0
LINE
  5
120
330
11F
100
AcDbEntity
  8
0
  6
Continuous
 62
     2
100
AcDbLine
 10
265.3865683369
 20
125.5740853056
 30
0.0
 11
265.3865683369
 21
109.5740853056
 31
0.0
  0
LINE
  5
121
330
11F
100
AcDbEntity
  8
0
  6
Continuous
 62
     2
100
AcDbLine
 10
244.342030883
 20
125.5740853056
 30
0.0
 11
265.5665683369
 21
125.5740853056
 31
0.0
  0
LINE
  5
122
330
11F
100
AcDbEntity
  8
0
  6
Continuous
 62
     2
100
AcDbLine
 10
244.342030883
 20
109.5740853056
 30
0.0
 11
265.5665683369
 21
109.5740853056
 31
0.0
  0
SOLID
  5
123
330
11F
100
AcDbEntity
  8
0
 62
     2
100
AcDbTrace
 10
264.9257845953441
 20
113.0740853056
 30
0.0
 11
265.8473520784559
 21
113.0740853056
 31
0.0
 12
265.3865683369
 22
109.5740853056
 32
0.0
 13
265.3865683369
 23
109.5740853056
 33
0.0
  0
SOLID
  5
124
330
11F
100
AcDbEntity
  8
0
 62
     2
100
AcDbTrace
 10
265.8473520784559
 20
122.0740853056
 30
0.0
 11
264.9257845953441
 21
122.0740853056
 31
0.0
 12
265.3865683369
 22
125.5740853056
 32
0.0
 13
265.3865683369
 23
125.5740853056
 33
0.0
  0
MTEXT
  5
125
330
11F
100
AcDbEntity
  8
0
 62
     5
100
AcDbMText
 10
262.7615683369
 20
109.9685853056
 30
0.0
 40
3.5
 41
0.0
 71
     7
 72
     1
  1
\C5;{\Fgdt;n}\C5;16
  7
CONVERTER_11
 11
0.0
 21
1.0
 31
0.0
 73
     1
 44
0.60024009603842
  0
ENDBLK
  5
127
330
11F
100
AcDbEntity
  8
0
100
AcDbBlockEnd
  0
BLOCK
  5
131
330
12A
100
AcDbEntity
  8
0
100
AcDbBlockBegin
  2
*D3
 70
     1
 10
0.0
 20
0.0
 30
0.0
  3
*D3
  1

  0
LINE
  5
12B
330
12A
100
AcDbEntity
  8
0
  6
Continuous
 62
     2
100
AcDbLine
 10
123.379530883
 20
165.6478238385
 30
0.0
 11
242.779530883
 21
165.6478238385
 31
0.0
  0
LINE
  5
12C
330
12A
100
AcDbEntity
  8
0
  6
Continuous
 62
     2
100
AcDbLine
 10
123.379530883
 20
150.4628794913
 30
0.0
 11
123.379530883
 21
165.8278238385
 31
0.0
  0
LINE
  5
12D
330
12A
100
AcDbEntity
  8
0
  6
Continuous
 62
     2
100
AcDbLine
 10
242.779530883
 20
108.2990853056
 30
0.0
 11
242.779530883
 21
165.8278238385
 31
0.0
  0
SOLID
  5
12E
330
12A
100
AcDbEntity
  8
0
 62
     2
100
AcDbTrace
 10
239.279530883
 20
165.1870400969441
 30
0.0
 11
239.279530883
 21
166.1086075800559
 31
0.0
 12
242.779530883
 22
165.6478238385
 32
0.0
 13
242.779530883
 23
165.6478238385
 33
0.0
  0
SOLID
  5
12F
330
12A
100
AcDbEntity
  8
0
 62
     2
100
AcDbTrace
 10
126.879530883
 20
166.1086075800559
 30
0.0
 11
126.879530883
 21
165.1870400969441
 31
0.0
 12
123.379530883
 22
165.6478238385
 32
0.0
 13
123.379530883
 23
165.6478238385
 33
0.0
  0
MTEXT
  5
130
330
12A
100
AcDbEntity
  8
0
 62
     5
100
AcDbMText
 10
178.057030883
 20
168.2728238385
 30
0.0
 40
3.5
 41
0.0
 71
     7
 72
     1
  1
119.4
  7
CONVERTER_11
 11
0.9999999999970619
 21
2.424068405545306E-6
 31
0.0
 73
     1
 44
0.60024009603842
  0
ENDBLK
  5
132
330
12A
100
AcDbEntity
  8
0
100
AcDbBlockEnd
  0
BLOCK
  5
13C
330
135
100
AcDbEntity
  8
0
100
AcDbBlockBegin
  2
*D4
 70
     1
 10
0.0
 20
0.0
 30
0.0
  3
*D4
  1

  0
LINE
  5
136
330
135
100
AcDbEntity
  8
0
  6
Continuous
 62
     2
100
AcDbLine
 10
273.9987556045
 20
103.5990853056
 30
0.0
 11
273.9987556045
 21
131.5490853056
 31
0.0
  0
LINE
  5
137
330
135
100
AcDbEntity
  8
0
  6
Continuous
 62
     2
100
AcDbLine
 10
226.704530883
 20
103.5990853056
 30
0.0
 11
274.1787556045
 21
103.5990853056
 31
0.0
  0
LINE
  5
138
330
135
100
AcDbEntity
  8
0
  6
Continuous
 62
     2
100
AcDbLine
 10
226.704530883
 20
131.5490853056
 30
0.0
 11
274.1787556045
 21
131.5490853056
 31
0.0
  0
SOLID
  5
139
330
135
100
AcDbEntity
  8
0
 62
     2
100
AcDbTrace
 10
274.4595393460559
 20
128.0490853056
 30
0.0
 11
273.5379718629441
 21
128.0490853056
 31
0.0
 12
273.9987556045
 22
131.5490853056
 32
0.0
 13
273.9987556045
 23
131.5490853056
 33
0.0
  0
SOLID
  5
13A
330
135
100
AcDbEntity
  8
0
 62
     2
100
AcDbTrace
 10
273.5379718629441
 20
107.0990853056
 30
0.0
 11
274.4595393460559
 21
107.0990853056
 31
0.0
 12
273.9987556045
 22
103.5990853056
 32
0.0
 13
273.9987556045
 23
103.5990853056
 33
0.0
  0
MTEXT
  5
13B
330
135
100
AcDbEntity
  8
0
 62
     5
100
AcDbMText
 10
271.3737556045
 20
109.9685853056
 30
0.0
 40
3.5
 41
0.0
 71
     7
 72
     1
  1
\C5;{\Fgdt;n}\C5;28
  7
CONVERTER_11
 11
0.0
 21
1.0
 31
0.0
 73
     1
 44
0.60024009603842
  0
ENDBLK
  5
13D
330
135
100
AcDbEntity
  8
0
100
AcDbBlockEnd
  0
BLOCK
  5
147
330
140
100
AcDbEntity
  8
0
100
AcDbBlockBegin
  2
*D5
 70
     1
 10
0.0
 20
0.0
 30
0.0
  3
*D5
  1

  0
LINE
  5
141
330
140
100
AcDbEntity
  8
0
  6
Continuous
 62
     2
100
AcDbLine
 10
85.37953088299999
 20
181.8938652535
 30
0.0
 11
242.779530883
 21
181.8938652535
 31
0.0
  0
LINE
  5
142
330
140
100
AcDbEntity
  8
0
  6
Continuous
 62
     2
100
AcDbLine
 10
85.37953088299999
 20
98.95046953629999
 30
0.0
 11
85.37953088299999
 21
182.0738652535
 31
0.0
  0
LINE
  5
143
330
140
100
AcDbEntity
  8
0
  6
Continuous
 62
     2
100
AcDbLine
 10
242.779530883
 20
108.2990853056
 30
0.0
 11
242.779530883
 21
182.0738652535
 31
0.0
  0
SOLID
  5
144
330
140
100
AcDbEntity
  8
0
 62
     2
100
AcDbTrace
 10
239.279530883
 20
181.4330815119441
 30
0.0
 11
239.279530883
 21
182.3546489950558
 31
0.0
 12
242.779530883
 22
181.8938652535
 32
0.0
 13
242.779530883
 23
181.8938652535
 33
0.0
  0
SOLID
  5
145
330
140
100
AcDbEntity
  8
0
 62
     2
100
AcDbTrace
 10
88.87953088299999
 20
182.3546489950559
 30
0.0
 11
88.87953088299999
 21
181.4330815119441
 31
0.0
 12
85.37953088299999
 22
181.8938652535
 32
0.0
 13
85.37953088299999
 23
181.8938652535
 33
0.0
  0
MTEXT
  5
146
330
140
100
AcDbEntity
  8
0
 62
     5
100
AcDbMText
 10
159.057030883
 20
184.5188652535
 30
0.0
 40
3.5
 41
0.0
 71
     7
 72
     1
  1
157.4
  7
CONVERTER_11
 11
0.9999999999970619
 21
2.424068405545306E-6
 31
0.0
 73
     1
 44
0.60024009603842
  0
ENDBLK
  5
148
330
140
100
AcDbEntity
  8
0
100
AcDbBlockEnd
  0
BLOCK
  5
152
330
14B
100
AcDbEntity
  8
0
100
AcDbBlockBegin
  2
*D6
 70
     1
 10
0.0
 20
0.0
 30
0.0
  3
*D6
  1

  0
LINE
  5
14C
330
14B
100
AcDbEntity
  8
0
  6
Continuous
 62
     2
100
AcDbLine
 10
145.379530883
 20
155.5384868281
 30
0.0
 11
242.779530883
 21
155.5384868281
 31
0.0
  0
LINE
  5
14D
330
14B
100
AcDbEntity
  8
0
  6
Continuous
 62
     2
100
AcDbLine
 10
145.379530883
 20
150.2289991288
 30
0.0
 11
145.379530883
 21
155.7184868281
 31
0.0
  0
LINE
  5
14E
330
14B
100
AcDbEntity
  8
0
  6
Continuous
 62
     2
100
AcDbLine
 10
242.779530883
 20
108.2990853056
 30
0.0
 11
242.779530883
 21
155.7184868281
 31
0.0
  0
SOLID
  5
14F
330
14B
100
AcDbEntity
  8
0
 62
     2
100
AcDbTrace
 10
239.279530883
 20
155.0777030865441
 30
0.0
 11
239.279530883
 21
155.9992705696559
 31
0.0
 12
242.779530883
 22
155.5384868281
 32
0.0
 13
242.779530883
 23
155.5384868281
 33
0.0
  0
SOLID
  5
150
330
14B
100
AcDbEntity
  8
0
 62
     2
100
AcDbTrace
 10
148.879530883
 20
155.9992705696559
 30
0.0
 11
148.879530883
 21
155.0777030865441
 31
0.0
 12
145.379530883
 22
155.5384868281
 32
0.0
 13
145.379530883
 23
155.5384868281
 33
0.0
  0
MTEXT
  5
151
330
14B
100
AcDbEntity
  8
0
 62
     5
100
AcDbMText
 10
190.061530883
 20
158.1634868281
 30
0.0
 40
3.5
 41
0.0
 71
     7
 72
     1
  1
97.4
  7
CONVERTER_11
 11
0.9999999999970619
 21
2.424068405545306E-6
 31
0.0
 73
     1
 44
0.60024009603842
  0
ENDBLK
  5
153
330
14B
100
AcDbEntity
  8
0
100
AcDbBlockEnd
  0
ENDSEC
  0
SECTION
  2
ENTITIES
  0
POINT
  5
4A
330
1F
100
AcDbEntity
  8
0
 62
     7
100
AcDbPoint
 10
123.379530883
 20
156.7151492798
 30
0.0
  0
POINT
  5
4B
330
1F
100
AcDbEntity
  8
0
 62
     7
100
AcDbPoint
 10
253.379530883
 20
129.5849836905
 30
0.0
  0
POINT
  5
4C
330
1F
100
AcDbEntity
  8
0
 62
     7
100
AcDbPoint
 10
244.279530883
 20
125.5740853056
 30
0.0
  0
POINT
  5
4D
330
1F
100
AcDbEntity
  8
0
 62
     7
100
AcDbPoint
 10
244.279530883
 20
109.5740853056
 30
0.0
  0
POINT
  5
4E
330
1F
100
AcDbEntity
  8
0
 62
     7
100
AcDbPoint
 10
123.379530883
 20
150.4003794913
 30
0.0
  0
POINT
  5
4F
330
1F
100
AcDbEntity
  8
0
 62
     7
100
AcDbPoint
 10
242.779530883
 20
108.2365853056
 30
0.0
  0
POINT
  5
50
330
1F
100
AcDbEntity
  8
0
 62
     7
100
AcDbPoint
 10
226.642030883
 20
103.5990853056
 30
0.0
  0
POINT
  5
51
330
1F
100
AcDbEntity
  8
0
 62
     7
100
AcDbPoint
 10
226.642030883
 20
131.5490853056
 30
0.0
  0
POINT
  5
52
330
1F
100
AcDbEntity
  8
0
 62
     7
100
AcDbPoint
 10
85.379530883
 20
98.8879695363
 30
0.0
  0
POINT
  5
53
330
1F
100
AcDbEntity
  8
0
 62
     7
100
AcDbPoint
 10
242.779530883
 20
108.2365853056
 30
0.0
  0
POINT
  5
54
330
1F
100
AcDbEntity
  8
0
 62
     7
100
AcDbPoint
 10
145.379530883
 20
150.1664991288
 30
0.0
  0
POINT
  5
55
330
1F
100
AcDbEntity
  8
0
 62
     7
100
AcDbPoint
 10
242.779530883
 20
108.2365853056
 30
0.0
  0
LINE
  5
56
330
1F
100
AcDbEntity
  8
DEFAULT_2
  6
HIDDEN
 62
     8
100
AcDbLine
 10
224.1016853618
 20
122.9490853056
 30
0.0
 11
224.1016853618
 21
112.1990853056
 31
0.0
  0
LINE
  5
57
330
1F
100
AcDbEntity
  8
0
  6
Continuous
 62
     7
100
AcDbLine
 10
121.3899325148
 20
94.1487004997
 30
0.0
 11
121.6325596339
 21
94.6973564303
 31
0.0
  0
LINE
  5
58
330
1F
100
AcDbEntity
  8
FASEN
  6
Continuous
 62
     7
100
AcDbLine
 10
130.1570872821
 20
149.074050794
 30
0.0
 11
130.4481704789
 21
149.0265239804
 31
0.0
  0
LINE
  5
59
330
1F
100
AcDbEntity
  8
ACHSEN
  6
Continuous
 62
     7
100
AcDbLine
 10
93.6581011686
 20
137.5027431108
 30
0.0
 11
93.6431797812267
 21
137.500641553249
 31
0.0
  0
LINE
  5
5A
330
1F
100
AcDbEntity
  8
ACHSEN
  6
Continuous
 62
     7
100
AcDbLine
 10
93.643150231
 20
137.5006373815
 30
0.0
 11
93.658101169
 21
137.5027431109
 31
0.0
  0
LINE
  5
5B
330
1F
100
AcDbEntity
  8
ACHSEN
  6
Continuous
 62
     7
100
AcDbLine
 10
93.5203019147
 20
137.4831247242
 30
0.0
 11
93.643150231
 21
137.5006373815
 31
0.0
  0
LINE
  5
5C
330
1F
100
AcDbEntity
  8
ACHSEN
  6
Continuous
 62
     7
100
AcDbLine
 10
91.7295308830351
 20
137.178136604208
 30
0.0
 11
86.879530883
 21
137.0710749192
 31
0.0
  0
LINE
  5
5D
330
1F
100
AcDbEntity
  8
FASEN
  6
Continuous
 62
     7
100
AcDbLine
 10
140.5632326963
 20
149.067593015
 30
0.0
 11
140.6019744839
 21
149.074050794
 31
0.0
  0
LINE
  5
5E
330
1F
100
AcDbEntity
  8
FASEN
  6
Continuous
 62
     7
100
AcDbLine
 10
130.195829069765
 20
149.067593014938
 30
0.0
 11
130.1570872821
 21
149.074050794
 31
0.0
  0
LINE
  5
5F
330
1F
100
AcDbEntity
  8
DEFAULT_1
  6
CENTER
 62
     5
100
AcDbLine
 10
251.379530883
 20
131.5490853056
 30
0.0
 11
253.379530883
 21
128.0849836905
 31
0.0
  0
LINE
  5
60
330
1F
100
AcDbEntity
  8
DEFAULT_1
  6
CENTER
 62
     5
100
AcDbLine
 10
253.379530883
 20
128.0849836905
 30
0.0
 11
253.379530883
 21
107.0631869208
 31
0.0
  0
LINE
  5
61
330
1F
100
AcDbEntity
  8
DEFAULT_1
  6
CENTER
 62
     5
100
AcDbLine
 10
251.379530883
 20
103.5990853056
 30
0.0
 11
253.379530883
 21
107.0631869208
 31
0.0
  0
LINE
  5
62
330
1F
100
AcDbEntity
  8
FASEN
  6
Continuous
 62
     7
100
AcDbLine
 10
242.779530883
 20
108.2365853056
 30
0.0
 11
242.779530883
 21
126.9115853052
 31
0.0
  0
LINE
  5
63
330
1F
100
AcDbEntity
  8
0
  6
Continuous
 62
     7
100
AcDbLine
 10
242.3508483082
 20
127.6540853056
 30
0.0
 11
242.3508483082
 21
107.4940853056
 31
0.0
  0
LINE
  5
64
330
1F
100
AcDbEntity
  8
FASEN
  6
Continuous
 62
     7
100
AcDbLine
 10
242.779530886
 20
126.9115853005
 30
0.0
 11
241.9135054827
 21
128.4115852997
 31
0.0
  0
LINE
  5
65
330
1F
100
AcDbEntity
  8
FASEN
  6
Continuous
 62
     7
100
AcDbLine
 10
241.9135054792
 20
106.7365853056
 30
0.0
 11
241.9135054792
 21
128.4115853056
 31
0.0
  0
LINE
  5
66
330
1F
100
AcDbEntity
  8
DEFAULT_1
  6
CENTER
 62
     5
100
AcDbLine
 10
245.4537551977
 20
107.4940853056
 30
0.0
 11
246.1214693672
 21
106.2830546391
 31
0.0
  0
LINE
  5
67
330
1F
100
AcDbEntity
  8
DEFAULT_1
  6
CENTER
 62
     5
100
AcDbLine
 10
249.4207629111
 20
128.8651159722
 30
0.0
 11
253.379530883
 21
125.2908812997
 31
0.0
  0
LINE
  5
68
330
1F
100
AcDbEntity
  8
FASEN
  6
Continuous
 62
     7
100
AcDbLine
 10
242.7795308863
 20
108.2365853113
 30
0.0
 11
241.9135054831
 21
106.7365853123
 31
0.0
  0
LINE
  5
69
330
1F
100
AcDbEntity
  8
DEFAULT_1
  6
CENTER
 62
     5
100
AcDbLine
 10
235.379530883
 20
128.4115853056
 30
0.0
 11
235.379530883
 21
129.5490853056
 31
0.0
  0
LINE
  5
6A
330
1F
100
AcDbEntity
  8
DEFAULT_1
  6
CENTER
 62
     5
100
AcDbLine
 10
235.379530883
 20
105.5990853056
 30
0.0
 11
235.379530883
 21
106.7365853056
 31
0.0
  0
LINE
  5
6B
330
1F
100
AcDbEntity
  8
0
  6
Continuous
 62
     7
100
AcDbLine
 10
230.279530883
 20
128.4115853056
 30
0.0
 11
230.279530883
 21
106.7365853056
 31
0.0
  0
LINE
  5
6C
330
1F
100
AcDbEntity
  8
DEFAULT_1
  6
CENTER
 62
     5
100
AcDbLine
 10
249.4207629111
 20
106.2830546391
 30
0.0
 11
253.379530883
 21
109.8572893116
 31
0.0
  0
LINE
  5
6D
330
1F
100
AcDbEntity
  8
DEFAULT_1
  6
CENTER
 62
     5
100
AcDbLine
 10
245.4537551977
 20
127.6540853056
 30
0.0
 11
246.1214693672
 21
128.8651159722
 31
0.0
  0
LINE
  5
6E
330
1F
100
AcDbEntity
  8
RUNDUNGEN
  6
Continuous
 62
     9
100
AcDbLine
 10
228.6937444454
 20
128.4115853056
 30
0.0
 11
228.6937444454
 21
106.7365853056
 31
0.0
  0
LINE
  5
6F
330
1F
100
AcDbEntity
  8
RUNDUNGEN
  6
Continuous
 62
     9
100
AcDbLine
 10
227.9866376642
 20
128.7044785244
 30
0.0
 11
227.9866376642
 21
106.4436920868
 31
0.0
  0
LINE
  5
70
330
1F
100
AcDbEntity
  8
RUNDUNGEN
  6
Continuous
 62
     9
100
AcDbLine
 10
225.4349241018
 20
103.8919785244
 30
0.0
 11
225.4349241018
 21
131.2561920868
 31
0.0
  0
LINE
  5
71
330
1F
100
AcDbEntity
  8
RUNDUNGEN
  6
Continuous
 62
     9
100
AcDbLine
 10
224.7278173207
 20
103.5990853056
 30
0.0
 11
224.7278173207
 21
131.5490853056
 31
0.0
  0
LINE
  5
72
330
1F
100
AcDbEntity
  8
0
  6
Continuous
 62
     7
100
AcDbLine
 10
225.4349241018
 20
131.2561920868
 30
0.0
 11
227.9866376642
 21
128.7044785244
 31
0.0
  0
LINE
  5
73
330
1F
100
AcDbEntity
  8
DEFAULT_2
  6
HIDDEN
 62
     8
100
AcDbLine
 10
220.279530883
 20
122.9490853056
 30
0.0
 11
220.279530883
 21
112.1990853056
 31
0.0
  0
LINE
  5
74
330
1F
100
AcDbEntity
  8
0
  6
Continuous
 62
     7
100
AcDbLine
 10
225.4349241018
 20
103.8919785244
 30
0.0
 11
227.9866376642
 21
106.4436920868
 31
0.0
  0
LINE
  5
75
330
1F
100
AcDbEntity
  8
RUNDUNGEN
  6
Continuous
 62
     7
100
AcDbLine
 10
227.9866376642
 20
106.4436920868
 30
0.0
 11
225.4349241018
 21
103.8919785244
 31
0.0
  0
LINE
  5
76
330
1F
100
AcDbEntity
  8
0
  6
Continuous
 62
     7
100
AcDbLine
 10
130.1576198548
 20
149.0740853056
 30
0.0
 11
123.6795309554
 21
149.0740853056
 31
0.0
  0
LINE
  5
77
330
1F
100
AcDbEntity
  8
0
  6
Continuous
 62
     7
100
AcDbLine
 10
145.379530883
 20
149.0740853056
 30
0.0
 11
140.6014419112
 21
149.0740853056
 31
0.0
  0
LINE
  5
78
330
1F
100
AcDbEntity
  8
0
  6
Continuous
 62
     7
100
AcDbLine
 10
136.8408557484
 20
147.6546780659
 30
0.0
 11
133.9182060176
 21
147.6546780659
 31
0.0
  0
LINE
  5
79
330
1F
100
AcDbEntity
  8
0
  6
Continuous
 62
     7
100
AcDbLine
 10
121.6325596339
 20
132.2638567383
 30
0.0
 11
121.3845539941
 21
132.2590275104
 31
0.0
  0
LINE
  5
7A
330
1F
100
AcDbEntity
  8
0
  6
Continuous
 62
     9
100
AcDbLine
 10
86.879530883
 20
133.2853299443
 30
0.0
 11
121.1795939721
 21
134.0316160543
 31
0.0
  0
LINE
  5
7B
330
1F
100
AcDbEntity
  8
0
  6
Continuous
 62
     7
100
AcDbLine
 10
112.5588922163
 20
137.977603641
 30
0.0
 11
121.1795939721
 21
138.1941856752
 31
0.0
  0
LINE
  5
7C
330
1F
100
AcDbEntity
  8
0
  6
Continuous
 62
     7
100
AcDbLine
 10
93.6431356371
 20
137.5023739958
 30
0.0
 11
103.429530883
 21
137.7482423078
 31
0.0
  0
LINE
  5
7D
330
1F
100
AcDbEntity
  8
0
  6
Continuous
 62
     7
100
AcDbLine
 10
121.3845539941
 20
137.9992718754
 30
0.0
 11
122.9845539941
 21
138.0394694445
 31
0.0
  0
LINE
  5
7E
330
1F
100
AcDbEntity
  8
DEFAULT_1
  6
CENTER
 62
     5
100
AcDbLine
 10
237.379530883
 20
131.5490853056
 30
0.0
 11
251.379530883
 21
131.5490853056
 31
0.0
  0
LINE
  5
7F
330
1F
100
AcDbEntity
  8
0
  6
Continuous
 62
     7
100
AcDbLine
 10
157.879530883
 20
131.5490853056
 30
0.0
 11
224.7278173207
 21
131.5490853056
 31
0.0
  0
LINE
  5
80
330
1F
100
AcDbEntity
  8
DEFAULT_1
  6
CENTER
 62
     5
100
AcDbLine
 10
246.1214693672
 20
128.8651159722
 30
0.0
 11
249.4207629111
 21
128.8651159722
 31
0.0
  0
LINE
  5
81
330
1F
100
AcDbEntity
  8
0
  6
Continuous
 62
     7
100
AcDbLine
 10
228.6937444454
 20
128.4115853056
 30
0.0
 11
241.9135054792
 21
128.4115853056
 31
0.0
  0
LINE
  5
82
330
1F
100
AcDbEntity
  8
DEFAULT_1
  6
CENTER
 62
     5
100
AcDbLine
 10
242.3508483082
 20
127.6540853056
 30
0.0
 11
245.4537551977
 21
127.6540853056
 31
0.0
  0
LINE
  5
83
330
1F
100
AcDbEntity
  8
0
  6
Continuous
 62
     2
100
AcDbLine
 10
230.279530883
 20
127.6540853056
 30
0.0
 11
242.3508483082
 21
127.6540853056
 31
0.0
  0
LINE
  5
84
330
1F
100
AcDbEntity
  8
0
  6
Continuous
 62
     7
100
AcDbLine
 10
136.8408557484
 20
126.9233066201
 30
0.0
 11
133.9182060176
 21
126.9233066201
 31
0.0
  0
LINE
  5
85
330
1F
100
AcDbEntity
  8
DEFAULT_2
  6
HIDDEN
 62
     8
100
AcDbLine
 10
224.1016853618
 20
122.9490853056
 30
0.0
 11
220.279530883
 21
122.9490853056
 31
0.0
  0
LINE
  5
86
330
1F
100
AcDbEntity
  8
0
  6
Continuous
 62
     9
100
AcDbLine
 10
85.379530883
 20
122.7989564362
 30
0.0
 11
121.1795939721
 21
122.7989564362
 31
0.0
  0
LINE
  5
87
330
1F
100
AcDbEntity
  8
0
  6
Continuous
 62
     7
100
AcDbLine
 10
121.3845539941
 20
125.7600284924
 30
0.0
 11
121.6325596339
 21
125.7610427483
 31
0.0
  0
LINE
  5
88
330
1F
100
AcDbEntity
  8
DEFAULT_2
  6
HIDDEN
 62
     8
100
AcDbLine
 10
224.1016853618
 20
112.1990853056
 30
0.0
 11
242.2843968487
 21
109.6436718561
 31
0.0
  0
LINE
  5
89
330
1F
100
AcDbEntity
  8
FASEN
  6
HIDDEN
 62
     8
100
AcDbLine
 10
242.2843968487
 20
109.6436718561
 30
0.0
 11
224.1016853618
 21
112.1990853056
 31
0.0
  0
LINE
  5
8A
330
1F
100
AcDbEntity
  8
S_ACHSEN
  6
CENTER
 62
     7
100
AcDbLine
 10
82.379530883
 20
117.5740853056
 30
0.0
 11
256.379530883
 21
117.5740853056
 31
0.0
  0
LINE
  5
8B
330
1F
100
AcDbEntity
  8
DEFAULT_2
  6
HIDDEN
 62
     8
100
AcDbLine
 10
224.1016853618
 20
122.9490853056
 30
0.0
 11
242.2843968487
 21
125.5044987551
 31
0.0
  0
LINE
  5
8C
330
1F
100
AcDbEntity
  8
FASEN
  6
HIDDEN
 62
     8
100
AcDbLine
 10
242.2843968487
 20
125.5044987551
 30
0.0
 11
224.1016853618
 21
122.9490853056
 31
0.0
  0
LINE
  5
8D
330
1F
100
AcDbEntity
  8
DEFAULT_2
  6
HIDDEN
 62
     8
100
AcDbLine
 10
224.1016853618
 20
112.1990853056
 30
0.0
 11
220.279530883
 21
112.1990853056
 31
0.0
  0
LINE
  5
8E
330
1F
100
AcDbEntity
  8
0
  6
Continuous
 62
     7
100
AcDbLine
 10
136.8408557484
 20
108.2248639911
 30
0.0
 11
133.9182060176
 21
108.2248639911
 31
0.0
  0
LINE
  5
8F
330
1F
100
AcDbEntity
  8
DEFAULT_1
  6
CENTER
 62
     5
100
AcDbLine
 10
242.3508483082
 20
107.4940853056
 30
0.0
 11
245.4537551977
 21
107.4940853056
 31
0.0
  0
LINE
  5
90
330
1F
100
AcDbEntity
  8
0
  6
Continuous
 62
     2
100
AcDbLine
 10
230.279530883
 20
107.4940853056
 30
0.0
 11
242.3508483082
 21
107.4940853056
 31
0.0
  0
LINE
  5
91
330
1F
100
AcDbEntity
  8
0
  6
Continuous
 62
     7
100
AcDbLine
 10
228.6937444454
 20
106.7365853056
 30
0.0
 11
241.9135054792
 21
106.7365853056
 31
0.0
  0
LINE
  5
92
330
1F
100
AcDbEntity
  8
RUNDUNGEN
  6
Continuous
 62
     7
100
AcDbLine
 10
241.9135054792
 20
106.7365853056
 30
0.0
 11
228.6937444454
 21
106.7365853056
 31
0.0
  0
LINE
  5
93
330
1F
100
AcDbEntity
  8
DEFAULT_1
  6
CENTER
 62
     5
100
AcDbLine
 10
246.1214693672
 20
106.2830546391
 30
0.0
 11
249.4207629111
 21
106.2830546391
 31
0.0
  0
LINE
  5
94
330
1F
100
AcDbEntity
  8
0
  6
Continuous
 62
     7
100
AcDbLine
 10
157.879530883
 20
103.5990853056
 30
0.0
 11
224.7278173207
 21
103.5990853056
 31
0.0
  0
LINE
  5
95
330
1F
100
AcDbEntity
  8
RUNDUNGEN
  6
Continuous
 62
     7
100
AcDbLine
 10
224.7278173207
 20
103.5990853056
 30
0.0
 11
157.879530883
 21
103.5990853056
 31
0.0
  0
LINE
  5
96
330
1F
100
AcDbEntity
  8
DEFAULT_1
  6
CENTER
 62
     5
100
AcDbLine
 10
251.379530883
 20
103.5990853056
 30
0.0
 11
237.379530883
 21
103.5990853056
 31
0.0
  0
LINE
  5
97
330
1F
100
AcDbEntity
  8
RUNDUNGEN
  6
Continuous
 62
     9
100
AcDbLine
 10
157.879530883
 20
131.5490853056
 30
0.0
 11
157.879530883
 21
103.5990853056
 31
0.0
  0
LINE
  5
98
330
1F
100
AcDbEntity
  8
0
  6
Continuous
 62
     9
100
AcDbLine
 10
121.1795939721
 20
95.8916834264
 30
0.0
 11
86.879530883
 21
96.6379695363
 31
0.0
  0
LINE
  5
99
330
1F
100
AcDbEntity
  8
0
  6
Continuous
 62
     7
100
AcDbLine
 10
86.879530883
 20
95.0157219089
 30
0.0
 11
121.3899337058
 21
94.1487004698
 31
0.0
  0
LINE
  5
9A
330
1F
100
AcDbEntity
  8
0
  6
Continuous
 62
     7
100
AcDbLine
 10
121.6325596339
 20
94.6973564303
 30
0.0
 11
121.3845539941
 21
94.7031999141
 31
0.0
  0
LINE
  5
9B
330
1F
100
AcDbEntity
  8
0
  6
Continuous
 62
     7
100
AcDbLine
 10
136.8408557484
 20
87.4934925453
 30
0.0
 11
133.9182060176
 21
87.4934925453
 31
0.0
  0
LINE
  5
9C
330
1F
100
AcDbEntity
  8
0
  6
Continuous
 62
     7
100
AcDbLine
 10
122.0724241018
 20
94.8311920868
 30
0.0
 11
121.3899337056
 21
94.1487016905
 31
0.0
  0
LINE
  5
9D
330
1F
100
AcDbEntity
  8
0
  6
Continuous
 62
     7
100
AcDbLine
 10
145.379530883
 20
86.0740853056
 30
0.0
 11
145.379530883
 21
149.0740853056
 31
0.0
  0
LINE
  5
9E
330
1F
100
AcDbEntity
  8
0
  6
Continuous
 62
     7
100
AcDbLine
 10
145.379530883
 20
86.0740853056
 30
0.0
 11
123.6795309554
 21
86.0740853056
 31
0.0
  0
LINE
  5
9F
330
1F
100
AcDbEntity
  8
0
  6
Continuous
 62
     9
100
AcDbLine
 10
137.2738684503
 20
107.7046726867
 30
0.0
 11
137.2738684503
 21
87.6601304591
 31
0.0
  0
LINE
  5
A0
330
1F
100
AcDbEntity
  8
0
  6
Continuous
 62
     9
100
AcDbLine
 10
137.2738684503
 20
147.4880401521
 30
0.0
 11
137.2738684503
 21
127.4434979246
 31
0.0
  0
LINE
  5
A1
330
1F
100
AcDbEntity
  8
0
  6
Continuous
 62
     9
100
AcDbLine
 10
136.8408557484
 20
108.2248639911
 30
0.0
 11
136.8408557484
 21
87.4934925453
 31
0.0
  0
LINE
  5
A2
330
1F
100
AcDbEntity
  8
0
  6
Continuous
 62
     9
100
AcDbLine
 10
136.8408557484
 20
147.6546780659
 30
0.0
 11
136.8408557484
 21
126.9233066201
 31
0.0
  0
LINE
  5
A3
330
1F
100
AcDbEntity
  8
ACHSEN
  6
CENTER
 62
     7
100
AcDbLine
 10
135.379530883
 20
144.8723640676
 30
0.0
 11
135.379530883
 21
152.0740853056
 31
0.0
  0
LINE
  5
A4
330
1F
100
AcDbEntity
  8
0
  6
Continuous
 62
     9
100
AcDbLine
 10
133.9182060176
 20
108.2248639911
 30
0.0
 11
133.9182060176
 21
87.4934925453
 31
0.0
  0
LINE
  5
A5
330
1F
100
AcDbEntity
  8
0
  6
Continuous
 62
     9
100
AcDbLine
 10
133.9182060176
 20
147.6546780659
 30
0.0
 11
133.9182060176
 21
126.9233066201
 31
0.0
  0
LINE
  5
A6
330
1F
100
AcDbEntity
  8
0
  6
Continuous
 62
     9
100
AcDbLine
 10
133.4851933157
 20
107.7046726867
 30
0.0
 11
133.4851933157
 21
87.6601304591
 31
0.0
  0
LINE
  5
A7
330
1F
100
AcDbEntity
  8
0
  6
Continuous
 62
     9
100
AcDbLine
 10
133.4851933157
 20
147.4880401521
 30
0.0
 11
133.4851933157
 21
127.4434979246
 31
0.0
  0
LINE
  5
A8
330
1F
100
AcDbEntity
  8
0
  6
Continuous
 62
     7
100
AcDbLine
 10
123.379532719
 20
86.374087213
 30
0.0
 11
123.6795328089
 21
86.0740871591
 31
0.0
  0
LINE
  5
A9
330
1F
100
AcDbEntity
  8
0
  6
Continuous
 62
     9
100
AcDbLine
 10
86.879530883
 20
96.6379695363
 30
0.0
 11
85.379530883
 21
97.3879695363
 31
0.0
  0
LINE
  5
AA
330
1F
100
AcDbEntity
  8
0
  6
Continuous
 62
     7
100
AcDbLine
 10
123.1794660312
 20
96.1639172142
 30
0.0
 11
123.1794349167
 21
122.1993105197
 31
0.0
  0
LINE
  5
AB
330
1F
100
AcDbEntity
  8
0
  6
Continuous
 62
     7
100
AcDbLine
 10
123.1794660312
 20
134.3636598914
 30
0.0
 11
123.179530883
 21
140.1075701666
 31
0.0
  0
LINE
  5
AC
330
1F
100
AcDbEntity
  8
0
  6
Continuous
 62
     7
100
AcDbLine
 10
123.6795309566
 20
86.0740853056
 30
0.0
 11
123.6795309566
 21
149.0740853056
 31
0.0
  0
LINE
  5
AD
330
1F
100
AcDbEntity
  8
0
  6
Continuous
 62
     7
100
AcDbLine
 10
123.379530883
 20
86.3743609752
 30
0.0
 11
123.379530883
 21
148.7738096361
 31
0.0
  0
LINE
  5
AE
330
1F
100
AcDbEntity
  8
0
  6
Continuous
 62
     9
100
AcDbLine
 10
122.9845539941
 20
122.7570357588
 30
0.0
 11
122.9845539941
 21
96.0466565655
 31
0.0
  0
LINE
  5
AF
330
1F
100
AcDbEntity
  8
0
  6
Continuous
 62
     9
100
AcDbLine
 10
122.9845539941
 20
138.0394694445
 30
0.0
 11
122.9845539941
 21
133.9185635926
 31
0.0
  0
LINE
  5
B0
330
1F
100
AcDbEntity
  8
0
  6
Continuous
 62
     9
100
AcDbLine
 10
122.0724241018
 20
123.9886250664
 30
0.0
 11
122.0724241018
 21
133.2631021958
 31
0.0
  0
LINE
  5
B1
330
1F
100
AcDbEntity
  8
0
  6
Continuous
 62
     9
100
AcDbLine
 10
122.0724241018
 20
94.8311920868
 30
0.0
 11
122.0724241018
 21
95.4705286547
 31
0.0
  0
LINE
  5
B2
330
1F
100
AcDbEntity
  8
0
  6
Continuous
 62
     9
100
AcDbLine
 10
121.3845539941
 20
125.7600284924
 30
0.0
 11
121.3845539941
 21
94.7031999141
 31
0.0
  0
LINE
  5
B3
330
1F
100
AcDbEntity
  8
0
  6
Continuous
 62
     9
100
AcDbLine
 10
121.3845539941
 20
137.9992718754
 30
0.0
 11
121.3845539941
 21
132.2590275104
 31
0.0
  0
LINE
  5
B4
330
1F
100
AcDbEntity
  8
0
  6
Continuous
 62
     7
100
AcDbLine
 10
121.1795939721
 20
122.7989564362
 30
0.0
 11
121.1795939721
 21
95.8916834264
 31
0.0
  0
LINE
  5
B5
330
1F
100
AcDbEntity
  8
0
  6
Continuous
 62
     7
100
AcDbLine
 10
121.1795939721
 20
138.1941856752
 30
0.0
 11
121.1795939721
 21
134.0316160543
 31
0.0
  0
LINE
  5
B6
330
1F
100
AcDbEntity
  8
0
  6
Continuous
 62
     7
100
AcDbLine
 10
86.879530883
 20
95.0157219089
 30
0.0
 11
85.379530883
 21
95.8817473127
 31
0.0
  0
LINE
  5
B7
330
1F
100
AcDbEntity
  8
0
  6
Continuous
 62
     9
100
AcDbLine
 10
86.879530883
 20
133.2853299443
 30
0.0
 11
85.379530883
 21
132.5353299443
 31
0.0
  0
LINE
  5
B8
330
1F
100
AcDbEntity
  8
0
  6
Continuous
 62
     7
100
AcDbLine
 10
123.379532719
 20
148.7740833983
 30
0.0
 11
123.6795328089
 21
149.0740834522
 31
0.0
  0
LINE
  5
B9
330
1F
100
AcDbEntity
  8
ACHSEN
  6
CENTER
 62
     7
100
AcDbLine
 10
107.879530883
 20
94.6405997986
 30
0.0
 11
107.879530883
 21
141.7624558702
 31
0.0
  0
LINE
  5
BA
330
1F
100
AcDbEntity
  8
0
  6
Continuous
 62
     7
100
AcDbLine
 10
86.879530883
 20
133.2853299443
 30
0.0
 11
86.879530883
 21
95.0157219089
 31
0.0
  0
LINE
  5
BB
330
1F
100
AcDbEntity
  8
ACHSEN
  6
Continuous
 62
     7
100
AcDbLine
 10
86.879530883
 20
137.0710749192
 30
0.0
 11
86.879530883
 21
133.2853299443
 31
0.0
  0
LINE
  5
BC
330
1F
100
AcDbEntity
  8
ACHSEN
  6
Continuous
 62
     7
100
AcDbLine
 10
85.379530883
 20
132.5353299443
 30
0.0
 11
85.379530883
 21
136.3225646196
 31
0.0
  0
LINE
  5
BD
330
1F
100
AcDbEntity
  8
0
  6
Continuous
 62
     7
100
AcDbLine
 10
85.379530883
 20
95.8817473127
 30
0.0
 11
85.379530883
 21
132.5353299443
 31
0.0
  0
LINE
  5
BE
330
1F
100
AcDbEntity
  8
0
  6
Continuous
 62
     7
100
AcDbLine
 10
297.0
 20
0.0
 30
0.0
 11
297.0
 21
210.0
 31
0.0
  0
LINE
  5
BF
330
1F
100
AcDbEntity
  8
0
  6
Continuous
 62
     7
100
AcDbLine
 10
0.0
 20
210.0
 30
0.0
 11
297.0
 21
210.0
 31
0.0
  0
LINE
  5
C0
330
1F
100
AcDbEntity
  8
0
  6
Continuous
 62
     7
100
AcDbLine
 10
0.0
 20
0.0
 30
0.0
 11
297.0
 21
0.0
 31
0.0
  0
LINE
  5
C1
330
1F
100
AcDbEntity
  8
0
  6
Continuous
 62
     7
100
AcDbLine
 10
0.0
 20
0.0
 30
0.0
 11
0.0
 21
210.0
 31
0.0
  0
ARC
  5
C2
330
1F
100
AcDbEntity
  8
0
  6
Continuous
 62
     7
100
AcDbCircle
 10
121.379530883
 20
138.1992087863
 30
0.0
 40
0.1999999999634008
100
AcDbArc
 50
181.4391666598507
 51
271.4391666598509
  0
ARC
  5
C3
330
1F
100
AcDbEntity
  8
0
  6
Continuous
 62
     7
100
AcDbCircle
 10
122.979530883
 20
138.2394063554
 30
0.0
 40
0.1999999999633866
100
AcDbArc
 50
271.4391666598509
 51
0.0
  0
ARC
  5
C4
330
1F
100
AcDbEntity
  8
0
  6
Continuous
 62
     7
100
AcDbCircle
 10
122.779530883
 20
141.0240853056
 30
0.0
 40
1.000000000008102
100
AcDbArc
 50
293.5781784779987
 51
306.9599393197828
  0
ARC
  5
C5
330
1F
100
AcDbEntity
  8
0
  6
Continuous
 62
     7
100
AcDbCircle
 10
122.779530883
 20
94.1240853056
 30
0.0
 40
0.999999999999785
100
AcDbArc
 50
53.04006068021279
 51
135.0000000000006
  0
ARC
  5
C6
330
1F
100
AcDbEntity
  8
RUNDUNGEN
  6
Continuous
 62
     7
100
AcDbCircle
 10
228.6937444454
 20
105.7365853056
 30
0.0
 40
1.0
100
AcDbArc
 50
90.0
 51
135.0
  0
ARC
  5
C7
330
1F
100
AcDbEntity
  8
RUNDUNGEN
  6
Continuous
 62
     7
100
AcDbCircle
 10
228.6937444454
 20
129.4115853056
 30
0.0
 40
1.00000000001902
100
AcDbArc
 50
225.0
 51
270.0
  0
ARC
  5
C8
330
1F
100
AcDbEntity
  8
RUNDUNGEN
  6
Continuous
 62
     7
100
AcDbCircle
 10
224.7278173207
 20
104.5990853056
 30
0.0
 40
1.0
100
AcDbArc
 50
270.0
 51
314.9999999959479
  0
ARC
  5
C9
330
1F
100
AcDbEntity
  8
RUNDUNGEN
  6
Continuous
 62
     7
100
AcDbCircle
 10
224.7278173207
 20
130.5490853056
 30
0.0
 40
0.9999999999483181
100
AcDbArc
 50
45.00000000405322
 51
90.0
  0
ARC
  5
CA
330
1F
100
AcDbEntity
  8
DEFAULT_1
  6
CENTER
 62
     5
100
AcDbCircle
 10
237.379530883
 20
105.5990853056
 30
0.0
 40
2.0
100
AcDbArc
 50
180.0
 51
270.0
  0
ARC
  5
CB
330
1F
100
AcDbEntity
  8
DEFAULT_1
  6
CENTER
 62
     5
100
AcDbCircle
 10
237.379530883
 20
129.5490853056
 30
0.0
 40
2.0
100
AcDbArc
 50
90.0
 51
180.0
  0
ARC
  5
CC
330
1F
100
AcDbEntity
  8
RUNDUNGEN
  6
Continuous
 62
     7
100
AcDbCircle
 10
157.879530883
 20
91.0990853056
 30
0.0
 40
12.5
100
AcDbArc
 50
90.0
 51
179.9999999988
  0
ARC
  5
CD
330
1F
100
AcDbEntity
  8
RUNDUNGEN
  6
Continuous
 62
     7
100
AcDbCircle
 10
157.879530883
 20
144.0490853056
 30
0.0
 40
12.5
100
AcDbArc
 50
180.0000000003988
 51
270.0
  0
ARC
  5
CE
330
1F
100
AcDbEntity
  8
FASEN
  6
Continuous
 62
     7
100
AcDbCircle
 10
135.3926018829
 20
179.8176020485
 30
0.0
 40
31.18509350531798
100
AcDbArc
 50
261.457061070211
 51
269.9759848996986
  0
ARC
  5
CF
330
1F
100
AcDbEntity
  8
FASEN
  6
Continuous
 62
     7
100
AcDbCircle
 10
135.3399849452
 20
180.1714710382
 30
0.0
 40
31.53898454850012
100
AcDbArc
 50
270.0718417526994
 51
278.4996880980898
  0
ARC
  5
D0
330
1F
100
AcDbEntity
  8
FASEN
  6
Continuous
 62
     7
100
AcDbCircle
 10
135.0909381816
 20
181.8908838455
 30
0.0
 40
33.27632350869987
100
AcDbArc
 50
278.4862153232993
 51
278.9386019049003
  0
ARC
  5
D1
330
1F
100
AcDbEntity
  8
FASEN
  6
Continuous
 62
     7
100
AcDbCircle
 10
135.6690077132
 20
181.9019519065
 30
0.0
 40
33.2873971389
100
AcDbArc
 50
260.5363441583995
 51
261.5195290197993
  0
ARC
  5
D2
330
1F
100
AcDbEntity
  8
ACHSEN
  6
Continuous
 62
     7
100
AcDbCircle
 10
98.6411025027
 20
102.0056821205
 30
0.0
 40
35.84510254780027
100
AcDbArc
 50
98.01492884219994
 51
101.1172700805002
  0
ARC
  5
D3
330
1F
100
AcDbEntity
  8
0
  6
Continuous
 62
     7
100
AcDbCircle
 10
14.6275196873
 20
98.2645964762
 30
0.0
 40
110.4813700655023
100
AcDbArc
 50
13.46409039979088
 51
14.41116213519819
  0
ARC
  5
D4
330
1F
100
AcDbEntity
  8
ACHSEN
  6
Continuous
 62
     7
100
AcDbCircle
 10
21.6213139052
 20
265.9700248578
 30
0.0
 40
144.4768984246405
100
AcDbArc
 50
296.1871039389626
 51
296.8519184684875
  0
ARC
  5
D5
330
1F
100
AcDbEntity
  8
0
  6
Continuous
 62
     7
100
AcDbCircle
 10
267.6137036536
 20
68.5998874361
 30
0.0
 40
159.2595221537296
100
AcDbArc
 50
156.0446773747741
 51
156.437458983071
  0
SPLINE
  5
D6
330
1F
100
AcDbEntity
  8
0
  6
Continuous
 62
     7
100
AcDbSpline
210
0.0
220
0.0
230
1.0
 70
     8
 71
     3
 72
    15
 73
    11
 74
     9
 42
0.0000000001
 43
0.0000000001
 44
0.00000001
 40
0.0
 40
0.0
 40
0.0
 40
0.0
 40
2.768071362230408
 40
5.543987162613085
 40
7.42904583811251
 40
9.310745242426155
 40
11.52272334027848
 40
13.7359989018981
 40
17.16735239697631
 40
20.59799187648065
 40
20.59799187648065
 40
20.59799187648065
 40
20.59799187648065
 10
133.4851933157
 20
147.4880401521
 30
0.0
 10
133.0042037024157
 20
146.6905301445368
 30
0.0
 10
132.0408613992572
 20
145.0932500655928
 30
0.0
 10
131.6629194247045
 20
142.6013762023046
 30
0.0
 10
131.5211163866927
 20
140.4301924569891
 30
0.0
 10
131.5539572933061
 20
138.4341494184942
 30
0.0
 10
131.7156417198497
 20
136.3373412851029
 30
0.0
 10
132.0639258857755
 20
133.7407154265346
 30
0.0
 10
132.623352820399
 20
130.7651119308985
 30
0.0
 10
133.1979330802905
 20
128.550625784099
 30
0.0
 10
133.485193316643
 20
127.443497923408
 30
0.0
 11
133.4851933157
 21
147.4880401521
 31
0.0
 11
132.2120678071462
 21
145.0301201969612
 31
0.0
 11
131.6658729492588
 21
142.3084700159071
 31
0.0
 11
131.5466716489375
 21
140.4271839504515
 31
0.0
 11
131.5695655673225
 21
138.5456238220753
 31
0.0
 11
131.7362779731053
 21
136.3399370630053
 31
0.0
 11
132.0249530736029
 21
134.1455680425315
 31
0.0
 11
132.6613012986443
 21
130.773736530627
 31
0.0
 11
133.485193316643
 21
127.443497923408
 31
0.0
  0
SPLINE
  5
D7
330
1F
100
AcDbEntity
  8
0
  6
Continuous
 62
     7
100
AcDbSpline
210
0.0
220
0.0
230
1.0
 70
     8
 71
     3
 72
    15
 73
    11
 74
     9
 42
0.0000000001
 43
0.0000000001
 44
0.00000001
 40
0.0
 40
0.0
 40
0.0
 40
0.0
 40
2.768071363099948
 40
5.543987163860113
 40
7.429045839534221
 40
9.310745244023764
 40
11.52272334203731
 40
13.73599890381797
 40
17.16735239740743
 40
20.59799187470866
 40
20.59799187470866
 40
20.59799187470866
 40
20.59799187470866
 10
137.273868450671
 20
87.6601304595069
 30
0.0
 10
137.7548580640133
 20
88.45764046737632
 30
0.0
 10
138.7182003672023
 20
90.05492054679108
 30
0.0
 10
139.0961423416106
 20
92.54679441057868
 30
0.0
 10
139.2379453794459
 20
94.71797815614983
 30
0.0
 10
139.2051044726933
 20
96.71402119481209
 30
0.0
 10
139.0434200460098
 20
98.81082932835874
 30
0.0
 10
138.6951358800058
 20
101.4074551865255
 30
0.0
 10
138.1357089454832
 20
104.3830586809707
 30
0.0
 10
137.561128686279
 20
106.5975448266729
 30
0.0
 10
137.2738684503
 20
107.7046726867
 30
0.0
 11
137.273868450671
 21
87.6601304595069
 31
0.0
 11
138.5469939593367
 21
90.11805041556705
 31
0.0
 11
139.0931888170329
 21
92.8397005970445
 31
0.0
 11
139.2123901172048
 21
94.72098666268458
 31
0.0
 11
139.1894961986847
 21
96.60254679123511
 31
0.0
 11
139.0227837927567
 21
98.80823355045577
 31
0.0
 11
138.734108692123
 21
101.0026025710741
 31
0.0
 11
138.097760467323
 21
104.3744340815092
 31
0.0
 11
137.2738684503
 21
107.7046726867
 31
0.0
  0
SPLINE
  5
D8
330
1F
100
AcDbEntity
  8
0
  6
Continuous
 62
     7
100
AcDbSpline
210
0.0
220
0.0
230
1.0
 70
     8
 71
     3
 72
    15
 73
    11
 74
     9
 42
0.0000000001
 43
0.0000000001
 44
0.00000001
 40
0.0
 40
0.0
 40
0.0
 40
0.0
 40
4.908005104415888
 40
9.81581696755502
 40
11.81736697981857
 40
13.81798377233679
 40
15.47664584493367
 40
17.13807097055926
 40
18.879671540274
 40
20.60869206096032
 40
20.60869206096032
 40
20.60869206096032
 40
20.60869206096032
 10
137.273868449457
 20
127.443497923408
 30
0.0
 10
137.6755282327522
 20
129.0300388202419
 30
0.0
 10
138.4788319849237
 20
132.2030581475549
 30
0.0
 10
139.0505578671961
 20
136.1107721258642
 30
0.0
 10
139.2312140220203
 20
139.0766947990988
 30
0.0
 10
139.2176063538002
 20
140.9649713071769
 30
0.0
 10
139.0720734969373
 20
142.7358427997563
 30
0.0
 10
138.7585618246356
 20
144.3931712498251
 30
0.0
 10
138.2545594771944
 20
146.0475572398615
 30
0.0
 10
137.5999745623708
 20
147.0090408861415
 30
0.0
 10
137.2738684503
 20
147.4880401521
 30
0.0
 11
137.273868449457
 21
127.443497923408
 31
0.0
 11
138.3967412811286
 21
132.2213290954845
 31
0.0
 11
139.0931888167169
 21
137.0794746381934
 31
0.0
 11
139.2085305335501
 21
139.0776985345449
 31
0.0
 11
139.189496198838
 21
141.0782247764643
 31
0.0
 11
139.0434897097853
 21
142.7304481197886
 31
0.0
 11
138.7341086927411
 21
144.3628135305814
 31
0.0
 11
138.1743178830303
 21
146.0119972055534
 31
0.0
 11
137.2738684503
 21
147.4880401521
 31
0.0
  0
SPLINE
  5
D9
330
1F
100
AcDbEntity
  8
0
  6
Continuous
 62
     7
100
AcDbSpline
210
0.0
220
0.0
230
1.0
 70
     8
 71
     3
 72
    15
 73
    11
 74
     9
 42
0.0000000001
 43
0.0000000001
 44
0.00000001
 40
0.0
 40
0.0
 40
0.0
 40
0.0
 40
4.908005104137999
 40
9.815816966999346
 40
11.81736697909053
 40
13.81798377143666
 40
15.47664584385815
 40
17.13807096930766
 40
18.87967153826358
 40
20.60869205864737
 40
20.60869205864737
 40
20.60869205864737
 40
20.60869205864737
 10
133.485193315908
 20
107.704672685106
 30
0.0
 10
133.0835335326975
 20
106.1181317883462
 30
0.0
 10
132.2802297806956
 20
102.9451124611813
 30
0.0
 10
131.7085038986482
 20
99.03739848308214
 30
0.0
 10
131.527847744023
 20
96.0714758100431
 30
0.0
 10
131.5414554123808
 20
94.1831993021384
 30
0.0
 10
131.6869882693866
 20
92.41232780974653
 30
0.0
 10
132.0004999417927
 20
90.75499936006884
 30
0.0
 10
132.5045022893565
 20
89.10061337051766
 30
0.0
 10
133.1590872040382
 20
88.13912972457479
 30
0.0
 10
133.485193316081
 20
87.6601304587215
 30
0.0
 11
133.485193315908
 21
107.704672685106
 31
0.0
 11
132.3623204844945
 21
102.9268415132543
 31
0.0
 11
131.6658729491914
 21
98.06869597078511
 31
0.0
 11
131.5505312324949
 21
96.07047207459837
 31
0.0
 11
131.5695655673547
 21
94.06994583285253
 31
0.0
 11
131.7155720565393
 21
92.41772248971591
 31
0.0
 11
132.0249530737332
 21
90.78535707913072
 31
0.0
 11
132.5847438834049
 21
89.1361734049468
 31
0.0
 11
133.485193316081
 21
87.6601304587215
 31
0.0
  0
SPLINE
  5
DA
330
1F
100
AcDbEntity
  8
0
  6
Continuous
 62
     7
100
AcDbSpline
210
0.0
220
0.0
230
1.0
 70
     8
 71
     3
 72
    11
 73
     7
 74
     5
 42
0.0000000001
 43
0.0000000001
 44
0.00000001
 40
0.0
 40
0.0
 40
0.0
 40
0.0
 40
0.0396097710866711
 40
0.0793139643108193
 40
0.2768296850181207
 40
0.4765470267516474
 40
0.4765470267516474
 40
0.4765470267516474
 40
0.4765470267516474
 10
133.4851933157
 20
147.4880401521
 30
0.0
 10
133.4939955928014
 20
147.4979043824576
 30
0.0
 10
133.5116211299535
 20
147.5176563576159
 30
0.0
 10
133.58229353558
 20
147.577248776825
 30
0.0
 10
133.7186752097275
 20
147.6414822544411
 30
0.0
 10
133.8514504508669
 20
147.6502632395289
 30
0.0
 10
133.9182060176
 20
147.6546780659
 30
0.0
 11
133.4851933157
 21
147.4880401521
 31
0.0
 11
133.5122542577761
 21
147.5169648712775
 31
0.0
 11
133.5423832325932
 21
147.5428234836929
 31
0.0
 11
133.7201603533198
 21
147.6288918011661
 31
0.0
 11
133.9182060176
 21
147.6546780659
 31
0.0
  0
SPLINE
  5
DB
330
1F
100
AcDbEntity
  8
0
  6
Continuous
 62
     7
100
AcDbSpline
210
0.0
220
0.0
230
1.0
 70
     8
 71
     3
 72
    11
 73
     7
 74
     5
 42
0.0000000001
 43
0.0000000001
 44
0.00000001
 40
0.0
 40
0.0
 40
0.0
 40
0.0
 40
0.1144869088847692
 40
0.2289786249399739
 40
0.5593749202235125
 40
0.8897492709533874
 40
0.8897492709533874
 40
0.8897492709533874
 40
0.8897492709533874
 10
122.0724241018
 20
95.4705286547
 30
0.0
 10
122.054764205317
 20
95.43669780499327
 30
0.0
 10
122.0194436708328
 20
95.36903468506227
 30
0.0
 10
121.9311327040377
 20
95.20481578759028
 30
0.0
 10
121.8050760666018
 20
94.97915093911233
 30
0.0
 10
121.690063838261
 20
94.79128585353682
 30
0.0
 10
121.6325596339
 20
94.6973564303
 30
0.0
 11
122.0724241018
 21
95.4705286547
 31
0.0
 11
122.0192370902628
 21
95.36914623951014
 31
0.0
 11
121.9650793061432
 21
95.26827360960229
 31
0.0
 11
121.8031794244847
 21
94.98026294963282
 31
0.0
 11
121.6325596339
 21
94.6973564303
 31
0.0
  0
SPLINE
  5
DC
330
1F
100
AcDbEntity
  8
0
  6
Continuous
 62
     7
100
AcDbSpline
210
0.0
220
0.0
230
1.0
 70
     8
 71
     3
 72
    17
 73
    13
 74
    11
 42
0.0000000001
 43
0.0000000001
 44
0.00000001
 40
0.0
 40
0.0
 40
0.0
 40
0.0
 40
0.0885925199630301
 40
0.1771938736111121
 40
0.2663445206564121
 40
0.3556576277662618
 40
0.4462461945886753
 40
0.5364096410231824
 40
0.5823867489090115
 40
0.6283820435236357
 40
0.6749717295705616
 40
0.7213871308387074
 40
0.7213871308387074
 40
0.7213871308387074
 40
0.7213871308387074
 10
137.2738684503
 20
127.4434979246
 30
0.0
 10
137.2656175844771
 20
127.4151334319583
 30
0.0
 10
137.2491150301257
 20
127.3584016184113
 30
0.0
 10
137.2175778006221
 20
127.2753088810521
 30
0.0
 10
137.180146727432
 20
127.1944336375694
 30
0.0
 10
137.1346420695831
 20
127.1169585384075
 30
0.0
 10
137.0802063515706
 20
127.0449248819907
 30
0.0
 10
137.0247749017011
 20
126.9927608632821
 30
0.0
 10
136.9740186685767
 20
126.9591318275546
 30
0.0
 10
136.9321552380587
 20
126.9393203743116
 30
0.0
 10
136.8873826427614
 20
126.9260101860417
 30
0.0
 10
136.8563453259613
 20
126.9242066822022
 30
0.0
 10
136.8408557484
 20
126.9233066201
 30
0.0
 11
137.2738684503
 21
127.4434979246
 31
0.0
 11
137.2479963253892
 21
127.3587673649064
 31
0.0
 11
137.2166823030472
 21
127.2758841224925
 31
0.0
 11
137.1788792236815
 21
127.1951452529248
 31
0.0
 11
137.133419587599
 21
127.1182670857454
 31
0.0
 11
137.0781721502284
 21
127.0464756579638
 31
0.0
 11
137.0119305224899
 21
126.9853079064317
 31
0.0
 11
136.9734846422022
 21
126.9600926582978
 31
0.0
 11
136.931878356505
 21
126.9404843917459
 31
0.0
 11
136.8870554932359
 21
126.9277757421597
 31
0.0
 11
136.8408557484
 21
126.9233066201
 31
0.0
  0
SPLINE
  5
DD
330
1F
100
AcDbEntity
  8
0
  6
Continuous
 62
     7
100
AcDbSpline
210
0.0
220
0.0
230
1.0
 70
     8
 71
     3
 72
    11
 73
     7
 74
     5
 42
0.0000000001
 43
0.0000000001
 44
0.00000001
 40
0.0
 40
0.0
 40
0.0
 40
0.0
 40
0.085888041798829
 40
0.1724696234345109
 40
0.3262585112187893
 40
0.4767798625776632
 40
0.4767798625776632
 40
0.4767798625776632
 40
0.4767798625776632
 10
136.8408557484
 20
147.6546780659
 30
0.0
 10
136.8695290272833
 20
147.6538503667012
 30
0.0
 10
136.9271071197401
 20
147.6521882846914
 30
0.0
 10
137.0340734423503
 20
147.6327522412601
 30
0.0
 10
137.1609902694363
 20
147.5916696036107
 30
0.0
 10
137.2365126978032
 20
147.5223351426146
 30
0.0
 10
137.2738684503
 20
147.4880401521
 30
0.0
 11
136.8408557484
 21
147.6546780659
 31
0.0
 11
136.9266195018639
 21
147.6500591573899
 31
0.0
 11
137.0119400854648
 21
147.6353361042918
 31
0.0
 11
137.1561048625186
 21
147.581786696611
 31
0.0
 11
137.2738684503
 21
147.4880401521
 31
0.0
  0
SPLINE
  5
DE
330
1F
100
AcDbEntity
  8
0
  6
Continuous
 62
     7
100
AcDbSpline
210
0.0
220
0.0
230
1.0
 70
     8
 71
     3
 72
    11
 73
     7
 74
     5
 42
0.0000000001
 43
0.0000000001
 44
0.00000001
 40
0.0
 40
0.0
 40
0.0
 40
0.0
 40
0.0858653726961085
 40
0.1724244651199937
 40
0.3262359599022511
 40
0.4767776582961296
 40
0.4767776582961296
 40
0.4767776582961296
 40
0.4767776582961296
 10
133.9182060176
 20
87.4934925453
 30
0.0
 10
133.8895403130317
 20
87.49432027894753
 30
0.0
 10
133.8319773092003
 20
87.49598243363177
 30
0.0
 10
133.725018471012
 20
87.5154162010502
 30
0.0
 10
133.5980910870981
 20
87.5564901022949
 30
0.0
 10
133.5225554021206
 20
87.62583199669754
 30
0.0
 10
133.4851933157
 20
87.6601304591
 30
0.0
 11
133.9182060176
 21
87.4934925453
 31
0.0
 11
133.8324649276902
 21
87.49811074076125
 31
0.0
 11
133.7471662222497
 21
87.51282832654942
 31
0.0
 11
133.6029767511962
 21
87.56637617771491
 31
0.0
 11
133.4851933157
 21
87.6601304591
 31
0.0
  0
SPLINE
  5
DF
330
1F
100
AcDbEntity
  8
0
  6
Continuous
 62
     7
100
AcDbSpline
210
0.0
220
0.0
230
1.0
 70
     8
 71
     3
 72
    23
 73
    19
 74
    17
 42
0.0000000001
 43
0.0000000001
 44
0.00000001
 40
0.0
 40
0.0
 40
0.0
 40
0.0
 40
0.0200847595707633
 40
0.0402074697403896
 40
0.0623257192853382
 40
0.0845392955056289
 40
0.1048528756528978
 40
0.1251579524691807
 40
0.1438115891804777
 40
0.1624497786803642
 40
0.1972171515329496
 40
0.2320370462887206
 40
0.2649767723471347
 40
0.2978945729273751
 40
0.3606251045277543
 40
0.4234001583885663
 40
0.4835097231861253
 40
0.5435992772303739
 40
0.5435992772303739
 40
0.5435992772303739
 40
0.5435992772303739
 10
122.9845539941
 20
133.9185635926
 30
0.0
 10
122.9909895977716
 20
133.9166187801919
 30
0.0
 10
123.0038729653308
 20
133.9127254806094
 30
0.0
 10
123.0249872361571
 20
133.9128193642834
 30
0.0
 10
123.0458573078914
 20
133.9188934005555
 30
0.0
 10
123.0645739559171
 20
133.9299646407101
 30
0.0
 10
123.0801752332459
 20
133.9440846145023
 30
0.0
 10
123.0927647208894
 20
133.9593708398902
 30
0.0
 10
123.1035818979632
 20
133.9752544226648
 30
0.0
 10
123.1155722094966
 20
133.9960891681289
 30
0.0
 10
123.1278933091679
 20
134.0228574487543
 30
0.0
 10
123.1393537605583
 20
134.055084901753
 30
0.0
 10
123.1486654613631
 20
134.087342809924
 30
0.0
 10
123.1584836617653
 20
134.1290793781763
 30
0.0
 10
123.1675428370207
 20
134.1811538450849
 30
0.0
 10
123.1743179117695
 20
134.2426781299499
 30
0.0
 10
123.178352833233
 20
134.3035598490071
 30
0.0
 10
123.1790807690066
 20
134.3436241683054
 30
0.0
 10
123.1794446763
 20
134.363652993
 30
0.0
 11
122.9845539941
 21
133.9185635926
 31
0.0
 11
123.0040449164531
 21
133.9137157567074
 31
0.0
 11
123.024167623897
 21
133.9137052830873
 31
0.0
 11
123.0454482896038
 21
133.9197343982801
 31
0.0
 11
123.0646456964408
 21
133.9309103787396
 31
0.0
 11
123.0798126430535
 21
133.9444235304388
 31
0.0
 11
123.0928552274915
 21
133.9599858932316
 31
0.0
 11
123.1033850010209
 21
133.9753833615942
 31
0.0
 11
123.112714452299
 21
133.9915185234056
 31
0.0
 11
123.1274017722352
 21
134.0230312644505
 31
0.0
 11
123.139218779912
 21
134.0557846368016
 31
0.0
 11
123.1484016339672
 21
134.0874184912017
 31
0.0
 11
123.1559901634549
 21
134.1194496606348
 31
0.0
 11
123.1668918039494
 21
134.1812256578295
 31
0.0
 11
123.1739518548806
 21
134.2436024409148
 31
0.0
 11
123.1778724447561
 21
134.3035840110442
 31
0.0
 11
123.1794446763
 21
134.363652993
 31
0.0
  0
SPLINE
  5
E0
330
1F
100
AcDbEntity
  8
0
  6
Continuous
 62
     7
100
AcDbSpline
210
0.0
220
0.0
230
1.0
 70
     8
 71
     3
 72
    19
 73
    15
 74
    13
 42
0.0000000001
 43
0.0000000001
 44
0.00000001
 40
0.0
 40
0.0
 40
0.0
 40
0.0
 40
0.1037214441934994
 40
0.2077048967486778
 40
0.3081965148229345
 40
0.4087745519540906
 40
0.4905582517914303
 40
0.572269420292755
 40
0.6447917331418768
 40
0.7173167609595799
 40
0.8507493763564615
 40
0.9843287148110278
 40
1.111803128104068
 40
1.239193738891517
 40
1.239193738891517
 40
1.239193738891517
 40
1.239193738891517
 10
122.9845539941
 20
133.9185635926
 30
0.0
 10
122.9514021945275
 20
133.9287897210861
 30
0.0
 10
122.8850148513818
 20
133.949267810047
 30
0.0
 10
122.7810783405356
 20
133.9527764723228
 30
0.0
 10
122.6804568313524
 20
133.9343858576895
 30
0.0
 10
122.5922332042054
 20
133.8995884683901
 30
0.0
 10
122.5159192322411
 20
133.8553065735723
 30
0.0
 10
122.452767327621
 20
133.8081372131487
 30
0.0
 10
122.3964596288464
 20
133.7575999128454
 30
0.0
 10
122.3321052569021
 20
133.6906097096945
 30
0.0
 10
122.2611923553004
 20
133.602089862899
 30
0.0
 10
122.1891636412297
 20
133.4919222152201
 30
0.0
 10
122.1259404212261
 20
133.3787773612674
 30
0.0
 10
122.0902589641197
 20
133.3016521310728
 30
0.0
 10
122.0724241018
 20
133.2631021958
 30
0.0
 11
122.9845539941
 21
133.9185635926
 31
0.0
 11
122.8841860842436
 21
133.9447250271297
 31
0.0
 11
122.7802916302469
 21
133.9490262867135
 31
0.0
 11
122.6813865229255
 21
133.9312401952675
 31
0.0
 11
122.5876424223034
 21
133.8947986646779
 31
0.0
 11
122.5167743562501
 21
133.8539784396301
 31
0.0
 11
122.4511422912398
 21
133.8053045544314
 31
0.0
 11
122.3970848581124
 21
133.7569591328834
 31
0.0
 11
122.3467484617268
 21
133.7047468081039
 31
0.0
 11
122.2629742178742
 21
133.6008904702204
 31
0.0
 11
122.1894042652317
 21
133.4893965164375
 31
0.0
 11
122.1273778314048
 21
133.3780302398942
 31
0.0
 11
122.0724241018
 21
133.2631021958
 31
0.0
  0
SPLINE
  5
E1
330
1F
100
AcDbEntity
  8
0
  6
Continuous
 62
     7
100
AcDbSpline
210
0.0
220
0.0
230
1.0
 70
     8
 71
     3
 72
    25
 73
    21
 74
    19
 42
0.0000000001
 43
0.0000000001
 44
0.00000001
 40
0.0
 40
0.0
 40
0.0
 40
0.0
 40
0.1100127022389805
 40
0.220027720385329
 40
0.3300666626957198
 40
0.4401078802923802
 40
0.5501739294535499
 40
0.6602293606403213
 40
0.7702834546420279
 40
0.8803905202559891
 40
0.9905820716565736
 40
1.10057062832374
 40
1.210144994811914
 40
1.320894121706977
 40
1.43254155221517
 40
1.540923272218226
 40
1.59616515316681
 40
1.651750157769717
 40
1.707084506426991
 40
1.762341592257063
 40
1.762341592257063
 40
1.762341592257063
 40
1.762341592257063
 10
122.0724241018
 20
123.9886250664
 30
0.0
 10
122.0811121384338
 20
123.9529974211482
 30
0.0
 10
122.0984883945955
 20
123.8817413806375
 30
0.0
 10
122.1267324308278
 20
123.7753983479684
 30
0.0
 10
122.1567667205651
 20
123.6695391719441
 30
0.0
 10
122.1889927074272
 20
123.5643053166448
 30
0.0
 10
122.2236165480151
 20
123.4598277113672
 30
0.0
 10
122.2609955715469
 20
123.356296409599
 30
0.0
 10
122.3014704639185
 20
123.2539127469366
 30
0.0
 10
122.3459246477952
 20
123.1531316861834
 30
0.0
 10
122.3951310067501
 20
123.0545802403263
 30
0.0
 10
122.449920487372
 20
122.9592312537434
 30
0.0
 10
122.5113499625788
 20
122.8676305451212
 30
0.0
 10
122.5854113617189
 20
122.784772339676
 30
0.0
 10
122.673121743198
 20
122.7166815477258
 30
0.0
 10
122.7620385478764
 20
122.6841652109594
 30
0.0
 10
122.835832431356
 20
122.6860833632642
 30
0.0
 10
122.8899327451092
 20
122.6996158001041
 30
0.0
 10
122.9401842406738
 20
122.7239194502761
 30
0.0
 10
122.9697709663791
 20
122.7460021318555
 30
0.0
 10
122.9845539941
 20
122.7570357588
 30
0.0
 11
122.0724241018
 21
123.9886250664
 31
0.0
 11
122.0988511216774
 21
123.8818336469211
 31
0.0
 11
122.1270282748891
 21
123.7754882085863
 31
0.0
 11
122.1571309863321
 21
123.6696468386567
 31
0.0
 11
122.1893895653441
 21
123.5644401200011
 31
0.0
 11
122.2240766871325
 21
123.459982766215
 31
0.0
 11
122.2615108518157
 21
123.3564893787539
 31
0.0
 11
122.3021238661603
 21
123.2542030811751
 31
0.0
 11
122.3467065553194
 21
123.1535256272668
 31
0.0
 11
122.3961082158376
 21
123.0550286530081
 31
0.0
 11
122.4510814434485
 21
122.9597636182694
 31
0.0
 11
122.5131544518432
 21
122.8694669770245
 31
0.0
 11
122.5875310209792
 21
122.7874091006714
 31
0.0
 11
122.6772651269368
 21
122.7209791453269
 31
0.0
 11
122.7801814834324
 21
122.6869964909795
 31
0.0
 11
122.8354126992414
 21
122.6880819452602
 31
0.0
 11
122.8893683684202
 21
122.701441529841
 31
0.0
 11
122.9392422695872
 21
122.7254099282795
 31
0.0
 11
122.9845539941
 21
122.7570357588
 31
0.0
  0
SPLINE
  5
E2
330
1F
100
AcDbEntity
  8
0
  6
Continuous
 62
     7
100
AcDbSpline
210
0.0
220
0.0
230
1.0
 70
     8
 71
     3
 72
    17
 73
    13
 74
    11
 42
0.0000000001
 43
0.0000000001
 44
0.00000001
 40
0.0
 40
0.0
 40
0.0
 40
0.0
 40
0.0414201706085037
 40
0.0829390506775363
 40
0.1073813970060698
 40
0.1316132837043802
 40
0.1594736538119887
 40
0.1874025611752541
 40
0.2119726711803825
 40
0.2366663819178195
 40
0.2629447608951205
 40
0.2891512213293096
 40
0.2891512213293096
 40
0.2891512213293096
 40
0.2891512213293096
 10
122.9845539941
 20
96.0466565655
 30
0.0
 10
122.997465150775
 20
96.04170251571342
 30
0.0
 10
123.0233182330305
 20
96.03178261001845
 30
0.0
 10
123.0589079717907
 20
96.02575508303923
 30
0.0
 10
123.0890701326573
 20
96.02574193063198
 30
0.0
 10
123.1143223234187
 20
96.03110756110141
 30
0.0
 10
123.137809482805
 20
96.04469261721961
 30
0.0
 10
123.1564401837874
 20
96.06451673047519
 30
0.0
 10
123.167952957602
 20
96.08782636988522
 30
0.0
 10
123.1745226930509
 20
96.11221228433172
 30
0.0
 10
123.1784411174183
 20
96.13769848810168
 30
0.0
 10
123.1791104624011
 20
96.15519160641475
 30
0.0
 10
123.1794446763
 20
96.1639261804
 30
0.0
 11
122.9845539941
 21
96.0466565655
 31
0.0
 11
123.0236954054424
 21
96.03310737912716
 31
0.0
 11
123.0646456964866
 21
96.0262596739947
 31
0.0
 11
123.0890856147485
 21
96.02660418726383
 31
0.0
 11
123.1127144523002
 21
96.03197655814789
 31
0.0
 11
123.1369313527942
 21
96.04575124337109
 31
0.0
 11
123.1559901634032
 21
96.06616657106075
 31
0.0
 11
123.1671726104992
 21
96.08804448646896
 31
0.0
 11
123.1739518548635
 21
96.1117894058378
 31
0.0
 11
123.1779445613855
 21
96.13776269011808
 31
0.0
 11
123.1794446763
 21
96.1639261804
 31
0.0
  0
SPLINE
  5
E3
330
1F
100
AcDbEntity
  8
0
  6
Continuous
 62
     7
100
AcDbSpline
210
0.0
220
0.0
230
1.0
 70
     8
 71
     3
 72
    19
 73
    15
 74
    13
 42
0.0000000001
 43
0.0000000001
 44
0.00000001
 40
0.0
 40
0.0
 40
0.0
 40
0.0
 40
0.1045384651148928
 40
0.2092514255745188
 40
0.3087263831703739
 40
0.4083161306373206
 40
0.4883199216075455
 40
0.5682513317405412
 40
0.6382737892084692
 40
0.7082962788127575
 40
0.8338795435410201
 40
0.9595807699288711
 40
1.074624552502329
 40
1.189598319383161
 40
1.189598319383161
 40
1.189598319383161
 40
1.189598319383161
 10
122.9845539941
 20
96.0466565655
 30
0.0
 10
122.951612870073
 20
96.05836298836101
 30
0.0
 10
122.8856756367772
 20
96.08179537441481
 30
0.0
 10
122.7818251626279
 20
96.09013891235826
 30
0.0
 10
122.68093166866
 20
96.07588732314977
 30
0.0
 10
122.5926386233895
 20
96.04485754278238
 30
0.0
 10
122.5161704611038
 20
96.00396273345214
 30
0.0
 10
122.453092424014
 20
95.96015701449201
 30
0.0
 10
122.3967170315488
 20
95.91316436946384
 30
0.0
 10
122.3328904459853
 20
95.85171087936911
 30
0.0
 10
122.2621912143366
 20
95.77099096713538
 30
0.0
 10
122.1903296900541
 20
95.67213323428044
 30
0.0
 10
122.1268646532446
 20
95.57185627509773
 30
0.0
 10
122.0905672693938
 20
95.50429767338129
 30
0.0
 10
122.0724241018
 20
95.4705286547
 30
0.0
 11
122.9845539941
 21
96.0466565655
 31
0.0
 11
122.8846196017255
 21
96.07733893681186
 31
0.0
 11
122.780291630229
 21
96.08630991511086
 31
0.0
 11
122.6817524362544
 21
96.0726976250927
 31
0.0
 11
122.5876424223385
 21
96.04011813643389
 31
0.0
 11
122.5169632947499
 21
96.00263390651085
 31
0.0
 11
122.4511422912854
 21
95.95728386980991
 31
0.0
 11
122.3972770060574
 21
95.91254378043634
 31
0.0
 11
122.3467484616735
 21
95.86406682454148
 31
0.0
 11
122.2637152642622
 21
95.76985087839937
 31
0.0
 11
122.1894042652996
 21
95.66846708408988
 31
0.0
 11
122.1280380970097
 21
95.57115693406314
 31
0.0
 11
122.0724241018
 21
95.4705286547
 31
0.0
  0
SPLINE
  5
E4
330
1F
100
AcDbEntity
  8
0
  6
Continuous
 62
     7
100
AcDbSpline
210
0.0
220
0.0
230
1.0
 70
     8
 71
     3
 72
    17
 73
    13
 74
    11
 42
0.0000000001
 43
0.0000000001
 44
0.00000001
 40
0.0
 40
0.0
 40
0.0
 40
0.0
 40
0.0885985678503828
 40
0.1772066588879186
 40
0.2663651706613235
 40
0.3556835831603699
 40
0.4462764248195705
 40
0.5364496693544725
 40
0.5824215302533667
 40
0.628408715758104
 40
0.6749841995672222
 40
0.7213876902302465
 40
0.7213876902302465
 40
0.7213876902302465
 40
0.7213876902302465
 10
133.4851933157
 20
107.7046726867
 30
0.0
 10
133.4934449857985
 20
107.7330390509477
 30
0.0
 10
133.5099492129421
 20
107.7897748284562
 30
0.0
 10
133.5414897899333
 20
107.8728735988511
 30
0.0
 10
133.5789205865625
 20
107.953756224923
 30
0.0
 10
133.6244305363713
 20
108.031235574452
 30
0.0
 10
133.6788868926066
 20
108.1032624906967
 30
0.0
 10
133.7343258353949
 20
108.155420290343
 30
0.0
 10
133.7850729439937
 20
108.1890599907871
 30
0.0
 10
133.8269258604819
 20
108.2088743620956
 30
0.0
 10
133.8716917939582
 20
108.2221676218004
 30
0.0
 10
133.902720408701
 20
108.223966310409
 30
0.0
 10
133.9182060176
 20
108.2248639911
 30
0.0
 11
133.4851933157
 21
107.7046726867
 31
0.0
 11
133.5110679550732
 21
107.7894088021552
 31
0.0
 11
133.5423845625726
 21
107.8722982700751
 31
0.0
 11
133.5801894822952
 21
107.9530449620595
 31
0.0
 11
133.6256556370776
 21
108.0299254379988
 31
0.0
 11
133.680918294425
 21
108.1017105455267
 31
0.0
 11
133.747171236127
 21
108.1628804870485
 31
0.0
 11
133.7856083871818
 21
108.1880994761896
 31
0.0
 11
133.8272056191392
 21
108.207707931614
 31
0.0
 11
133.8720173924705
 21
108.2204036262761
 31
0.0
 11
133.9182060176
 21
108.2248639911
 31
0.0
  0
SPLINE
  5
E5
330
1F
100
AcDbEntity
  8
0
  6
Continuous
 62
     7
100
AcDbSpline
210
0.0
220
0.0
230
1.0
 70
     8
 71
     3
 72
    11
 73
     7
 74
     5
 42
0.0000000001
 43
0.0000000001
 44
0.00000001
 40
0.0
 40
0.0
 40
0.0
 40
0.0
 40
0.0396067480759816
 40
0.079307894577049
 40
0.2768264669713726
 40
0.4765469382602345
 40
0.4765469382602345
 40
0.4765469382602345
 40
0.4765469382602345
 10
137.2738684503
 20
87.6601304591
 30
0.0
 10
137.2650668755104
 20
87.65026695755938
 30
0.0
 10
137.2474427483241
 20
87.63051644588282
 30
0.0
 10
137.1767719738914
 20
87.57092380298324
 30
0.0
 10
137.0403895945641
 20
87.50668874420124
 30
0.0
 10
136.9076123588476
 20
87.49790750309477
 30
0.0
 10
136.8408557484
 20
87.4934925453
 30
0.0
 11
137.2738684503
 21
87.6601304591
 31
0.0
 11
137.2468097075525
 21
87.63120782204739
 31
0.0
 11
137.2166833625444
 21
87.60535082357586
 31
0.0
 11
137.0389044603975
 21
87.51927964145246
 31
0.0
 11
136.8408557484
 21
87.4934925453
 31
0.0
  0
SPLINE
  5
E6
330
1F
100
AcDbEntity
  8
0
  6
Continuous
 62
     7
100
AcDbSpline
210
0.0
220
0.0
230
1.0
 70
     8
 71
     3
 72
    17
 73
    13
 74
    11
 42
0.0000000001
 43
0.0000000001
 44
0.00000001
 40
0.0
 40
0.0
 40
0.0
 40
0.0
 40
0.0464149716839578
 40
0.0930041340954454
 40
0.1389991043276484
 40
0.1849760066798044
 40
0.2751398215455677
 40
0.3657285223334201
 40
0.4550419001723617
 40
0.5441929285605867
 40
0.6327944775498764
 40
0.721387162243355
 40
0.721387162243355
 40
0.721387162243355
 40
0.721387162243355
 10
136.8408557484
 20
108.2248639911
 30
0.0
 10
136.8563451828929
 20
108.2239640245285
 30
0.0
 10
136.8873821821709
 20
108.2221607139014
 30
0.0
 10
136.9321545414231
 20
108.2088511924752
 30
0.0
 10
136.9740175537924
 20
108.1890395873264
 30
0.0
 10
137.024773393814
 20
108.1554100962395
 30
0.0
 10
137.0802051395632
 20
108.1032463565764
 30
0.0
 10
137.1346417161815
 20
108.0312129924932
 30
0.0
 10
137.1801465713866
 20
107.9537376782086
 30
0.0
 10
137.2175775939013
 20
107.8728621031985
 30
0.0
 10
137.2491149459886
 20
107.7897691513843
 30
0.0
 10
137.265617557382
 20
107.7330372289069
 30
0.0
 10
137.2738684503
 20
107.7046726867
 30
0.0
 11
136.8408557484
 21
108.2248639911
 31
0.0
 11
136.8870550953505
 21
108.2203952174686
 31
0.0
 11
136.931877556188
 21
108.2076870681669
 31
0.0
 11
136.9734834686113
 21
108.1880787704823
 31
0.0
 11
137.0119289894552
 21
108.1628633490712
 31
0.0
 11
137.0781710574568
 21
108.1016955312417
 31
0.0
 11
137.1334191011211
 21
108.0299044009978
 31
0.0
 11
137.1788790067874
 21
107.9530260787099
 31
0.0
 11
137.2166821510932
 21
107.872286818475
 31
0.0
 11
137.2479962423056
 21
107.7894033932631
 31
0.0
 11
137.2738684503
 21
107.7046726867
 31
0.0
  0
SPLINE
  5
E7
330
1F
100
AcDbEntity
  8
0
  6
Continuous
 62
     7
100
AcDbSpline
210
0.0
220
0.0
230
1.0
 70
     8
 71
     3
 72
    23
 73
    19
 74
    17
 42
0.0000000001
 43
0.0000000001
 44
0.00000001
 40
0.0
 40
0.0
 40
0.0
 40
0.0
 40
0.0673001185141868
 40
0.134602978735572
 40
0.1680432783407746
 40
0.201473908382759
 40
0.2346953927542619
 40
0.2679495048875614
 40
0.3010071809257773
 40
0.3339463088833206
 40
0.366337106557314
 40
0.3992515324525283
 40
0.4324467180447626
 40
0.4643835783138651
 40
0.4811819318732903
 40
0.4980291548754217
 40
0.5155418557659595
 40
0.5331155181033422
 40
0.5331155181033422
 40
0.5331155181033422
 40
0.5331155181033422
 10
123.1753915085
 20
122.3418409389
 30
0.0
 10
123.1740541514732
 20
122.3642358042673
 30
0.0
 10
123.1713793829376
 20
122.4090264473356
 30
0.0
 10
123.1658812300554
 20
122.4647879797413
 30
0.0
 10
123.1602394113905
 20
122.5091576620965
 30
0.0
 10
123.1552461087329
 20
122.5421497138188
 30
0.0
 10
123.1493787686374
 20
122.5749360623834
 30
0.0
 10
123.1424081407806
 20
122.6073809426445
 30
0.0
 10
123.1341152221883
 20
122.6394222161626
 30
0.0
 10
123.1242560105461
 20
122.6707133799509
 30
0.0
 10
123.1124616086332
 20
122.7013153580925
 30
0.0
 10
123.0969254173314
 20
122.7303516955201
 30
0.0
 10
123.0772587804054
 20
122.7566799980213
 30
0.0
 10
123.0538105419804
 20
122.772694174822
 30
0.0
 10
123.0319370710644
 20
122.7763439470882
 30
0.0
 10
123.0147513164351
 20
122.7745516016182
 30
0.0
 10
122.9986275047549
 20
122.767575053964
 30
0.0
 10
122.9892505950131
 20
122.7605529240975
 30
0.0
 10
122.9845539941
 20
122.7570357588
 30
0.0
 11
123.1753915085
 21
122.3418409389
 31
0.0
 11
123.1709471394916
 21
122.4089941483255
 31
0.0
 11
123.1643537946184
 21
122.475973270426
 31
0.0
 11
123.1601079277265
 21
122.5091429290318
 31
0.0
 11
123.1550874220849
 21
122.5421944274563
 31
0.0
 11
123.1491929980267
 21
122.5748888121251
 31
0.0
 11
123.1421688876543
 21
122.607392624936
 31
0.0
 11
123.1338295713185
 21
122.6393811501927
 31
0.0
 11
123.1238715010917
 21
122.6707789683966
 31
0.0
 11
123.1119191942666
 21
122.7008838871893
 31
0.0
 11
123.0962673782717
 21
122.7298386810597
 31
0.0
 11
123.0755579707153
 21
122.7557817106662
 31
0.0
 11
123.0484874068196
 21
122.7727271411481
 31
0.0
 11
123.0319331856446
 21
122.7755806378794
 31
0.0
 11
123.0151852102015
 21
122.7737546473424
 31
0.0
 11
122.9990242021563
 21
122.7670080547621
 31
0.0
 11
122.9845539941
 21
122.7570357588
 31
0.0
  0
SPLINE
  5
E8
330
1F
100
AcDbEntity
  8
0
  6
Continuous
 62
     7
100
AcDbSpline
210
0.0
220
0.0
230
1.0
 70
     8
 71
     3
 72
     9
 73
     5
 74
     3
 42
0.0000000001
 43
0.0000000001
 44
0.00000001
 40
0.0
 40
0.0
 40
0.0
 40
0.0
 40
0.0713008007821513
 40
0.142598901418933
 40
0.142598901418933
 40
0.142598901418933
 40
0.142598901418933
 10
123.1794089296
 20
122.1993079656
 30
0.0
 10
123.1791468154871
 20
122.2230753959307
 30
0.0
 10
123.1786225971875
 20
122.2706093565246
 30
0.0
 10
123.1764685244665
 20
122.3180973778407
 30
0.0
 10
123.1753915085
 20
122.3418409389
 30
0.0
 11
123.1794089296
 21
122.1993079656
 31
0.0
 11
123.178215108225
 21
122.2705987713375
 31
0.0
 11
123.1753915085
 21
122.3418409389
 31
0.0
  0
SPLINE
  5
E9
330
1F
100
AcDbEntity
  8
0
  6
Continuous
 62
     7
100
AcDbSpline
210
0.0
220
0.0
230
1.0
 70
     8
 71
     3
 72
    13
 73
     9
 74
     7
 42
0.0000000001
 43
0.0000000001
 44
0.00000001
 40
0.0
 40
0.0
 40
0.0
 40
0.0
 40
0.705970884346327
 40
1.412231769510273
 40
2.201489765440068
 40
2.990772518945398
 40
4.758700584048574
 40
6.526717397146268
 40
6.526717397146268
 40
6.526717397146268
 40
6.526717397146268
 10
121.6325596339
 20
132.2638567383
 30
0.0
 10
121.5937396000911
 20
132.0316964218164
 30
0.0
 10
121.5160835858643
 20
131.5672804213446
 30
0.0
 10
121.4437995525399
 20
130.8365751468127
 30
0.0
 10
121.3989188081752
 20
130.0761184275702
 30
0.0
 10
121.3803162358712
 20
128.9606066871274
 30
0.0
 10
121.4304181192182
 20
127.5179390639
 30
0.0
 10
121.5651780015687
 20
126.3466846525291
 30
0.0
 10
121.6325596339
 20
125.7610427483
 30
0.0
 11
121.6325596339
 21
132.2638567383
 31
0.0
 11
121.5239179684825
 21
131.5662953588644
 31
0.0
 11
121.4509243133202
 21
130.8638166302053
 31
0.0
 11
121.4044772815832
 21
130.0759264999321
 31
0.0
 11
121.3899325147614
 21
129.2867777720366
 31
0.0
 11
121.4538661057957
 21
127.5200061005077
 31
0.0
 11
121.6325596339
 21
125.7610427483
 31
0.0
  0
SPLINE
  5
EA
330
1F
100
AcDbEntity
  8
0
  6
Continuous
 62
     7
100
AcDbSpline
210
0.0
220
0.0
230
1.0
 70
     8
 71
     3
 72
    27
 73
    23
 74
    21
 42
0.0000000001
 43
0.0000000001
 44
0.00000001
 40
0.0
 40
0.0
 40
0.0
 40
0.0
 40
0.198418774438904
 40
0.3968374365354042
 40
0.502976939782706
 40
0.6091160619713945
 40
0.7197506973272942
 40
0.8303871006989341
 40
0.9454468408808058
 40
1.060500806708191
 40
1.179956515050767
 40
1.299443223355009
 40
1.360928421954543
 40
1.422345300190167
 40
1.484949305654848
 40
1.547805801693883
 40
1.612731563732885
 40
1.676696646139612
 40
1.709481594170143
 40
1.743841351772957
 40
1.784580073363701
 40
1.821170232113449
 40
1.821170232113449
 40
1.821170232113449
 40
1.821170232113449
 10
121.1795939721
 20
134.0316160543
 30
0.0
 10
121.1795923137465
 20
133.9654764650753
 30
0.0
 10
121.1795889970406
 20
133.8331973240732
 30
0.0
 10
121.1800532094624
 20
133.6655384131946
 30
0.0
 10
121.181034324978
 20
133.5286424999225
 30
0.0
 10
121.1823159707348
 20
133.4210118508165
 30
0.0
 10
121.1843311862205
 20
133.3118926252826
 30
0.0
 10
121.1874055055862
 20
133.1998227177885
 30
0.0
 10
121.1918197974251
 20
133.0863218024433
 30
0.0
 10
121.198086713632
 20
132.969962239969
 30
0.0
 10
121.2066179640343
 20
132.8522631779252
 30
0.0
 10
121.2164923961216
 20
132.7525916284112
 30
0.0
 10
121.2265143266561
 20
132.6724145697214
 30
0.0
 10
121.2354474285097
 20
132.611223709862
 30
0.0
 10
121.2459380436974
 20
132.5498097245728
 30
0.0
 10
121.2588633532641
 20
132.4876680217206
 30
0.0
 10
121.2747569801094
 20
132.4256998866483
 30
0.0
 10
121.2915269517663
 20
132.3745152235242
 30
0.0
 10
121.3078735224411
 20
132.3337687892041
 30
0.0
 10
121.325413917913
 20
132.3027992778388
 30
0.0
 10
121.3470820361634
 20
132.2701427847129
 30
0.0
 10
121.3725182106128
 20
132.2625976743945
 30
0.0
 10
121.3845539941
 20
132.2590275104
 30
0.0
 11
121.1795939721
 21
134.0316160543
 31
0.0
 11
121.1796813895455
 21
133.8331972991179
 31
0.0
 11
121.1803278815628
 21
133.6347796902314
 31
0.0
 11
121.1811181819516
 21
133.5286431292598
 31
0.0
 11
121.1824117326702
 21
133.4225118898176
 31
0.0
 11
121.1844963373201
 21
133.3118968955185
 31
0.0
 11
121.1875719144692
 21
133.2013032493348
 31
0.0
 11
121.1921059696649
 21
133.0863328785682
 31
0.0
 11
121.1983562099644
 21
132.9714488085289
 31
0.0
 11
121.2071408488262
 21
132.8523165443193
 31
0.0
 11
121.2190676704039
 21
132.7334265767508
 31
0.0
 11
121.2267265878348
 21
132.6724202604335
 31
0.0
 11
121.2356330017281
 21
132.6116525986077
 31
0.0
 11
121.2462910396784
 21
132.5499625043683
 31
0.0
 11
121.2591866128085
 21
132.4884430498198
 31
0.0
 11
121.2755180979218
 21
132.4256048673959
 31
0.0
 11
121.2956472182214
 21
132.3648895457442
 31
0.0
 11
121.3082840101411
 21
132.334637863025
 31
0.0
 11
121.324870695649
 21
132.3045467545977
 31
0.0
 11
121.3507827703132
 21
132.2731109816082
 31
0.0
 11
121.3845539941
 21
132.2590275104
 31
0.0
  0
SPLINE
  5
EB
330
1F
100
AcDbEntity
  8
0
  6
Continuous
 62
     7
100
AcDbSpline
210
0.0
220
0.0
230
1.0
 70
     8
 71
     3
 72
    35
 73
    31
 74
    29
 42
0.0000000001
 43
0.0000000001
 44
0.00000001
 40
0.0
 40
0.0
 40
0.0
 40
0.0
 40
0.0224671170017016
 40
0.0469716776464824
 40
0.0706451029433166
 40
0.0934198434864744
 40
0.139410166305301
 40
0.1859681376064672
 40
0.2323174995380055
 40
0.2785095837243768
 40
0.324793127299263
 40
0.3711204776915848
 40
0.463892173941117
 40
0.5566437642165747
 40
0.6496253658548494
 40
0.7426109214379589
 40
0.8358149912497373
 40
0.9290178383141523
 40
1.022429258382282
 40
1.115841003200514
 40
1.30322332565301
 40
1.490608110753092
 40
1.678620804185871
 40
1.866632541221352
 40
2.055121153256347
 40
2.243609949399355
 40
2.432418417580502
 40
2.621226802609231
 40
2.810196206229659
 40
2.999165615178394
 40
2.999165615178394
 40
2.999165615178394
 40
2.999165615178394
 10
121.3845539941
 20
125.7600284924
 30
0.0
 10
121.3771592959946
 20
125.7579686839054
 30
0.0
 10
121.361699307262
 20
125.7536622719785
 30
0.0
 10
121.3466559486292
 20
125.7342088607782
 30
0.0
 10
121.3341421723709
 20
125.714370223581
 30
0.0
 10
121.3215420008315
 20
125.6861032834959
 30
0.0
 10
121.3083116897803
 20
125.6500267708509
 30
0.0
 10
121.2953292968576
 20
125.6055426428947
 30
0.0
 10
121.2843347362184
 20
125.5604920605889
 30
0.0
 10
121.2749231021179
 20
125.5151765440272
 30
0.0
 10
121.2665553283091
 20
125.469669077395
 30
0.0
 10
121.2565603330897
 20
125.4086854022324
 30
0.0
 10
121.245889334784
 20
125.3321303568653
 30
0.0
 10
121.2353542118831
 20
125.2398889344747
 30
0.0
 10
121.2264344513688
 20
125.1474079470017
 30
0.0
 10
121.2188749251399
 20
125.0546556301615
 30
0.0
 10
121.2124322792919
 20
124.9617460122091
 30
0.0
 10
121.2069436041822
 20
124.8686334819022
 30
0.0
 10
121.202253528002
 20
124.7754083775608
 30
0.0
 10
121.1969176750522
 20
124.6507864970112
 30
0.0
 10
121.1917259491984
 20
124.4948094895276
 30
0.0
 10
121.187344416874
 20
124.3072653700119
 30
0.0
 10
121.1842986474948
 20
124.1194857676523
 30
0.0
 10
121.1822875397558
 20
123.9313248243377
 30
0.0
 10
121.1810118167257
 20
123.7429990922123
 30
0.0
 10
121.1802716055263
 20
123.5544050908026
 30
0.0
 10
121.1798667789487
 20
123.3657035822246
 30
0.0
 10
121.1796828108461
 20
123.1768415644692
 30
0.0
 10
121.1796017746805
 20
122.9879258446431
 30
0.0
 10
121.1795965729602
 20
122.8619462396064
 30
0.0
 10
121.1795939721
 20
122.7989564362
 30
0.0
 11
121.3845539941
 21
125.7600284924
 31
0.0
 11
121.3636185283073
 21
125.7518751116037
 31
0.0
 11
121.3469348210779
 21
125.733927203495
 31
0.0
 11
121.3344670154599
 21
125.7138029671528
 31
0.0
 11
121.3248692991727
 21
125.6931493319067
 31
0.0
 11
121.3088626134046
 21
125.6500344179708
 31
0.0
 11
121.2956463824585
 21
125.6053916589694
 31
0.0
 11
121.2845833718387
 21
125.5603819583762
 31
0.0
 11
121.275102575295
 21
125.5151732961711
 31
0.0
 11
121.2667053070284
 21
125.4696578889829
 31
0.0
 11
121.2591861446033
 21
125.4239448099923
 31
0.0
 11
121.2462687166116
 21
125.3320768194891
 31
0.0
 11
121.2356327030342
 21
125.2399370739185
 31
0.0
 11
121.2266635063553
 21
125.1473890768891
 31
0.0
 11
121.2190674761873
 21
125.0547143021509
 31
0.0
 11
121.2125927656453
 21
124.9617353972698
 31
0.0
 11
121.2070811253822
 21
124.8686956610142
 31
0.0
 11
121.2023698100956
 21
124.7754031269752
 31
0.0
 11
121.1983561231591
 21
124.6820776514224
 31
0.0
 11
121.1920354996517
 21
124.4948019602978
 31
0.0
 11
121.187571878764
 21
124.3074703458395
 31
0.0
 11
121.1844719349883
 21
124.1194832100019
 31
0.0
 11
121.1824117227058
 21
123.9314827610969
 31
0.0
 11
121.1811013182452
 21
123.7429987041928
 31
0.0
 11
121.1803278803472
 21
123.5545114949046
 31
0.0
 11
121.1799036354577
 21
123.3657035033545
 31
0.0
 11
121.1797000100958
 21
123.1768952281284
 31
0.0
 11
121.1796139841157
 21
122.9879258440891
 31
0.0
 11
121.1795939721
 21
122.7989564362
 31
0.0
  0
SPLINE
  5
EC
330
1F
100
AcDbEntity
  8
0
  6
Continuous
 62
     7
100
AcDbSpline
210
0.0
220
0.0
230
1.0
 70
     8
 71
     3
 72
    17
 73
    13
 74
    11
 42
0.0000000001
 43
0.0000000001
 44
0.00000001
 40
0.0
 40
0.0
 40
0.0
 40
0.0
 40
0.0464036383759413
 40
0.0929793006390087
 40
0.138966675529385
 40
0.1849386862362133
 40
0.2751119357058001
 40
0.3657048668284794
 40
0.4550230514071412
 40
0.5441812924711604
 40
0.6327892352162219
 40
0.7213876676158628
 40
0.7213876676158628
 40
0.7213876676158628
 40
0.7213876676158628
 10
133.9182060176
 20
126.9233066201
 30
0.0
 10
133.9027203594909
 20
126.924204331418
 30
0.0
 10
133.8716916360693
 20
126.9260030819782
 30
0.0
 10
133.8269255923541
 20
126.93929656359
 30
0.0
 10
133.7850724882309
 20
126.9591109150027
 30
0.0
 10
133.7343251848056
 20
126.9927505449731
 30
0.0
 10
133.6788863099318
 20
127.0449085761981
 30
0.0
 10
133.624430289245
 20
127.1169356762981
 30
0.0
 10
133.5789204362507
 20
127.1944149119182
 30
0.0
 10
133.5414896480605
 20
127.275297305714
 30
0.0
 10
133.5099491555225
 20
127.3583959120825
 30
0.0
 10
133.4934449670576
 20
127.4151316020615
 30
0.0
 10
133.4851933157
 20
127.4434979246
 30
0.0
 11
133.9182060176
 21
126.9233066201
 31
0.0
 11
133.8720172548704
 21
126.92776709676
 31
0.0
 11
133.8272053417974
 21
126.9404629528549
 31
0.0
 11
133.7856079146088
 21
126.9600714382781
 31
0.0
 11
133.7471705892048
 21
126.9852904347732
 31
0.0
 11
133.6809177574677
 21
127.0464605026718
 31
0.0
 11
133.6256552840359
 21
127.1182458646867
 31
0.0
 11
133.5801893034217
 21
127.1951261788328
 31
0.0
 11
133.5423844509982
 21
127.2758726034154
 31
0.0
 11
133.5110678971559
 21
127.3587619330843
 31
0.0
 11
133.4851933157
 21
127.4434979246
 31
0.0
  0
SPLINE
  5
ED
330
1F
100
AcDbEntity
  8
0
  6
Continuous
 62
     7
100
AcDbSpline
210
0.0
220
0.0
230
1.0
 70
     8
 71
     3
 72
    25
 73
    21
 74
    19
 42
0.0000000001
 43
0.0000000001
 44
0.00000001
 40
0.0
 40
0.0
 40
0.0
 40
0.0
 40
0.1793610638710958
 40
0.3587208534027549
 40
0.4410790500736296
 40
0.5234388828664631
 40
0.6008758166054705
 40
0.6783083637833228
 40
0.7508835457254981
 40
0.8234768974153885
 40
0.8916244426348192
 40
0.9597247318309599
 40
0.992510873482361
 40
1.025318331989864
 40
1.057978320254502
 40
1.090556239574432
 40
1.124615443918066
 40
1.15914555556889
 40
1.211877750092056
 40
1.262623468692035
 40
1.262623468692035
 40
1.262623468692035
 40
1.262623468692035
 10
121.1795939721
 20
95.8916834264
 30
0.0
 10
121.1795800102216
 20
95.83189642172663
 30
0.0
 10
121.1795520865641
 20
95.71232283715955
 30
0.0
 10
121.1799958741525
 20
95.5652963247853
 30
0.0
 10
121.180998234924
 20
95.45060762383561
 30
0.0
 10
121.1822493654407
 20
95.36989813837023
 30
0.0
 10
121.1842403107719
 20
95.29084494190371
 30
0.0
 10
121.1872528926278
 20
95.2150864532899
 30
0.0
 10
121.1916197107826
 20
95.14100837563042
 30
0.0
 10
121.1977811243473
 20
95.07015829430718
 30
0.0
 10
121.2063046225501
 20
95.00104885742178
 30
0.0
 10
121.2161949159069
 20
94.94553614066258
 30
0.0
 10
121.2263630183523
 20
94.90213521165737
 30
0.0
 10
121.2353167135674
 20
94.87061772534136
 30
0.0
 10
121.2460575017425
 20
94.83972178595432
 30
0.0
 10
121.2590002308827
 20
94.8092549458564
 30
0.0
 10
121.2745970278749
 20
94.77920281036103
 30
0.0
 10
121.2984473308297
 20
94.74664103816568
 30
0.0
 10
121.3334379709573
 20
94.71409769782997
 30
0.0
 10
121.3677347861915
 20
94.70678571907906
 30
0.0
 10
121.3845539941
 20
94.7031999141
 30
0.0
 11
121.1795939721
 21
95.8916834264
 31
0.0
 11
121.1796492989834
 21
95.71232237106214
 31
0.0
 11
121.1803278815157
 21
95.53296386519585
 31
0.0
 11
121.1810910251786
 21
95.4506092043039
 31
0.0
 11
121.1824117326221
 21
95.36825996150525
 31
0.0
 11
121.1844282477017
 21
95.29084928799162
 31
0.0
 11
121.1875719144031
 21
95.2134805816426
 31
0.0
 11
121.1919555793896
 21
95.14103791110081
 31
0.0
 11
121.1983562099104
 21
95.06872728505935
 31
0.0
 11
121.2069097769351
 21
95.00111867310356
 31
0.0
 11
121.2190676703993
 21
94.93411244193726
 31
0.0
 11
121.226608414914
 21
94.90220526004119
 31
0.0
 11
121.2356330017441
 21
94.87066344388758
 31
0.0
 11
121.2464064901898
 21
94.83983153217007
 31
0.0
 11
121.2591866127714
 21
94.8098650626747
 31
0.0
 11
121.2752418500669
 21
94.77982744033362
 31
0.0
 11
121.2956472181671
 21
94.75197156907974
 31
0.0
 11
121.3360349797615
 21
94.71806709957167
 31
0.0
 11
121.3845539941
 21
94.7031999141
 31
0.0
  0
SPLINE
  5
EE
330
1F
100
AcDbEntity
  8
FASEN
  6
Continuous
 62
     7
100
AcDbSpline
210
0.0
220
0.0
230
1.0
 70
     8
 71
     3
 72
    19
 73
    15
 74
    13
 42
0.0000000001
 43
0.0000000001
 44
0.00000001
 40
0.0
 40
0.0
 40
0.0
 40
0.0
 40
0.0027107037548002
 40
0.0054659931686935
 40
0.0136658057259858
 40
0.021815357499521
 40
0.0354192342703563
 40
0.0490506311404107
 40
0.0680941272024833
 40
0.0871248690905821
 40
0.1411923575458523
 40
0.1952725685980514
 40
0.2702326325220833
 40
0.345188861378331
 40
0.345188861378331
 40
0.345188861378331
 40
0.345188861378331
 10
140.6019744839
 20
149.074050794
 30
0.0
 10
140.6010685928186
 20
149.0740054286068
 30
0.0
 10
140.5992419105581
 20
149.0739139516502
 30
0.0
 10
140.5948557519889
 20
149.0726093451762
 30
0.0
 10
140.5885750737055
 20
149.0715218018154
 30
0.0
 10
140.5786682231167
 20
149.0702797461554
 30
0.0
 10
140.567021119033
 20
149.0683995208668
 30
0.0
 10
140.5518424345628
 20
149.0656490497324
 30
0.0
 10
140.5348448787826
 20
149.0627928211428
 30
0.0
 10
140.5045229982003
 20
149.0579021386281
 30
0.0
 10
140.462689095587
 20
149.0510401334119
 30
0.0
 10
140.4024619359702
 20
149.0411370688581
 30
0.0
 10
140.3353234777581
 20
149.0303528533957
 30
0.0
 10
140.285960214225
 20
149.0225760137131
 30
0.0
 10
140.261279213849
 20
149.018687693343
 30
0.0
 11
140.6019744839
 21
149.074050794
 31
0.0
 11
140.5992745980033
 21
149.0738088622092
 31
0.0
 11
140.5965978187285
 21
149.0731558136139
 31
0.0
 11
140.5885503556705
 21
149.0715825163419
 31
0.0
 11
140.5804770575315
 21
149.0704702882774
 31
0.0
 11
140.5670381384155
 21
149.0683582001662
 31
0.0
 11
140.5536132315362
 21
149.0659945470798
 31
0.0
 11
140.5348374313281
 21
149.0628127128904
 31
0.0
 11
140.516053539636
 21
149.0597574633569
 31
0.0
 11
140.4626938795443
 21
149.0510373726028
 31
0.0
 11
140.4093251473988
 21
149.0422939375437
 31
0.0
 11
140.3353163519162
 21
149.0303897628678
 31
0.0
 11
140.261279213849
 21
149.018687693343
 31
0.0
  0
SPLINE
  5
EF
330
1F
100
AcDbEntity
  8
ACHSEN
  6
Continuous
 62
     7
100
AcDbSpline
210
0.0
220
0.0
230
1.0
 70
     8
 71
     3
 72
    15
 73
    11
 74
     9
 42
0.0000000001
 43
0.0000000001
 44
0.00000001
 40
0.0
 40
0.0
 40
0.0
 40
0.0
 40
0.7036199271031397
 40
1.407365568559901
 40
2.995285720767791
 40
4.583299557680223
 40
6.171264475928218
 40
7.759111163584512
 40
8.458270837225603
 40
9.157317424743251
 40
9.157317424743251
 40
9.157317424743251
 40
9.157317424743251
 10
112.5588922163
 20
137.977603641
 30
0.0
 10
112.3268798403934
 20
137.9432114583667
 30
0.0
 10
111.8628136353969
 20
137.8744209483181
 30
0.0
 10
110.8719103178597
 20
137.7514788854579
 30
0.0
 10
109.5839285874756
 20
137.630506838905
 30
0.0
 10
107.9972821345287
 20
137.5534406050816
 30
0.0
 10
106.4087843831948
 20
137.5491561683921
 30
0.0
 10
105.1178900090446
 20
137.6051413909796
 30
0.0
 10
104.1252062618736
 20
137.6790375413285
 30
0.0
 10
103.6614101721036
 20
137.7251752961746
 30
0.0
 10
103.429530883
 20
137.7482423078
 30
0.0
 11
112.5588922163
 21
137.977603641
 31
0.0
 11
111.8624751982515
 21
137.877182832454
 31
0.0
 11
111.1641629856788
 21
137.7899017827285
 31
0.0
 11
109.5831063538665
 21
137.6424218288688
 31
0.0
 11
107.9969531951623
 21
137.5655706521832
 31
0.0
 11
106.4089939072884
 21
137.561341983178
 31
0.0
 11
104.8226036555588
 21
137.6293351645882
 31
0.0
 11
104.1254246445232
 21
137.6819248576599
 31
0.0
 11
103.429530883
 21
137.7482423078
 31
0.0
  0
MTEXT
  5
113
330
1F
100
AcDbEntity
  8
0
 62
     5
100
AcDbMText
 10
16.4016180281
 20
88.2044236169
 30
0.0
 40
3.5
 41
0.0
 71
     1
 72
     1
  3
F\U+00fcr diese Unterlage behalten wir das Ur-\Pheberrecht. Sie darf nur f\U+00fcr den von uns \Pbestimmten Zweck benutzt und ohne unsere \PZustimmung weder vervielf\U+00e4ltigt noch\PDritten zug\U+00e4nglich gemacht werden\P \PWe own the copyright 
  3
of this document. It \Pdetermined and may neither be copied or \Pmade accessible to outsiders without our\Ppermission.\P \PCe plan reste notre propri\U+00e9t\U+00e9. Il ne peut\P\U+00eatre utilis\U+00e9, copi\U+00e9 ou reproduit sans notre\Paccord.\
  7
CONVERTER_11
 73
     1
 44
1.0
  0
DIMENSION
  5
11E
330
1F
100
AcDbEntity
  8
0
100
AcDbDimension
  2
*D1
 10
253.379530883
 20
174.4665727636
 30
0.0
 11
188.379530883
 21
178.8415727636
 31
0.0
 70
    32
  1
130
 71
     5
 42
-1.0
 53
0.00013888888889
  3
ME10_DIM_10
100
AcDbAlignedDimension
 13
123.379530883
 23
156.7151492798
 33
0.0
 14
253.379530883
 24
129.5849836905
 34
0.0
100
AcDbRotatedDimension
  0
DIMENSION
  5
129
330
1F
100
AcDbEntity
  8
0
100
AcDbDimension
  2
*D2
 10
265.3865683369
 20
109.5740853056
 30
0.0
 11
261.0115683369
 21
117.5740853056
 31
0.0
 70
    32
  1
{\Fgdt;n}16
 71
     5
 42
-1.0
 53
90.0
  3
ME10_DIM_11
100
AcDbAlignedDimension
 13
244.279530883
 23
125.5740853056
 33
0.0
 14
244.279530883
 24
109.5740853056
 34
0.0
 50
90.0
100
AcDbRotatedDimension
  0
DIMENSION
  5
134
330
1F
100
AcDbEntity
  8
0
100
AcDbDimension
  2
*D3
 10
242.779530883
 20
165.6478238385
 30
0.0
 11
183.079530883
 21
170.0228238385
 31
0.0
 70
    32
  1
119.4
 71
     5
 42
-1.0
 53
0.00013888888889
  3
ME10_DIM_12
100
AcDbAlignedDimension
 13
123.379530883
 23
150.4003794913
 33
0.0
 14
242.779530883
 24
108.2365853056
 34
0.0
100
AcDbRotatedDimension
  0
DIMENSION
  5
13F
330
1F
100
AcDbEntity
  8
0
100
AcDbDimension
  2
*D4
 10
273.9987556045
 20
131.5490853056
 30
0.0
 11
269.6237556045
 21
117.5740853056
 31
0.0
 70
    32
  1
{\Fgdt;n}28
 71
     5
 42
-1.0
 53
90.0
  3
ME10_DIM_13
100
AcDbAlignedDimension
 13
226.642030883
 23
103.5990853056
 33
0.0
 14
226.642030883
 24
131.5490853056
 34
0.0
 50
90.0
100
AcDbRotatedDimension
  0
DIMENSION
  5
14A
330
1F
100
AcDbEntity
  8
0
100
AcDbDimension
  2
*D5
 10
242.779530883
 20
181.8938652535
 30
0.0
 11
164.079530883
 21
186.2688652535
 31
0.0
 70
    32
  1
157.4
 71
     5
 42
-1.0
 53
0.00013888888889
  3
ME10_DIM_14
100
AcDbAlignedDimension
 13
85.379530883
 23
98.8879695363
 33
0.0
 14
242.779530883
 24
108.2365853056
 34
0.0
100
AcDbRotatedDimension
  0
DIMENSION
  5
155
330
1F
100
AcDbEntity
  8
0
100
AcDbDimension
  2
*D6
 10
242.779530883
 20
155.5384868281
 30
0.0
 11
194.079530883
 21
159.9134868281
 31
0.0
 70
    32
  1
97.4
 71
     5
 42
-1.0
 53
0.00013888888889
  3
ME10_DIM_15
100
AcDbAlignedDimension
 13
145.379530883
 23
150.1664991288
 33
0.0
 14
242.779530883
 24
108.2365853056
 34
0.0
100
AcDbRotatedDimension
  0
ENDSEC
  0
SECTION
  2
OBJECTS
  0
DICTIONARY
  5
C
330
0
100
AcDbDictionary
281
     1
  3
ACAD_GROUP
350
D
  3
ACAD_LAYOUT
350
1A
  3
ACAD_MLEADERSTYLE
350
158
  3
ACAD_MLINESTYLE
350
17
  3
ACAD_PLOTSETTINGS
350
19
  3
ACAD_PLOTSTYLENAME
350
E
  3
ACAD_SCALELIST
350
F1
  3
ACAD_VISUALSTYLE
350
2A
  3
AcDbVariableDictionary
350
156
  0
DICTIONARY
  5
D
102
{ACAD_REACTORS
330
C
102
}
330
C
100
AcDbDictionary
281
     1
  0
DICTIONARY
  5
1A
102
{ACAD_REACTORS
330
C
102
}
330
C
100
AcDbDictionary
281
     1
  3
Layout1
350
1E
  3
Layout2
350
26
  3
Model
350
22
  0
DICTIONARY
  5
158
102
{ACAD_REACTORS
330
C
102
}
330
C
100
AcDbDictionary
281
     1
  0
DICTIONARY
  5
17
102
{ACAD_REACTORS
330
C
102
}
330
C
100
AcDbDictionary
281
     1
  3
Standard
350
18
  0
DICTIONARY
  5
19
102
{ACAD_REACTORS
330
C
102
}
330
C
100
AcDbDictionary
281
     1
  0
ACDBDICTIONARYWDFLT
  5
E
102
{ACAD_REACTORS
330
C
102
}
330
C
100
AcDbDictionary
281
     1
  3
Normal
350
F
100
AcDbDictionaryWithDefault
340
F
  0
DICTIONARY
  5
F1
102
{ACAD_REACTORS
330
C
102
}
330
C
100
AcDbDictionary
281
     1
  3
A0
350
F2
  3
A1
350
F3
  3
A2
350
F4
  3
A3
350
F5
  3
A4
350
F6
  3
A5
350
F7
  3
A6
350
F8
  3
A7
350
F9
  3
A8
350
FA
  3
A9
350
FB
  3
B0
350
FC
  3
B1
350
FD
  3
B2
350
FE
  3
B3
350
FF
  3
B4
350
100
  3
B5
350
101
  3
B6
350
102
  3
B7
350
103
  3
B8
350
104
  3
B9
350
105
  3
C0
350
106
  3
C1
350
107
  3
C2
350
108
  3
C3
350
109
  3
C4
350
10A
  3
C5
350
10B
  3
C6
350
10C
  3
C7
350
10D
  3
C8
350
10E
  3
C9
350
10F
  3
D0
350
110
  3
D1
350
111
  3
D2
350
112
  0
DICTIONARY
  5
2A
102
{ACAD_REACTORS
330
C
102
}
330
C
100
AcDbDictionary
281
     1
  3
2dWireframe
350
2F
  3
3D Hidden
350
31
  3
3dWireframe
350
30
  3
Basic
350
32
  3
Brighten
350
36
  3
ColorChange
350
3A
  3
Conceptual
350
34
  3
Dim
350
35
  3
Facepattern
350
39
  3
Flat
350
2B
  3
FlatWithEdges
350
2C
  3
Gouraud
350
2D
  3
GouraudWithEdges
350
2E
  3
Linepattern
350
38
  3
Realistic
350
33
  3
Thicken
350
37
  0
DICTIONARY
  5
156
102
{ACAD_REACTORS
330
C
102
}
330
C
100
AcDbDictionary
281
     1
  3
CANNOSCALE
350
159
  0
LAYOUT
  5
1E
102
{ACAD_REACTORS
330
1A
102
}
330
1A
100
AcDbPlotSettings
  1

  2
none_device
  4

  6

 40
0.0
 41
0.0
 42
0.0
 43
0.0
 44
0.0
 45
0.0
 46
0.0
 47
0.0
 48
0.0
 49
0.0
140
0.0
141
0.0
142
1.0
143
1.0
 70
   688
 72
     0
 73
     0
 74
     5
  7

 75
    16
147
1.0
148
0.0
149
0.0
100
AcDbLayout
  1
Layout1
 70
     1
 71
     1
 10
0.0
 20
0.0
 11
12.0
 21
9.0
 12
0.0
 22
0.0
 32
0.0
 14
1.00000000000000E+20
 24
1.00000000000000E+20
 34
1.00000000000000E+20
 15
-1.00000000000000E+20
 25
-1.00000000000000E+20
 35
-1.00000000000000E+20
146
0.0
 13
0.0
 23
0.0
 33
0.0
 16
1.0
 26
0.0
 36
0.0
 17
0.0
 27
1.0
 37
0.0
 76
     0
330
1B
  0
LAYOUT
  5
26
102
{ACAD_REACTORS
330
1A
102
}
330
1A
100
AcDbPlotSettings
  1

  2
none_device
  4

  6

 40
0.0
 41
0.0
 42
0.0
 43
0.0
 44
0.0
 45
0.0
 46
0.0
 47
0.0
 48
0.0
 49
0.0
140
0.0
141
0.0
142
1.0
143
1.0
 70
   688
 72
     0
 73
     0
 74
     5
  7

 75
    16
147
1.0
148
0.0
149
0.0
100
AcDbLayout
  1
Layout2
 70
     1
 71
     2
 10
0.0
 20
0.0
 11
0.0
 21
0.0
 12
0.0
 22
0.0
 32
0.0
 14
0.0
 24
0.0
 34
0.0
 15
0.0
 25
0.0
 35
0.0
146
0.0
 13
0.0
 23
0.0
 33
0.0
 16
1.0
 26
0.0
 36
0.0
 17
0.0
 27
1.0
 37
0.0
 76
     0
330
23
  0
LAYOUT
  5
22
102
{ACAD_REACTORS
330
1A
102
}
330
1A
100
AcDbPlotSettings
  1

  2
none_device
  4

  6

 40
0.0
 41
0.0
 42
0.0
 43
0.0
 44
0.0
 45
0.0
 46
0.0
 47
0.0
 48
0.0
 49
0.0
140
0.0
141
0.0
142
1.0
143
1.0
 70
  1712
 72
     0
 73
     0
 74
     0
  7

 75
     0
147
1.0
148
0.0
149
0.0
100
AcDbLayout
  1
Model
 70
     1
 71
     0
 10
0.0
 20
0.0
 11
12.0
 21
9.0
 12
0.0
 22
0.0
 32
0.0
 14
0.0
 24
0.0
 34
0.0
 15
297.0
 25
210.0
 35
0.0
146
0.0
 13
0.0
 23
0.0
 33
0.0
 16
1.0
 26
0.0
 36
0.0
 17
0.0
 27
1.0
 37
0.0
 76
     0
330
1F
331
29
  0
MLINESTYLE
  5
18
102
{ACAD_REACTORS
330
17
102
}
330
17
100
AcDbMlineStyle
  2
Standard
 70
     0
  3

 62
   256
 51
90.0
 52
90.0
 71
     2
 49
0.5
 62
   256
  6
BYLAYER
 49
-0.5
 62
   256
  6
BYLAYER
  0
ACDBPLACEHOLDER
  5
F
102
{ACAD_REACTORS
330
E
102
}
330
E
  0
SCALE
  5
F2
102
{ACAD_REACTORS
330
F1
102
}
330
F1
100
AcDbScale
 70
     0
300
1:1
140
1.0
141
1.0
290
     1
  0
SCALE
  5
F3
102
{ACAD_REACTORS
330
F1
102
}
330
F1
100
AcDbScale
 70
     0
300
1:2
140
1.0
141
2.0
290
     0
  0
SCALE
  5
F4
102
{ACAD_REACTORS
330
F1
102
}
330
F1
100
AcDbScale
 70
     0
300
1:4
140
1.0
141
4.0
290
     0
  0
SCALE
  5
F5
102
{ACAD_REACTORS
330
F1
102
}
330
F1
100
AcDbScale
 70
     0
300
1:5
140
1.0
141
5.0
290
     0
  0
SCALE
  5
F6
102
{ACAD_REACTORS
330
F1
102
}
330
F1
100
AcDbScale
 70
     0
300
1:8
140
1.0
141
8.0
290
     0
  0
SCALE
  5
F7
102
{ACAD_REACTORS
330
F1
102
}
330
F1
100
AcDbScale
 70
     0
300
1:10
140
1.0
141
10.0
290
     0
  0
SCALE
  5
F8
102
{ACAD_REACTORS
330
F1
102
}
330
F1
100
AcDbScale
 70
     0
300
1:16
140
1.0
141
16.0
290
     0
  0
SCALE
  5
F9
102
{ACAD_REACTORS
330
F1
102
}
330
F1
100
AcDbScale
 70
     0
300
1:20
140
1.0
141
20.0
290
     0
  0
SCALE
  5
FA
102
{ACAD_REACTORS
330
F1
102
}
330
F1
100
AcDbScale
 70
     0
300
1:30
140
1.0
141
30.0
290
     0
  0
SCALE
  5
FB
102
{ACAD_REACTORS
330
F1
102
}
330
F1
100
AcDbScale
 70
     0
300
1:40
140
1.0
141
40.0
290
     0
  0
SCALE
  5
FC
102
{ACAD_REACTORS
330
F1
102
}
330
F1
100
AcDbScale
 70
     0
300
1:50
140
1.0
141
50.0
290
     0
  0
SCALE
  5
FD
102
{ACAD_REACTORS
330
F1
102
}
330
F1
100
AcDbScale
 70
     0
300
1:100
140
1.0
141
100.0
290
     0
  0
SCALE
  5
FE
102
{ACAD_REACTORS
330
F1
102
}
330
F1
100
AcDbScale
 70
     0
300
2:1
140
2.0
141
1.0
290
     0
  0
SCALE
  5
FF
102
{ACAD_REACTORS
330
F1
102
}
330
F1
100
AcDbScale
 70
     0
300
4:1
140
4.0
141
1.0
290
     0
  0
SCALE
  5
100
102
{ACAD_REACTORS
330
F1
102
}
330
F1
100
AcDbScale
 70
     0
300
8:1
140
8.0
141
1.0
290
     0
  0
SCALE
  5
101
102
{ACAD_REACTORS
330
F1
102
}
330
F1
100
AcDbScale
 70
     0
300
10:1
140
10.0
141
1.0
290
     0
  0
SCALE
  5
102
102
{ACAD_REACTORS
330
F1
102
}
330
F1
100
AcDbScale
 70
     0
300
100:1
140
100.0
141
1.0
290
     0
  0
SCALE
  5
103
102
{ACAD_REACTORS
330
F1
102
}
330
F1
100
AcDbScale
 70
     0
300
1/128" = 1'-0"
140
0.0078125
141
12.0
290
     0
  0
SCALE
  5
104
102
{ACAD_REACTORS
330
F1
102
}
330
F1
100
AcDbScale
 70
     0
300
1/64" = 1'-0"
140
0.015625
141
12.0
290
     0
  0
SCALE
  5
105
102
{ACAD_REACTORS
330
F1
102
}
330
F1
100
AcDbScale
 70
     0
300
1/32" = 1'-0"
140
0.03125
141
12.0
290
     0
  0
SCALE
  5
106
102
{ACAD_REACTORS
330
F1
102
}
330
F1
100
AcDbScale
 70
     0
300
1/16" = 1'-0"
140
0.0625
141
12.0
290
     0
  0
SCALE
  5
107
102
{ACAD_REACTORS
330
F1
102
}
330
F1
100
AcDbScale
 70
     0
300
3/32" = 1'-0"
140
0.09375
141
12.0
290
     0
  0
SCALE
  5
108
102
{ACAD_REACTORS
330
F1
102
}
330
F1
100
AcDbScale
 70
     0
300
1/8" = 1'-0"
140
0.125
141
12.0
290
     0
  0
SCALE
  5
109
102
{ACAD_REACTORS
330
F1
102
}
330
F1
100
AcDbScale
 70
     0
300
3/16" = 1'-0"
140
0.1875
141
12.0
290
     0
  0
SCALE
  5
10A
102
{ACAD_REACTORS
330
F1
102
}
330
F1
100
AcDbScale
 70
     0
300
1/4" = 1'-0"
140
0.25
141
12.0
290
     0
  0
SCALE
  5
10B
102
{ACAD_REACTORS
330
F1
102
}
330
F1
100
AcDbScale
 70
     0
300
3/8" = 1'-0"
140
0.375
141
12.0
290
     0
  0
SCALE
  5
10C
102
{ACAD_REACTORS
330
F1
102
}
330
F1
100
AcDbScale
 70
     0
300
1/2" = 1'-0"
140
0.5
141
12.0
290
     0
  0
SCALE
  5
10D
102
{ACAD_REACTORS
330
F1
102
}
330
F1
100
AcDbScale
 70
     0
300
3/4" = 1'-0"
140
0.75
141
12.0
290
     0
  0
SCALE
  5
10E
102
{ACAD_REACTORS
330
F1
102
}
330
F1
100
AcDbScale
 70
     0
300
1" = 1'-0"
140
1.0
141
12.0
290
     0
  0
SCALE
  5
10F
102
{ACAD_REACTORS
330
F1
102
}
330
F1
100
AcDbScale
 70
     0
300
1-1/2" = 1'-0"
140
1.5
141
12.0
290
     0
  0
SCALE
  5
110
102
{ACAD_REACTORS
330
F1
102
}
330
F1
100
AcDbScale
 70
     0
300
3" = 1'-0"
140
3.0
141
12.0
290
     0
  0
SCALE
  5
111
102
{ACAD_REACTORS
330
F1
102
}
330
F1
100
AcDbScale
 70
     0
300
6" = 1'-0"
140
6.0
141
12.0
290
     0
  0
SCALE
  5
112
102
{ACAD_REACTORS
330
F1
102
}
330
F1
100
AcDbScale
 70
     0
300
1'-0" = 1'-0"
140
12.0
141
12.0
290
     0
  0
VISUALSTYLE
  5
2F
102
{ACAD_REACTORS
330
2A
102
}
330
2A
100
AcDbVisualStyle
  2
2dWireframe
 70
     4
 71
     0
 72
     2
 73
     0
 90
        0
 40
-0.6
 41
-30.0
 62
     5
 63
     7
 74
     1
 91
        4
 64
     7
 65
   257
 75
     1
175
     1
 42
1.0
 92
        0
 66
   257
 43
1.0
 76
     1
 77
     6
 78
     2
 67
     7
 79
     5
170
     0
171
     0
290
     0
174
     0
 93
        1
 44
0.0
173
     0
291
     0
 45
0.0
1001
ACAD
1000
AcDbSavedByObjectVersion
1070
     0
  0
VISUALSTYLE
  5
31
102
{ACAD_REACTORS
330
2A
102
}
330
2A
100
AcDbVisualStyle
  2
3D Hidden
 70
     6
 71
     1
 72
     2
 73
     2
 90
        0
 40
-0.6
 41
-30.0
 62
     5
 63
     7
 74
     2
 91
        2
 64
     7
 65
   257
 75
     2
175
     1
 42
40.0
 92
        0
 66
   257
 43
1.0
 76
     1
 77
     6
 78
     2
 67
     7
 79
     3
170
     0
171
     0
290
     0
174
     0
 93
        1
 44
0.0
173
     0
291
     0
 45
0.0
1001
ACAD
1000
AcDbSavedByObjectVersion
1070
     0
  0
VISUALSTYLE
  5
30
102
{ACAD_REACTORS
330
2A
102
}
330
2A
100
AcDbVisualStyle
  2
3dWireframe
 70
     5
 71
     0
 72
     2
 73
     0
 90
        0
 40
-0.6
 41
-30.0
 62
     5
 63
     7
 74
     1
 91
        4
 64
     7
 65
   257
 75
     1
175
     1
 42
1.0
 92
        0
 66
   257
 43
1.0
 76
     1
 77
     6
 78
     2
 67
     7
 79
     5
170
     0
171
     0
290
     0
174
     0
 93
        1
 44
0.0
173
     0
291
     0
 45
0.0
1001
ACAD
1000
AcDbSavedByObjectVersion
1070
     0
  0
VISUALSTYLE
  5
32
102
{ACAD_REACTORS
330
2A
102
}
330
2A
100
AcDbVisualStyle
  2
Basic
 70
     7
 71
     1
 72
     0
 73
     1
 90
        0
 40
-0.6
 41
-30.0
 62
     5
 63
     7
 74
     0
 91
        4
 64
     7
 65
   257
 75
     1
175
     1
 42
1.0
 92
        8
 66
     7
 43
1.0
 76
     1
 77
     6
 78
     2
 67
     7
 79
     5
170
     0
171
     0
290
     0
174
     0
 93
        1
 44
0.0
173
     0
291
     1
 45
0.0
1001
ACAD
1000
AcDbSavedByObjectVersion
1070
     0
  0
VISUALSTYLE
  5
36
102
{ACAD_REACTORS
330
2A
102
}
330
2A
100
AcDbVisualStyle
  2
Brighten
 70
    12
 71
     2
 72
     2
 73
     0
 90
        0
 40
-0.6
 41
-30.0
 62
     5
 63
     7
 74
     1
 91
        4
 64
     7
 65
   257
 75
     1
175
     1
 42
1.0
 92
        8
 66
     7
 43
1.0
 76
     1
 77
     6
 78
     2
 67
     7
 79
     5
170
     0
171
     0
290
     0
174
     0
 93
        1
 44
50.0
173
     0
291
     1
 45
0.0
1001
ACAD
1000
AcDbSavedByObjectVersion
1070
     0
  0
VISUALSTYLE
  5
3A
102
{ACAD_REACTORS
330
2A
102
}
330
2A
100
AcDbVisualStyle
  2
ColorChange
 70
    16
 71
     2
 72
     2
 73
     3
 90
        0
 40
-0.6
 41
-30.0
 62
     5
 63
     8
 74
     1
 91
        4
 64
     7
 65
   257
 75
     1
175
     1
 42
1.0
 92
        8
 66
     8
 43
1.0
 76
     1
 77
     6
 78
     2
 67
     7
 79
     5
170
     0
171
     0
290
     0
174
     0
 93
        1
 44
0.0
173
     0
291
     1
 45
0.0
1001
ACAD
1000
AcDbSavedByObjectVersion
1070
     0
  0
VISUALSTYLE
  5
34
102
{ACAD_REACTORS
330
2A
102
}
330
2A
100
AcDbVisualStyle
  2
Conceptual
 70
     9
 71
     3
 72
     2
 73
     0
 90
        0
 40
-0.6
 41
-30.0
 62
     5
 63
     7
 74
     2
 91
        2
 64
     7
 65
   257
 75
     1
175
     1
 42
40.0
 92
        8
 66
     7
 43
1.0
 76
     1
 77
     6
 78
     2
 67
     7
 79
     3
170
     0
171
     0
290
     0
174
     0
 93
        1
 44
0.0
173
     0
291
     0
 45
0.0
1001
ACAD
1000
AcDbSavedByObjectVersion
1070
     0
  0
VISUALSTYLE
  5
35
102
{ACAD_REACTORS
330
2A
102
}
330
2A
100
AcDbVisualStyle
  2
Dim
 70
    11
 71
     2
 72
     2
 73
     0
 90
        0
 40
-0.6
 41
-30.0
 62
     5
 63
     7
 74
     1
 91
        4
 64
     7
 65
   257
 75
     1
175
     1
 42
1.0
 92
        8
 66
     7
 43
1.0
 76
     1
 77
     6
 78
     2
 67
     7
 79
     5
170
     0
171
     0
290
     0
174
     0
 93
        1
 44
-50.0
173
     0
291
     1
 45
0.0
1001
ACAD
1000
AcDbSavedByObjectVersion
1070
     0
  0
VISUALSTYLE
  5
39
102
{ACAD_REACTORS
330
2A
102
}
330
2A
100
AcDbVisualStyle
  2
Facepattern
 70
    15
 71
     2
 72
     2
 73
     0
 90
        0
 40
-0.6
 41
-30.0
 62
     5
 63
     7
 74
     1
 91
        4
 64
     7
 65
   257
 75
     1
175
     1
 42
1.0
 92
        8
 66
     7
 43
1.0
 76
     1
 77
     6
 78
     2
 67
     7
 79
     5
170
     0
171
     0
290
     0
174
     0
 93
        1
 44
0.0
173
     0
291
     1
 45
0.0
1001
ACAD
1000
AcDbSavedByObjectVersion
1070
     0
  0
VISUALSTYLE
  5
2B
102
{ACAD_REACTORS
330
2A
102
}
330
2A
100
AcDbVisualStyle
  2
Flat
 70
     0
 71
     2
 72
     1
 73
     1
 90
        2
 40
-0.6
 41
30.0
 62
     5
 63
     7
 74
     0
 91
        4
 64
     7
 65
   257
 75
     1
175
     1
 42
1.0
 92
        8
 66
     7
 43
1.0
 76
     1
 77
     6
 78
     2
 67
     7
 79
     5
170
     0
171
     0
290
     0
174
     0
 93
       13
 44
0.0
173
     0
291
     1
 45
0.0
1001
ACAD
1000
AcDbSavedByObjectVersion
1070
     0
  0
VISUALSTYLE
  5
2C
102
{ACAD_REACTORS
330
2A
102
}
330
2A
100
AcDbVisualStyle
  2
FlatWithEdges
 70
     1
 71
     2
 72
     1
 73
     1
 90
        2
 40
-0.6
 41
30.0
 62
     5
 63
     7
 74
     1
 91
        4
 64
     7
 65
   257
 75
     1
175
     1
 42
1.0
 92
        0
 66
   257
 43
1.0
 76
     1
 77
     6
 78
     2
 67
     7
 79
     5
170
     0
171
     0
290
     0
174
     0
 93
       13
 44
0.0
173
     0
291
     1
 45
0.0
1001
ACAD
1000
AcDbSavedByObjectVersion
1070
     0
  0
VISUALSTYLE
  5
2D
102
{ACAD_REACTORS
330
2A
102
}
330
2A
100
AcDbVisualStyle
  2
Gouraud
 70
     2
 71
     2
 72
     2
 73
     1
 90
        2
 40
-0.6
 41
30.0
 62
     5
 63
     7
 74
     0
 91
        4
 64
     7
 65
   257
 75
     1
175
     1
 42
1.0
 92
        0
 66
     7
 43
1.0
 76
     1
 77
     6
 78
     2
 67
     7
 79
     5
170
     0
171
     0
290
     0
174
     0
 93
       13
 44
0.0
173
     0
291
     1
 45
0.0
1001
ACAD
1000
AcDbSavedByObjectVersion
1070
     0
  0
VISUALSTYLE
  5
2E
102
{ACAD_REACTORS
330
2A
102
}
330
2A
100
AcDbVisualStyle
  2
GouraudWithEdges
 70
     3
 71
     2
 72
     2
 73
     1
 90
        2
 40
-0.6
 41
30.0
 62
     5
 63
     7
 74
     1
 91
        4
 64
     7
 65
   257
 75
     1
175
     1
 42
1.0
 92
        0
 66
   257
 43
1.0
 76
     1
 77
     6
 78
     2
 67
     7
 79
     5
170
     0
171
     0
290
     0
174
     0
 93
       13
 44
0.0
173
     0
291
     1
 45
0.0
1001
ACAD
1000
AcDbSavedByObjectVersion
1070
     0
  0
VISUALSTYLE
  5
38
102
{ACAD_REACTORS
330
2A
102
}
330
2A
100
AcDbVisualStyle
  2
Linepattern
 70
    14
 71
     2
 72
     2
 73
     0
 90
        0
 40
-0.6
 41
-30.0
 62
     5
 63
     7
 74
     1
 91
        4
 64
     7
 65
   257
 75
     7
175
     7
 42
1.0
 92
        8
 66
     7
 43
1.0
 76
     1
 77
     6
 78
     2
 67
     7
 79
     5
170
     0
171
     0
290
     0
174
     0
 93
        1
 44
0.0
173
     0
291
     1
 45
0.0
1001
ACAD
1000
AcDbSavedByObjectVersion
1070
     0
  0
VISUALSTYLE
  5
33
102
{ACAD_REACTORS
330
2A
102
}
330
2A
100
AcDbVisualStyle
  2
Realistic
 70
     8
 71
     2
 72
     2
 73
     0
 90
        0
 40
-0.6
 41
-30.0
 62
     5
 63
     7
 74
     1
 91
        0
 64
     7
 65
   257
 75
     1
175
     1
 42
1.0
 92
        8
 66
     8
 43
1.0
 76
     1
 77
     6
 78
     2
 67
     7
 79
     5
170
     0
171
     0
290
     0
174
     0
 93
       13
 44
0.0
173
     0
291
     0
 45
0.0
1001
ACAD
1000
AcDbSavedByObjectVersion
1070
     0
  0
VISUALSTYLE
  5
37
102
{ACAD_REACTORS
330
2A
102
}
330
2A
100
AcDbVisualStyle
  2
Thicken
 70
    13
 71
     2
 72
     2
 73
     0
 90
        0
 40
-0.6
 41
-30.0
 62
     5
 63
     7
 74
     1
 91
        4
 64
     7
 65
   257
 75
     1
175
     1
 42
1.0
 92
       12
 66
     7
 43
1.0
 76
     1
 77
     6
 78
     2
 67
     7
 79
     5
170
     0
171
     0
290
     0
174
     0
 93
        1
 44
0.0
173
     0
291
     1
 45
0.0
1001
ACAD
1000
AcDbSavedByObjectVersion
1070
     0
  0
DICTIONARYVAR
  5
159
102
{ACAD_REACTORS
330
156
102
}
330
156
100
DictionaryVariables
280
     0
  1
1:1
  0
ENDSEC
  0
EOF
