  0
SECTION
  2
HEADER
  9
$ACADVER
  1
AC1015
  9
$ACADMAINTVER
 70
     6
  9
$DWGCODEPAGE
  3
ANSI_1252
  9
$INSBASE
 10
0.0
 20
0.0
 30
0.0
  9
$EXTMIN
 10
0.3283144828029
 20
268.2998193255
 30
0.0
  9
$EXTMAX
 10
254.210161261971
 20
403.750752017812
 30
0.0
  9
$LIMMIN
 10
0.0
 20
0.0
  9
$LIMMAX
 10
12.0
 20
9.0
  9
$ORTHOMODE
 70
     0
  9
$REGENMODE
 70
     1
  9
$FILLMODE
 70
     1
  9
$QTEXTMODE
 70
     0
  9
$MIRRTEXT
 70
     1
  9
$LTSCALE
 40
1.0
  9
$ATTMODE
 70
     1
  9
$TEXTSIZE
 40
0.2
  9
$TRACEWID
 40
0.05
  9
$TEXTSTYLE
  7
Standard
  9
$CLAYER
  8
0
  9
$CELTYPE
  6
ByLayer
  9
$CECOLOR
 62
   256
  9
$CELTSCALE
 40
1.0
  9
$DISPSILH
 70
     0
  9
$DIMSCALE
 40
1.0
  9
$DIMASZ
 40
0.18
  9
$DIMEXO
 40
0.0625
  9
$DIMDLI
 40
0.38
  9
$DIMRND
 40
0.0
  9
$DIMDLE
 40
0.0
  9
$DIMEXE
 40
0.18
  9
$DIMTP
 40
0.0
  9
$DIMTM
 40
0.0
  9
$DIMTXT
 40
0.18
  9
$DIMCEN
 40
0.09
  9
$DIMTSZ
 40
0.0
  9
$DIMTOL
 70
     0
  9
$DIMLIM
 70
     0
  9
$DIMTIH
 70
     1
  9
$DIMTOH
 70
     1
  9
$DIMSE1
 70
     0
  9
$DIMSE2
 70
     0
  9
$DIMTAD
 70
     0
  9
$DIMZIN
 70
     0
  9
$DIMBLK
  1

  9
$DIMASO
 70
     1
  9
$DIMSHO
 70
     1
  9
$DIMPOST
  1

  9
$DIMAPOST
  1

  9
$DIMALT
 70
     0
  9
$DIMALTD
 70
     2
  9
$DIMALTF
 40
25.4
  9
$DIMLFAC
 40
1.0
  9
$DIMTOFL
 70
     0
  9
$DIMTVP
 40
0.0
  9
$DIMTIX
 70
     0
  9
$DIMSOXD
 70
     0
  9
$DIMSAH
 70
     0
  9
$DIMBLK1
  1

  9
$DIMBLK2
  1

  9
$DIMSTYLE
  2
Standard
  9
$DIMCLRD
 70
     0
  9
$DIMCLRE
 70
     0
  9
$DIMCLRT
 70
     0
  9
$DIMTFAC
 40
1.0
  9
$DIMGAP
 40
0.09
  9
$DIMJUST
 70
     0
  9
$DIMSD1
 70
     0
  9
$DIMSD2
 70
     0
  9
$DIMTOLJ
 70
     1
  9
$DIMTZIN
 70
     0
  9
$DIMALTZ
 70
     0
  9
$DIMALTTZ
 70
     0
  9
$DIMUPT
 70
     0
  9
$DIMDEC
 70
     4
  9
$DIMTDEC
 70
     4
  9
$DIMALTU
 70
     2
  9
$DIMALTTD
 70
     2
  9
$DIMTXSTY
  7
Standard
  9
$DIMAUNIT
 70
     0
  9
$DIMADEC
 70
     0
  9
$DIMALTRND
 40
0.0
  9
$DIMAZIN
 70
     0
  9
$DIMDSEP
 70
    46
  9
$DIMATFIT
 70
     3
  9
$DIMFRAC
 70
     0
  9
$DIMLDRBLK
  1

  9
$DIMLUNIT
 70
     2
  9
$DIMLWD
 70
    -2
  9
$DIMLWE
 70
    -2
  9
$DIMTMOVE
 70
     0
  9
$LUNITS
 70
     2
  9
$LUPREC
 70
     4
  9
$SKETCHINC
 40
0.1
  9
$FILLETRAD
 40
0.5
  9
$AUNITS
 70
     0
  9
$AUPREC
 70
     0
  9
$MENU
  1
.
  9
$ELEVATION
 40
0.0
  9
$PELEVATION
 40
0.0
  9
$THICKNESS
 40
0.0
  9
$LIMCHECK
 70
     0
  9
$CHAMFERA
 40
0.5
  9
$CHAMFERB
 40
0.5
  9
$CHAMFERC
 40
1.0
  9
$CHAMFERD
 40
0.0
  9
$SKPOLY
 70
     0
  9
$TDCREATE
 40
2456748.733357176
  9
$TDUCREATE
 40
2456748.650023843
  9
$TDUPDATE
 40
2456748.733357187
  9
$TDUUPDATE
 40
2456748.650023854
  9
$TDINDWG
 40
0.0000000116
  9
$TDUSRTIMER
 40
0.0000000116
  9
$USRTIMER
 70
     1
  9
$ANGBASE
 50
0.0
  9
$ANGDIR
 70
     0
  9
$PDMODE
 70
     0
  9
$PDSIZE
 40
0.0
  9
$PLINEWID
 40
0.0
  9
$SPLFRAME
 70
     0
  9
$SPLINETYPE
 70
     6
  9
$SPLINESEGS
 70
     8
  9
$HANDSEED
  5
184
  9
$SURFTAB1
 70
     6
  9
$SURFTAB2
 70
     6
  9
$SURFTYPE
 70
     6
  9
$SURFU
 70
     6
  9
$SURFV
 70
     6
  9
$UCSBASE
  2

  9
$UCSNAME
  2

  9
$UCSORG
 10
0.0
 20
0.0
 30
0.0
  9
$UCSXDIR
 10
1.0
 20
0.0
 30
0.0
  9
$UCSYDIR
 10
0.0
 20
1.0
 30
0.0
  9
$UCSORTHOREF
  2

  9
$UCSORTHOVIEW
 70
     0
  9
$UCSORGTOP
 10
0.0
 20
0.0
 30
0.0
  9
$UCSORGBOTTOM
 10
0.0
 20
0.0
 30
0.0
  9
$UCSORGLEFT
 10
0.0
 20
0.0
 30
0.0
  9
$UCSORGRIGHT
 10
0.0
 20
0.0
 30
0.0
  9
$UCSORGFRONT
 10
0.0
 20
0.0
 30
0.0
  9
$UCSORGBACK
 10
0.0
 20
0.0
 30
0.0
  9
$PUCSBASE
  2

  9
$PUCSNAME
  2

  9
$PUCSORG
 10
0.0
 20
0.0
 30
0.0
  9
$PUCSXDIR
 10
1.0
 20
0.0
 30
0.0
  9
$PUCSYDIR
 10
0.0
 20
1.0
 30
0.0
  9
$PUCSORTHOREF
  2

  9
$PUCSORTHOVIEW
 70
     0
  9
$PUCSORGTOP
 10
0.0
 20
0.0
 30
0.0
  9
$PUCSORGBOTTOM
 10
0.0
 20
0.0
 30
0.0
  9
$PUCSORGLEFT
 10
0.0
 20
0.0
 30
0.0
  9
$PUCSORGRIGHT
 10
0.0
 20
0.0
 30
0.0
  9
$PUCSORGFRONT
 10
0.0
 20
0.0
 30
0.0
  9
$PUCSORGBACK
 10
0.0
 20
0.0
 30
0.0
  9
$USERI1
 70
     0
  9
$USERI2
 70
     0
  9
$USERI3
 70
     0
  9
$USERI4
 70
     0
  9
$USERI5
 70
     0
  9
$USERR1
 40
16.5
  9
$USERR2
 40
0.0
  9
$USERR3
 40
0.0
  9
$USERR4
 40
0.0
  9
$USERR5
 40
0.0
  9
$WORLDVIEW
 70
     1
  9
$SHADEDGE
 70
     3
  9
$SHADEDIF
 70
    70
  9
$TILEMODE
 70
     1
  9
$MAXACTVP
 70
    64
  9
$PINSBASE
 10
0.0
 20
0.0
 30
0.0
  9
$PLIMCHECK
 70
     0
  9
$PEXTMIN
 10
1.00000000000000E+20
 20
1.00000000000000E+20
 30
1.00000000000000E+20
  9
$PEXTMAX
 10
-1.00000000000000E+20
 20
-1.00000000000000E+20
 30
-1.00000000000000E+20
  9
$PLIMMIN
 10
0.0
 20
0.0
  9
$PLIMMAX
 10
12.0
 20
9.0
  9
$UNITMODE
 70
     0
  9
$VISRETAIN
 70
     1
  9
$PLINEGEN
 70
     0
  9
$PSLTSCALE
 70
     1
  9
$TREEDEPTH
 70
  3020
  9
$CMLSTYLE
  2
Standard
  9
$CMLJUST
 70
     0
  9
$CMLSCALE
 40
1.0
  9
$PROXYGRAPHICS
 70
     1
  9
$MEASUREMENT
 70
     1
  9
$CELWEIGHT
370
    -1
  9
$ENDCAPS
280
     0
  9
$JOINSTYLE
280
     0
  9
$LWDISPLAY
290
     0
  9
$INSUNITS
 70
     1
  9
$HYPERLINKBASE
  1

  9
$STYLESHEET
  1

  9
$XEDIT
290
     1
  9
$CEPSNTYPE
380
     0
  9
$PSTYLEMODE
290
     1
  9
$FINGERPRINTGUID
  2
{DD5AA5C8-E2EC-4270-B9D1-53046AB436C8}
  9
$VERSIONGUID
  2
{FAEB1C32-E019-11D5-929B-00C0DF256EC4}
  9
$EXTNAMES
290
     1
  9
$PSVPSCALE
 40
0.0
  9
$OLESTARTUP
290
     0
  0
ENDSEC
  0
SECTION
  2
CLASSES
  0
CLASS
  1
ACDBDICTIONARYWDFLT
  2
AcDbDictionaryWithDefault
  3
ObjectDBX Classes
 90
        0
280
     0
281
     0
  0
CLASS
  1
VISUALSTYLE
  2
AcDbVisualStyle
  3
ObjectDBX Classes
 90
     4095
280
     0
281
     0
  0
CLASS
  1
SCALE
  2
AcDbScale
  3
ObjectDBX Classes
 90
     1153
280
     0
281
     0
  0
CLASS
  1

  2
exOdDbPolyline
  3

 90
        0
280
     0
281
     1
  0
CLASS
  1

  2
exOdDbCircle
  3

 90
        0
280
     0
281
     1
  0
CLASS
  1

  2
exOdDbSpline
  3

 90
        0
280
     0
281
     1
  0
CLASS
  1
DICTIONARYVAR
  2
AcDbDictionaryVar
  3
ObjectDBX Classes
 90
        0
280
     0
281
     0
  0
CLASS
  1
ACDBPLACEHOLDER
  2
AcDbPlaceHolder
  3
ObjectDBX Classes
 90
        0
280
     0
281
     0
  0
CLASS
  1
LAYOUT
  2
AcDbLayout
  3
ObjectDBX Classes
 90
        0
280
     0
281
     0
  0
ENDSEC
  0
SECTION
  2
TABLES
  0
TABLE
  2
VPORT
  5
8
330
0
100
AcDbSymbolTable
 70
     1
  0
VPORT
  5
29
330
8
100
AcDbSymbolTableRecord
100
AcDbViewportTableRecord
  2
*Active
 70
     0
 10
0.0
 20
0.0
 11
1.0
 21
1.0
 12
127.269237872387
 22
336.025285671656
 13
0.0
 23
0.0
 14
0.5
 24
0.5
 15
0.5
 25
0.5
 16
0.0
 26
0.0
 36
1.0
 17
0.0
 27
0.0
 37
0.0
 40
174.2520530540029
 41
1.60267857142857
 42
50.0
 43
0.0
 44
0.0
 50
0.0
 51
0.0
 71
     0
 72
   100
 73
     1
 74
     3
 75
     0
 76
     0
 77
     0
 78
     0
281
     0
 65
     1
110
0.0
120
0.0
130
0.0
111
1.0
121
0.0
131
0.0
112
0.0
122
1.0
132
0.0
 79
     0
146
0.0
  0
ENDTAB
  0
TABLE
  2
LTYPE
  5
5
330
0
100
AcDbSymbolTable
 70
     8
  0
LTYPE
  5
14
330
5
100
AcDbSymbolTableRecord
100
AcDbLinetypeTableRecord
  2
ByBlock
 70
     0
  3

 72
    65
 73
     0
 40
0.0
  0
LTYPE
  5
15
330
5
100
AcDbSymbolTableRecord
100
AcDbLinetypeTableRecord
  2
ByLayer
 70
     0
  3

 72
    65
 73
     0
 40
0.0
  0
LTYPE
  5
16
330
5
100
AcDbSymbolTableRecord
100
AcDbLinetypeTableRecord
  2
Continuous
 70
     0
  3
Solid line
 72
    65
 73
     0
 40
0.0
  0
LTYPE
  5
3B
330
5
100
AcDbSymbolTableRecord
100
AcDbLinetypeTableRecord
  2
DASHED
 70
     0
  3
Dashed
 72
    65
 73
     2
 40
15.0
 49
7.0
 74
     0
 49
-8.0
 74
     0
  0
LTYPE
  5
3C
330
5
100
AcDbSymbolTableRecord
100
AcDbLinetypeTableRecord
  2
DOTTED
 70
     0
  3
Dotted
 72
    65
 73
     2
 40
1.0
 49
0.0
 74
     0
 49
-1.0
 74
     0
  0
LTYPE
  5
3D
330
5
100
AcDbSymbolTableRecord
100
AcDbLinetypeTableRecord
  2
DOT_CENTER
 70
     0
  3
Dot_Center
 72
    65
 73
     4
 40
14.0
 49
12.0
 74
     0
 49
-1.0
 74
     0
 49
0.0
 74
     0
 49
-1.0
 74
     0
  0
LTYPE
  5
3E
330
5
100
AcDbSymbolTableRecord
100
AcDbLinetypeTableRecord
  2
LONG_DASHED
 70
     0
  3
Long_Dashed
 72
    65
 73
     2
 40
15.0
 49
10.0
 74
     0
 49
-5.0
 74
     0
  0
LTYPE
  5
3F
330
5
100
AcDbSymbolTableRecord
100
AcDbLinetypeTableRecord
  2
DASH_CENTER
 70
     0
  3
Dash_Center
 72
    65
 73
     4
 40
14.0
 49
11.0
 74
     0
 49
-1.0
 74
     0
 49
1.0
 74
     0
 49
-1.0
 74
     0
  0
LTYPE
  5
40
330
5
100
AcDbSymbolTableRecord
100
AcDbLinetypeTableRecord
  2
PHANTOM
 70
     0
  3
Phantom
 72
    65
 73
     6
 40
13.0
 49
10.0
 74
     0
 49
-1.0
 74
     0
 49
0.0
 74
     0
 49
-1.0
 74
     0
 49
0.0
 74
     0
 49
-1.0
 74
     0
  0
LTYPE
  5
41
330
5
100
AcDbSymbolTableRecord
100
AcDbLinetypeTableRecord
  2
CENTER_DASH_DASH
 70
     0
  3
Center_Dash_Dash
 72
    65
 73
     6
 40
14.0
 49
9.0
 74
     0
 49
-1.0
 74
     0
 49
1.0
 74
     0
 49
-1.0
 74
     0
 49
1.0
 74
     0
 49
-1.0
 74
     0
  0
ENDTAB
  0
TABLE
  2
LAYER
  5
2
330
0
100
AcDbSymbolTable
 70
     7
  0
LAYER
  5
10
330
2
100
AcDbSymbolTableRecord
100
AcDbLayerTableRecord
  2
0
 70
     0
 62
     7
  6
Continuous
370
    -3
390
F
  0
LAYER
  5
42
330
2
100
AcDbSymbolTableRecord
100
AcDbLayerTableRecord
  2
1
 70
     0
 62
     7
  6
Continuous
370
    -3
390
F
  0
LAYER
  5
43
330
2
100
AcDbSymbolTableRecord
100
AcDbLayerTableRecord
  2
BEZUGSACHSEN
 70
     0
 62
     7
  6
Continuous
370
    -3
390
F
  0
LAYER
  5
44
330
2
100
AcDbSymbolTableRecord
100
AcDbLayerTableRecord
  2
BG_STARTBEZUEGE
 70
     0
 62
     7
  6
Continuous
370
    -3
390
F
  0
LAYER
  5
45
330
2
100
AcDbSymbolTableRecord
100
AcDbLayerTableRecord
  2
DEFAULT_2
 70
     0
 62
     7
  6
Continuous
370
    -3
390
F
  0
LAYER
  5
46
330
2
100
AcDbSymbolTableRecord
100
AcDbLayerTableRecord
  2
FASEN
 70
     0
 62
     7
  6
Continuous
370
    -3
390
F
  0
LAYER
  5
47
330
2
100
AcDbSymbolTableRecord
100
AcDbLayerTableRecord
  2
RUNDUNGEN
 70
     0
 62
     7
  6
Continuous
370
    -3
390
F
  0
ENDTAB
  0
TABLE
  2
STYLE
  5
3
330
0
100
AcDbSymbolTable
 70
     2
  0
STYLE
  5
11
330
3
100
AcDbSymbolTableRecord
100
AcDbTextStyleTableRecord
  2
Standard
 70
     0
 40
0.0
 41
1.0
 50
0.0
 71
     0
 42
0.2
  3
txt
  4

  0
STYLE
  5
6E
330
3
100
AcDbSymbolTableRecord
100
AcDbTextStyleTableRecord
  2
CONVERTER_11
 70
     0
 40
0.0
 41
0.72
 50
0.0
 71
     0
 42
0.2
  3
txt.shx
  4

  0
ENDTAB
  0
TABLE
  2
VIEW
  5
6
330
0
100
AcDbSymbolTable
 70
     0
  0
ENDTAB
  0
TABLE
  2
UCS
  5
7
330
0
100
AcDbSymbolTable
 70
     0
  0
ENDTAB
  0
TABLE
  2
APPID
  5
9
330
0
100
AcDbSymbolTable
 70
     1
  0
APPID
  5
12
330
9
100
AcDbSymbolTableRecord
100
AcDbRegAppTableRecord
  2
ACAD
 70
     0
  0
ENDTAB
  0
TABLE
  2
DIMSTYLE
  5
A
330
0
100
AcDbSymbolTable
 70
     7
100
AcDbDimStyleTable
  0
DIMSTYLE
105
27
330
A
100
AcDbSymbolTableRecord
100
AcDbDimStyleTableRecord
  2
Standard
 70
     0
340
11
  0
DIMSTYLE
105
140
102
{ACAD_REACTORS
330
141
102
}
330
A
100
AcDbSymbolTableRecord
100
AcDbDimStyleTableRecord
  2
ME10_DIM_10
 70
     0
  3
\U+2300<>
 41
3.5
 42
2.0
 44
2.0
 71
     1
 73
     0
 74
     0
 77
     1
 78
     8
140
3.5
146
0.7
147
2.0
172
     1
173
     1
176
     2
177
     2
178
     3
271
     2
272
     0
340
6E
  0
DIMSTYLE
105
14B
102
{ACAD_REACTORS
330
14C
102
}
330
A
100
AcDbSymbolTableRecord
100
AcDbDimStyleTableRecord
  2
ME10_DIM_11
 70
     0
  3
ER<>
 41
3.5
 42
2.0
 44
2.0
 71
     1
 73
     0
 74
     0
 77
     1
 78
     8
140
3.5
146
0.7
147
2.0
172
     1
173
     1
176
     2
177
     2
178
     3
271
     2
272
     0
340
6E
  0
DIMSTYLE
105
156
102
{ACAD_REACTORS
330
157
102
}
330
A
100
AcDbSymbolTableRecord
100
AcDbDimStyleTableRecord
  2
ME10_DIM_12
 70
     0
  3
<>
 41
3.5
 42
2.0
 44
2.0
 71
     1
 73
     0
 74
     0
 77
     1
 78
     8
140
3.5
146
0.7
147
2.0
172
     1
173
     1
176
     2
177
     2
178
     3
271
     2
272
     0
340
6E
  0
DIMSTYLE
105
161
102
{ACAD_REACTORS
330
162
102
}
330
A
100
AcDbSymbolTableRecord
100
AcDbDimStyleTableRecord
  2
ME10_DIM_13
 70
     0
  3
<>
 41
3.5
 42
2.0
 44
2.0
 71
     1
 73
     0
 74
     0
 77
     1
 78
     8
140
3.5
146
0.7
147
2.0
172
     1
173
     1
176
     2
177
     2
178
     3
271
     2
272
     0
340
6E
  0
DIMSTYLE
105
16C
102
{ACAD_REACTORS
330
16D
102
}
330
A
100
AcDbSymbolTableRecord
100
AcDbDimStyleTableRecord
  2
ME10_DIM_14
 70
     0
  3
<>
 41
3.5
 42
2.0
 44
2.0
 71
     1
 73
     0
 74
     0
 77
     1
 78
     8
140
3.5
146
0.7
147
2.0
172
     1
173
     1
176
     2
177
     2
178
     3
271
     2
272
     0
340
6E
  0
DIMSTYLE
105
177
102
{ACAD_REACTORS
330
178
102
}
330
A
100
AcDbSymbolTableRecord
100
AcDbDimStyleTableRecord
  2
ME10_DIM_15
 70
     0
  3
<>
 41
3.5
 42
2.0
 44
2.0
 71
     1
 73
     0
 74
     0
 77
     1
 78
     8
140
3.5
146
0.7
147
2.0
172
     1
173
     1
176
     2
177
     2
178
     3
271
     2
272
     0
340
6E
  0
ENDTAB
  0
TABLE
  2
BLOCK_RECORD
  5
1
330
0
100
AcDbSymbolTable
 70
     9
  0
BLOCK_RECORD
  5
1F
330
1
100
AcDbSymbolTableRecord
100
AcDbBlockTableRecord
  2
*Model_Space
340
22
  0
BLOCK_RECORD
  5
1B
330
1
100
AcDbSymbolTableRecord
100
AcDbBlockTableRecord
  2
*Paper_Space
340
1E
  0
BLOCK_RECORD
  5
23
330
1
100
AcDbSymbolTableRecord
100
AcDbBlockTableRecord
  2
*Paper_Space0
340
26
  0
BLOCK_RECORD
  5
48
330
1
100
AcDbSymbolTableRecord
100
AcDbBlockTableRecord
  2
Urheberrecht_DE-EN
340
0
102
{BLKREFS
331
6D
102
}
  0
BLOCK_RECORD
  5
137
330
1
100
AcDbSymbolTableRecord
100
AcDbBlockTableRecord
  2
*D2
340
0
  0
BLOCK_RECORD
  5
142
330
1
100
AcDbSymbolTableRecord
100
AcDbBlockTableRecord
  2
*D3
340
0
  0
BLOCK_RECORD
  5
14D
330
1
100
AcDbSymbolTableRecord
100
AcDbBlockTableRecord
  2
*D4
340
0
  0
BLOCK_RECORD
  5
158
330
1
100
AcDbSymbolTableRecord
100
AcDbBlockTableRecord
  2
*D5
340
0
  0
BLOCK_RECORD
  5
163
330
1
100
AcDbSymbolTableRecord
100
AcDbBlockTableRecord
  2
*D6
340
0
  0
BLOCK_RECORD
  5
16E
330
1
100
AcDbSymbolTableRecord
100
AcDbBlockTableRecord
  2
*D7
340
0
  0
BLOCK_RECORD
  5
179
330
1
100
AcDbSymbolTableRecord
100
AcDbBlockTableRecord
  2
*D8
340
0
102
{BLKREFS
331
17F
102
}
  0
ENDTAB
  0
ENDSEC
  0
SECTION
  2
BLOCKS
  0
BLOCK
  5
20
330
1F
100
AcDbEntity
  8
0
100
AcDbBlockBegin
  2
*Model_Space
 70
     0
 10
0.0
 20
0.0
 30
0.0
  3
*Model_Space
  1

  0
ENDBLK
  5
21
330
1F
100
AcDbEntity
  8
0
100
AcDbBlockEnd
  0
BLOCK
  5
1C
330
1B
100
AcDbEntity
 67
     1
  8
0
100
AcDbBlockBegin
  2
*Paper_Space
 70
     0
 10
0.0
 20
0.0
 30
0.0
  3
*Paper_Space
  1

  0
ENDBLK
  5
1D
330
1B
100
AcDbEntity
 67
     1
  8
0
100
AcDbBlockEnd
  0
BLOCK
  5
24
330
23
100
AcDbEntity
  8
0
100
AcDbBlockBegin
  2
*Paper_Space0
 70
     0
 10
0.0
 20
0.0
 30
0.0
  3
*Paper_Space0
  1

  0
ENDBLK
  5
25
330
23
100
AcDbEntity
  8
0
100
AcDbBlockEnd
  0
BLOCK
  5
49
330
48
100
AcDbEntity
  8
0
100
AcDbBlockBegin
  2
Urheberrecht_DE-EN
 70
     0
 10
14.3283144828029
 20
337.548403546112
 30
0.0
  3
Urheberrecht_DE-EN
  1

  0
MTEXT
  5
6F
330
48
100
AcDbEntity
  8
1
 62
     1
100
AcDbMText
 10
14.3283144828029
 20
337.548403546112
 30
0.0
 40
2.0
 41
0.0
 71
     7
 72
     1
  1
We own the copyright of this document. It \Pdetermined and may neither be copied or \Pmade accessible to outsiders without our\Ppermission.
  7
CONVERTER_11
 11
0.0
 21
1.0
 31
0.0
 73
     1
 44
0.90036014405762
  0
MTEXT
  5
70
330
48
100
AcDbEntity
  8
1
 62
     1
100
AcDbMText
 10
14.3283144828029
 20
281.2590166288058
 30
0.0
 40
2.0
 41
0.0
 71
     7
 72
     1
  1
F\U+00fcr diese Unterlage behalten wir das Ur-\Pheberrecht. Sie darf nur f\U+00fcr den von uns \Pbestimmten Zweck benutzt und ohne unsere \PZustimmung weder vervielf\U+00e4ltigt noch\PDritten zug\U+00e4nglich gemacht werden.
  7
CONVERTER_11
 11
0.0
 21
1.0
 31
0.0
 73
     1
 44
0.90036014405762
  0
ENDBLK
  5
4A
330
48
100
AcDbEntity
  8
0
100
AcDbBlockEnd
  0
BLOCK
  5
13E
330
137
100
AcDbEntity
  8
0
100
AcDbBlockBegin
  2
*D2
 70
     1
 10
0.0
 20
0.0
 30
0.0
  3
*D2
  1

  0
LINE
  5
138
330
137
100
AcDbEntity
  8
1
  6
Continuous
 62
     2
100
AcDbLine
 10
252.210161261971
 20
332.2998193255
 30
0.0
 11
252.210161261971
 21
304.2998193255
 31
0.0
  0
LINE
  5
139
330
137
100
AcDbEntity
  8
1
  6
Continuous
 62
     2
100
AcDbLine
 10
232.2426960049
 20
332.2998193255
 30
0.0
 11
254.210161261971
 21
332.2998193255
 31
0.0
  0
LINE
  5
13A
330
137
100
AcDbEntity
  8
1
  6
Continuous
 62
     2
100
AcDbLine
 10
232.2426960049
 20
304.2998193255
 30
0.0
 11
254.210161261971
 21
304.2998193255
 31
0.0
  0
SOLID
  5
13B
330
137
100
AcDbEntity
  8
1
 62
     2
100
AcDbTrace
 10
252.6709450035269
 20
328.7998193255
 30
0.0
 11
251.7493775204151
 21
328.7998193255
 31
0.0
 12
252.210161261971
 22
332.2998193255
 32
0.0
 13
252.210161261971
 23
332.2998193255
 33
0.0
  0
SOLID
  5
13C
330
137
100
AcDbEntity
  8
1
 62
     2
100
AcDbTrace
 10
251.7493775204151
 20
307.7998193255
 30
0.0
 11
252.6709450035269
 21
307.7998193255
 31
0.0
 12
252.210161261971
 22
304.2998193255
 32
0.0
 13
252.210161261971
 23
304.2998193255
 33
0.0
  0
MTEXT
  5
13D
330
137
100
AcDbEntity
  8
1
 62
     3
100
AcDbMText
 10
250.210161261971
 20
308.925003045108
 30
0.0
 40
3.5
 41
0.0
 71
     7
 72
     1
  1
\C3;%%c\C3;\C3;28\C2;\H2.45;\S^ ;\C3;
  7
CONVERTER_11
 11
0.0
 21
1.0
 31
0.0
 73
     1
 44
0.60024009603842
  0
ENDBLK
  5
13F
330
137
100
AcDbEntity
  8
0
100
AcDbBlockEnd
  0
BLOCK
  5
149
330
142
100
AcDbEntity
  8
0
100
AcDbBlockBegin
  2
*D3
 70
     1
 10
0.0
 20
0.0
 30
0.0
  3
*D3
  1

  0
LINE
  5
143
330
142
100
AcDbEntity
  8
1
  6
Continuous
 62
     2
100
AcDbLine
 10
244.574539533426
 20
326.2998193255
 30
0.0
 11
244.574539533426
 21
310.2998193255
 31
0.0
  0
LINE
  5
144
330
142
100
AcDbEntity
  8
1
  6
Continuous
 62
     2
100
AcDbLine
 10
224.2407722163
 20
326.2998193255
 30
0.0
 11
246.574539533426
 21
326.2998193255
 31
0.0
  0
LINE
  5
145
330
142
100
AcDbEntity
  8
1
  6
Continuous
 62
     2
100
AcDbLine
 10
224.2407722163
 20
310.2998193255
 30
0.0
 11
246.574539533426
 21
310.2998193255
 31
0.0
  0
SOLID
  5
146
330
142
100
AcDbEntity
  8
1
 62
     2
100
AcDbTrace
 10
245.0353232749819
 20
322.7998193255
 30
0.0
 11
244.1137557918701
 21
322.7998193255
 31
0.0
 12
244.574539533426
 22
326.2998193255
 32
0.0
 13
244.574539533426
 23
326.2998193255
 33
0.0
  0
SOLID
  5
147
330
142
100
AcDbEntity
  8
1
 62
     2
100
AcDbTrace
 10
244.1137557918701
 20
313.7998193255
 30
0.0
 11
245.0353232749819
 21
313.7998193255
 31
0.0
 12
244.574539533426
 22
310.2998193255
 32
0.0
 13
244.574539533426
 23
310.2998193255
 33
0.0
  0
MTEXT
  5
148
330
142
100
AcDbEntity
  8
1
 62
     3
100
AcDbMText
 10
242.574539533426
 20
314.11734657988
 30
0.0
 40
3.5
 41
0.0
 71
     7
 72
     1
  1
\C3;ER\C3;\C3;16\C2;\H2.45;\S^ ;\C3;
  7
CONVERTER_11
 11
0.0
 21
1.0
 31
0.0
 73
     1
 44
0.60024009603842
  0
ENDBLK
  5
14A
330
142
100
AcDbEntity
  8
0
100
AcDbBlockEnd
  0
BLOCK
  5
154
330
14D
100
AcDbEntity
  8
0
100
AcDbBlockBegin
  2
*D4
 70
     1
 10
0.0
 20
0.0
 30
0.0
  3
*D4
  1

  0
LINE
  5
14E
330
14D
100
AcDbEntity
  8
1
  6
Continuous
 62
     2
100
AcDbLine
 10
222.2407722163
 20
375.746839434008
 30
0.0
 11
101.8407722163
 21
375.746839434008
 31
0.0
  0
LINE
  5
14F
330
14D
100
AcDbEntity
  8
1
  6
Continuous
 62
     2
100
AcDbLine
 10
222.2407722163
 20
331.2998193255
 30
0.0
 11
222.2407722163
 21
377.746839434008
 31
0.0
  0
LINE
  5
150
330
14D
100
AcDbEntity
  8
1
  6
Continuous
 62
     2
100
AcDbLine
 10
101.8407722163
 20
370.2997824553
 30
0.0
 11
101.8407722163
 21
377.746839434008
 31
0.0
  0
SOLID
  5
151
330
14D
100
AcDbEntity
  8
1
 62
     2
100
AcDbTrace
 10
218.7407722163
 20
375.2860556924521
 30
0.0
 11
218.7407722163
 21
376.2076231755639
 31
0.0
 12
222.2407722163
 22
375.746839434008
 32
0.0
 13
222.2407722163
 23
375.746839434008
 33
0.0
  0
SOLID
  5
152
330
14D
100
AcDbEntity
  8
1
 62
     2
100
AcDbTrace
 10
105.3407722163
 20
376.2076231755639
 30
0.0
 11
105.3407722163
 21
375.2860556924521
 31
0.0
 12
101.8407722163
 22
375.746839434008
 32
0.0
 13
101.8407722163
 23
375.746839434008
 33
0.0
  0
MTEXT
  5
153
330
14D
100
AcDbEntity
  8
1
 62
     3
100
AcDbMText
 10
159.799833950013
 20
377.746839434008
 30
0.0
 40
3.5
 41
0.0
 71
     7
 72
     1
  1
\C3;\C3;\C3;120.4\C2;\H2.45;\S^ ;\C3;
  7
CONVERTER_11
 11
0.9999999999970619
 21
2.424068405545306E-6
 31
0.0
 73
     1
 44
0.60024009603842
  0
ENDBLK
  5
155
330
14D
100
AcDbEntity
  8
0
100
AcDbBlockEnd
  0
BLOCK
  5
15F
330
158
100
AcDbEntity
  8
0
100
AcDbBlockBegin
  2
*D5
 70
     1
 10
0.0
 20
0.0
 30
0.0
  3
*D5
  1

  0
LINE
  5
159
330
158
100
AcDbEntity
  8
1
  6
Continuous
 62
     2
100
AcDbLine
 10
222.2407722163
 20
383.458461387209
 30
0.0
 11
72.8407722163
 21
383.458461387209
 31
0.0
  0
LINE
  5
15A
330
158
100
AcDbEntity
  8
1
  6
Continuous
 62
     2
100
AcDbLine
 10
222.2407722163
 20
331.2998193255
 30
0.0
 11
222.2407722163
 21
385.458461387209
 31
0.0
  0
LINE
  5
15B
330
158
100
AcDbEntity
  8
1
  6
Continuous
 62
     2
100
AcDbLine
 10
72.8407722163
 20
370.2998193255
 30
0.0
 11
72.8407722163
 21
385.458461387209
 31
0.0
  0
SOLID
  5
15C
330
158
100
AcDbEntity
  8
1
 62
     2
100
AcDbTrace
 10
218.7407722163
 20
382.9976776456531
 30
0.0
 11
218.7407722163
 21
383.9192451287649
 31
0.0
 12
222.2407722163
 22
383.458461387209
 32
0.0
 13
222.2407722163
 23
383.458461387209
 33
0.0
  0
SOLID
  5
15D
330
158
100
AcDbEntity
  8
1
 62
     2
100
AcDbTrace
 10
76.3407722163
 20
383.9192451287649
 30
0.0
 11
76.3407722163
 21
382.9976776456531
 31
0.0
 12
72.8407722163
 22
383.458461387209
 32
0.0
 13
72.8407722163
 23
383.458461387209
 33
0.0
  0
MTEXT
  5
15E
330
158
100
AcDbEntity
  8
1
 62
     3
100
AcDbMText
 10
142.285302734269
 20
385.458461387209
 30
0.0
 40
3.5
 41
0.0
 71
     7
 72
     1
  1
\C3;\C3;\C3;149.4\C2;\H2.45;\S^ ;\C3;
  7
CONVERTER_11
 11
0.9999999999970619
 21
2.424068405545306E-6
 31
0.0
 73
     1
 44
0.60024009603842
  0
ENDBLK
  5
160
330
158
100
AcDbEntity
  8
0
100
AcDbBlockEnd
  0
BLOCK
  5
16A
330
163
100
AcDbEntity
  8
0
100
AcDbBlockBegin
  2
*D6
 70
     1
 10
0.0
 20
0.0
 30
0.0
  3
*D6
  1

  0
LINE
  5
164
330
163
100
AcDbEntity
  8
1
  6
Continuous
 62
     2
100
AcDbLine
 10
72.8407722163
 20
391.039377883576
 30
0.0
 11
232.8407722163
 21
391.039377883576
 31
0.0
  0
LINE
  5
165
330
163
100
AcDbEntity
  8
1
  6
Continuous
 62
     2
100
AcDbLine
 10
72.8407722163
 20
370.2998193255
 30
0.0
 11
72.8407722163
 21
393.039377883576
 31
0.0
  0
LINE
  5
166
330
163
100
AcDbEntity
  8
1
  6
Continuous
 62
     2
100
AcDbLine
 10
232.8407722163
 20
331.0498193255
 30
0.0
 11
232.8407722163
 21
393.039377883576
 31
0.0
  0
SOLID
  5
167
330
163
100
AcDbEntity
  8
1
 62
     2
100
AcDbTrace
 10
76.3407722163
 20
391.5001616251319
 30
0.0
 11
76.3407722163
 21
390.5785941420201
 31
0.0
 12
72.8407722163
 22
391.039377883576
 32
0.0
 13
72.8407722163
 23
391.039377883576
 33
0.0
  0
SOLID
  5
168
330
163
100
AcDbEntity
  8
1
 62
     2
100
AcDbTrace
 10
229.3407722163
 20
390.5785941420201
 30
0.0
 11
229.3407722163
 21
391.5001616251319
 31
0.0
 12
232.8407722163
 22
391.039377883576
 32
0.0
 13
232.8407722163
 23
391.039377883576
 33
0.0
  0
MTEXT
  5
169
330
163
100
AcDbEntity
  8
1
 62
     3
100
AcDbMText
 10
151.973335601138
 20
393.039377883576
 30
0.0
 40
3.5
 41
0.0
 71
     7
 72
     1
  1
\C3;\C3;\C3;160\C2;\H2.45;\S^ ;\C3;
  7
CONVERTER_11
 11
0.9999999999970619
 21
2.424068405545306E-6
 31
0.0
 73
     1
 44
0.60024009603842
  0
ENDBLK
  5
16B
330
163
100
AcDbEntity
  8
0
100
AcDbBlockEnd
  0
BLOCK
  5
175
330
16E
100
AcDbEntity
  8
0
100
AcDbBlockBegin
  2
*D7
 70
     1
 10
0.0
 20
0.0
 30
0.0
  3
*D7
  1

  0
LINE
  5
16F
330
16E
100
AcDbEntity
  8
1
  6
Continuous
 62
     2
100
AcDbLine
 10
222.2407722163
 20
398.250752017812
 30
0.0
 11
22.84077221629998
 21
398.250752017812
 31
0.0
  0
LINE
  5
170
330
16E
100
AcDbEntity
  8
1
  6
Continuous
 62
     2
100
AcDbLine
 10
222.2407722163
 20
331.2998193255
 30
0.0
 11
222.2407722163
 21
400.250752017812
 31
0.0
  0
LINE
  5
171
330
16E
100
AcDbEntity
  8
1
  6
Continuous
 62
     2
100
AcDbLine
 10
22.84077221629998
 20
353.900010888
 30
0.0
 11
22.84077221629998
 21
400.250752017812
 31
0.0
  0
SOLID
  5
172
330
16E
100
AcDbEntity
  8
1
 62
     2
100
AcDbTrace
 10
218.7407722163
 20
397.7899682762561
 30
0.0
 11
218.7407722163
 21
398.7115357593678
 31
0.0
 12
222.2407722163
 22
398.250752017812
 32
0.0
 13
222.2407722163
 23
398.250752017812
 33
0.0
  0
SOLID
  5
173
330
16E
100
AcDbEntity
  8
1
 62
     2
100
AcDbTrace
 10
26.34077221629998
 20
398.7115357593678
 30
0.0
 11
26.34077221629998
 21
397.7899682762561
 31
0.0
 12
22.84077221629998
 22
398.250752017812
 32
0.0
 13
22.84077221629998
 23
398.250752017812
 33
0.0
  0
MTEXT
  5
174
330
16E
100
AcDbEntity
  8
1
 62
     3
100
AcDbMText
 10
126.396984554008
 20
400.250752017812
 30
0.0
 40
3.5
 41
0.0
 71
     7
 72
     1
  1
\C3;\C3;\C3;199.4\C2;\H2.45;\S^ ;\C3;
  7
CONVERTER_11
 11
0.9999999999970619
 21
2.424068405545306E-6
 31
0.0
 73
     1
 44
0.60024009603842
  0
ENDBLK
  5
176
330
16E
100
AcDbEntity
  8
0
100
AcDbBlockEnd
  0
BLOCK
  5
17D
330
179
100
AcDbEntity
  8
0
100
AcDbBlockBegin
  2
*D8
 70
     1
 10
0.0
 20
0.0
 30
0.0
  3
*D8
  1

  0
LINE
  5
17A
330
179
100
AcDbEntity
  8
1
  6
Continuous
 62
     2
100
AcDbLine
 10
115.7187123158442
 20
352.6689998683088
 30
0.0
 11
106.4009192073537
 21
343.0558569499672
 31
0.0
  0
SOLID
  5
17B
330
179
100
AcDbEntity
  8
1
 62
     2
100
AcDbTrace
 10
108.5060185540243
 20
345.8897373985976
 30
0.0
 11
109.1677512648563
 21
345.2483354611637
 31
0.0
 12
106.4009192073537
 22
343.0558569499672
 32
0.0
 13
106.4009192073537
 23
343.0558569499672
 33
0.0
  0
MTEXT
  5
17C
330
179
100
AcDbEntity
  8
1
 62
     3
100
AcDbMText
 10
107.9490989304685
 20
347.5267136217263
 30
0.0
 40
3.5
 41
0.0
 71
     7
 72
     1
  1
\C3; R\C3;\C3;15\C2;\H2.45;\S^ ;\C3;
  7
CONVERTER_11
 11
0.6959902005961692
 21
0.7180512799752564
 31
0.0
 73
     1
 44
0.60024009603842
  0
ENDBLK
  5
17E
330
179
100
AcDbEntity
  8
0
100
AcDbBlockEnd
  0
ENDSEC
  0
SECTION
  2
ENTITIES
  0
INSERT
  5
6D
330
1F
100
AcDbEntity
  8
0
100
AcDbBlockReference
  2
Urheberrecht_DE-EN
 10
14.3283144828029
 20
337.548403546112
 30
0.0
  0
LINE
  5
71
330
1F
100
AcDbEntity
  8
BEZUGSACHSEN
  6
Continuous
 62
     7
100
AcDbLine
 10
22.8407722163
 20
284.6996277625
 30
0.0
 11
22.8407722163
 21
306.2898193255
 31
0.0
  0
LINE
  5
72
330
1F
100
AcDbEntity
  8
BEZUGSACHSEN
  6
Continuous
 62
     7
100
AcDbLine
 10
22.8407722163
 20
330.3098193255
 30
0.0
 11
22.8407722163
 21
351.900010888
 31
0.0
  0
LINE
  5
73
330
1F
100
AcDbEntity
  8
BEZUGSACHSEN
  6
Continuous
 62
     9
100
AcDbLine
 10
24.7406977315
 20
353.8975055938
 30
0.0
 11
24.7406977315
 21
333.9763517117
 31
0.0
  0
LINE
  5
74
330
1F
100
AcDbEntity
  8
BEZUGSACHSEN
  6
Continuous
 62
     9
100
AcDbLine
 10
24.7406977315
 20
302.6232869392
 30
0.0
 11
24.7406977315
 21
282.7021330572
 31
0.0
  0
LINE
  5
75
330
1F
100
AcDbEntity
  8
BEZUGSACHSEN
  6
Continuous
 62
     7
100
AcDbLine
 10
24.8407722163
 20
305.8961793771
 30
0.0
 11
24.8407722163
 21
308.2898193255
 31
0.0
  0
LINE
  5
76
330
1F
100
AcDbEntity
  8
BEZUGSACHSEN
  6
Continuous
 62
     7
100
AcDbLine
 10
24.8407722163
 20
328.3098193255
 30
0.0
 11
24.8407722163
 21
330.7034592739
 31
0.0
  0
LINE
  5
77
330
1F
100
AcDbEntity
  8
BEZUGSACHSEN
  6
Continuous
 62
     9
100
AcDbLine
 10
30.8407722163
 20
301.941171738
 30
0.0
 11
30.8407722163
 21
308.2898193255
 31
0.0
  0
LINE
  5
78
330
1F
100
AcDbEntity
  8
BEZUGSACHSEN
  6
Continuous
 62
     9
100
AcDbLine
 10
30.8407722163
 20
328.3098193255
 30
0.0
 11
30.8407722163
 21
334.6584669129
 31
0.0
  0
LINE
  5
79
330
1F
100
AcDbEntity
  8
BEZUGSACHSEN
  6
Continuous
 62
     7
100
AcDbLine
 10
32.8407722163
 20
331.1694748513
 30
0.0
 11
32.8407722163
 21
305.4301637997
 31
0.0
  0
LINE
  5
7A
330
1F
100
AcDbEntity
  8
BEZUGSACHSEN
  6
Continuous
 62
     7
100
AcDbLine
 10
24.1077251433
 20
303.2898193255
 30
0.0
 11
23.9866148919
 21
303.05748333
 31
0.0
  0
LINE
  5
7B
330
1F
100
AcDbEntity
  8
BEZUGSACHSEN
  6
Continuous
 62
     7
100
AcDbLine
 10
23.9866148919
 20
333.5421553209
 30
0.0
 11
24.1077251433
 21
333.3098193255
 31
0.0
  0
LWPOLYLINE
  5
7C
330
1F
100
AcDbEntity
  8
BEZUGSACHSEN
  6
DOT_CENTER
 62
     7
100
AcDbPolyline
 90
        2
 70
     0
 43
0.25
 10
57.8407722163
 20
309.2998193255
 10
57.8407722163
 20
327.2998193255
  0
LINE
  5
7D
330
1F
100
AcDbEntity
  8
BEZUGSACHSEN
  6
Continuous
 62
     7
100
AcDbLine
 10
22.8407722163
 20
306.2898193255
 30
0.0
 11
24.8407722163
 21
308.2898193255
 31
0.0
  0
LINE
  5
7E
330
1F
100
AcDbEntity
  8
BEZUGSACHSEN
  6
Continuous
 62
     7
100
AcDbLine
 10
24.8407722163
 20
328.3098193255
 30
0.0
 11
22.8407722163
 21
330.3098193255
 31
0.0
  0
LINE
  5
7F
330
1F
100
AcDbEntity
  8
BEZUGSACHSEN
  6
Continuous
 62
     7
100
AcDbLine
 10
70.3407722163
 20
356.1820693255
 30
0.0
 11
70.3407722163
 21
280.4175693255
 31
0.0
  0
LINE
  5
80
330
1F
100
AcDbEntity
  8
BEZUGSACHSEN
  6
Continuous
 62
     9
100
AcDbLine
 10
70.9600158303
 20
280.5834951518
 30
0.0
 11
70.9600158303
 21
356.0161434992
 31
0.0
  0
LINE
  5
81
330
1F
100
AcDbEntity
  8
BEZUGSACHSEN
  6
Continuous
 62
     9
100
AcDbLine
 10
71.2188348754
 20
280.6175693255
 30
0.0
 11
71.2188348754
 21
355.9820693255
 31
0.0
  0
LINE
  5
82
330
1F
100
AcDbEntity
  8
BEZUGSACHSEN
  6
Continuous
 62
     9
100
AcDbLine
 10
72.1402009276
 20
280.6175693255
 30
0.0
 11
72.1402009276
 21
355.9820693255
 31
0.0
  0
LINE
  5
83
330
1F
100
AcDbEntity
  8
BEZUGSACHSEN
  6
Continuous
 62
     7
100
AcDbLine
 10
72.8407722163
 20
368.2998193255
 30
0.0
 11
72.8407722163
 21
268.2998193255
 31
0.0
  0
LWPOLYLINE
  5
84
330
1F
100
AcDbEntity
  8
BEZUGSACHSEN
  6
DOT_CENTER
 62
     7
100
AcDbPolyline
 90
        2
 70
     0
 43
0.25
 10
79.8407722163
 20
360.4491911808
 10
79.8407722163
 20
371.2998193255
  0
LINE
  5
85
330
1F
100
AcDbEntity
  8
BEZUGSACHSEN
  6
Continuous
 62
     7
100
AcDbLine
 10
94.7157722163
 20
365.9224145897
 30
0.0
 11
96.0883674805
 21
368.2998193255
 31
0.0
  0
LINE
  5
86
330
1F
100
AcDbEntity
  8
BEZUGSACHSEN
  6
Continuous
 62
     7
100
AcDbLine
 10
89.5931769521
 20
268.2998193255
 30
0.0
 11
72.8407722163
 21
268.2998193255
 31
0.0
  0
LINE
  5
87
330
1F
100
AcDbEntity
  8
BEZUGSACHSEN
  6
Continuous
 62
     7
100
AcDbLine
 10
96.0883674805
 20
268.2998193255
 30
0.0
 11
101.8407722163
 21
268.2998193255
 31
0.0
  0
LINE
  5
88
330
1F
100
AcDbEntity
  8
BEZUGSACHSEN
  6
Continuous
 62
     7
100
AcDbLine
 10
91.9657722163
 20
272.2998193255
 30
0.0
 11
93.7157722163
 21
272.2998193255
 31
0.0
  0
LINE
  5
89
330
1F
100
AcDbEntity
  8
BEZUGSACHSEN
  6
Continuous
 62
     7
100
AcDbLine
 10
94.7157722163
 20
270.6772240613
 30
0.0
 11
96.0883674805
 21
268.2998193255
 31
0.0
  0
LINE
  5
8A
330
1F
100
AcDbEntity
  8
FASEN
  6
Continuous
 62
     9
100
AcDbLine
 10
85.7738384716
 20
286.5498193255
 30
0.0
 11
85.7738384716
 21
286.9498193255
 31
0.0
  0
LINE
  5
8B
330
1F
100
AcDbEntity
  8
FASEN
  6
Continuous
 62
     9
100
AcDbLine
 10
87.8117722163
 20
328.3208193255
 30
0.0
 11
87.8117722163
 21
327.9208193255
 31
0.0
  0
LINE
  5
8C
330
1F
100
AcDbEntity
  8
FASEN
  6
Continuous
 62
     9
100
AcDbLine
 10
87.8117722163
 20
308.2788193255
 30
0.0
 11
87.8117722163
 21
308.6788193255
 31
0.0
  0
LINE
  5
8D
330
1F
100
AcDbEntity
  8
0
  6
Continuous
 62
     7
100
AcDbLine
 10
89.5931769521
 20
368.2998193255
 30
0.0
 11
89.5931769521
 21
328.3208193255
 31
0.0
  0
LINE
  5
8E
330
1F
100
AcDbEntity
  8
0
  6
Continuous
 62
     7
100
AcDbLine
 10
89.5931769521
 20
308.2788193255
 30
0.0
 11
89.5931769521
 21
286.9498193255
 31
0.0
  0
LINE
  5
8F
330
1F
100
AcDbEntity
  8
0
  6
Continuous
 62
     7
100
AcDbLine
 10
89.5931769521
 20
279.3488565646
 30
0.0
 11
89.5931769521
 21
268.2998193255
 31
0.0
  0
LINE
  5
90
330
1F
100
AcDbEntity
  8
FASEN
  6
Continuous
 62
     7
100
AcDbLine
 10
78.1843214065
 20
279.3488565646
 30
0.0
 11
89.5931769521
 21
279.3488565646
 31
0.0
  0
LINE
  5
91
330
1F
100
AcDbEntity
  8
FASEN
  6
Continuous
 62
     7
100
AcDbLine
 10
96.0883674805
 20
279.3488565646
 30
0.0
 11
101.3907722163
 21
279.3488565646
 31
0.0
  0
LINE
  5
92
330
1F
100
AcDbEntity
  8
BEZUGSACHSEN
  6
Continuous
 62
     7
100
AcDbLine
 10
70.3407722163
 20
280.4175693255
 30
0.0
 11
24.7406977315
 21
282.7021330572
 31
0.0
  0
LINE
  5
93
330
1F
100
AcDbEntity
  8
0
  6
Continuous
 62
     7
100
AcDbLine
 10
90.9657722163
 20
365.9223812136
 30
0.0
 11
90.9657722163
 21
328.3208193255
 31
0.0
  0
LINE
  5
94
330
1F
100
AcDbEntity
  8
0
  6
Continuous
 62
     7
100
AcDbLine
 10
90.9657722163
 20
308.2788193255
 30
0.0
 11
90.9657722163
 21
286.9498193255
 31
0.0
  0
LINE
  5
95
330
1F
100
AcDbEntity
  8
0
  6
Continuous
 62
     7
100
AcDbLine
 10
90.9657722163
 20
270.6772603294
 30
0.0
 11
90.9657722163
 21
283.2830019373
 31
0.0
  0
LINE
  5
96
330
1F
100
AcDbEntity
  8
0
  6
Continuous
 62
     9
100
AcDbLine
 10
91.9657722163
 20
272.2998193255
 30
0.0
 11
91.9657722163
 21
284.6371174137
 31
0.0
  0
LINE
  5
97
330
1F
100
AcDbEntity
  8
0
  6
Continuous
 62
     9
100
AcDbLine
 10
91.9657722163
 20
286.9498193255
 30
0.0
 11
91.9657722163
 21
308.2788193255
 31
0.0
  0
LINE
  5
98
330
1F
100
AcDbEntity
  8
0
  6
Continuous
 62
     9
100
AcDbLine
 10
91.9657722163
 20
328.3208193255
 30
0.0
 11
91.9657722163
 21
364.2998193255
 31
0.0
  0
LINE
  5
99
330
1F
100
AcDbEntity
  8
0
  6
Continuous
 62
     9
100
AcDbLine
 10
93.7157722163
 20
272.2998193255
 30
0.0
 11
93.7157722163
 21
284.6371174137
 31
0.0
  0
LINE
  5
9A
330
1F
100
AcDbEntity
  8
0
  6
Continuous
 62
     9
100
AcDbLine
 10
93.7157722163
 20
286.9498193255
 30
0.0
 11
93.7157722163
 21
308.2788193255
 31
0.0
  0
LINE
  5
9B
330
1F
100
AcDbEntity
  8
0
  6
Continuous
 62
     9
100
AcDbLine
 10
93.7157722163
 20
328.3208193255
 30
0.0
 11
93.7157722163
 21
364.2998193255
 31
0.0
  0
LINE
  5
9C
330
1F
100
AcDbEntity
  8
0
  6
Continuous
 62
     7
100
AcDbLine
 10
94.7157722163
 20
270.6772603294
 30
0.0
 11
94.7157722163
 21
283.2830019373
 31
0.0
  0
LINE
  5
9D
330
1F
100
AcDbEntity
  8
0
  6
Continuous
 62
     7
100
AcDbLine
 10
94.7157722163
 20
286.9498193255
 30
0.0
 11
94.7157722163
 21
308.2788193255
 31
0.0
  0
LINE
  5
9E
330
1F
100
AcDbEntity
  8
0
  6
Continuous
 62
     7
100
AcDbLine
 10
94.7157722163
 20
328.3208193255
 30
0.0
 11
94.7157722163
 21
365.9223812136
 31
0.0
  0
LINE
  5
9F
330
1F
100
AcDbEntity
  8
0
  6
Continuous
 62
     7
100
AcDbLine
 10
96.0883674805
 20
368.2998193255
 30
0.0
 11
96.0883674805
 21
328.3208193255
 31
0.0
  0
LINE
  5
A0
330
1F
100
AcDbEntity
  8
0
  6
Continuous
 62
     7
100
AcDbLine
 10
96.0883674805
 20
308.2788193255
 30
0.0
 11
96.0883674805
 21
286.9498193255
 31
0.0
  0
LINE
  5
A1
330
1F
100
AcDbEntity
  8
0
  6
Continuous
 62
     7
100
AcDbLine
 10
96.0883674805
 20
279.3488565646
 30
0.0
 11
96.0883674805
 21
268.2998193255
 31
0.0
  0
LINE
  5
A2
330
1F
100
AcDbEntity
  8
BEZUGSACHSEN
  6
Continuous
 62
     9
100
AcDbLine
 10
22.8407722163
 20
304.8536353565
 30
0.0
 11
24.8407722163
 21
305.8961793771
 31
0.0
  0
LINE
  5
A3
330
1F
100
AcDbEntity
  8
BEZUGSACHSEN
  6
Continuous
 62
     7
100
AcDbLine
 10
72.1402009276
 20
280.6175693255
 30
0.0
 11
71.2188348754
 21
280.6175693255
 31
0.0
  0
LINE
  5
A4
330
1F
100
AcDbEntity
  8
0
  6
Continuous
 62
     7
100
AcDbLine
 10
91.9657722163
 20
284.6371174137
 30
0.0
 11
93.7157722163
 21
284.6371174137
 31
0.0
  0
LINE
  5
A5
330
1F
100
AcDbEntity
  8
FASEN
  6
Continuous
 62
     7
100
AcDbLine
 10
85.7738384716
 20
286.5498193255
 30
0.0
 11
101.3907722163
 21
286.5498193255
 31
0.0
  0
LINE
  5
A6
330
1F
100
AcDbEntity
  8
0
  6
Continuous
 62
     7
100
AcDbLine
 10
85.7738384716
 20
286.9498193255
 30
0.0
 11
101.7907722163
 21
286.9498193255
 31
0.0
  0
LINE
  5
A7
330
1F
100
AcDbEntity
  8
BEZUGSACHSEN
  6
Continuous
 62
     9
100
AcDbLine
 10
24.8407722163
 20
330.7034592739
 30
0.0
 11
22.8407722163
 21
331.7460032945
 31
0.0
  0
LINE
  5
A8
330
1F
100
AcDbEntity
  8
FASEN
  6
Continuous
 62
     7
100
AcDbLine
 10
101.3907722163
 20
286.5498193255
 30
0.0
 11
101.3907722163
 21
279.3488565646
 31
0.0
  0
LINE
  5
A9
330
1F
100
AcDbEntity
  8
FASEN
  6
Continuous
 62
     7
100
AcDbLine
 10
101.7907722163
 20
286.9498193255
 30
0.0
 11
101.7907722163
 21
279.6742125341
 31
0.0
  0
LINE
  5
AA
330
1F
100
AcDbEntity
  8
0
  6
Continuous
 62
     7
100
AcDbLine
 10
101.8407722163
 20
368.2997824553
 30
0.0
 11
101.8407722163
 21
328.3208193255
 31
0.0
  0
LINE
  5
AB
330
1F
100
AcDbEntity
  8
0
  6
Continuous
 62
     7
100
AcDbLine
 10
101.8407722163
 20
308.2788193255
 30
0.0
 11
101.8407722163
 21
268.299856321
 31
0.0
  0
LINE
  5
AC
330
1F
100
AcDbEntity
  8
FASEN
  6
Continuous
 62
     7
100
AcDbLine
 10
101.8407722163
 20
308.2788193255
 30
0.0
 11
101.8407722163
 21
328.3208193255
 31
0.0
  0
LINE
  5
AD
330
1F
100
AcDbEntity
  8
RUNDUNGEN
  6
Continuous
 62
     9
100
AcDbLine
 10
113.3301339184
 20
339.2432308405
 30
0.0
 11
113.3301339184
 21
297.3564078105
 31
0.0
  0
LINE
  5
AE
330
1F
100
AcDbEntity
  8
BEZUGSACHSEN
  6
Continuous
 62
     7
100
AcDbLine
 10
70.9600158303
 20
280.5834951518
 30
0.0
 11
70.3407722163
 21
280.4175693255
 31
0.0
  0
LINE
  5
AF
330
1F
100
AcDbEntity
  8
BEZUGSACHSEN
  6
Continuous
 62
     9
100
AcDbLine
 10
32.3946181632
 20
303.2898193255
 30
0.0
 11
24.1077251433
 21
303.2898193255
 31
0.0
  0
LINE
  5
B0
330
1F
100
AcDbEntity
  8
BEZUGSACHSEN
  6
Continuous
 62
     7
100
AcDbLine
 10
89.5931769521
 20
268.2998193255
 30
0.0
 11
90.9657722163
 21
270.6772240613
 31
0.0
  0
LINE
  5
B1
330
1F
100
AcDbEntity
  8
0
  6
Continuous
 62
     7
100
AcDbLine
 10
171.8407722163
 20
304.2998193255
 30
0.0
 11
204.8265586539
 21
304.2998193255
 31
0.0
  0
LINE
  5
B2
330
1F
100
AcDbEntity
  8
0
  6
Continuous
 62
     7
100
AcDbLine
 10
216.2907722163
 20
304.2998193255
 30
0.0
 11
230.2426960049
 21
304.2998193255
 31
0.0
  0
LINE
  5
B3
330
1F
100
AcDbEntity
  8
FASEN
  6
Continuous
 62
     7
100
AcDbLine
 10
230.2426960049
 20
304.3221217249
 30
0.0
 11
220.5423898847
 21
304.3221217249
 31
0.0
  0
LINE
  5
B4
330
1F
100
AcDbEntity
  8
RUNDUNGEN
  6
Continuous
 62
     7
100
AcDbLine
 10
215.0407722163
 20
307.2998193255
 30
0.0
 11
208.6549857786
 21
307.2998193255
 31
0.0
  0
LINE
  5
B5
330
1F
100
AcDbEntity
  8
0
  6
Continuous
 62
     7
100
AcDbLine
 10
208.6549857786
 20
307.2998193255
 30
0.0
 11
215.0407722163
 21
307.2998193255
 31
0.0
  0
LWPOLYLINE
  5
B6
330
1F
100
AcDbEntity
  8
DEFAULT_2
  6
DASHED
 62
     8
100
AcDbPolyline
 90
        2
 70
     0
 43
0.35
 10
215.0407722163
 20
307.2998193255
 10
222.2407722163
 20
307.2998193255
  0
LINE
  5
B7
330
1F
100
AcDbEntity
  8
0
  6
Continuous
 62
     7
100
AcDbLine
 10
87.8117722163
 20
308.2788193255
 30
0.0
 11
101.8407722163
 21
308.2788193255
 31
0.0
  0
LINE
  5
B8
330
1F
100
AcDbEntity
  8
BEZUGSACHSEN
  6
Continuous
 62
     7
100
AcDbLine
 10
30.8407722163
 20
308.2898193255
 30
0.0
 11
24.8407722163
 21
308.2898193255
 31
0.0
  0
LINE
  5
B9
330
1F
100
AcDbEntity
  8
FASEN
  6
Continuous
 62
     7
100
AcDbLine
 10
87.8117722163
 20
308.6788193255
 30
0.0
 11
101.8407722163
 21
308.6788193255
 31
0.0
  0
LINE
  5
BA
330
1F
100
AcDbEntity
  8
FASEN
  6
Continuous
 62
     7
100
AcDbLine
 10
220.5421890207
 20
310.6268818314
 30
0.0
 11
230.2426960049
 21
310.6268818314
 31
0.0
  0
LINE
  5
BB
330
1F
100
AcDbEntity
  8
BEZUGSACHSEN
  6
Continuous
 62
     7
100
AcDbLine
 10
89.5931769521
 20
368.2998193255
 30
0.0
 11
90.9657722163
 21
365.9224145897
 31
0.0
  0
LWPOLYLINE
  5
BC
330
1F
100
AcDbEntity
  8
DEFAULT_2
  6
DASHED
 62
     8
100
AcDbPolyline
 90
        2
 70
     0
 43
0.35
 10
222.2407722163
 20
326.2998193255
 10
202.6735054797
 20
323.5498193255
  0
LINE
  5
BD
330
1F
100
AcDbEntity
  8
FASEN
  6
Continuous
 62
     7
100
AcDbLine
 10
230.2426960049
 20
311.995059219
 30
0.0
 11
220.5508711045
 21
311.995059219
 31
0.0
  0
LWPOLYLINE
  5
BE
330
1F
100
AcDbEntity
  8
DEFAULT_2
  6
DASHED
 62
     8
100
AcDbPolyline
 90
        2
 70
     0
 43
0.35
 10
202.6735054797
 20
313.0498193255
 10
200.2407722163
 20
313.0498193255
  0
LWPOLYLINE
  5
BF
330
1F
100
AcDbEntity
  8
BG_STARTBEZUEGE
  6
DOT_CENTER
 62
     7
100
AcDbPolyline
 90
        2
 70
     0
 43
0.25
 10
235.8407722163
 20
318.2998193255
 10
19.8407722163
 20
318.2998193255
  0
LINE
  5
C0
330
1F
100
AcDbEntity
  8
FASEN
  6
Continuous
 62
     7
100
AcDbLine
 10
101.7907722163
 20
286.9498193255
 30
0.0
 11
101.3907722163
 21
286.5498193255
 31
0.0
  0
LWPOLYLINE
  5
C1
330
1F
100
AcDbEntity
  8
DEFAULT_2
  6
DASHED
 62
     8
100
AcDbPolyline
 90
        2
 70
     0
 43
0.35
 10
202.6735054797
 20
323.5498193255
 10
200.2407722163
 20
323.5498193255
  0
LINE
  5
C2
330
1F
100
AcDbEntity
  8
FASEN
  6
Continuous
 62
     7
100
AcDbLine
 10
220.5508722702
 20
324.6045794319
 30
0.0
 11
230.2426960049
 21
324.6045794319
 31
0.0
  0
LINE
  5
C3
330
1F
100
AcDbEntity
  8
FASEN
  6
Continuous
 62
     7
100
AcDbLine
 10
230.2426960049
 20
325.9727568196
 30
0.0
 11
220.5511341712
 21
325.9727568196
 31
0.0
  0
LWPOLYLINE
  5
C4
330
1F
100
AcDbEntity
  8
DEFAULT_2
  6
DASHED
 62
     8
100
AcDbPolyline
 90
        2
 70
     0
 43
0.35
 10
222.2407722163
 20
310.2998193255
 10
202.6735054797
 20
313.0498193255
  0
LINE
  5
C5
330
1F
100
AcDbEntity
  8
FASEN
  6
Continuous
 62
     7
100
AcDbLine
 10
101.8407722163
 20
327.9208193255
 30
0.0
 11
87.8117722163
 21
327.9208193255
 31
0.0
  0
LINE
  5
C6
330
1F
100
AcDbEntity
  8
BEZUGSACHSEN
  6
Continuous
 62
     7
100
AcDbLine
 10
30.8407722163
 20
328.3098193255
 30
0.0
 11
24.8407722163
 21
328.3098193255
 31
0.0
  0
LINE
  5
C7
330
1F
100
AcDbEntity
  8
0
  6
Continuous
 62
     7
100
AcDbLine
 10
87.8117722163
 20
328.3208193255
 30
0.0
 11
101.8407722163
 21
328.3208193255
 31
0.0
  0
LINE
  5
C8
330
1F
100
AcDbEntity
  8
RUNDUNGEN
  6
Continuous
 62
     7
100
AcDbLine
 10
215.0407722163
 20
329.2998193255
 30
0.0
 11
208.6549857786
 21
329.2998193255
 31
0.0
  0
LINE
  5
C9
330
1F
100
AcDbEntity
  8
0
  6
Continuous
 62
     7
100
AcDbLine
 10
208.6549857786
 20
329.2998193255
 30
0.0
 11
215.0407722163
 21
329.2998193255
 31
0.0
  0
LWPOLYLINE
  5
CA
330
1F
100
AcDbEntity
  8
DEFAULT_2
  6
DASHED
 62
     8
100
AcDbPolyline
 90
        2
 70
     0
 43
0.35
 10
215.0407722163
 20
329.2998193255
 10
222.2407722163
 20
329.2998193255
  0
LINE
  5
CB
330
1F
100
AcDbEntity
  8
FASEN
  6
Continuous
 62
     7
100
AcDbLine
 10
220.5513211867
 20
332.277516926
 30
0.0
 11
230.2426960049
 21
332.277516926
 31
0.0
  0
LINE
  5
CC
330
1F
100
AcDbEntity
  8
RUNDUNGEN
  6
Continuous
 62
     7
100
AcDbLine
 10
230.2426960049
 20
332.2998193255
 30
0.0
 11
216.2907722163
 21
332.2998193255
 31
0.0
  0
LINE
  5
CD
330
1F
100
AcDbEntity
  8
0
  6
Continuous
 62
     7
100
AcDbLine
 10
204.8265586539
 20
332.2998193255
 30
0.0
 11
171.8407722163
 21
332.2998193255
 31
0.0
  0
LINE
  5
CE
330
1F
100
AcDbEntity
  8
0
  6
Continuous
 62
     7
100
AcDbLine
 10
216.2907722163
 20
332.2998193255
 30
0.0
 11
230.2426960049
 21
332.2998193255
 31
0.0
  0
LINE
  5
CF
330
1F
100
AcDbEntity
  8
BEZUGSACHSEN
  6
Continuous
 62
     9
100
AcDbLine
 10
24.1077251433
 20
333.3098193255
 30
0.0
 11
32.3946181632
 21
333.3098193255
 31
0.0
  0
LINE
  5
D0
330
1F
100
AcDbEntity
  8
BEZUGSACHSEN
  6
Continuous
 62
     7
100
AcDbLine
 10
70.9600158303
 20
356.0161434992
 30
0.0
 11
70.3407722163
 21
356.1820693255
 31
0.0
  0
LINE
  5
D1
330
1F
100
AcDbEntity
  8
BEZUGSACHSEN
  6
Continuous
 62
     7
100
AcDbLine
 10
72.1402009276
 20
355.9820693255
 30
0.0
 11
71.2188348754
 21
355.9820693255
 31
0.0
  0
LINE
  5
D2
330
1F
100
AcDbEntity
  8
0
  6
Continuous
 62
     9
100
AcDbLine
 10
171.8407722163
 20
332.2998193255
 30
0.0
 11
171.8407722163
 21
304.2998193255
 31
0.0
  0
LINE
  5
D3
330
1F
100
AcDbEntity
  8
BEZUGSACHSEN
  6
Continuous
 62
     7
100
AcDbLine
 10
70.3407722163
 20
356.1820693255
 30
0.0
 11
24.7406977315
 21
353.8975055938
 31
0.0
  0
LINE
  5
D4
330
1F
100
AcDbEntity
  8
BEZUGSACHSEN
  6
Continuous
 62
     7
100
AcDbLine
 10
91.9657722163
 20
364.2998193255
 30
0.0
 11
93.7157722163
 21
364.2998193255
 31
0.0
  0
LINE
  5
D5
330
1F
100
AcDbEntity
  8
BEZUGSACHSEN
  6
Continuous
 62
     7
100
AcDbLine
 10
89.5931769521
 20
368.2998193255
 30
0.0
 11
84.8407722163
 21
368.2998193255
 31
0.0
  0
LINE
  5
D6
330
1F
100
AcDbEntity
  8
BEZUGSACHSEN
  6
Continuous
 62
     7
100
AcDbLine
 10
74.8407722163
 20
368.2998193255
 30
0.0
 11
72.8407722163
 21
368.2998193255
 31
0.0
  0
LINE
  5
D7
330
1F
100
AcDbEntity
  8
BEZUGSACHSEN
  6
Continuous
 62
     7
100
AcDbLine
 10
96.0883674805
 20
368.2998193255
 30
0.0
 11
101.8407722163
 21
368.2998193255
 31
0.0
  0
LINE
  5
D8
330
1F
100
AcDbEntity
  8
0
  6
Continuous
 62
     7
100
AcDbLine
 10
205.5336654351
 20
304.5927125443
 30
0.0
 11
207.9478789975
 21
307.0069261067
 31
0.0
  0
LINE
  5
D9
330
1F
100
AcDbEntity
  8
0
  6
Continuous
 62
     7
100
AcDbLine
 10
205.5336654351
 20
332.0069261067
 30
0.0
 11
207.9478789975
 21
329.5927125443
 31
0.0
  0
LINE
  5
DA
330
1F
100
AcDbEntity
  8
RUNDUNGEN
  6
Continuous
 62
     7
100
AcDbLine
 10
207.9478789975
 20
329.5927125443
 30
0.0
 11
205.5336654351
 21
332.0069261067
 31
0.0
  0
LWPOLYLINE
  5
DB
330
1F
100
AcDbEntity
  8
DEFAULT_2
  6
DASHED
 62
     8
100
AcDbPolyline
 90
        2
 70
     0
 43
0.35
 10
200.2407722163
 20
323.5498193255
 10
200.2407722163
 20
313.0498193255
  0
LWPOLYLINE
  5
DC
330
1F
100
AcDbEntity
  8
DEFAULT_2
  6
DASHED
 62
     8
100
AcDbPolyline
 90
        2
 70
     0
 43
0.35
 10
202.6735054797
 20
323.5498193255
 10
202.6735054797
 20
313.0498193255
  0
LINE
  5
DD
330
1F
100
AcDbEntity
  8
RUNDUNGEN
  6
Continuous
 62
     9
100
AcDbLine
 10
204.8265586539
 20
304.2998193255
 30
0.0
 11
204.8265586539
 21
332.2998193255
 31
0.0
  0
LINE
  5
DE
330
1F
100
AcDbEntity
  8
RUNDUNGEN
  6
Continuous
 62
     9
100
AcDbLine
 10
205.5336654351
 20
304.5927125443
 30
0.0
 11
205.5336654351
 21
332.0069261067
 31
0.0
  0
LINE
  5
DF
330
1F
100
AcDbEntity
  8
RUNDUNGEN
  6
Continuous
 62
     9
100
AcDbLine
 10
207.9478789975
 20
329.5927125443
 30
0.0
 11
207.9478789975
 21
307.0069261067
 31
0.0
  0
LINE
  5
E0
330
1F
100
AcDbEntity
  8
RUNDUNGEN
  6
Continuous
 62
     9
100
AcDbLine
 10
208.6549857786
 20
329.2998193255
 30
0.0
 11
208.6549857786
 21
307.2998193255
 31
0.0
  0
LINE
  5
E1
330
1F
100
AcDbEntity
  8
RUNDUNGEN
  6
Continuous
 62
     7
100
AcDbLine
 10
215.0407722163
 20
305.5498193255
 30
0.0
 11
215.0407722163
 21
331.0498193255
 31
0.0
  0
LINE
  5
E2
330
1F
100
AcDbEntity
  8
RUNDUNGEN
  6
Continuous
 62
     9
100
AcDbLine
 10
216.2907722163
 20
304.2998193255
 30
0.0
 11
216.2907722163
 21
332.2998193255
 31
0.0
  0
LINE
  5
E3
330
1F
100
AcDbEntity
  8
FASEN
  6
Continuous
 62
     7
100
AcDbLine
 10
220.5423898847
 20
304.3221217249
 30
0.0
 11
220.5421890207
 21
310.6268818314
 31
0.0
  0
LINE
  5
E4
330
1F
100
AcDbEntity
  8
FASEN
  6
Continuous
 62
     7
100
AcDbLine
 10
220.5508711045
 20
311.995059219
 30
0.0
 11
220.5508722702
 21
324.6045794319
 31
0.0
  0
LINE
  5
E5
330
1F
100
AcDbEntity
  8
FASEN
  6
Continuous
 62
     7
100
AcDbLine
 10
220.5511341712
 20
325.9727568196
 30
0.0
 11
220.5513211867
 21
332.277516926
 31
0.0
  0
LWPOLYLINE
  5
E6
330
1F
100
AcDbEntity
  8
DEFAULT_2
  6
DASHED
 62
     8
100
AcDbPolyline
 90
        2
 70
     0
 43
0.35
 10
222.2407722163
 20
329.2998193255
 10
222.2407722163
 20
307.2998193255
  0
LINE
  5
E7
330
1F
100
AcDbEntity
  8
RUNDUNGEN
  6
Continuous
 62
     7
100
AcDbLine
 10
232.8407722163
 20
307.5498193255
 30
0.0
 11
231.3252277597
 21
304.9248193255
 31
0.0
  0
LINE
  5
E8
330
1F
100
AcDbEntity
  8
0
  6
Continuous
 62
     7
100
AcDbLine
 10
231.3252277597
 20
304.9248193255
 30
0.0
 11
232.8407722163
 21
307.5498193255
 31
0.0
  0
LINE
  5
E9
330
1F
100
AcDbEntity
  8
0
  6
Continuous
 62
     7
100
AcDbLine
 10
231.3252277597
 20
331.6748193255
 30
0.0
 11
232.8407722163
 21
329.0498193255
 31
0.0
  0
LINE
  5
EA
330
1F
100
AcDbEntity
  8
RUNDUNGEN
  6
Continuous
 62
     7
100
AcDbLine
 10
232.8407722163
 20
329.0498193255
 30
0.0
 11
231.3252277597
 21
331.6748193255
 31
0.0
  0
LINE
  5
EB
330
1F
100
AcDbEntity
  8
0
  6
Continuous
 62
     9
100
AcDbLine
 10
230.2426960049
 20
304.2998193255
 30
0.0
 11
230.2426960049
 21
304.3221217249
 31
0.0
  0
LINE
  5
EC
330
1F
100
AcDbEntity
  8
0
  6
Continuous
 62
     9
100
AcDbLine
 10
230.2426960049
 20
310.6268818314
 30
0.0
 11
230.2426960049
 21
311.995059219
 31
0.0
  0
LINE
  5
ED
330
1F
100
AcDbEntity
  8
0
  6
Continuous
 62
     9
100
AcDbLine
 10
230.2426960049
 20
324.6045794319
 30
0.0
 11
230.2426960049
 21
325.9727568196
 31
0.0
  0
LINE
  5
EE
330
1F
100
AcDbEntity
  8
0
  6
Continuous
 62
     9
100
AcDbLine
 10
230.2426960049
 20
332.277516926
 30
0.0
 11
230.2426960049
 21
332.2998193255
 31
0.0
  0
LINE
  5
EF
330
1F
100
AcDbEntity
  8
0
  6
Continuous
 62
     9
100
AcDbLine
 10
231.3252277597
 20
304.9248193255
 30
0.0
 11
231.3252277597
 21
305.0953934893
 31
0.0
  0
LINE
  5
F0
330
1F
100
AcDbEntity
  8
0
  6
Continuous
 62
     9
100
AcDbLine
 10
231.3252277597
 20
309.853610067
 30
0.0
 11
231.3252277597
 21
313.5416027478
 31
0.0
  0
LINE
  5
F1
330
1F
100
AcDbEntity
  8
0
  6
Continuous
 62
     9
100
AcDbLine
 10
231.3252277597
 20
323.0580359032
 30
0.0
 11
231.3252277597
 21
326.746028584
 31
0.0
  0
LINE
  5
F2
330
1F
100
AcDbEntity
  8
0
  6
Continuous
 62
     9
100
AcDbLine
 10
231.3252277597
 20
331.5042451616
 30
0.0
 11
231.3252277597
 21
331.6748193255
 31
0.0
  0
LINE
  5
F3
330
1F
100
AcDbEntity
  8
0
  6
Continuous
 62
     7
100
AcDbLine
 10
232.8407722163
 20
329.0498193255
 30
0.0
 11
232.8407722163
 21
307.5498193255
 31
0.0
  0
ARC
  5
F4
330
1F
100
AcDbEntity
  8
FASEN
  6
Continuous
 62
     7
100
AcDbCircle
 10
90.5936537162
 20
294.1333524971
 30
0.0
 40
19.30214621110002
100
AcDbArc
 50
228.5120350855002
 51
229.9916611026689
  0
ARC
  5
F5
330
1F
100
AcDbEntity
  8
FASEN
  6
Continuous
 62
     7
100
AcDbCircle
 10
85.7738384716
 20
278.9498193255
 30
0.0
 40
8.0
100
AcDbArc
 50
90.0
 51
174.8048049323972
  0
ARC
  5
F6
330
1F
100
AcDbEntity
  8
FASEN
  6
Continuous
 62
     7
100
AcDbCircle
 10
85.7738384716
 20
278.9498193255
 30
0.0
 40
7.599980211799959
100
AcDbArc
 50
90.0
 51
176.9903069153985
  0
ARC
  5
F7
330
1F
100
AcDbEntity
  8
BEZUGSACHSEN
  6
Continuous
 62
     7
100
AcDbCircle
 10
30.8407722163
 20
310.2898193255
 30
0.0
 40
2.0
100
AcDbArc
 50
270.0
 51
355.2355361864949
  0
ARC
  5
F8
330
1F
100
AcDbEntity
  8
BEZUGSACHSEN
  6
Continuous
 62
     7
100
AcDbCircle
 10
24.8407722163
 20
284.6996277624
 30
0.0
 40
2.0
100
AcDbArc
 50
179.9999999971356
 51
267.1318795106973
  0
ARC
  5
F9
330
1F
100
AcDbEntity
  8
BEZUGSACHSEN
  6
Continuous
 62
     7
100
AcDbCircle
 10
91.9657722163
 20
271.2998193255
 30
0.0
 40
1.0
100
AcDbArc
 50
90.0
 51
180.0
  0
ARC
  5
FA
330
1F
100
AcDbEntity
  8
BEZUGSACHSEN
  6
Continuous
 62
     7
100
AcDbCircle
 10
71.2188348754
 20
279.6175693255
 30
0.0
 40
1.0
100
AcDbArc
 50
90.0
 51
104.9999999996998
  0
ARC
  5
FB
330
1F
100
AcDbEntity
  8
BEZUGSACHSEN
  6
Continuous
 62
     7
100
AcDbCircle
 10
72.1402009276
 20
279.6175693255
 30
0.0
 40
0.9999999999998028
100
AcDbArc
 50
45.49026120128747
 51
90.0
  0
ARC
  5
FC
330
1F
100
AcDbEntity
  8
0
  6
Continuous
 62
     7
100
AcDbCircle
 10
-154.3510165437
 20
389.1173939584
 30
0.0
 40
267.5030866025481
100
AcDbArc
 50
335.7734949144787
 51
336.5002085550999
  0
ARC
  5
FD
330
1F
100
AcDbEntity
  8
BEZUGSACHSEN
  6
Continuous
 62
     7
100
AcDbCircle
 10
79.8559802274
 20
418.3525890922
 30
0.0
 40
50.30340021025299
100
AcDbArc
 50
264.2781515101786
 51
269.9826780126
  0
ARC
  5
FE
330
1F
100
AcDbEntity
  8
BEZUGSACHSEN
  6
Continuous
 62
     7
100
AcDbCircle
 10
79.8255642152
 20
418.3525888915
 30
0.0
 40
50.30340000959737
100
AcDbArc
 50
270.0173219760581
 51
275.7218485012792
  0
ARC
  5
FF
330
1F
100
AcDbEntity
  8
0
  6
Continuous
 62
     7
100
AcDbCircle
 10
87.8117722163
 20
318.2998193255
 30
0.0
 40
10.02100000000002
100
AcDbArc
 50
90.0
 51
270.0
  0
ARC
  5
100
330
1F
100
AcDbEntity
  8
FASEN
  6
Continuous
 62
     7
100
AcDbCircle
 10
87.8117722163
 20
318.2998193255
 30
0.0
 40
9.620999207599993
100
AcDbArc
 50
90.0
 51
270.0
  0
ARC
  5
101
330
1F
100
AcDbEntity
  8
BEZUGSACHSEN
  6
Continuous
 62
     7
100
AcDbCircle
 10
30.8407722163
 20
326.3098193255
 30
0.0
 40
1.999999999999988
100
AcDbArc
 50
4.76446378498878
 51
90.0
  0
ARC
  5
102
330
1F
100
AcDbEntity
  8
BEZUGSACHSEN
  6
Continuous
 62
     7
100
AcDbCircle
 10
24.8407722163
 20
351.9000108885
 30
0.0
 40
2.000000000052407
100
AcDbArc
 50
92.86812048915934
 51
180.0000000143238
  0
ARC
  5
103
330
1F
100
AcDbEntity
  8
BEZUGSACHSEN
  6
Continuous
 62
     7
100
AcDbCircle
 10
91.9657722163
 20
365.2998193255
 30
0.0
 40
1.0
100
AcDbArc
 50
180.0
 51
270.0
  0
ARC
  5
104
330
1F
100
AcDbEntity
  8
BEZUGSACHSEN
  6
Continuous
 62
     7
100
AcDbCircle
 10
71.2188348754
 20
356.9820693255
 30
0.0
 40
1.000000000009918
100
AcDbArc
 50
255.0000000003011
 51
270.0
  0
ARC
  5
105
330
1F
100
AcDbEntity
  8
BEZUGSACHSEN
  6
Continuous
 62
     7
100
AcDbCircle
 10
72.1402009276
 20
356.9820693255
 30
0.0
 40
1.0
100
AcDbArc
 50
270.0
 51
314.5097387987125
  0
ARC
  5
106
330
1F
100
AcDbEntity
  8
BEZUGSACHSEN
  6
Continuous
 62
     7
100
AcDbCircle
 10
209.1708188187
 20
-1287.7429400022
 30
0.0
 40
1632.1727637359
100
AcDbArc
 50
96.2726189838
 51
96.48809068979999
  0
ARC
  5
107
330
1F
100
AcDbEntity
  8
0
  6
Continuous
 62
     7
100
AcDbCircle
 10
171.8407722163
 20
54.2998193255
 30
0.0
 40
250.0
100
AcDbArc
 50
90.0
 51
103.5351912917679
  0
ARC
  5
108
330
1F
100
AcDbEntity
  8
RUNDUNGEN
  6
Continuous
 62
     7
100
AcDbCircle
 10
171.8407722163
 20
54.2998193255
 30
0.0
 40
250.0
100
AcDbArc
 50
90.0
 51
103.5351912917679
  0
ARC
  5
109
330
1F
100
AcDbEntity
  8
RUNDUNGEN
  6
Continuous
 62
     7
100
AcDbCircle
 10
116.8407722163
 20
282.7730125014
 30
0.0
 40
15.00000000000542
100
AcDbArc
 50
103.5351912918644
 51
180.0
  0
ARC
  5
10A
330
1F
100
AcDbEntity
  8
RUNDUNGEN
  6
Continuous
 62
     7
100
AcDbCircle
 10
230.2426960049
 20
305.5498193255
 30
0.0
 40
1.25
100
AcDbArc
 50
270.0
 51
330.0000000015914
  0
ARC
  5
10B
330
1F
100
AcDbEntity
  8
RUNDUNGEN
  6
Continuous
 62
     7
100
AcDbCircle
 10
216.2907722163
 20
305.5498193255
 30
0.0
 40
1.25
100
AcDbArc
 50
180.0
 51
270.0
  0
ARC
  5
10C
330
1F
100
AcDbEntity
  8
RUNDUNGEN
  6
Continuous
 62
     7
100
AcDbCircle
 10
208.6549857786
 20
306.2998193255
 30
0.0
 40
1.0
100
AcDbArc
 50
90.0
 51
134.9999999959479
  0
ARC
  5
10D
330
1F
100
AcDbEntity
  8
BEZUGSACHSEN
  6
Continuous
 62
     7
100
AcDbCircle
 10
93.7157722163
 20
271.2998193255
 30
0.0
 40
1.0
100
AcDbArc
 50
0.0
 51
90.0
  0
ARC
  5
10E
330
1F
100
AcDbEntity
  8
RUNDUNGEN
  6
Continuous
 62
     7
100
AcDbCircle
 10
204.8265586539
 20
305.2998193255
 30
0.0
 40
1.0
100
AcDbArc
 50
270.0
 51
315.0000000000011
  0
ARC
  5
10F
330
1F
100
AcDbEntity
  8
BEZUGSACHSEN
  6
Continuous
 62
     7
100
AcDbCircle
 10
209.1708188187
 20
1924.3425786532
 30
0.0
 40
1632.172763736
100
AcDbArc
 50
263.5119093102
 51
263.7273810162
  0
ARC
  5
110
330
1F
100
AcDbEntity
  8
0
  6
Continuous
 62
     7
100
AcDbCircle
 10
340.0325609766
 20
389.1173939586
 30
0.0
 40
267.5030866028999
100
AcDbArc
 50
203.4997914449
 51
204.226505085534
  0
ARC
  5
111
330
1F
100
AcDbEntity
  8
0
  6
Continuous
 62
     7
100
AcDbCircle
 10
171.8407722163
 20
582.2998193255
 30
0.0
 40
249.9999999999887
100
AcDbArc
 50
256.4648087082321
 51
270.0
  0
ARC
  5
112
330
1F
100
AcDbEntity
  8
RUNDUNGEN
  6
Continuous
 62
     7
100
AcDbCircle
 10
171.8407722163
 20
582.2998193255
 30
0.0
 40
249.9999999999887
100
AcDbArc
 50
256.4648087082321
 51
270.0
  0
ARC
  5
113
330
1F
100
AcDbEntity
  8
RUNDUNGEN
  6
Continuous
 62
     7
100
AcDbCircle
 10
116.8407722163
 20
353.8266261496
 30
0.0
 40
15.0
100
AcDbArc
 50
180.0
 51
256.4648087081355
  0
ARC
  5
114
330
1F
100
AcDbEntity
  8
RUNDUNGEN
  6
Continuous
 62
     7
100
AcDbCircle
 10
230.2426960049
 20
331.0498193255
 30
0.0
 40
1.250000000060136
100
AcDbArc
 50
29.99999999840858
 51
90.0
  0
ARC
  5
115
330
1F
100
AcDbEntity
  8
RUNDUNGEN
  6
Continuous
 62
     7
100
AcDbCircle
 10
216.2907722163
 20
331.0498193255
 30
0.0
 40
1.25
100
AcDbArc
 50
90.0
 51
180.0
  0
ARC
  5
116
330
1F
100
AcDbEntity
  8
RUNDUNGEN
  6
Continuous
 62
     7
100
AcDbCircle
 10
208.6549857786
 20
330.2998193255
 30
0.0
 40
0.999999999948298
100
AcDbArc
 50
225.0000000040498
 51
270.0
  0
ARC
  5
117
330
1F
100
AcDbEntity
  8
BEZUGSACHSEN
  6
Continuous
 62
     7
100
AcDbCircle
 10
93.7157722163
 20
365.2998193255
 30
0.0
 40
1.0
100
AcDbArc
 50
270.0
 51
0.0
  0
ARC
  5
118
330
1F
100
AcDbEntity
  8
RUNDUNGEN
  6
Continuous
 62
     7
100
AcDbCircle
 10
204.8265586539
 20
331.2998193255
 30
0.0
 40
1.00000000001904
100
AcDbArc
 50
45.00000000000115
 51
90.0
  0
CIRCLE
  5
119
330
1F
100
AcDbEntity
  8
BEZUGSACHSEN
  6
Continuous
 62
     7
100
AcDbCircle
 10
57.8407722163
 20
318.2998193255
 30
0.0
 40
6.0
  0
SPLINE
  5
11A
330
1F
100
AcDbEntity
  8
0
  6
Continuous
 62
     7
100
AcDbSpline
210
0.0
220
0.0
230
1.0
 70
     8
 71
     3
 72
    15
 73
    11
 74
     9
 42
0.0000000001
 43
0.0000000001
 44
0.00000001
 40
0.0
 40
0.0
 40
0.0
 40
0.0
 40
0.620887919409892
 40
1.242090033588219
 40
1.844651753701292
 40
2.446947792626386
 40
3.049243703500121
 40
3.651805296348702
 40
4.273007305441899
 40
4.893895118261525
 40
4.893895118261525
 40
4.893895118261525
 40
4.893895118261525
 10
231.3252277597
 20
309.853610067
 30
0.0
 10
231.3998042229039
 20
309.6604291678947
 30
0.0
 10
231.548994888063
 20
309.2739696122213
 30
0.0
 10
231.7077623909831
 20
308.6785951147768
 30
0.0
 10
231.8075732654477
 20
308.0772057005923
 30
0.0
 10
231.8418247348235
 20
307.4745015901468
 30
0.0
 10
231.8075731947311
 20
306.8717975271323
 30
0.0
 10
231.707762298801
 20
306.2704082402799
 30
0.0
 10
231.5489948393222
 20
305.6750338493735
 30
0.0
 10
231.3998042065974
 20
305.2885743566804
 30
0.0
 10
231.3252277597
 20
305.0953934893
 30
0.0
 11
231.3252277597
 21
309.853610067
 31
0.0
 11
231.5383912210748
 21
309.2704607317488
 31
0.0
 11
231.6994621873252
 21
308.6705038912255
 31
0.0
 11
231.7968279176565
 21
308.0758606863516
 31
0.0
 11
231.8304092450921
 21
307.4745015482714
 31
0.0
 11
231.7968278546551
 21
306.8731425419602
 31
0.0
 11
231.6994621079261
 21
306.2784994687305
 31
0.0
 11
231.5383911733327
 21
305.6785427285145
 31
0.0
 11
231.3252277597
 21
305.0953934893
 31
0.0
  0
SPLINE
  5
11B
330
1F
100
AcDbEntity
  8
0
  6
Continuous
 62
     7
100
AcDbSpline
210
0.0
220
0.0
230
1.0
 70
     8
 71
     3
 72
    15
 73
    11
 74
     9
 42
0.0000000001
 43
0.0000000001
 44
0.00000001
 40
0.0
 40
0.0
 40
0.0
 40
0.0
 40
1.198038271568712
 40
2.396292773100037
 40
3.594571867431566
 40
4.792752261376974
 40
5.990932393375925
 40
7.189211226138916
 40
8.3874655279837
 40
9.585503599025023
 40
9.585503599025023
 40
9.585503599025023
 40
9.585503599025023
 10
231.3252277597
 20
323.0580359032
 30
0.0
 10
231.4007665999257
 20
322.6658302636152
 30
0.0
 10
231.5518579141325
 20
321.8813481965478
 30
0.0
 10
231.7091899750553
 20
320.6928231418422
 30
0.0
 10
231.8081681936337
 20
319.4982047877919
 30
0.0
 10
231.8415293307583
 20
318.2998189524646
 30
0.0
 10
231.8081681216255
 20
317.1014332068489
 30
0.0
 10
231.7091898823241
 20
315.906815097448
 30
0.0
 10
231.5518578653634
 20
314.7182902600109
 30
0.0
 10
231.4007665836519
 20
313.9338083224793
 30
0.0
 10
231.3252277597
 20
313.5416027478
 30
0.0
 11
231.3252277597
 21
323.0580359032
 31
0.0
 11
231.5402945785521
 21
321.8794596589238
 31
0.0
 11
231.6994621873229
 21
320.6918235518783
 31
0.0
 11
231.7972340205624
 21
319.4975398935554
 31
0.0
 11
231.8304092450558
 21
318.2998188655548
 31
0.0
 11
231.7972339565853
 21
317.1020981013731
 31
0.0
 11
231.6994621079423
 21
315.9078147067549
 31
0.0
 11
231.5402945309841
 21
314.7201787969177
 31
0.0
 11
231.3252277597
 21
313.5416027478
 31
0.0
  0
SPLINE
  5
11C
330
1F
100
AcDbEntity
  8
FASEN
  6
Continuous
 62
     7
100
AcDbSpline
210
0.0
220
0.0
230
1.0
 70
     8
 71
     3
 72
    33
 73
    29
 74
    27
 42
0.0000000001
 43
0.0000000001
 44
0.00000001
 40
0.0
 40
0.0
 40
0.0
 40
0.0
 40
0.4869822226025389
 40
0.973942678609028
 40
1.20650260344404
 40
1.439036665385639
 40
1.664081689505563
 40
1.889138992568495
 40
2.107061457748614
 40
2.324944786247698
 40
2.431492865155123
 40
2.538032480913778
 40
2.643172049488684
 40
2.74831923694855
 40
2.8523187880763
 40
2.956306680611136
 40
3.007907079832329
 40
3.059506803018504
 40
3.110918494013609
 40
3.162328120019895
 40
3.213663070988605
 40
3.265012669619125
 40
3.316208211449533
 40
3.367364566638761
 40
3.418361665397128
 40
3.469402194610647
 40
3.520473134782849
 40
3.571509783322969
 40
3.571509783322969
 40
3.571509783322969
 40
3.571509783322969
 10
220.5511341712
 20
325.9727568196
 30
0.0
 10
220.65821728099
 20
326.0947971152369
 30
0.0
 10
220.8723787142869
 20
326.3388722516877
 30
0.0
 10
221.1166630633992
 20
326.6588247049467
 30
0.0
 10
221.2972723308765
 20
326.9198135024119
 30
0.0
 10
221.4212126003551
 20
327.1136904630501
 30
0.0
 10
221.5362405057399
 20
327.3100896359256
 30
0.0
 10
221.640521208954
 20
327.5069233280489
 30
0.0
 10
221.7346186511601
 20
327.7061893696237
 30
0.0
 10
221.8036987350714
 20
327.8733508325517
 30
0.0
 10
221.853241437846
 20
328.0082101495873
 30
0.0
 10
221.8870666782637
 20
328.1087639766369
 30
0.0
 10
221.9178462100763
 20
328.2098028755426
 30
0.0
 10
221.9455331247393
 20
328.3108542517286
 30
0.0
 10
221.9703091109081
 20
328.4122637245816
 30
0.0
 10
221.9882207950527
 20
328.4969367998959
 30
0.0
 10
222.0007558107672
 20
328.5648553593973
 30
0.0
 10
222.0092264441515
 20
328.6156946940563
 30
0.0
 10
222.0167931680749
 20
328.6666111725256
 30
0.0
 10
222.0237577781052
 20
328.7175228579501
 30
0.0
 10
222.0304333749592
 20
328.768452369553
 30
0.0
 10
222.0366283456816
 20
328.8193710921977
 30
0.0
 10
222.0421608839973
 20
328.8703080117489
 30
0.0
 10
222.0457810134264
 20
328.9213219273735
 30
0.0
 10
222.0462087312404
 20
328.9724114609199
 30
0.0
 10
222.0445937480473
 20
329.0234278361588
 30
0.0
 10
222.0416880900258
 20
329.0744011356651
 30
0.0
 10
222.041077439182
 20
329.1084349439731
 30
0.0
 10
222.0407722163
 20
329.1254461332
 30
0.0
 11
220.5511341712
 21
325.9727568196
 31
0.0
 11
220.8681422564331
 21
326.3424290514862
 31
0.0
 11
221.1639642995988
 21
326.7292362444019
 31
0.0
 11
221.2961007243753
 21
326.9206104429934
 31
0.0
 11
221.4212479760188
 21
327.116595787775
 31
0.0
 11
221.5348429324798
 21
327.3108673727991
 31
0.0
 11
221.6400665207021
 21
327.5098115512602
 31
0.0
 11
221.7329880442693
 21
327.7069302750998
 31
0.0
 11
221.816062968611
 21
327.9083544588103
 31
0.0
 11
221.8527808645899
 21
328.0083759026799
 31
0.0
 11
221.8867252156611
 21
328.1093633808955
 31
0.0
 11
221.917369469668
 21
328.2099380227118
 31
0.0
 11
221.9451599419451
 21
328.3113462111452
 31
0.0
 11
221.9697836622109
 21
328.41238867269
 31
0.0
 11
221.9912448159999
 21
328.5141378774628
 31
0.0
 11
222.0006084226039
 21
328.5648815871335
 31
0.0
 11
222.0090871990451
 21
328.6157799346799
 31
0.0
 11
222.0166950271102
 21
328.6666256122062
 31
0.0
 11
222.0237133741242
 21
328.7175539191808
 31
0.0
 11
222.0303541293096
 21
328.7684575296768
 31
0.0
 11
222.0365249294985
 21
328.8194350002353
 31
0.0
 11
222.0418450624009
 21
328.8703533632216
 31
0.0
 11
222.0452515299711
 21
328.9213961752027
 31
0.0
 11
222.0458686050733
 21
328.9723895404583
 31
0.0
 11
222.0443791271636
 21
329.0234083318783
 31
0.0
 11
222.0420193177903
 21
329.0744247236538
 31
0.0
 11
222.0407722163
 21
329.1254461332
 31
0.0
  0
SPLINE
  5
11D
330
1F
100
AcDbEntity
  8
0
  6
Continuous
 62
     7
100
AcDbSpline
210
0.0
220
0.0
230
1.0
 70
     8
 71
     3
 72
    15
 73
    11
 74
     9
 42
0.0000000001
 43
0.0000000001
 44
0.00000001
 40
0.0
 40
0.0
 40
0.0
 40
0.0
 40
0.620887919409892
 40
1.242090033588219
 40
1.844651753701404
 40
2.446947792626498
 40
3.049243703500176
 40
3.651805296348758
 40
4.273007305429822
 40
4.893895118167336
 40
4.893895118167336
 40
4.893895118167336
 40
4.893895118167336
 10
231.3252277597
 20
331.5042451616
 30
0.0
 10
231.399804222904
 20
331.3110642624948
 30
0.0
 10
231.548994888063
 20
330.9246047068214
 30
0.0
 10
231.707762390983
 20
330.3292302093768
 30
0.0
 10
231.8075732654477
 20
329.7278407951923
 30
0.0
 10
231.8418247348235
 20
329.1251366847468
 30
0.0
 10
231.8075731947313
 20
328.5224326217322
 30
0.0
 10
231.7077622988007
 20
327.9210433348843
 30
0.0
 10
231.5489948393352
 20
327.3256689440061
 30
0.0
 10
231.3998042065989
 20
326.9392094513507
 30
0.0
 10
231.3252277597
 20
326.746028584
 30
0.0
 11
231.3252277597
 21
331.5042451616
 31
0.0
 11
231.5383912210748
 21
330.9210958263488
 31
0.0
 11
231.6994621873252
 21
330.3211389858255
 31
0.0
 11
231.7968279176565
 21
329.7264957809515
 31
0.0
 11
231.8304092450921
 21
329.1251366428713
 31
0.0
 11
231.7968278546551
 21
328.5237776365602
 31
0.0
 11
231.6994621079261
 21
327.9291345633305
 31
0.0
 11
231.5383911733327
 21
327.329177823127
 31
0.0
 11
231.3252277597
 21
326.746028584
 31
0.0
  0
SPLINE
  5
11E
330
1F
100
AcDbEntity
  8
FASEN
  6
Continuous
 62
     7
100
AcDbSpline
210
0.0
220
0.0
230
1.0
 70
     8
 71
     3
 72
    27
 73
    23
 74
    21
 42
0.0000000001
 43
0.0000000001
 44
0.00000001
 40
0.0
 40
0.0
 40
0.0
 40
0.0
 40
0.0510237473416262
 40
0.102071294641724
 40
0.1530980836109167
 40
0.2040901890429634
 40
0.2552087555934742
 40
0.306357636187328
 40
0.3577087510452797
 40
0.4090515620510272
 40
0.512061721606184
 40
0.6150595174320687
 40
0.7190064318587034
 40
0.8229794184255856
 40
1.034601803784084
 40
1.246239908122481
 40
1.464097502056473
 40
1.68197167842564
 40
2.139211840170519
 40
2.596808780482758
 40
3.083775263052669
 40
3.570554678554264
 40
3.570554678554264
 40
3.570554678554264
 40
3.570554678554264
 10
222.0407722163
 20
329.1254461332
 30
0.0
 10
222.0410275375154
 20
329.1424532849144
 30
0.0
 10
222.0415382990404
 20
329.1764755213064
 30
0.0
 10
222.0439280682551
 20
329.2274564873887
 30
0.0
 10
222.0454801713045
 20
329.2784573914232
 30
0.0
 10
222.0453003069196
 20
329.3295241545366
 30
0.0
 10
222.0421870016893
 20
329.380539523816
 30
0.0
 10
222.037065984486
 20
329.4314949163705
 30
0.0
 10
222.0308376255501
 20
329.4823988115199
 30
0.0
 10
222.021560420683
 20
329.5503370098475
 30
0.0
 10
222.0091534991485
 20
329.6352225435731
 30
0.0
 10
221.9916766205908
 20
329.7370704949254
 30
0.0
 10
221.9703497334519
 20
329.8385164677986
 30
0.0
 10
221.937096451234
 20
329.9743703876641
 30
0.0
 10
221.8879975247183
 20
330.1432231051563
 30
0.0
 10
221.8170723809323
 20
330.3449233948567
 30
0.0
 10
221.734617541652
 20
330.544450330409
 30
0.0
 10
221.6073739651216
 20
330.8136432797436
 30
0.0
 10
221.4224966268123
 20
331.1434804543584
 30
0.0
 10
221.1623136241051
 20
331.5319874989425
 30
0.0
 10
220.8724667779804
 20
331.9114818261468
 30
0.0
 10
220.6583560061322
 20
332.1555208535568
 30
0.0
 10
220.5513211867
 20
332.277516926
 30
0.0
 11
222.0407722163
 21
329.1254461332
 31
0.0
 11
222.0418086812899
 21
329.1764593523996
 31
0.0
 11
222.0437887657211
 21
329.2274684824745
 31
0.0
 11
222.0451917512605
 21
329.2784759801987
 31
0.0
 11
222.0448130803887
 21
329.3294666795935
 31
0.0
 11
222.0418548834639
 21
329.3804995799337
 31
0.0
 11
222.0368902478905
 21
329.4314069505162
 31
0.0
 11
222.0307187987467
 21
329.4823858698125
 31
0.0
 11
222.0238374854007
 21
329.5332654508702
 31
0.0
 11
222.0087318198492
 21
329.6351620251003
 31
0.0
 11
221.9911043157926
 21
329.7366401855375
 31
0.0
 11
221.9697971641243
 21
329.8383798843114
 31
0.0
 11
221.9451539137255
 21
329.9393902409359
 31
0.0
 11
221.8861471832165
 21
330.142619765709
 31
0.0
 11
221.8160144887621
 21
330.3422997406101
 31
0.0
 11
221.7329721130376
 21
330.54370950966
 31
0.0
 11
221.6400252656411
 21
330.7407629041692
 31
0.0
 11
221.4174382248515
 21
331.1401669286669
 31
0.0
 11
221.1640196361
 21
331.5211839606462
 31
0.0
 11
220.8681954505485
 21
331.9079971020844
 31
0.0
 11
220.5513211867
 21
332.277516926
 31
0.0
  0
SPLINE
  5
11F
330
1F
100
AcDbEntity
  8
FASEN
  6
Continuous
 62
     7
100
AcDbSpline
210
0.0
220
0.0
230
1.0
 70
     8
 71
     3
 72
    33
 73
    29
 74
    27
 42
0.0000000001
 43
0.0000000001
 44
0.00000001
 40
0.0
 40
0.0
 40
0.0
 40
0.0
 40
0.8162648407679075
 40
1.632552234375406
 40
2.040721981753558
 40
2.448866431870421
 40
2.8570157154553
 40
3.265175669898446
 40
3.67333533281509
 40
4.081475580959462
 40
4.285558076795373
 40
4.489635132631528
 40
4.693707428057087
 40
4.897784088334707
 40
5.10187401960159
 40
5.305957959805869
 40
5.407983868525214
 40
5.510009389753504
 40
5.612038401990011
 40
5.714066440157787
 40
5.816137044136397
 40
5.918214869036634
 40
6.020275643735959
 40
6.122317003760867
 40
6.224316333713796
 40
6.326337259614055
 40
6.428392921041565
 40
6.530431618061909
 40
6.530431618061909
 40
6.530431618061909
 40
6.530431618061909
 10
220.5508711045
 20
311.995059219
 30
0.0
 10
220.6600863710004
 20
312.2442991633526
 30
0.0
 10
220.8785199215444
 20
312.7427859383872
 30
0.0
 10
221.1206192969919
 20
313.3788180913605
 30
0.0
 10
221.2985010530332
 20
313.8931502038061
 30
0.0
 10
221.4226867726622
 20
314.2820006841794
 30
0.0
 10
221.5373033058774
 20
314.6737714003028
 30
0.0
 10
221.6417395825669
 20
315.0683907674547
 30
0.0
 10
221.7354397866187
 20
315.4656947692326
 30
0.0
 10
221.8041865444539
 20
315.7988543092655
 30
0.0
 10
221.8533403287509
 20
316.0664860768941
 30
0.0
 10
221.8871879476586
 20
316.2677452950327
 30
0.0
 10
221.9179184462033
 20
316.4695016445051
 30
0.0
 10
221.9456146636896
 20
316.6717005622435
 30
0.0
 10
221.9703590718756
 20
316.8742860030615
 30
0.0
 10
221.988247762062
 20
317.0434183395844
 30
0.0
 10
222.0007551843929
 20
317.1788888255954
 30
0.0
 10
222.0092295540185
 20
317.280564589269
 30
0.0
 10
222.0167938078336
 20
317.3823123421466
 30
0.0
 10
222.0237582597571
 20
317.484117173813
 30
0.0
 10
222.0304324832387
 20
317.5859577466509
 30
0.0
 10
222.0366316953908
 20
317.6878394670741
 30
0.0
 10
222.0421689955163
 20
317.7897504935005
 30
0.0
 10
222.0457978118289
 20
317.8917326570437
 30
0.0
 10
222.0462414293999
 20
317.9937656031784
 30
0.0
 10
222.0446308126451
 20
318.0957811697157
 30
0.0
 10
222.0417169880229
 20
318.1977812608084
 30
0.0
 10
222.041087122756
 20
318.2658114731025
 30
0.0
 10
222.0407722163
 20
318.2998237519
 30
0.0
 11
220.5508711045
 21
311.995059219
 31
0.0
 11
220.8723278105817
 21
312.7453617422457
 31
0.0
 11
221.1637693330543
 21
313.5078490850531
 31
0.0
 11
221.2969658814872
 21
313.8936744628606
 31
0.0
 11
221.4210916195111
 21
314.2824863625257
 31
0.0
 11
221.5356054116167
 21
314.6742419356941
 31
0.0
 11
221.639950360572
 21
315.0688387933077
 31
0.0
 11
221.7335738605972
 21
315.4661157126917
 31
0.0
 11
221.8159869831752
 21
315.8658487978652
 31
0.0
 11
221.8528376133247
 21
316.0665767136223
 31
0.0
 11
221.8866687341172
 21
316.2678300365382
 31
0.0
 11
221.9174124294739
 21
316.4695732568854
 31
0.0
 11
221.9451220398427
 21
316.6717599546755
 31
0.0
 11
221.9698130218949
 21
316.8743508119466
 31
0.0
 11
221.9912251636648
 21
317.0773083809952
 31
0.0
 11
222.0006042721613
 21
317.1789022704464
 31
0.0
 11
222.0090777671419
 21
317.2805753094721
 31
0.0
 11
222.0166936920452
 21
317.3823196804506
 31
0.0
 11
222.0237087596585
 21
317.4841062679695
 31
0.0
 11
222.0303530404716
 21
317.5859603878127
 31
0.0
 11
222.0365217921034
 21
317.6878516476914
 31
0.0
 11
222.0418513883924
 21
317.7897731720895
 31
0.0
 11
222.0452673046833
 21
317.8917573408199
 31
0.0
 11
222.0458991456568
 21
317.9937547137656
 31
0.0
 11
222.0444139028502
 21
318.0957648278492
 31
0.0
 11
222.0420450938781
 21
318.1977929944184
 31
0.0
 11
222.0407722163
 21
318.2998237519
 31
0.0
  0
SPLINE
  5
120
330
1F
100
AcDbEntity
  8
FASEN
  6
Continuous
 62
     7
100
AcDbSpline
210
0.0
220
0.0
230
1.0
 70
     8
 71
     3
 72
    33
 73
    29
 74
    27
 42
0.0000000001
 43
0.0000000001
 44
0.00000001
 40
0.0
 40
0.0
 40
0.0
 40
0.0
 40
0.1020383767779373
 40
0.2040940229899425
 40
0.3061146598270027
 40
0.4081134813347483
 40
0.5101554622793759
 40
0.6122170595949945
 40
0.7142939011527466
 40
0.8163634356541141
 40
0.9183906310794332
 40
1.020418800425505
 40
1.122444644438805
 40
1.224470926272309
 40
1.428554775245411
 40
1.63264445314406
 40
1.836720675259612
 40
2.040792611683461
 40
2.244869467570255
 40
2.448951740796121
 40
2.857091344490835
 40
3.265250361500317
 40
3.673409810246673
 40
4.081558592902621
 40
4.489702581510813
 40
4.897871871832765
 40
5.714158564341547
 40
6.530422674188274
 40
6.530422674188274
 40
6.530422674188274
 40
6.530422674188274
 10
222.0407722163
 20
318.2998237519
 30
0.0
 10
222.0410889345243
 20
318.3338359234683
 30
0.0
 10
222.0417224245759
 20
318.4018660229779
 30
0.0
 10
222.0446616616736
 20
318.5038652545888
 30
0.0
 10
222.0462716527251
 20
318.6058806755165
 30
0.0
 10
222.0458104980629
 20
318.7079136344305
 30
0.0
 10
222.0421515405846
 20
318.8098950636632
 30
0.0
 10
222.0365938197999
 20
318.9118050263729
 30
0.0
 10
222.0304058849004
 20
319.0136869857912
 30
0.0
 10
222.0237544270472
 20
319.1155280809324
 30
0.0
 10
222.0168039554479
 20
319.2173329610273
 30
0.0
 10
222.0092441627604
 20
319.3190806176907
 30
0.0
 10
222.0007640220814
 20
319.4207558751446
 30
0.0
 10
221.9882451152592
 20
319.5562254941781
 30
0.0
 10
221.9703534500341
 20
319.7253574464578
 30
0.0
 10
221.945613132056
 20
319.9279431236968
 30
0.0
 10
221.9179181893295
 20
320.130141878321
 30
0.0
 10
221.8871874254025
 20
320.3318978541444
 30
0.0
 10
221.853339253383
 20
320.533156715608
 30
0.0
 10
221.8041847778586
 20
320.8007879931753
 30
0.0
 10
221.7354380366951
 20
321.1339470117504
 30
0.0
 10
221.6417383364746
 20
321.5312505187256
 30
0.0
 10
221.5373021461119
 20
321.925869342759
 30
0.0
 10
221.4226855017974
 20
322.3176395167705
 30
0.0
 10
221.2984997081174
 20
322.7064894761131
 30
0.0
 10
221.1206181148864
 20
323.2208210680957
 30
0.0
 10
220.8785200638656
 20
323.8568530442063
 30
0.0
 10
220.6600871942463
 20
324.3553396011483
 30
0.0
 10
220.5508722702
 20
324.6045794319
 30
0.0
 11
222.0407722163
 21
318.2998237519
 31
0.0
 11
222.0420538574123
 21
318.4018540794087
 31
0.0
 11
222.0444404156596
 21
318.5038818171249
 31
0.0
 11
222.0459265510634
 21
318.6058916291148
 31
0.0
 11
222.0452779033815
 21
318.7078883881081
 31
0.0
 11
222.0418355566223
 21
318.8098722894058
 31
0.0
 11
222.0364891599642
 21
318.9117937576517
 31
0.0
 11
222.0303283503828
 21
319.0136845129129
 31
0.0
 11
222.0237034713468
 21
319.1155388248054
 31
0.0
 11
222.016702259076
 21
319.2173255215446
 31
0.0
 11
222.0090907063758
 21
319.3190693744577
 31
0.0
 11
222.0006126401935
 21
319.4207423563184
 31
0.0
 11
221.9912261259288
 21
319.522335936503
 31
0.0
 11
221.9698086656616
 21
319.7252928526389
 31
0.0
 11
221.9451200293021
 21
319.9278837405373
 31
0.0
 11
221.9174119202624
 21
320.130070201821
 31
0.0
 11
221.8866681741509
 21
320.3318130512873
 31
0.0
 11
221.8528365421251
 21
320.5330660855082
 31
0.0
 11
221.8159854376816
 21
320.7337936878611
 31
0.0
 11
221.7335721916352
 21
321.1335260895752
 31
0.0
 11
221.6399490581783
 21
321.5308024317451
 31
0.0
 11
221.5356042220508
 21
321.9253987961156
 31
0.0
 11
221.4210903594546
 21
322.3171538267877
 31
0.0
 11
221.2969645734011
 21
322.7059652266637
 31
0.0
 11
221.1637682039784
 21
323.0917901827443
 31
0.0
 11
220.8723278568478
 21
323.8542772242284
 31
0.0
 11
220.5508722702
 21
324.6045794319
 31
0.0
  0
SPLINE
  5
121
330
1F
100
AcDbEntity
  8
0
  6
Continuous
 62
     7
100
AcDbSpline
210
0.0
220
0.0
230
1.0
 70
     8
 71
     3
 72
    15
 73
    11
 74
     9
 42
0.0000000001
 43
0.0000000001
 44
0.00000001
 40
0.0
 40
0.0
 40
0.0
 40
0.0
 40
0.1375946098655607
 40
0.2753046127723002
 40
0.4273256296265577
 40
0.579317597445998
 40
0.761602399105128
 40
0.9442579998906071
 40
1.179207087269315
 40
1.413339109333334
 40
1.413339109333334
 40
1.413339109333334
 40
1.413339109333334
 10
231.3252277597
 20
305.0953934893
 30
0.0
 10
231.3067565586448
 20
305.0533784616573
 30
0.0
 10
231.2697986657525
 20
304.9693131706759
 30
0.0
 10
231.1975152475783
 20
304.8461975564356
 30
0.0
 10
231.1099650310502
 20
304.7274194697483
 30
0.0
 10
230.9979697291404
 20
304.6096408763278
 30
0.0
 10
230.861789567265
 20
304.5026917667439
 30
0.0
 10
230.6858196145338
 20
304.4064479950135
 30
0.0
 10
230.4774597634401
 20
304.3366036114423
 30
0.0
 10
230.3208596668563
 20
304.3269434115658
 30
0.0
 10
230.2426960049
 20
304.3221217249
 30
0.0
 11
231.3252277597
 21
305.0953934893
 31
0.0
 11
231.2674134922359
 21
304.9705344201795
 31
0.0
 11
231.198034651475
 21
304.8515780359235
 31
0.0
 11
231.1075190829151
 21
304.7294415490996
 31
0.0
 11
231.0026561495162
 21
304.6194173541215
 31
0.0
 11
230.8591650204042
 21
304.5069982953188
 31
0.0
 11
230.6990531324997
 21
304.4190935067691
 31
0.0
 11
230.4755339804371
 21
304.3467038505931
 31
0.0
 11
230.2426960049
 21
304.3221217249
 31
0.0
  0
SPLINE
  5
122
330
1F
100
AcDbEntity
  8
0
  6
Continuous
 62
     7
100
AcDbSpline
210
0.0
220
0.0
230
1.0
 70
     8
 71
     3
 72
    15
 73
    11
 74
     9
 42
0.0000000001
 43
0.0000000001
 44
0.00000001
 40
0.0
 40
0.0
 40
0.0
 40
0.0
 40
0.2341669817663113
 40
0.4691486095685664
 40
0.6517932293387965
 40
0.8340692566067891
 40
0.9860484782038262
 40
1.138055619208099
 40
1.275756197058533
 40
1.413341754865167
 40
1.413341754865167
 40
1.413341754865167
 40
1.413341754865167
 10
230.2426960049
 20
310.6268818314
 30
0.0
 10
230.3208713676131
 20
310.6220605926429
 30
0.0
 10
230.4774940581509
 20
310.6124013424692
 30
0.0
 10
230.6858731820196
 20
310.5425497662372
 30
0.0
 10
230.8618367141522
 20
310.4462841127865
 30
0.0
 10
230.9979970040446
 20
310.3393283664409
 30
0.0
 10
231.1099818221219
 20
310.2215567574191
 30
0.0
 10
231.1975261538835
 20
310.10278923745
 30
0.0
 10
231.2698029683457
 20
309.9796822223694
 30
0.0
 10
231.3067579760952
 20
309.8956224115007
 30
0.0
 10
231.3252277597
 20
309.853610067
 30
0.0
 11
230.2426960049
 21
310.6268818314
 31
0.0
 11
230.4755690279677
 21
310.6022986974077
 31
0.0
 11
230.6991174392673
 21
310.5298937720917
 31
0.0
 11
230.8592112441566
 21
310.4419788656931
 31
0.0
 11
231.0026856110701
 21
310.3295526403035
 31
0.0
 11
231.1075369109064
 21
310.219534965724
 31
0.0
 11
231.1980445144513
 21
310.0974098470266
 31
0.0
 11
231.2674179802723
 21
309.9784612388787
 31
0.0
 11
231.3252277597
 21
309.853610067
 31
0.0
  0
SPLINE
  5
123
330
1F
100
AcDbEntity
  8
0
  6
Continuous
 62
     7
100
AcDbSpline
210
0.0
220
0.0
230
1.0
 70
     8
 71
     3
 72
    21
 73
    17
 74
    15
 42
0.0000000001
 43
0.0000000001
 44
0.00000001
 40
0.0
 40
0.0
 40
0.0
 40
0.0
 40
0.2520803506936469
 40
0.5041482015448162
 40
0.6302235356421624
 40
0.7562882502911055
 40
0.8824116283874216
 40
1.008539971047318
 40
1.134733412854859
 40
1.260933021089243
 40
1.387220433100674
 40
1.513523276867785
 40
1.639992150671388
 40
1.766518153748681
 40
1.893597198755363
 40
2.019992578222547
 40
2.019992578222547
 40
2.019992578222547
 40
2.019992578222547
 10
231.3252277597
 20
313.5416027478
 30
0.0
 10
231.3072641200312
 20
313.4595013041854
 30
0.0
 10
231.2713377314519
 20
313.2953024880989
 30
0.0
 10
231.2123928368027
 20
313.0934561998341
 30
0.0
 10
231.1575099869524
 20
312.9345750668506
 30
0.0
 10
231.111623123763
 20
312.8170915445344
 30
0.0
 10
231.0606240046909
 20
312.7017078966542
 30
0.0
 10
231.003735882613
 20
312.5890448851064
 30
0.0
 10
230.9402951448309
 20
312.4798786288929
 30
0.0
 10
230.8692743866858
 20
312.37538541294
 30
0.0
 10
230.7898522853492
 20
312.276994672896
 30
0.0
 10
230.7007328610421
 20
312.1870988190357
 30
0.0
 10
230.6012273849523
 20
312.1083527665197
 30
0.0
 10
230.4903153140132
 20
312.0462539286347
 30
0.0
 10
230.3695010360015
 20
312.0038793816871
 30
0.0
 10
230.2848882767209
 20
311.9979939819062
 30
0.0
 10
230.2426960049
 20
311.995059219
 30
0.0
 11
231.3252277597
 21
313.5416027478
 31
0.0
 11
231.2685300358661
 21
313.2959813494694
 31
0.0
 11
231.1980346514621
 21
313.0539718409569
 31
0.0
 11
231.1567233716266
 21
312.9348569047561
 31
0.0
 11
231.1107797422396
 21
312.8174622915992
 31
0.0
 11
231.0596462788966
 21
312.7021692934208
 31
0.0
 11
231.0026561494868
 21
312.589650477341
 31
0.0
 11
230.939037648627
 21
312.4806666661414
 31
0.0
 11
230.8678952398957
 21
312.3764308815067
 31
0.0
 11
230.7882496428481
 21
312.2784253239935
 31
0.0
 11
230.6990531325397
 21
312.189002782694
 31
0.0
 11
230.5993789105461
 21
312.1111604708635
 31
0.0
 11
230.4888282001206
 21
312.0496188599069
 31
0.0
 11
230.3682719561734
 21
312.009428366937
 31
0.0
 11
230.2426960049
 21
311.995059219
 31
0.0
  0
SPLINE
  5
124
330
1F
100
AcDbEntity
  8
0
  6
Continuous
 62
     7
100
AcDbSpline
210
0.0
220
0.0
230
1.0
 70
     8
 71
     3
 72
    21
 73
    17
 74
    15
 42
0.0000000001
 43
0.0000000001
 44
0.00000001
 40
0.0
 40
0.0
 40
0.0
 40
0.0
 40
0.1264132797857947
 40
0.2535150155899177
 40
0.380055481088305
 40
0.5065333439652484
 40
0.6328456447102545
 40
0.7591456878299743
 40
0.8853377629636746
 40
1.01152244062463
 40
1.137639138460168
 40
1.263751120707882
 40
1.389807099298429
 40
1.51587371817672
 40
1.767925178191138
 40
2.019989029591458
 40
2.019989029591458
 40
2.019989029591458
 40
2.019989029591458
 10
230.2426960049
 20
324.6045794319
 30
0.0
 10
230.2848942265381
 20
324.6016404326905
 30
0.0
 10
230.3695204844328
 20
324.5957464282658
 30
0.0
 10
230.4903433680288
 20
324.5533426330122
 30
0.0
 10
230.6012750757699
 20
324.4912511687681
 30
0.0
 10
230.7008009822331
 20
324.4125112874457
 30
0.0
 10
230.789918070163
 20
324.3225971918043
 30
0.0
 10
230.8693241947864
 20
324.2241874822111
 30
0.0
 10
230.9403328613054
 20
324.1196878923293
 30
0.0
 10
231.0037639990362
 20
324.0105269834316
 30
0.0
 10
231.060647221394
 20
323.8978734621225
 30
0.0
 10
231.1116432535147
 20
323.7825000068771
 30
0.0
 10
231.1575249671886
 20
323.6650247581803
 30
0.0
 10
231.212400753137
 20
323.5061531352584
 30
0.0
 10
231.271340833364
 20
323.3043199873267
 30
0.0
 10
231.3072651565759
 20
323.1401319431815
 30
0.0
 10
231.3252277597
 20
323.0580359032
 30
0.0
 11
230.2426960049
 21
324.6045794319
 31
0.0
 11
230.3682882193919
 21
324.5901949623158
 31
0.0
 11
230.4888610320442
 21
324.5499824257936
 31
0.0
 11
230.5994288867601
 21
324.4884418788991
 31
0.0
 11
230.6991174392564
 21
324.4106033132705
 31
0.0
 11
230.7883130148981
 21
324.3211664830191
 31
0.0
 11
230.8679502900796
 21
324.2231378887533
 31
0.0
 11
230.9390767452854
 21
324.1189003369958
 31
0.0
 11
231.0026856111328
 21
324.0099210496885
 31
0.0
 11
231.0596697687629
 21
323.8974122622445
 31
0.0
 11
231.1107991248171
 21
323.782129908799
 31
0.0
 11
231.1567382562765
 21
323.664742916593
 31
0.0
 11
231.1980445144457
 21
323.5456354632936
 31
0.0
 11
231.2685335840356
 21
323.3036411874031
 31
0.0
 11
231.3252277597
 21
323.0580359032
 31
0.0
  0
SPLINE
  5
125
330
1F
100
AcDbEntity
  8
0
  6
Continuous
 62
     7
100
AcDbSpline
210
0.0
220
0.0
230
1.0
 70
     8
 71
     3
 72
    15
 73
    11
 74
     9
 42
0.0000000001
 43
0.0000000001
 44
0.00000001
 40
0.0
 40
0.0
 40
0.0
 40
0.0
 40
0.1375946099449455
 40
0.2753046128624385
 40
0.4273256297167417
 40
0.5793175975360996
 40
0.7616023991937922
 40
0.9442579999712012
 40
1.179207087334602
 40
1.413339109395351
 40
1.413339109395351
 40
1.413339109395351
 40
1.413339109395351
 10
231.3252277597
 20
326.746028584
 30
0.0
 10
231.3067565586477
 20
326.7040135563267
 30
0.0
 10
231.2697986657707
 20
326.6199482653052
 30
0.0
 10
231.19751524758
 20
326.4968326510386
 30
0.0
 10
231.1099650310505
 20
326.3780545643483
 30
0.0
 10
230.9979697291405
 20
326.2602759709281
 30
0.0
 10
230.861789567268
 20
326.1533268613463
 30
0.0
 10
230.6858196145364
 20
326.0570830896292
 30
0.0
 10
230.4774597634327
 20
325.9872387061166
 30
0.0
 10
230.3208596668552
 20
325.9775785062574
 30
0.0
 10
230.2426960049
 20
325.9727568196
 30
0.0
 11
231.3252277597
 21
326.746028584
 31
0.0
 11
231.2674134922359
 21
326.621169514792
 31
0.0
 11
231.198034651475
 21
326.5022131305236
 31
0.0
 11
231.1075190829151
 21
326.3800766436996
 31
0.0
 11
231.0026561495162
 21
326.2700524487216
 31
0.0
 11
230.8591650204042
 21
326.1576333899212
 31
0.0
 11
230.6990531324997
 21
326.0697286013883
 31
0.0
 11
230.4755339804371
 21
325.997338945262
 31
0.0
 11
230.2426960049
 21
325.9727568196
 31
0.0
  0
SPLINE
  5
126
330
1F
100
AcDbEntity
  8
0
  6
Continuous
 62
     7
100
AcDbSpline
210
0.0
220
0.0
230
1.0
 70
     8
 71
     3
 72
    15
 73
    11
 74
     9
 42
0.0000000001
 43
0.0000000001
 44
0.00000001
 40
0.0
 40
0.0
 40
0.0
 40
0.0
 40
0.2341669817663113
 40
0.4691486095685489
 40
0.6517932293387789
 40
0.8340692566067716
 40
0.986048478203891
 40
1.138055619208118
 40
1.275756197058503
 40
1.413341754865137
 40
1.413341754865137
 40
1.413341754865137
 40
1.413341754865137
 10
230.2426960049
 20
332.277516926
 30
0.0
 10
230.3208713676131
 20
332.272695687243
 30
0.0
 10
230.4774940581508
 20
332.2630364370692
 30
0.0
 10
230.6858731820195
 20
332.1931848608373
 30
0.0
 10
230.8618367141522
 20
332.0969192073866
 30
0.0
 10
230.9979970040445
 20
331.9899634610408
 30
0.0
 10
231.1099818221219
 20
331.8721918520192
 30
0.0
 10
231.1975261538834
 20
331.7534243320498
 30
0.0
 10
231.2698029683457
 20
331.6303173169695
 30
0.0
 10
231.3067579760952
 20
331.5462575061007
 30
0.0
 10
231.3252277597
 20
331.5042451616
 30
0.0
 11
230.2426960049
 21
332.277516926
 31
0.0
 11
230.4755690279677
 21
332.2529337920077
 31
0.0
 11
230.6991174392673
 21
332.1805288666918
 31
0.0
 11
230.8592112441566
 21
332.0926139602931
 31
0.0
 11
231.0026856110701
 21
331.9801877349036
 31
0.0
 11
231.1075369109064
 21
331.8701700603239
 31
0.0
 11
231.1980445144513
 21
331.7480449416266
 31
0.0
 11
231.2674179802723
 21
331.6290963334787
 31
0.0
 11
231.3252277597
 21
331.5042451616
 31
0.0
  0
SPLINE
  5
127
330
1F
100
AcDbEntity
  8
FASEN
  6
Continuous
 62
     7
100
AcDbSpline
210
0.0
220
0.0
230
1.0
 70
     8
 71
     3
 72
    23
 73
    19
 74
    17
 42
0.0000000001
 43
0.0000000001
 44
0.00000001
 40
0.0
 40
0.0
 40
0.0
 40
0.0
 40
0.4867179216706693
 40
0.9735568557570018
 40
1.431035565521386
 40
1.888467658585578
 40
2.317909259006684
 40
2.74723239086542
 40
3.158640934919852
 40
3.56990642869076
 40
3.981175906416767
 40
4.392588378269808
 40
4.821920367606308
 40
5.251371053158275
 40
5.708813511386207
 40
6.166302328014453
 40
6.653150202319712
 40
7.139877176608771
 40
7.139877176608771
 40
7.139877176608771
 40
7.139877176608771
 10
220.5423898847
 20
304.3221217249
 30
0.0
 10
220.6494088517186
 20
304.4441048137351
 30
0.0
 10
220.8634733938242
 20
304.6881013199954
 30
0.0
 10
221.1532789445938
 20
305.0674899632067
 30
0.0
 10
221.4134941471657
 20
305.455978853429
 30
0.0
 10
221.6327821051646
 20
305.8474456339708
 30
0.0
 10
221.8117076600142
 20
306.248756591084
 30
0.0
 10
221.9427463182282
 20
306.6523637396972
 30
0.0
 10
222.0230674966555
 20
307.0629395415391
 30
0.0
 10
222.0509919440291
 20
307.474509631109
 30
0.0
 10
222.023037434027
 20
307.8860790072129
 30
0.0
 10
221.9426853365213
 20
308.2966544638077
 30
0.0
 10
221.8116153191993
 20
308.7002590643307
 30
0.0
 10
221.6326601935955
 20
309.1015669691028
 30
0.0
 10
221.4133489289405
 20
309.4930317677182
 30
0.0
 10
221.1531137200274
 20
309.8815190127469
 30
0.0
 10
220.8632892947275
 20
310.2609049749132
 30
0.0
 10
220.6492135839592
 20
310.5048996457817
 30
0.0
 10
220.5421890207
 20
310.6268818314
 30
0.0
 11
220.5423898847
 21
304.3221217249
 31
0.0
 11
220.8592215625689
 21
304.6915970599011
 31
0.0
 11
221.1549885018691
 21
305.0782934076461
 31
0.0
 11
221.4083517675973
 21
305.4592052418902
 31
0.0
 11
221.6309359632908
 21
305.8588305608986
 31
0.0
 11
221.8046852411477
 21
306.2515534614487
 31
0.0
 11
221.9360417762821
 21
306.6602878644862
 31
0.0
 11
222.0145334847578
 21
307.0641393741053
 31
0.0
 11
222.0416798639776
 21
307.474507965084
 31
0.0
 11
222.0145034345272
 21
307.8848785597802
 31
0.0
 11
221.9359816934845
 21
308.2887282325297
 31
0.0
 11
221.804593506449
 21
308.6974617659903
 31
0.0
 11
221.6308158621537
 21
309.0901820502439
 31
0.0
 11
221.4082071611578
 21
309.4898055841236
 31
0.0
 11
221.1548235336273
 21
309.870716012754
 31
0.0
 11
220.8590378473016
 21
310.2574092768282
 31
0.0
 11
220.5421890207
 21
310.6268818314
 31
0.0
  0
SPLINE
  5
128
330
1F
100
AcDbEntity
  8
BEZUGSACHSEN
  6
Continuous
 62
     7
100
AcDbSpline
210
0.0
220
0.0
230
1.0
 70
     8
 71
     3
 72
    47
 73
    43
 74
    41
 42
0.0000000001
 43
0.0000000001
 44
0.00000001
 40
0.0
 40
0.0
 40
0.0
 40
0.0
 40
0.6302393214461299
 40
1.260854867303335
 40
1.577476088392401
 40
1.893930800229835
 40
2.210999113884143
 40
2.528183472228179
 40
3.164887038253268
 40
3.801951183383627
 40
4.442851001630763
 40
5.083381259833932
 40
5.404527292359691
 40
5.725573838794743
 40
6.046670710045981
 40
6.367871027149399
 40
7.009090242535721
 40
7.650619763967131
 40
8.290330346513318
 40
8.929958764492254
 40
9.568647011347867
 40
10.20735923013217
 40
10.84445705816864
 40
11.48152626498535
 40
12.11643462225818
 40
12.75141965582733
 40
13.38691908741074
 40
14.02211738533327
 40
14.3405044914363
 40
14.65879153791226
 40
14.9776158686697
 40
15.29653774943798
 40
15.93537694103232
 40
16.57458694071836
 40
17.21386274994822
 40
17.85277859076634
 40
18.17219860085918
 40
18.49150024080545
 40
18.81067156639558
 40
19.13001452425046
 40
19.76719627027254
 40
20.40398968277393
 40
20.40398968277393
 40
20.40398968277393
 40
20.40398968277393
 10
64.3401858541
 20
318.2998193442
 30
0.0
 10
64.33431665235578
 20
318.0896633223144
 30
0.0
 10
64.32257474521896
 20
317.6692258248898
 30
0.0
 10
64.24312800265642
 20
317.1480623826393
 30
0.0
 10
64.15239649759532
 20
316.736670915208
 30
0.0
 10
64.06879111529375
 20
316.4310330749029
 30
0.0
 10
63.97043917390008
 20
316.1296492287098
 30
0.0
 10
63.81942036301356
 20
315.733676049128
 30
0.0
 10
63.59413777541874
 20
315.2525692404541
 30
0.0
 10
63.26775974068612
 20
314.7029350154467
 30
0.0
 10
62.88789267863706
 20
314.1872071527731
 30
0.0
 10
62.5296382393394
 20
313.7896817505502
 30
0.0
 10
62.22045750166303
 20
313.4941283956042
 30
0.0
 10
61.97753254564285
 20
313.2839434871699
 30
0.0
 10
61.72448364233898
 20
313.0860340228504
 30
0.0
 10
61.37470113389547
 20
312.8394106713812
 30
0.0
 10
60.91521589613269
 20
312.5642040621121
 30
0.0
 10
60.33482018915359
 20
312.2901639554102
 30
0.0
 10
59.73066588131222
 20
312.0749754780528
 30
0.0
 10
59.10925073391689
 20
311.9203136390107
 30
0.0
 10
58.47598152249528
 20
311.8275032659762
 30
0.0
 10
57.83752205806429
 20
311.7969925161694
 30
0.0
 10
57.19968904449924
 20
311.8290942585521
 30
0.0
 10
56.56925905748425
 20
311.9229073209258
 30
0.0
 10
55.95168538797068
 20
312.0776211372149
 30
0.0
 10
55.35254197653388
 20
312.2914177092895
 30
0.0
 10
54.77708475507556
 20
312.562739077742
 30
0.0
 10
54.32139936213953
 20
312.8345839613901
 30
0.0
 10
53.97414346442121
 20
313.0780445139879
 30
0.0
 10
53.7225238831407
 20
313.273527040311
 30
0.0
 10
53.48064883287603
 20
313.4812200990002
 30
0.0
 10
53.17171254918311
 20
313.7740576471336
 30
0.0
 10
52.81286979226938
 20
314.1685152960786
 30
0.0
 10
52.43064288700658
 20
314.6819999620369
 30
0.0
 10
52.10101844176363
 20
315.2307677407665
 30
0.0
 10
51.87253099587241
 20
315.7128311572661
 30
0.0
 10
51.71902949592006
 20
316.1102407164407
 30
0.0
 10
51.61877269299703
 20
316.4135230797322
 30
0.0
 10
51.53345620007169
 20
316.7213469514357
 30
0.0
 10
51.44069374470256
 20
317.1363878185395
 30
0.0
 10
51.35940137775547
 20
317.6626606175954
 30
0.0
 10
51.34736157819329
 20
318.0874762672798
 30
0.0
 10
51.3413435134
 20
318.2998193459
 30
0.0
 11
64.3401858541
 21
318.2998193442
 31
0.0
 11
64.30964627537877
 21
317.670320387546
 31
0.0
 11
64.21831499985194
 21
317.0463535897215
 31
0.0
 11
64.14982026116387
 21
316.7372298791848
 31
0.0
 11
64.06640143631621
 21
316.4319678862915
 31
0.0
 11
63.96801469245251
 21
316.1305506270719
 31
0.0
 11
63.85498406132713
 21
315.8341893718351
 31
0.0
 11
63.58500392481714
 21
315.2575593718532
 31
0.0
 11
63.25966730298139
 21
314.7098306000116
 31
0.0
 11
62.87963080816787
 21
314.193763899246
 31
0.0
 11
62.45078031047544
 21
313.7179842629617
 31
0.0
 11
62.2186431761011
 21
313.4960673301885
 31
0.0
 11
61.97586068277488
 21
313.2860017549216
 31
0.0
 11
61.72293107450125
 21
313.0881891820505
 31
0.0
 11
61.46041667868972
 21
312.9031058610866
 31
0.0
 11
60.91035849708581
 21
312.5735636346099
 31
0.0
 11
60.33021766539981
 21
312.29970830368
 31
0.0
 11
59.72761235509291
 21
312.0850074200966
 31
0.0
 11
59.10691308478375
 21
311.9305505363914
 31
0.0
 11
58.47498427089262
 21
311.837875562177
 31
0.0
 11
57.83699814373013
 21
311.8074288879319
 31
0.0
 11
57.20070315558644
 21
311.8394027921664
 31
0.0
 11
56.57057988144752
 21
311.9332208803079
 31
0.0
 11
55.95469597319155
 21
312.08747921456
 31
0.0
 11
55.35666350337051
 21
312.3009344976911
 31
0.0
 11
54.78182775482796
 21
312.5719020044891
 31
0.0
 11
54.23636106731566
 21
312.8973908222664
 31
0.0
 11
53.97565877456741
 21
313.0801602504771
 31
0.0
 11
53.72430952278463
 21
313.2754298015664
 31
0.0
 11
53.48242622444522
 21
313.4831349384008
 31
0.0
 11
53.25097039314077
 21
313.7025417846658
 31
0.0
 11
52.82104736222887
 21
314.1750687153358
 31
0.0
 11
52.4394262227494
 21
314.6878598322645
 31
0.0
 11
52.11019474859202
 21
315.2358381134862
 31
0.0
 11
51.83658044147965
 21
315.8132016580504
 31
0.0
 11
51.72148818902552
 21
316.1111662805691
 31
0.0
 11
51.62124850059948
 21
316.4143255491667
 31
0.0
 11
51.53608142038084
 21
316.7219241569757
 31
0.0
 11
51.4661183928974
 21
317.033508976113
 31
0.0
 11
51.37262949590441
 21
317.6637949458147
 31
0.0
 11
51.3413435134
 21
318.2998193459
 31
0.0
  0
SPLINE
  5
129
330
1F
100
AcDbEntity
  8
BEZUGSACHSEN
  6
Continuous
 62
     7
100
AcDbSpline
210
0.0
220
0.0
230
1.0
 70
     8
 71
     3
 72
    27
 73
    23
 74
    21
 42
0.0000000001
 43
0.0000000001
 44
0.00000001
 40
0.0
 40
0.0
 40
0.0
 40
0.0
 40
0.1219765139516433
 40
0.2439857714749085
 40
0.3566831398333901
 40
0.4694418149629671
 40
0.5721317672948627
 40
0.6745445881156042
 40
0.7225206521222022
 40
0.7704888797708711
 40
0.8171412936045979
 40
0.8637898734267825
 40
0.9102318000825961
 40
0.9566751324135337
 40
1.00417517574947
 40
1.051683100142867
 40
1.153672388761985
 40
1.256049376711214
 40
1.37074513813236
 40
1.48538540191329
 40
1.61153490394905
 40
1.737631875993861
 40
1.737631875993861
 40
1.737631875993861
 40
1.737631875993861
 10
23.9866148919
 20
303.05748333
 30
0.0
 10
23.95135987429661
 20
303.0372038047352
 30
0.0
 10
23.88084037517619
 20
302.996639310337
 30
0.0
 10
23.77318797199036
 20
302.9458434494452
 30
0.0
 10
23.66502995611907
 20
302.9040918135761
 30
0.0
 10
23.55945073515065
 20
302.8746772284349
 30
0.0
 10
23.45461919000492
 20
302.8577626410466
 30
0.0
 10
23.36989152015556
 20
302.8558974178184
 30
0.0
 10
23.30406758375179
 20
302.8628527258381
 30
0.0
 10
23.25736038053774
 20
302.8720498529915
 30
0.0
 10
23.21217976323368
 20
302.8855832979789
 30
0.0
 10
23.16904015258194
 20
302.9033765567849
 30
0.0
 10
23.12808567600385
 20
302.9256049144888
 30
0.0
 10
23.08943824953285
 20
302.9521399461906
 30
0.0
 10
23.05353217089985
 20
302.9828352237218
 30
0.0
 10
23.00809284936159
 20
303.030372696842
 30
0.0
 10
22.95954970927489
 20
303.0995420639455
 30
0.0
 10
22.91332400030761
 20
303.195700118669
 30
0.0
 10
22.87935812652501
 20
303.3012755516664
 30
0.0
 10
22.85640270234726
 20
303.4176932425751
 30
0.0
 10
22.84295814399755
 20
303.5394405512308
 30
0.0
 10
22.8415007576996
 20
303.623543914748
 30
0.0
 10
22.8407722163
 20
303.6655868393
 30
0.0
 11
23.9866148919
 21
303.05748333
 31
0.0
 11
23.88007026783946
 21
302.9980988788399
 31
0.0
 11
23.76977737867079
 21
302.945928604543
 31
0.0
 11
23.66445937081836
 21
302.9058185801486
 31
0.0
 11
23.55573564227531
 21
302.8759242718496
 31
0.0
 11
23.45427149015416
 21
302.8601049120565
 31
0.0
 11
23.35187194956976
 21
302.8584556829745
 31
0.0
 11
23.30416809335721
 21
302.8635590955599
 31
0.0
 11
23.25711732309576
 21
302.8728958980939
 31
0.0
 11
23.21243775566235
 21
302.8863191603828
 31
0.0
 11
23.16933161906641
 21
302.9041503405793
 31
0.0
 11
23.12850902626955
 21
302.9262946054993
 31
0.0
 11
23.09022176972341
 21
302.9525827987459
 31
0.0
 11
23.05408467271285
 21
302.9834107785137
 31
0.0
 11
23.02123217234097
 21
303.0177286470297
 31
0.0
 11
22.96205977808714
 21
303.1007975506658
 31
0.0
 11
22.91716005448608
 21
303.1928033248439
 31
0.0
 11
22.88152189491859
 21
303.3018218520336
 31
0.0
 11
22.85867033155235
 21
303.4141614983366
 31
0.0
 11
22.84490357522979
 21
303.5395575640015
 31
0.0
 11
22.8407722163
 21
303.6655868393
 31
0.0
  0
SPLINE
  5
12A
330
1F
100
AcDbEntity
  8
BEZUGSACHSEN
  6
Continuous
 62
     7
100
AcDbSpline
210
0.0
220
0.0
230
1.0
 70
     8
 71
     3
 72
    15
 73
    11
 74
     9
 42
0.0000000001
 43
0.0000000001
 44
0.00000001
 40
0.0
 40
0.0
 40
0.0
 40
0.0
 40
0.1110371613090606
 40
0.2222522336978261
 40
0.3333980191407401
 40
0.4445069474180092
 40
0.5556201064536648
 40
0.6667525641590755
 40
0.7778876032955059
 40
0.8889820914797942
 40
0.8889820914797942
 40
0.8889820914797942
 40
0.8889820914797942
 10
24.7406977315
 20
302.6232869392
 30
0.0
 10
24.70405600463951
 20
302.6288190920219
 30
0.0
 10
24.63071384112165
 20
302.6398922616468
 30
0.0
 10
24.52419729113538
 20
302.6729108252126
 30
0.0
 10
24.42178438339664
 20
302.716501112679
 30
0.0
 10
24.32433441779006
 20
302.7702806205021
 30
0.0
 10
24.23202962207346
 20
302.8323757558654
 30
0.0
 10
24.14503299395071
 20
302.9016624295147
 30
0.0
 10
24.06278023850672
 20
302.9765443811269
 30
0.0
 10
24.01200025210524
 20
303.0305069626188
 30
0.0
 10
23.9866148919
 20
303.05748333
 30
0.0
 11
24.7406977315
 21
302.6232869392
 31
0.0
 11
24.63135544645124
 21
302.6426134984357
 31
0.0
 11
24.52486349286315
 21
302.6746799317801
 31
0.0
 11
24.42259531226743
 21
302.7182069907132
 31
0.0
 11
24.3251924458431
 21
302.7716660924195
 31
0.0
 11
24.23292067907106
 21
302.8335696881765
 31
0.0
 11
24.14582357566437
 21
302.9025951742944
 31
0.0
 11
24.06378367117783
 21
302.9775648414652
 31
0.0
 11
23.9866148919
 21
303.05748333
 31
0.0
  0
SPLINE
  5
12B
330
1F
100
AcDbEntity
  8
BEZUGSACHSEN
  6
Continuous
 62
     7
100
AcDbSpline
210
0.0
220
0.0
230
1.0
 70
     8
 71
     3
 72
    15
 73
    11
 74
     9
 42
0.0000000001
 43
0.0000000001
 44
0.00000001
 40
0.0
 40
0.0
 40
0.0
 40
0.0
 40
0.1110944831359939
 40
0.2222295181505722
 40
0.3333620401959979
 40
0.4444752610264372
 40
0.5555842178392236
 40
0.6667300354336672
 40
0.77794501818195
 40
0.8889820871029668
 40
0.8889820871029668
 40
0.8889820871029668
 40
0.8889820871029668
 10
23.9866148919
 20
333.5421553209
 30
0.0
 10
24.0120002514412
 20
333.56913168661
 30
0.0
 10
24.06278023672647
 20
333.6230942649843
 30
0.0
 10
24.14503300599988
 20
333.697976228369
 30
0.0
 10
24.23202965795651
 20
333.7672629372722
 30
0.0
 10
24.32433449839677
 20
333.8293581003463
 30
0.0
 10
24.42178452039215
 20
333.8831375924676
 30
0.0
 10
24.52419743426328
 20
333.9267278380572
 30
0.0
 10
24.63071393282534
 20
333.9597463938541
 30
0.0
 10
24.70405603550944
 20
333.9708195604589
 30
0.0
 10
24.7406977315
 20
333.9763517117
 30
0.0
 11
23.9866148919
 21
333.5421553209
 31
0.0
 11
24.0637836689269
 21
333.6220738045907
 31
0.0
 11
24.14582356917828
 21
333.6970434702858
 31
0.0
 11
24.23292071779143
 21
333.7660690029505
 31
0.0
 11
24.3251925393786
 21
333.8279726279195
 31
0.0
 11
24.42259544747407
 21
333.8814317130086
 31
0.0
 11
24.52486367087434
 21
333.9249587534696
 31
0.0
 11
24.6313555389665
 21
333.9570251598467
 31
0.0
 11
24.7406977315
 21
333.9763517117
 31
0.0
  0
SPLINE
  5
12C
330
1F
100
AcDbEntity
  8
BEZUGSACHSEN
  6
Continuous
 62
     7
100
AcDbSpline
210
0.0
220
0.0
230
1.0
 70
     8
 71
     3
 72
    27
 73
    23
 74
    21
 42
0.0000000001
 43
0.0000000001
 44
0.00000001
 40
0.0
 40
0.0
 40
0.0
 40
0.0
 40
0.1260969825525913
 40
0.252246495919527
 40
0.366886795247677
 40
0.4815825893734673
 40
0.5839596006347365
 40
0.6859489160818373
 40
0.7334568410039601
 40
0.7809568848485331
 40
0.8274002263972491
 40
0.8738421606731607
 40
0.920490731854664
 40
0.9671431398889502
 40
1.015111401785839
 40
1.063087497106593
 40
1.165500418707537
 40
1.26819047890781
 40
1.380949153832681
 40
1.493646517711228
 40
1.615655563695334
 40
1.737631867634668
 40
1.737631867634668
 40
1.737631867634668
 40
1.737631867634668
 10
22.8407722163
 20
332.9340518117
 30
0.0
 10
22.84150075777627
 20
332.976094739761
 30
0.0
 10
22.84295814423234
 20
333.0601981105706
 30
0.0
 10
22.85640270618072
 20
333.1819454381321
 30
0.0
 10
22.87935813946456
 20
333.2983631545032
 30
0.0
 10
22.91332403979799
 20
333.4039386122791
 30
0.0
 10
22.95954979865639
 20
333.5000966745184
 30
0.0
 10
23.00809296721105
 20
333.5692660401771
 30
0.0
 10
23.05353229276848
 20
333.6168035217942
 30
0.0
 10
23.08943837085956
 20
333.6474988052764
 30
0.0
 10
23.12808580195226
 20
333.6740338409886
 30
0.0
 10
23.16904028915784
 20
333.6962621868837
 30
0.0
 10
23.21217991533335
 20
333.7140554037612
 30
0.0
 10
23.25736054994678
 20
333.7275888108223
 30
0.0
 10
23.30406777293641
 20
333.736785936156
 30
0.0
 10
23.36989176413987
 20
333.7437412565367
 30
0.0
 10
23.45461951613687
 20
333.741875999903
 30
0.0
 10
23.55945111962609
 20
333.7249613389619
 30
0.0
 10
23.66503036197214
 20
333.6955467061026
 30
0.0
 10
23.77318830007001
 20
333.6537950686354
 30
0.0
 10
23.88084056134686
 20
333.6029992414437
 30
0.0
 10
23.95135993620629
 20
333.5624348132095
 30
0.0
 10
23.9866148919
 20
333.5421553209
 30
0.0
 11
22.8407722163
 21
332.9340518117
 31
0.0
 11
22.84490357586465
 21
333.0600810974911
 31
0.0
 11
22.85867033498566
 21
333.185477174248
 31
0.0
 11
22.88152191106779
 21
333.2978168542396
 31
0.0
 11
22.91716010043866
 21
333.4068354060943
 31
0.0
 11
22.9620598652388
 21
333.4988411861067
 31
0.0
 11
23.02123229419294
 21
333.5819100979633
 31
0.0
 11
23.05408479435447
 21
333.6162279674126
 31
0.0
 11
23.09022188928128
 21
333.6470559504068
 31
0.0
 11
23.12850915414272
 21
333.6733441478277
 31
0.0
 11
23.16933176207998
 21
333.6954884008177
 31
0.0
 11
23.21243790569804
 21
333.7133195414334
 31
0.0
 11
23.25711747774238
 21
333.7267427682188
 31
0.0
 11
23.30416828349751
 21
333.7360795678418
 31
0.0
 11
23.35187217077159
 21
333.741182984459
 31
0.0
 11
23.45427181162933
 21
333.739533723095
 31
0.0
 11
23.55573606193003
 21
333.7237142928002
 31
0.0
 11
23.66445977836722
 21
333.6938199412451
 31
0.0
 11
23.76977777066172
 21
333.6537098885871
 31
0.0
 11
23.88007045657962
 21
333.6015396793201
 31
0.0
 11
23.9866148919
 21
333.5421553209
 31
0.0
  0
SPLINE
  5
12D
330
1F
100
AcDbEntity
  8
0
  6
Continuous
 62
     7
100
AcDbSpline
210
0.0
220
0.0
230
1.0
 70
     8
 71
     3
 72
    19
 73
    15
 74
    13
 42
0.0000000001
 43
0.0000000001
 44
0.00000001
 40
0.0
 40
0.0
 40
0.0
 40
0.0
 40
0.115963816087298
 40
0.2322191968860167
 40
0.3483355687745769
 40
0.4644089767972468
 40
0.5804847761482803
 40
0.6965670371028031
 40
0.8126291300395422
 40
0.9287241178279886
 40
1.160429553168931
 40
1.392722689949946
 40
1.625028291377613
 40
1.856795134136183
 40
1.856795134136183
 40
1.856795134136183
 40
1.856795134136183
 10
91.9657722163
 20
284.6371174137
 30
0.0
 10
91.92708266919853
 20
284.6352939936843
 30
0.0
 10
91.84960629890534
 20
284.6316425690767
 30
0.0
 10
91.73623833685423
 20
284.6034838955136
 30
0.0
 10
91.62821870852228
 20
284.5599840423076
 30
0.0
 10
91.52732818672989
 20
284.5018141133708
 30
0.0
 10
91.43457437852742
 20
284.431582102035
 30
0.0
 10
91.35044485113974
 20
284.351280617363
 30
0.0
 10
91.27506203033244
 20
284.2627530360618
 30
0.0
 10
91.18627626283275
 20
284.1359503855368
 30
0.0
 10
91.09609249585681
 20
283.9637931533878
 30
0.0
 10
91.02100071525282
 20
283.7435328277736
 30
0.0
 10
90.97433484191303
 20
283.5151122904322
 30
0.0
 10
90.96862421494579
 20
283.3603121506299
 30
0.0
 10
90.9657722163
 20
283.2830019373
 30
0.0
 11
91.9657722163
 21
284.6371174137
 31
0.0
 11
91.85017718310829
 21
284.6278764752771
 31
0.0
 11
91.73709179296473
 21
284.6009133875323
 31
0.0
 11
91.62938479640319
 21
284.5575288890074
 31
0.0
 11
91.52868329377173
 21
284.4998033018059
 31
0.0
 11
91.43601296734823
 21
284.429904791124
 31
0.0
 11
91.35189869353795
 21
284.349905539567
 31
0.0
 11
91.27652338121601
 21
284.2616503883903
 31
0.0
 11
91.20979752219321
 21
284.1666466730562
 31
0.0
 11
91.10169387559596
 21
283.9617051927285
 31
0.0
 11
91.02574418379355
 21
283.7421790081612
 31
0.0
 11
90.98066060294337
 21
283.514290080847
 31
0.0
 11
90.9657722163
 21
283.2830019373
 31
0.0
  0
SPLINE
  5
12E
330
1F
100
AcDbEntity
  8
0
  6
Continuous
 62
     7
100
AcDbSpline
210
0.0
220
0.0
230
1.0
 70
     8
 71
     3
 72
    19
 73
    15
 74
    13
 42
0.0000000001
 43
0.0000000001
 44
0.00000001
 40
0.0
 40
0.0
 40
0.0
 40
0.0
 40
0.2317668196885047
 40
0.4640724028126647
 40
0.6963664518381723
 40
0.9280727902541162
 40
1.044168501186132
 40
1.160231315472378
 40
1.276313911464953
 40
1.392390051166942
 40
1.508462883784096
 40
1.624578659464483
 40
1.740832696801958
 40
1.8567951952034
 40
1.8567951952034
 40
1.8567951952034
 40
1.8567951952034
 10
94.7157722163
 20
283.2830019373
 30
0.0
 10
94.71292021820103
 20
283.360312142968
 30
0.0
 10
94.70720959226936
 20
283.5151122690366
 30
0.0
 10
94.66054367147936
 20
283.7435330924765
 30
0.0
 10
94.58545166722652
 20
283.9637939825682
 30
0.0
 10
94.49526734484924
 20
284.1359518969203
 30
0.0
 10
94.40648088705446
 20
284.2627550245067
 30
0.0
 10
94.33109744907219
 20
284.3512828643692
 30
0.0
 10
94.2469673341117
 20
284.4315844107324
 30
0.0
 10
94.15421325806305
 20
284.5018161265409
 30
0.0
 10
94.05332279655366
 20
284.5599855947802
 30
0.0
 10
93.94530380323803
 20
284.6034847960345
 30
0.0
 10
93.83193680425637
 20
284.6316427601434
 30
0.0
 10
93.75446132312244
 20
284.6352940572021
 30
0.0
 10
93.7157722163
 20
284.6371174137
 30
0.0
 11
94.7157722163
 21
283.2830019373
 31
0.0
 11
94.70088383367528
 21
283.5142900579879
 31
0.0
 11
94.65580026837104
 21
283.7421789697193
 31
0.0
 11
94.57985023740041
 21
283.961706002242
 31
0.0
 11
94.47174597076442
 21
284.1666481765186
 31
0.0
 11
94.40501951822365
 21
284.2616523586799
 31
0.0
 11
94.3296435085442
 21
284.3499078628983
 31
0.0
 11
94.24552874394121
 21
284.4299070845705
 31
0.0
 11
94.15285790790377
 21
284.4998054848114
 31
0.0
 11
94.05215671439349
 21
284.557530454256
 31
0.0
 11
93.94445012517934
 21
284.6009143683453
 31
0.0
 11
93.83136595045185
 21
284.6278767611076
 31
0.0
 11
93.7157722163
 21
284.6371174137
 31
0.0
  0
SPLINE
  5
12F
330
1F
100
AcDbEntity
  8
BEZUGSACHSEN
  6
Continuous
 62
     7
100
AcDbSpline
210
0.0
220
0.0
230
1.0
 70
     8
 71
     3
 72
    11
 73
     7
 74
     5
 42
0.0000000001
 43
0.0000000001
 44
0.00000001
 40
0.0
 40
0.0
 40
0.0
 40
0.0
 40
0.5462907431588014
 40
1.093000863658409
 40
1.646070107183949
 40
2.198197048695501
 40
2.198197048695501
 40
2.198197048695501
 40
2.198197048695501
 10
32.3946181632
 20
333.3098193255
 30
0.0
 10
32.45768896502915
 20
333.1388876962424
 30
0.0
 10
32.58387898698025
 20
332.796893216664
 30
0.0
 10
32.72351630003801
 20
332.2656190874499
 30
0.0
 10
32.8210046641052
 20
331.722194682523
 30
0.0
 10
32.83418677863872
 20
331.3536100419803
 30
0.0
 10
32.8407722163
 20
331.1694748513
 30
0.0
 11
32.3946181632
 21
333.3098193255
 31
0.0
 11
32.57546949574478
 21
332.794332786803
 31
0.0
 11
32.71596098045224
 21
332.2659824309014
 31
0.0
 11
32.80802763372967
 21
331.7206299581939
 31
0.0
 11
32.8407722163
 21
331.1694748513
 31
0.0
  0
SPLINE
  5
130
330
1F
100
AcDbEntity
  8
BEZUGSACHSEN
  6
Continuous
 62
     7
100
AcDbSpline
210
0.0
220
0.0
230
1.0
 70
     8
 71
     3
 72
    19
 73
    15
 74
    13
 42
0.0000000001
 43
0.0000000001
 44
0.00000001
 40
0.0
 40
0.0
 40
0.0
 40
0.0
 40
0.1462385987779309
 40
0.2927479274823169
 40
0.4364790706284196
 40
0.580165923655122
 40
0.720379997277904
 40
0.8606059382463951
 40
0.9980411883698814
 40
1.135484020416837
 40
1.405415631078839
 40
1.675815514078732
 40
1.943997429514629
 40
2.211934834741482
 40
2.211934834741482
 40
2.211934834741482
 40
2.211934834741482
 10
30.8407722163
 20
334.6584669129
 30
0.0
 10
30.88948702163833
 20
334.6617749902465
 30
0.0
 10
30.98700681750399
 20
334.6683972691472
 30
0.0
 10
31.13234307782058
 20
334.6520379563727
 30
0.0
 10
31.27300001494327
 20
334.6168661902701
 30
0.0
 10
31.40585214838752
 20
334.564060503625
 30
0.0
 10
31.53030661144495
 20
334.496388715897
 30
0.0
 10
31.64510916860227
 20
334.4170885145148
 30
0.0
 10
31.75121910637677
 20
334.3280038749398
 30
0.0
 10
31.88032157155612
 20
334.2000563393708
 30
0.0
 10
32.023361421457
 20
334.0242540504622
 30
0.0
 10
32.16826902315605
 20
333.7965685845776
 30
0.0
 10
32.29290577159885
 20
333.5579059651067
 30
0.0
 10
32.36072434276728
 20
333.3924897246738
 30
0.0
 10
32.3946181632
 20
333.3098193255
 30
0.0
 11
30.8407722163
 21
334.6584669129
 31
0.0
 11
30.98690607811904
 21
334.6640006460328
 31
0.0
 11
31.13261543896569
 21
334.6487112523538
 31
0.0
 11
31.2720455205228
 21
334.6138129161891
 31
0.0
 11
31.40567785745172
 21
334.5610084631606
 31
0.0
 11
31.52899164825136
 21
334.4942724500904
 31
0.0
 11
31.64452275955922
 21
334.4147999589977
 31
0.0
 11
31.74993530933365
 21
334.3266146862672
 31
0.0
 11
31.84772381302783
 21
334.2300334219022
 31
0.0
 11
32.01897220891767
 21
334.0213780569107
 31
0.0
 11
32.16531462945233
 21
333.7940017329928
 31
0.0
 11
32.28918225525909
 21
333.5561396909519
 31
0.0
 11
32.3946181632
 21
333.3098193255
 31
0.0
  0
SPLINE
  5
131
330
1F
100
AcDbEntity
  8
BEZUGSACHSEN
  6
Continuous
 62
     7
100
AcDbSpline
210
0.0
220
0.0
230
1.0
 70
     8
 71
     3
 72
    11
 73
     7
 74
     5
 42
0.0000000001
 43
0.0000000001
 44
0.00000001
 40
0.0
 40
0.0
 40
0.0
 40
0.0
 40
0.5521269407036405
 40
1.105196183339712
 40
1.651906304698669
 40
2.198197048720037
 40
2.198197048720037
 40
2.198197048720037
 40
2.198197048720037
 10
32.8407722163
 20
305.4301637997
 30
0.0
 10
32.83418677867225
 20
305.2460286092891
 30
0.0
 10
32.8210046642068
 20
304.8774439693124
 30
0.0
 10
32.72351630040954
 20
304.3340195646269
 30
0.0
 10
32.58387898737706
 20
303.8027454351098
 30
0.0
 10
32.45768896516154
 20
303.4607509550159
 30
0.0
 10
32.3946181632
 20
303.2898193255
 30
0.0
 11
32.8407722163
 21
305.4301637997
 31
0.0
 11
32.80802763387319
 21
304.8790086936069
 31
0.0
 11
32.71596098092982
 21
304.3336562217451
 31
0.0
 11
32.5754694960964
 21
303.8053058649877
 31
0.0
 11
32.3946181632
 21
303.2898193255
 31
0.0
  0
SPLINE
  5
132
330
1F
100
AcDbEntity
  8
BEZUGSACHSEN
  6
Continuous
 62
     7
100
AcDbSpline
210
0.0
220
0.0
230
1.0
 70
     8
 71
     3
 72
    19
 73
    15
 74
    13
 42
0.0000000001
 43
0.0000000001
 44
0.00000001
 40
0.0
 40
0.0
 40
0.0
 40
0.0
 40
0.2679411643344188
 40
0.5361267936841311
 40
0.806530477347172
 40
1.076465993216711
 40
1.213913376149531
 40
1.351353104892718
 40
1.491586367076673
 40
1.63180789756877
 40
1.775491562787075
 40
1.919219204773063
 40
2.065713007406922
 40
2.211936409330498
 40
2.211936409330498
 40
2.211936409330498
 40
2.211936409330498
 10
32.3946181632
 20
303.2898193255
 30
0.0
 10
32.36072391940104
 20
303.2071477457964
 30
0.0
 10
32.29290450726473
 20
303.0417291582293
 30
0.0
 10
32.16826600099216
 20
302.8030631845627
 30
0.0
 10
32.02335520168855
 20
302.5753751885409
 30
0.0
 10
31.88031157017291
 20
302.3995706972104
 30
0.0
 10
31.75120518325312
 20
302.2716209780783
 30
0.0
 10
31.64509008417109
 20
302.1825339572657
 30
0.0
 10
31.53028065651205
 20
302.1032323169457
 30
0.0
 10
31.40582104427275
 20
302.0355618495146
 30
0.0
 10
31.27296748913504
 20
301.9827591628321
 30
0.0
 10
31.13231669026154
 20
301.9475928988277
 30
0.0
 10
30.98699130717216
 20
301.9312406968837
 30
0.0
 10
30.88948188812761
 20
301.9378634302353
 30
0.0
 10
30.8407722163
 20
301.941171738
 30
0.0
 11
32.3946181632
 21
303.2898193255
 31
0.0
 11
32.28918090348353
 21
303.043495449661
 31
0.0
 11
32.16531138792422
 21
302.8056302043963
 31
0.0
 11
32.01896590164594
 21
302.5782513338201
 31
0.0
 11
31.84771371052313
 21
302.3695940316153
 31
0.0
 11
31.74992127182113
 21
302.2730102751767
 31
0.0
 11
31.64450428254158
 21
302.184823329384
 31
0.0
 11
31.52896563881684
 21
302.1053488704113
 31
0.0
 11
31.40564362892187
 21
302.0386123774782
 31
0.0
 11
31.272012940722
 21
301.9858124265143
 31
0.0
 11
31.13258523951422
 21
301.9509190001023
 31
0.0
 11
30.98689080099606
 21
301.9356361733021
 31
0.0
 11
30.8407722163
 21
301.941171738
 31
0.0
  0
SPLINE
  5
133
330
1F
100
AcDbEntity
  8
BEZUGSACHSEN
  6
Continuous
 62
     7
100
AcDbSpline
210
0.0
220
0.0
230
1.0
 70
     8
 71
     3
 72
    47
 73
    43
 74
    41
 42
0.0000000001
 43
0.0000000001
 44
0.00000001
 40
0.0
 40
0.0
 40
0.0
 40
0.0
 40
0.6366022431821741
 40
1.273595002171177
 40
1.592921746400037
 40
1.912076344893214
 40
2.231392290438293
 40
2.550826842753554
 40
3.189774321180295
 40
3.82908169700937
 40
4.46833715250806
 40
5.107221744764697
 40
5.426176341251572
 40
5.745033356797754
 40
6.063356731576538
 40
6.381780214889566
 40
7.01705919568443
 40
7.652639341013715
 40
8.287532214282775
 40
8.922347946562944
 40
9.559226748628804
 40
10.19613435939632
 40
10.83451785504417
 40
11.47287689975259
 40
12.11234487367406
 40
12.75189588952247
 40
13.39354300525233
 40
14.03487957361949
 40
14.35615205777605
 40
14.67732107717454
 40
14.99840882477577
 40
15.31959604126633
 40
15.96011121032279
 40
16.60099592095717
 40
17.23809108087426
 40
17.87482555211482
 40
18.19205670344494
 40
18.50917199111373
 40
18.82571084637638
 40
19.14241581834181
 40
19.77338975001472
 40
20.40398930748532
 40
20.40398930748532
 40
20.40398930748532
 40
20.40398930748532
 10
51.341356622
 20
318.299819306
 30
0.0
 10
51.34736226588672
 20
318.5120991156953
 30
0.0
 10
51.35937723774842
 20
318.9367889555209
 30
0.0
 10
51.44064258295653
 20
319.4629317166369
 30
0.0
 10
51.5333621795583
 20
319.877906092764
 30
0.0
 10
51.61865514369362
 20
320.1857300684645
 30
0.0
 10
51.71889375710374
 20
320.4890227452621
 30
0.0
 10
51.87237930621949
 20
320.886460107824
 30
0.0
 10
52.10085125300584
 20
321.3685596847051
 30
0.0
 10
52.43046621358737
 20
321.9173755575214
 30
0.0
 10
52.81269343065291
 20
322.4309110968721
 30
0.0
 10
53.17154812775222
 20
322.8254138589639
 30
0.0
 10
53.48050148130974
 20
323.1182871570077
 30
0.0
 10
53.72239659028367
 20
323.3260089781216
 30
0.0
 10
53.9740398437692
 20
323.5215183752542
 30
0.0
 10
54.32133395092652
 20
323.7650135779292
 30
0.0
 10
54.77707428569135
 20
324.0368956479764
 30
0.0
 10
55.35255371039754
 20
324.3082247604927
 30
0.0
 10
55.95166447558368
 20
324.522008391301
 30
0.0
 10
56.56911487805668
 20
324.676698122671
 30
0.0
 10
57.1993854397448
 20
324.7705051063262
 30
0.0
 10
57.83697937445386
 20
324.8026318311324
 30
0.0
 10
58.47515801867051
 20
324.7722022581822
 30
0.0
 10
59.10817043985886
 20
324.6795310030184
 30
0.0
 10
59.72940412429744
 20
324.5250390417906
 30
0.0
 10
60.33353987627814
 20
324.3100019092498
 30
0.0
 10
60.91401894985809
 20
324.0360785435197
 30
0.0
 10
61.37364797408384
 20
323.7609116654601
 30
0.0
 10
61.72354696274724
 20
323.5143019666025
 30
0.0
 10
61.97667859189647
 20
323.3163977742316
 30
0.0
 10
62.21967723125063
 20
323.1062192448299
 30
0.0
 10
62.52892157475576
 20
322.8106999046744
 30
0.0
 10
62.88724176555303
 20
322.4132289219079
 30
0.0
 10
63.26719218389619
 20
321.8975621603529
 30
0.0
 10
63.59366521350785
 20
321.3479660038828
 30
0.0
 10
63.81903635350278
 20
320.8668604621722
 30
0.0
 10
63.97012733666175
 20
320.4708702745523
 30
0.0
 10
64.068540254211
 20
320.169443923769
 30
0.0
 10
64.15220703238256
 20
319.8637485558528
 30
0.0
 10
64.24302638981656
 20
319.452196538137
 30
0.0
 10
64.32254136542208
 20
318.9307713216092
 30
0.0
 10
64.33431365008957
 20
318.5100950324546
 30
0.0
 10
64.3401980457
 20
318.2998193061
 30
0.0
 11
51.341356622
 21
318.299819306
 31
0.0
 11
51.3726052930398
 21
318.9356541403578
 31
0.0
 11
51.46604649541342
 21
319.5657561294861
 31
0.0
 11
51.53598700244628
 21
319.877329387414
 31
0.0
 11
51.62112834141149
 21
320.1849177651829
 31
0.0
 11
51.72135287952476
 21
320.4880971098609
 31
0.0
 11
51.83643276925399
 21
320.7860820963833
 31
0.0
 11
52.1100286635008
 21
321.3634893762466
 31
0.0
 11
52.43924817719643
 21
321.9115116683037
 31
0.0
 11
52.82087243252214
 21
322.4243571276108
 31
0.0
 11
53.25080706861928
 21
322.8969348787872
 31
0.0
 11
53.48227932967459
 21
323.1163719471737
 31
0.0
 11
53.72418173070103
 21
323.3241050084342
 31
0.0
 11
53.97555553785552
 21
323.5194021666501
 31
0.0
 11
54.23628481614743
 21
323.7021964722687
 31
0.0
 11
54.78181846035935
 21
324.0277305357284
 31
0.0
 11
55.35672828049263
 21
324.2987302033502
 31
0.0
 11
55.95467446827074
 21
324.5121530630665
 31
0.0
 11
56.57046700051301
 21
324.6663949872799
 31
0.0
 11
57.20039928247198
 21
324.7602029222684
 31
0.0
 11
57.83650240417837
 21
324.7922048473507
 31
0.0
 11
58.47416336318246
 21
324.7618405775991
 31
0.0
 11
59.10578089609093
 21
324.6693118680887
 31
0.0
 11
59.72635376821583
 21
324.515011511466
 31
0.0
 11
60.32885457536964
 21
324.3004927960779
 31
0.0
 11
60.90916177175077
 21
324.0267144569919
 31
0.0
 11
61.4593867597988
 21
323.6972223380383
 31
0.0
 11
61.72199406394626
 21
323.5121455623896
 31
0.0
 11
61.97501452133811
 21
323.3143320462624
 31
0.0
 11
62.21786282270242
 21
323.1042795666672
 31
0.0
 11
62.45006525810945
 21
322.8823713490906
 31
0.0
 11
62.87898131584371
 21
322.4066711312968
 31
0.0
 11
63.25909197451679
 21
321.8906778178827
 31
0.0
 11
63.58453112024197
 21
321.3429738784963
 31
0.0
 11
63.85461197837164
 21
320.7663569199025
 31
0.0
 11
63.96770242355584
 21
320.4699684002492
 31
0.0
 11
64.06614652689501
 21
320.1685204541772
 31
0.0
 11
64.14962933226923
 21
319.8631887196689
 31
0.0
 11
64.21817875570349
 21
319.5539913461121
 31
0.0
 11
64.30960583358777
 21
318.9296763680118
 31
0.0
 11
64.3401980457
 21
318.2998193061
 31
0.0
  0
SPLINE
  5
134
330
1F
100
AcDbEntity
  8
BEZUGSACHSEN
  6
Continuous
 62
     7
100
AcDbSpline
210
0.0
220
0.0
230
1.0
 70
     8
 71
     3
 72
    11
 73
     7
 74
     5
 42
0.0000000001
 43
0.0000000001
 44
0.00000001
 40
0.0
 40
0.0
 40
0.0
 40
0.0
 40
0.9140556660002828
 40
1.828030949185934
 40
2.27980697487112
 40
2.730944124762505
 40
2.730944124762505
 40
2.730944124762505
 40
2.730944124762505
 10
24.1077251431854
 20
303.289819325685
 30
0.0
 10
24.24037985014878
 20
303.5645359233516
 30
0.0
 10
24.5056775983104
 20
304.1139449598788
 30
0.0
 10
24.72103281162298
 20
304.8466558809836
 30
0.0
 10
24.82472702528538
 20
305.4446010870898
 30
0.0
 10
24.83542634280649
 20
305.7457243025166
 30
0.0
 10
24.8407722163
 20
305.8961793771
 30
0.0
 11
24.1077251431854
 21
303.289819325685
 31
0.0
 11
24.48253267296086
 21
304.1234961672554
 31
0.0
 11
24.74182403335873
 21
304.999920042271
 31
0.0
 11
24.81454100685736
 21
305.4458054750327
 31
0.0
 11
24.8407722163
 21
305.8961793771
 31
0.0
  0
SPLINE
  5
135
330
1F
100
AcDbEntity
  8
BEZUGSACHSEN
  6
Continuous
 62
     7
100
AcDbSpline
210
0.0
220
0.0
230
1.0
 70
     8
 71
     3
 72
    11
 73
     7
 74
     5
 42
0.0000000001
 43
0.0000000001
 44
0.00000001
 40
0.0
 40
0.0
 40
0.0
 40
0.0
 40
0.824919236672415
 40
1.650116891930982
 40
2.19049215229343
 40
2.730585915378206
 40
2.730585915378206
 40
2.730585915378206
 40
2.730585915378206
 10
24.8407722163
 20
330.7034592739
 30
0.0
 10
24.82303891196183
 20
330.9786495658769
 30
0.0
 10
24.78756631811589
 20
331.5291230293377
 30
0.0
 10
24.5791315014805
 20
332.2338566144905
 30
0.0
 10
24.3489050705008
 20
332.8260703395708
 30
0.0
 10
24.18810448769882
 20
333.148597673016
 30
0.0
 10
24.1077251431854
 20
333.309819325315
 30
0.0
 11
24.8407722163
 21
330.7034592739
 31
0.0
 11
24.7571967621843
 21
331.5241339295959
 31
0.0
 11
24.53923532007253
 21
332.3200258694953
 31
0.0
 11
24.34130024151333
 21
332.8228450484131
 31
0.0
 11
24.1077251431854
 21
333.309819325315
 31
0.0
  0
SPLINE
  5
136
330
1F
100
AcDbEntity
  8
FASEN
  6
Continuous
 62
     7
100
AcDbSpline
210
0.0
220
0.0
230
1.0
 70
    24
 71
     3
 72
     9
 73
     5
 74
     3
 42
0.0000000001
 43
0.0000000001
 44
0.00000001
 40
0.0
 40
0.0
 40
0.0
 40
0.0
 40
0.2578063726614822
 40
0.5156127453229284
 40
0.5156127453229284
 40
0.5156127453229284
 40
0.5156127453229284
 10
101.390772217382
 20
279.348856565484
 30
0.0
 10
101.457438883576
 20
279.4030825600214
 30
0.0
 10
101.590772215964
 20
279.5115345490961
 30
0.0
 10
101.724105548352
 20
279.6199865381706
 30
0.0
 10
101.790772214546
 20
279.674212532708
 30
0.0
 11
101.390772217382
 21
279.348856565484
 31
0.0
 11
101.590772215964
 21
279.511534549096
 31
0.0
 11
101.790772214546
 21
279.674212532708
 31
0.0
  0
DIMENSION
  5
141
330
1F
100
AcDbEntity
  8
1
100
AcDbDimension
  2
*D2
 10
252.210161261971
 20
332.2998193255
 30
0.0
 11
248.460161261971
 21
317.780003045108
 31
0.0
 70
    32
  1
<>
 71
     5
 42
-1.0
 53
90.0
  3
ME10_DIM_10
100
AcDbAlignedDimension
 13
230.2426960049
 23
304.2998193255
 33
0.0
 14
230.2426960049
 24
332.2998193255
 34
0.0
 50
90.0
100
AcDbRotatedDimension
  0
DIMENSION
  5
14C
330
1F
100
AcDbEntity
  8
1
100
AcDbDimension
  2
*D3
 10
244.574539533426
 20
326.2998193255
 30
0.0
 11
240.824539533426
 21
318.28234657988
 31
0.0
 70
    32
  1
<>
 71
     5
 42
-1.0
 53
90.0
  3
ME10_DIM_11
100
AcDbAlignedDimension
 13
222.2407722163
 23
310.2998193255
 33
0.0
 14
222.2407722163
 24
326.2998193255
 34
0.0
 50
90.0
100
AcDbRotatedDimension
  0
DIMENSION
  5
157
330
1F
100
AcDbEntity
  8
1
100
AcDbDimension
  2
*D4
 10
222.2407722163
 20
375.746839434008
 30
0.0
 11
164.454833950013
 21
379.496839434008
 31
0.0
 70
    32
  1
<>
 71
     5
 42
-1.0
 53
0.00013888888889
  3
ME10_DIM_12
100
AcDbAlignedDimension
 13
101.8407722163
 23
368.2997824553
 33
0.0
 14
222.2407722163
 24
329.2998193255
 34
0.0
100
AcDbRotatedDimension
  0
DIMENSION
  5
162
330
1F
100
AcDbEntity
  8
1
100
AcDbDimension
  2
*D5
 10
222.2407722163
 20
383.458461387209
 30
0.0
 11
146.940302734269
 21
387.208461387209
 31
0.0
 70
    32
  1
<>
 71
     5
 42
-1.0
 53
0.00013888888889
  3
ME10_DIM_13
100
AcDbAlignedDimension
 13
72.8407722163
 23
368.2998193255
 33
0.0
 14
222.2407722163
 24
329.2998193255
 34
0.0
100
AcDbRotatedDimension
  0
DIMENSION
  5
16D
330
1F
100
AcDbEntity
  8
1
100
AcDbDimension
  2
*D6
 10
72.8407722163
 20
391.039377883576
 30
0.0
 11
154.913335601138
 21
394.789377883576
 31
0.0
 70
    32
  1
<>
 71
     5
 42
-1.0
 53
0.00013888888889
  3
ME10_DIM_14
100
AcDbAlignedDimension
 13
232.8407722163
 23
329.0498193255
 33
0.0
 14
72.8407722163
 24
368.2998193255
 34
0.0
100
AcDbRotatedDimension
  0
DIMENSION
  5
178
330
1F
100
AcDbEntity
  8
1
100
AcDbDimension
  2
*D7
 10
222.2407722163
 20
398.250752017812
 30
0.0
 11
131.051984554008
 21
402.000752017812
 31
0.0
 70
    32
  1
<>
 71
     5
 42
-1.0
 53
0.00013888888889
  3
ME10_DIM_15
100
AcDbAlignedDimension
 13
22.8407722163
 23
351.900010888
 33
0.0
 14
222.2407722163
 24
329.2998193255
 34
0.0
100
AcDbRotatedDimension
  0
INSERT
  5
17F
330
1F
100
AcDbEntity
  8
1
100
AcDbBlockReference
  2
*D8
 10
0.0
 20
0.0
 30
0.0
  0
ENDSEC
  0
SECTION
  2
OBJECTS
  0
DICTIONARY
  5
C
330
0
100
AcDbDictionary
281
     1
  3
ACAD_GROUP
350
D
  3
ACAD_LAYOUT
350
1A
  3
ACAD_MLEADERSTYLE
350
182
  3
ACAD_MLINESTYLE
350
17
  3
ACAD_PLOTSETTINGS
350
19
  3
ACAD_PLOTSTYLENAME
350
E
  3
ACAD_SCALELIST
350
4B
  3
ACAD_VISUALSTYLE
350
2A
  3
AcDbVariableDictionary
350
180
  0
DICTIONARY
  5
D
102
{ACAD_REACTORS
330
C
102
}
330
C
100
AcDbDictionary
281
     1
  0
DICTIONARY
  5
1A
102
{ACAD_REACTORS
330
C
102
}
330
C
100
AcDbDictionary
281
     1
  3
Layout1
350
1E
  3
Layout2
350
26
  3
Model
350
22
  0
DICTIONARY
  5
182
102
{ACAD_REACTORS
330
C
102
}
330
C
100
AcDbDictionary
281
     1
  0
DICTIONARY
  5
17
102
{ACAD_REACTORS
330
C
102
}
330
C
100
AcDbDictionary
281
     1
  3
Standard
350
18
  0
DICTIONARY
  5
19
102
{ACAD_REACTORS
330
C
102
}
330
C
100
AcDbDictionary
281
     1
  0
ACDBDICTIONARYWDFLT
  5
E
102
{ACAD_REACTORS
330
C
102
}
330
C
100
AcDbDictionary
281
     1
  3
Normal
350
F
100
AcDbDictionaryWithDefault
340
F
  0
DICTIONARY
  5
4B
102
{ACAD_REACTORS
330
C
102
}
330
C
100
AcDbDictionary
281
     1
  3
A0
350
4C
  3
A1
350
4D
  3
A2
350
4E
  3
A3
350
4F
  3
A4
350
50
  3
A5
350
51
  3
A6
350
52
  3
A7
350
53
  3
A8
350
54
  3
A9
350
55
  3
B0
350
56
  3
B1
350
57
  3
B2
350
58
  3
B3
350
59
  3
B4
350
5A
  3
B5
350
5B
  3
B6
350
5C
  3
B7
350
5D
  3
B8
350
5E
  3
B9
350
5F
  3
C0
350
60
  3
C1
350
61
  3
C2
350
62
  3
C3
350
63
  3
C4
350
64
  3
C5
350
65
  3
C6
350
66
  3
C7
350
67
  3
C8
350
68
  3
C9
350
69
  3
D0
350
6A
  3
D1
350
6B
  3
D2
350
6C
  0
DICTIONARY
  5
2A
102
{ACAD_REACTORS
330
C
102
}
330
C
100
AcDbDictionary
281
     1
  3
2dWireframe
350
2F
  3
3D Hidden
350
31
  3
3dWireframe
350
30
  3
Basic
350
32
  3
Brighten
350
36
  3
ColorChange
350
3A
  3
Conceptual
350
34
  3
Dim
350
35
  3
Facepattern
350
39
  3
Flat
350
2B
  3
FlatWithEdges
350
2C
  3
Gouraud
350
2D
  3
GouraudWithEdges
350
2E
  3
Linepattern
350
38
  3
Realistic
350
33
  3
Thicken
350
37
  0
DICTIONARY
  5
180
102
{ACAD_REACTORS
330
C
102
}
330
C
100
AcDbDictionary
281
     1
  3
CANNOSCALE
350
183
  0
LAYOUT
  5
1E
102
{ACAD_REACTORS
330
1A
102
}
330
1A
100
AcDbPlotSettings
  1

  2
none_device
  4

  6

 40
0.0
 41
0.0
 42
0.0
 43
0.0
 44
0.0
 45
0.0
 46
0.0
 47
0.0
 48
0.0
 49
0.0
140
0.0
141
0.0
142
1.0
143
1.0
 70
   688
 72
     0
 73
     0
 74
     5
  7

 75
    16
147
1.0
148
0.0
149
0.0
100
AcDbLayout
  1
Layout1
 70
     1
 71
     1
 10
0.0
 20
0.0
 11
12.0
 21
9.0
 12
0.0
 22
0.0
 32
0.0
 14
1.00000000000000E+20
 24
1.00000000000000E+20
 34
1.00000000000000E+20
 15
-1.00000000000000E+20
 25
-1.00000000000000E+20
 35
-1.00000000000000E+20
146
0.0
 13
0.0
 23
0.0
 33
0.0
 16
1.0
 26
0.0
 36
0.0
 17
0.0
 27
1.0
 37
0.0
 76
     0
330
1B
  0
LAYOUT
  5
26
102
{ACAD_REACTORS
330
1A
102
}
330
1A
100
AcDbPlotSettings
  1

  2
none_device
  4

  6

 40
0.0
 41
0.0
 42
0.0
 43
0.0
 44
0.0
 45
0.0
 46
0.0
 47
0.0
 48
0.0
 49
0.0
140
0.0
141
0.0
142
1.0
143
1.0
 70
   688
 72
     0
 73
     0
 74
     5
  7

 75
    16
147
1.0
148
0.0
149
0.0
100
AcDbLayout
  1
Layout2
 70
     1
 71
     2
 10
0.0
 20
0.0
 11
0.0
 21
0.0
 12
0.0
 22
0.0
 32
0.0
 14
0.0
 24
0.0
 34
0.0
 15
0.0
 25
0.0
 35
0.0
146
0.0
 13
0.0
 23
0.0
 33
0.0
 16
1.0
 26
0.0
 36
0.0
 17
0.0
 27
1.0
 37
0.0
 76
     0
330
23
  0
LAYOUT
  5
22
102
{ACAD_REACTORS
330
1A
102
}
330
1A
100
AcDbPlotSettings
  1

  2
none_device
  4

  6

 40
0.0
 41
0.0
 42
0.0
 43
0.0
 44
0.0
 45
0.0
 46
0.0
 47
0.0
 48
0.0
 49
0.0
140
0.0
141
0.0
142
1.0
143
1.0
 70
  1712
 72
     0
 73
     0
 74
     0
  7

 75
     0
147
1.0
148
0.0
149
0.0
100
AcDbLayout
  1
Model
 70
     1
 71
     0
 10
0.0
 20
0.0
 11
12.0
 21
9.0
 12
0.0
 22
0.0
 32
0.0
 14
0.3283144828029
 24
268.2998193255
 34
0.0
 15
254.210161261971
 25
403.750752017812
 35
0.0
146
0.0
 13
0.0
 23
0.0
 33
0.0
 16
1.0
 26
0.0
 36
0.0
 17
0.0
 27
1.0
 37
0.0
 76
     0
330
1F
331
29
  0
MLINESTYLE
  5
18
102
{ACAD_REACTORS
330
17
102
}
330
17
100
AcDbMlineStyle
  2
Standard
 70
     0
  3

 62
   256
 51
90.0
 52
90.0
 71
     2
 49
0.5
 62
   256
  6
BYLAYER
 49
-0.5
 62
   256
  6
BYLAYER
  0
ACDBPLACEHOLDER
  5
F
102
{ACAD_REACTORS
330
E
102
}
330
E
  0
SCALE
  5
4C
102
{ACAD_REACTORS
330
4B
102
}
330
4B
100
AcDbScale
 70
     0
300
1:1
140
1.0
141
1.0
290
     1
  0
SCALE
  5
4D
102
{ACAD_REACTORS
330
4B
102
}
330
4B
100
AcDbScale
 70
     0
300
1:2
140
1.0
141
2.0
290
     0
  0
SCALE
  5
4E
102
{ACAD_REACTORS
330
4B
102
}
330
4B
100
AcDbScale
 70
     0
300
1:4
140
1.0
141
4.0
290
     0
  0
SCALE
  5
4F
102
{ACAD_REACTORS
330
4B
102
}
330
4B
100
AcDbScale
 70
     0
300
1:5
140
1.0
141
5.0
290
     0
  0
SCALE
  5
50
102
{ACAD_REACTORS
330
4B
102
}
330
4B
100
AcDbScale
 70
     0
300
1:8
140
1.0
141
8.0
290
     0
  0
SCALE
  5
51
102
{ACAD_REACTORS
330
4B
102
}
330
4B
100
AcDbScale
 70
     0
300
1:10
140
1.0
141
10.0
290
     0
  0
SCALE
  5
52
102
{ACAD_REACTORS
330
4B
102
}
330
4B
100
AcDbScale
 70
     0
300
1:16
140
1.0
141
16.0
290
     0
  0
SCALE
  5
53
102
{ACAD_REACTORS
330
4B
102
}
330
4B
100
AcDbScale
 70
     0
300
1:20
140
1.0
141
20.0
290
     0
  0
SCALE
  5
54
102
{ACAD_REACTORS
330
4B
102
}
330
4B
100
AcDbScale
 70
     0
300
1:30
140
1.0
141
30.0
290
     0
  0
SCALE
  5
55
102
{ACAD_REACTORS
330
4B
102
}
330
4B
100
AcDbScale
 70
     0
300
1:40
140
1.0
141
40.0
290
     0
  0
SCALE
  5
56
102
{ACAD_REACTORS
330
4B
102
}
330
4B
100
AcDbScale
 70
     0
300
1:50
140
1.0
141
50.0
290
     0
  0
SCALE
  5
57
102
{ACAD_REACTORS
330
4B
102
}
330
4B
100
AcDbScale
 70
     0
300
1:100
140
1.0
141
100.0
290
     0
  0
SCALE
  5
58
102
{ACAD_REACTORS
330
4B
102
}
330
4B
100
AcDbScale
 70
     0
300
2:1
140
2.0
141
1.0
290
     0
  0
SCALE
  5
59
102
{ACAD_REACTORS
330
4B
102
}
330
4B
100
AcDbScale
 70
     0
300
4:1
140
4.0
141
1.0
290
     0
  0
SCALE
  5
5A
102
{ACAD_REACTORS
330
4B
102
}
330
4B
100
AcDbScale
 70
     0
300
8:1
140
8.0
141
1.0
290
     0
  0
SCALE
  5
5B
102
{ACAD_REACTORS
330
4B
102
}
330
4B
100
AcDbScale
 70
     0
300
10:1
140
10.0
141
1.0
290
     0
  0
SCALE
  5
5C
102
{ACAD_REACTORS
330
4B
102
}
330
4B
100
AcDbScale
 70
     0
300
100:1
140
100.0
141
1.0
290
     0
  0
SCALE
  5
5D
102
{ACAD_REACTORS
330
4B
102
}
330
4B
100
AcDbScale
 70
     0
300
1/128" = 1'-0"
140
0.0078125
141
12.0
290
     0
  0
SCALE
  5
5E
102
{ACAD_REACTORS
330
4B
102
}
330
4B
100
AcDbScale
 70
     0
300
1/64" = 1'-0"
140
0.015625
141
12.0
290
     0
  0
SCALE
  5
5F
102
{ACAD_REACTORS
330
4B
102
}
330
4B
100
AcDbScale
 70
     0
300
1/32" = 1'-0"
140
0.03125
141
12.0
290
     0
  0
SCALE
  5
60
102
{ACAD_REACTORS
330
4B
102
}
330
4B
100
AcDbScale
 70
     0
300
1/16" = 1'-0"
140
0.0625
141
12.0
290
     0
  0
SCALE
  5
61
102
{ACAD_REACTORS
330
4B
102
}
330
4B
100
AcDbScale
 70
     0
300
3/32" = 1'-0"
140
0.09375
141
12.0
290
     0
  0
SCALE
  5
62
102
{ACAD_REACTORS
330
4B
102
}
330
4B
100
AcDbScale
 70
     0
300
1/8" = 1'-0"
140
0.125
141
12.0
290
     0
  0
SCALE
  5
63
102
{ACAD_REACTORS
330
4B
102
}
330
4B
100
AcDbScale
 70
     0
300
3/16" = 1'-0"
140
0.1875
141
12.0
290
     0
  0
SCALE
  5
64
102
{ACAD_REACTORS
330
4B
102
}
330
4B
100
AcDbScale
 70
     0
300
1/4" = 1'-0"
140
0.25
141
12.0
290
     0
  0
SCALE
  5
65
102
{ACAD_REACTORS
330
4B
102
}
330
4B
100
AcDbScale
 70
     0
300
3/8" = 1'-0"
140
0.375
141
12.0
290
     0
  0
SCALE
  5
66
102
{ACAD_REACTORS
330
4B
102
}
330
4B
100
AcDbScale
 70
     0
300
1/2" = 1'-0"
140
0.5
141
12.0
290
     0
  0
SCALE
  5
67
102
{ACAD_REACTORS
330
4B
102
}
330
4B
100
AcDbScale
 70
     0
300
3/4" = 1'-0"
140
0.75
141
12.0
290
     0
  0
SCALE
  5
68
102
{ACAD_REACTORS
330
4B
102
}
330
4B
100
AcDbScale
 70
     0
300
1" = 1'-0"
140
1.0
141
12.0
290
     0
  0
SCALE
  5
69
102
{ACAD_REACTORS
330
4B
102
}
330
4B
100
AcDbScale
 70
     0
300
1-1/2" = 1'-0"
140
1.5
141
12.0
290
     0
  0
SCALE
  5
6A
102
{ACAD_REACTORS
330
4B
102
}
330
4B
100
AcDbScale
 70
     0
300
3" = 1'-0"
140
3.0
141
12.0
290
     0
  0
SCALE
  5
6B
102
{ACAD_REACTORS
330
4B
102
}
330
4B
100
AcDbScale
 70
     0
300
6" = 1'-0"
140
6.0
141
12.0
290
     0
  0
SCALE
  5
6C
102
{ACAD_REACTORS
330
4B
102
}
330
4B
100
AcDbScale
 70
     0
300
1'-0" = 1'-0"
140
12.0
141
12.0
290
     0
  0
VISUALSTYLE
  5
2F
102
{ACAD_REACTORS
330
2A
102
}
330
2A
100
AcDbVisualStyle
  2
2dWireframe
 70
     4
 71
     0
 72
     2
 73
     0
 90
        0
 40
-0.6
 41
-30.0
 62
     5
 63
     7
 74
     1
 91
        4
 64
     7
 65
   257
 75
     1
175
     1
 42
1.0
 92
        0
 66
   257
 43
1.0
 76
     1
 77
     6
 78
     2
 67
     7
 79
     5
170
     0
171
     0
290
     0
174
     0
 93
        1
 44
0.0
173
     0
291
     0
 45
0.0
1001
ACAD
1000
AcDbSavedByObjectVersion
1070
     0
  0
VISUALSTYLE
  5
31
102
{ACAD_REACTORS
330
2A
102
}
330
2A
100
AcDbVisualStyle
  2
3D Hidden
 70
     6
 71
     1
 72
     2
 73
     2
 90
        0
 40
-0.6
 41
-30.0
 62
     5
 63
     7
 74
     2
 91
        2
 64
     7
 65
   257
 75
     2
175
     1
 42
40.0
 92
        0
 66
   257
 43
1.0
 76
     1
 77
     6
 78
     2
 67
     7
 79
     3
170
     0
171
     0
290
     0
174
     0
 93
        1
 44
0.0
173
     0
291
     0
 45
0.0
1001
ACAD
1000
AcDbSavedByObjectVersion
1070
     0
  0
VISUALSTYLE
  5
30
102
{ACAD_REACTORS
330
2A
102
}
330
2A
100
AcDbVisualStyle
  2
3dWireframe
 70
     5
 71
     0
 72
     2
 73
     0
 90
        0
 40
-0.6
 41
-30.0
 62
     5
 63
     7
 74
     1
 91
        4
 64
     7
 65
   257
 75
     1
175
     1
 42
1.0
 92
        0
 66
   257
 43
1.0
 76
     1
 77
     6
 78
     2
 67
     7
 79
     5
170
     0
171
     0
290
     0
174
     0
 93
        1
 44
0.0
173
     0
291
     0
 45
0.0
1001
ACAD
1000
AcDbSavedByObjectVersion
1070
     0
  0
VISUALSTYLE
  5
32
102
{ACAD_REACTORS
330
2A
102
}
330
2A
100
AcDbVisualStyle
  2
Basic
 70
     7
 71
     1
 72
     0
 73
     1
 90
        0
 40
-0.6
 41
-30.0
 62
     5
 63
     7
 74
     0
 91
        4
 64
     7
 65
   257
 75
     1
175
     1
 42
1.0
 92
        8
 66
     7
 43
1.0
 76
     1
 77
     6
 78
     2
 67
     7
 79
     5
170
     0
171
     0
290
     0
174
     0
 93
        1
 44
0.0
173
     0
291
     1
 45
0.0
1001
ACAD
1000
AcDbSavedByObjectVersion
1070
     0
  0
VISUALSTYLE
  5
36
102
{ACAD_REACTORS
330
2A
102
}
330
2A
100
AcDbVisualStyle
  2
Brighten
 70
    12
 71
     2
 72
     2
 73
     0
 90
        0
 40
-0.6
 41
-30.0
 62
     5
 63
     7
 74
     1
 91
        4
 64
     7
 65
   257
 75
     1
175
     1
 42
1.0
 92
        8
 66
     7
 43
1.0
 76
     1
 77
     6
 78
     2
 67
     7
 79
     5
170
     0
171
     0
290
     0
174
     0
 93
        1
 44
50.0
173
     0
291
     1
 45
0.0
1001
ACAD
1000
AcDbSavedByObjectVersion
1070
     0
  0
VISUALSTYLE
  5
3A
102
{ACAD_REACTORS
330
2A
102
}
330
2A
100
AcDbVisualStyle
  2
ColorChange
 70
    16
 71
     2
 72
     2
 73
     3
 90
        0
 40
-0.6
 41
-30.0
 62
     5
 63
     8
 74
     1
 91
        4
 64
     7
 65
   257
 75
     1
175
     1
 42
1.0
 92
        8
 66
     8
 43
1.0
 76
     1
 77
     6
 78
     2
 67
     7
 79
     5
170
     0
171
     0
290
     0
174
     0
 93
        1
 44
0.0
173
     0
291
     1
 45
0.0
1001
ACAD
1000
AcDbSavedByObjectVersion
1070
     0
  0
VISUALSTYLE
  5
34
102
{ACAD_REACTORS
330
2A
102
}
330
2A
100
AcDbVisualStyle
  2
Conceptual
 70
     9
 71
     3
 72
     2
 73
     0
 90
        0
 40
-0.6
 41
-30.0
 62
     5
 63
     7
 74
     2
 91
        2
 64
     7
 65
   257
 75
     1
175
     1
 42
40.0
 92
        8
 66
     7
 43
1.0
 76
     1
 77
     6
 78
     2
 67
     7
 79
     3
170
     0
171
     0
290
     0
174
     0
 93
        1
 44
0.0
173
     0
291
     0
 45
0.0
1001
ACAD
1000
AcDbSavedByObjectVersion
1070
     0
  0
VISUALSTYLE
  5
35
102
{ACAD_REACTORS
330
2A
102
}
330
2A
100
AcDbVisualStyle
  2
Dim
 70
    11
 71
     2
 72
     2
 73
     0
 90
        0
 40
-0.6
 41
-30.0
 62
     5
 63
     7
 74
     1
 91
        4
 64
     7
 65
   257
 75
     1
175
     1
 42
1.0
 92
        8
 66
     7
 43
1.0
 76
     1
 77
     6
 78
     2
 67
     7
 79
     5
170
     0
171
     0
290
     0
174
     0
 93
        1
 44
-50.0
173
     0
291
     1
 45
0.0
1001
ACAD
1000
AcDbSavedByObjectVersion
1070
     0
  0
VISUALSTYLE
  5
39
102
{ACAD_REACTORS
330
2A
102
}
330
2A
100
AcDbVisualStyle
  2
Facepattern
 70
    15
 71
     2
 72
     2
 73
     0
 90
        0
 40
-0.6
 41
-30.0
 62
     5
 63
     7
 74
     1
 91
        4
 64
     7
 65
   257
 75
     1
175
     1
 42
1.0
 92
        8
 66
     7
 43
1.0
 76
     1
 77
     6
 78
     2
 67
     7
 79
     5
170
     0
171
     0
290
     0
174
     0
 93
        1
 44
0.0
173
     0
291
     1
 45
0.0
1001
ACAD
1000
AcDbSavedByObjectVersion
1070
     0
  0
VISUALSTYLE
  5
2B
102
{ACAD_REACTORS
330
2A
102
}
330
2A
100
AcDbVisualStyle
  2
Flat
 70
     0
 71
     2
 72
     1
 73
     1
 90
        2
 40
-0.6
 41
30.0
 62
     5
 63
     7
 74
     0
 91
        4
 64
     7
 65
   257
 75
     1
175
     1
 42
1.0
 92
        8
 66
     7
 43
1.0
 76
     1
 77
     6
 78
     2
 67
     7
 79
     5
170
     0
171
     0
290
     0
174
     0
 93
       13
 44
0.0
173
     0
291
     1
 45
0.0
1001
ACAD
1000
AcDbSavedByObjectVersion
1070
     0
  0
VISUALSTYLE
  5
2C
102
{ACAD_REACTORS
330
2A
102
}
330
2A
100
AcDbVisualStyle
  2
FlatWithEdges
 70
     1
 71
     2
 72
     1
 73
     1
 90
        2
 40
-0.6
 41
30.0
 62
     5
 63
     7
 74
     1
 91
        4
 64
     7
 65
   257
 75
     1
175
     1
 42
1.0
 92
        0
 66
   257
 43
1.0
 76
     1
 77
     6
 78
     2
 67
     7
 79
     5
170
     0
171
     0
290
     0
174
     0
 93
       13
 44
0.0
173
     0
291
     1
 45
0.0
1001
ACAD
1000
AcDbSavedByObjectVersion
1070
     0
  0
VISUALSTYLE
  5
2D
102
{ACAD_REACTORS
330
2A
102
}
330
2A
100
AcDbVisualStyle
  2
Gouraud
 70
     2
 71
     2
 72
     2
 73
     1
 90
        2
 40
-0.6
 41
30.0
 62
     5
 63
     7
 74
     0
 91
        4
 64
     7
 65
   257
 75
     1
175
     1
 42
1.0
 92
        0
 66
     7
 43
1.0
 76
     1
 77
     6
 78
     2
 67
     7
 79
     5
170
     0
171
     0
290
     0
174
     0
 93
       13
 44
0.0
173
     0
291
     1
 45
0.0
1001
ACAD
1000
AcDbSavedByObjectVersion
1070
     0
  0
VISUALSTYLE
  5
2E
102
{ACAD_REACTORS
330
2A
102
}
330
2A
100
AcDbVisualStyle
  2
GouraudWithEdges
 70
     3
 71
     2
 72
     2
 73
     1
 90
        2
 40
-0.6
 41
30.0
 62
     5
 63
     7
 74
     1
 91
        4
 64
     7
 65
   257
 75
     1
175
     1
 42
1.0
 92
        0
 66
   257
 43
1.0
 76
     1
 77
     6
 78
     2
 67
     7
 79
     5
170
     0
171
     0
290
     0
174
     0
 93
       13
 44
0.0
173
     0
291
     1
 45
0.0
1001
ACAD
1000
AcDbSavedByObjectVersion
1070
     0
  0
VISUALSTYLE
  5
38
102
{ACAD_REACTORS
330
2A
102
}
330
2A
100
AcDbVisualStyle
  2
Linepattern
 70
    14
 71
     2
 72
     2
 73
     0
 90
        0
 40
-0.6
 41
-30.0
 62
     5
 63
     7
 74
     1
 91
        4
 64
     7
 65
   257
 75
     7
175
     7
 42
1.0
 92
        8
 66
     7
 43
1.0
 76
     1
 77
     6
 78
     2
 67
     7
 79
     5
170
     0
171
     0
290
     0
174
     0
 93
        1
 44
0.0
173
     0
291
     1
 45
0.0
1001
ACAD
1000
AcDbSavedByObjectVersion
1070
     0
  0
VISUALSTYLE
  5
33
102
{ACAD_REACTORS
330
2A
102
}
330
2A
100
AcDbVisualStyle
  2
Realistic
 70
     8
 71
     2
 72
     2
 73
     0
 90
        0
 40
-0.6
 41
-30.0
 62
     5
 63
     7
 74
     1
 91
        0
 64
     7
 65
   257
 75
     1
175
     1
 42
1.0
 92
        8
 66
     8
 43
1.0
 76
     1
 77
     6
 78
     2
 67
     7
 79
     5
170
     0
171
     0
290
     0
174
     0
 93
       13
 44
0.0
173
     0
291
     0
 45
0.0
1001
ACAD
1000
AcDbSavedByObjectVersion
1070
     0
  0
VISUALSTYLE
  5
37
102
{ACAD_REACTORS
330
2A
102
}
330
2A
100
AcDbVisualStyle
  2
Thicken
 70
    13
 71
     2
 72
     2
 73
     0
 90
        0
 40
-0.6
 41
-30.0
 62
     5
 63
     7
 74
     1
 91
        4
 64
     7
 65
   257
 75
     1
175
     1
 42
1.0
 92
       12
 66
     7
 43
1.0
 76
     1
 77
     6
 78
     2
 67
     7
 79
     5
170
     0
171
     0
290
     0
174
     0
 93
        1
 44
0.0
173
     0
291
     1
 45
0.0
1001
ACAD
1000
AcDbSavedByObjectVersion
1070
     0
  0
DICTIONARYVAR
  5
183
102
{ACAD_REACTORS
330
180
102
}
330
180
100
DictionaryVariables
280
     0
  1
1:1
  0
ENDSEC
  0
EOF
