  0
SECTION
  2
HEADER
  9
$ACADVER
  1
AC1015
  9
$ACADMAINTVER
 70
     6
  9
$DWGCODEPAGE
  3
ANSI_1252
  9
$INSBASE
 10
0.0
 20
0.0
 30
0.0
  9
$EXTMIN
 10
57.7074535497034
 20
259.1410683298898
 30
0.0
  9
$EXTMAX
 10
206.391019604828
 20
367.910455247196
 30
0.0
  9
$LIMMIN
 10
0.0
 20
0.0
  9
$LIMMAX
 10
12.0
 20
9.0
  9
$ORTHOMODE
 70
     0
  9
$REGENMODE
 70
     1
  9
$FILLMODE
 70
     1
  9
$QTEXTMODE
 70
     0
  9
$MIRRTEXT
 70
     1
  9
$LTSCALE
 40
1.0
  9
$ATTMODE
 70
     1
  9
$TEXTSIZE
 40
0.2
  9
$TRACEWID
 40
0.05
  9
$TEXTSTYLE
  7
Standard
  9
$CLAYER
  8
0
  9
$CELTYPE
  6
ByLayer
  9
$CECOLOR
 62
   256
  9
$CELTSCALE
 40
1.0
  9
$DISPSILH
 70
     0
  9
$DIMSCALE
 40
1.0
  9
$DIMASZ
 40
0.18
  9
$DIMEXO
 40
0.0625
  9
$DIMDLI
 40
0.38
  9
$DIMRND
 40
0.0
  9
$DIMDLE
 40
0.0
  9
$DIMEXE
 40
0.18
  9
$DIMTP
 40
0.0
  9
$DIMTM
 40
0.0
  9
$DIMTXT
 40
0.18
  9
$DIMCEN
 40
0.09
  9
$DIMTSZ
 40
0.0
  9
$DIMTOL
 70
     0
  9
$DIMLIM
 70
     0
  9
$DIMTIH
 70
     1
  9
$DIMTOH
 70
     1
  9
$DIMSE1
 70
     0
  9
$DIMSE2
 70
     0
  9
$DIMTAD
 70
     0
  9
$DIMZIN
 70
     0
  9
$DIMBLK
  1

  9
$DIMASO
 70
     1
  9
$DIMSHO
 70
     1
  9
$DIMPOST
  1

  9
$DIMAPOST
  1

  9
$DIMALT
 70
     0
  9
$DIMALTD
 70
     2
  9
$DIMALTF
 40
25.4
  9
$DIMLFAC
 40
1.0
  9
$DIMTOFL
 70
     0
  9
$DIMTVP
 40
0.0
  9
$DIMTIX
 70
     0
  9
$DIMSOXD
 70
     0
  9
$DIMSAH
 70
     0
  9
$DIMBLK1
  1

  9
$DIMBLK2
  1

  9
$DIMSTYLE
  2
Standard
  9
$DIMCLRD
 70
     0
  9
$DIMCLRE
 70
     0
  9
$DIMCLRT
 70
     0
  9
$DIMTFAC
 40
1.0
  9
$DIMGAP
 40
0.09
  9
$DIMJUST
 70
     0
  9
$DIMSD1
 70
     0
  9
$DIMSD2
 70
     0
  9
$DIMTOLJ
 70
     1
  9
$DIMTZIN
 70
     0
  9
$DIMALTZ
 70
     0
  9
$DIMALTTZ
 70
     0
  9
$DIMUPT
 70
     0
  9
$DIMDEC
 70
     4
  9
$DIMTDEC
 70
     4
  9
$DIMALTU
 70
     2
  9
$DIMALTTD
 70
     2
  9
$DIMTXSTY
  7
Standard
  9
$DIMAUNIT
 70
     0
  9
$DIMADEC
 70
     0
  9
$DIMALTRND
 40
0.0
  9
$DIMAZIN
 70
     0
  9
$DIMDSEP
 70
    46
  9
$DIMATFIT
 70
     3
  9
$DIMFRAC
 70
     0
  9
$DIMLDRBLK
  1

  9
$DIMLUNIT
 70
     2
  9
$DIMLWD
 70
    -2
  9
$DIMLWE
 70
    -2
  9
$DIMTMOVE
 70
     0
  9
$LUNITS
 70
     2
  9
$LUPREC
 70
     4
  9
$SKETCHINC
 40
0.1
  9
$FILLETRAD
 40
0.5
  9
$AUNITS
 70
     0
  9
$AUPREC
 70
     0
  9
$MENU
  1
.
  9
$ELEVATION
 40
0.0
  9
$PELEVATION
 40
0.0
  9
$THICKNESS
 40
0.0
  9
$LIMCHECK
 70
     0
  9
$CHAMFERA
 40
0.5
  9
$CHAMFERB
 40
0.5
  9
$CHAMFERC
 40
1.0
  9
$CHAMFERD
 40
0.0
  9
$SKPOLY
 70
     0
  9
$TDCREATE
 40
2456749.750805683
  9
$TDUCREATE
 40
2456749.667472349
  9
$TDUPDATE
 40
2456749.750805695
  9
$TDUUPDATE
 40
2456749.667472361
  9
$TDINDWG
 40
0.0000000116
  9
$TDUSRTIMER
 40
0.0000000116
  9
$USRTIMER
 70
     1
  9
$ANGBASE
 50
0.0
  9
$ANGDIR
 70
     0
  9
$PDMODE
 70
     0
  9
$PDSIZE
 40
0.0
  9
$PLINEWID
 40
0.0
  9
$SPLFRAME
 70
     0
  9
$SPLINETYPE
 70
     6
  9
$SPLINESEGS
 70
     8
  9
$HANDSEED
  5
18D
  9
$SURFTAB1
 70
     6
  9
$SURFTAB2
 70
     6
  9
$SURFTYPE
 70
     6
  9
$SURFU
 70
     6
  9
$SURFV
 70
     6
  9
$UCSBASE
  2

  9
$UCSNAME
  2

  9
$UCSORG
 10
0.0
 20
0.0
 30
0.0
  9
$UCSXDIR
 10
1.0
 20
0.0
 30
0.0
  9
$UCSYDIR
 10
0.0
 20
1.0
 30
0.0
  9
$UCSORTHOREF
  2

  9
$UCSORTHOVIEW
 70
     0
  9
$UCSORGTOP
 10
0.0
 20
0.0
 30
0.0
  9
$UCSORGBOTTOM
 10
0.0
 20
0.0
 30
0.0
  9
$UCSORGLEFT
 10
0.0
 20
0.0
 30
0.0
  9
$UCSORGRIGHT
 10
0.0
 20
0.0
 30
0.0
  9
$UCSORGFRONT
 10
0.0
 20
0.0
 30
0.0
  9
$UCSORGBACK
 10
0.0
 20
0.0
 30
0.0
  9
$PUCSBASE
  2

  9
$PUCSNAME
  2

  9
$PUCSORG
 10
0.0
 20
0.0
 30
0.0
  9
$PUCSXDIR
 10
1.0
 20
0.0
 30
0.0
  9
$PUCSYDIR
 10
0.0
 20
1.0
 30
0.0
  9
$PUCSORTHOREF
  2

  9
$PUCSORTHOVIEW
 70
     0
  9
$PUCSORGTOP
 10
0.0
 20
0.0
 30
0.0
  9
$PUCSORGBOTTOM
 10
0.0
 20
0.0
 30
0.0
  9
$PUCSORGLEFT
 10
0.0
 20
0.0
 30
0.0
  9
$PUCSORGRIGHT
 10
0.0
 20
0.0
 30
0.0
  9
$PUCSORGFRONT
 10
0.0
 20
0.0
 30
0.0
  9
$PUCSORGBACK
 10
0.0
 20
0.0
 30
0.0
  9
$USERI1
 70
     0
  9
$USERI2
 70
     0
  9
$USERI3
 70
     0
  9
$USERI4
 70
     0
  9
$USERI5
 70
     0
  9
$USERR1
 40
16.5
  9
$USERR2
 40
0.0
  9
$USERR3
 40
0.0
  9
$USERR4
 40
0.0
  9
$USERR5
 40
0.0
  9
$WORLDVIEW
 70
     1
  9
$SHADEDGE
 70
     3
  9
$SHADEDIF
 70
    70
  9
$TILEMODE
 70
     1
  9
$MAXACTVP
 70
    64
  9
$PINSBASE
 10
0.0
 20
0.0
 30
0.0
  9
$PLIMCHECK
 70
     0
  9
$PEXTMIN
 10
1.00000000000000E+20
 20
1.00000000000000E+20
 30
1.00000000000000E+20
  9
$PEXTMAX
 10
-1.00000000000000E+20
 20
-1.00000000000000E+20
 30
-1.00000000000000E+20
  9
$PLIMMIN
 10
0.0
 20
0.0
  9
$PLIMMAX
 10
12.0
 20
9.0
  9
$UNITMODE
 70
     0
  9
$VISRETAIN
 70
     1
  9
$PLINEGEN
 70
     0
  9
$PSLTSCALE
 70
     1
  9
$TREEDEPTH
 70
  3020
  9
$CMLSTYLE
  2
Standard
  9
$CMLJUST
 70
     0
  9
$CMLSCALE
 40
1.0
  9
$PROXYGRAPHICS
 70
     1
  9
$MEASUREMENT
 70
     1
  9
$CELWEIGHT
370
    -1
  9
$ENDCAPS
280
     0
  9
$JOINSTYLE
280
     0
  9
$LWDISPLAY
290
     0
  9
$INSUNITS
 70
     1
  9
$HYPERLINKBASE
  1

  9
$STYLESHEET
  1

  9
$XEDIT
290
     1
  9
$CEPSNTYPE
380
     0
  9
$PSTYLEMODE
290
     1
  9
$FINGERPRINTGUID
  2
{050650D3-E8A5-4BAA-B7EE-109620607CC8}
  9
$VERSIONGUID
  2
{FAEB1C32-E019-11D5-929B-00C0DF256EC4}
  9
$EXTNAMES
290
     1
  9
$PSVPSCALE
 40
0.0
  9
$OLESTARTUP
290
     0
  0
ENDSEC
  0
SECTION
  2
CLASSES
  0
CLASS
  1
ACDBDICTIONARYWDFLT
  2
AcDbDictionaryWithDefault
  3
ObjectDBX Classes
 90
        0
280
     0
281
     0
  0
CLASS
  1
VISUALSTYLE
  2
AcDbVisualStyle
  3
ObjectDBX Classes
 90
     4095
280
     0
281
     0
  0
CLASS
  1
SCALE
  2
AcDbScale
  3
ObjectDBX Classes
 90
     1153
280
     0
281
     0
  0
CLASS
  1

  2
exOdDbPolyline
  3

 90
        0
280
     0
281
     1
  0
CLASS
  1

  2
exOdDbCircle
  3

 90
        0
280
     0
281
     1
  0
CLASS
  1

  2
exOdDbSpline
  3

 90
        0
280
     0
281
     1
  0
CLASS
  1
DICTIONARYVAR
  2
AcDbDictionaryVar
  3
ObjectDBX Classes
 90
        0
280
     0
281
     0
  0
CLASS
  1
ACDBPLACEHOLDER
  2
AcDbPlaceHolder
  3
ObjectDBX Classes
 90
        0
280
     0
281
     0
  0
CLASS
  1
LAYOUT
  2
AcDbLayout
  3
ObjectDBX Classes
 90
        0
280
     0
281
     0
  0
ENDSEC
  0
SECTION
  2
TABLES
  0
TABLE
  2
VPORT
  5
8
330
0
100
AcDbSymbolTable
 70
     1
  0
VPORT
  5
29
330
8
100
AcDbSymbolTableRecord
100
AcDbViewportTableRecord
  2
*Active
 70
     0
 10
0.0
 20
0.0
 11
1.0
 21
1.0
 12
132.0492365772657
 22
313.5257617885429
 13
0.0
 23
0.0
 14
0.5
 24
0.5
 15
0.5
 25
0.5
 16
0.0
 26
0.0
 36
1.0
 17
0.0
 27
0.0
 37
0.0
 40
119.6463256090369
 41
1.60267857142857
 42
50.0
 43
0.0
 44
0.0
 50
0.0
 51
0.0
 71
     0
 72
   100
 73
     1
 74
     3
 75
     0
 76
     0
 77
     0
 78
     0
281
     0
 65
     1
110
0.0
120
0.0
130
0.0
111
1.0
121
0.0
131
0.0
112
0.0
122
1.0
132
0.0
 79
     0
146
0.0
  0
ENDTAB
  0
TABLE
  2
LTYPE
  5
5
330
0
100
AcDbSymbolTable
 70
     8
  0
LTYPE
  5
14
330
5
100
AcDbSymbolTableRecord
100
AcDbLinetypeTableRecord
  2
ByBlock
 70
     0
  3

 72
    65
 73
     0
 40
0.0
  0
LTYPE
  5
15
330
5
100
AcDbSymbolTableRecord
100
AcDbLinetypeTableRecord
  2
ByLayer
 70
     0
  3

 72
    65
 73
     0
 40
0.0
  0
LTYPE
  5
16
330
5
100
AcDbSymbolTableRecord
100
AcDbLinetypeTableRecord
  2
Continuous
 70
     0
  3
Solid line
 72
    65
 73
     0
 40
0.0
  0
LTYPE
  5
3B
330
5
100
AcDbSymbolTableRecord
100
AcDbLinetypeTableRecord
  2
DASHED
 70
     0
  3
Dashed
 72
    65
 73
     2
 40
15.0
 49
7.0
 74
     0
 49
-8.0
 74
     0
  0
LTYPE
  5
3C
330
5
100
AcDbSymbolTableRecord
100
AcDbLinetypeTableRecord
  2
DOTTED
 70
     0
  3
Dotted
 72
    65
 73
     2
 40
1.0
 49
0.0
 74
     0
 49
-1.0
 74
     0
  0
LTYPE
  5
3D
330
5
100
AcDbSymbolTableRecord
100
AcDbLinetypeTableRecord
  2
DOT_CENTER
 70
     0
  3
Dot_Center
 72
    65
 73
     4
 40
14.0
 49
12.0
 74
     0
 49
-1.0
 74
     0
 49
0.0
 74
     0
 49
-1.0
 74
     0
  0
LTYPE
  5
3E
330
5
100
AcDbSymbolTableRecord
100
AcDbLinetypeTableRecord
  2
LONG_DASHED
 70
     0
  3
Long_Dashed
 72
    65
 73
     2
 40
15.0
 49
10.0
 74
     0
 49
-5.0
 74
     0
  0
LTYPE
  5
3F
330
5
100
AcDbSymbolTableRecord
100
AcDbLinetypeTableRecord
  2
DASH_CENTER
 70
     0
  3
Dash_Center
 72
    65
 73
     4
 40
14.0
 49
11.0
 74
     0
 49
-1.0
 74
     0
 49
1.0
 74
     0
 49
-1.0
 74
     0
  0
LTYPE
  5
40
330
5
100
AcDbSymbolTableRecord
100
AcDbLinetypeTableRecord
  2
PHANTOM
 70
     0
  3
Phantom
 72
    65
 73
     6
 40
13.0
 49
10.0
 74
     0
 49
-1.0
 74
     0
 49
0.0
 74
     0
 49
-1.0
 74
     0
 49
0.0
 74
     0
 49
-1.0
 74
     0
  0
LTYPE
  5
41
330
5
100
AcDbSymbolTableRecord
100
AcDbLinetypeTableRecord
  2
CENTER_DASH_DASH
 70
     0
  3
Center_Dash_Dash
 72
    65
 73
     6
 40
14.0
 49
9.0
 74
     0
 49
-1.0
 74
     0
 49
1.0
 74
     0
 49
-1.0
 74
     0
 49
1.0
 74
     0
 49
-1.0
 74
     0
  0
ENDTAB
  0
TABLE
  2
LAYER
  5
2
330
0
100
AcDbSymbolTable
 70
     8
  0
LAYER
  5
10
330
2
100
AcDbSymbolTableRecord
100
AcDbLayerTableRecord
  2
0
 70
     0
 62
     7
  6
Continuous
370
    -3
390
F
  0
LAYER
  5
42
330
2
100
AcDbSymbolTableRecord
100
AcDbLayerTableRecord
  2
1
 70
     0
 62
     7
  6
Continuous
370
    -3
390
F
  0
LAYER
  5
43
330
2
100
AcDbSymbolTableRecord
100
AcDbLayerTableRecord
  2
BEZUGSACHSEN
 70
     0
 62
     7
  6
Continuous
370
    -3
390
F
  0
LAYER
  5
44
330
2
100
AcDbSymbolTableRecord
100
AcDbLayerTableRecord
  2
BG_STARTBEZUEGE
 70
     0
 62
     7
  6
Continuous
370
    -3
390
F
  0
LAYER
  5
45
330
2
100
AcDbSymbolTableRecord
100
AcDbLayerTableRecord
  2
DEFAULT_2
 70
     0
 62
     7
  6
Continuous
370
    -3
390
F
  0
LAYER
  5
46
330
2
100
AcDbSymbolTableRecord
100
AcDbLayerTableRecord
  2
FASEN
 70
     0
 62
     7
  6
Continuous
370
    -3
390
F
  0
LAYER
  5
47
330
2
100
AcDbSymbolTableRecord
100
AcDbLayerTableRecord
  2
RUNDUNGEN
 70
     0
 62
     7
  6
Continuous
370
    -3
390
F
  0
LAYER
  5
48
330
2
100
AcDbSymbolTableRecord
100
AcDbLayerTableRecord
  2
VERERBUNG
 70
     0
 62
     7
  6
Continuous
370
    -3
390
F
  0
ENDTAB
  0
TABLE
  2
STYLE
  5
3
330
0
100
AcDbSymbolTable
 70
     2
  0
STYLE
  5
11
330
3
100
AcDbSymbolTableRecord
100
AcDbTextStyleTableRecord
  2
Standard
 70
     0
 40
0.0
 41
1.0
 50
0.0
 71
     0
 42
0.2
  3
txt
  4

  0
STYLE
  5
6F
330
3
100
AcDbSymbolTableRecord
100
AcDbTextStyleTableRecord
  2
CONVERTER_11
 70
     0
 40
0.0
 41
0.72
 50
0.0
 71
     0
 42
0.2
  3
txt.shx
  4

  0
ENDTAB
  0
TABLE
  2
VIEW
  5
6
330
0
100
AcDbSymbolTable
 70
     0
  0
ENDTAB
  0
TABLE
  2
UCS
  5
7
330
0
100
AcDbSymbolTable
 70
     0
  0
ENDTAB
  0
TABLE
  2
APPID
  5
9
330
0
100
AcDbSymbolTable
 70
     1
  0
APPID
  5
12
330
9
100
AcDbSymbolTableRecord
100
AcDbRegAppTableRecord
  2
ACAD
 70
     0
  0
ENDTAB
  0
TABLE
  2
DIMSTYLE
  5
A
330
0
100
AcDbSymbolTable
 70
     7
100
AcDbDimStyleTable
  0
DIMSTYLE
105
27
330
A
100
AcDbSymbolTableRecord
100
AcDbDimStyleTableRecord
  2
Standard
 70
     0
340
11
  0
DIMSTYLE
105
149
102
{ACAD_REACTORS
330
14A
102
}
330
A
100
AcDbSymbolTableRecord
100
AcDbDimStyleTableRecord
  2
ME10_DIM_10
 70
     0
  3
ER<>
 41
3.5
 42
2.0
 44
2.0
 71
     1
 73
     0
 74
     0
 77
     1
 78
     8
140
3.5
146
0.7
147
2.0
172
     1
173
     1
176
     2
177
     2
178
     3
271
     2
272
     0
340
6F
  0
DIMSTYLE
105
154
102
{ACAD_REACTORS
330
155
102
}
330
A
100
AcDbSymbolTableRecord
100
AcDbDimStyleTableRecord
  2
ME10_DIM_11
 70
     0
  3
\U+2300<>
 41
3.5
 42
2.0
 44
2.0
 71
     1
 73
     0
 74
     0
 77
     1
 78
     8
140
3.5
146
0.7
147
2.0
172
     1
173
     1
176
     2
177
     2
178
     3
271
     2
272
     0
340
6F
  0
DIMSTYLE
105
15F
102
{ACAD_REACTORS
330
160
102
}
330
A
100
AcDbSymbolTableRecord
100
AcDbDimStyleTableRecord
  2
ME10_DIM_12
 70
     0
  3
<>
 41
3.5
 42
2.0
 44
2.0
 71
     1
 73
     0
 74
     0
 77
     1
 78
     8
140
3.5
146
0.7
147
2.0
172
     1
173
     1
176
     2
177
     2
178
     3
271
     2
272
     0
340
6F
  0
DIMSTYLE
105
16A
102
{ACAD_REACTORS
330
16B
102
}
330
A
100
AcDbSymbolTableRecord
100
AcDbDimStyleTableRecord
  2
ME10_DIM_13
 70
     0
  3
<>
 41
3.5
 42
2.0
 44
2.0
 71
     1
 73
     0
 74
     0
 77
     1
 78
     8
140
3.5
146
0.7
147
2.0
172
     1
173
     1
176
     2
177
     2
178
     3
271
     2
272
     0
340
6F
  0
DIMSTYLE
105
175
102
{ACAD_REACTORS
330
176
102
}
330
A
100
AcDbSymbolTableRecord
100
AcDbDimStyleTableRecord
  2
ME10_DIM_14
 70
     0
  3
<>
 41
3.5
 42
2.0
 44
2.0
 71
     1
 73
     0
 74
     0
 77
     1
 78
     8
140
3.5
146
0.7
147
2.0
172
     1
173
     1
176
     2
177
     2
178
     3
271
     2
272
     0
340
6F
  0
DIMSTYLE
105
180
102
{ACAD_REACTORS
330
181
102
}
330
A
100
AcDbSymbolTableRecord
100
AcDbDimStyleTableRecord
  2
ME10_DIM_15
 70
     0
  3
<>
 41
3.5
 42
2.0
 44
2.0
 71
     1
 73
     0
 74
     0
 77
     1
 78
     8
140
3.5
146
0.7
147
2.0
172
     1
173
     1
176
     2
177
     2
178
     3
271
     2
272
     0
340
6F
  0
ENDTAB
  0
TABLE
  2
BLOCK_RECORD
  5
1
330
0
100
AcDbSymbolTable
 70
     9
  0
BLOCK_RECORD
  5
1F
330
1
100
AcDbSymbolTableRecord
100
AcDbBlockTableRecord
  2
*Model_Space
340
22
  0
BLOCK_RECORD
  5
1B
330
1
100
AcDbSymbolTableRecord
100
AcDbBlockTableRecord
  2
*Paper_Space
340
1E
  0
BLOCK_RECORD
  5
23
330
1
100
AcDbSymbolTableRecord
100
AcDbBlockTableRecord
  2
*Paper_Space0
340
26
  0
BLOCK_RECORD
  5
49
330
1
100
AcDbSymbolTableRecord
100
AcDbBlockTableRecord
  2
Urheberrecht_DE-EN
340
0
102
{BLKREFS
331
6E
102
}
  0
BLOCK_RECORD
  5
140
330
1
100
AcDbSymbolTableRecord
100
AcDbBlockTableRecord
  2
*D2
340
0
  0
BLOCK_RECORD
  5
14B
330
1
100
AcDbSymbolTableRecord
100
AcDbBlockTableRecord
  2
*D3
340
0
  0
BLOCK_RECORD
  5
156
330
1
100
AcDbSymbolTableRecord
100
AcDbBlockTableRecord
  2
*D4
340
0
  0
BLOCK_RECORD
  5
161
330
1
100
AcDbSymbolTableRecord
100
AcDbBlockTableRecord
  2
*D5
340
0
  0
BLOCK_RECORD
  5
16C
330
1
100
AcDbSymbolTableRecord
100
AcDbBlockTableRecord
  2
*D6
340
0
  0
BLOCK_RECORD
  5
177
330
1
100
AcDbSymbolTableRecord
100
AcDbBlockTableRecord
  2
*D7
340
0
  0
BLOCK_RECORD
  5
182
330
1
100
AcDbSymbolTableRecord
100
AcDbBlockTableRecord
  2
*D8
340
0
102
{BLKREFS
331
188
102
}
  0
ENDTAB
  0
ENDSEC
  0
SECTION
  2
BLOCKS
  0
BLOCK
  5
20
330
1F
100
AcDbEntity
  8
0
100
AcDbBlockBegin
  2
*Model_Space
 70
     0
 10
0.0
 20
0.0
 30
0.0
  3
*Model_Space
  1

  0
ENDBLK
  5
21
330
1F
100
AcDbEntity
  8
0
100
AcDbBlockEnd
  0
BLOCK
  5
1C
330
1B
100
AcDbEntity
 67
     1
  8
0
100
AcDbBlockBegin
  2
*Paper_Space
 70
     0
 10
0.0
 20
0.0
 30
0.0
  3
*Paper_Space
  1

  0
ENDBLK
  5
1D
330
1B
100
AcDbEntity
 67
     1
  8
0
100
AcDbBlockEnd
  0
BLOCK
  5
24
330
23
100
AcDbEntity
  8
0
100
AcDbBlockBegin
  2
*Paper_Space0
 70
     0
 10
0.0
 20
0.0
 30
0.0
  3
*Paper_Space0
  1

  0
ENDBLK
  5
25
330
23
100
AcDbEntity
  8
0
100
AcDbBlockEnd
  0
BLOCK
  5
4A
330
49
100
AcDbEntity
  8
0
100
AcDbBlockBegin
  2
Urheberrecht_DE-EN
 70
     0
 10
71.7074535497034
 20
315.430455247196
 30
0.0
  3
Urheberrecht_DE-EN
  1

  0
MTEXT
  5
70
330
49
100
AcDbEntity
  8
1
 62
     1
100
AcDbMText
 10
71.7074535497034
 20
315.430455247196
 30
0.0
 40
2.0
 41
0.0
 71
     7
 72
     1
  1
We own the copyright of this document. It \Pdetermined and may neither be copied or \Pmade accessible to outsiders without our\Ppermission.
  7
CONVERTER_11
 11
0.0
 21
1.0
 31
0.0
 73
     1
 44
0.90036014405762
  0
MTEXT
  5
71
330
49
100
AcDbEntity
  8
1
 62
     1
100
AcDbMText
 10
71.7074535497034
 20
259.1410683298898
 30
0.0
 40
2.0
 41
0.0
 71
     7
 72
     1
  1
F\U+00fcr diese Unterlage behalten wir das Ur-\Pheberrecht. Sie darf nur f\U+00fcr den von uns \Pbestimmten Zweck benutzt und ohne unsere \PZustimmung weder vervielf\U+00e4ltigt noch\PDritten zug\U+00e4nglich gemacht werden.
  7
CONVERTER_11
 11
0.0
 21
1.0
 31
0.0
 73
     1
 44
0.90036014405762
  0
ENDBLK
  5
4B
330
49
100
AcDbEntity
  8
0
100
AcDbBlockEnd
  0
BLOCK
  5
147
330
140
100
AcDbEntity
  8
0
100
AcDbBlockBegin
  2
*D2
 70
     1
 10
0.0
 20
0.0
 30
0.0
  3
*D2
  1

  0
LINE
  5
141
330
140
100
AcDbEntity
  8
1
  6
Continuous
 62
     2
100
AcDbLine
 10
196.008282400624
 20
307.0982421875
 30
0.0
 11
196.008282400624
 21
282.0982421875
 31
0.0
  0
LINE
  5
142
330
140
100
AcDbEntity
  8
1
  6
Continuous
 62
     2
100
AcDbLine
 10
175.5547851563
 20
307.0982421875
 30
0.0
 11
198.008282400624
 21
307.0982421875
 31
0.0
  0
LINE
  5
143
330
140
100
AcDbEntity
  8
1
  6
Continuous
 62
     2
100
AcDbLine
 10
175.5547851563
 20
282.0982421875
 30
0.0
 11
198.008282400624
 21
282.0982421875
 31
0.0
  0
SOLID
  5
144
330
140
100
AcDbEntity
  8
1
 62
     2
100
AcDbTrace
 10
196.4690661421799
 20
303.5982421875
 30
0.0
 11
195.5474986590681
 21
303.5982421875
 31
0.0
 12
196.008282400624
 22
307.0982421875
 32
0.0
 13
196.008282400624
 23
307.0982421875
 33
0.0
  0
SOLID
  5
145
330
140
100
AcDbEntity
  8
1
 62
     2
100
AcDbTrace
 10
195.5474986590681
 20
285.5982421875
 30
0.0
 11
196.4690661421799
 21
285.5982421875
 31
0.0
 12
196.008282400624
 22
282.0982421875
 32
0.0
 13
196.008282400624
 23
282.0982421875
 33
0.0
  0
MTEXT
  5
146
330
140
100
AcDbEntity
  8
1
 62
     3
100
AcDbMText
 10
194.008282400624
 20
290.206990934882
 30
0.0
 40
3.5
 41
0.0
 71
     7
 72
     1
  1
\C3;ER\C3;\C3;25\C2;\H2.45;\S^ ;\C3;
  7
CONVERTER_11
 11
0.0
 21
1.0
 31
0.0
 73
     1
 44
0.60024009603842
  0
ENDBLK
  5
148
330
140
100
AcDbEntity
  8
0
100
AcDbBlockEnd
  0
BLOCK
  5
152
330
14B
100
AcDbEntity
  8
0
100
AcDbBlockBegin
  2
*D3
 70
     1
 10
0.0
 20
0.0
 30
0.0
  3
*D3
  1

  0
LINE
  5
14C
330
14B
100
AcDbEntity
  8
1
  6
Continuous
 62
     2
100
AcDbLine
 10
204.391019604828
 20
315.5982421875
 30
0.0
 11
204.391019604828
 21
273.5982421875
 31
0.0
  0
LINE
  5
14D
330
14B
100
AcDbEntity
  8
1
  6
Continuous
 62
     2
100
AcDbLine
 10
183.08032057
 20
315.5982421875
 30
0.0
 11
206.391019604828
 21
315.5982421875
 31
0.0
  0
LINE
  5
14E
330
14B
100
AcDbEntity
  8
1
  6
Continuous
 62
     2
100
AcDbLine
 10
183.08032057
 20
273.5982421875
 30
0.0
 11
206.391019604828
 21
273.5982421875
 31
0.0
  0
SOLID
  5
14F
330
14B
100
AcDbEntity
  8
1
 62
     2
100
AcDbTrace
 10
204.8518033463839
 20
312.0982421875
 30
0.0
 11
203.9302358632721
 21
312.0982421875
 31
0.0
 12
204.391019604828
 22
315.5982421875
 32
0.0
 13
204.391019604828
 23
315.5982421875
 33
0.0
  0
SOLID
  5
150
330
14B
100
AcDbEntity
  8
1
 62
     2
100
AcDbTrace
 10
203.9302358632721
 20
277.0982421875
 30
0.0
 11
204.8518033463839
 21
277.0982421875
 31
0.0
 12
204.391019604828
 22
273.5982421875
 32
0.0
 13
204.391019604828
 23
273.5982421875
 33
0.0
  0
MTEXT
  5
151
330
14B
100
AcDbEntity
  8
1
 62
     3
100
AcDbMText
 10
202.391019604828
 20
286.642905646815
 30
0.0
 40
3.5
 41
0.0
 71
     7
 72
     1
  1
\C3;%%c\C3;\C3;42\C2;\H2.45;\S^ ;\C3;
  7
CONVERTER_11
 11
0.0
 21
1.0
 31
0.0
 73
     1
 44
0.60024009603842
  0
ENDBLK
  5
153
330
14B
100
AcDbEntity
  8
0
100
AcDbBlockEnd
  0
BLOCK
  5
15D
330
156
100
AcDbEntity
  8
0
100
AcDbBlockBegin
  2
*D4
 70
     1
 10
0.0
 20
0.0
 30
0.0
  3
*D4
  1

  0
LINE
  5
157
330
156
100
AcDbEntity
  8
1
  6
Continuous
 62
     2
100
AcDbLine
 10
173.5547851562
 20
333.950833450692
 30
0.0
 11
136.5547851563
 21
333.950833450692
 31
0.0
  0
LINE
  5
158
330
156
100
AcDbEntity
  8
1
  6
Continuous
 62
     2
100
AcDbLine
 10
173.5547851562
 20
312.5982421875
 30
0.0
 11
173.5547851562
 21
335.950833450692
 31
0.0
  0
LINE
  5
159
330
156
100
AcDbEntity
  8
1
  6
Continuous
 62
     2
100
AcDbLine
 10
136.5547851563
 20
328.0982421875
 30
0.0
 11
136.5547851563
 21
335.950833450692
 31
0.0
  0
SOLID
  5
15A
330
156
100
AcDbEntity
  8
1
 62
     2
100
AcDbTrace
 10
170.0547851562
 20
333.4900497091361
 30
0.0
 11
170.0547851562
 21
334.4116171922479
 31
0.0
 12
173.5547851562
 22
333.950833450692
 32
0.0
 13
173.5547851562
 23
333.950833450692
 33
0.0
  0
SOLID
  5
15B
330
156
100
AcDbEntity
  8
1
 62
     2
100
AcDbTrace
 10
140.0547851563
 20
334.4116171922479
 30
0.0
 11
140.0547851563
 21
333.4900497091361
 31
0.0
 12
136.5547851563
 22
333.950833450692
 32
0.0
 13
136.5547851563
 23
333.950833450692
 33
0.0
  0
MTEXT
  5
15C
330
156
100
AcDbEntity
  8
1
 62
     3
100
AcDbMText
 10
152.721699017246
 20
335.950833450692
 30
0.0
 40
3.5
 41
0.0
 71
     7
 72
     1
  1
\C3;\C3;\C3;37\C2;\H2.45;\S^ ;\C3;
  7
CONVERTER_11
 11
0.9999999999970619
 21
2.424068405545306E-6
 31
0.0
 73
     1
 44
0.60024009603842
  0
ENDBLK
  5
15E
330
156
100
AcDbEntity
  8
0
100
AcDbBlockEnd
  0
BLOCK
  5
168
330
161
100
AcDbEntity
  8
0
100
AcDbBlockBegin
  2
*D5
 70
     1
 10
0.0
 20
0.0
 30
0.0
  3
*D5
  1

  0
LINE
  5
162
330
161
100
AcDbEntity
  8
1
  6
Continuous
 62
     2
100
AcDbLine
 10
173.5547851562
 20
342.305333854513
 30
0.0
 11
110.5547851563
 21
342.305333854513
 31
0.0
  0
LINE
  5
163
330
161
100
AcDbEntity
  8
1
  6
Continuous
 62
     2
100
AcDbLine
 10
173.5547851562
 20
312.5982421875
 30
0.0
 11
173.5547851562
 21
344.305333854513
 31
0.0
  0
LINE
  5
164
330
161
100
AcDbEntity
  8
1
  6
Continuous
 62
     2
100
AcDbLine
 10
110.5547851563
 20
328.0982421875
 30
0.0
 11
110.5547851563
 21
344.305333854513
 31
0.0
  0
SOLID
  5
165
330
161
100
AcDbEntity
  8
1
 62
     2
100
AcDbTrace
 10
170.0547851562
 20
341.8445501129571
 30
0.0
 11
170.0547851562
 21
342.7661175960689
 31
0.0
 12
173.5547851562
 22
342.305333854513
 32
0.0
 13
173.5547851562
 23
342.305333854513
 33
0.0
  0
SOLID
  5
166
330
161
100
AcDbEntity
  8
1
 62
     2
100
AcDbTrace
 10
114.0547851563
 20
342.7661175960689
 30
0.0
 11
114.0547851563
 21
341.8445501129571
 31
0.0
 12
110.5547851563
 22
342.305333854513
 32
0.0
 13
110.5547851563
 23
342.305333854513
 33
0.0
  0
MTEXT
  5
167
330
161
100
AcDbEntity
  8
1
 62
     3
100
AcDbMText
 10
141.582365145484
 20
344.305333854513
 30
0.0
 40
3.5
 41
0.0
 71
     7
 72
     1
  1
\C3;\C3;\C3;63\C2;\H2.45;\S^ ;\C3;
  7
CONVERTER_11
 11
0.9999999999970619
 21
2.424068405545306E-6
 31
0.0
 73
     1
 44
0.60024009603842
  0
ENDBLK
  5
169
330
161
100
AcDbEntity
  8
0
100
AcDbBlockEnd
  0
BLOCK
  5
173
330
16C
100
AcDbEntity
  8
0
100
AcDbBlockBegin
  2
*D6
 70
     1
 10
0.0
 20
0.0
 30
0.0
  3
*D6
  1

  0
LINE
  5
16D
330
16C
100
AcDbEntity
  8
1
  6
Continuous
 62
     2
100
AcDbLine
 10
110.5547851563
 20
351.166167616142
 30
0.0
 11
185.5547851563
 21
351.166167616142
 31
0.0
  0
LINE
  5
16E
330
16C
100
AcDbEntity
  8
1
  6
Continuous
 62
     2
100
AcDbLine
 10
110.5547851563
 20
328.0982421875
 30
0.0
 11
110.5547851563
 21
353.166167616142
 31
0.0
  0
LINE
  5
16F
330
16C
100
AcDbEntity
  8
1
  6
Continuous
 62
     2
100
AcDbLine
 10
185.5547851563
 20
311.0982421875
 30
0.0
 11
185.5547851563
 21
353.166167616142
 31
0.0
  0
SOLID
  5
170
330
16C
100
AcDbEntity
  8
1
 62
     2
100
AcDbTrace
 10
114.0547851563
 20
351.6269513576979
 30
0.0
 11
114.0547851563
 21
350.7053838745861
 31
0.0
 12
110.5547851563
 22
351.166167616142
 32
0.0
 13
110.5547851563
 23
351.166167616142
 33
0.0
  0
SOLID
  5
171
330
16C
100
AcDbEntity
  8
1
 62
     2
100
AcDbTrace
 10
182.0547851563
 20
350.7053838745861
 30
0.0
 11
182.0547851563
 21
351.6269513576979
 31
0.0
 12
185.5547851563
 22
351.166167616142
 32
0.0
 13
185.5547851563
 23
351.166167616142
 33
0.0
  0
MTEXT
  5
172
330
16C
100
AcDbEntity
  8
1
 62
     3
100
AcDbMText
 10
146.898865402461
 20
353.166167616142
 30
0.0
 40
3.5
 41
0.0
 71
     7
 72
     1
  1
\C3;\C3;\C3;75\C2;\H2.45;\S^ ;\C3;
  7
CONVERTER_11
 11
0.9999999999970619
 21
2.424068405545306E-6
 31
0.0
 73
     1
 44
0.60024009603842
  0
ENDBLK
  5
174
330
16C
100
AcDbEntity
  8
0
100
AcDbBlockEnd
  0
BLOCK
  5
17E
330
177
100
AcDbEntity
  8
0
100
AcDbBlockBegin
  2
*D7
 70
     1
 10
0.0
 20
0.0
 30
0.0
  3
*D7
  1

  0
LINE
  5
178
330
177
100
AcDbEntity
  8
1
  6
Continuous
 62
     2
100
AcDbLine
 10
78.5547851563
 20
359.234700586884
 30
0.0
 11
173.5547851562
 21
359.234700586884
 31
0.0
  0
LINE
  5
179
330
177
100
AcDbEntity
  8
1
  6
Continuous
 62
     2
100
AcDbLine
 10
78.5547851563
 20
318.1742693676
 30
0.0
 11
78.5547851563
 21
361.234700586884
 31
0.0
  0
LINE
  5
17A
330
177
100
AcDbEntity
  8
1
  6
Continuous
 62
     2
100
AcDbLine
 10
173.5547851562
 20
312.5982421875
 30
0.0
 11
173.5547851562
 21
361.234700586884
 31
0.0
  0
SOLID
  5
17B
330
177
100
AcDbEntity
  8
1
 62
     2
100
AcDbTrace
 10
82.0547851563
 20
359.6954843284399
 30
0.0
 11
82.0547851563
 21
358.7739168453281
 31
0.0
 12
78.5547851563
 22
359.234700586884
 32
0.0
 13
78.5547851563
 23
359.234700586884
 33
0.0
  0
SOLID
  5
17C
330
177
100
AcDbEntity
  8
1
 62
     2
100
AcDbTrace
 10
170.0547851562
 20
358.7739168453281
 30
0.0
 11
170.0547851562
 21
359.6954843284399
 31
0.0
 12
173.5547851562
 22
359.234700586884
 32
0.0
 13
173.5547851562
 23
359.234700586884
 33
0.0
  0
MTEXT
  5
17D
330
177
100
AcDbEntity
  8
1
 62
     3
100
AcDbMText
 10
134.484195700529
 20
361.234700586884
 30
0.0
 40
3.5
 41
0.0
 71
     7
 72
     1
  1
\C3;\C3;\C3;95\C2;\H2.45;\S^ ;\C3;
  7
CONVERTER_11
 11
0.9999999999970619
 21
2.424068405545306E-6
 31
0.0
 73
     1
 44
0.60024009603842
  0
ENDBLK
  5
17F
330
177
100
AcDbEntity
  8
0
100
AcDbBlockEnd
  0
BLOCK
  5
186
330
182
100
AcDbEntity
  8
0
100
AcDbBlockBegin
  2
*D8
 70
     1
 10
0.0
 20
0.0
 30
0.0
  3
*D8
  1

  0
LINE
  5
183
330
182
100
AcDbEntity
  8
1
  6
Continuous
 62
     2
100
AcDbLine
 10
151.341800913404
 20
324.988860328308
 30
0.0
 11
136.9819494651101
 21
318.9730744176074
 31
0.0
  0
SOLID
  5
184
330
182
100
AcDbEntity
  8
1
 62
     2
100
AcDbTrace
 10
140.0320734946956
 20
320.7504503093726
 30
0.0
 11
140.3881617697665
 21
319.9004575057054
 31
0.0
 12
136.9819494651101
 22
318.9730744176074
 32
0.0
 13
136.9819494651101
 23
318.9730744176074
 33
0.0
  0
MTEXT
  5
185
330
182
100
AcDbEntity
  8
1
 62
     3
100
AcDbMText
 10
140.5616913153684
 20
322.641151433589
 30
0.0
 40
3.5
 41
0.0
 71
     7
 72
     1
  1
\C3; R\C3;\C3;5.5\C2;\H2.45;\S^ ;\C3;
  7
CONVERTER_11
 11
0.9223337620345243
 21
0.3863941399804627
 31
0.0
 73
     1
 44
0.60024009603842
  0
ENDBLK
  5
187
330
182
100
AcDbEntity
  8
0
100
AcDbBlockEnd
  0
ENDSEC
  0
SECTION
  2
ENTITIES
  0
INSERT
  5
6E
330
1F
100
AcDbEntity
  8
0
100
AcDbBlockReference
  2
Urheberrecht_DE-EN
 10
71.7074535497034
 20
315.430455247196
 30
0.0
  0
LINE
  5
72
330
1F
100
AcDbEntity
  8
VERERBUNG
  6
Continuous
 62
     7
100
AcDbLine
 10
78.5547851563
 20
273.0222149106
 30
0.0
 11
78.5547851562
 21
287.3282421875
 31
0.0
  0
LINE
  5
73
330
1F
100
AcDbEntity
  8
VERERBUNG
  6
Continuous
 62
     7
100
AcDbLine
 10
78.5547851562
 20
301.8682421875
 30
0.0
 11
78.5547851563
 21
316.1742693676
 31
0.0
  0
LINE
  5
74
330
1F
100
AcDbEntity
  8
VERERBUNG
  6
Continuous
 62
     7
100
AcDbLine
 10
79.5547851563
 20
286.9683605076
 30
0.0
 11
79.5547851563
 21
288.3282421875
 31
0.0
  0
LINE
  5
75
330
1F
100
AcDbEntity
  8
VERERBUNG
  6
Continuous
 62
     7
100
AcDbLine
 10
79.5547851563
 20
300.8682421875
 30
0.0
 11
79.5547851563
 21
302.2281238674
 31
0.0
  0
LINE
  5
76
330
1F
100
AcDbEntity
  8
VERERBUNG
  6
Continuous
 62
     9
100
AcDbLine
 10
79.6947420919
 20
317.372817445
 30
0.0
 11
79.6947420919
 21
304.1602701188
 31
0.0
  0
LINE
  5
77
330
1F
100
AcDbEntity
  8
VERERBUNG
  6
Continuous
 62
     9
100
AcDbLine
 10
79.6947420919
 20
285.0362142562
 30
0.0
 11
79.6947420919
 21
271.82366693
 31
0.0
  0
LINE
  5
78
330
1F
100
AcDbEntity
  8
VERERBUNG
  6
Continuous
 62
     9
100
AcDbLine
 10
83.0547851563
 20
284.6419293056
 30
0.0
 11
83.0547851563
 21
288.3282421875
 31
0.0
  0
LINE
  5
79
330
1F
100
AcDbEntity
  8
VERERBUNG
  6
Continuous
 62
     9
100
AcDbLine
 10
83.0547851563
 20
300.8682421875
 30
0.0
 11
83.0547851563
 21
304.5545550694
 31
0.0
  0
LINE
  5
7A
330
1F
100
AcDbEntity
  8
VERERBUNG
  6
Continuous
 62
     7
100
AcDbLine
 10
84.5547851562
 20
302.0400299061
 30
0.0
 11
84.5547851562
 21
287.1564544689
 31
0.0
  0
LINE
  5
7B
330
1F
100
AcDbEntity
  8
VERERBUNG
  6
Continuous
 62
     7
100
AcDbLine
 10
78.5547851563
 20
287.3282421875
 30
0.0
 11
79.5547851563
 21
288.3282421875
 31
0.0
  0
LWPOLYLINE
  5
7C
330
1F
100
AcDbEntity
  8
BEZUGSACHSEN
  6
DOT_CENTER
 62
     7
100
AcDbPolyline
 90
        2
 70
     0
 43
0.25
 10
101.5547851563
 20
287.8482421875
 10
101.5547851563
 20
301.3482421875
  0
LINE
  5
7D
330
1F
100
AcDbEntity
  8
VERERBUNG
  6
Continuous
 62
     7
100
AcDbLine
 10
125.1772860815
 20
263.0982421875
 30
0.0
 11
110.5547851563
 21
263.0982421875
 31
0.0
  0
LINE
  5
7E
330
1F
100
AcDbEntity
  8
VERERBUNG
  6
Continuous
 62
     7
100
AcDbLine
 10
131.932284231
 20
263.0982421875
 30
0.0
 11
136.5547851563
 21
263.0982421875
 31
0.0
  0
LINE
  5
7F
330
1F
100
AcDbEntity
  8
VERERBUNG
  6
Continuous
 62
     7
100
AcDbLine
 10
79.5547851563
 20
300.8682421875
 30
0.0
 11
78.5547851563
 21
301.8682421875
 31
0.0
  0
LINE
  5
80
330
1F
100
AcDbEntity
  8
VERERBUNG
  6
Continuous
 62
     7
100
AcDbLine
 10
127.6797851563
 20
267.0982421875
 30
0.0
 11
129.4297851563
 21
267.0982421875
 31
0.0
  0
LINE
  5
81
330
1F
100
AcDbEntity
  8
VERERBUNG
  6
Continuous
 62
     7
100
AcDbLine
 10
108.5547851563
 20
318.8186663372
 30
0.0
 11
108.5547851563
 21
270.3778180378
 31
0.0
  0
LINE
  5
82
330
1F
100
AcDbEntity
  8
VERERBUNG
  6
Continuous
 62
     9
100
AcDbLine
 10
109.2248953893
 20
270.5573735336
 30
0.0
 11
109.2248953893
 21
318.6391108414
 31
0.0
  0
LINE
  5
83
330
1F
100
AcDbEntity
  8
VERERBUNG
  6
Continuous
 62
     9
100
AcDbLine
 10
109.3801868163
 20
270.5778180378
 30
0.0
 11
109.3801868163
 21
318.6186663372
 31
0.0
  0
LINE
  5
84
330
1F
100
AcDbEntity
  8
VERERBUNG
  6
Continuous
 62
     9
100
AcDbLine
 10
110.2526155257
 20
270.5778180378
 30
0.0
 11
110.2526155257
 21
318.6186663372
 31
0.0
  0
LINE
  5
85
330
1F
100
AcDbEntity
  8
VERERBUNG
  6
Continuous
 62
     7
100
AcDbLine
 10
110.5547851563
 20
326.0982421875
 30
0.0
 11
110.5547851563
 21
263.0982421875
 31
0.0
  0
LINE
  5
86
330
1F
100
AcDbEntity
  8
FASEN
  6
Continuous
 62
     7
100
AcDbLine
 10
115.8903976005
 20
270.1395525251
 30
0.0
 11
125.1772860815
 21
270.1395525251
 31
0.0
  0
LINE
  5
87
330
1F
100
AcDbEntity
  8
0
  6
Continuous
 62
     7
100
AcDbLine
 10
131.932284231
 20
270.1395525251
 30
0.0
 11
136.5547851563
 21
270.1395525251
 31
0.0
  0
LINE
  5
88
330
1F
100
AcDbEntity
  8
VERERBUNG
  6
Continuous
 62
     7
100
AcDbLine
 10
110.2526155257
 20
270.5778180378
 30
0.0
 11
109.3801868163
 21
270.5778180378
 31
0.0
  0
LINE
  5
89
330
1F
100
AcDbEntity
  8
VERERBUNG
  6
Continuous
 62
     7
100
AcDbLine
 10
108.5547851563
 20
270.3778180378
 30
0.0
 11
79.6947420919
 21
271.82366693
 31
0.0
  0
LINE
  5
8A
330
1F
100
AcDbEntity
  8
VERERBUNG
  6
Continuous
 62
     7
100
AcDbLine
 10
130.4297851563
 20
323.4958374517
 30
0.0
 11
131.932284231
 21
326.0982421875
 31
0.0
  0
LINE
  5
8B
330
1F
100
AcDbEntity
  8
VERERBUNG
  6
Continuous
 62
     9
100
AcDbLine
 10
78.5547851563
 20
286.4216544009
 30
0.0
 11
79.5547851563
 21
286.9683605076
 31
0.0
  0
LINE
  5
8C
330
1F
100
AcDbEntity
  8
0
  6
Continuous
 62
     7
100
AcDbLine
 10
142.0547851563
 20
273.5982421875
 30
0.0
 11
151.8121444691
 21
273.5982421875
 31
0.0
  0
LINE
  5
8D
330
1F
100
AcDbEntity
  8
0
  6
Continuous
 62
     7
100
AcDbLine
 10
166.8047851562
 20
273.5982421875
 30
0.0
 11
181.08032057
 21
273.5982421875
 31
0.0
  0
LINE
  5
8E
330
1F
100
AcDbEntity
  8
FASEN
  6
Continuous
 62
     7
100
AcDbLine
 10
122.6917955593
 20
274.3482421875
 30
0.0
 11
126.6901504215
 21
274.3482421875
 31
0.0
  0
LINE
  5
8F
330
1F
100
AcDbEntity
  8
FASEN
  6
Continuous
 62
     7
100
AcDbLine
 10
130.419419891
 20
274.3482421875
 30
0.0
 11
136.5547851563
 21
274.3482421875
 31
0.0
  0
LINE
  5
90
330
1F
100
AcDbEntity
  8
0
  6
Continuous
 62
     7
100
AcDbLine
 10
122.6917955593
 20
274.7482421875
 30
0.0
 11
126.6797851562
 21
274.7482421875
 31
0.0
  0
LINE
  5
91
330
1F
100
AcDbEntity
  8
FASEN
  6
Continuous
 62
     7
100
AcDbLine
 10
126.6797851562
 20
274.7482421875
 30
0.0
 11
126.6901504215
 21
274.7482421875
 31
0.0
  0
LINE
  5
92
330
1F
100
AcDbEntity
  8
FASEN
  6
Continuous
 62
     7
100
AcDbLine
 10
130.419419891
 20
274.7482421875
 30
0.0
 11
130.4297851562
 21
274.7482421875
 31
0.0
  0
LINE
  5
93
330
1F
100
AcDbEntity
  8
0
  6
Continuous
 62
     7
100
AcDbLine
 10
130.4297851562
 20
274.7482421875
 30
0.0
 11
136.5547851563
 21
274.7482421875
 31
0.0
  0
LINE
  5
94
330
1F
100
AcDbEntity
  8
0
  6
Continuous
 62
     7
100
AcDbLine
 10
174.6547851562
 20
275.0023306608
 30
0.0
 11
181.08032057
 21
275.0023306608
 31
0.0
  0
LINE
  5
95
330
1F
100
AcDbEntity
  8
VERERBUNG
  6
Continuous
 62
     9
100
AcDbLine
 10
79.5547851563
 20
302.2281238674
 30
0.0
 11
78.5547851563
 21
302.7748299741
 31
0.0
  0
LWPOLYLINE
  5
96
330
1F
100
AcDbEntity
  8
BEZUGSACHSEN
  6
DOT_CENTER
 62
     7
100
AcDbPolyline
 90
        2
 70
     0
 43
0.25
 10
117.5547851563
 20
318.0988852677
 10
117.5547851563
 20
329.0982421875
  0
LINE
  5
97
330
1F
100
AcDbEntity
  8
VERERBUNG
  6
Continuous
 62
     7
100
AcDbLine
 10
109.2248953893
 20
270.5573735336
 30
0.0
 11
108.5547851563
 21
270.3778180378
 31
0.0
  0
LINE
  5
98
330
1F
100
AcDbEntity
  8
0
  6
Continuous
 62
     7
100
AcDbLine
 10
183.3690601107
 20
277.623182379
 30
0.0
 11
174.6547851562
 21
277.623182379
 31
0.0
  0
LINE
  5
99
330
1F
100
AcDbEntity
  8
0
  6
Continuous
 62
     7
100
AcDbLine
 10
174.6547851562
 20
278.2619235879
 30
0.0
 11
181.08032057
 21
278.2619235879
 31
0.0
  0
LINE
  5
9A
330
1F
100
AcDbEntity
  8
RUNDUNGEN
  6
Continuous
 62
     7
100
AcDbLine
 10
165.5547851563
 20
278.5982421875
 30
0.0
 11
158.4689987186
 21
278.5982421875
 31
0.0
  0
LINE
  5
9B
330
1F
100
AcDbEntity
  8
0
  6
Continuous
 62
     7
100
AcDbLine
 10
158.4689987186
 20
278.5982421875
 30
0.0
 11
165.5547851563
 21
278.5982421875
 31
0.0
  0
LWPOLYLINE
  5
9C
330
1F
100
AcDbEntity
  8
DEFAULT_2
  6
DASHED
 62
     8
100
AcDbPolyline
 90
        2
 70
     0
 43
0.35
 10
165.5547851563
 20
278.5982421875
 10
173.5547851562
 20
278.5982421875
  0
LINE
  5
9D
330
1F
100
AcDbEntity
  8
VERERBUNG
  6
Continuous
 62
     7
100
AcDbLine
 10
130.4297851563
 20
265.7006469233
 30
0.0
 11
131.932284231
 21
263.0982421875
 31
0.0
  0
LINE
  5
9E
330
1F
100
AcDbEntity
  8
FASEN
  6
Continuous
 62
     9
100
AcDbLine
 10
122.6917955593
 20
274.3482421875
 30
0.0
 11
122.6917955593
 21
274.7482421875
 31
0.0
  0
LINE
  5
9F
330
1F
100
AcDbEntity
  8
0
  6
Continuous
 62
     7
100
AcDbLine
 10
125.1772860815
 20
326.0982421875
 30
0.0
 11
125.1772860815
 21
302.6157421875
 31
0.0
  0
LINE
  5
A0
330
1F
100
AcDbEntity
  8
0
  6
Continuous
 62
     7
100
AcDbLine
 10
125.1772860815
 20
286.5807421875
 30
0.0
 11
125.1772860815
 21
274.7482421875
 31
0.0
  0
LINE
  5
A1
330
1F
100
AcDbEntity
  8
0
  6
Continuous
 62
     7
100
AcDbLine
 10
125.1772860815
 20
270.1395525251
 30
0.0
 11
125.1772860815
 21
263.0982421875
 31
0.0
  0
LINE
  5
A2
330
1F
100
AcDbEntity
  8
0
  6
Continuous
 62
     7
100
AcDbLine
 10
126.6797851563
 20
323.4958149152
 30
0.0
 11
126.6797851562
 21
302.6157421875
 31
0.0
  0
LINE
  5
A3
330
1F
100
AcDbEntity
  8
0
  6
Continuous
 62
     7
100
AcDbLine
 10
126.6797851562
 20
286.5807421875
 30
0.0
 11
126.6797851562
 21
274.7482421875
 31
0.0
  0
LINE
  5
A4
330
1F
100
AcDbEntity
  8
0
  6
Continuous
 62
     7
100
AcDbLine
 10
126.6797851563
 20
265.700653236
 30
0.0
 11
126.6797851563
 21
274.1476309497
 31
0.0
  0
LINE
  5
A5
330
1F
100
AcDbEntity
  8
0
  6
Continuous
 62
     9
100
AcDbLine
 10
127.6797851563
 20
267.0982421875
 30
0.0
 11
127.6797851563
 21
286.8982421875
 31
0.0
  0
LINE
  5
A6
330
1F
100
AcDbEntity
  8
0
  6
Continuous
 62
     9
100
AcDbLine
 10
127.6797851563
 20
302.2982421875
 30
0.0
 11
127.6797851563
 21
322.0982421875
 31
0.0
  0
LINE
  5
A7
330
1F
100
AcDbEntity
  8
VERERBUNG
  6
Continuous
 62
     9
100
AcDbLine
 10
84.042192194
 20
285.3282421875
 30
0.0
 11
79.2264599667
 21
285.3282421875
 31
0.0
  0
LWPOLYLINE
  5
A8
330
1F
100
AcDbEntity
  8
DEFAULT_2
  6
DASHED
 62
     8
100
AcDbPolyline
 90
        2
 70
     0
 43
0.35
 10
148.6509911279
 20
285.5982421875
 10
137.5547851563
 20
285.5982421875
  0
LINE
  5
A9
330
1F
100
AcDbEntity
  8
0
  6
Continuous
 62
     7
100
AcDbLine
 10
136.5547851563
 20
286.5807421875
 30
0.0
 11
129.8456720468
 21
286.5807421875
 31
0.0
  0
LINE
  5
AA
330
1F
100
AcDbEntity
  8
0
  6
Continuous
 62
     7
100
AcDbLine
 10
123.5222851563
 20
286.5807421875
 30
0.0
 11
127.2638982657
 21
286.5807421875
 31
0.0
  0
LINE
  5
AB
330
1F
100
AcDbEntity
  8
0
  6
Continuous
 62
     7
100
AcDbLine
 10
127.6797851563
 20
286.8982421875
 30
0.0
 11
129.4297851563
 21
286.8982421875
 31
0.0
  0
LINE
  5
AC
330
1F
100
AcDbEntity
  8
VERERBUNG
  6
Continuous
 62
     7
100
AcDbLine
 10
83.0547851563
 20
288.3282421875
 30
0.0
 11
79.5547851563
 21
288.3282421875
 31
0.0
  0
LWPOLYLINE
  5
AD
330
1F
100
AcDbEntity
  8
DEFAULT_2
  6
DASHED
 62
     8
100
AcDbPolyline
 90
        2
 70
     0
 43
0.35
 10
173.5547851563
 20
282.0982421875
 10
148.6509911279
 20
285.5982421875
  0
LINE
  5
AE
330
1F
100
AcDbEntity
  8
0
  6
Continuous
 62
     9
100
AcDbLine
 10
129.4297851563
 20
267.0982421875
 30
0.0
 11
129.4297851563
 21
286.8982421875
 31
0.0
  0
LINE
  5
AF
330
1F
100
AcDbEntity
  8
0
  6
Continuous
 62
     9
100
AcDbLine
 10
129.4297851563
 20
302.2982421875
 30
0.0
 11
129.4297851563
 21
322.0982421875
 31
0.0
  0
LINE
  5
B0
330
1F
100
AcDbEntity
  8
0
  6
Continuous
 62
     7
100
AcDbLine
 10
130.4297851563
 20
265.700653236
 30
0.0
 11
130.4297851563
 21
274.1476309497
 31
0.0
  0
LINE
  5
B1
330
1F
100
AcDbEntity
  8
0
  6
Continuous
 62
     7
100
AcDbLine
 10
130.4297851562
 20
274.7482421875
 30
0.0
 11
130.4297851562
 21
286.5807421875
 31
0.0
  0
LINE
  5
B2
330
1F
100
AcDbEntity
  8
0
  6
Continuous
 62
     7
100
AcDbLine
 10
130.4297851562
 20
302.6157421875
 30
0.0
 11
130.4297851563
 21
323.4958149152
 31
0.0
  0
LINE
  5
B3
330
1F
100
AcDbEntity
  8
0
  6
Continuous
 62
     7
100
AcDbLine
 10
131.932284231
 20
326.0982421875
 30
0.0
 11
131.932284231
 21
302.6157421875
 31
0.0
  0
LINE
  5
B4
330
1F
100
AcDbEntity
  8
0
  6
Continuous
 62
     7
100
AcDbLine
 10
131.932284231
 20
286.5807421875
 30
0.0
 11
131.932284231
 21
274.7482421875
 31
0.0
  0
LINE
  5
B5
330
1F
100
AcDbEntity
  8
0
  6
Continuous
 62
     7
100
AcDbLine
 10
131.932284231
 20
270.1395525251
 30
0.0
 11
131.932284231
 21
263.0982421875
 31
0.0
  0
LINE
  5
B6
330
1F
100
AcDbEntity
  8
0
  6
Continuous
 62
     7
100
AcDbLine
 10
174.6547851562
 20
291.3386492604
 30
0.0
 11
181.08032057
 21
291.3386492604
 31
0.0
  0
LINE
  5
B7
330
1F
100
AcDbEntity
  8
0
  6
Continuous
 62
     7
100
AcDbLine
 10
183.3690601107
 20
291.9982421875
 30
0.0
 11
174.6547851562
 21
291.9982421875
 31
0.0
  0
LINE
  5
B8
330
1F
100
AcDbEntity
  8
0
  6
Continuous
 62
     7
100
AcDbLine
 10
136.5547851563
 20
326.098193282
 30
0.0
 11
136.5547851563
 21
302.6157421875
 31
0.0
  0
LINE
  5
B9
330
1F
100
AcDbEntity
  8
0
  6
Continuous
 62
     7
100
AcDbLine
 10
136.5547851563
 20
286.5807421875
 30
0.0
 11
136.5547851563
 21
274.7482421875
 31
0.0
  0
LINE
  5
BA
330
1F
100
AcDbEntity
  8
0
  6
Continuous
 62
     7
100
AcDbLine
 10
136.5547851563
 20
270.1395525251
 30
0.0
 11
136.5547851563
 21
263.0982812493
 31
0.0
  0
LINE
  5
BB
330
1F
100
AcDbEntity
  8
FASEN
  6
Continuous
 62
     7
100
AcDbLine
 10
136.5547851563
 20
270.1395525251
 30
0.0
 11
136.5547851563
 21
274.7482421875
 31
0.0
  0
LINE
  5
BC
330
1F
100
AcDbEntity
  8
RUNDUNGEN
  6
Continuous
 62
     7
100
AcDbLine
 10
136.5547851563
 20
286.5807421875
 30
0.0
 11
136.5547851563
 21
292.2981505903
 31
0.0
  0
LINE
  5
BD
330
1F
100
AcDbEntity
  8
RUNDUNGEN
  6
Continuous
 62
     7
100
AcDbLine
 10
136.5547851563
 20
296.898335127
 30
0.0
 11
136.5547851563
 21
302.6157421875
 31
0.0
  0
LWPOLYLINE
  5
BE
330
1F
100
AcDbEntity
  8
BG_STARTBEZUEGE
  6
DOT_CENTER
 62
     7
100
AcDbPolyline
 90
        2
 70
     0
 43
0.25
 10
188.5547851563
 20
294.5982421875
 10
75.5547851563
 20
294.5982421875
  0
LINE
  5
BF
330
1F
100
AcDbEntity
  8
0
  6
Continuous
 62
     7
100
AcDbLine
 10
183.3690601107
 20
297.1982421875
 30
0.0
 11
174.6547851562
 21
297.1982421875
 31
0.0
  0
LWPOLYLINE
  5
C0
330
1F
100
AcDbEntity
  8
DEFAULT_2
  6
DASHED
 62
     8
100
AcDbPolyline
 90
        2
 70
     0
 43
0.35
 10
137.5547851562
 20
303.5982421875
 10
137.5547851563
 20
285.5982421875
  0
LINE
  5
C1
330
1F
100
AcDbEntity
  8
VERERBUNG
  6
Continuous
 62
     7
100
AcDbLine
 10
125.1772860815
 20
263.0982421875
 30
0.0
 11
126.6797851563
 21
265.7006469233
 31
0.0
  0
LWPOLYLINE
  5
C2
330
1F
100
AcDbEntity
  8
DEFAULT_2
  6
DASHED
 62
     8
100
AcDbPolyline
 90
        2
 70
     0
 43
0.35
 10
173.5547851563
 20
307.0982421875
 10
148.6509911279
 20
303.5982421875
  0
LINE
  5
C3
330
1F
100
AcDbEntity
  8
0
  6
Continuous
 62
     7
100
AcDbLine
 10
174.6547851562
 20
297.8578351146
 30
0.0
 11
181.08032057
 21
297.8578351146
 31
0.0
  0
LINE
  5
C4
330
1F
100
AcDbEntity
  8
VERERBUNG
  6
Continuous
 62
     7
100
AcDbLine
 10
83.0547851563
 20
300.8682421875
 30
0.0
 11
79.5547851563
 21
300.8682421875
 31
0.0
  0
LINE
  5
C5
330
1F
100
AcDbEntity
  8
RUNDUNGEN
  6
Continuous
 62
     9
100
AcDbLine
 10
142.0547851562
 20
315.5982421875
 30
0.0
 11
142.0547851563
 21
273.5982421875
 31
0.0
  0
LINE
  5
C6
330
1F
100
AcDbEntity
  8
0
  6
Continuous
 62
     7
100
AcDbLine
 10
127.6797851563
 20
302.2982421875
 30
0.0
 11
129.4297851563
 21
302.2982421875
 31
0.0
  0
LINE
  5
C7
330
1F
100
AcDbEntity
  8
0
  6
Continuous
 62
     7
100
AcDbLine
 10
123.5222851563
 20
302.6157421875
 30
0.0
 11
127.2638982657
 21
302.6157421875
 31
0.0
  0
LINE
  5
C8
330
1F
100
AcDbEntity
  8
0
  6
Continuous
 62
     7
100
AcDbLine
 10
129.8456720468
 20
302.6157421875
 30
0.0
 11
136.5547851563
 21
302.6157421875
 31
0.0
  0
LWPOLYLINE
  5
C9
330
1F
100
AcDbEntity
  8
DEFAULT_2
  6
DASHED
 62
     8
100
AcDbPolyline
 90
        2
 70
     0
 43
0.35
 10
148.6509911279
 20
303.5982421875
 10
137.5547851562
 20
303.5982421875
  0
LINE
  5
CA
330
1F
100
AcDbEntity
  8
VERERBUNG
  6
Continuous
 62
     9
100
AcDbLine
 10
79.2264599667
 20
303.8682421875
 30
0.0
 11
84.042192194
 21
303.8682421875
 31
0.0
  0
LINE
  5
CB
330
1F
100
AcDbEntity
  8
VERERBUNG
  6
Continuous
 62
     7
100
AcDbLine
 10
125.1772860815
 20
326.0982421875
 30
0.0
 11
126.6797851563
 21
323.4958374517
 31
0.0
  0
LWPOLYLINE
  5
CC
330
1F
100
AcDbEntity
  8
DEFAULT_2
  6
DASHED
 62
     8
100
AcDbPolyline
 90
        2
 70
     0
 43
0.35
 10
148.6509911279
 20
303.5982421875
 10
148.6509911279
 20
285.5982421875
  0
LINE
  5
CD
330
1F
100
AcDbEntity
  8
RUNDUNGEN
  6
Continuous
 62
     9
100
AcDbLine
 10
151.8121444691
 20
273.5982421875
 30
0.0
 11
151.8121444691
 21
315.5982421875
 31
0.0
  0
LINE
  5
CE
330
1F
100
AcDbEntity
  8
RUNDUNGEN
  6
Continuous
 62
     7
100
AcDbLine
 10
165.5547851563
 20
310.5982421875
 30
0.0
 11
158.4689987186
 21
310.5982421875
 31
0.0
  0
LINE
  5
CF
330
1F
100
AcDbEntity
  8
0
  6
Continuous
 62
     7
100
AcDbLine
 10
158.4689987186
 20
310.5982421875
 30
0.0
 11
165.5547851563
 21
310.5982421875
 31
0.0
  0
LWPOLYLINE
  5
D0
330
1F
100
AcDbEntity
  8
DEFAULT_2
  6
DASHED
 62
     8
100
AcDbPolyline
 90
        2
 70
     0
 43
0.35
 10
165.5547851563
 20
310.5982421875
 10
173.5547851562
 20
310.5982421875
  0
LINE
  5
D1
330
1F
100
AcDbEntity
  8
0
  6
Continuous
 62
     7
100
AcDbLine
 10
174.6547851562
 20
310.9345607871
 30
0.0
 11
181.08032057
 21
310.9345607871
 31
0.0
  0
LINE
  5
D2
330
1F
100
AcDbEntity
  8
0
  6
Continuous
 62
     7
100
AcDbLine
 10
183.3690601107
 20
311.573301996
 30
0.0
 11
174.6547851562
 21
311.573301996
 31
0.0
  0
LINE
  5
D3
330
1F
100
AcDbEntity
  8
VERERBUNG
  6
Continuous
 62
     7
100
AcDbLine
 10
109.2248953893
 20
318.6391108414
 30
0.0
 11
108.5547851563
 21
318.8186663372
 31
0.0
  0
LINE
  5
D4
330
1F
100
AcDbEntity
  8
RUNDUNGEN
  6
Continuous
 62
     9
100
AcDbLine
 10
153.9334648127
 20
274.4769218439
 30
0.0
 11
153.9334648127
 21
314.7195625311
 31
0.0
  0
LINE
  5
D5
330
1F
100
AcDbEntity
  8
RUNDUNGEN
  6
Continuous
 62
     9
100
AcDbLine
 10
157.7618919374
 20
310.8911354063
 30
0.0
 11
157.7618919374
 21
278.3053489687
 31
0.0
  0
LINE
  5
D6
330
1F
100
AcDbEntity
  8
0
  6
Continuous
 62
     7
100
AcDbLine
 10
174.6547851562
 20
314.1941537142
 30
0.0
 11
181.08032057
 21
314.1941537142
 31
0.0
  0
LINE
  5
D7
330
1F
100
AcDbEntity
  8
RUNDUNGEN
  6
Continuous
 62
     7
100
AcDbLine
 10
181.08032057
 20
315.5982421875
 30
0.0
 11
166.8047851562
 21
315.5982421875
 31
0.0
  0
LINE
  5
D8
330
1F
100
AcDbEntity
  8
RUNDUNGEN
  6
Continuous
 62
     7
100
AcDbLine
 10
151.8121444691
 20
315.5982421875
 30
0.0
 11
142.0547851562
 21
315.5982421875
 31
0.0
  0
LINE
  5
D9
330
1F
100
AcDbEntity
  8
0
  6
Continuous
 62
     7
100
AcDbLine
 10
142.0547851562
 20
315.5982421875
 30
0.0
 11
151.8121444691
 21
315.5982421875
 31
0.0
  0
LINE
  5
DA
330
1F
100
AcDbEntity
  8
0
  6
Continuous
 62
     7
100
AcDbLine
 10
166.8047851562
 20
315.5982421875
 30
0.0
 11
181.08032057
 21
315.5982421875
 31
0.0
  0
LINE
  5
DB
330
1F
100
AcDbEntity
  8
RUNDUNGEN
  6
Continuous
 62
     9
100
AcDbLine
 10
158.4689987186
 20
310.5982421875
 30
0.0
 11
158.4689987186
 21
278.5982421875
 31
0.0
  0
LINE
  5
DC
330
1F
100
AcDbEntity
  8
0
  6
Continuous
 62
     7
100
AcDbLine
 10
153.9334648127
 20
274.4769218439
 30
0.0
 11
157.7618919374
 21
278.3053489687
 31
0.0
  0
LINE
  5
DD
330
1F
100
AcDbEntity
  8
VERERBUNG
  6
Continuous
 62
     7
100
AcDbLine
 10
108.5547851563
 20
318.8186663372
 30
0.0
 11
79.6947420919
 21
317.372817445
 31
0.0
  0
LINE
  5
DE
330
1F
100
AcDbEntity
  8
VERERBUNG
  6
Continuous
 62
     7
100
AcDbLine
 10
110.2526155257
 20
318.6186663372
 30
0.0
 11
109.3801868163
 21
318.6186663372
 31
0.0
  0
LINE
  5
DF
330
1F
100
AcDbEntity
  8
VERERBUNG
  6
Continuous
 62
     7
100
AcDbLine
 10
127.6797851563
 20
322.0982421875
 30
0.0
 11
129.4297851563
 21
322.0982421875
 31
0.0
  0
LINE
  5
E0
330
1F
100
AcDbEntity
  8
RUNDUNGEN
  6
Continuous
 62
     7
100
AcDbLine
 10
165.5547851563
 20
314.3482421875
 30
0.0
 11
165.5547851563
 21
274.8482421875
 31
0.0
  0
LINE
  5
E1
330
1F
100
AcDbEntity
  8
VERERBUNG
  6
Continuous
 62
     7
100
AcDbLine
 10
125.1772860815
 20
326.0982421875
 30
0.0
 11
122.5547851563
 21
326.0982421875
 31
0.0
  0
LINE
  5
E2
330
1F
100
AcDbEntity
  8
VERERBUNG
  6
Continuous
 62
     7
100
AcDbLine
 10
112.5547851563
 20
326.0982421875
 30
0.0
 11
110.5547851563
 21
326.0982421875
 31
0.0
  0
LINE
  5
E3
330
1F
100
AcDbEntity
  8
VERERBUNG
  6
Continuous
 62
     7
100
AcDbLine
 10
131.932284231
 20
326.0982421875
 30
0.0
 11
136.5547851563
 21
326.0982421875
 31
0.0
  0
LINE
  5
E4
330
1F
100
AcDbEntity
  8
0
  6
Continuous
 62
     7
100
AcDbLine
 10
153.9334648127
 20
314.7195625311
 30
0.0
 11
157.7618919374
 21
310.8911354063
 31
0.0
  0
LINE
  5
E5
330
1F
100
AcDbEntity
  8
RUNDUNGEN
  6
Continuous
 62
     7
100
AcDbLine
 10
157.7618919374
 20
310.8911354063
 30
0.0
 11
153.9334648127
 21
314.7195625311
 31
0.0
  0
LINE
  5
E6
330
1F
100
AcDbEntity
  8
RUNDUNGEN
  6
Continuous
 62
     9
100
AcDbLine
 10
166.8047851562
 20
273.5982421875
 30
0.0
 11
166.8047851562
 21
315.5982421875
 31
0.0
  0
LWPOLYLINE
  5
E7
330
1F
100
AcDbEntity
  8
DEFAULT_2
  6
DASHED
 62
     8
100
AcDbPolyline
 90
        2
 70
     0
 43
0.35
 10
173.5547851562
 20
310.5982421875
 10
173.5547851562
 20
278.5982421875
  0
LINE
  5
E8
330
1F
100
AcDbEntity
  8
0
  6
Continuous
 62
     7
100
AcDbLine
 10
174.6547851562
 20
314.1941537142
 30
0.0
 11
174.6547851562
 21
310.9345607871
 31
0.0
  0
LINE
  5
E9
330
1F
100
AcDbEntity
  8
0
  6
Continuous
 62
     7
100
AcDbLine
 10
174.6547851562
 20
297.8578351146
 30
0.0
 11
174.6547851562
 21
291.3386492604
 31
0.0
  0
LINE
  5
EA
330
1F
100
AcDbEntity
  8
0
  6
Continuous
 62
     7
100
AcDbLine
 10
174.6547851562
 20
278.2619235879
 30
0.0
 11
174.6547851562
 21
275.0023306608
 31
0.0
  0
LINE
  5
EB
330
1F
100
AcDbEntity
  8
0
  6
Continuous
 62
     9
100
AcDbLine
 10
181.08032057
 20
273.5982421875
 30
0.0
 11
181.08032057
 21
275.0023306608
 31
0.0
  0
LINE
  5
EC
330
1F
100
AcDbEntity
  8
0
  6
Continuous
 62
     9
100
AcDbLine
 10
181.08032057
 20
278.2619235879
 30
0.0
 11
181.08032057
 21
291.3386492604
 31
0.0
  0
LINE
  5
ED
330
1F
100
AcDbEntity
  8
0
  6
Continuous
 62
     9
100
AcDbLine
 10
181.08032057
 20
297.8578351146
 30
0.0
 11
181.08032057
 21
310.9345607871
 31
0.0
  0
LINE
  5
EE
330
1F
100
AcDbEntity
  8
0
  6
Continuous
 62
     9
100
AcDbLine
 10
181.08032057
 20
314.1941537142
 30
0.0
 11
181.08032057
 21
315.5982421875
 31
0.0
  0
LINE
  5
EF
330
1F
100
AcDbEntity
  8
0
  6
Continuous
 62
     9
100
AcDbLine
 10
182.1628523248
 20
274.2232421875
 30
0.0
 11
182.1628523248
 21
275.6055523868
 31
0.0
  0
LINE
  5
F0
330
1F
100
AcDbEntity
  8
0
  6
Continuous
 62
     9
100
AcDbLine
 10
182.1628523248
 20
278.7133317713
 30
0.0
 11
182.1628523248
 21
291.490462803
 31
0.0
  0
LINE
  5
F1
330
1F
100
AcDbEntity
  8
0
  6
Continuous
 62
     9
100
AcDbLine
 10
182.1628523248
 20
297.706021572
 30
0.0
 11
182.1628523248
 21
310.4831526037
 31
0.0
  0
LINE
  5
F2
330
1F
100
AcDbEntity
  8
0
  6
Continuous
 62
     9
100
AcDbLine
 10
182.1628523248
 20
313.5909319882
 30
0.0
 11
182.1628523248
 21
314.9732421875
 31
0.0
  0
LINE
  5
F3
330
1F
100
AcDbEntity
  8
0
  6
Continuous
 62
     7
100
AcDbLine
 10
185.5547851563
 20
309.0982421875
 30
0.0
 11
185.5547851563
 21
280.0982421875
 31
0.0
  0
LINE
  5
F4
330
1F
100
AcDbEntity
  8
RUNDUNGEN
  6
Continuous
 62
     7
100
AcDbLine
 10
185.5547851563
 20
280.0982421875
 30
0.0
 11
182.1628523248
 21
274.2232421875
 31
0.0
  0
LINE
  5
F5
330
1F
100
AcDbEntity
  8
0
  6
Continuous
 62
     7
100
AcDbLine
 10
182.1628523248
 20
274.2232421875
 30
0.0
 11
185.5547851563
 21
280.0982421875
 31
0.0
  0
LINE
  5
F6
330
1F
100
AcDbEntity
  8
0
  6
Continuous
 62
     7
100
AcDbLine
 10
182.1628523248
 20
314.9732421875
 30
0.0
 11
185.5547851563
 21
309.0982421875
 31
0.0
  0
LINE
  5
F7
330
1F
100
AcDbEntity
  8
RUNDUNGEN
  6
Continuous
 62
     7
100
AcDbLine
 10
185.5547851563
 20
309.0982421875
 30
0.0
 11
182.1628523248
 21
314.9732421875
 31
0.0
  0
LINE
  5
F8
330
1F
100
AcDbEntity
  8
0
  6
Continuous
 62
     7
100
AcDbLine
 10
183.3690601107
 20
291.9982421875
 30
0.0
 11
182.1628523248
 21
291.490462803
 31
0.0
  0
LINE
  5
F9
330
1F
100
AcDbEntity
  8
0
  6
Continuous
 62
     7
100
AcDbLine
 10
182.1628523248
 20
297.706021572
 30
0.0
 11
183.3690601107
 21
297.1982421875
 31
0.0
  0
LINE
  5
FA
330
1F
100
AcDbEntity
  8
RUNDUNGEN
  6
Continuous
 62
     7
100
AcDbLine
 10
136.5547851563
 20
296.8982421875
 30
0.0
 11
136.5556943223
 21
294.5983200445
 31
0.0
  0
LINE
  5
FB
330
1F
100
AcDbEntity
  8
RUNDUNGEN
  6
Continuous
 62
     7
100
AcDbLine
 10
136.5556943223
 20
294.5983200445
 30
0.0
 11
136.5547851563
 21
292.2982421875
 31
0.0
  0
ARC
  5
FC
330
1F
100
AcDbEntity
  8
FASEN
  6
Continuous
 62
     7
100
AcDbCircle
 10
28.9845446757
 20
274.5482421875
 30
0.0
 40
97.70581044213137
100
AcDbArc
 50
359.8827176822629
 51
0.11728231773712
  0
ARC
  5
FD
330
1F
100
AcDbEntity
  8
FASEN
  6
Continuous
 62
     7
100
AcDbCircle
 10
125.5987910721
 20
278.6676393444
 30
0.0
 40
12.92211935389984
100
AcDbArc
 50
219.3764519582026
 51
221.2968513340955
  0
ARC
  5
FE
330
1F
100
AcDbEntity
  8
FASEN
  6
Continuous
 62
     7
100
AcDbCircle
 10
122.6917955593
 20
266.7482421875
 30
0.0
 40
8.0
100
AcDbArc
 50
90.0
 51
152.2781454969004
  0
ARC
  5
FF
330
1F
100
AcDbEntity
  8
FASEN
  6
Continuous
 62
     7
100
AcDbCircle
 10
122.6917955593
 20
266.7482421875
 30
0.0
 40
7.599996372100009
100
AcDbArc
 50
90.0
 51
153.498256574603
  0
ARC
  5
100
330
1F
100
AcDbEntity
  8
FASEN
  6
Continuous
 62
     7
100
AcDbCircle
 10
128.4822396932
 20
274.147577754
 30
0.0
 40
1.947545463826499
100
AcDbArc
 50
0.00156498996029
 51
5.91393926133046
  0
ARC
  5
101
330
1F
100
AcDbEntity
  8
VERERBUNG
  6
Continuous
 62
     7
100
AcDbCircle
 10
83.0547851563
 20
289.8282421875
 30
0.0
 40
1.5
100
AcDbArc
 50
270.0
 51
354.3750000000127
  0
ARC
  5
102
330
1F
100
AcDbEntity
  8
VERERBUNG
  6
Continuous
 62
     7
100
AcDbCircle
 10
79.7547851563
 20
273.0221638346
 30
0.0
 40
1.200000000000003
100
AcDbArc
 50
180.0
 51
267.1319572667817
  0
ARC
  5
103
330
1F
100
AcDbEntity
  8
VERERBUNG
  6
Continuous
 62
     7
100
AcDbCircle
 10
127.6797851563
 20
266.0982421875
 30
0.0
 40
1.0
100
AcDbArc
 50
90.0
 51
180.0
  0
ARC
  5
104
330
1F
100
AcDbEntity
  8
VERERBUNG
  6
Continuous
 62
     7
100
AcDbCircle
 10
109.3801868163
 20
269.9778180378
 30
0.0
 40
0.6000000000000227
100
AcDbArc
 50
90.0
 51
104.9999999936683
  0
ARC
  5
105
330
1F
100
AcDbEntity
  8
VERERBUNG
  6
Continuous
 62
     7
100
AcDbCircle
 10
110.2526155257
 20
269.9778180378
 30
0.0
 40
0.5999999999998945
100
AcDbArc
 50
59.70317838175824
 51
90.0
  0
ARC
  5
106
330
1F
100
AcDbEntity
  8
0
  6
Continuous
 62
     7
100
AcDbCircle
 10
-17.1937563163
 20
334.0632457917
 30
0.0
 40
156.0632957305418
100
AcDbArc
 50
335.8202227521907
 51
337.2043014055999
  0
ARC
  5
107
330
1F
100
AcDbEntity
  8
VERERBUNG
  6
Continuous
 62
     7
100
AcDbCircle
 10
117.5362189667
 20
357.4127900464
 30
0.0
 40
31.71385608949952
100
AcDbArc
 50
270.0335425167997
 51
279.1049739812994
  0
ARC
  5
108
330
1F
100
AcDbEntity
  8
0
  6
Continuous
 62
     7
100
AcDbCircle
 10
123.5222851562
 20
294.5982421875
 30
0.0
 40
8.017500000000041
100
AcDbArc
 50
89.99999999928535
 51
270.0000000007146
  0
ARC
  5
109
330
1F
100
AcDbEntity
  8
VERERBUNG
  6
Continuous
 62
     7
100
AcDbCircle
 10
83.0547851563
 20
299.3682421875
 30
0.0
 40
1.5
100
AcDbArc
 50
0.0
 51
90.0
  0
ARC
  5
10A
330
1F
100
AcDbEntity
  8
VERERBUNG
  6
Continuous
 62
     7
100
AcDbCircle
 10
79.7547851563
 20
316.1743205404
 30
0.0
 40
1.199999999965975
100
AcDbArc
 50
92.8680427332183
 51
180.0
  0
ARC
  5
10B
330
1F
100
AcDbEntity
  8
VERERBUNG
  6
Continuous
 62
     7
100
AcDbCircle
 10
127.6797851563
 20
323.0982421875
 30
0.0
 40
1.0
100
AcDbArc
 50
180.0
 51
270.0
  0
ARC
  5
10C
330
1F
100
AcDbEntity
  8
VERERBUNG
  6
Continuous
 62
     7
100
AcDbCircle
 10
109.3801868163
 20
319.2186663372
 30
0.0
 40
0.6000000000097125
100
AcDbArc
 50
255.0000000063303
 51
270.0
  0
ARC
  5
10D
330
1F
100
AcDbEntity
  8
VERERBUNG
  6
Continuous
 62
     7
100
AcDbCircle
 10
110.2526155257
 20
319.2186663372
 30
0.0
 40
0.5999999999999659
100
AcDbArc
 50
270.0
 51
300.2968216182418
  0
ARC
  5
10E
330
1F
100
AcDbEntity
  8
RUNDUNGEN
  6
Continuous
 62
     7
100
AcDbCircle
 10
142.0547851563
 20
268.0982421875
 30
0.0
 40
5.5
100
AcDbArc
 50
90.0
 51
180.0
  0
ARC
  5
10F
330
1F
100
AcDbEntity
  8
RUNDUNGEN
  6
Continuous
 62
     7
100
AcDbCircle
 10
151.8121444691
 20
276.5982421875
 30
0.0
 40
3.0
100
AcDbArc
 50
270.0
 51
315.0000000000007
  0
ARC
  5
110
330
1F
100
AcDbEntity
  8
FASEN
  6
Continuous
 62
     7
100
AcDbCircle
 10
128.6273306194
 20
274.147577754
 30
0.0
 40
1.947545463912915
100
AcDbArc
 50
174.0860607389727
 51
179.9984350100397
  0
ARC
  5
111
330
1F
100
AcDbEntity
  8
RUNDUNGEN
  6
Continuous
 62
     7
100
AcDbCircle
 10
166.8047851562
 20
274.8482421875
 30
0.0
 40
1.249999999900012
100
AcDbArc
 50
180.0
 51
270.0
  0
ARC
  5
112
330
1F
100
AcDbEntity
  8
RUNDUNGEN
  6
Continuous
 62
     7
100
AcDbCircle
 10
158.4689987186
 20
277.5982421875
 30
0.0
 40
1.0
100
AcDbArc
 50
90.0
 51
134.9999999999989
  0
ARC
  5
113
330
1F
100
AcDbEntity
  8
VERERBUNG
  6
Continuous
 62
     7
100
AcDbCircle
 10
129.4297851563
 20
266.0982421875
 30
0.0
 40
1.0
100
AcDbArc
 50
0.0
 51
90.0
  0
ARC
  5
114
330
1F
100
AcDbEntity
  8
VERERBUNG
  6
Continuous
 62
     7
100
AcDbCircle
 10
184.4383825628
 20
-573.9368197296
 30
0.0
 40
884.3221864339491
100
AcDbArc
 50
96.58318095119563
 51
96.8023740697
  0
ARC
  5
115
330
1F
100
AcDbEntity
  8
FASEN
  6
Continuous
 62
     7
100
AcDbCircle
 10
228.1250256368
 20
274.5482421875
 30
0.0
 40
97.70581044213137
100
AcDbArc
 50
179.8827176822629
 51
180.1172823177372
  0
ARC
  5
116
330
1F
100
AcDbEntity
  8
RUNDUNGEN
  6
Continuous
 62
     7
100
AcDbCircle
 10
181.08032057
 20
274.8482421875
 30
0.0
 40
1.25
100
AcDbArc
 50
270.0
 51
330.0000000015921
  0
ARC
  5
117
330
1F
100
AcDbEntity
  8
0
  6
Continuous
 62
     7
100
AcDbCircle
 10
151.9088764263
 20
294.5982421875
 30
0.0
 40
31.567438246652
100
AcDbArc
 50
355.2755757622956
 51
4.72442423770452
  0
ARC
  5
118
330
1F
100
AcDbEntity
  8
RUNDUNGEN
  6
Continuous
 62
     7
100
AcDbCircle
 10
142.0547851563
 20
321.0982421875
 30
0.0
 40
5.5
100
AcDbArc
 50
180.0
 51
269.9999999989584
  0
ARC
  5
119
330
1F
100
AcDbEntity
  8
RUNDUNGEN
  6
Continuous
 62
     7
100
AcDbCircle
 10
151.8121444691
 20
312.5982421875
 30
0.0
 40
3.0000000000571
100
AcDbArc
 50
45.0
 51
90.0
  0
ARC
  5
11A
330
1F
100
AcDbEntity
  8
RUNDUNGEN
  6
Continuous
 62
     7
100
AcDbCircle
 10
181.08032057
 20
314.3482421875
 30
0.0
 40
1.250000000060161
100
AcDbArc
 50
29.99999999840793
 51
90.0
  0
ARC
  5
11B
330
1F
100
AcDbEntity
  8
RUNDUNGEN
  6
Continuous
 62
     7
100
AcDbCircle
 10
166.8047851562
 20
314.3482421875
 30
0.0
 40
1.25
100
AcDbArc
 50
90.0
 51
180.0
  0
ARC
  5
11C
330
1F
100
AcDbEntity
  8
RUNDUNGEN
  6
Continuous
 62
     7
100
AcDbCircle
 10
158.4689987186
 20
311.5982421875
 30
0.0
 40
1.000000000019
100
AcDbArc
 50
224.9999999999988
 51
270.0
  0
ARC
  5
11D
330
1F
100
AcDbEntity
  8
VERERBUNG
  6
Continuous
 62
     7
100
AcDbCircle
 10
129.4297851563
 20
323.0982421875
 30
0.0
 40
1.0
100
AcDbArc
 50
270.0
 51
0.0
  0
ARC
  5
11E
330
1F
100
AcDbEntity
  8
VERERBUNG
  6
Continuous
 62
     7
100
AcDbCircle
 10
184.4383825628
 20
1163.1333041046
 30
0.0
 40
884.3221864338998
100
AcDbArc
 50
263.1976259303
 51
263.4168190488044
  0
ARC
  5
11F
330
1F
100
AcDbEntity
  8
0
  6
Continuous
 62
     7
100
AcDbCircle
 10
274.303326629
 20
334.0632457918
 30
0.0
 40
156.0632957307998
100
AcDbArc
 50
202.7956985943999
 51
204.1797772478128
  0
CIRCLE
  5
120
330
1F
100
AcDbEntity
  8
VERERBUNG
  6
Continuous
 62
     7
100
AcDbCircle
 10
101.5547851563
 20
294.5982421875
 30
0.0
 40
3.749999999899998
  0
SPLINE
  5
121
330
1F
100
AcDbEntity
  8
0
  6
Continuous
 62
     7
100
AcDbSpline
210
0.0
220
0.0
230
1.0
 70
     8
 71
     3
 72
     9
 73
     5
 74
     3
 42
0.0000000001
 43
0.0000000001
 44
0.00000001
 40
0.0
 40
0.0
 40
0.0
 40
0.0
 40
0.9662538679679539
 40
1.932507732751231
 40
1.932507732751231
 40
1.932507732751231
 40
1.932507732751231
 10
182.1628523248
 20
278.7133317713
 30
0.0
 10
182.363933509149
 20
278.9649363488113
 30
0.0
 10
182.7660958771842
 20
279.4681455030048
 30
0.0
 10
183.1680720330822
 20
279.9715034206114
 30
0.0
 10
183.3690601107
 20
280.223182379
 30
0.0
 11
182.1628523248
 21
278.7133317713
 31
0.0
 11
182.7660493248125
 21
279.4681826946875
 31
0.0
 11
183.3690601107
 21
280.223182379
 31
0.0
  0
SPLINE
  5
122
330
1F
100
AcDbEntity
  8
0
  6
Continuous
 62
     7
100
AcDbSpline
210
0.0
220
0.0
230
1.0
 70
     8
 71
     3
 72
     9
 73
     5
 74
     3
 42
0.0000000001
 43
0.0000000001
 44
0.00000001
 40
0.0
 40
0.0
 40
0.0
 40
0.0
 40
0.966253864783322
 40
1.932507732751231
 40
1.932507732751231
 40
1.932507732751231
 40
1.932507732751231
 10
183.3690601107
 20
308.973301996
 30
0.0
 10
183.1680720330822
 20
309.2249809543886
 30
0.0
 10
182.7660958771843
 20
309.7283388719952
 30
0.0
 10
182.363933509149
 20
310.2315480261886
 30
0.0
 10
182.1628523248
 20
310.4831526037
 30
0.0
 11
183.3690601107
 21
308.973301996
 31
0.0
 11
182.7660493248125
 21
309.7283016803125
 31
0.0
 11
182.1628523248
 21
310.4831526037
 31
0.0
  0
SPLINE
  5
123
330
1F
100
AcDbEntity
  8
0
  6
Continuous
 62
     7
100
AcDbSpline
210
0.0
220
0.0
230
1.0
 70
     8
 71
     3
 72
    13
 73
     9
 74
     7
 42
0.0000000001
 43
0.0000000001
 44
0.00000001
 40
0.0
 40
0.0
 40
0.0
 40
0.0
 40
0.1628437962499903
 40
0.3257101175743096
 40
0.4830172069448524
 40
0.6409701381979618
 40
0.9264268407500134
 40
1.209178926271954
 40
1.209178926271954
 40
1.209178926271954
 40
1.209178926271954
 10
181.08032057
 20
278.2619235879
 30
0.0
 10
181.1346243634171
 20
278.2634084013188
 30
0.0
 10
181.2432394617256
 20
278.2663782335406
 30
0.0
 10
181.4028276667261
 20
278.2900958284991
 30
0.0
 10
181.5581138003601
 20
278.3273238309022
 30
0.0
 10
181.7465249226523
 20
278.3950428914113
 30
0.0
 10
181.9648613750886
 20
278.5078858554365
 30
0.0
 10
182.0970651004018
 20
278.6450674562477
 30
0.0
 10
182.1628523248
 20
278.7133317713
 30
0.0
 11
181.08032057
 21
278.2619235879
 31
0.0
 11
181.2429817513309
 21
278.2696334559364
 31
0.0
 11
181.4041989901985
 21
278.2927514254329
 31
0.0
 11
181.5570298995956
 21
278.3300104310432
 31
0.0
 11
181.7058042592872
 21
278.3830700050124
 31
0.0
 11
181.9559222174644
 21
278.5206437526141
 31
0.0
 11
182.1628523248
 21
278.7133317713
 31
0.0
  0
SPLINE
  5
124
330
1F
100
AcDbEntity
  8
0
  6
Continuous
 62
     7
100
AcDbSpline
210
0.0
220
0.0
230
1.0
 70
     8
 71
     3
 72
    13
 73
     9
 74
     7
 42
0.0000000001
 43
0.0000000001
 44
0.00000001
 40
0.0
 40
0.0
 40
0.0
 40
0.0
 40
0.2827523488481811
 40
0.5682093214757742
 40
0.7261621655766781
 40
0.8834691669313399
 40
1.046335307438686
 40
1.209178923398343
 40
1.209178923398343
 40
1.209178923398343
 40
1.209178923398343
 10
182.1628523248
 20
310.4831526037
 30
0.0
 10
182.0970650326205
 20
310.5514169771976
 30
0.0
 10
181.9648611701121
 20
310.6885986964799
 30
0.0
 10
181.7465245408225
 20
310.8014416598458
 30
0.0
 10
181.5581133679521
 20
310.8691606702587
 30
0.0
 10
181.4028273409199
 20
310.9063886068028
 30
0.0
 10
181.243239281051
 20
310.930106151837
 30
0.0
 10
181.1346243032508
 20
310.9330759771387
 30
0.0
 10
181.08032057
 20
310.9345607871
 30
0.0
 11
182.1628523248
 21
310.4831526037
 31
0.0
 11
181.9559220002527
 21
310.6758407755266
 31
0.0
 11
181.7058037634622
 21
310.8134145769807
 31
0.0
 11
181.5570294686267
 21
310.8664740733577
 31
0.0
 11
181.4041986354144
 21
310.903733019865
 31
0.0
 11
181.2429815716801
 21
310.9268509368264
 31
0.0
 11
181.08032057
 21
310.9345607871
 31
0.0
  0
SPLINE
  5
125
330
1F
100
AcDbEntity
  8
0
  6
Continuous
 62
     7
100
AcDbSpline
210
0.0
220
0.0
230
1.0
 70
     8
 71
     3
 72
    11
 73
     7
 74
     5
 42
0.0000000001
 43
0.0000000001
 44
0.00000001
 40
0.0
 40
0.0
 40
0.0
 40
0.0
 40
0.652524950510875
 40
1.305495242843087
 40
1.958465532818418
 40
2.610990481002722
 40
2.610990481002722
 40
2.610990481002722
 40
2.610990481002722
 10
183.3690601107
 20
280.223182379
 30
0.0
 10
183.399479040503
 20
280.0076800521762
 30
0.0
 10
183.4603376607276
 20
279.5765283203232
 30
0.0
 10
183.4843059042856
 20
278.9231823774395
 30
0.0
 10
183.4603376604129
 20
278.2698364353567
 30
0.0
 10
183.3994790403986
 20
277.8386847050538
 30
0.0
 10
183.3690601107
 20
277.623182379
 30
0.0
 11
183.3690601107
 21
280.223182379
 31
0.0
 11
183.449104152028
 21
279.5755854654132
 31
0.0
 11
183.476314672975
 21
278.9231823766573
 31
0.0
 11
183.4491041518095
 21
278.2707792902695
 31
0.0
 11
183.3690601107
 21
277.623182379
 31
0.0
  0
SPLINE
  5
126
330
1F
100
AcDbEntity
  8
0
  6
Continuous
 62
     7
100
AcDbSpline
210
0.0
220
0.0
230
1.0
 70
     8
 71
     3
 72
    15
 73
    11
 74
     9
 42
0.0000000001
 43
0.0000000001
 44
0.00000001
 40
0.0
 40
0.0
 40
0.0
 40
0.0
 40
0.1595838697852305
 40
0.3194675130933836
 40
0.4808668843435955
 40
0.6421836149612743
 40
0.8048995798836043
 40
0.9677041984787134
 40
1.131411205581088
 40
1.294843856283635
 40
1.294843856283635
 40
1.294843856283635
 40
1.294843856283635
 10
182.1628523248
 20
275.6055523868
 30
0.0
 10
182.1337487842245
 20
275.5609335820405
 30
0.0
 10
182.0754870329435
 20
275.4716121574322
 30
0.0
 10
181.9663891265363
 20
275.3532273235049
 30
0.0
 10
181.8435048770699
 20
275.2488574965805
 30
0.0
 10
181.7070747681384
 20
275.1609788171892
 30
0.0
 10
181.5601610333592
 20
275.0909561982218
 30
0.0
 10
181.4047758450852
 20
275.0403332524544
 30
0.0
 10
181.2439494571994
 20
275.008343231469
 30
0.0
 10
181.1348330288215
 20
275.0043337301639
 30
0.0
 10
181.08032057
 20
275.0023306608
 30
0.0
 11
182.1628523248
 21
275.6055523868
 31
0.0
 11
182.0719938060079
 21
275.4743588615843
 31
0.0
 11
181.9645249178131
 21
275.3559814251039
 31
0.0
 11
181.8413512773048
 21
275.2516837198373
 31
0.0
 11
181.7058037635027
 21
275.1642196753432
 31
0.0
 11
181.5588992989451
 21
275.0942513715646
 31
0.0
 11
181.4041986354459
 21
275.0435261456037
 31
0.0
 11
181.2434258270076
 21
275.0126702184373
 31
0.0
 11
181.08032057
 21
275.0023306608
 31
0.0
  0
SPLINE
  5
127
330
1F
100
AcDbEntity
  8
0
  6
Continuous
 62
     7
100
AcDbSpline
210
0.0
220
0.0
230
1.0
 70
     8
 71
     3
 72
    13
 73
     9
 74
     7
 42
0.0000000001
 43
0.0000000001
 44
0.00000001
 40
0.0
 40
0.0
 40
0.0
 40
0.0
 40
0.1040133931213576
 40
0.2082044462204709
 40
0.3398684107298353
 40
0.4714656350447505
 40
0.7850253128941753
 40
1.098658437988048
 40
1.098658437988048
 40
1.098658437988048
 40
1.098658437988048
 10
182.1628523248
 20
291.490462803
 30
0.0
 10
182.1304462982482
 20
291.4780646948317
 30
0.0
 10
182.0655788940614
 20
291.4532473019182
 30
0.0
 10
181.9557955215002
 20
291.4246456004714
 30
0.0
 10
181.8359458741693
 20
291.3992740957955
 30
0.0
 10
181.6459889136417
 20
291.3691792111464
 30
0.0
 10
181.3939902666816
 20
291.3436181137814
 30
0.0
 10
181.1848852979542
 20
291.3403056741612
 30
0.0
 10
181.08032057
 20
291.3386492604
 30
0.0
 11
182.1628523248
 21
291.490462803
 31
0.0
 11
182.0650387049072
 21
291.4550893424388
 31
0.0
 11
181.9645249178806
 21
291.4276529767268
 31
0.0
 11
181.8357164719481
 21
291.4003805766347
 31
0.0
 11
181.7058037634894
 21
291.3793920648174
 31
0.0
 11
181.3938120722159
 21
291.348073441774
 31
0.0
 11
181.08032057
 21
291.3386492604
 31
0.0
  0
SPLINE
  5
128
330
1F
100
AcDbEntity
  8
0
  6
Continuous
 62
     7
100
AcDbSpline
210
0.0
220
0.0
230
1.0
 70
     8
 71
     3
 72
     9
 73
     5
 74
     3
 42
0.0000000001
 43
0.0000000001
 44
0.00000001
 40
0.0
 40
0.0
 40
0.0
 40
0.0
 40
1.17534761472954
 40
2.350695232638065
 40
2.350695232638065
 40
2.350695232638065
 40
2.350695232638065
 10
183.3690601107
 20
277.623182379
 30
0.0
 10
183.1680816636369
 20
277.2868771255935
 30
0.0
 10
182.7661247689672
 20
276.6142666178708
 30
0.0
 10
182.3639431397037
 20
275.9417904641267
 30
0.0
 10
182.1628523248
 20
275.6055523868
 30
0.0
 11
183.3690601107
 21
277.623182379
 31
0.0
 11
182.7660685858625
 21
276.614300207275
 31
0.0
 11
182.1628523248
 21
275.6055523868
 31
0.0
  0
SPLINE
  5
129
330
1F
100
AcDbEntity
  8
0
  6
Continuous
 62
     7
100
AcDbSpline
210
0.0
220
0.0
230
1.0
 70
     8
 71
     3
 72
    13
 73
     9
 74
     7
 42
0.0000000001
 43
0.0000000001
 44
0.00000001
 40
0.0
 40
0.0
 40
0.0
 40
0.0
 40
0.3136333753919751
 40
0.6271933033636474
 40
0.7587904133147174
 40
0.8904542630498913
 40
0.9946451801320072
 40
1.098658437927763
 40
1.098658437927763
 40
1.098658437927763
 40
1.098658437927763
 10
181.08032057
 20
297.8578351146
 30
0.0
 10
181.1848853814342
 20
297.8561786984665
 30
0.0
 10
181.3939905170628
 20
297.852866254103
 30
0.0
 10
181.6459892907818
 20
297.8273051205843
 30
0.0
 10
181.835946253998
 20
297.7972102087334
 30
0.0
 10
181.9557957789349
 20
297.7718387131787
 30
0.0
 10
182.0655790223514
 20
297.7432370283324
 30
0.0
 10
182.1304463409393
 20
297.7184196652785
 30
0.0
 10
182.1628523248
 20
297.706021572
 30
0.0
 11
181.08032057
 21
297.8578351146
 31
0.0
 11
181.3938123221782
 21
297.8484109182938
 31
0.0
 11
181.7058042593407
 21
297.8170922405566
 31
0.0
 11
181.8357168519843
 21
297.7961037289354
 31
0.0
 11
181.9645251818574
 21
297.7688313347903
 31
0.0
 11
182.0650388341658
 21
297.7413949920671
 31
0.0
 11
182.1628523248
 21
297.706021572
 31
0.0
  0
SPLINE
  5
12A
330
1F
100
AcDbEntity
  8
0
  6
Continuous
 62
     7
100
AcDbSpline
210
0.0
220
0.0
230
1.0
 70
     8
 71
     3
 72
    11
 73
     7
 74
     5
 42
0.0000000001
 43
0.0000000001
 44
0.00000001
 40
0.0
 40
0.0
 40
0.0
 40
0.0
 40
0.652524950510875
 40
1.305495242843144
 40
1.958465532818418
 40
2.610990481002778
 40
2.610990481002778
 40
2.610990481002778
 40
2.610990481002778
 10
183.3690601107
 20
311.573301996
 30
0.0
 10
183.399479040503
 20
311.3577996691762
 30
0.0
 10
183.4603376607276
 20
310.9266479373232
 30
0.0
 10
183.4843059042855
 20
310.2733019944395
 30
0.0
 10
183.4603376604129
 20
309.6199560523567
 30
0.0
 10
183.3994790403986
 20
309.1888043220538
 30
0.0
 10
183.3690601107
 20
308.973301996
 30
0.0
 11
183.3690601107
 21
311.573301996
 31
0.0
 11
183.449104152028
 21
310.9257050824132
 31
0.0
 11
183.476314672975
 21
310.2733019936573
 31
0.0
 11
183.4491041518095
 21
309.6208989072695
 31
0.0
 11
183.3690601107
 21
308.973301996
 31
0.0
  0
SPLINE
  5
12B
330
1F
100
AcDbEntity
  8
0
  6
Continuous
 62
     7
100
AcDbSpline
210
0.0
220
0.0
230
1.0
 70
     8
 71
     3
 72
    15
 73
    11
 74
     9
 42
0.0000000001
 43
0.0000000001
 44
0.00000001
 40
0.0
 40
0.0
 40
0.0
 40
0.0
 40
0.1634328331662983
 40
0.3271400237697126
 40
0.48994474271274
 40
0.6526608072888815
 40
0.8139774373694968
 40
0.9753767073817481
 40
1.13526016805609
 40
1.294843856298869
 40
1.294843856298869
 40
1.294843856298869
 40
1.294843856298869
 10
181.08032057
 20
314.1941537142
 30
0.0
 10
181.1348330897537
 20
314.1921506400743
 30
0.0
 10
181.2439496403418
 20
314.1881411292285
 30
0.0
 10
181.4047761754536
 20
314.1561510405664
 30
0.0
 10
181.5601614695403
 20
314.1055280052908
 30
0.0
 10
181.7070752071502
 20
314.0355053132182
 30
0.0
 10
181.8435052513657
 20
313.9476265976967
 30
0.0
 10
181.9663893682988
 20
313.8432568134079
 30
0.0
 10
182.0754871394236
 20
313.7248720688887
 30
0.0
 10
182.13374881965
 20
313.6355507435007
 30
0.0
 10
182.1628523248
 20
313.5909319882
 30
0.0
 11
181.08032057
 21
314.1941537142
 31
0.0
 11
181.2434260083129
 21
314.1838141325097
 31
0.0
 11
181.4041989901958
 21
314.1529581354956
 31
0.0
 11
181.5588997326613
 21
314.1022328282936
 31
0.0
 11
181.7058042592701
 21
314.0322644230454
 31
0.0
 11
181.8413516533197
 21
313.9448003783932
 31
0.0
 11
181.9645251818427
 21
313.8405026975383
 31
0.0
 11
182.0719939200767
 21
313.7221253715862
 31
0.0
 11
182.1628523248
 21
313.5909319882
 31
0.0
  0
SPLINE
  5
12C
330
1F
100
AcDbEntity
  8
0
  6
Continuous
 62
     7
100
AcDbSpline
210
0.0
220
0.0
230
1.0
 70
     8
 71
     3
 72
     9
 73
     5
 74
     3
 42
0.0000000001
 43
0.0000000001
 44
0.00000001
 40
0.0
 40
0.0
 40
0.0
 40
0.0
 40
1.175347617908525
 40
2.350695232638065
 40
2.350695232638065
 40
2.350695232638065
 40
2.350695232638065
 10
182.1628523248
 20
313.5909319882
 30
0.0
 10
182.3639431397037
 20
313.2546939108732
 30
0.0
 10
182.7661247689672
 20
312.5822177571292
 30
0.0
 10
183.1680816636369
 20
311.9096072494066
 30
0.0
 10
183.3690601107
 20
311.573301996
 30
0.0
 11
182.1628523248
 21
313.5909319882
 31
0.0
 11
182.7660685858625
 21
312.582184167725
 31
0.0
 11
183.3690601107
 21
311.573301996
 31
0.0
  0
SPLINE
  5
12D
330
1F
100
AcDbEntity
  8
VERERBUNG
  6
Continuous
 62
     7
100
AcDbSpline
210
0.0
220
0.0
230
1.0
 70
     8
 71
     3
 72
    13
 73
     9
 74
     7
 42
0.0000000001
 43
0.0000000001
 44
0.00000001
 40
0.0
 40
0.0
 40
0.0
 40
0.0
 40
0.9581451161981427
 40
1.916374757602205
 40
2.729668920850508
 40
3.542928077738484
 40
4.281951737047655
 40
5.02098028103736
 40
5.02098028103736
 40
5.02098028103736
 40
5.02098028103736
 10
117.5547851563
 20
325.6988852677
 30
0.0
 10
117.2353909899655
 20
325.7017288054021
 30
0.0
 10
116.5965744811287
 20
325.7074161316561
 30
0.0
 10
115.687510359893
 20
325.7510238502967
 30
0.0
 10
114.8281922526695
 20
325.8145802364804
 30
0.0
 10
114.0435537097745
 20
325.893577252469
 30
0.0
 10
113.2854221822936
 20
325.986988312928
 30
0.0
 10
112.7983313682119
 20
326.0611574809377
 30
0.0
 10
112.5547851563
 20
326.0982421875
 30
0.0
 11
117.5547851563
 21
325.6988852677
 31
0.0
 11
116.5967537644286
 21
325.7136472419344
 31
0.0
 11
115.6395420525042
 21
325.7578036029721
 31
0.0
 11
114.8284907221874
 21
325.8181619956371
 31
0.0
 11
114.0192789741257
 21
325.8991978090847
 31
0.0
 11
113.2859127356744
 21
325.990466255541
 31
0.0
 11
112.5547851563
 21
326.0982421875
 31
0.0
  0
SPLINE
  5
12E
330
1F
100
AcDbEntity
  8
VERERBUNG
  6
Continuous
 62
     7
100
AcDbSpline
210
0.0
220
0.0
230
1.0
 70
     8
 71
     3
 72
    13
 73
     9
 74
     7
 42
0.0000000001
 43
0.0000000001
 44
0.00000001
 40
0.0
 40
0.0
 40
0.0
 40
0.0
 40
0.4765182419162932
 40
0.952982170621437
 40
1.193158829987125
 40
1.433310795920406
 40
1.675484054954634
 40
1.917493731626033
 40
1.917493731626033
 40
1.917493731626033
 40
1.917493731626033
 10
84.042192194
 20
303.8682421875
 30
0.0
 10
84.11401280665748
 20
303.7264440246573
 30
0.0
 10
84.25764584591002
 20
303.4428638610259
 30
0.0
 10
84.39206993979424
 20
303.067249904396
 30
0.0
 10
84.47366464108632
 20
302.7587734452784
 30
0.0
 10
84.51906998646373
 20
302.5221000026312
 30
0.0
 10
84.54894572435066
 20
302.2821535520871
 30
0.0
 10
84.5528391174476
 20
302.1207196078143
 30
0.0
 10
84.5547851563
 20
302.0400299061
 30
0.0
 11
84.042192194
 21
303.8682421875
 31
0.0
 11
84.24858604456831
 21
303.4387410660503
 31
0.0
 11
84.41001623099365
 21
302.9904574836297
 31
0.0
 11
84.47097245053973
 21
302.7581448343772
 31
0.0
 11
84.51636032431017
 21
302.5223209431867
 31
0.0
 11
84.54493048105059
 21
302.2818388575024
 31
0.0
 11
84.5547851563
 21
302.0400299061
 31
0.0
  0
SPLINE
  5
12F
330
1F
100
AcDbEntity
  8
VERERBUNG
  6
Continuous
 62
     7
100
AcDbSpline
210
0.0
220
0.0
230
1.0
 70
     8
 71
     3
 72
    19
 73
    15
 74
    13
 42
0.0000000001
 43
0.0000000001
 44
0.00000001
 40
0.0
 40
0.0
 40
0.0
 40
0.0
 40
0.08358322825624
 40
0.1672705448546278
 40
0.2499538624042042
 40
0.3326148850032439
 40
0.4138475638583152
 40
0.4950848397559483
 40
0.5749375740068174
 40
0.6547985887984369
 40
0.8114954796845588
 40
0.9684466433334196
 40
1.123543258602085
 40
1.278502018092702
 40
1.278502018092702
 40
1.278502018092702
 40
1.278502018092702
 10
83.0547851563
 20
304.5545550694
 30
0.0
 10
83.0825837968716
 20
304.5568279501231
 30
0.0
 10
83.13821569637634
 20
304.5613765420462
 30
0.0
 10
83.22164709988654
 20
304.5560104140018
 30
0.0
 10
83.30355617328294
 20
304.5417062305842
 30
0.0
 10
83.38259264614209
 20
304.5185164393749
 30
0.0
 10
83.4582936541379
 20
304.4874117323559
 30
0.0
 10
83.52982329196291
 20
304.4496410833131
 30
0.0
 10
83.59736513412285
 20
304.4060057989228
 30
0.0
 10
83.68123457794798
 20
304.3419103121356
 30
0.0
 10
83.77682250799418
 20
304.251487113784
 30
0.0
 10
83.87719678690083
 20
304.1314407735902
 30
0.0
 10
83.9662410981298
 20
304.0034420658034
 30
0.0
 10
84.01688266740467
 20
303.9132954533732
 30
0.0
 10
84.042192194
 20
303.8682421875
 30
0.0
 11
83.0547851563
 21
304.5545550694
 31
0.0
 11
83.13823123297283
 21
304.5593413345042
 31
0.0
 11
83.22177692189561
 21
304.5544746290624
 31
0.0
 11
83.30321719601065
 21
304.5401913257655
 31
0.0
 11
83.38256203075669
 21
304.5170128474668
 31
0.0
 11
83.45773843822171
 21
304.4862353252367
 31
0.0
 11
83.52962280182555
 21
304.4483917886084
 31
0.0
 11
83.59675403177066
 21
304.4051499439045
 31
0.0
 11
83.66027078584892
 21
304.3567412294524
 31
0.0
 11
83.7745079053495
 21
304.2494854783637
 31
0.0
 11
83.87574162605696
 21
304.1295463206109
 31
0.0
 11
83.96414629702979
 21
304.0021117326139
 31
0.0
 11
84.042192194
 21
303.8682421875
 31
0.0
  0
SPLINE
  5
130
330
1F
100
AcDbEntity
  8
VERERBUNG
  6
Continuous
 62
     7
100
AcDbSpline
210
0.0
220
0.0
230
1.0
 70
     8
 71
     3
 72
    13
 73
     9
 74
     7
 42
0.0000000001
 43
0.0000000001
 44
0.00000001
 40
0.0
 40
0.0
 40
0.0
 40
0.0
 40
0.2420096760832279
 40
0.4841829345455697
 40
0.7243349034544391
 40
0.9645115657962144
 40
1.440975492120574
 40
1.917493731639134
 40
1.917493731639134
 40
1.917493731639134
 40
1.917493731639134
 10
84.5547851563
 20
287.1564544689
 30
0.0
 10
84.55283911745431
 20
287.0757647673819
 30
0.0
 10
84.54894572437063
 20
286.9143308234961
 30
0.0
 10
84.51906998647567
 20
286.6743843723452
 30
0.0
 10
84.47366464077574
 20
286.4377109279285
 30
0.0
 10
84.39206993894852
 20
286.1292344677134
 30
0.0
 10
84.2576458448813
 20
285.7536205118059
 30
0.0
 10
84.11401280631372
 20
285.4700403496183
 30
0.0
 10
84.042192194
 20
285.3282421875
 30
0.0
 11
84.5547851563
 21
287.1564544689
 31
0.0
 11
84.54493048109076
 21
286.9146455180846
 31
0.0
 11
84.5163603244855
 21
286.6741634329601
 31
0.0
 11
84.4709724501643
 21
286.4383395388455
 31
0.0
 11
84.41001622968858
 21
286.2060268867601
 31
0.0
 11
84.2485860436511
 21
285.7577433067303
 31
0.0
 11
84.042192194
 21
285.3282421875
 31
0.0
  0
SPLINE
  5
131
330
1F
100
AcDbEntity
  8
VERERBUNG
  6
Continuous
 62
     7
100
AcDbSpline
210
0.0
220
0.0
230
1.0
 70
     8
 71
     3
 72
    19
 73
    15
 74
    13
 42
0.0000000001
 43
0.0000000001
 44
0.00000001
 40
0.0
 40
0.0
 40
0.0
 40
0.0
 40
0.1549595547523071
 40
0.310056926668186
 40
0.4670093143436614
 40
0.623707559395172
 40
0.703571682066673
 40
0.7834274371866671
 40
0.8646682251473452
 40
0.9459045180025296
 40
1.028561641654397
 40
1.111240956073405
 40
1.194923428853581
 40
1.278501866365324
 40
1.278501866365324
 40
1.278501866365324
 40
1.278501866365324
 10
84.042192194
 20
285.3282421875
 30
0.0
 10
84.0168825441464
 20
285.2831886866951
 30
0.0
 10
83.9662407346678
 20
285.1930416156254
 30
0.0
 10
83.87719581461177
 20
285.0650421910329
 30
0.0
 10
83.77682041515243
 20
284.9449953224364
 30
0.0
 10
83.68123096815962
 20
284.8545710092245
 30
0.0
 10
83.59735967728096
 20
284.7904738219983
 30
0.0
 10
83.52981481237828
 20
284.7468372186647
 30
0.0
 10
83.45828115273075
 20
284.7090668483296
 30
0.0
 10
83.38257818187238
 20
284.6779641146342
 30
0.0
 10
83.30354274199516
 20
284.6547760848505
 30
0.0
 10
83.22163775496182
 20
284.6404732633592
 30
0.0
 10
83.13821087699077
 20
284.6351080670597
 30
0.0
 10
83.08258219629664
 20
284.639656502453
 30
0.0
 10
83.0547851563
 20
284.6419293056
 30
0.0
 11
84.042192194
 21
285.3282421875
 31
0.0
 11
83.96414589961537
 21
285.1943719535349
 31
0.0
 11
83.87574068331848
 21
285.0669368229519
 31
0.0
 11
83.77450586449126
 21
284.9469969903105
 31
0.0
 11
83.66026765973395
 21
284.8397404167308
 31
0.0
 11
83.5967484575449
 21
284.7913297872848
 31
0.0
 11
83.529614326028
 21
284.7480868686593
 31
0.0
 11
83.45772595525617
 21
284.710243404544
 31
0.0
 11
83.38254531210914
 21
284.6794666897607
 31
0.0
 11
83.30320378712804
 21
284.6562907862385
 31
0.0
 11
83.22176732274387
 21
284.6420089340685
 31
0.0
 11
83.13822643644046
 21
284.6371430768732
 31
0.0
 11
83.0547851563
 21
284.6419293056
 31
0.0
  0
SPLINE
  5
132
330
1F
100
AcDbEntity
  8
VERERBUNG
  6
Continuous
 62
     7
100
AcDbSpline
210
0.0
220
0.0
230
1.0
 70
     8
 71
     3
 72
    23
 73
    19
 74
    17
 42
0.0000000001
 43
0.0000000001
 44
0.00000001
 40
0.0
 40
0.0
 40
0.0
 40
0.0
 40
0.0664886891767443
 40
0.1330028506632898
 40
0.1940175413964701
 40
0.2550295991472064
 40
0.3099753629663667
 40
0.3648861555762846
 40
0.4150633581078931
 40
0.4651526181799949
 40
0.514174037924763
 40
0.5632529905508854
 40
0.6152549116184648
 40
0.667307769842329
 40
0.7243355356418919
 40
0.7813668340540016
 40
0.8435221576567924
 40
0.9056490098633608
 40
0.9056490098633608
 40
0.9056490098633608
 40
0.9056490098633608
 10
78.5547851563
 20
303.3511103092
 30
0.0
 10
78.5551337436537
 20
303.3732776565734
 30
0.0
 10
78.55583105190749
 20
303.4176208437955
 30
0.0
 10
78.56221811101976
 20
303.4820587506746
 30
0.0
 10
78.57311391430362
 20
303.5440222231152
 30
0.0
 10
78.5890882218834
 20
303.6009370547365
 30
0.0
 10
78.6107179488695
 20
303.6537760614768
 30
0.0
 10
78.6378090579995
 20
303.7000011048001
 30
0.0
 10
78.67119654050401
 20
303.7398224139616
 30
0.0
 10
78.70969871415481
 20
303.7718598365622
 30
0.0
 10
78.75358228183678
 20
303.7952216377335
 30
0.0
 10
78.80153987073004
 20
303.8103832858177
 30
0.0
 10
78.85242174041525
 20
303.8168884126169
 30
0.0
 10
78.90625432990937
 20
303.8156098213017
 30
0.0
 10
78.96114531421878
 20
303.8073525777442
 30
0.0
 10
79.01801172814226
 20
303.792344945786
 30
0.0
 10
79.07505762897276
 20
303.7721035585988
 30
0.0
 10
79.11267997138395
 20
303.7547211039698
 30
0.0
 10
79.1314868332
 20
303.7460318677
 30
0.0
 11
78.5547851563
 21
303.3511103092
 31
0.0
 11
78.55675085257391
 21
303.4175699347376
 31
0.0
 11
78.56326192885481
 21
303.4837646442235
 31
0.0
 11
78.57410478994369
 21
303.5438081688425
 31
0.0
 11
78.5908018162876
 21
303.6024910496703
 31
0.0
 11
78.61189575390343
 21
303.6532264688322
 31
0.0
 11
78.63992658037091
 21
303.7004437105199
 31
0.0
 11
78.67228890240318
 21
303.7387899198056
 31
0.0
 11
78.71094177696952
 21
303.770647246472
 31
0.0
 11
78.7541376801875
 21
303.79382511391
 31
0.0
 11
78.80091032580658
 21
303.8086933085775
 31
0.0
 11
78.85245475850101
 21
303.8155759863215
 31
0.0
 11
78.90449868477216
 21
303.8146117313985
 31
0.0
 11
78.96092361999631
 21
303.8063417400418
 31
0.0
 11
79.01613748960013
 21
303.7920589671337
 31
0.0
 11
79.07469640743909
 21
303.7712230031844
 31
0.0
 11
79.1314868332
 21
303.7460318677
 31
0.0
  0
SPLINE
  5
133
330
1F
100
AcDbEntity
  8
VERERBUNG
  6
Continuous
 62
     7
100
AcDbSpline
210
0.0
220
0.0
230
1.0
 70
     8
 71
     3
 72
    23
 73
    19
 74
    17
 42
0.0000000001
 43
0.0000000001
 44
0.00000001
 40
0.0
 40
0.0
 40
0.0
 40
0.0
 40
0.0621269685144185
 40
0.1242824031428013
 40
0.1813135303136113
 40
0.2383411404021506
 40
0.2903938962942135
 40
0.3423956884576231
 40
0.3914747075171709
 40
0.4404962287401342
 40
0.4905855734432961
 40
0.5407628275873633
 40
0.5956736074378252
 40
0.6506193812922266
 40
0.711631442580749
 40
0.7726461253334853
 40
0.8391602986851604
 40
0.9056490032217079
 40
0.9056490032217079
 40
0.9056490032217079
 40
0.9056490032217079
 10
79.1314868332
 20
285.4504525073
 30
0.0
 10
79.11267993645812
 20
285.4417632541507
 30
0.0
 10
79.07505752579439
 20
285.4243807665011
 30
0.0
 10
79.01801160122228
 20
285.4041393864201
 30
0.0
 10
78.9611452444148
 20
285.3891318200542
 30
0.0
 10
78.9062544068337
 20
285.380874595196
 30
0.0
 10
78.8524219531767
 20
285.3795958844713
 30
0.0
 10
78.80154011911635
 20
285.3861009103289
 30
0.0
 10
78.75358253443764
 20
285.4012626438792
 30
0.0
 10
78.70969893994697
 20
285.4246245562829
 30
0.0
 10
78.67119664602762
 20
285.4566619439547
 30
0.0
 10
78.63780903465732
 20
285.4964832066997
 30
0.0
 10
78.61071792546407
 20
285.5427082761449
 30
0.0
 10
78.58908824835135
 20
285.5955473019931
 30
0.0
 10
78.573113935588
 20
285.6524621320914
 30
0.0
 10
78.56221810818565
 20
285.7144256032331
 30
0.0
 10
78.55583104882326
 20
285.7788635170102
 30
0.0
 10
78.55513374263188
 20
285.8232067133068
 30
0.0
 10
78.5547851563
 20
285.8453740658
 30
0.0
 11
79.1314868332
 21
285.4504525073
 31
0.0
 11
79.07469630076834
 21
285.4252613254516
 31
0.0
 11
79.01613727140865
 21
285.4044253437302
 31
0.0
 11
78.96092355876624
 21
285.3901426478147
 31
0.0
 11
78.90449878015968
 21
285.3818726616229
 31
0.0
 11
78.85245495799074
 21
285.3809083120979
 31
0.0
 11
78.80091064356513
 21
285.3877909016251
 31
0.0
 11
78.75413794978408
 21
285.4026591640761
 31
0.0
 11
78.71094198209808
 21
285.4258371259943
 31
0.0
 11
78.67228899499364
 21
285.4576944491822
 31
0.0
 11
78.63992656517746
 21
285.4960406350399
 31
0.0
 11
78.6118957404586
 21
285.5432578629272
 31
0.0
 11
78.59080183209015
 21
285.5939933051171
 31
0.0
 11
78.57410480731299
 21
285.6526761900689
 31
0.0
 11
78.5632619313721
 21
285.7127197038964
 31
0.0
 11
78.55675085023056
 21
285.7789144248266
 31
0.0
 11
78.5547851563
 21
285.8453740658
 31
0.0
  0
SPLINE
  5
134
330
1F
100
AcDbEntity
  8
VERERBUNG
  6
Continuous
 62
     7
100
AcDbSpline
210
0.0
220
0.0
230
1.0
 70
     8
 71
     3
 72
     9
 73
     5
 74
     3
 42
0.0000000001
 43
0.0000000001
 44
0.00000001
 40
0.0
 40
0.0
 40
0.0
 40
0.0
 40
0.0773963057191073
 40
0.1547963632788734
 40
0.1547963632788734
 40
0.1547963632788734
 40
0.1547963632788734
 10
79.2264599667
 20
285.3282421875
 30
0.0
 10
79.21012223634621
 20
285.3482143208525
 30
0.0
 10
79.17744598365557
 20
285.3881595557209
 30
0.0
 10
79.14680679755523
 20
285.4296878545961
 30
0.0
 10
79.1314868332
 20
285.4504525073
 30
0.0
 11
79.2264599667
 21
285.3282421875
 31
0.0
 11
79.17795601760001
 21
285.388554334375
 31
0.0
 11
79.1314868332
 21
285.4504525073
 31
0.0
  0
SPLINE
  5
135
330
1F
100
AcDbEntity
  8
VERERBUNG
  6
Continuous
 62
     7
100
AcDbSpline
210
0.0
220
0.0
230
1.0
 70
     8
 71
     3
 72
    15
 73
    11
 74
     9
 42
0.0000000001
 43
0.0000000001
 44
0.00000001
 40
0.0
 40
0.0
 40
0.0
 40
0.0
 40
0.0705890228530692
 40
0.1413178421759786
 40
0.2119756690486455
 40
0.28260667588657
 40
0.3532320942672179
 40
0.4238693692837694
 40
0.4944866364849843
 40
0.5650782700703776
 40
0.5650782700703776
 40
0.5650782700703776
 40
0.5650782700703776
 10
79.6947420919
 20
285.0362142562
 30
0.0
 10
79.67147702258083
 20
285.0399562965856
 30
0.0
 10
79.62490080915023
 20
285.0474477881976
 30
0.0
 10
79.55766679674738
 20
285.0701115930321
 30
0.0
 10
79.49348116954992
 20
285.0999396808971
 30
0.0
 10
79.43290453917908
 20
285.1365239380965
 30
0.0
 10
79.37594894643082
 20
285.1784404456141
 30
0.0
 10
79.3226515572858
 20
285.2248716935646
 30
0.0
 10
79.27255135833396
 20
285.2747365243451
 30
0.0
 10
79.24182190447465
 20
285.3104091249943
 30
0.0
 10
79.2264599667
 20
285.3282421875
 30
0.0
 11
79.6947420919
 21
285.0362142562
 31
0.0
 11
79.62538434393589
 21
285.0493410587314
 31
0.0
 11
79.55815522581094
 21
285.0713140321068
 31
0.0
 11
79.49406961225796
 21
285.1010724365315
 31
0.0
 11
79.43350549072888
 21
285.1374142349233
 31
0.0
 11
79.37656115672108
 21
285.1791909335225
 31
0.0
 11
79.32317821303819
 21
285.2254498347796
 31
0.0
 11
79.27321191400517
 21
285.2753514117879
 31
0.0
 11
79.2264599667
 21
285.3282421875
 31
0.0
  0
SPLINE
  5
136
330
1F
100
AcDbEntity
  8
VERERBUNG
  6
Continuous
 62
     7
100
AcDbSpline
210
0.0
220
0.0
230
1.0
 70
     8
 71
     3
 72
    15
 73
    11
 74
     9
 42
0.0000000001
 43
0.0000000001
 44
0.00000001
 40
0.0
 40
0.0
 40
0.0
 40
0.0
 40
0.0705917491155249
 40
0.1412091311110353
 40
0.2118461807736245
 40
0.2824713748881513
 40
0.3531025104631874
 40
0.4237604658486739
 40
0.4944892663218067
 40
0.5650782700700986
 40
0.5650782700700986
 40
0.5650782700700986
 40
0.5650782700700986
 10
79.2264599667
 20
303.8682421875
 30
0.0
 10
79.24182192896706
 20
303.8860752797409
 30
0.0
 10
79.2725514316507
 20
303.921747939675
 30
0.0
 10
79.32265163397706
 20
303.9716127700417
 30
0.0
 10
79.37594894876295
 20
304.0180439331644
 30
0.0
 10
79.43290445504911
 20
304.059960376198
 30
0.0
 10
79.49348108912032
 20
304.0965446490715
 30
0.0
 10
79.55766678738871
 20
304.1263727736605
 30
0.0
 10
79.62490082809174
 20
304.1490365887875
 30
0.0
 10
79.67147702892262
 20
304.1565280790809
 30
0.0
 10
79.6947420919
 20
304.1602701188
 30
0.0
 11
79.2264599667
 21
303.8682421875
 31
0.0
 11
79.27321198926688
 21
303.9211330508801
 31
0.0
 11
79.32317837359278
 21
303.9710347049339
 31
0.0
 11
79.3765611551523
 21
304.0172934491667
 31
0.0
 11
79.43350530737602
 21
304.0590700164173
 31
0.0
 11
79.49406953375183
 21
304.0954118902836
 31
0.0
 11
79.55815526263717
 21
304.1251703514752
 31
0.0
 11
79.62538436288982
 21
304.1471433188576
 31
0.0
 11
79.6947420919
 21
304.1602701188
 31
0.0
  0
SPLINE
  5
137
330
1F
100
AcDbEntity
  8
VERERBUNG
  6
Continuous
 62
     7
100
AcDbSpline
210
0.0
220
0.0
230
1.0
 70
     8
 71
     3
 72
     9
 73
     5
 74
     3
 42
0.0000000001
 43
0.0000000001
 44
0.00000001
 40
0.0
 40
0.0
 40
0.0
 40
0.0
 40
0.0774000575597576
 40
0.1547963632788737
 40
0.1547963632788737
 40
0.1547963632788737
 40
0.1547963632788737
 10
79.1314868332
 20
303.7460318677
 30
0.0
 10
79.14680679755523
 20
303.7667965204039
 30
0.0
 10
79.17744598365556
 20
303.8083248192791
 30
0.0
 10
79.2101222363462
 20
303.8482700541475
 30
0.0
 10
79.2264599667
 20
303.8682421875
 30
0.0
 11
79.1314868332
 21
303.7460318677
 31
0.0
 11
79.1779560176
 21
303.807930040625
 31
0.0
 11
79.2264599667
 21
303.8682421875
 31
0.0
  0
SPLINE
  5
138
330
1F
100
AcDbEntity
  8
0
  6
Continuous
 62
     7
100
AcDbSpline
210
0.0
220
0.0
230
1.0
 70
     8
 71
     3
 72
    17
 73
    13
 74
    11
 42
0.0000000001
 43
0.0000000001
 44
0.00000001
 40
0.0
 40
0.0
 40
0.0
 40
0.0
 40
0.068027795071593
 40
0.136063235179586
 40
0.2040812641422243
 40
0.2721696697760372
 40
0.3403702855948175
 40
0.4083585485918171
 40
0.4424627524344272
 40
0.4765773021610328
 40
0.5107086427405516
 40
0.5447868110783387
 40
0.5447868110783387
 40
0.5447868110783387
 40
0.5447868110783387
 10
127.2638982657
 20
302.6157421875
 30
0.0
 10
127.2763068882254
 20
302.5967568206368
 30
0.0
 10
127.3011255277704
 20
302.5587839533143
 30
0.0
 10
127.342067072601
 20
302.5043914220788
 30
0.0
 10
127.3862856092609
 20
302.4525964995932
 30
0.0
 10
127.4348657082605
 20
302.4047220961297
 30
0.0
 10
127.4881985094327
 20
302.3621416310168
 30
0.0
 10
127.5373535936533
 20
302.3332013988197
 30
0.0
 10
127.5793188314307
 20
302.3156822519883
 30
0.0
 10
127.6120432330932
 20
302.3058642809673
 30
0.0
 10
127.6456706975793
 20
302.2994832526724
 30
0.0
 10
127.6684195813038
 20
302.2986556608431
 30
0.0
 10
127.6797851563
 20
302.2982421875
 30
0.0
 11
127.2638982657
 21
302.6157421875
 31
0.0
 11
127.3017434489383
 21
302.5592132302484
 31
0.0
 11
127.3426146791232
 21
302.5048223886125
 31
0.0
 11
127.3869900642206
 21
302.453273601416
 31
0.0
 11
127.4356316236272
 21
302.4056287729427
 31
0.0
 11
127.4891955445153
 21
302.363412302494
 31
0.0
 11
127.5480148110499
 21
302.3293139478463
 31
0.0
 11
127.5795139487819
 21
302.3162410353215
 31
0.0
 11
127.6121897541147
 21
302.3064382679112
 31
0.0
 11
127.6457714817082
 21
302.3003377776361
 31
0.0
 11
127.6797851563
 21
302.2982421875
 31
0.0
  0
SPLINE
  5
139
330
1F
100
AcDbEntity
  8
0
  6
Continuous
 62
     7
100
AcDbSpline
210
0.0
220
0.0
230
1.0
 70
     8
 71
     3
 72
    17
 73
    13
 74
    11
 42
0.0000000001
 43
0.0000000001
 44
0.00000001
 40
0.0
 40
0.0
 40
0.0
 40
0.0
 40
0.0340790970877439
 40
0.0682097421751426
 40
0.1023154066605471
 40
0.1364128755706433
 40
0.2043992839400295
 40
0.2725935679833695
 40
0.3406803506977433
 40
0.4086986202969067
 40
0.4767464407257876
 40
0.5447862543274763
 40
0.5447862543274763
 40
0.5447862543274763
 40
0.5447862543274763
 10
127.6797851563
 20
286.8982421875
 30
0.0
 10
127.6684192658741
 20
286.8978309198203
 30
0.0
 10
127.6456702929906
 20
286.897007762378
 30
0.0
 10
127.6120429291892
 20
286.8906398782605
 30
0.0
 10
127.579326454722
 20
286.8808118488153
 30
0.0
 10
127.5373754885726
 20
286.8632746146021
 30
0.0
 10
127.4882256487493
 20
286.8343387662859
 30
0.0
 10
127.4348844137119
 20
286.7917738674698
 30
0.0
 10
127.3863004823644
 20
286.7439065884388
 30
0.0
 10
127.3420775782342
 20
286.6921104769822
 30
0.0
 10
127.3011315858525
 20
286.6377109588673
 30
0.0
 10
127.2763088855962
 20
286.5997310330957
 30
0.0
 10
127.2638982657
 20
286.5807421875
 30
0.0
 11
127.6797851563
 21
286.8982421875
 31
0.0
 11
127.6457700860802
 21
286.8961541606184
 31
0.0
 11
127.612187683046
 21
286.8900612844069
 31
0.0
 11
127.5795228631299
 21
286.8802528242911
 31
0.0
 11
127.5480352485945
 21
286.867169723858
 31
0.0
 11
127.4892193817922
 21
286.8330692028171
 31
0.0
 11
127.4356523417103
 21
286.7908669209705
 31
0.0
 11
127.3870059650014
 21
286.7432293306296
 31
0.0
 11
127.3426281811661
 21
286.6916822909364
 31
0.0
 11
127.3017495636757
 21
286.6372815143134
 31
0.0
 11
127.2638982657
 21
286.5807421875
 31
0.0
  0
SPLINE
  5
13A
330
1F
100
AcDbEntity
  8
0
  6
Continuous
 62
     7
100
AcDbSpline
210
0.0
220
0.0
230
1.0
 70
     8
 71
     3
 72
    17
 73
    13
 74
    11
 42
0.0000000001
 43
0.0000000001
 44
0.00000001
 40
0.0
 40
0.0
 40
0.0
 40
0.0
 40
0.0340781915491984
 40
0.0682095734771301
 40
0.1023243843955227
 40
0.1364288244667631
 40
0.2044171800477621
 40
0.2726179462966724
 40
0.3407061059542092
 40
0.4087238601413653
 40
0.4767591625872249
 40
0.5447868280161816
 40
0.5447868280161816
 40
0.5447868280161816
 40
0.5447868280161816
 10
129.4297851563
 20
302.2982421875
 30
0.0
 10
129.4411507389698
 20
302.2986556845519
 30
0.0
 10
129.4638996440903
 20
302.2994833240558
 30
0.0
 10
129.4975271869136
 20
302.3058645024553
 30
0.0
 10
129.5302517909434
 20
302.3156823988082
 30
0.0
 10
129.5722172970866
 20
302.3332014279305
 30
0.0
 10
129.6213724814379
 20
302.362141848788
 30
0.0
 10
129.6747050900424
 20
302.4047225457469
 30
0.0
 10
129.7232850427775
 20
302.4525969117253
 30
0.0
 10
129.7675034508037
 20
302.5043916556478
 30
0.0
 10
129.8084448672642
 20
302.5587840577558
 30
0.0
 10
129.8332634512984
 20
302.5967568547046
 30
0.0
 10
129.8456720468
 20
302.6157421875
 30
0.0
 11
129.4297851563
 21
302.2982421875
 31
0.0
 11
129.4637988491337
 21
302.3003378590098
 31
0.0
 11
129.4973806037561
 21
302.3064384318349
 31
0.0
 11
129.5300566858118
 21
302.3162411858095
 31
0.0
 11
129.5615560902531
 21
302.3293140719643
 31
0.0
 11
129.6203754045739
 21
302.3634125287833
 31
0.0
 11
129.6739392963179
 21
302.4056292792288
 31
0.0
 11
129.7225806091348
 21
302.4532740079298
 31
0.0
 11
129.7669558117273
 21
302.5048225896711
 31
0.0
 11
129.8078269473589
 21
302.5592133301614
 31
0.0
 11
129.8456720468
 21
302.6157421875
 31
0.0
  0
SPLINE
  5
13B
330
1F
100
AcDbEntity
  8
VERERBUNG
  6
Continuous
 62
     7
100
AcDbSpline
210
0.0
220
0.0
230
1.0
 70
     8
 71
     3
 72
    43
 73
    39
 74
    37
 42
0.0000000001
 43
0.0000000001
 44
0.00000001
 40
0.0
 40
0.0
 40
0.0
 40
0.0
 40
0.4175881290579682
 40
0.8356316531791139
 40
1.25328283205921
 40
1.670787328090271
 40
2.088079154548229
 40
2.505458237142338
 40
2.922766757530212
 40
3.339867556098002
 40
3.548612846012918
 40
3.757291312444618
 40
3.966036487539934
 40
4.174848410699627
 40
4.592416990854089
 40
5.01018734414574
 40
5.428059866850367
 40
5.845880990790535
 40
6.263484877137979
 40
6.68110357874574
 40
7.097989619701763
 40
7.514858051212913
 40
7.930683045128777
 40
8.34655796175748
 40
8.761608457051482
 40
9.17645823457856
 40
9.383846863112531
 40
9.591169424590207
 40
9.79849292077549
 40
10.00588294521743
 40
10.4207292363813
 40
10.83577763650986
 40
11.25173036427001
 40
11.66760664540116
 40
12.08452417586567
 40
12.50157511615804
 40
12.91952009632543
 40
13.33702821006144
 40
13.33702821006144
 40
13.33702821006144
 40
13.33702821006144
 10
97.305411446
 20
294.5982421875
 30
0.0
 10
97.30933232542955
 20
294.7374974660832
 30
0.0
 10
97.31717836015052
 20
295.0161598862028
 30
0.0
 10
97.38132996022088
 20
295.4300119450033
 30
0.0
 10
97.48274041681009
 20
295.8357792570282
 30
0.0
 10
97.62418770981947
 20
296.2293524902962
 30
0.0
 10
97.80356775021068
 20
296.6069606329312
 30
0.0
 10
98.01923504508666
 20
296.9650459725791
 30
0.0
 10
98.26915515295434
 20
297.3000056581261
 30
0.0
 10
98.50382517793423
 20
297.5574231462035
 30
0.0
 10
98.7059935632573
 20
297.7486327269288
 30
0.0
 10
98.8645771193528
 20
297.8844740618193
 30
0.0
 10
99.02965860487527
 20
298.0123761947411
 30
0.0
 10
99.25790914651695
 20
298.1718955638564
 30
0.0
 10
99.55766827452484
 20
298.3499626874324
 30
0.0
 10
99.93652100777454
 20
298.5275043647821
 30
0.0
 10
100.3310635212801
 20
298.6670559994308
 30
0.0
 10
100.737276423357
 20
298.7674351287571
 30
0.0
 10
101.1512725484452
 20
298.8276050617602
 30
0.0
 10
101.5688480925916
 20
298.8471886408183
 30
0.0
 10
101.9860914101589
 20
298.8258801069263
 30
0.0
 10
102.398692285702
 20
298.7641668536004
 30
0.0
 10
102.8029541489643
 20
298.6624973641664
 30
0.0
 10
103.1948194633379
 20
298.5221100001797
 30
0.0
 10
103.5707248110171
 20
298.3441428272496
 30
0.0
 10
103.8678411212606
 20
298.1661210091364
 30
0.0
 10
104.0939840397879
 20
298.0068288803396
 30
0.0
 10
104.2574996817889
 20
297.8791957834354
 30
0.0
 10
104.4145640317009
 20
297.7437020051171
 30
0.0
 10
104.6148939976791
 20
297.5529611855496
 30
0.0
 10
104.8474548887757
 20
297.2962809317283
 30
0.0
 10
105.0952742309007
 20
296.9622360235298
 30
0.0
 10
105.3091740460207
 20
296.605079874553
 30
0.0
 10
105.4872744180728
 20
296.2281407885845
 30
0.0
 10
105.6278288285947
 20
295.8351785124916
 30
0.0
 10
105.7286782590659
 20
295.4297137940052
 30
0.0
 10
105.7923629459619
 20
295.0160656667
 30
0.0
 10
105.8002282639374
 20
294.737468120124
 30
0.0
 10
105.8041588665
 20
294.5982421875
 30
0.0
 11
97.305411446
 21
294.5982421875
 31
0.0
 11
97.3258963989913
 21
295.015327565128
 31
0.0
 11
97.38756809958977
 21
295.4287970191447
 31
0.0
 11
97.48943910508724
 21
295.8338338143361
 31
0.0
 11
97.63054229486855
 21
296.2267713335929
 31
0.0
 11
97.80960666996337
 21
296.6036909775497
 31
0.0
 11
98.02496356246846
 21
296.9612195882057
 31
0.0
 11
98.27447927941273
 21
297.2957166856312
 31
0.0
 11
98.55550458961947
 21
297.6039338999284
 31
0.0
 11
98.70715847858813
 21
297.7473762019956
 31
0.0
 11
98.86563988253597
 21
297.8831346159338
 31
0.0
 11
99.03065363304266
 21
298.0109822215793
 31
0.0
 11
99.20181190175737
 21
298.1305952070961
 31
0.0
 11
99.56078756930631
 21
298.3439024719513
 31
0.0
 11
99.93909172491189
 21
298.5211538018221
 31
0.0
 11
100.3330341164195
 21
298.6605339919668
 31
0.0
 11
100.7386585284721
 21
298.7607503975979
 31
0.0
 11
101.1519160665273
 21
298.8208437677236
 31
0.0
 11
101.569077911108
 21
298.8403726017531
 31
0.0
 11
101.9854226240394
 21
298.8191346367353
 31
0.0
 11
102.3976987777768
 21
298.7574283789488
 31
0.0
 11
102.8009689699447
 21
298.656020402566
 31
0.0
 11
103.1924632131441
 21
298.5157199969265
 31
0.0
 11
103.5676076703561
 21
298.3381431125441
 31
0.0
 11
103.9234402370838
 21
298.1248744501246
 31
0.0
 11
104.0929925994469
 21
298.0054506683125
 31
0.0
 11
104.2564242802331
 21
297.8778860563974
 31
0.0
 11
104.4134060065854
 21
297.7424616506873
 31
0.0
 11
104.5636005080618
 21
297.5994503435668
 31
0.0
 11
104.8421660940077
 21
297.2920440007256
 31
0.0
 11
105.0894210257452
 21
296.958682075514
 31
0.0
 11
105.3031708751926
 21
296.6018520409145
 31
0.0
 11
105.4808611297663
 21
296.2258477129647
 31
0.0
 11
105.6211647914953
 21
295.8332472675827
 31
0.0
 11
105.7224175097401
 21
295.4286741915547
 31
0.0
 11
105.78372259616
 21
295.0152498419741
 31
0.0
 11
105.8041588665
 21
294.5982421875
 31
0.0
  0
SPLINE
  5
13C
330
1F
100
AcDbEntity
  8
VERERBUNG
  6
Continuous
 62
     7
100
AcDbSpline
210
0.0
220
0.0
230
1.0
 70
     8
 71
     3
 72
    43
 73
    39
 74
    37
 42
0.0000000001
 43
0.0000000001
 44
0.00000001
 40
0.0
 40
0.0
 40
0.0
 40
0.0
 40
0.41750351093135
 40
0.8354555648369524
 40
1.252511183718294
 40
1.669422664489074
 40
2.08529542578044
 40
2.501251326593788
 40
2.916298094076059
 40
3.331138757720663
 40
3.538526232960956
 40
3.745847790923705
 40
3.953170095075965
 40
4.160558348169734
 40
4.575407544414084
 40
4.990456744673144
 40
5.406332394472126
 40
5.822158816104723
 40
6.239027280541914
 40
6.655913113587745
 40
7.073532178577686
 40
7.491136194379885
 40
7.908956414466696
 40
8.326828662534721
 40
8.744600199964317
 40
9.162169349396171
 40
9.370981458445735
 40
9.579726706221857
 40
9.788406630770707
 40
9.997153926495514
 40
10.41425933407882
 40
10.83156890842469
 40
11.24894510855349
 40
11.66624011603396
 40
12.08375102630007
 40
12.50139861936393
 40
12.91943544780599
 40
13.33702799558849
 40
13.33702799558849
 40
13.33702799558849
 40
13.33702799558849
 10
105.8041588665
 20
294.5982421875
 30
0.0
 10
105.8002542870039
 20
294.4590159805994
 30
0.0
 10
105.7924409331447
 20
294.180413989764
 30
0.0
 10
105.7286513386695
 20
293.7667767066467
 30
0.0
 10
105.6278146738582
 20
293.3613111904932
 30
0.0
 10
105.4872887970364
 20
292.9683389354662
 30
0.0
 10
105.3091767485784
 20
292.5914066172957
 30
0.0
 10
105.0952632178915
 20
292.2342604308895
 30
0.0
 10
104.8474610748069
 20
291.9002055696009
 30
0.0
 10
104.6149130044148
 20
291.6435170452788
 30
0.0
 10
104.4145804934594
 20
291.4527835418855
 30
0.0
 10
104.2575118267002
 20
291.3172972116852
 30
0.0
 10
104.093993450675
 20
291.1896691029816
 30
0.0
 10
103.8678491860941
 20
291.0303797314642
 30
0.0
 10
103.5707371084307
 20
290.8523529949979
 30
0.0
 10
103.1948365824495
 20
290.6743760612369
 30
0.0
 10
102.8029709741069
 20
290.533987795627
 30
0.0
 10
102.3987078062457
 20
290.4323206642542
 30
0.0
 10
101.9861067027147
 20
290.37060678906
 30
0.0
 10
101.568863456295
 20
290.3492960898685
 30
0.0
 10
101.151287693982
 20
290.3688771779533
 30
0.0
 10
100.7372914400948
 20
290.4290459737068
 30
0.0
 10
100.3310793626171
 20
290.529427205488
 30
0.0
 10
99.93653693336023
 20
290.6689783183962
 30
0.0
 10
99.55767989505202
 20
290.8465115390277
 30
0.0
 10
99.25791696393344
 20
291.0245741011143
 30
0.0
 10
99.02966736644905
 20
291.18409542653
 30
0.0
 10
98.86458820195432
 20
291.3120015766776
 30
0.0
 10
98.7060085292562
 20
291.4478492827899
 30
0.0
 10
98.50384262008777
 20
291.6390651819194
 30
0.0
 10
98.26916171612046
 20
291.8964752680858
 30
0.0
 10
98.01922675441094
 20
292.2314259907754
 30
0.0
 10
97.80357119971114
 20
292.5895197722587
 30
0.0
 10
97.62420073790146
 20
292.9671339809816
 30
0.0
 10
97.48272807163966
 20
293.3606988749203
 30
0.0
 10
97.38130775251958
 20
293.7664665033217
 30
0.0
 10
97.3172557827289
 20
294.1803290918576
 30
0.0
 10
97.30935815859468
 20
294.4589872071825
 30
0.0
 10
97.305411446
 20
294.5982421875
 30
0.0
 11
105.8041588665
 21
294.5982421875
 31
0.0
 11
105.7837704839877
 21
294.1812367972488
 31
0.0
 11
105.7224099412267
 21
293.7678135236466
 31
0.0
 11
105.62115208031
 21
293.3632369118126
 31
0.0
 11
105.4808691496678
 21
292.9706354826648
 31
0.0
 11
105.3031743847829
 21
292.594637179322
 31
0.0
 11
105.0894141870955
 21
292.2378096449219
 31
0.0
 11
104.8421708788493
 21
291.9044411315242
 31
0.0
 11
104.5636179011679
 21
291.5970309579159
 31
0.0
 11
104.413422335273
 21
291.4540244655037
 31
0.0
 11
104.2564372147894
 21
291.3186069616762
 31
0.0
 11
104.0930023392478
 21
291.1910468611129
 31
0.0
 11
103.9234490459897
 21
291.0716250529428
 31
0.0
 11
103.5676197923322
 21
290.8583519935421
 31
0.0
 11
103.1924802071409
 21
290.6807678437478
 31
0.0
 11
102.8009859162231
 21
290.5404653980297
 31
0.0
 11
102.3977139700926
 21
290.4390585422855
 31
0.0
 11
101.9854378281685
 21
290.3773519831335
 31
0.0
 11
101.5690934224578
 21
290.3561120766431
 31
0.0
 11
101.1519311112373
 21
290.3756387133283
 31
0.0
 11
100.7386733306782
 21
290.4357313153812
 31
0.0
 11
100.3330500895431
 21
290.5359486919405
 31
0.0
 11
99.93910744578812
 21
290.6753273457466
 31
0.0
 11
99.56079900829589
 21
290.8525723276458
 31
0.0
 11
99.2018202214925
 21
291.0658754574457
 31
0.0
 11
99.03066268107953
 21
291.1854898096176
 31
0.0
 11
98.8656516618177
 21
291.3133410590885
 31
0.0
 11
98.70717334710089
 21
291.4491053204913
 31
0.0
 11
98.55552058559714
 21
291.5925517334848
 31
0.0
 11
98.2744845734147
 21
291.900765427035
 31
0.0
 11
98.0249589065034
 21
292.235256417038
 31
0.0
 11
97.80961083980198
 21
292.5927869788113
 31
0.0
 11
97.63054993937241
 21
292.9697117951944
 31
0.0
 11
97.48942823653748
 21
293.3626494813232
 31
0.0
 11
97.3875638508679
 21
293.7676842439352
 31
0.0
 11
97.32594467822796
 21
294.1811547598091
 31
0.0
 11
97.305411446
 21
294.5982421875
 31
0.0
  0
SPLINE
  5
13D
330
1F
100
AcDbEntity
  8
0
  6
Continuous
 62
     7
100
AcDbSpline
210
0.0
220
0.0
230
1.0
 70
     8
 71
     3
 72
    17
 73
    13
 74
    11
 42
0.0000000001
 43
0.0000000001
 44
0.00000001
 40
0.0
 40
0.0
 40
0.0
 40
0.0
 40
0.0680405843733825
 40
0.1360892263915591
 40
0.2041088007279082
 40
0.2721966989084714
 40
0.3403905143233491
 40
0.408376837654004
 40
0.4424735707235522
 40
0.4765783279409198
 40
0.5107080465916147
 40
0.5447863433143347
 40
0.5447863433143347
 40
0.5447863433143347
 40
0.5447863433143347
 10
129.8456720468
 20
286.5807421875
 30
0.0
 10
129.8332612745978
 20
286.5997312408347
 30
0.0
 10
129.8084382604589
 20
286.6377115962655
 30
0.0
 10
129.7674916691503
 20
286.692111867555
 30
0.0
 10
129.7232682653882
 20
286.7439089715487
 30
0.0
 10
129.6746836036472
 20
286.7917765007994
 30
0.0
 10
129.6213410293705
 20
286.8343400803568
 30
0.0
 10
129.572191308915
 20
286.8632750130647
 30
0.0
 10
129.5302414084317
 20
286.8808132179562
 30
0.0
 10
129.4975259002074
 20
286.8906416745601
 30
0.0
 10
129.4638991771355
 20
286.8970083143799
 30
0.0
 10
129.4411507799168
 20
286.8978311032263
 30
0.0
 10
129.4297851563
 20
286.8982421875
 30
0.0
 11
129.8456720468
 21
286.5807421875
 31
0.0
 11
129.8078202880215
 21
286.6372821333723
 31
0.0
 11
129.7669411952284
 21
286.6916835805308
 31
0.0
 11
129.722562648818
 21
286.7432316853591
 31
0.0
 11
129.6739151225863
 21
286.7908696961297
 31
0.0
 11
129.6203475530338
 21
286.8330705486457
 31
0.0
 11
129.5615315504089
 21
286.8671706658779
 31
0.0
 11
129.5300449083361
 21
286.8802541889889
 31
0.0
 11
129.4973810826108
 21
286.8900628052951
 31
0.0
 11
129.4637994652611
 21
286.8961548223139
 31
0.0
 11
129.4297851563
 21
286.8982421875
 31
0.0
  0
SPLINE
  5
13E
330
1F
100
AcDbEntity
  8
VERERBUNG
  6
Continuous
 62
     7
100
AcDbSpline
210
0.0
220
0.0
230
1.0
 70
     8
 71
     3
 72
    11
 73
     7
 74
     5
 42
0.0000000001
 43
0.0000000001
 44
0.00000001
 40
0.0
 40
0.0
 40
0.0
 40
0.0
 40
0.489100209656834
 40
0.9783817006612734
 40
1.283670603044707
 40
1.588797103092534
 40
1.588797103092534
 40
1.588797103092534
 40
1.588797103092534
 10
79.5547851563
 20
302.2281238674
 30
0.0
 10
79.54401439867632
 20
302.3912770607024
 30
0.0
 10
79.5224688913279
 20
302.7176439188223
 30
0.0
 10
79.3989553613294
 20
303.1302628213159
 30
0.0
 10
79.26617495789483
 20
303.4719780257003
 30
0.0
 10
79.1763749110057
 20
303.6546967913615
 30
0.0
 10
79.1314868333093
 20
303.746031867831
 30
0.0
 11
79.5547851563
 21
302.2281238674
 31
0.0
 11
79.50433125235374
 21
302.7146147909154
 31
0.0
 11
79.37386301873019
 21
303.1861807114978
 31
0.0
 11
79.26212900099071
 21
303.470287774413
 31
0.0
 11
79.1314868333093
 21
303.746031867831
 31
0.0
  0
SPLINE
  5
13F
330
1F
100
AcDbEntity
  8
VERERBUNG
  6
Continuous
 62
     7
100
AcDbSpline
210
0.0
220
0.0
230
1.0
 70
     8
 71
     3
 72
    11
 73
     7
 74
     5
 42
0.0000000001
 43
0.0000000001
 44
0.00000001
 40
0.0
 40
0.0
 40
0.0
 40
0.0
 40
0.5427795452575496
 40
1.085508812873482
 40
1.337448492160592
 40
1.589025708922341
 40
1.589025708922341
 40
1.589025708922341
 40
1.589025708922341
 10
79.1314868333093
 20
285.450452507169
 30
0.0
 10
79.20921717079011
 20
285.6140728641801
 30
0.0
 10
79.36467064559454
 20
285.9412984220569
 30
0.0
 10
79.48859216771308
 20
286.3719113184389
 30
0.0
 10
79.54614653319629
 20
286.7165443444912
 30
0.0
 10
79.5519069975113
 20
286.8844620790786
 30
0.0
 10
79.5547851563
 20
286.9683605076
 30
0.0
 11
79.1314868333093
 21
285.450452507169
 31
0.0
 11
79.35095770803866
 21
285.9468819280291
 31
0.0
 11
79.50158175117912
 21
286.4682910337752
 31
0.0
 11
79.54067402948655
 21
286.7171793536619
 31
0.0
 11
79.5547851563
 21
286.9683605076
 31
0.0
  0
DIMENSION
  5
14A
330
1F
100
AcDbEntity
  8
1
100
AcDbDimension
  2
*D2
 10
196.008282400624
 20
307.0982421875
 30
0.0
 11
192.258282400624
 21
294.791990934882
 31
0.0
 70
    32
  1
<>
 71
     5
 42
-1.0
 53
90.0
  3
ME10_DIM_10
100
AcDbAlignedDimension
 13
173.5547851563
 23
282.0982421875
 33
0.0
 14
173.5547851563
 24
307.0982421875
 34
0.0
 50
90.0
100
AcDbRotatedDimension
  0
DIMENSION
  5
155
330
1F
100
AcDbEntity
  8
1
100
AcDbDimension
  2
*D3
 10
204.391019604828
 20
315.5982421875
 30
0.0
 11
200.641019604828
 21
295.497905646815
 31
0.0
 70
    32
  1
<>
 71
     5
 42
-1.0
 53
90.0
  3
ME10_DIM_11
100
AcDbAlignedDimension
 13
181.08032057
 23
273.5982421875
 33
0.0
 14
181.08032057
 24
315.5982421875
 34
0.0
 50
90.0
100
AcDbRotatedDimension
  0
DIMENSION
  5
160
330
1F
100
AcDbEntity
  8
1
100
AcDbDimension
  2
*D4
 10
173.5547851562
 20
333.950833450692
 30
0.0
 11
154.821699017246
 21
337.700833450692
 31
0.0
 70
    32
  1
<>
 71
     5
 42
-1.0
 53
0.00013888888889
  3
ME10_DIM_12
100
AcDbAlignedDimension
 13
136.5547851563
 23
326.0982421875
 33
0.0
 14
173.5547851562
 24
310.5982421875
 34
0.0
100
AcDbRotatedDimension
  0
DIMENSION
  5
16B
330
1F
100
AcDbEntity
  8
1
100
AcDbDimension
  2
*D5
 10
173.5547851562
 20
342.305333854513
 30
0.0
 11
143.682365145484
 21
346.055333854513
 31
0.0
 70
    32
  1
<>
 71
     5
 42
-1.0
 53
0.00013888888889
  3
ME10_DIM_13
100
AcDbAlignedDimension
 13
110.5547851563
 23
326.0982421875
 33
0.0
 14
173.5547851562
 24
310.5982421875
 34
0.0
100
AcDbRotatedDimension
  0
DIMENSION
  5
176
330
1F
100
AcDbEntity
  8
1
100
AcDbDimension
  2
*D6
 10
110.5547851563
 20
351.166167616142
 30
0.0
 11
148.998865402461
 21
354.916167616142
 31
0.0
 70
    32
  1
<>
 71
     5
 42
-1.0
 53
0.00013888888889
  3
ME10_DIM_14
100
AcDbAlignedDimension
 13
185.5547851563
 23
309.0982421875
 33
0.0
 14
110.5547851563
 24
326.0982421875
 34
0.0
100
AcDbRotatedDimension
  0
DIMENSION
  5
181
330
1F
100
AcDbEntity
  8
1
100
AcDbDimension
  2
*D7
 10
78.5547851563
 20
359.234700586884
 30
0.0
 11
136.584195700529
 21
362.984700586884
 31
0.0
 70
    32
  1
<>
 71
     5
 42
-1.0
 53
0.00013888888889
  3
ME10_DIM_15
100
AcDbAlignedDimension
 13
173.5547851562
 23
310.5982421875
 33
0.0
 14
78.5547851563
 24
316.1742693676
 34
0.0
100
AcDbRotatedDimension
  0
INSERT
  5
188
330
1F
100
AcDbEntity
  8
1
100
AcDbBlockReference
  2
*D8
 10
0.0
 20
0.0
 30
0.0
  0
ENDSEC
  0
SECTION
  2
OBJECTS
  0
DICTIONARY
  5
C
330
0
100
AcDbDictionary
281
     1
  3
ACAD_GROUP
350
D
  3
ACAD_LAYOUT
350
1A
  3
ACAD_MLEADERSTYLE
350
18B
  3
ACAD_MLINESTYLE
350
17
  3
ACAD_PLOTSETTINGS
350
19
  3
ACAD_PLOTSTYLENAME
350
E
  3
ACAD_SCALELIST
350
4C
  3
ACAD_VISUALSTYLE
350
2A
  3
AcDbVariableDictionary
350
189
  0
DICTIONARY
  5
D
102
{ACAD_REACTORS
330
C
102
}
330
C
100
AcDbDictionary
281
     1
  0
DICTIONARY
  5
1A
102
{ACAD_REACTORS
330
C
102
}
330
C
100
AcDbDictionary
281
     1
  3
Layout1
350
1E
  3
Layout2
350
26
  3
Model
350
22
  0
DICTIONARY
  5
18B
102
{ACAD_REACTORS
330
C
102
}
330
C
100
AcDbDictionary
281
     1
  0
DICTIONARY
  5
17
102
{ACAD_REACTORS
330
C
102
}
330
C
100
AcDbDictionary
281
     1
  3
Standard
350
18
  0
DICTIONARY
  5
19
102
{ACAD_REACTORS
330
C
102
}
330
C
100
AcDbDictionary
281
     1
  0
ACDBDICTIONARYWDFLT
  5
E
102
{ACAD_REACTORS
330
C
102
}
330
C
100
AcDbDictionary
281
     1
  3
Normal
350
F
100
AcDbDictionaryWithDefault
340
F
  0
DICTIONARY
  5
4C
102
{ACAD_REACTORS
330
C
102
}
330
C
100
AcDbDictionary
281
     1
  3
A0
350
4D
  3
A1
350
4E
  3
A2
350
4F
  3
A3
350
50
  3
A4
350
51
  3
A5
350
52
  3
A6
350
53
  3
A7
350
54
  3
A8
350
55
  3
A9
350
56
  3
B0
350
57
  3
B1
350
58
  3
B2
350
59
  3
B3
350
5A
  3
B4
350
5B
  3
B5
350
5C
  3
B6
350
5D
  3
B7
350
5E
  3
B8
350
5F
  3
B9
350
60
  3
C0
350
61
  3
C1
350
62
  3
C2
350
63
  3
C3
350
64
  3
C4
350
65
  3
C5
350
66
  3
C6
350
67
  3
C7
350
68
  3
C8
350
69
  3
C9
350
6A
  3
D0
350
6B
  3
D1
350
6C
  3
D2
350
6D
  0
DICTIONARY
  5
2A
102
{ACAD_REACTORS
330
C
102
}
330
C
100
AcDbDictionary
281
     1
  3
2dWireframe
350
2F
  3
3D Hidden
350
31
  3
3dWireframe
350
30
  3
Basic
350
32
  3
Brighten
350
36
  3
ColorChange
350
3A
  3
Conceptual
350
34
  3
Dim
350
35
  3
Facepattern
350
39
  3
Flat
350
2B
  3
FlatWithEdges
350
2C
  3
Gouraud
350
2D
  3
GouraudWithEdges
350
2E
  3
Linepattern
350
38
  3
Realistic
350
33
  3
Thicken
350
37
  0
DICTIONARY
  5
189
102
{ACAD_REACTORS
330
C
102
}
330
C
100
AcDbDictionary
281
     1
  3
CANNOSCALE
350
18C
  0
LAYOUT
  5
1E
102
{ACAD_REACTORS
330
1A
102
}
330
1A
100
AcDbPlotSettings
  1

  2
none_device
  4

  6

 40
0.0
 41
0.0
 42
0.0
 43
0.0
 44
0.0
 45
0.0
 46
0.0
 47
0.0
 48
0.0
 49
0.0
140
0.0
141
0.0
142
1.0
143
1.0
 70
   688
 72
     0
 73
     0
 74
     5
  7

 75
    16
147
1.0
148
0.0
149
0.0
100
AcDbLayout
  1
Layout1
 70
     1
 71
     1
 10
0.0
 20
0.0
 11
12.0
 21
9.0
 12
0.0
 22
0.0
 32
0.0
 14
1.00000000000000E+20
 24
1.00000000000000E+20
 34
1.00000000000000E+20
 15
-1.00000000000000E+20
 25
-1.00000000000000E+20
 35
-1.00000000000000E+20
146
0.0
 13
0.0
 23
0.0
 33
0.0
 16
1.0
 26
0.0
 36
0.0
 17
0.0
 27
1.0
 37
0.0
 76
     0
330
1B
  0
LAYOUT
  5
26
102
{ACAD_REACTORS
330
1A
102
}
330
1A
100
AcDbPlotSettings
  1

  2
none_device
  4

  6

 40
0.0
 41
0.0
 42
0.0
 43
0.0
 44
0.0
 45
0.0
 46
0.0
 47
0.0
 48
0.0
 49
0.0
140
0.0
141
0.0
142
1.0
143
1.0
 70
   688
 72
     0
 73
     0
 74
     5
  7

 75
    16
147
1.0
148
0.0
149
0.0
100
AcDbLayout
  1
Layout2
 70
     1
 71
     2
 10
0.0
 20
0.0
 11
0.0
 21
0.0
 12
0.0
 22
0.0
 32
0.0
 14
0.0
 24
0.0
 34
0.0
 15
0.0
 25
0.0
 35
0.0
146
0.0
 13
0.0
 23
0.0
 33
0.0
 16
1.0
 26
0.0
 36
0.0
 17
0.0
 27
1.0
 37
0.0
 76
     0
330
23
  0
LAYOUT
  5
22
102
{ACAD_REACTORS
330
1A
102
}
330
1A
100
AcDbPlotSettings
  1

  2
none_device
  4

  6

 40
0.0
 41
0.0
 42
0.0
 43
0.0
 44
0.0
 45
0.0
 46
0.0
 47
0.0
 48
0.0
 49
0.0
140
0.0
141
0.0
142
1.0
143
1.0
 70
  1712
 72
     0
 73
     0
 74
     0
  7

 75
     0
147
1.0
148
0.0
149
0.0
100
AcDbLayout
  1
Model
 70
     1
 71
     0
 10
0.0
 20
0.0
 11
12.0
 21
9.0
 12
0.0
 22
0.0
 32
0.0
 14
57.7074535497034
 24
259.1410683298898
 34
0.0
 15
206.391019604828
 25
367.910455247196
 35
0.0
146
0.0
 13
0.0
 23
0.0
 33
0.0
 16
1.0
 26
0.0
 36
0.0
 17
0.0
 27
1.0
 37
0.0
 76
     0
330
1F
331
29
  0
MLINESTYLE
  5
18
102
{ACAD_REACTORS
330
17
102
}
330
17
100
AcDbMlineStyle
  2
Standard
 70
     0
  3

 62
   256
 51
90.0
 52
90.0
 71
     2
 49
0.5
 62
   256
  6
BYLAYER
 49
-0.5
 62
   256
  6
BYLAYER
  0
ACDBPLACEHOLDER
  5
F
102
{ACAD_REACTORS
330
E
102
}
330
E
  0
SCALE
  5
4D
102
{ACAD_REACTORS
330
4C
102
}
330
4C
100
AcDbScale
 70
     0
300
1:1
140
1.0
141
1.0
290
     1
  0
SCALE
  5
4E
102
{ACAD_REACTORS
330
4C
102
}
330
4C
100
AcDbScale
 70
     0
300
1:2
140
1.0
141
2.0
290
     0
  0
SCALE
  5
4F
102
{ACAD_REACTORS
330
4C
102
}
330
4C
100
AcDbScale
 70
     0
300
1:4
140
1.0
141
4.0
290
     0
  0
SCALE
  5
50
102
{ACAD_REACTORS
330
4C
102
}
330
4C
100
AcDbScale
 70
     0
300
1:5
140
1.0
141
5.0
290
     0
  0
SCALE
  5
51
102
{ACAD_REACTORS
330
4C
102
}
330
4C
100
AcDbScale
 70
     0
300
1:8
140
1.0
141
8.0
290
     0
  0
SCALE
  5
52
102
{ACAD_REACTORS
330
4C
102
}
330
4C
100
AcDbScale
 70
     0
300
1:10
140
1.0
141
10.0
290
     0
  0
SCALE
  5
53
102
{ACAD_REACTORS
330
4C
102
}
330
4C
100
AcDbScale
 70
     0
300
1:16
140
1.0
141
16.0
290
     0
  0
SCALE
  5
54
102
{ACAD_REACTORS
330
4C
102
}
330
4C
100
AcDbScale
 70
     0
300
1:20
140
1.0
141
20.0
290
     0
  0
SCALE
  5
55
102
{ACAD_REACTORS
330
4C
102
}
330
4C
100
AcDbScale
 70
     0
300
1:30
140
1.0
141
30.0
290
     0
  0
SCALE
  5
56
102
{ACAD_REACTORS
330
4C
102
}
330
4C
100
AcDbScale
 70
     0
300
1:40
140
1.0
141
40.0
290
     0
  0
SCALE
  5
57
102
{ACAD_REACTORS
330
4C
102
}
330
4C
100
AcDbScale
 70
     0
300
1:50
140
1.0
141
50.0
290
     0
  0
SCALE
  5
58
102
{ACAD_REACTORS
330
4C
102
}
330
4C
100
AcDbScale
 70
     0
300
1:100
140
1.0
141
100.0
290
     0
  0
SCALE
  5
59
102
{ACAD_REACTORS
330
4C
102
}
330
4C
100
AcDbScale
 70
     0
300
2:1
140
2.0
141
1.0
290
     0
  0
SCALE
  5
5A
102
{ACAD_REACTORS
330
4C
102
}
330
4C
100
AcDbScale
 70
     0
300
4:1
140
4.0
141
1.0
290
     0
  0
SCALE
  5
5B
102
{ACAD_REACTORS
330
4C
102
}
330
4C
100
AcDbScale
 70
     0
300
8:1
140
8.0
141
1.0
290
     0
  0
SCALE
  5
5C
102
{ACAD_REACTORS
330
4C
102
}
330
4C
100
AcDbScale
 70
     0
300
10:1
140
10.0
141
1.0
290
     0
  0
SCALE
  5
5D
102
{ACAD_REACTORS
330
4C
102
}
330
4C
100
AcDbScale
 70
     0
300
100:1
140
100.0
141
1.0
290
     0
  0
SCALE
  5
5E
102
{ACAD_REACTORS
330
4C
102
}
330
4C
100
AcDbScale
 70
     0
300
1/128" = 1'-0"
140
0.0078125
141
12.0
290
     0
  0
SCALE
  5
5F
102
{ACAD_REACTORS
330
4C
102
}
330
4C
100
AcDbScale
 70
     0
300
1/64" = 1'-0"
140
0.015625
141
12.0
290
     0
  0
SCALE
  5
60
102
{ACAD_REACTORS
330
4C
102
}
330
4C
100
AcDbScale
 70
     0
300
1/32" = 1'-0"
140
0.03125
141
12.0
290
     0
  0
SCALE
  5
61
102
{ACAD_REACTORS
330
4C
102
}
330
4C
100
AcDbScale
 70
     0
300
1/16" = 1'-0"
140
0.0625
141
12.0
290
     0
  0
SCALE
  5
62
102
{ACAD_REACTORS
330
4C
102
}
330
4C
100
AcDbScale
 70
     0
300
3/32" = 1'-0"
140
0.09375
141
12.0
290
     0
  0
SCALE
  5
63
102
{ACAD_REACTORS
330
4C
102
}
330
4C
100
AcDbScale
 70
     0
300
1/8" = 1'-0"
140
0.125
141
12.0
290
     0
  0
SCALE
  5
64
102
{ACAD_REACTORS
330
4C
102
}
330
4C
100
AcDbScale
 70
     0
300
3/16" = 1'-0"
140
0.1875
141
12.0
290
     0
  0
SCALE
  5
65
102
{ACAD_REACTORS
330
4C
102
}
330
4C
100
AcDbScale
 70
     0
300
1/4" = 1'-0"
140
0.25
141
12.0
290
     0
  0
SCALE
  5
66
102
{ACAD_REACTORS
330
4C
102
}
330
4C
100
AcDbScale
 70
     0
300
3/8" = 1'-0"
140
0.375
141
12.0
290
     0
  0
SCALE
  5
67
102
{ACAD_REACTORS
330
4C
102
}
330
4C
100
AcDbScale
 70
     0
300
1/2" = 1'-0"
140
0.5
141
12.0
290
     0
  0
SCALE
  5
68
102
{ACAD_REACTORS
330
4C
102
}
330
4C
100
AcDbScale
 70
     0
300
3/4" = 1'-0"
140
0.75
141
12.0
290
     0
  0
SCALE
  5
69
102
{ACAD_REACTORS
330
4C
102
}
330
4C
100
AcDbScale
 70
     0
300
1" = 1'-0"
140
1.0
141
12.0
290
     0
  0
SCALE
  5
6A
102
{ACAD_REACTORS
330
4C
102
}
330
4C
100
AcDbScale
 70
     0
300
1-1/2" = 1'-0"
140
1.5
141
12.0
290
     0
  0
SCALE
  5
6B
102
{ACAD_REACTORS
330
4C
102
}
330
4C
100
AcDbScale
 70
     0
300
3" = 1'-0"
140
3.0
141
12.0
290
     0
  0
SCALE
  5
6C
102
{ACAD_REACTORS
330
4C
102
}
330
4C
100
AcDbScale
 70
     0
300
6" = 1'-0"
140
6.0
141
12.0
290
     0
  0
SCALE
  5
6D
102
{ACAD_REACTORS
330
4C
102
}
330
4C
100
AcDbScale
 70
     0
300
1'-0" = 1'-0"
140
12.0
141
12.0
290
     0
  0
VISUALSTYLE
  5
2F
102
{ACAD_REACTORS
330
2A
102
}
330
2A
100
AcDbVisualStyle
  2
2dWireframe
 70
     4
 71
     0
 72
     2
 73
     0
 90
        0
 40
-0.6
 41
-30.0
 62
     5
 63
     7
 74
     1
 91
        4
 64
     7
 65
   257
 75
     1
175
     1
 42
1.0
 92
        0
 66
   257
 43
1.0
 76
     1
 77
     6
 78
     2
 67
     7
 79
     5
170
     0
171
     0
290
     0
174
     0
 93
        1
 44
0.0
173
     0
291
     0
 45
0.0
1001
ACAD
1000
AcDbSavedByObjectVersion
1070
     0
  0
VISUALSTYLE
  5
31
102
{ACAD_REACTORS
330
2A
102
}
330
2A
100
AcDbVisualStyle
  2
3D Hidden
 70
     6
 71
     1
 72
     2
 73
     2
 90
        0
 40
-0.6
 41
-30.0
 62
     5
 63
     7
 74
     2
 91
        2
 64
     7
 65
   257
 75
     2
175
     1
 42
40.0
 92
        0
 66
   257
 43
1.0
 76
     1
 77
     6
 78
     2
 67
     7
 79
     3
170
     0
171
     0
290
     0
174
     0
 93
        1
 44
0.0
173
     0
291
     0
 45
0.0
1001
ACAD
1000
AcDbSavedByObjectVersion
1070
     0
  0
VISUALSTYLE
  5
30
102
{ACAD_REACTORS
330
2A
102
}
330
2A
100
AcDbVisualStyle
  2
3dWireframe
 70
     5
 71
     0
 72
     2
 73
     0
 90
        0
 40
-0.6
 41
-30.0
 62
     5
 63
     7
 74
     1
 91
        4
 64
     7
 65
   257
 75
     1
175
     1
 42
1.0
 92
        0
 66
   257
 43
1.0
 76
     1
 77
     6
 78
     2
 67
     7
 79
     5
170
     0
171
     0
290
     0
174
     0
 93
        1
 44
0.0
173
     0
291
     0
 45
0.0
1001
ACAD
1000
AcDbSavedByObjectVersion
1070
     0
  0
VISUALSTYLE
  5
32
102
{ACAD_REACTORS
330
2A
102
}
330
2A
100
AcDbVisualStyle
  2
Basic
 70
     7
 71
     1
 72
     0
 73
     1
 90
        0
 40
-0.6
 41
-30.0
 62
     5
 63
     7
 74
     0
 91
        4
 64
     7
 65
   257
 75
     1
175
     1
 42
1.0
 92
        8
 66
     7
 43
1.0
 76
     1
 77
     6
 78
     2
 67
     7
 79
     5
170
     0
171
     0
290
     0
174
     0
 93
        1
 44
0.0
173
     0
291
     1
 45
0.0
1001
ACAD
1000
AcDbSavedByObjectVersion
1070
     0
  0
VISUALSTYLE
  5
36
102
{ACAD_REACTORS
330
2A
102
}
330
2A
100
AcDbVisualStyle
  2
Brighten
 70
    12
 71
     2
 72
     2
 73
     0
 90
        0
 40
-0.6
 41
-30.0
 62
     5
 63
     7
 74
     1
 91
        4
 64
     7
 65
   257
 75
     1
175
     1
 42
1.0
 92
        8
 66
     7
 43
1.0
 76
     1
 77
     6
 78
     2
 67
     7
 79
     5
170
     0
171
     0
290
     0
174
     0
 93
        1
 44
50.0
173
     0
291
     1
 45
0.0
1001
ACAD
1000
AcDbSavedByObjectVersion
1070
     0
  0
VISUALSTYLE
  5
3A
102
{ACAD_REACTORS
330
2A
102
}
330
2A
100
AcDbVisualStyle
  2
ColorChange
 70
    16
 71
     2
 72
     2
 73
     3
 90
        0
 40
-0.6
 41
-30.0
 62
     5
 63
     8
 74
     1
 91
        4
 64
     7
 65
   257
 75
     1
175
     1
 42
1.0
 92
        8
 66
     8
 43
1.0
 76
     1
 77
     6
 78
     2
 67
     7
 79
     5
170
     0
171
     0
290
     0
174
     0
 93
        1
 44
0.0
173
     0
291
     1
 45
0.0
1001
ACAD
1000
AcDbSavedByObjectVersion
1070
     0
  0
VISUALSTYLE
  5
34
102
{ACAD_REACTORS
330
2A
102
}
330
2A
100
AcDbVisualStyle
  2
Conceptual
 70
     9
 71
     3
 72
     2
 73
     0
 90
        0
 40
-0.6
 41
-30.0
 62
     5
 63
     7
 74
     2
 91
        2
 64
     7
 65
   257
 75
     1
175
     1
 42
40.0
 92
        8
 66
     7
 43
1.0
 76
     1
 77
     6
 78
     2
 67
     7
 79
     3
170
     0
171
     0
290
     0
174
     0
 93
        1
 44
0.0
173
     0
291
     0
 45
0.0
1001
ACAD
1000
AcDbSavedByObjectVersion
1070
     0
  0
VISUALSTYLE
  5
35
102
{ACAD_REACTORS
330
2A
102
}
330
2A
100
AcDbVisualStyle
  2
Dim
 70
    11
 71
     2
 72
     2
 73
     0
 90
        0
 40
-0.6
 41
-30.0
 62
     5
 63
     7
 74
     1
 91
        4
 64
     7
 65
   257
 75
     1
175
     1
 42
1.0
 92
        8
 66
     7
 43
1.0
 76
     1
 77
     6
 78
     2
 67
     7
 79
     5
170
     0
171
     0
290
     0
174
     0
 93
        1
 44
-50.0
173
     0
291
     1
 45
0.0
1001
ACAD
1000
AcDbSavedByObjectVersion
1070
     0
  0
VISUALSTYLE
  5
39
102
{ACAD_REACTORS
330
2A
102
}
330
2A
100
AcDbVisualStyle
  2
Facepattern
 70
    15
 71
     2
 72
     2
 73
     0
 90
        0
 40
-0.6
 41
-30.0
 62
     5
 63
     7
 74
     1
 91
        4
 64
     7
 65
   257
 75
     1
175
     1
 42
1.0
 92
        8
 66
     7
 43
1.0
 76
     1
 77
     6
 78
     2
 67
     7
 79
     5
170
     0
171
     0
290
     0
174
     0
 93
        1
 44
0.0
173
     0
291
     1
 45
0.0
1001
ACAD
1000
AcDbSavedByObjectVersion
1070
     0
  0
VISUALSTYLE
  5
2B
102
{ACAD_REACTORS
330
2A
102
}
330
2A
100
AcDbVisualStyle
  2
Flat
 70
     0
 71
     2
 72
     1
 73
     1
 90
        2
 40
-0.6
 41
30.0
 62
     5
 63
     7
 74
     0
 91
        4
 64
     7
 65
   257
 75
     1
175
     1
 42
1.0
 92
        8
 66
     7
 43
1.0
 76
     1
 77
     6
 78
     2
 67
     7
 79
     5
170
     0
171
     0
290
     0
174
     0
 93
       13
 44
0.0
173
     0
291
     1
 45
0.0
1001
ACAD
1000
AcDbSavedByObjectVersion
1070
     0
  0
VISUALSTYLE
  5
2C
102
{ACAD_REACTORS
330
2A
102
}
330
2A
100
AcDbVisualStyle
  2
FlatWithEdges
 70
     1
 71
     2
 72
     1
 73
     1
 90
        2
 40
-0.6
 41
30.0
 62
     5
 63
     7
 74
     1
 91
        4
 64
     7
 65
   257
 75
     1
175
     1
 42
1.0
 92
        0
 66
   257
 43
1.0
 76
     1
 77
     6
 78
     2
 67
     7
 79
     5
170
     0
171
     0
290
     0
174
     0
 93
       13
 44
0.0
173
     0
291
     1
 45
0.0
1001
ACAD
1000
AcDbSavedByObjectVersion
1070
     0
  0
VISUALSTYLE
  5
2D
102
{ACAD_REACTORS
330
2A
102
}
330
2A
100
AcDbVisualStyle
  2
Gouraud
 70
     2
 71
     2
 72
     2
 73
     1
 90
        2
 40
-0.6
 41
30.0
 62
     5
 63
     7
 74
     0
 91
        4
 64
     7
 65
   257
 75
     1
175
     1
 42
1.0
 92
        0
 66
     7
 43
1.0
 76
     1
 77
     6
 78
     2
 67
     7
 79
     5
170
     0
171
     0
290
     0
174
     0
 93
       13
 44
0.0
173
     0
291
     1
 45
0.0
1001
ACAD
1000
AcDbSavedByObjectVersion
1070
     0
  0
VISUALSTYLE
  5
2E
102
{ACAD_REACTORS
330
2A
102
}
330
2A
100
AcDbVisualStyle
  2
GouraudWithEdges
 70
     3
 71
     2
 72
     2
 73
     1
 90
        2
 40
-0.6
 41
30.0
 62
     5
 63
     7
 74
     1
 91
        4
 64
     7
 65
   257
 75
     1
175
     1
 42
1.0
 92
        0
 66
   257
 43
1.0
 76
     1
 77
     6
 78
     2
 67
     7
 79
     5
170
     0
171
     0
290
     0
174
     0
 93
       13
 44
0.0
173
     0
291
     1
 45
0.0
1001
ACAD
1000
AcDbSavedByObjectVersion
1070
     0
  0
VISUALSTYLE
  5
38
102
{ACAD_REACTORS
330
2A
102
}
330
2A
100
AcDbVisualStyle
  2
Linepattern
 70
    14
 71
     2
 72
     2
 73
     0
 90
        0
 40
-0.6
 41
-30.0
 62
     5
 63
     7
 74
     1
 91
        4
 64
     7
 65
   257
 75
     7
175
     7
 42
1.0
 92
        8
 66
     7
 43
1.0
 76
     1
 77
     6
 78
     2
 67
     7
 79
     5
170
     0
171
     0
290
     0
174
     0
 93
        1
 44
0.0
173
     0
291
     1
 45
0.0
1001
ACAD
1000
AcDbSavedByObjectVersion
1070
     0
  0
VISUALSTYLE
  5
33
102
{ACAD_REACTORS
330
2A
102
}
330
2A
100
AcDbVisualStyle
  2
Realistic
 70
     8
 71
     2
 72
     2
 73
     0
 90
        0
 40
-0.6
 41
-30.0
 62
     5
 63
     7
 74
     1
 91
        0
 64
     7
 65
   257
 75
     1
175
     1
 42
1.0
 92
        8
 66
     8
 43
1.0
 76
     1
 77
     6
 78
     2
 67
     7
 79
     5
170
     0
171
     0
290
     0
174
     0
 93
       13
 44
0.0
173
     0
291
     0
 45
0.0
1001
ACAD
1000
AcDbSavedByObjectVersion
1070
     0
  0
VISUALSTYLE
  5
37
102
{ACAD_REACTORS
330
2A
102
}
330
2A
100
AcDbVisualStyle
  2
Thicken
 70
    13
 71
     2
 72
     2
 73
     0
 90
        0
 40
-0.6
 41
-30.0
 62
     5
 63
     7
 74
     1
 91
        4
 64
     7
 65
   257
 75
     1
175
     1
 42
1.0
 92
       12
 66
     7
 43
1.0
 76
     1
 77
     6
 78
     2
 67
     7
 79
     5
170
     0
171
     0
290
     0
174
     0
 93
        1
 44
0.0
173
     0
291
     1
 45
0.0
1001
ACAD
1000
AcDbSavedByObjectVersion
1070
     0
  0
DICTIONARYVAR
  5
18C
102
{ACAD_REACTORS
330
189
102
}
330
189
100
DictionaryVariables
280
     0
  1
1:1
  0
ENDSEC
  0
EOF
