  0
SECTION
  2
HEADER
  9
$ACADVER
  1
AC1015
  9
$ACADMAINTVER
 70
     6
  9
$DWGCODEPAGE
  3
ANSI_1252
  9
$INSBASE
 10
0.0
 20
0.0
 30
0.0
  9
$EXTMIN
 10
-13.82208146104919
 20
269.6413276231
 30
0.0
  9
$EXTMAX
 10
241.994593760726
 20
398.135265972006
 30
0.0
  9
$LIMMIN
 10
0.0
 20
0.0
  9
$LIMMAX
 10
12.0
 20
9.0
  9
$ORTHOMODE
 70
     0
  9
$REGENMODE
 70
     1
  9
$FILLMODE
 70
     1
  9
$QTEXTMODE
 70
     0
  9
$MIRRTEXT
 70
     1
  9
$LTSCALE
 40
1.0
  9
$ATTMODE
 70
     1
  9
$TEXTSIZE
 40
0.2
  9
$TRACEWID
 40
0.05
  9
$TEXTSTYLE
  7
Standard
  9
$CLAYER
  8
0
  9
$CELTYPE
  6
ByLayer
  9
$CECOLOR
 62
   256
  9
$CELTSCALE
 40
1.0
  9
$DISPSILH
 70
     0
  9
$DIMSCALE
 40
1.0
  9
$DIMASZ
 40
0.18
  9
$DIMEXO
 40
0.0625
  9
$DIMDLI
 40
0.38
  9
$DIMRND
 40
0.0
  9
$DIMDLE
 40
0.0
  9
$DIMEXE
 40
0.18
  9
$DIMTP
 40
0.0
  9
$DIMTM
 40
0.0
  9
$DIMTXT
 40
0.18
  9
$DIMCEN
 40
0.09
  9
$DIMTSZ
 40
0.0
  9
$DIMTOL
 70
     0
  9
$DIMLIM
 70
     0
  9
$DIMTIH
 70
     1
  9
$DIMTOH
 70
     1
  9
$DIMSE1
 70
     0
  9
$DIMSE2
 70
     0
  9
$DIMTAD
 70
     0
  9
$DIMZIN
 70
     0
  9
$DIMBLK
  1

  9
$DIMASO
 70
     1
  9
$DIMSHO
 70
     1
  9
$DIMPOST
  1

  9
$DIMAPOST
  1

  9
$DIMALT
 70
     0
  9
$DIMALTD
 70
     2
  9
$DIMALTF
 40
25.4
  9
$DIMLFAC
 40
1.0
  9
$DIMTOFL
 70
     0
  9
$DIMTVP
 40
0.0
  9
$DIMTIX
 70
     0
  9
$DIMSOXD
 70
     0
  9
$DIMSAH
 70
     0
  9
$DIMBLK1
  1

  9
$DIMBLK2
  1

  9
$DIMSTYLE
  2
Standard
  9
$DIMCLRD
 70
     0
  9
$DIMCLRE
 70
     0
  9
$DIMCLRT
 70
     0
  9
$DIMTFAC
 40
1.0
  9
$DIMGAP
 40
0.09
  9
$DIMJUST
 70
     0
  9
$DIMSD1
 70
     0
  9
$DIMSD2
 70
     0
  9
$DIMTOLJ
 70
     1
  9
$DIMTZIN
 70
     0
  9
$DIMALTZ
 70
     0
  9
$DIMALTTZ
 70
     0
  9
$DIMUPT
 70
     0
  9
$DIMDEC
 70
     4
  9
$DIMTDEC
 70
     4
  9
$DIMALTU
 70
     2
  9
$DIMALTTD
 70
     2
  9
$DIMTXSTY
  7
Standard
  9
$DIMAUNIT
 70
     0
  9
$DIMADEC
 70
     0
  9
$DIMALTRND
 40
0.0
  9
$DIMAZIN
 70
     0
  9
$DIMDSEP
 70
    46
  9
$DIMATFIT
 70
     3
  9
$DIMFRAC
 70
     0
  9
$DIMLDRBLK
  1

  9
$DIMLUNIT
 70
     2
  9
$DIMLWD
 70
    -2
  9
$DIMLWE
 70
    -2
  9
$DIMTMOVE
 70
     0
  9
$LUNITS
 70
     2
  9
$LUPREC
 70
     4
  9
$SKETCHINC
 40
0.1
  9
$FILLETRAD
 40
0.5
  9
$AUNITS
 70
     0
  9
$AUPREC
 70
     0
  9
$MENU
  1
.
  9
$ELEVATION
 40
0.0
  9
$PELEVATION
 40
0.0
  9
$THICKNESS
 40
0.0
  9
$LIMCHECK
 70
     0
  9
$CHAMFERA
 40
0.5
  9
$CHAMFERB
 40
0.5
  9
$CHAMFERC
 40
1.0
  9
$CHAMFERD
 40
0.0
  9
$SKPOLY
 70
     0
  9
$TDCREATE
 40
2456748.734787049
  9
$TDUCREATE
 40
2456748.651453715
  9
$TDUPDATE
 40
2456748.73478706
  9
$TDUUPDATE
 40
2456748.651453727
  9
$TDINDWG
 40
0.0000000116
  9
$TDUSRTIMER
 40
0.0000000116
  9
$USRTIMER
 70
     1
  9
$ANGBASE
 50
0.0
  9
$ANGDIR
 70
     0
  9
$PDMODE
 70
     0
  9
$PDSIZE
 40
0.0
  9
$PLINEWID
 40
0.0
  9
$SPLFRAME
 70
     0
  9
$SPLINETYPE
 70
     6
  9
$SPLINESEGS
 70
     8
  9
$HANDSEED
  5
14E
  9
$SURFTAB1
 70
     6
  9
$SURFTAB2
 70
     6
  9
$SURFTYPE
 70
     6
  9
$SURFU
 70
     6
  9
$SURFV
 70
     6
  9
$UCSBASE
  2

  9
$UCSNAME
  2

  9
$UCSORG
 10
0.0
 20
0.0
 30
0.0
  9
$UCSXDIR
 10
1.0
 20
0.0
 30
0.0
  9
$UCSYDIR
 10
0.0
 20
1.0
 30
0.0
  9
$UCSORTHOREF
  2

  9
$UCSORTHOVIEW
 70
     0
  9
$UCSORGTOP
 10
0.0
 20
0.0
 30
0.0
  9
$UCSORGBOTTOM
 10
0.0
 20
0.0
 30
0.0
  9
$UCSORGLEFT
 10
0.0
 20
0.0
 30
0.0
  9
$UCSORGRIGHT
 10
0.0
 20
0.0
 30
0.0
  9
$UCSORGFRONT
 10
0.0
 20
0.0
 30
0.0
  9
$UCSORGBACK
 10
0.0
 20
0.0
 30
0.0
  9
$PUCSBASE
  2

  9
$PUCSNAME
  2

  9
$PUCSORG
 10
0.0
 20
0.0
 30
0.0
  9
$PUCSXDIR
 10
1.0
 20
0.0
 30
0.0
  9
$PUCSYDIR
 10
0.0
 20
1.0
 30
0.0
  9
$PUCSORTHOREF
  2

  9
$PUCSORTHOVIEW
 70
     0
  9
$PUCSORGTOP
 10
0.0
 20
0.0
 30
0.0
  9
$PUCSORGBOTTOM
 10
0.0
 20
0.0
 30
0.0
  9
$PUCSORGLEFT
 10
0.0
 20
0.0
 30
0.0
  9
$PUCSORGRIGHT
 10
0.0
 20
0.0
 30
0.0
  9
$PUCSORGFRONT
 10
0.0
 20
0.0
 30
0.0
  9
$PUCSORGBACK
 10
0.0
 20
0.0
 30
0.0
  9
$USERI1
 70
     0
  9
$USERI2
 70
     0
  9
$USERI3
 70
     0
  9
$USERI4
 70
     0
  9
$USERI5
 70
     0
  9
$USERR1
 40
16.5
  9
$USERR2
 40
0.0
  9
$USERR3
 40
0.0
  9
$USERR4
 40
0.0
  9
$USERR5
 40
0.0
  9
$WORLDVIEW
 70
     1
  9
$SHADEDGE
 70
     3
  9
$SHADEDIF
 70
    70
  9
$TILEMODE
 70
     1
  9
$MAXACTVP
 70
    64
  9
$PINSBASE
 10
0.0
 20
0.0
 30
0.0
  9
$PLIMCHECK
 70
     0
  9
$PEXTMIN
 10
1.00000000000000E+20
 20
1.00000000000000E+20
 30
1.00000000000000E+20
  9
$PEXTMAX
 10
-1.00000000000000E+20
 20
-1.00000000000000E+20
 30
-1.00000000000000E+20
  9
$PLIMMIN
 10
0.0
 20
0.0
  9
$PLIMMAX
 10
12.0
 20
9.0
  9
$UNITMODE
 70
     0
  9
$VISRETAIN
 70
     1
  9
$PLINEGEN
 70
     0
  9
$PSLTSCALE
 70
     1
  9
$TREEDEPTH
 70
  3020
  9
$CMLSTYLE
  2
Standard
  9
$CMLJUST
 70
     0
  9
$CMLSCALE
 40
1.0
  9
$PROXYGRAPHICS
 70
     1
  9
$MEASUREMENT
 70
     1
  9
$CELWEIGHT
370
    -1
  9
$ENDCAPS
280
     0
  9
$JOINSTYLE
280
     0
  9
$LWDISPLAY
290
     0
  9
$INSUNITS
 70
     1
  9
$HYPERLINKBASE
  1

  9
$STYLESHEET
  1

  9
$XEDIT
290
     1
  9
$CEPSNTYPE
380
     0
  9
$PSTYLEMODE
290
     1
  9
$FINGERPRINTGUID
  2
{70C18FC8-3BCA-4BEE-843F-CE48D5054B76}
  9
$VERSIONGUID
  2
{FAEB1C32-E019-11D5-929B-00C0DF256EC4}
  9
$EXTNAMES
290
     1
  9
$PSVPSCALE
 40
0.0
  9
$OLESTARTUP
290
     0
  0
ENDSEC
  0
SECTION
  2
CLASSES
  0
CLASS
  1
ACDBDICTIONARYWDFLT
  2
AcDbDictionaryWithDefault
  3
ObjectDBX Classes
 90
        0
280
     0
281
     0
  0
CLASS
  1
VISUALSTYLE
  2
AcDbVisualStyle
  3
ObjectDBX Classes
 90
     4095
280
     0
281
     0
  0
CLASS
  1
SCALE
  2
AcDbScale
  3
ObjectDBX Classes
 90
     1153
280
     0
281
     0
  0
CLASS
  1

  2
exOdDbPolyline
  3

 90
        0
280
     0
281
     1
  0
CLASS
  1

  2
exOdDbCircle
  3

 90
        0
280
     0
281
     1
  0
CLASS
  1

  2
exOdDbSpline
  3

 90
        0
280
     0
281
     1
  0
CLASS
  1
DICTIONARYVAR
  2
AcDbDictionaryVar
  3
ObjectDBX Classes
 90
        0
280
     0
281
     0
  0
CLASS
  1
ACDBPLACEHOLDER
  2
AcDbPlaceHolder
  3
ObjectDBX Classes
 90
        0
280
     0
281
     0
  0
CLASS
  1
LAYOUT
  2
AcDbLayout
  3
ObjectDBX Classes
 90
        0
280
     0
281
     0
  0
ENDSEC
  0
SECTION
  2
TABLES
  0
TABLE
  2
VPORT
  5
8
330
0
100
AcDbSymbolTable
 70
     1
  0
VPORT
  5
29
330
8
100
AcDbSymbolTableRecord
100
AcDbViewportTableRecord
  2
*Active
 70
     0
 10
0.0
 20
0.0
 11
1.0
 21
1.0
 12
114.0862561498384
 22
333.888296797553
 13
0.0
 23
0.0
 14
0.5
 24
0.5
 15
0.5
 25
0.5
 16
0.0
 26
0.0
 36
1.0
 17
0.0
 27
0.0
 37
0.0
 40
175.5800244419092
 41
1.60267857142857
 42
50.0
 43
0.0
 44
0.0
 50
0.0
 51
0.0
 71
     0
 72
   100
 73
     1
 74
     3
 75
     0
 76
     0
 77
     0
 78
     0
281
     0
 65
     1
110
0.0
120
0.0
130
0.0
111
1.0
121
0.0
131
0.0
112
0.0
122
1.0
132
0.0
 79
     0
146
0.0
  0
ENDTAB
  0
TABLE
  2
LTYPE
  5
5
330
0
100
AcDbSymbolTable
 70
     8
  0
LTYPE
  5
14
330
5
100
AcDbSymbolTableRecord
100
AcDbLinetypeTableRecord
  2
ByBlock
 70
     0
  3

 72
    65
 73
     0
 40
0.0
  0
LTYPE
  5
15
330
5
100
AcDbSymbolTableRecord
100
AcDbLinetypeTableRecord
  2
ByLayer
 70
     0
  3

 72
    65
 73
     0
 40
0.0
  0
LTYPE
  5
16
330
5
100
AcDbSymbolTableRecord
100
AcDbLinetypeTableRecord
  2
Continuous
 70
     0
  3
Solid line
 72
    65
 73
     0
 40
0.0
  0
LTYPE
  5
3B
330
5
100
AcDbSymbolTableRecord
100
AcDbLinetypeTableRecord
  2
DASHED
 70
     0
  3
Dashed
 72
    65
 73
     2
 40
15.0
 49
7.0
 74
     0
 49
-8.0
 74
     0
  0
LTYPE
  5
3C
330
5
100
AcDbSymbolTableRecord
100
AcDbLinetypeTableRecord
  2
DOTTED
 70
     0
  3
Dotted
 72
    65
 73
     2
 40
1.0
 49
0.0
 74
     0
 49
-1.0
 74
     0
  0
LTYPE
  5
3D
330
5
100
AcDbSymbolTableRecord
100
AcDbLinetypeTableRecord
  2
DOT_CENTER
 70
     0
  3
Dot_Center
 72
    65
 73
     4
 40
14.0
 49
12.0
 74
     0
 49
-1.0
 74
     0
 49
0.0
 74
     0
 49
-1.0
 74
     0
  0
LTYPE
  5
3E
330
5
100
AcDbSymbolTableRecord
100
AcDbLinetypeTableRecord
  2
LONG_DASHED
 70
     0
  3
Long_Dashed
 72
    65
 73
     2
 40
15.0
 49
10.0
 74
     0
 49
-5.0
 74
     0
  0
LTYPE
  5
3F
330
5
100
AcDbSymbolTableRecord
100
AcDbLinetypeTableRecord
  2
DASH_CENTER
 70
     0
  3
Dash_Center
 72
    65
 73
     4
 40
14.0
 49
11.0
 74
     0
 49
-1.0
 74
     0
 49
1.0
 74
     0
 49
-1.0
 74
     0
  0
LTYPE
  5
40
330
5
100
AcDbSymbolTableRecord
100
AcDbLinetypeTableRecord
  2
PHANTOM
 70
     0
  3
Phantom
 72
    65
 73
     6
 40
13.0
 49
10.0
 74
     0
 49
-1.0
 74
     0
 49
0.0
 74
     0
 49
-1.0
 74
     0
 49
0.0
 74
     0
 49
-1.0
 74
     0
  0
LTYPE
  5
41
330
5
100
AcDbSymbolTableRecord
100
AcDbLinetypeTableRecord
  2
CENTER_DASH_DASH
 70
     0
  3
Center_Dash_Dash
 72
    65
 73
     6
 40
14.0
 49
9.0
 74
     0
 49
-1.0
 74
     0
 49
1.0
 74
     0
 49
-1.0
 74
     0
 49
1.0
 74
     0
 49
-1.0
 74
     0
  0
ENDTAB
  0
TABLE
  2
LAYER
  5
2
330
0
100
AcDbSymbolTable
 70
     7
  0
LAYER
  5
10
330
2
100
AcDbSymbolTableRecord
100
AcDbLayerTableRecord
  2
0
 70
     0
 62
     7
  6
Continuous
370
    -3
390
F
  0
LAYER
  5
42
330
2
100
AcDbSymbolTableRecord
100
AcDbLayerTableRecord
  2
1
 70
     0
 62
     7
  6
Continuous
370
    -3
390
F
  0
LAYER
  5
43
330
2
100
AcDbSymbolTableRecord
100
AcDbLayerTableRecord
  2
BEZUGSACHSEN
 70
     0
 62
     7
  6
Continuous
370
    -3
390
F
  0
LAYER
  5
44
330
2
100
AcDbSymbolTableRecord
100
AcDbLayerTableRecord
  2
DEFAULT_2
 70
     0
 62
     7
  6
Continuous
370
    -3
390
F
  0
LAYER
  5
45
330
2
100
AcDbSymbolTableRecord
100
AcDbLayerTableRecord
  2
FASEN
 70
     0
 62
     7
  6
Continuous
370
    -3
390
F
  0
LAYER
  5
46
330
2
100
AcDbSymbolTableRecord
100
AcDbLayerTableRecord
  2
GEWINDE
 70
     0
 62
     7
  6
Continuous
370
    -3
390
F
  0
LAYER
  5
47
330
2
100
AcDbSymbolTableRecord
100
AcDbLayerTableRecord
  2
RUNDUNGEN
 70
     0
 62
     7
  6
Continuous
370
    -3
390
F
  0
ENDTAB
  0
TABLE
  2
STYLE
  5
3
330
0
100
AcDbSymbolTable
 70
     2
  0
STYLE
  5
11
330
3
100
AcDbSymbolTableRecord
100
AcDbTextStyleTableRecord
  2
Standard
 70
     0
 40
0.0
 41
1.0
 50
0.0
 71
     0
 42
0.2
  3
txt
  4

  0
STYLE
  5
6E
330
3
100
AcDbSymbolTableRecord
100
AcDbTextStyleTableRecord
  2
CONVERTER_11
 70
     0
 40
0.0
 41
0.72
 50
0.0
 71
     0
 42
0.2
  3
txt.shx
  4

  0
ENDTAB
  0
TABLE
  2
VIEW
  5
6
330
0
100
AcDbSymbolTable
 70
     0
  0
ENDTAB
  0
TABLE
  2
UCS
  5
7
330
0
100
AcDbSymbolTable
 70
     0
  0
ENDTAB
  0
TABLE
  2
APPID
  5
9
330
0
100
AcDbSymbolTable
 70
     1
  0
APPID
  5
12
330
9
100
AcDbSymbolTableRecord
100
AcDbRegAppTableRecord
  2
ACAD
 70
     0
  0
ENDTAB
  0
TABLE
  2
DIMSTYLE
  5
A
330
0
100
AcDbSymbolTable
 70
     6
100
AcDbDimStyleTable
  0
DIMSTYLE
105
27
330
A
100
AcDbSymbolTableRecord
100
AcDbDimStyleTableRecord
  2
Standard
 70
     0
340
11
  0
DIMSTYLE
105
115
102
{ACAD_REACTORS
330
116
102
}
330
A
100
AcDbSymbolTableRecord
100
AcDbDimStyleTableRecord
  2
ME10_DIM_10
 70
     0
  3
\U+2300<>
 41
3.5
 42
2.0
 44
2.0
 71
     1
 73
     0
 74
     0
 77
     1
 78
     8
140
3.5
146
0.7
147
2.0
172
     1
173
     1
176
     2
177
     2
178
     3
271
     2
272
     0
340
6E
  0
DIMSTYLE
105
120
102
{ACAD_REACTORS
330
121
102
}
330
A
100
AcDbSymbolTableRecord
100
AcDbDimStyleTableRecord
  2
ME10_DIM_11
 70
     0
  3
\U+2300<>
 41
3.5
 42
2.0
 44
2.0
 71
     1
 73
     0
 74
     0
 77
     1
 78
     8
140
3.5
146
0.7
147
2.0
172
     1
173
     1
176
     2
177
     2
178
     3
271
     2
272
     0
340
6E
  0
DIMSTYLE
105
12B
102
{ACAD_REACTORS
330
12C
102
}
330
A
100
AcDbSymbolTableRecord
100
AcDbDimStyleTableRecord
  2
ME10_DIM_12
 70
     0
  3
<>
 41
3.5
 42
2.0
 44
2.0
 71
     1
 73
     0
 74
     0
 77
     1
 78
     8
140
3.5
146
0.7
147
2.0
172
     1
173
     1
176
     2
177
     2
178
     3
271
     2
272
     0
340
6E
  0
DIMSTYLE
105
136
102
{ACAD_REACTORS
330
137
102
}
330
A
100
AcDbSymbolTableRecord
100
AcDbDimStyleTableRecord
  2
ME10_DIM_13
 70
     0
  3
<>
 41
3.5
 42
2.0
 44
2.0
 71
     1
 73
     0
 74
     0
 77
     1
 78
     8
140
3.5
146
0.7
147
2.0
172
     1
173
     1
176
     2
177
     2
178
     3
271
     2
272
     0
340
6E
  0
DIMSTYLE
105
141
102
{ACAD_REACTORS
330
142
102
}
330
A
100
AcDbSymbolTableRecord
100
AcDbDimStyleTableRecord
  2
ME10_DIM_14
 70
     0
  3
<>
 41
3.5
 42
2.0
 44
2.0
 71
     1
 73
     0
 74
     0
 77
     1
 78
     8
140
3.5
146
0.7
147
2.0
172
     1
173
     1
176
     2
177
     2
178
     3
271
     2
272
     0
340
6E
  0
ENDTAB
  0
TABLE
  2
BLOCK_RECORD
  5
1
330
0
100
AcDbSymbolTable
 70
     8
  0
BLOCK_RECORD
  5
1F
330
1
100
AcDbSymbolTableRecord
100
AcDbBlockTableRecord
  2
*Model_Space
340
22
  0
BLOCK_RECORD
  5
1B
330
1
100
AcDbSymbolTableRecord
100
AcDbBlockTableRecord
  2
*Paper_Space
340
1E
  0
BLOCK_RECORD
  5
23
330
1
100
AcDbSymbolTableRecord
100
AcDbBlockTableRecord
  2
*Paper_Space0
340
26
  0
BLOCK_RECORD
  5
48
330
1
100
AcDbSymbolTableRecord
100
AcDbBlockTableRecord
  2
Urheberrecht_DE-EN
340
0
102
{BLKREFS
331
6D
102
}
  0
BLOCK_RECORD
  5
10A
330
1
100
AcDbSymbolTableRecord
100
AcDbBlockTableRecord
  2
*D2
340
0
  0
BLOCK_RECORD
  5
117
330
1
100
AcDbSymbolTableRecord
100
AcDbBlockTableRecord
  2
*D3
340
0
  0
BLOCK_RECORD
  5
122
330
1
100
AcDbSymbolTableRecord
100
AcDbBlockTableRecord
  2
*D4
340
0
  0
BLOCK_RECORD
  5
12D
330
1
100
AcDbSymbolTableRecord
100
AcDbBlockTableRecord
  2
*D5
340
0
  0
BLOCK_RECORD
  5
138
330
1
100
AcDbSymbolTableRecord
100
AcDbBlockTableRecord
  2
*D6
340
0
  0
BLOCK_RECORD
  5
143
330
1
100
AcDbSymbolTableRecord
100
AcDbBlockTableRecord
  2
*D7
340
0
102
{BLKREFS
331
149
102
}
  0
ENDTAB
  0
ENDSEC
  0
SECTION
  2
BLOCKS
  0
BLOCK
  5
20
330
1F
100
AcDbEntity
  8
0
100
AcDbBlockBegin
  2
*Model_Space
 70
     0
 10
0.0
 20
0.0
 30
0.0
  3
*Model_Space
  1

  0
ENDBLK
  5
21
330
1F
100
AcDbEntity
  8
0
100
AcDbBlockEnd
  0
BLOCK
  5
1C
330
1B
100
AcDbEntity
 67
     1
  8
0
100
AcDbBlockBegin
  2
*Paper_Space
 70
     0
 10
0.0
 20
0.0
 30
0.0
  3
*Paper_Space
  1

  0
ENDBLK
  5
1D
330
1B
100
AcDbEntity
 67
     1
  8
0
100
AcDbBlockEnd
  0
BLOCK
  5
24
330
23
100
AcDbEntity
  8
0
100
AcDbBlockBegin
  2
*Paper_Space0
 70
     0
 10
0.0
 20
0.0
 30
0.0
  3
*Paper_Space0
  1

  0
ENDBLK
  5
25
330
23
100
AcDbEntity
  8
0
100
AcDbBlockEnd
  0
BLOCK
  5
49
330
48
100
AcDbEntity
  8
0
100
AcDbBlockBegin
  2
Urheberrecht_DE-EN
 70
     0
 10
0.17791853895081
 20
333.742264283247
 30
0.0
  3
Urheberrecht_DE-EN
  1

  0
MTEXT
  5
6F
330
48
100
AcDbEntity
  8
1
 62
     1
100
AcDbMText
 10
0.17791853895081
 20
333.742264283247
 30
0.0
 40
2.0
 41
0.0
 71
     7
 72
     1
  1
We own the copyright of this document. It \Pdetermined and may neither be copied or \Pmade accessible to outsiders without our\Ppermission.
  7
CONVERTER_11
 11
0.0
 21
1.0
 31
0.0
 73
     1
 44
0.90036014405762
  0
MTEXT
  5
70
330
48
100
AcDbEntity
  8
1
 62
     1
100
AcDbMText
 10
0.17791853895081
 20
277.4528773659408
 30
0.0
 40
2.0
 41
0.0
 71
     7
 72
     1
  1
F\U+00fcr diese Unterlage behalten wir das Ur-\Pheberrecht. Sie darf nur f\U+00fcr den von uns \Pbestimmten Zweck benutzt und ohne unsere \PZustimmung weder vervielf\U+00e4ltigt noch\PDritten zug\U+00e4nglich gemacht werden.
  7
CONVERTER_11
 11
0.0
 21
1.0
 31
0.0
 73
     1
 44
0.90036014405762
  0
ENDBLK
  5
4A
330
48
100
AcDbEntity
  8
0
100
AcDbBlockEnd
  0
BLOCK
  5
113
330
10A
100
AcDbEntity
  8
0
100
AcDbBlockBegin
  2
*D2
 70
     1
 10
0.0
 20
0.0
 30
0.0
  3
*D2
  1

  0
LINE
  5
10B
330
10A
100
AcDbEntity
  8
1
  6
Continuous
 62
     2
100
AcDbLine
 10
229.966988649629
 20
329.6413276231
 30
0.0
 11
229.966988649629
 21
322.6413276231
 31
0.0
  0
LINE
  5
10C
330
10A
100
AcDbEntity
  8
1
  6
Continuous
 62
     2
100
AcDbLine
 10
229.966988649629
 20
322.6413276231
 30
0.0
 11
229.966988649629
 21
316.6413276231
 31
0.0
  0
LINE
  5
10D
330
10A
100
AcDbEntity
  8
1
  6
Continuous
 62
     2
100
AcDbLine
 10
229.966988649629
 20
316.6413276231
 30
0.0
 11
229.966988649629
 21
309.6413276231
 31
0.0
  0
LINE
  5
10E
330
10A
100
AcDbEntity
  8
1
  6
Continuous
 62
     2
100
AcDbLine
 10
221.1573875803
 20
322.6413276231
 30
0.0
 11
231.966988649629
 21
322.6413276231
 31
0.0
  0
LINE
  5
10F
330
10A
100
AcDbEntity
  8
1
  6
Continuous
 62
     2
100
AcDbLine
 10
221.1573875803
 20
316.6413276231
 30
0.0
 11
231.966988649629
 21
316.6413276231
 31
0.0
  0
SOLID
  5
110
330
10A
100
AcDbEntity
  8
1
 62
     2
100
AcDbTrace
 10
229.5062049080731
 20
326.1413276231
 30
0.0
 11
230.4277723911849
 21
326.1413276231
 31
0.0
 12
229.966988649629
 22
322.6413276231
 32
0.0
 13
229.966988649629
 23
322.6413276231
 33
0.0
  0
SOLID
  5
111
330
10A
100
AcDbEntity
  8
1
 62
     2
100
AcDbTrace
 10
230.4277723911849
 20
313.1413276231
 30
0.0
 11
229.5062049080731
 21
313.1413276231
 31
0.0
 12
229.966988649629
 22
316.6413276231
 32
0.0
 13
229.966988649629
 23
316.6413276231
 33
0.0
  0
MTEXT
  5
112
330
10A
100
AcDbEntity
  8
1
 62
     3
100
AcDbMText
 10
227.966988649629
 20
312.165286993669
 30
0.0
 40
3.5
 41
0.0
 71
     7
 72
     1
  1
\C3;%%c\C3;\C3;6\C2;\H2.45;\S^ ;\C3;
  7
CONVERTER_11
 11
0.0
 21
1.0
 31
0.0
 73
     1
 44
0.60024009603842
  0
ENDBLK
  5
114
330
10A
100
AcDbEntity
  8
0
100
AcDbBlockEnd
  0
BLOCK
  5
11E
330
117
100
AcDbEntity
  8
0
100
AcDbBlockBegin
  2
*D3
 70
     1
 10
0.0
 20
0.0
 30
0.0
  3
*D3
  1

  0
LINE
  5
118
330
117
100
AcDbEntity
  8
1
  6
Continuous
 62
     2
100
AcDbLine
 10
239.994593760726
 20
332.1413276231
 30
0.0
 11
239.994593760726
 21
307.1413276231
 31
0.0
  0
LINE
  5
119
330
117
100
AcDbEntity
  8
1
  6
Continuous
 62
     2
100
AcDbLine
 10
210.2131583151
 20
332.1413276231
 30
0.0
 11
241.994593760726
 21
332.1413276231
 31
0.0
  0
LINE
  5
11A
330
117
100
AcDbEntity
  8
1
  6
Continuous
 62
     2
100
AcDbLine
 10
210.2131583151
 20
307.1413276231
 30
0.0
 11
241.994593760726
 21
307.1413276231
 31
0.0
  0
SOLID
  5
11B
330
117
100
AcDbEntity
  8
1
 62
     2
100
AcDbTrace
 10
240.4553775022819
 20
328.6413276231
 30
0.0
 11
239.5338100191701
 21
328.6413276231
 31
0.0
 12
239.994593760726
 22
332.1413276231
 32
0.0
 13
239.994593760726
 23
332.1413276231
 33
0.0
  0
SOLID
  5
11C
330
117
100
AcDbEntity
  8
1
 62
     2
100
AcDbTrace
 10
239.5338100191701
 20
310.6413276231
 30
0.0
 11
240.4553775022819
 21
310.6413276231
 31
0.0
 12
239.994593760726
 22
307.1413276231
 32
0.0
 13
239.994593760726
 23
307.1413276231
 33
0.0
  0
MTEXT
  5
11D
330
117
100
AcDbEntity
  8
1
 62
     3
100
AcDbMText
 10
237.994593760726
 20
311.007609494802
 30
0.0
 40
3.5
 41
0.0
 71
     7
 72
     1
  1
\C3;%%c\C3;\C3;25\C2;\H2.45;\S^ ;\C3;
  7
CONVERTER_11
 11
0.0
 21
1.0
 31
0.0
 73
     1
 44
0.60024009603842
  0
ENDBLK
  5
11F
330
117
100
AcDbEntity
  8
0
100
AcDbBlockEnd
  0
BLOCK
  5
129
330
122
100
AcDbEntity
  8
0
100
AcDbBlockBegin
  2
*D4
 70
     1
 10
0.0
 20
0.0
 30
0.0
  3
*D4
  1

  0
LINE
  5
123
330
122
100
AcDbEntity
  8
1
  6
Continuous
 62
     2
100
AcDbLine
 10
219.1573875803
 20
377.438196089209
 30
0.0
 11
88.1573875803
 21
377.438196089209
 31
0.0
  0
LINE
  5
124
330
122
100
AcDbEntity
  8
1
  6
Continuous
 62
     2
100
AcDbLine
 10
219.1573875803
 20
328.5042573623
 30
0.0
 11
219.1573875803
 21
379.438196089209
 31
0.0
  0
LINE
  5
125
330
122
100
AcDbEntity
  8
1
  6
Continuous
 62
     2
100
AcDbLine
 10
88.1573875803
 20
371.6412907529
 30
0.0
 11
88.1573875803
 21
379.438196089209
 31
0.0
  0
SOLID
  5
126
330
122
100
AcDbEntity
  8
1
 62
     2
100
AcDbTrace
 10
215.6573875803
 20
376.9774123476531
 30
0.0
 11
215.6573875803
 21
377.8989798307649
 31
0.0
 12
219.1573875803
 22
377.438196089209
 32
0.0
 13
219.1573875803
 23
377.438196089209
 33
0.0
  0
SOLID
  5
127
330
122
100
AcDbEntity
  8
1
 62
     2
100
AcDbTrace
 10
91.6573875803
 20
377.8989798307649
 30
0.0
 11
91.6573875803
 21
376.9774123476531
 31
0.0
 12
88.1573875803
 22
377.438196089209
 32
0.0
 13
88.1573875803
 23
377.438196089209
 33
0.0
  0
MTEXT
  5
128
330
122
100
AcDbEntity
  8
1
 62
     3
100
AcDbMText
 10
157.840672713553
 20
379.438196089209
 30
0.0
 40
3.5
 41
0.0
 71
     7
 72
     1
  1
\C3;\C3;\C3;131\C2;\H2.45;\S^ ;\C3;
  7
CONVERTER_11
 11
0.9999999999970619
 21
2.424068405545306E-6
 31
0.0
 73
     1
 44
0.60024009603842
  0
ENDBLK
  5
12A
330
122
100
AcDbEntity
  8
0
100
AcDbBlockEnd
  0
BLOCK
  5
134
330
12D
100
AcDbEntity
  8
0
100
AcDbBlockBegin
  2
*D5
 70
     1
 10
0.0
 20
0.0
 30
0.0
  3
*D5
  1

  0
LINE
  5
12E
330
12D
100
AcDbEntity
  8
1
  6
Continuous
 62
     2
100
AcDbLine
 10
219.1573875803
 20
385.328982374507
 30
0.0
 11
59.1573875803
 21
385.328982374507
 31
0.0
  0
LINE
  5
12F
330
12D
100
AcDbEntity
  8
1
  6
Continuous
 62
     2
100
AcDbLine
 10
219.1573875803
 20
328.5042573623
 30
0.0
 11
219.1573875803
 21
387.328982374507
 31
0.0
  0
LINE
  5
130
330
12D
100
AcDbEntity
  8
1
  6
Continuous
 62
     2
100
AcDbLine
 10
59.1573875803
 20
371.6413276231
 30
0.0
 11
59.1573875803
 21
387.328982374507
 31
0.0
  0
SOLID
  5
131
330
12D
100
AcDbEntity
  8
1
 62
     2
100
AcDbTrace
 10
215.6573875803
 20
384.8681986329511
 30
0.0
 11
215.6573875803
 21
385.7897661160629
 31
0.0
 12
219.1573875803
 22
385.328982374507
 32
0.0
 13
219.1573875803
 23
385.328982374507
 33
0.0
  0
SOLID
  5
132
330
12D
100
AcDbEntity
  8
1
 62
     2
100
AcDbTrace
 10
62.6573875803
 20
385.7897661160629
 30
0.0
 11
62.6573875803
 21
384.8681986329511
 31
0.0
 12
59.1573875803
 22
385.328982374507
 32
0.0
 13
59.1573875803
 23
385.328982374507
 33
0.0
  0
MTEXT
  5
133
330
12D
100
AcDbEntity
  8
1
 62
     3
100
AcDbMText
 10
141.346848799057
 20
387.328982374507
 30
0.0
 40
3.5
 41
0.0
 71
     7
 72
     1
  1
\C3;\C3;\C3;160\C2;\H2.45;\S^ ;\C3;
  7
CONVERTER_11
 11
0.9999999999970619
 21
2.424068405545306E-6
 31
0.0
 73
     1
 44
0.60024009603842
  0
ENDBLK
  5
135
330
12D
100
AcDbEntity
  8
0
100
AcDbBlockEnd
  0
BLOCK
  5
13F
330
138
100
AcDbEntity
  8
0
100
AcDbBlockBegin
  2
*D6
 70
     1
 10
0.0
 20
0.0
 30
0.0
  3
*D6
  1

  0
LINE
  5
139
330
138
100
AcDbEntity
  8
1
  6
Continuous
 62
     2
100
AcDbLine
 10
219.1573875803
 20
392.635265972006
 30
0.0
 11
9.15738758030001
 21
392.635265972006
 31
0.0
  0
LINE
  5
13A
330
138
100
AcDbEntity
  8
1
  6
Continuous
 62
     2
100
AcDbLine
 10
219.1573875803
 20
328.5042573623
 30
0.0
 11
219.1573875803
 21
394.635265972006
 31
0.0
  0
LINE
  5
13B
330
138
100
AcDbEntity
  8
1
  6
Continuous
 62
     2
100
AcDbLine
 10
9.15738758030001
 20
355.2415191857
 30
0.0
 11
9.15738758030001
 21
394.635265972006
 31
0.0
  0
SOLID
  5
13C
330
138
100
AcDbEntity
  8
1
 62
     2
100
AcDbTrace
 10
215.6573875803
 20
392.1744822304501
 30
0.0
 11
215.6573875803
 21
393.0960497135619
 31
0.0
 12
219.1573875803
 22
392.635265972006
 32
0.0
 13
219.1573875803
 23
392.635265972006
 33
0.0
  0
SOLID
  5
13D
330
138
100
AcDbEntity
  8
1
 62
     2
100
AcDbTrace
 10
12.65738758030001
 20
393.0960497135619
 30
0.0
 11
12.65738758030001
 21
392.1744822304501
 31
0.0
 12
9.15738758030001
 22
392.635265972006
 32
0.0
 13
9.15738758030001
 23
392.635265972006
 33
0.0
  0
MTEXT
  5
13E
330
138
100
AcDbEntity
  8
1
 62
     3
100
AcDbMText
 10
121.766008757762
 20
394.635265972006
 30
0.0
 40
3.5
 41
0.0
 71
     7
 72
     1
  1
\C3;\C3;\C3;210\C2;\H2.45;\S^ ;\C3;
  7
CONVERTER_11
 11
0.9999999999970619
 21
2.424068405545306E-6
 31
0.0
 73
     1
 44
0.60024009603842
  0
ENDBLK
  5
140
330
138
100
AcDbEntity
  8
0
100
AcDbBlockEnd
  0
BLOCK
  5
147
330
143
100
AcDbEntity
  8
0
100
AcDbBlockBegin
  2
*D7
 70
     1
 10
0.0
 20
0.0
 30
0.0
  3
*D7
  1

  0
LINE
  5
144
330
143
100
AcDbEntity
  8
1
  6
Continuous
 62
     2
100
AcDbLine
 10
104.3127529392868
 20
350.509509184227
 30
0.0
 11
96.06883303531906
 21
339.6436922080591
 31
0.0
  0
SOLID
  5
145
330
143
100
AcDbEntity
  8
1
 62
     2
100
AcDbTrace
 10
97.81724211470426
 20
342.7105126050836
 30
0.0
 11
98.55141804667434
 21
342.1534916657602
 31
0.0
 12
96.06883303531906
 22
339.6436922080591
 32
0.0
 13
96.06883303531906
 23
339.6436922080591
 33
0.0
  0
MTEXT
  5
146
330
143
100
AcDbEntity
  8
1
 62
     3
100
AcDbMText
 10
96.71142137194236
 20
343.799564445014
 30
0.0
 40
3.5
 41
0.0
 71
     7
 72
     1
  1
\C3; R\C3;\C3;20\C2;\H2.45;\S^ ;\C3;
  7
CONVERTER_11
 11
0.6044277272486394
 21
0.7966599792465067
 31
0.0
 73
     1
 44
0.60024009603842
  0
ENDBLK
  5
148
330
143
100
AcDbEntity
  8
0
100
AcDbBlockEnd
  0
ENDSEC
  0
SECTION
  2
ENTITIES
  0
INSERT
  5
6D
330
1F
100
AcDbEntity
  8
0
100
AcDbBlockReference
  2
Urheberrecht_DE-EN
 10
0.17791853895081
 20
333.742264283247
 30
0.0
  0
LINE
  5
71
330
1F
100
AcDbEntity
  8
BEZUGSACHSEN
  6
Continuous
 62
     7
100
AcDbLine
 10
9.1573875803
 20
286.0411360602
 30
0.0
 11
9.1573875803
 21
307.6313276231
 31
0.0
  0
LINE
  5
72
330
1F
100
AcDbEntity
  8
BEZUGSACHSEN
  6
Continuous
 62
     7
100
AcDbLine
 10
9.1573875803
 20
331.6513276231
 30
0.0
 11
9.1573875803
 21
353.2415191857
 31
0.0
  0
LINE
  5
73
330
1F
100
AcDbEntity
  8
BEZUGSACHSEN
  6
Continuous
 62
     9
100
AcDbLine
 10
11.0573130956
 20
355.2390138914
 30
0.0
 11
11.0573130956
 21
335.3178600094
 31
0.0
  0
LINE
  5
74
330
1F
100
AcDbEntity
  8
BEZUGSACHSEN
  6
Continuous
 62
     9
100
AcDbLine
 10
11.0573130956
 20
303.9647952369
 30
0.0
 11
11.0573130956
 21
284.0436413548
 31
0.0
  0
LINE
  5
75
330
1F
100
AcDbEntity
  8
BEZUGSACHSEN
  6
Continuous
 62
     7
100
AcDbLine
 10
11.1573875803
 20
307.2376876747
 30
0.0
 11
11.1573875803
 21
309.6313276231
 31
0.0
  0
LINE
  5
76
330
1F
100
AcDbEntity
  8
BEZUGSACHSEN
  6
Continuous
 62
     7
100
AcDbLine
 10
11.1573875803
 20
329.6513276231
 30
0.0
 11
11.1573875803
 21
332.0449675715
 31
0.0
  0
LINE
  5
77
330
1F
100
AcDbEntity
  8
BEZUGSACHSEN
  6
Continuous
 62
     9
100
AcDbLine
 10
17.1573875803
 20
303.2826800357
 30
0.0
 11
17.1573875803
 21
309.6313276231
 31
0.0
  0
LINE
  5
78
330
1F
100
AcDbEntity
  8
BEZUGSACHSEN
  6
Continuous
 62
     9
100
AcDbLine
 10
17.1573875803
 20
329.6513276231
 30
0.0
 11
17.1573875803
 21
335.9999752106
 31
0.0
  0
LINE
  5
79
330
1F
100
AcDbEntity
  8
BEZUGSACHSEN
  6
Continuous
 62
     7
100
AcDbLine
 10
19.1573875803
 20
332.5109831489
 30
0.0
 11
19.1573875803
 21
306.7716720973
 31
0.0
  0
LINE
  5
7A
330
1F
100
AcDbEntity
  8
BEZUGSACHSEN
  6
Continuous
 62
     7
100
AcDbLine
 10
10.4243405073
 20
304.6313276231
 30
0.0
 11
10.3032302559
 21
304.3989916277
 31
0.0
  0
LINE
  5
7B
330
1F
100
AcDbEntity
  8
BEZUGSACHSEN
  6
Continuous
 62
     7
100
AcDbLine
 10
10.3032302559
 20
334.8836636186
 30
0.0
 11
10.4243405073
 21
334.6513276231
 31
0.0
  0
LWPOLYLINE
  5
7C
330
1F
100
AcDbEntity
  8
BEZUGSACHSEN
  6
DOT_CENTER
 62
     7
100
AcDbPolyline
 90
        2
 70
     0
 43
0.25
 10
44.1573875803
 20
319.6413276231
 10
44.1573875803
 20
310.6413276231
  0
LWPOLYLINE
  5
7D
330
1F
100
AcDbEntity
  8
BEZUGSACHSEN
  6
DOT_CENTER
 62
     7
100
AcDbPolyline
 90
        2
 70
     0
 43
0.25
 10
44.1573875803
 20
319.6413276231
 10
44.1573875803
 20
328.6413276231
  0
LINE
  5
7E
330
1F
100
AcDbEntity
  8
BEZUGSACHSEN
  6
Continuous
 62
     7
100
AcDbLine
 10
9.1573875803
 20
307.6313276231
 30
0.0
 11
11.1573875803
 21
309.6313276231
 31
0.0
  0
LINE
  5
7F
330
1F
100
AcDbEntity
  8
BEZUGSACHSEN
  6
Continuous
 62
     7
100
AcDbLine
 10
11.1573875803
 20
329.6513276231
 30
0.0
 11
9.1573875803
 21
331.6513276231
 31
0.0
  0
LINE
  5
80
330
1F
100
AcDbEntity
  8
BEZUGSACHSEN
  6
Continuous
 62
     7
100
AcDbLine
 10
56.6573875803
 20
357.5235776231
 30
0.0
 11
56.6573875803
 21
281.7590776231
 31
0.0
  0
LINE
  5
81
330
1F
100
AcDbEntity
  8
BEZUGSACHSEN
  6
Continuous
 62
     9
100
AcDbLine
 10
57.2766311943
 20
281.9250034494
 30
0.0
 11
57.2766311943
 21
357.3576517968
 31
0.0
  0
LINE
  5
82
330
1F
100
AcDbEntity
  8
BEZUGSACHSEN
  6
Continuous
 62
     9
100
AcDbLine
 10
57.5354502394
 20
281.9590776231
 30
0.0
 11
57.5354502394
 21
357.3235776231
 31
0.0
  0
LINE
  5
83
330
1F
100
AcDbEntity
  8
BEZUGSACHSEN
  6
Continuous
 62
     9
100
AcDbLine
 10
58.4568162916
 20
281.9590776231
 30
0.0
 11
58.4568162916
 21
357.3235776231
 31
0.0
  0
LINE
  5
84
330
1F
100
AcDbEntity
  8
BEZUGSACHSEN
  6
Continuous
 62
     7
100
AcDbLine
 10
59.1573875803
 20
369.6413276231
 30
0.0
 11
59.1573875803
 21
269.6413276231
 31
0.0
  0
LWPOLYLINE
  5
85
330
1F
100
AcDbEntity
  8
BEZUGSACHSEN
  6
DOT_CENTER
 62
     7
100
AcDbPolyline
 90
        2
 70
     0
 43
0.25
 10
66.1573875803
 20
361.7906994785
 10
66.1573875803
 20
372.6413276231
  0
LINE
  5
86
330
1F
100
AcDbEntity
  8
BEZUGSACHSEN
  6
Continuous
 62
     7
100
AcDbLine
 10
81.0323875803
 20
367.2639228873
 30
0.0
 11
82.4049828445
 21
369.6413276231
 31
0.0
  0
LINE
  5
87
330
1F
100
AcDbEntity
  8
BEZUGSACHSEN
  6
Continuous
 62
     7
100
AcDbLine
 10
75.9097923161
 20
269.6413276231
 30
0.0
 11
59.1573875803
 21
269.6413276231
 31
0.0
  0
LINE
  5
88
330
1F
100
AcDbEntity
  8
BEZUGSACHSEN
  6
Continuous
 62
     7
100
AcDbLine
 10
82.4049828445
 20
269.6413276231
 30
0.0
 11
88.1573875803
 21
269.6413276231
 31
0.0
  0
LINE
  5
89
330
1F
100
AcDbEntity
  8
BEZUGSACHSEN
  6
Continuous
 62
     7
100
AcDbLine
 10
78.2823875803
 20
273.6413276231
 30
0.0
 11
80.0323875803
 21
273.6413276231
 31
0.0
  0
LINE
  5
8A
330
1F
100
AcDbEntity
  8
BEZUGSACHSEN
  6
Continuous
 62
     7
100
AcDbLine
 10
81.0323875803
 20
272.0187323589
 30
0.0
 11
82.4049828445
 21
269.6413276231
 31
0.0
  0
LINE
  5
8B
330
1F
100
AcDbEntity
  8
FASEN
  6
Continuous
 62
     9
100
AcDbLine
 10
72.0904538356
 20
287.8913276231
 30
0.0
 11
72.0904538356
 21
288.2913276231
 31
0.0
  0
LINE
  5
8C
330
1F
100
AcDbEntity
  8
FASEN
  6
Continuous
 62
     9
100
AcDbLine
 10
74.1283875803
 20
329.6623276231
 30
0.0
 11
74.1283875803
 21
329.2623276231
 31
0.0
  0
LINE
  5
8D
330
1F
100
AcDbEntity
  8
FASEN
  6
Continuous
 62
     9
100
AcDbLine
 10
74.1283875803
 20
309.6203276231
 30
0.0
 11
74.1283875803
 21
310.0203276231
 31
0.0
  0
LINE
  5
8E
330
1F
100
AcDbEntity
  8
0
  6
Continuous
 62
     7
100
AcDbLine
 10
75.9097923161
 20
369.6413276231
 30
0.0
 11
75.9097923161
 21
329.6623276231
 31
0.0
  0
LINE
  5
8F
330
1F
100
AcDbEntity
  8
0
  6
Continuous
 62
     7
100
AcDbLine
 10
75.9097923161
 20
309.6203276231
 30
0.0
 11
75.9097923161
 21
288.2913276231
 31
0.0
  0
LINE
  5
90
330
1F
100
AcDbEntity
  8
0
  6
Continuous
 62
     7
100
AcDbLine
 10
75.9097923161
 20
280.6903648622
 30
0.0
 11
75.9097923161
 21
269.6413276231
 31
0.0
  0
LINE
  5
91
330
1F
100
AcDbEntity
  8
FASEN
  6
Continuous
 62
     7
100
AcDbLine
 10
64.5009367705
 20
280.6903648622
 30
0.0
 11
75.9097923161
 21
280.6903648622
 31
0.0
  0
LINE
  5
92
330
1F
100
AcDbEntity
  8
FASEN
  6
Continuous
 62
     7
100
AcDbLine
 10
82.4049828445
 20
280.6903648622
 30
0.0
 11
87.7073875803
 21
280.6903648622
 31
0.0
  0
LINE
  5
93
330
1F
100
AcDbEntity
  8
BEZUGSACHSEN
  6
Continuous
 62
     7
100
AcDbLine
 10
11.0573130956
 20
284.0436413548
 30
0.0
 11
56.6573875803
 21
281.7590776231
 31
0.0
  0
LINE
  5
94
330
1F
100
AcDbEntity
  8
0
  6
Continuous
 62
     7
100
AcDbLine
 10
77.2823875803
 20
367.2638895112
 30
0.0
 11
77.2823875803
 21
329.6623276231
 31
0.0
  0
LINE
  5
95
330
1F
100
AcDbEntity
  8
0
  6
Continuous
 62
     7
100
AcDbLine
 10
77.2823875803
 20
309.6203276231
 30
0.0
 11
77.2823875803
 21
288.2913276231
 31
0.0
  0
LINE
  5
96
330
1F
100
AcDbEntity
  8
0
  6
Continuous
 62
     7
100
AcDbLine
 10
77.2823875803
 20
272.0187686271
 30
0.0
 11
77.2823875803
 21
284.6245102349
 31
0.0
  0
LINE
  5
97
330
1F
100
AcDbEntity
  8
0
  6
Continuous
 62
     9
100
AcDbLine
 10
78.2823875803
 20
273.6413276231
 30
0.0
 11
78.2823875803
 21
285.9786257114
 31
0.0
  0
LINE
  5
98
330
1F
100
AcDbEntity
  8
0
  6
Continuous
 62
     9
100
AcDbLine
 10
78.2823875803
 20
288.2913276231
 30
0.0
 11
78.2823875803
 21
309.6203276231
 31
0.0
  0
LINE
  5
99
330
1F
100
AcDbEntity
  8
0
  6
Continuous
 62
     9
100
AcDbLine
 10
78.2823875803
 20
329.6623276231
 30
0.0
 11
78.2823875803
 21
365.6413276231
 31
0.0
  0
LINE
  5
9A
330
1F
100
AcDbEntity
  8
0
  6
Continuous
 62
     9
100
AcDbLine
 10
80.0323875803
 20
273.6413276231
 30
0.0
 11
80.0323875803
 21
285.9786257114
 31
0.0
  0
LINE
  5
9B
330
1F
100
AcDbEntity
  8
0
  6
Continuous
 62
     9
100
AcDbLine
 10
80.0323875803
 20
288.2913276231
 30
0.0
 11
80.0323875803
 21
309.6203276231
 31
0.0
  0
LINE
  5
9C
330
1F
100
AcDbEntity
  8
0
  6
Continuous
 62
     9
100
AcDbLine
 10
80.0323875803
 20
329.6623276231
 30
0.0
 11
80.0323875803
 21
365.6413276231
 31
0.0
  0
LINE
  5
9D
330
1F
100
AcDbEntity
  8
0
  6
Continuous
 62
     7
100
AcDbLine
 10
81.0323875803
 20
272.0187686271
 30
0.0
 11
81.0323875803
 21
284.6245102349
 31
0.0
  0
LINE
  5
9E
330
1F
100
AcDbEntity
  8
0
  6
Continuous
 62
     7
100
AcDbLine
 10
81.0323875803
 20
288.2913276231
 30
0.0
 11
81.0323875803
 21
309.6203276231
 31
0.0
  0
LINE
  5
9F
330
1F
100
AcDbEntity
  8
0
  6
Continuous
 62
     7
100
AcDbLine
 10
81.0323875803
 20
329.6623276231
 30
0.0
 11
81.0323875803
 21
367.2638895112
 31
0.0
  0
LINE
  5
A0
330
1F
100
AcDbEntity
  8
0
  6
Continuous
 62
     7
100
AcDbLine
 10
82.4049828445
 20
369.6413276231
 30
0.0
 11
82.4049828445
 21
329.6623276231
 31
0.0
  0
LINE
  5
A1
330
1F
100
AcDbEntity
  8
0
  6
Continuous
 62
     7
100
AcDbLine
 10
82.4049828445
 20
309.6203276231
 30
0.0
 11
82.4049828445
 21
288.2913276231
 31
0.0
  0
LINE
  5
A2
330
1F
100
AcDbEntity
  8
0
  6
Continuous
 62
     7
100
AcDbLine
 10
82.4049828445
 20
280.6903648622
 30
0.0
 11
82.4049828445
 21
269.6413276231
 31
0.0
  0
LINE
  5
A3
330
1F
100
AcDbEntity
  8
BEZUGSACHSEN
  6
Continuous
 62
     9
100
AcDbLine
 10
9.1573875803
 20
306.1951436541
 30
0.0
 11
11.1573875803
 21
307.2376876747
 31
0.0
  0
LINE
  5
A4
330
1F
100
AcDbEntity
  8
BEZUGSACHSEN
  6
Continuous
 62
     7
100
AcDbLine
 10
58.4568162916
 20
281.9590776231
 30
0.0
 11
57.5354502394
 21
281.9590776231
 31
0.0
  0
LINE
  5
A5
330
1F
100
AcDbEntity
  8
0
  6
Continuous
 62
     7
100
AcDbLine
 10
78.2823875803
 20
285.9786257114
 30
0.0
 11
80.0323875803
 21
285.9786257114
 31
0.0
  0
LINE
  5
A6
330
1F
100
AcDbEntity
  8
FASEN
  6
Continuous
 62
     7
100
AcDbLine
 10
72.0904538356
 20
287.8913276231
 30
0.0
 11
87.7073875803
 21
287.8913276231
 31
0.0
  0
LINE
  5
A7
330
1F
100
AcDbEntity
  8
0
  6
Continuous
 62
     7
100
AcDbLine
 10
72.0904538356
 20
288.2913276231
 30
0.0
 11
88.1073875803
 21
288.2913276231
 31
0.0
  0
LINE
  5
A8
330
1F
100
AcDbEntity
  8
BEZUGSACHSEN
  6
Continuous
 62
     9
100
AcDbLine
 10
11.1573875803
 20
332.0449675715
 30
0.0
 11
9.1573875803
 21
333.0875115922
 31
0.0
  0
LINE
  5
A9
330
1F
100
AcDbEntity
  8
FASEN
  6
Continuous
 62
     7
100
AcDbLine
 10
87.7073875803
 20
287.8913276231
 30
0.0
 11
87.7073875803
 21
280.6903648622
 31
0.0
  0
LINE
  5
AA
330
1F
100
AcDbEntity
  8
FASEN
  6
Continuous
 62
     7
100
AcDbLine
 10
88.1073875803
 20
288.2913276231
 30
0.0
 11
88.1073875803
 21
281.0157208318
 31
0.0
  0
LINE
  5
AB
330
1F
100
AcDbEntity
  8
0
  6
Continuous
 62
     7
100
AcDbLine
 10
88.1573875803
 20
369.6412907529
 30
0.0
 11
88.1573875803
 21
329.6623276231
 31
0.0
  0
LINE
  5
AC
330
1F
100
AcDbEntity
  8
0
  6
Continuous
 62
     7
100
AcDbLine
 10
88.1573875803
 20
309.6203276231
 30
0.0
 11
88.1573875803
 21
269.6413646186
 31
0.0
  0
LINE
  5
AD
330
1F
100
AcDbEntity
  8
FASEN
  6
Continuous
 62
     7
100
AcDbLine
 10
88.1573875803
 20
309.6203276231
 30
0.0
 11
88.1573875803
 21
329.6623276231
 31
0.0
  0
LINE
  5
AE
330
1F
100
AcDbEntity
  8
BEZUGSACHSEN
  6
Continuous
 62
     7
100
AcDbLine
 10
57.2766311943
 20
281.9250034494
 30
0.0
 11
56.6573875803
 21
281.7590776231
 31
0.0
  0
LINE
  5
AF
330
1F
100
AcDbEntity
  8
BEZUGSACHSEN
  6
Continuous
 62
     9
100
AcDbLine
 10
18.7112335272
 20
304.6313276231
 30
0.0
 11
10.4243405073
 21
304.6313276231
 31
0.0
  0
LINE
  5
B0
330
1F
100
AcDbEntity
  8
RUNDUNGEN
  6
Continuous
 62
     9
100
AcDbLine
 10
104.2684986914
 20
335.9586211452
 30
0.0
 11
104.2684986914
 21
303.324034101
 31
0.0
  0
LINE
  5
B1
330
1F
100
AcDbEntity
  8
BEZUGSACHSEN
  6
Continuous
 62
     7
100
AcDbLine
 10
75.9097923161
 20
269.6413276231
 30
0.0
 11
77.2823875803
 21
272.0187323589
 31
0.0
  0
LINE
  5
B2
330
1F
100
AcDbEntity
  8
0
  6
Continuous
 62
     7
100
AcDbLine
 10
143.1573875803
 20
307.1413276231
 30
0.0
 11
198.6573875803
 21
307.1413276231
 31
0.0
  0
LINE
  5
B3
330
1F
100
AcDbEntity
  8
0
  6
Continuous
 62
     7
100
AcDbLine
 10
203.6573875803
 20
307.1413276231
 30
0.0
 11
208.2131583151
 21
307.1413276231
 31
0.0
  0
LINE
  5
B4
330
1F
100
AcDbEntity
  8
0
  6
Continuous
 62
     7
100
AcDbLine
 10
74.1283875803
 20
309.6203276231
 30
0.0
 11
88.1573875803
 21
309.6203276231
 31
0.0
  0
LINE
  5
B5
330
1F
100
AcDbEntity
  8
BEZUGSACHSEN
  6
Continuous
 62
     7
100
AcDbLine
 10
17.1573875803
 20
309.6313276231
 30
0.0
 11
11.1573875803
 21
309.6313276231
 31
0.0
  0
LINE
  5
B6
330
1F
100
AcDbEntity
  8
FASEN
  6
Continuous
 62
     7
100
AcDbLine
 10
74.1283875803
 20
310.0203276231
 30
0.0
 11
88.1573875803
 21
310.0203276231
 31
0.0
  0
LINE
  5
B7
330
1F
100
AcDbEntity
  8
BEZUGSACHSEN
  6
Continuous
 62
     7
100
AcDbLine
 10
75.9097923161
 20
369.6413276231
 30
0.0
 11
77.2823875803
 21
367.2639228873
 31
0.0
  0
LWPOLYLINE
  5
B8
330
1F
100
AcDbEntity
  8
DEFAULT_2
  6
DASHED
 62
     8
100
AcDbPolyline
 90
        2
 70
     0
 43
0.35
 10
186.1573875803
 20
316.6413276231
 10
198.6573875803
 20
316.6413276231
  0
LWPOLYLINE
  5
B9
330
1F
100
AcDbEntity
  8
DEFAULT_2
  6
DASHED
 62
     8
100
AcDbPolyline
 90
        2
 70
     0
 43
0.35
 10
198.6573875803
 20
316.6413276231
 10
219.1573875803
 20
316.6413276231
  0
LWPOLYLINE
  5
BA
330
1F
100
AcDbEntity
  8
BEZUGSACHSEN
  6
DOT_CENTER
 62
     7
100
AcDbPolyline
 90
        2
 70
     0
 43
0.25
 10
222.1573875803
 20
319.6413276231
 10
6.1573875803
 20
319.6413276231
  0
LINE
  5
BB
330
1F
100
AcDbEntity
  8
FASEN
  6
Continuous
 62
     7
100
AcDbLine
 10
88.1073875803
 20
288.2913276231
 30
0.0
 11
87.7073875803
 21
287.8913276231
 31
0.0
  0
LWPOLYLINE
  5
BC
330
1F
100
AcDbEntity
  8
DEFAULT_2
  6
DASHED
 62
     8
100
AcDbPolyline
 90
        2
 70
     0
 43
0.35
 10
219.1573875803
 20
322.6413276231
 10
186.1573875803
 20
322.6413276231
  0
LINE
  5
BD
330
1F
100
AcDbEntity
  8
FASEN
  6
Continuous
 62
     7
100
AcDbLine
 10
88.1573875803
 20
329.2623276231
 30
0.0
 11
74.1283875803
 21
329.2623276231
 31
0.0
  0
LINE
  5
BE
330
1F
100
AcDbEntity
  8
BEZUGSACHSEN
  6
Continuous
 62
     7
100
AcDbLine
 10
17.1573875803
 20
329.6513276231
 30
0.0
 11
11.1573875803
 21
329.6513276231
 31
0.0
  0
LINE
  5
BF
330
1F
100
AcDbEntity
  8
0
  6
Continuous
 62
     7
100
AcDbLine
 10
74.1283875803
 20
329.6623276231
 30
0.0
 11
88.1573875803
 21
329.6623276231
 31
0.0
  0
LINE
  5
C0
330
1F
100
AcDbEntity
  8
0
  6
Continuous
 62
     7
100
AcDbLine
 10
208.2131583151
 20
332.1413276231
 30
0.0
 11
143.1573875803
 21
332.1413276231
 31
0.0
  0
LINE
  5
C1
330
1F
100
AcDbEntity
  8
BEZUGSACHSEN
  6
Continuous
 62
     9
100
AcDbLine
 10
10.4243405073
 20
334.6513276231
 30
0.0
 11
18.7112335272
 21
334.6513276231
 31
0.0
  0
LINE
  5
C2
330
1F
100
AcDbEntity
  8
BEZUGSACHSEN
  6
Continuous
 62
     7
100
AcDbLine
 10
57.2766311943
 20
357.3576517968
 30
0.0
 11
56.6573875803
 21
357.5235776231
 31
0.0
  0
LINE
  5
C3
330
1F
100
AcDbEntity
  8
0
  6
Continuous
 62
     9
100
AcDbLine
 10
143.1573875803
 20
332.1413276231
 30
0.0
 11
143.1573875803
 21
307.1413276231
 31
0.0
  0
LINE
  5
C4
330
1F
100
AcDbEntity
  8
BEZUGSACHSEN
  6
Continuous
 62
     7
100
AcDbLine
 10
58.4568162916
 20
357.3235776231
 30
0.0
 11
57.5354502394
 21
357.3235776231
 31
0.0
  0
LINE
  5
C5
330
1F
100
AcDbEntity
  8
BEZUGSACHSEN
  6
Continuous
 62
     7
100
AcDbLine
 10
56.6573875803
 20
357.5235776231
 30
0.0
 11
11.0573130956
 21
355.2390138914
 31
0.0
  0
LINE
  5
C6
330
1F
100
AcDbEntity
  8
BEZUGSACHSEN
  6
Continuous
 62
     7
100
AcDbLine
 10
78.2823875803
 20
365.6413276231
 30
0.0
 11
80.0323875803
 21
365.6413276231
 31
0.0
  0
LINE
  5
C7
330
1F
100
AcDbEntity
  8
0
  6
Continuous
 62
     7
100
AcDbLine
 10
208.6357765768
 20
307.2350198361
 30
0.0
 11
218.580005842
 21
311.8720900969
 31
0.0
  0
LINE
  5
C8
330
1F
100
AcDbEntity
  8
BEZUGSACHSEN
  6
Continuous
 62
     7
100
AcDbLine
 10
75.9097923161
 20
369.6413276231
 30
0.0
 11
71.1573875803
 21
369.6413276231
 31
0.0
  0
LINE
  5
C9
330
1F
100
AcDbEntity
  8
BEZUGSACHSEN
  6
Continuous
 62
     7
100
AcDbLine
 10
61.1573875803
 20
369.6413276231
 30
0.0
 11
59.1573875803
 21
369.6413276231
 31
0.0
  0
LINE
  5
CA
330
1F
100
AcDbEntity
  8
BEZUGSACHSEN
  6
Continuous
 62
     7
100
AcDbLine
 10
82.4049828445
 20
369.6413276231
 30
0.0
 11
88.1573875803
 21
369.6413276231
 31
0.0
  0
LINE
  5
CB
330
1F
100
AcDbEntity
  8
RUNDUNGEN
  6
Continuous
 62
     7
100
AcDbLine
 10
218.580005842
 20
327.4105651494
 30
0.0
 11
208.6357765768
 21
332.0476354102
 31
0.0
  0
LINE
  5
CC
330
1F
100
AcDbEntity
  8
0
  6
Continuous
 62
     7
100
AcDbLine
 10
208.6357765768
 20
332.0476354102
 30
0.0
 11
218.580005842
 21
327.4105651494
 31
0.0
  0
LWPOLYLINE
  5
CD
330
1F
100
AcDbEntity
  8
DEFAULT_2
  6
DASHED
 62
     8
100
AcDbPolyline
 90
        2
 70
     0
 43
0.35
 10
186.1573875803
 20
322.6413276231
 10
186.1573875803
 20
316.6413276231
  0
LWPOLYLINE
  5
CE
330
1F
100
AcDbEntity
  8
GEWINDE
  6
DASHED
 62
     8
100
AcDbPolyline
 90
        2
 70
     0
 43
0.35
 10
198.6573875803
 20
316.6413276231
 10
198.6573875803
 20
307.1413276231
  0
LWPOLYLINE
  5
CF
330
1F
100
AcDbEntity
  8
GEWINDE
  6
DOT_CENTER
 62
     7
100
AcDbPolyline
 90
        2
 70
     0
 43
0.25
 10
201.1573875803
 20
304.1413276231
 10
201.1573875803
 20
320.9843537867
  0
LWPOLYLINE
  5
D0
330
1F
100
AcDbEntity
  8
GEWINDE
  6
DASHED
 62
     8
100
AcDbPolyline
 90
        2
 70
     0
 43
0.35
 10
203.6573875803
 20
316.6413276231
 10
203.6573875803
 20
307.1413276231
  0
LINE
  5
D1
330
1F
100
AcDbEntity
  8
RUNDUNGEN
  6
Continuous
 62
     9
100
AcDbLine
 10
208.2131583151
 20
307.1413276231
 30
0.0
 11
208.2131583151
 21
332.1413276231
 31
0.0
  0
LINE
  5
D2
330
1F
100
AcDbEntity
  8
RUNDUNGEN
  6
Continuous
 62
     9
100
AcDbLine
 10
208.6357765768
 20
307.2350198361
 30
0.0
 11
208.6357765768
 21
332.0476354102
 31
0.0
  0
LINE
  5
D3
330
1F
100
AcDbEntity
  8
RUNDUNGEN
  6
Continuous
 62
     9
100
AcDbLine
 10
218.580005842
 20
311.8720900969
 30
0.0
 11
218.580005842
 21
327.4105651494
 31
0.0
  0
LINE
  5
D4
330
1F
100
AcDbEntity
  8
RUNDUNGEN
  6
Continuous
 62
     7
100
AcDbLine
 10
219.1573875803
 20
326.5042573623
 30
0.0
 11
219.1573875803
 21
312.7783978839
 31
0.0
  0
LWPOLYLINE
  5
D5
330
1F
100
AcDbEntity
  8
GEWINDE
  6
DASHED
 62
     8
100
AcDbPolyline
 90
        2
 70
     0
 43
0.35
 10
204.1573836702
 20
316.6413276231
 10
204.1573836702
 20
307.1413276231
  0
LWPOLYLINE
  5
D6
330
1F
100
AcDbEntity
  8
GEWINDE
  6
DASHED
 62
     8
100
AcDbPolyline
 90
        2
 70
     0
 43
0.35
 10
198.1573914904
 20
316.6413276231
 10
198.1573914904
 20
307.1413276231
  0
ARC
  5
D7
330
1F
100
AcDbEntity
  8
FASEN
  6
Continuous
 62
     7
100
AcDbCircle
 10
76.9102690806
 20
295.4748607952
 30
0.0
 40
19.30214621160041
100
AcDbArc
 50
228.5120350855009
 51
229.9916611027136
  0
ARC
  5
D8
330
1F
100
AcDbEntity
  8
FASEN
  6
Continuous
 62
     7
100
AcDbCircle
 10
72.0904538356
 20
280.2913276231
 30
0.0
 40
8.0
100
AcDbArc
 50
90.0
 51
174.8048049323972
  0
ARC
  5
D9
330
1F
100
AcDbEntity
  8
FASEN
  6
Continuous
 62
     7
100
AcDbCircle
 10
72.0904538356
 20
280.2913276231
 30
0.0
 40
7.599980211799959
100
AcDbArc
 50
90.0
 51
176.9903069153985
  0
ARC
  5
DA
330
1F
100
AcDbEntity
  8
BEZUGSACHSEN
  6
Continuous
 62
     7
100
AcDbCircle
 10
17.1573875803
 20
311.6313276231
 30
0.0
 40
2.0
100
AcDbArc
 50
270.0
 51
355.2355361864949
  0
ARC
  5
DB
330
1F
100
AcDbEntity
  8
BEZUGSACHSEN
  6
Continuous
 62
     7
100
AcDbCircle
 10
11.1573875803
 20
286.0411360601
 30
0.0
 40
2.0
100
AcDbArc
 50
179.9999999971339
 51
267.1318795137018
  0
ARC
  5
DC
330
1F
100
AcDbEntity
  8
BEZUGSACHSEN
  6
Continuous
 62
     7
100
AcDbCircle
 10
78.2823875803
 20
272.6413276231
 30
0.0
 40
1.0
100
AcDbArc
 50
90.0
 51
180.0
  0
ARC
  5
DD
330
1F
100
AcDbEntity
  8
BEZUGSACHSEN
  6
Continuous
 62
     7
100
AcDbCircle
 10
57.5354502394
 20
280.9590776231
 30
0.0
 40
1.0
100
AcDbArc
 50
90.0
 51
104.9999999996981
  0
ARC
  5
DE
330
1F
100
AcDbEntity
  8
BEZUGSACHSEN
  6
Continuous
 62
     7
100
AcDbCircle
 10
58.4568162916
 20
280.9590776231
 30
0.0
 40
0.9999999999998533
100
AcDbArc
 50
45.49026120128917
 51
90.0
  0
ARC
  5
DF
330
1F
100
AcDbEntity
  8
0
  6
Continuous
 62
     7
100
AcDbCircle
 10
-168.0344011791
 20
390.4589022558
 30
0.0
 40
267.5030866019999
100
AcDbArc
 50
335.7734949145001
 51
336.5002085551
  0
ARC
  5
E0
330
1F
100
AcDbEntity
  8
BEZUGSACHSEN
  6
Continuous
 62
     7
100
AcDbCircle
 10
66.1725955914
 20
419.6940973899
 30
0.0
 40
50.30340021035247
100
AcDbArc
 50
264.2781515101899
 51
269.9826780125999
  0
ARC
  5
E1
330
1F
100
AcDbEntity
  8
BEZUGSACHSEN
  6
Continuous
 62
     7
100
AcDbCircle
 10
66.1421795792
 20
419.6940971892
 30
0.0
 40
50.30340000969741
100
AcDbArc
 50
270.017321976058
 51
275.7218485012678
  0
ARC
  5
E2
330
1F
100
AcDbEntity
  8
0
  6
Continuous
 62
     7
100
AcDbCircle
 10
74.1283875803
 20
319.6413276231
 30
0.0
 40
10.02100000000002
100
AcDbArc
 50
90.0
 51
270.0
  0
ARC
  5
E3
330
1F
100
AcDbEntity
  8
FASEN
  6
Continuous
 62
     7
100
AcDbCircle
 10
74.1283875803
 20
319.6413276231
 30
0.0
 40
9.620999207599993
100
AcDbArc
 50
90.0
 51
270.0
  0
ARC
  5
E4
330
1F
100
AcDbEntity
  8
BEZUGSACHSEN
  6
Continuous
 62
     7
100
AcDbCircle
 10
17.1573875803
 20
327.6513276231
 30
0.0
 40
1.999999999999931
100
AcDbArc
 50
4.76494791109227
 51
90.0
  0
ARC
  5
E5
330
1F
100
AcDbEntity
  8
BEZUGSACHSEN
  6
Continuous
 62
     7
100
AcDbCircle
 10
11.1573875803
 20
353.2415191862
 30
0.0
 40
1.999999999947542
100
AcDbArc
 50
92.86812048644147
 51
180.0000000143238
  0
ARC
  5
E6
330
1F
100
AcDbEntity
  8
BEZUGSACHSEN
  6
Continuous
 62
     7
100
AcDbCircle
 10
78.2823875803
 20
366.6413276231
 30
0.0
 40
1.0
100
AcDbArc
 50
180.0
 51
270.0
  0
ARC
  5
E7
330
1F
100
AcDbEntity
  8
BEZUGSACHSEN
  6
Continuous
 62
     7
100
AcDbCircle
 10
57.5354502394
 20
358.3235776231
 30
0.0
 40
1.000000000009914
100
AcDbArc
 50
255.0000000003019
 51
270.0
  0
ARC
  5
E8
330
1F
100
AcDbEntity
  8
BEZUGSACHSEN
  6
Continuous
 62
     7
100
AcDbCircle
 10
58.4568162916
 20
358.3235776231
 30
0.0
 40
1.0
100
AcDbArc
 50
270.0
 51
314.5097387987131
  0
ARC
  5
E9
330
1F
100
AcDbEntity
  8
BEZUGSACHSEN
  6
Continuous
 62
     7
100
AcDbCircle
 10
195.4874341827
 20
-1286.4014317046
 30
0.0
 40
1632.1727637359
100
AcDbArc
 50
96.2726189838
 51
96.48809068979999
  0
ARC
  5
EA
330
1F
100
AcDbEntity
  8
0
  6
Continuous
 62
     7
100
AcDbCircle
 10
143.1573875803
 20
107.1413276231
 30
0.0
 40
200.0
100
AcDbArc
 50
90.0
 51
101.2122714176519
  0
ARC
  5
EB
330
1F
100
AcDbEntity
  8
RUNDUNGEN
  6
Continuous
 62
     7
100
AcDbCircle
 10
143.1573875803
 20
107.1413276231
 30
0.0
 40
200.0
100
AcDbArc
 50
90.0
 51
101.2122714176519
  0
ARC
  5
EC
330
1F
100
AcDbEntity
  8
RUNDUNGEN
  6
Continuous
 62
     7
100
AcDbCircle
 10
108.1573875803
 20
283.7057634532
 30
0.0
 40
20.00000000001351
100
AcDbArc
 50
101.2122714176745
 51
180.0
  0
ARC
  5
ED
330
1F
100
AcDbEntity
  8
RUNDUNGEN
  6
Continuous
 62
     7
100
AcDbCircle
 10
218.1573875803
 20
312.7783978839
 30
0.0
 40
0.999999999949584
100
AcDbArc
 50
294.9999999987737
 51
0.0
  0
ARC
  5
EE
330
1F
100
AcDbEntity
  8
BEZUGSACHSEN
  6
Continuous
 62
     7
100
AcDbCircle
 10
80.0323875803
 20
272.6413276231
 30
0.0
 40
1.0
100
AcDbArc
 50
0.0
 51
90.0
  0
ARC
  5
EF
330
1F
100
AcDbEntity
  8
RUNDUNGEN
  6
Continuous
 62
     7
100
AcDbCircle
 10
208.2131583151
 20
308.1413276231
 30
0.0
 40
1.0
100
AcDbArc
 50
270.0
 51
294.9999999987737
  0
ARC
  5
F0
330
1F
100
AcDbEntity
  8
BEZUGSACHSEN
  6
Continuous
 62
     7
100
AcDbCircle
 10
195.4874341827
 20
1925.6840869509
 30
0.0
 40
1632.172763736
100
AcDbArc
 50
263.5119093102
 51
263.7273810162
  0
ARC
  5
F1
330
1F
100
AcDbEntity
  8
0
  6
Continuous
 62
     7
100
AcDbCircle
 10
326.3491763406
 20
390.4589022562
 30
0.0
 40
267.5030866029
100
AcDbArc
 50
203.4997914449
 51
204.226505085534
  0
ARC
  5
F2
330
1F
100
AcDbEntity
  8
0
  6
Continuous
 62
     7
100
AcDbCircle
 10
143.1573875803
 20
532.1413276231
 30
0.0
 40
200.0000000000176
100
AcDbArc
 50
258.7877285823481
 51
270.0
  0
ARC
  5
F3
330
1F
100
AcDbEntity
  8
RUNDUNGEN
  6
Continuous
 62
     7
100
AcDbCircle
 10
143.1573875803
 20
532.1413276231
 30
0.0
 40
200.0000000000176
100
AcDbArc
 50
258.7877285823481
 51
270.0
  0
ARC
  5
F4
330
1F
100
AcDbEntity
  8
RUNDUNGEN
  6
Continuous
 62
     7
100
AcDbCircle
 10
108.1573875803
 20
355.576891793
 30
0.0
 40
20.0
100
AcDbArc
 50
180.0
 51
258.7877285823255
  0
ARC
  5
F5
330
1F
100
AcDbEntity
  8
BEZUGSACHSEN
  6
Continuous
 62
     7
100
AcDbCircle
 10
80.0323875803
 20
366.6413276231
 30
0.0
 40
1.0
100
AcDbArc
 50
270.0
 51
0.0
  0
ARC
  5
F6
330
1F
100
AcDbEntity
  8
RUNDUNGEN
  6
Continuous
 62
     7
100
AcDbCircle
 10
218.1573875803
 20
326.5042573623
 30
0.0
 40
1.0
100
AcDbArc
 50
0.0
 51
65.00000000364744
  0
ARC
  5
F7
330
1F
100
AcDbEntity
  8
RUNDUNGEN
  6
Continuous
 62
     7
100
AcDbCircle
 10
208.2131583151
 20
331.1413276231
 30
0.0
 40
1.000000000040203
100
AcDbArc
 50
65.00000000364744
 51
90.0
  0
CIRCLE
  5
F8
330
1F
100
AcDbEntity
  8
BEZUGSACHSEN
  6
Continuous
 62
     7
100
AcDbCircle
 10
44.1573875803
 20
319.6413276231
 30
0.0
 40
6.0
  0
SPLINE
  5
F9
330
1F
100
AcDbEntity
  8
0
  6
Continuous
 62
     2
100
AcDbSpline
210
0.0
220
0.0
230
1.0
 70
     8
 71
     3
 72
   172
 73
   168
 74
   166
 42
0.0000000001
 43
0.0000000001
 44
0.00000001
 40
0.0
 40
0.0
 40
0.0
 40
0.0
 40
0.0005080712156031
 40
0.0018652647369072
 40
0.0040693678829605
 40
0.0071181686193488
 40
0.0110094555620978
 40
0.0157410179812588
 40
0.0213106458039609
 40
0.0277161296182459
 40
0.0350481805908071
 40
0.0432309779434679
 40
0.0522612392176413
 40
0.0621356842498534
 40
0.0728510352637845
 40
0.0844040169358185
 40
0.0967913564448631
 40
0.1100097835120425
 40
0.1240553811438848
 40
0.138921638901939
 40
0.1546014030624913
 40
0.1710875264424968
 40
0.1883728686988933
 40
0.206450296587928
 40
0.2253126841964065
 40
0.2449529131529953
 40
0.265364479270235
 40
0.2865433137552841
 40
0.3084859658982405
 40
0.3311889971833085
 40
0.3546489816120688
 40
0.3788625059942033
 40
0.4038261702117051
 40
0.4295365874613852
 40
0.4559904426412917
 40
0.4831846688504859
 40
0.5111162767317314
 40
0.5397822970901025
 40
0.5691797813285014
 40
0.5993058018508746
 40
0.6301574524372824
 40
0.6617318485955203
 40
0.6940245814995352
 40
0.7270250809847708
 40
0.7607212579732414
 40
0.7951010519655579
 40
0.8301524319036223
 40
0.8658633970498248
 40
0.9022219778850795
 40
0.9392162370281787
 40
0.9822566747827519
 40
1.026083179412441
 40
1.070667140692758
 40
1.115979999010523
 40
1.161993247794659
 40
1.208678436081561
 40
1.256007171225072
 40
1.303958328444258
 40
1.352539674885589
 40
1.401766253897667
 40
1.451653178249725
 40
1.502215629519992
 40
1.553468857320942
 40
1.605428178375387
 40
1.6581023708512
 40
1.711473864781342
 40
1.765518562955836
 40
1.820212449346077
 40
1.875531592530366
 40
1.931452149283239
 40
1.987950368339268
 40
2.054558898946016
 40
2.121856562725982
 40
2.189778530078697
 40
2.25826008328954
 40
2.327236629108792
 40
2.396643711982793
 40
2.480407369041832
 40
2.564572035067366
 40
2.649011352121209
 40
2.733598992313025
 40
2.818208694192829
 40
2.902742287805109
 40
2.987213644673801
 40
3.07166464853617
 40
3.156137189426312
 40
3.240673151935034
 40
3.32528619579612
 40
3.409877085236985
 40
3.494318278369854
 40
3.578482165977172
 40
3.662241108262542
 40
3.731640496321069
 40
3.800605978478729
 40
3.869073353675774
 40
3.936978282542128
 40
4.004256300587972
 40
4.070842830741419
 40
4.127320550317321
 40
4.183219467559186
 40
4.238516236345307
 40
4.293187418743374
 40
4.34720948872099
 40
4.40055883568603
 40
4.45321176786736
 40
4.5051510728687
 40
4.556385696630818
 40
4.60693107610548
 40
4.656802581432077
 40
4.706015514998136
 40
4.754585110648596
 40
4.802526533058927
 40
4.849847573618717
 40
4.896526741323232
 40
4.942535179959853
 40
4.987843974990336
 40
5.032424156296202
 40
5.076246700775346
 40
5.1192825348025
 40
5.156271949913137
 40
5.192624987697109
 40
5.228329859199328
 40
5.263374743319112
 40
5.297747787723514
 40
5.331437109740013
 40
5.364430797230549
 40
5.396716909450606
 40
5.428285010538151
 40
5.45913077040451
 40
5.489251369330304
 40
5.518643965908027
 40
5.547305697390291
 40
5.575233680062222
 40
5.602425009641753
 40
5.628876761712459
 40
5.65458591087077
 40
5.679549088948439
 40
5.703762832620167
 40
5.727223665252963
 40
5.749928097149784
 40
5.771872625814819
 40
5.793053736244597
 40
5.813467901252632
 40
5.833110977118689
 40
5.851976391424031
 40
5.870056959089723
 40
5.887345487486896
 40
5.903834776649378
 40
5.919517619505436
 40
5.934386802138651
 40
5.948435104088253
 40
5.961655963829006
 40
5.974045475534589
 40
5.9856003957591
 40
5.996317478518515
 40
6.006193475330263
 40
6.015225135262542
 40
6.023409204998337
 40
6.030742428926718
 40
6.037147702553565
 40
6.042717393451068
 40
6.047449277030577
 40
6.051341128035938
 40
6.054390720547259
 40
6.056595827984041
 40
6.05795422310893
 40
6.058463678031445
 40
6.058463678031445
 40
6.058463678031445
 40
6.058463678031445
 10
204.1573836702
 20
307.1413089077
 30
0.0
 10
204.1572190743195
 20
307.1413487826857
 30
0.0
 10
204.1566147990089
 20
307.1414951743771
 30
0.0
 10
204.1552962831315
 20
307.1418137476411
 30
0.0
 10
204.1531543335606
 20
307.1423303452532
 30
0.0
 10
204.150190863187
 20
307.1430434623845
 30
0.0
 10
204.1464078409545
 20
307.1439518254812
 30
0.0
 10
204.1418072098817
 20
307.145054054025
 30
0.0
 10
204.1363909228218
 20
307.1463488080677
 30
0.0
 10
204.1301308024009
 20
307.147841925235
 30
0.0
 10
204.1230225186256
 20
307.1495334639077
 30
0.0
 10
204.1150619039188
 20
307.1514226146443
 30
0.0
 10
204.1062752900826
 20
307.1535013892845
 30
0.0
 10
204.096665483125
 20
307.1557673808349
 30
0.0
 10
204.0862352896059
 20
307.1582181845501
 30
0.0
 10
204.0749875155813
 20
307.1608513935745
 30
0.0
 10
204.0629249666465
 20
307.1636645991404
 30
0.0
 10
204.0500506605616
 20
307.1666553490541
 30
0.0
 10
204.0363686629473
 20
307.1698209222581
 30
0.0
 10
204.0218840378165
 20
307.1731571535406
 30
0.0
 10
204.0066029103984
 20
307.1766596589134
 30
0.0
 10
203.990531614564
 20
307.1803239960809
 30
0.0
 10
203.9736764845696
 20
307.1841457242615
 30
0.0
 10
203.9560438544025
 20
307.1881204015144
 30
0.0
 10
203.9376400577748
 20
307.1922435847379
 30
0.0
 10
203.9184712317943
 20
307.1965108776474
 30
0.0
 10
203.898542522515
 20
307.2009180874794
 30
0.0
 10
203.8778577118115
 20
307.2054604722227
 30
0.0
 10
203.856419599301
 20
307.2101335244171
 30
0.0
 10
203.8342307862112
 20
307.2149327757818
 30
0.0
 10
203.8112938739712
 20
307.2198537587991
 30
0.0
 10
203.7876114639183
 20
307.2248920055226
 30
0.0
 10
203.7631861571847
 20
307.2300430471589
 30
0.0
 10
203.7380205365684
 20
307.2353024213817
 30
0.0
 10
203.7121170865909
 20
307.2406656746771
 30
0.0
 10
203.6854779807636
 20
307.2461274277495
 30
0.0
 10
203.6581053018229
 20
307.2516823320002
 30
0.0
 10
203.6300011127862
 20
307.2573250393629
 30
0.0
 10
203.6011674768562
 20
307.2630502024475
 30
0.0
 10
203.571606457149
 20
307.2688524734385
 30
0.0
 10
203.5413201167433
 20
307.2747265044432
 30
0.0
 10
203.5103110250491
 20
307.2806668503998
 30
0.0
 10
203.4785842838983
 20
307.2866675927481
 30
0.0
 10
203.4461479133863
 20
307.2927216041297
 30
0.0
 10
203.4130124651929
 20
307.2988212665755
 30
0.0
 10
203.3791889974224
 20
307.3049588661805
 30
0.0
 10
203.3446885681417
 20
307.311126689011
 30
0.0
 10
203.3095222354906
 20
307.3173170207513
 30
0.0
 10
203.2737010571244
 20
307.3235221481326
 30
0.0
 10
203.2354542933836
 20
307.3300379024507
 30
0.0
 10
203.1947326076943
 20
307.3368476352082
 30
0.0
 10
203.1514920685851
 20
307.3439320887013
 30
0.0
 10
203.1074801054077
 20
307.3509915155452
 30
0.0
 10
203.0627242140011
 20
307.3580137913324
 30
0.0
 10
203.0172518890123
 20
307.3649867914794
 30
0.0
 10
202.9710906249075
 20
307.3718983888396
 30
0.0
 10
202.924265540762
 20
307.3787368152018
 30
0.0
 10
202.8767898513718
 20
307.3854919105593
 30
0.0
 10
202.8286624312466
 20
307.3921550386236
 30
0.0
 10
202.7798702845038
 20
307.3987193831255
 30
0.0
 10
202.7303980352495
 20
307.4051784541211
 30
0.0
 10
202.6802303081599
 20
307.4115257644461
 30
0.0
 10
202.6293517280884
 20
307.4177548287855
 30
0.0
 10
202.5777491053918
 20
307.4238588933967
 30
0.0
 10
202.5254201936189
 20
307.4298300362118
 30
0.0
 10
202.4723757732274
 20
307.4356580183178
 30
0.0
 10
202.418637549233
 20
307.4413312273401
 30
0.0
 10
202.3642294149874
 20
307.4468378125722
 30
0.0
 10
202.3091752641337
 20
307.4521659193334
 30
0.0
 10
202.2534989877746
 20
307.4573036981357
 30
0.0
 10
202.1940512221887
 20
307.4625175960057
 30
0.0
 10
202.130798512182
 20
307.4677463100417
 30
0.0
 10
202.0637217976479
 20
307.4729256909657
 30
0.0
 10
201.9959950640234
 20
307.4777836236894
 30
0.0
 10
201.9276841551837
 20
307.4823049434132
 30
0.0
 10
201.858854903374
 20
307.4864744893223
 30
0.0
 10
201.7849167003423
 20
307.4905326510312
 30
0.0
 10
201.7058971914734
 20
307.4943663486985
 30
0.0
 10
201.6218467880715
 20
307.4978652657931
 30
0.0
 10
201.537499876265
 20
307.5007976736312
 30
0.0
 10
201.4529865339884
 20
307.5031552427386
 30
0.0
 10
201.3684274962167
 20
307.5049299240872
 30
0.0
 10
201.2838968770252
 20
307.5061137187565
 30
0.0
 10
201.1994129356348
 20
307.5067049495512
 30
0.0
 10
201.1149472753582
 20
307.506703521257
 30
0.0
 10
201.0304621697679
 20
307.5061094089061
 30
0.0
 10
200.945929293303
 20
307.5049226582605
 30
0.0
 10
200.861367332423
 20
307.5031449110148
 30
0.0
 10
200.7768512527077
 20
307.5007842589965
 30
0.0
 10
200.6925029956959
 20
307.4978488461221
 30
0.0
 10
200.6084539170603
 20
307.4943470991826
 30
0.0
 10
200.52943892782
 20
307.4905109633338
 30
0.0
 10
200.4555086727572
 20
307.4864507671832
 30
0.0
 10
200.3866905170934
 20
307.4822796196657
 30
0.0
 10
200.3183938168154
 20
307.477757028949
 30
0.0
 10
200.2506841456511
 20
307.4728981963065
 30
0.0
 10
200.1836270889322
 20
307.4677183271559
 30
0.0
 10
200.1203951692357
 20
307.462489564434
 30
0.0
 10
200.060968834268
 20
307.4572760263025
 30
0.0
 10
200.0053140922336
 20
307.4521389165811
 30
0.0
 10
199.9502821935692
 20
307.4468117525443
 30
0.0
 10
199.895896625024
 20
307.4413063397651
 30
0.0
 10
199.8421808758883
 20
307.4356344889949
 30
0.0
 10
199.789158435153
 20
307.4298080070419
 30
0.0
 10
199.7368506193415
 20
307.4238384640061
 30
0.0
 10
199.6852678989375
 20
307.4177360665084
 30
0.0
 10
199.6344078159526
 20
307.4115086819552
 30
0.0
 10
199.5842570481719
 20
307.4051630174435
 30
0.0
 10
199.5348001036966
 20
307.3987055136223
 30
0.0
 10
199.4860214904581
 20
307.3921426129502
 30
0.0
 10
199.4379057158133
 20
307.3854807607066
 30
0.0
 10
199.3904396992531
 20
307.3787267329692
 30
0.0
 10
199.3436223915002
 20
307.3718891503637
 30
0.0
 10
199.2974672726083
 20
307.3649782127372
 30
0.0
 10
199.2519998879451
 20
307.3580057501759
 30
0.0
 10
199.2072481903526
 20
307.3509839565195
 30
0.0
 10
199.1632401328524
 20
307.3439250230401
 30
0.0
 10
199.1200036696671
 20
307.3368411408032
 30
0.0
 10
199.0792864031349
 20
307.3300320791809
 30
0.0
 10
199.0410445747724
 20
307.3235171088608
 30
0.0
 10
199.0052288177085
 20
307.317312871059
 30
0.0
 10
198.9700684455039
 20
307.3111235429234
 30
0.0
 10
198.9355743691162
 20
307.3049568146116
 30
0.0
 10
198.9017574999805
 20
307.2988203773637
 30
0.0
 10
198.8686287494609
 20
307.292721922024
 30
0.0
 10
198.8361990289561
 20
307.2866691394206
 30
0.0
 10
198.8044787480351
 20
307.2806696252678
 30
0.0
 10
198.7734758073987
 20
307.274730489238
 30
0.0
 10
198.7431952190106
 20
307.2688576260634
 30
0.0
 10
198.7136394852594
 20
307.2630564610909
 30
0.0
 10
198.6848106067786
 20
307.2573323234175
 30
0.0
 10
198.656710584241
 20
307.2516905420521
 30
0.0
 10
198.6293414184052
 20
307.2461364455835
 30
0.0
 10
198.6027051098445
 20
307.2406753632768
 30
0.0
 10
198.5768036865116
 20
307.2353126265123
 30
0.0
 10
198.5516393056378
 20
307.2300536055012
 30
0.0
 10
198.5272144809423
 20
307.2249027576341
 30
0.0
 10
198.5035318629619
 20
307.2198645570079
 30
0.0
 10
198.4805941282218
 20
307.2149434857902
 30
0.0
 10
198.4584039534526
 20
307.2101440253024
 30
0.0
 10
198.4369640154761
 20
307.2054706564383
 30
0.0
 10
198.4162769909146
 20
307.2009278608496
 30
0.0
 10
198.396345754273
 20
307.1965201592823
 30
0.0
 10
198.3771741596603
 20
307.1922523063425
 30
0.0
 10
198.3587674210606
 20
307.1881285117456
 30
0.0
 10
198.3411317408102
 20
307.1841531882191
 30
0.0
 10
198.3242735173552
 20
307.1803307951728
 30
0.0
 10
198.3081991494171
 20
307.1766657908613
 30
0.0
 10
198.2929150359863
 20
307.1731626323769
 30
0.0
 10
198.2784275756673
 20
307.169825778329
 30
0.0
 10
198.2647429533439
 20
307.1666596278257
 30
0.0
 10
198.2518662673785
 20
307.1636683553568
 30
0.0
 10
198.2398015880167
 20
307.160854681362
 30
0.0
 10
198.2285519123493
 20
307.1582210515386
 30
0.0
 10
198.2181200202122
 20
307.1557698669952
 30
0.0
 10
198.208508691902
 20
307.1535035269287
 30
0.0
 10
198.1997207082152
 20
307.1514244284456
 30
0.0
 10
198.1917588494003
 20
307.1495349708828
 30
0.0
 10
198.1846498464363
 20
307.1478432360896
 30
0.0
 10
198.1783894023746
 20
307.1463500019402
 30
0.0
 10
198.1729730700696
 20
307.1450551876256
 30
0.0
 10
198.1683721439724
 20
307.1439528337719
 30
0.0
 10
198.1645885907379
 20
307.1430442878991
 30
0.0
 10
198.1616243671336
 20
307.1423309383134
 30
0.0
 10
198.1594814559851
 20
307.1418140658187
 30
0.0
 10
198.1581617837578
 20
307.1414951837373
 30
0.0
 10
198.1575566744752
 20
307.1413485744034
 30
0.0
 10
198.1573916313
 20
307.1413085868
 30
0.0
 11
204.1573836702
 21
307.1413089077
 31
0.0
 11
204.1568898759471
 21
307.1414285053419
 31
0.0
 11
204.1555706737342
 21
307.1417473780056
 31
0.0
 11
204.1534280138923
 21
307.1422641753357
 31
0.0
 11
204.1504638467526
 21
307.1429775469767
 31
0.0
 11
204.1466801226463
 21
307.1438861425732
 31
0.0
 11
204.1420787919043
 21
307.1449886117697
 31
0.0
 11
204.1366618048579
 21
307.1462836042107
 31
0.0
 11
204.1304311118381
 21
307.1477697695408
 31
0.0
 11
204.1232982314491
 21
307.1494671171249
 31
0.0
 11
204.1153365523548
 21
307.1513565187533
 31
0.0
 11
204.1065488798947
 21
307.1534355645474
 31
0.0
 11
204.0969380194083
 21
307.1557018446284
 31
0.0
 11
204.0865067762353
 21
307.1581529491177
 31
0.0
 11
204.0752579557153
 21
307.1607864681365
 31
0.0
 11
204.0631943631876
 21
307.163599991806
 31
0.0
 11
204.050318803992
 21
307.1665911102476
 31
0.0
 11
204.0366346714381
 21
307.1697570744106
 31
0.0
 11
204.0221477109059
 21
307.1730937785131
 31
0.0
 11
204.0068642557492
 21
307.1765967776001
 31
0.0
 11
203.9907906393219
 21
307.1802616267171
 31
0.0
 11
203.9739331949779
 21
307.1840838809092
 31
0.0
 11
203.9562982560709
 21
307.1880590952217
 31
0.0
 11
203.9378921559548
 21
307.1921828246998
 31
0.0
 11
203.9187212279835
 21
307.1964506243888
 31
0.0
 11
203.8987911834915
 21
307.2008580451655
 31
0.0
 11
203.8781052454594
 21
307.2054006212934
 31
0.0
 11
203.8566660148454
 21
307.2100738828684
 31
0.0
 11
203.8344760926074
 21
307.2148733599861
 31
0.0
 11
203.8115380797035
 21
307.2197945827425
 31
0.0
 11
203.7878545770917
 21
307.2248330812331
 31
0.0
 11
203.7634281857299
 21
307.2299843855538
 31
0.0
 11
203.7382615065761
 21
307.2352440258003
 31
0.0
 11
203.712357050852
 21
307.2406073855233
 31
0.0
 11
203.6857169711924
 21
307.2460692620183
 31
0.0
 11
203.6583433304992
 21
307.2516243060354
 31
0.0
 11
203.6302381916742
 21
307.2572671683244
 31
0.0
 11
203.6014036176194
 21
307.2629924996355
 31
0.0
 11
203.5718416712365
 21
307.2687949507185
 31
0.0
 11
203.5415544154275
 21
307.2746691723236
 31
0.0
 11
203.5105439130941
 21
307.2806098152005
 31
0.0
 11
203.4788137263607
 21
307.2866111357446
 31
0.0
 11
203.446373414241
 21
307.2926658129323
 31
0.0
 11
203.4132340349708
 21
307.2987661313854
 31
0.0
 11
203.3794066467864
 21
307.3049043757253
 31
0.0
 11
203.3449023079239
 21
307.3110728305739
 31
0.0
 11
203.3097320766191
 21
307.3172637805528
 31
0.0
 11
203.2739070111082
 21
307.3234695102836
 31
0.0
 11
203.2374381696272
 21
307.3296823043881
 31
0.0
 11
203.1949872137071
 21
307.3367812918913
 31
0.0
 11
203.1517373471504
 21
307.3438673028204
 31
0.0
 11
203.1077160661532
 21
307.350928210893
 31
0.0
 11
203.0629508669113
 21
307.3579518898264
 31
0.0
 11
203.0174692456208
 21
307.3649262133387
 31
0.0
 11
202.9712986984774
 21
307.3718390551472
 31
0.0
 11
202.9244667216773
 21
307.3786782889696
 31
0.0
 11
202.8769936658741
 21
307.3854327283515
 31
0.0
 11
202.828871300208
 21
307.3920949460567
 31
0.0
 11
202.7800842482801
 21
307.3986584546774
 31
0.0
 11
202.7306171336911
 21
307.405116766806
 31
0.0
 11
202.6804545800421
 21
307.4114633950345
 31
0.0
 11
202.6295812109341
 21
307.4176918519552
 31
0.0
 11
202.5779816499678
 21
307.4237956501603
 31
0.0
 11
202.5256470661413
 21
307.4297674077482
 31
0.0
 11
202.4725948093173
 21
307.4355961649238
 31
0.0
 11
202.4188487747521
 21
307.4412700673979
 31
0.0
 11
202.364432857702
 21
307.4467772608811
 31
0.0
 11
202.3093709534232
 21
307.452105891084
 31
0.0
 11
202.2536869571721
 21
307.4572441037172
 31
0.0
 11
202.1974047642051
 21
307.4621800444914
 31
0.0
 11
202.131022680572
 21
307.4676677873891
 31
0.0
 11
202.0639247559301
 21
307.4728489126529
 31
0.0
 11
201.9961768373724
 21
307.4777082521301
 31
0.0
 11
201.9278447719915
 21
307.482230637668
 31
0.0
 11
201.8589944068803
 21
307.4864009011138
 31
0.0
 11
201.7896915891316
 21
307.4902038743149
 31
0.0
 11
201.7060264014031
 21
307.4942642445267
 31
0.0
 11
201.6219345955359
 21
307.4977655575938
 31
0.0
 11
201.5375462653757
 21
307.5006994964643
 31
0.0
 11
201.4529915047683
 21
307.5030577440859
 31
0.0
 11
201.3684004075593
 21
307.5048319834066
 31
0.0
 11
201.2838750962042
 21
307.5060152793652
 31
0.0
 11
201.1994058064319
 21
307.5066062248796
 31
0.0
 11
201.1149548025817
 21
307.5066047948563
 31
0.0
 11
201.0304843489923
 21
307.5060109642014
 31
0.0
 11
200.9459567100032
 21
307.5048247078213
 31
0.0
 11
200.8613623343394
 21
307.503047407203
 31
0.0
 11
200.7768044094366
 21
307.5006860701808
 31
0.0
 11
200.6924143071171
 21
307.4977491111727
 31
0.0
 11
200.6083233992032
 21
307.4942449445963
 31
0.0
 11
200.5246630575172
 21
307.4901819848695
 31
0.0
 11
200.4553680498378
 21
307.4863771230308
 31
0.0
 11
200.3865288654375
 21
307.4822052624939
 31
0.0
 11
200.31821109284
 21
307.4776816120114
 31
0.0
 11
200.2504803205691
 21
307.4728213803365
 31
0.0
 11
200.1834021371487
 21
307.4676397762223
 31
0.0
 11
200.1170421311026
 21
307.4621520084216
 31
0.0
 11
200.0607804848211
 21
307.4572164267755
 31
0.0
 11
200.005118157416
 21
307.4520788926726
 31
0.0
 11
199.9500786397544
 21
307.4467512164654
 31
0.0
 11
199.8956854227034
 21
307.441245208506
 31
0.0
 11
199.8419619971301
 21
307.435572679147
 31
0.0
 11
199.7889318539015
 21
307.4297454387408
 31
0.0
 11
199.7366184838846
 21
307.4237752976397
 31
0.0
 11
199.6850388807273
 21
307.4176731716032
 31
0.0
 11
199.6341840484916
 21
307.4114463979342
 31
0.0
 11
199.5840384940236
 21
307.4051014193423
 31
0.0
 11
199.5345867241694
 21
307.398644678537
 31
0.0
 11
199.4858132457751
 21
307.3920826182282
 31
0.0
 11
199.4377025656868
 21
307.3854216811249
 31
0.0
 11
199.3902391907508
 21
307.3786683099367
 31
0.0
 11
199.3434148689977
 21
307.3718299057351
 31
0.0
 11
199.2972503138414
 21
307.3649177031335
 31
0.0
 11
199.2517734798773
 21
307.3579438951073
 31
0.0
 11
199.2070123217012
 21
307.3509206746319
 31
0.0
 11
199.1629947939084
 21
307.3438602346829
 31
0.0
 11
199.1197488510946
 21
307.3367747682361
 31
0.0
 11
199.0773024478552
 21
307.3296764682667
 31
0.0
 11
199.0408383907082
 21
307.3234644342515
 31
0.0
 11
199.0050187953135
 21
307.3172596021116
 31
0.0
 11
198.9698545731991
 21
307.3110696641409
 31
0.0
 11
198.9353566358934
 21
307.3049023126332
 31
0.0
 11
198.9015358949246
 21
307.2987652398827
 31
0.0
 11
198.8684032618208
 21
307.2926661381831
 31
0.0
 11
198.8359696481104
 21
307.2866126998288
 31
0.0
 11
198.8042459653215
 21
307.2806126171131
 31
0.0
 11
198.7732416398745
 21
307.274673188702
 31
0.0
 11
198.7429601573317
 21
307.2688001386644
 31
0.0
 11
198.713403518151
 21
307.2629987974414
 31
0.0
 11
198.6845737227898
 21
307.2572744954738
 31
0.0
 11
198.6564727717061
 21
307.2516325632026
 31
0.0
 11
198.6291026653576
 21
307.2460783310688
 31
0.0
 11
198.602465404202
 21
307.2406171295133
 31
0.0
 11
198.576562988697
 21
307.2352542889771
 31
0.0
 11
198.5513975318927
 21
307.2299949986948
 31
0.0
 11
198.5269715975531
 21
307.224843883148
 31
0.0
 11
198.5032878620315
 21
307.2198054256119
 31
0.0
 11
198.4803490016809
 21
307.2148841093611
 31
0.0
 11
198.4581576928544
 21
307.2100844176707
 31
0.0
 11
198.436716611905
 21
307.2054108338156
 31
0.0
 11
198.4160284351859
 21
307.2008678410708
 31
0.0
 11
198.3960958390502
 21
307.1964599227111
 31
0.0
 11
198.3769221201831
 21
307.1921915583541
 31
0.0
 11
198.3585130563362
 21
307.1880672129278
 31
0.0
 11
198.3408750455971
 21
307.1840913477038
 31
0.0
 11
198.324014486053
 21
307.1802684239535
 31
0.0
 11
198.3079377757912
 21
307.1766029029482
 31
0.0
 11
198.2926513128991
 21
307.1730992459592
 31
0.0
 11
198.2781614954641
 21
307.1697619142583
 31
0.0
 11
198.2644747215735
 21
307.1665953691165
 31
0.0
 11
198.2515967862024
 21
307.1636037286198
 31
0.0
 11
198.2395310720522
 21
307.1607897381529
 31
0.0
 11
198.2282803587082
 21
307.1581557999141
 31
0.0
 11
198.2178474257557
 21
307.1557043161019
 31
0.0
 11
198.2082350527802
 21
307.1534376889147
 31
0.0
 11
198.199446019367
 21
307.1513583205506
 31
0.0
 11
198.1914831051015
 21
307.1494686132081
 31
0.0
 11
198.184349089569
 21
307.1477709690857
 31
0.0
 11
198.178118610022
 21
307.1462848147031
 31
0.0
 11
198.1727015728875
 21
307.1449897605045
 31
0.0
 11
198.1680999422826
 21
307.1438871644833
 31
0.0
 11
198.1643156823244
 21
307.1429783846326
 31
0.0
 11
198.16135075713
 21
307.1422647789457
 31
0.0
 11
198.1592071308164
 21
307.1417477054158
 31
0.0
 11
198.1578867675007
 21
307.1414285220361
 31
0.0
 11
198.1573916313
 21
307.1413085868
 31
0.0
  0
SPLINE
  5
FA
330
1F
100
AcDbEntity
  8
GEWINDE
  6
Continuous
 62
     7
100
AcDbSpline
210
0.0
220
0.0
230
1.0
 70
     8
 71
     3
 72
    19
 73
    15
 74
    13
 42
0.0000000001
 43
0.0000000001
 44
0.00000001
 40
0.0
 40
0.0
 40
0.0
 40
0.0
 40
0.3715075957819798
 40
0.743036500319106
 40
1.150337579766595
 40
1.557642391055295
 40
2.037173464761272
 40
2.51671898335966
 40
2.996264668849539
 40
3.47579590948675
 40
3.883100795795171
 40
4.290401950239956
 40
4.661931032771029
 40
5.033438806681075
 40
5.033438806681075
 40
5.033438806681075
 40
5.033438806681075
 10
198.6573875803
 20
307.1413276231
 30
0.0
 10
198.7790092248139
 20
307.1646828564461
 30
0.0
 10
199.022259489758
 20
307.2113946627367
 30
0.0
 10
199.4012087048117
 20
307.2704318759244
 30
0.0
 10
199.7934749415251
 20
307.3203795966288
 30
0.0
 10
200.223022393044
 20
307.3609268414693
 30
0.0
 10
200.6778164380815
 20
307.3876008800104
 30
0.0
 10
201.1573872157111
 20
307.3970179643453
 30
0.0
 10
201.6369580496316
 20
307.3876009068163
 30
0.0
 10
202.091752232046
 20
307.3609268813599
 30
0.0
 10
202.5212997904006
 20
307.3203796436793
 30
0.0
 10
202.913566137297
 20
307.2704319224518
 30
0.0
 10
203.2925154958431
 20
307.2113946959638
 30
0.0
 10
203.5357658774385
 20
307.1646828675247
 30
0.0
 10
203.6573875803
 20
307.1413276231
 30
0.0
 11
198.6573875803
 21
307.1413276231
 31
0.0
 11
199.0226335056863
 21
307.2092489578366
 31
0.0
 11
199.38965227687
 21
307.2669633278441
 31
0.0
 11
199.7937198005256
 21
307.3181844723638
 31
0.0
 11
200.1992227004834
 21
307.3564546621305
 31
0.0
 11
200.6779335717142
 21
307.3844895050062
 31
0.0
 11
201.1573871601844
 21
307.3938789091831
 31
0.0
 11
201.6368409160632
 21
307.3844895297768
 31
0.0
 11
202.1155519552474
 21
307.3564546994704
 31
0.0
 11
202.521054931398
 21
307.3181845186016
 31
0.0
 11
202.9251225311822
 21
307.2669633782718
 31
0.0
 11
203.2921414794672
 21
307.2092489886783
 31
0.0
 11
203.6573875803
 21
307.1413276231
 31
0.0
  0
SPLINE
  5
FB
330
1F
100
AcDbEntity
  8
BEZUGSACHSEN
  6
Continuous
 62
     7
100
AcDbSpline
210
0.0
220
0.0
230
1.0
 70
     8
 71
     3
 72
    15
 73
    11
 74
     9
 42
0.0000000001
 43
0.0000000001
 44
0.00000001
 40
0.0
 40
0.0
 40
0.0
 40
0.0
 40
0.1110371613650582
 40
0.2222522337255725
 40
0.3333980191826443
 40
0.4445069474939473
 40
0.555620106531266
 40
0.6667525642188942
 40
0.7778876033539058
 40
0.8889820915996556
 40
0.8889820915996556
 40
0.8889820915996556
 40
0.8889820915996556
 10
11.0573130956
 20
303.9647952369
 30
0.0
 10
11.02067136871913
 20
303.9703273897121
 30
0.0
 10
10.9473292051883
 20
303.9814005593129
 30
0.0
 10
10.84081265517787
 20
304.014419122852
 30
0.0
 10
10.73839974743783
 20
304.0580094103345
 30
0.0
 10
10.6409497818189
 20
304.1117889181674
 30
0.0
 10
10.54864498608103
 20
304.1738840535091
 30
0.0
 10
10.46164835794541
 20
304.2431707271327
 30
0.0
 10
10.37939560248088
 20
304.3180526787457
 30
0.0
 10
10.32861561610142
 20
304.3720152602867
 30
0.0
 10
10.3032302559
 20
304.3989916277
 30
0.0
 11
11.0573130956
 21
303.9647952369
 31
0.0
 11
10.94797081048978
 21
303.9841217961097
 31
0.0
 11
10.84147885692148
 21
304.0161882294218
 31
0.0
 11
10.73921067631432
 21
304.0597152883641
 31
0.0
 11
10.64180780985977
 21
304.1131743900862
 31
0.0
 11
10.54953604307315
 21
304.1750779858244
 31
0.0
 11
10.46243893966438
 21
304.244103471911
 31
0.0
 11
10.38039903517783
 21
304.3190731390797
 31
0.0
 11
10.3032302559
 21
304.3989916277
 31
0.0
  0
SPLINE
  5
FC
330
1F
100
AcDbEntity
  8
BEZUGSACHSEN
  6
Continuous
 62
     7
100
AcDbSpline
210
0.0
220
0.0
230
1.0
 70
     8
 71
     3
 72
    15
 73
    11
 74
     9
 42
0.0000000001
 43
0.0000000001
 44
0.00000001
 40
0.0
 40
0.0
 40
0.0
 40
0.0
 40
0.1110944831157743
 40
0.2222295181063949
 40
0.3333620401541338
 40
0.4444752609924291
 40
0.5555842177976364
 40
0.6667300353884325
 40
0.7779450181579922
 40
0.8889820871697162
 40
0.8889820871697162
 40
0.8889820871697162
 40
0.8889820871697162
 10
10.3032302559
 20
334.8836636186
 30
0.0
 10
10.32861561546886
 20
334.9106399842739
 30
0.0
 10
10.37939560080861
 20
334.9646025625751
 30
0.0
 10
10.46164837002788
 20
335.0394845259935
 30
0.0
 10
10.54864502195953
 20
335.108771234923
 30
0.0
 10
10.64094986238844
 20
335.1708663980166
 30
0.0
 10
10.73839988439437
 20
335.2246458901189
 30
0.0
 10
10.84081279827412
 20
335.268236135692
 30
0.0
 10
10.94732929685783
 20
335.301254691541
 30
0.0
 10
11.0206713995793
 20
335.3123278581534
 30
0.0
 10
11.0573130956
 20
335.3178600094
 30
0.0
 11
10.3032302559
 21
334.8836636186
 31
0.0
 11
10.38039903298627
 21
334.9635821022053
 31
0.0
 11
10.46243893320327
 21
335.0385517679025
 31
0.0
 11
10.54953608179455
 21
335.1075773005985
 31
0.0
 11
10.6418079033786
 21
335.1694809255862
 31
0.0
 11
10.73921081147406
 21
335.2229400106596
 31
0.0
 11
10.84147903487434
 21
335.2664670511112
 31
0.0
 11
10.947970902979
 21
335.2985334575206
 31
0.0
 11
11.0573130956
 21
335.3178600094
 31
0.0
  0
SPLINE
  5
FD
330
1F
100
AcDbEntity
  8
BEZUGSACHSEN
  6
Continuous
 62
     7
100
AcDbSpline
210
0.0
220
0.0
230
1.0
 70
     8
 71
     3
 72
    27
 73
    23
 74
    21
 42
0.0000000001
 43
0.0000000001
 44
0.00000001
 40
0.0
 40
0.0
 40
0.0
 40
0.0
 40
0.1260969825526134
 40
0.252246495921448
 40
0.3668867952585931
 40
0.4815825894073659
 40
0.5839596006878841
 40
0.6859489161183373
 40
0.7334568410203699
 40
0.7809568848488339
 40
0.8274002263933825
 40
0.8738421606812771
 40
0.9204907318919653
 40
0.9671431399483318
 40
1.015111401836446
 40
1.063087497136388
 40
1.165500418739234
 40
1.268190478973543
 40
1.380949153916571
 40
1.493646517790554
 40
1.615655563742897
 40
1.737631867591659
 40
1.737631867591659
 40
1.737631867591659
 40
1.737631867591659
 10
9.1573875803
 20
334.2755601093
 30
0.0
 10
9.15811612177628
 20
334.3176030373611
 30
0.0
 10
9.159573508232357
 20
334.4017064081713
 30
0.0
 10
9.173018070195198
 20
334.5234537357357
 30
0.0
 10
9.19597350351994
 20
334.6398714521106
 30
0.0
 10
9.229939403871223
 20
334.7454469098961
 30
0.0
 10
9.276165162684457
 20
334.841604972164
 30
0.0
 10
9.32470833120927
 20
334.9107743378408
 30
0.0
 10
9.370147656769966
 20
334.9583118194319
 30
0.0
 10
9.40605373486428
 20
334.9890071028889
 30
0.0
 10
9.44470116595901
 20
335.0155421385928
 30
0.0
 10
9.485655653178906
 20
335.0377704844877
 30
0.0
 10
9.528795279379718
 20
335.0555637013597
 30
0.0
 10
9.573975914008274
 20
335.0690971084182
 30
0.0
 10
9.620683136994476
 20
335.0782942337556
 30
0.0
 10
9.686507128188607
 20
335.0852495541384
 30
0.0
 10
9.771234880190558
 20
335.0833842975005
 30
0.0
 10
9.876066483698414
 20
335.0664696365639
 30
0.0
 10
9.981645726061853
 20
335.0370550037067
 30
0.0
 10
10.08980366415826
 20
334.9953033662562
 30
0.0
 10
10.19745592542377
 20
334.9445075391373
 30
0.0
 10
10.26797530023759
 20
334.9039431109042
 30
0.0
 10
10.3032302559
 20
334.8836636186
 30
0.0
 11
9.1573875803
 21
334.2755601093
 31
0.0
 11
9.161518939867054
 21
334.401589395091
 31
0.0
 11
9.175285699004949
 21
334.526985471848
 31
0.0
 11
9.198137275118238
 21
334.6393251518424
 31
0.0
 11
9.233775464501687
 21
334.7483437037172
 31
0.0
 11
9.278675229275361
 21
334.8403494837639
 31
0.0
 11
9.337847658198658
 21
334.923418395622
 31
0.0
 11
9.370700158355183
 21
334.9577362650484
 31
0.0
 11
9.406837253281283
 21
334.9885642480185
 31
0.0
 11
9.44512451814477
 21
335.0148524454291
 31
0.0
 11
9.485947126096407
 21
335.0369966984178
 31
0.0
 11
9.529053269746065
 21
335.0548278390334
 31
0.0
 11
9.573732841813461
 21
335.0682510658188
 31
0.0
 11
9.620783647559664
 21
335.0775878654418
 31
0.0
 11
9.6684875348128
 21
335.082691282059
 31
0.0
 11
9.770887175672442
 21
335.081042020695
 31
0.0
 11
9.872351426007581
 21
335.0652225904001
 31
0.0
 11
9.981075142464414
 21
335.035328238848
 31
0.0
 11
10.08639313476172
 21
334.9952181862102
 31
0.0
 11
10.19668582066712
 21
334.943047976991
 31
0.0
 11
10.3032302559
 21
334.8836636186
 31
0.0
  0
SPLINE
  5
FE
330
1F
100
AcDbEntity
  8
0
  6
Continuous
 62
     7
100
AcDbSpline
210
0.0
220
0.0
230
1.0
 70
     8
 71
     3
 72
    19
 73
    15
 74
    13
 42
0.0000000001
 43
0.0000000001
 44
0.00000001
 40
0.0
 40
0.0
 40
0.0
 40
0.0
 40
0.1159638160282718
 40
0.2322191968637772
 40
0.3483355687823726
 40
0.4644089768044466
 40
0.5804847761185264
 40
0.6965670370349457
 40
0.8126291299710934
 40
0.9287241177834274
 40
1.160429553166058
 40
1.392722689963839
 40
1.625028291394853
 40
1.856795134153583
 40
1.856795134153583
 40
1.856795134153583
 40
1.856795134153583
 10
78.2823875803
 20
285.9786257114
 30
0.0
 10
78.2436980332185
 20
285.976802291382
 30
0.0
 10
78.16622166293331
 20
285.9731508667684
 30
0.0
 10
78.0528537008798
 20
285.9449921932019
 30
0.0
 10
77.94483407253563
 20
285.9014923399642
 30
0.0
 10
77.84394355075898
 20
285.8433224110069
 30
0.0
 10
77.75118974257757
 20
285.7730903996862
 30
0.0
 10
77.66706021521276
 20
285.692788915026
 30
0.0
 10
77.59167739442513
 20
285.6042613337141
 30
0.0
 10
77.50289162692883
 20
285.477458683161
 30
0.0
 10
77.41270785992184
 20
285.3053014510001
 30
0.0
 10
77.33761607926938
 20
285.08504112538
 30
0.0
 10
77.29095020591308
 20
284.8566205880335
 30
0.0
 10
77.28523957894579
 20
284.70182044823
 30
0.0
 10
77.2823875803
 20
284.6245102349
 30
0.0
 11
78.2823875803
 21
285.9786257114
 31
0.0
 11
78.16679254716767
 21
285.9693847729749
 31
0.0
 11
78.05370715698976
 21
285.9424216852156
 31
0.0
 11
77.9460001604084
 21
285.8990371866595
 31
0.0
 11
77.84529865778839
 21
285.8413115994392
 31
0.0
 11
77.75262833139823
 21
285.7714130887745
 31
0.0
 11
77.66851405762128
 21
285.6914138372377
 31
0.0
 11
77.5931387453131
 21
285.6031586860501
 31
0.0
 11
77.52641288628654
 21
285.5081549706895
 31
0.0
 11
77.4183092396551
 21
285.3032134903327
 31
0.0
 11
77.34235954781357
 21
285.0836873057611
 31
0.0
 11
77.29727596694586
 21
284.855798378447
 31
0.0
 11
77.2823875803
 21
284.6245102349
 31
0.0
  0
SPLINE
  5
FF
330
1F
100
AcDbEntity
  8
0
  6
Continuous
 62
     7
100
AcDbSpline
210
0.0
220
0.0
230
1.0
 70
     8
 71
     3
 72
    19
 73
    15
 74
    13
 42
0.0000000001
 43
0.0000000001
 44
0.00000001
 40
0.0
 40
0.0
 40
0.0
 40
0.0
 40
0.2317668197502226
 40
0.4640724028578795
 40
0.6963664518957472
 40
0.9280727903134376
 40
1.044168501227236
 40
1.160231315496363
 40
1.276313911480219
 40
1.392390051177627
 40
1.50846288380054
 40
1.624578659486138
 40
1.740832696811859
 40
1.856795195276638
 40
1.856795195276638
 40
1.856795195276638
 40
1.856795195276638
 10
81.0323875803
 20
284.6245102349
 30
0.0
 10
81.02953558220274
 20
284.7018204405888
 30
0.0
 10
81.02382495627549
 20
284.856620566673
 30
0.0
 10
80.97715903547477
 20
285.0850413901305
 30
0.0
 10
80.90206703122733
 20
285.305302280222
 30
0.0
 10
80.81188270885863
 20
285.4774601945788
 30
0.0
 10
80.72309625105403
 20
285.604263322145
 30
0.0
 10
80.64771281308136
 20
285.6927911619946
 30
0.0
 10
80.56358269816069
 20
285.7730927083832
 30
0.0
 10
80.47082862213333
 20
285.8433244242193
 30
0.0
 10
80.36993816060249
 20
285.9014938924299
 30
0.0
 10
80.26191916728189
 20
285.9449930936619
 30
0.0
 10
80.14855216829562
 20
285.9731510578285
 30
0.0
 10
80.07107668714391
 20
285.9768023548969
 30
0.0
 10
80.0323875803
 20
285.9786257114
 30
0.0
 11
81.0323875803
 21
284.6245102349
 31
0.0
 11
81.01749919767528
 21
284.8557983556498
 31
0.0
 11
80.97241563237102
 21
285.0836872673643
 31
0.0
 11
80.89646560140038
 21
285.3032142999001
 31
0.0
 11
80.78836133476442
 21
285.5081564741787
 31
0.0
 11
80.72163488222573
 21
285.6031606563192
 31
0.0
 11
80.64625887256085
 21
285.6914161605275
 31
0.0
 11
80.56214410798914
 21
285.77141538222
 31
0.0
 11
80.46947327197043
 21
285.8413137824781
 31
0.0
 11
80.36877207844452
 21
285.899038751907
 31
0.0
 11
80.26106548922102
 21
285.9424226659871
 31
0.0
 11
80.14798131451332
 21
285.9693850587816
 31
0.0
 11
80.0323875803
 21
285.9786257114
 31
0.0
  0
SPLINE
  5
100
330
1F
100
AcDbEntity
  8
BEZUGSACHSEN
  6
Continuous
 62
     7
100
AcDbSpline
210
0.0
220
0.0
230
1.0
 70
     8
 71
     3
 72
    11
 73
     7
 74
     5
 42
0.0000000001
 43
0.0000000001
 44
0.00000001
 40
0.0
 40
0.0
 40
0.0
 40
0.0
 40
0.5462907431041426
 40
1.093000863589368
 40
1.646070107119414
 40
2.198197048716619
 40
2.198197048716619
 40
2.198197048716619
 40
2.198197048716619
 10
18.7112335272
 20
334.6513276231
 30
0.0
 10
18.77430432906546
 20
334.4803959938746
 30
0.0
 10
18.90049435109387
 20
334.1384015143482
 30
0.0
 10
19.04013166411983
 20
333.6071273851433
 30
0.0
 10
19.13762002813244
 20
333.0637029801824
 30
0.0
 10
19.15080214264747
 20
332.6951183396092
 30
0.0
 10
19.1573875803
 20
332.5109831489
 30
0.0
 11
18.7112335272
 21
334.6513276231
 31
0.0
 11
18.89208485982919
 21
334.1358410844906
 31
0.0
 11
19.03257634452751
 21
333.6074907286014
 31
0.0
 11
19.12464299775792
 21
333.0621382558813
 31
0.0
 11
19.1573875803
 21
332.5109831489
 31
0.0
  0
SPLINE
  5
101
330
1F
100
AcDbEntity
  8
BEZUGSACHSEN
  6
Continuous
 62
     7
100
AcDbSpline
210
0.0
220
0.0
230
1.0
 70
     8
 71
     3
 72
    19
 73
    15
 74
    13
 42
0.0000000001
 43
0.0000000001
 44
0.00000001
 40
0.0
 40
0.0
 40
0.0
 40
0.0
 40
0.1462385987747023
 40
0.2927479274788343
 40
0.4364790706194311
 40
0.5801659236534814
 40
0.7203799973126637
 40
0.8606059383104023
 40
0.9980411884176404
 40
1.135484020426845
 40
1.405415631051026
 40
1.675815514063815
 40
1.943997429541158
 40
2.211934834793824
 40
2.211934834793824
 40
2.211934834793824
 40
2.211934834793824
 10
17.1573875803
 20
335.9999752106
 30
0.0
 10
17.20610238563876
 20
336.0032832879109
 30
0.0
 10
17.30362218150625
 20
336.0099055667402
 30
0.0
 10
17.44895844181674
 20
335.993546253988
 30
0.0
 10
17.58961537894934
 20
335.9583744879188
 30
0.0
 10
17.72246751241577
 20
335.9055688012928
 30
0.0
 10
17.84692197549244
 20
335.8378970135471
 30
0.0
 10
17.96172453266026
 20
335.7585968121522
 30
0.0
 10
18.06783447043096
 20
335.6695121725855
 30
0.0
 10
18.19693693558874
 20
335.5415646370381
 30
0.0
 10
18.33997678547142
 20
335.3657623481415
 30
0.0
 10
18.48488438716368
 20
335.1380768822453
 30
0.0
 10
18.60952113559424
 20
334.8994142627382
 30
0.0
 10
18.67733970676639
 20
334.7339980222826
 30
0.0
 10
18.7112335272
 20
334.6513276231
 30
0.0
 11
17.1573875803
 21
335.9999752106
 31
0.0
 11
17.30352144211905
 21
336.0055089436474
 31
0.0
 11
17.4492308029657
 21
335.990219549971
 31
0.0
 11
17.58866088452496
 21
335.9553212138375
 31
0.0
 11
17.72229322146896
 21
335.9025167608273
 31
0.0
 11
17.84560701230043
 21
335.8357807477393
 31
0.0
 11
17.96113812363014
 21
335.7563082566268
 31
0.0
 11
18.06655067339299
 21
335.6681229839078
 31
0.0
 11
18.16433917706049
 21
335.5715417195695
 31
0.0
 11
18.33558757292176
 21
335.3628863546035
 31
0.0
 11
18.48192999345233
 21
335.1355100306676
 31
0.0
 11
18.6057976192591
 21
334.89764798858
 31
0.0
 11
18.7112335272
 21
334.6513276231
 31
0.0
  0
SPLINE
  5
102
330
1F
100
AcDbEntity
  8
BEZUGSACHSEN
  6
Continuous
 62
     7
100
AcDbSpline
210
0.0
220
0.0
230
1.0
 70
     8
 71
     3
 72
    47
 73
    43
 74
    41
 42
0.0000000001
 43
0.0000000001
 44
0.00000001
 40
0.0
 40
0.0
 40
0.0
 40
0.0
 40
0.6366022431821177
 40
1.27359500217123
 40
1.592921746398826
 40
1.912076344884402
 40
2.231392290412993
 40
2.550826842709751
 40
3.189774321109071
 40
3.829081696925584
 40
4.468337152440592
 40
5.107221744740101
 40
5.42617634124978
 40
5.74503335680608
 40
6.063356731575896
 40
6.381780214873391
 40
7.017059195651577
 40
7.652639340965886
 40
8.287532214203589
 40
8.922347946451424
 40
9.559226748504875
 40
10.19613435928482
 40
10.83451785496387
 40
11.47287689969093
 40
12.11234487359427
 40
12.7518958894132
 40
13.39354300512985
 40
14.03487957349518
 40
14.35615205765174
 40
14.67732107705027
 40
14.99840882465095
 40
15.31959604113741
 40
15.96011121016845
 40
16.60099592077126
 40
17.23809108067343
 40
17.87482555191168
 40
18.19205670324335
 40
18.50917199092251
 40
18.82571084621026
 40
19.14241581820572
 40
19.7733897499132
 40
20.4039893073855
 40
20.4039893073855
 40
20.4039893073855
 40
20.4039893073855
 10
37.657971986
 20
319.6413276037
 30
0.0
 10
37.66397762988672
 20
319.8536074133953
 30
0.0
 10
37.67599260174845
 20
320.2782972532208
 30
0.0
 10
37.75725794695643
 20
320.8044400143365
 30
0.0
 10
37.84997754355754
 20
321.2194143904608
 30
0.0
 10
37.93527050770157
 20
321.5272383661505
 30
0.0
 10
38.03550912114086
 20
321.8305310429238
 30
0.0
 10
38.18899467029357
 20
322.2279684054487
 30
0.0
 10
38.41746661706887
 20
322.710067982311
 30
0.0
 10
38.74708157762571
 20
323.2588838551341
 30
0.0
 10
39.12930879472196
 20
323.7724193944829
 30
0.0
 10
39.48816349184704
 20
324.166922156586
 30
0.0
 10
39.79711684540501
 20
324.4597954546658
 30
0.0
 10
40.03901195437568
 20
324.6675172757963
 30
0.0
 10
40.29065520786657
 20
324.8630266729148
 30
0.0
 10
40.63794931503224
 20
325.1065218755538
 30
0.0
 10
41.09368964979211
 20
325.3784039455765
 30
0.0
 10
41.66916907447621
 20
325.6497330580889
 30
0.0
 10
42.26827983963312
 20
325.8635166889012
 30
0.0
 10
42.88573024207969
 20
326.0182064202731
 30
0.0
 10
43.51600080375722
 20
326.1120134039276
 30
0.0
 10
44.15359473847678
 20
326.1441401287323
 30
0.0
 10
44.79177338271404
 20
326.1137105557823
 30
0.0
 10
45.42478580391378
 20
326.0210393006225
 30
0.0
 10
46.0460194883423
 20
325.8665473393926
 30
0.0
 10
46.65015524029953
 20
325.6515102068463
 30
0.0
 10
47.23063431386296
 20
325.3775868411167
 30
0.0
 10
47.69026333808435
 20
325.1024199630597
 30
0.0
 10
48.04016232674726
 20
324.8558102642025
 30
0.0
 10
48.29329395589632
 20
324.6579060718317
 30
0.0
 10
48.53629259524932
 20
324.4477275424309
 30
0.0
 10
48.84553693875064
 20
324.1522082022863
 30
0.0
 10
49.20385712955117
 20
323.7547372195508
 30
0.0
 10
49.58380754790152
 20
323.2390704580304
 30
0.0
 10
49.91028057751064
 20
322.6894743015768
 30
0.0
 10
50.13565171750335
 20
322.2083687598712
 30
0.0
 10
50.28674270066325
 20
321.8123785722479
 30
0.0
 10
50.38515561821325
 20
321.510952221452
 30
0.0
 10
50.46882239638339
 20
321.2052568535127
 30
0.0
 10
50.55964175382395
 20
320.7937048357687
 30
0.0
 10
50.63915672949904
 20
320.2722796192267
 30
0.0
 10
50.65092901411532
 20
319.8516033300567
 30
0.0
 10
50.6568134097
 20
319.6413276037
 30
0.0
 11
37.657971986
 21
319.6413276037
 31
0.0
 11
37.68922065703981
 21
320.2771624380578
 31
0.0
 11
37.78266185941341
 21
320.9072644271861
 31
0.0
 11
37.85260236644784
 21
321.2188376851124
 31
0.0
 11
37.93774370542398
 21
321.5264260628704
 31
0.0
 11
38.03796824356193
 21
321.8296054075228
 31
0.0
 11
38.15304813331398
 21
322.1275903940166
 31
0.0
 11
38.4266440275583
 21
322.7049976738508
 31
0.0
 11
38.75586354123644
 21
323.2530199659037
 31
0.0
 11
39.13748779658383
 21
323.765865425215
 31
0.0
 11
39.56742243271263
 21
324.2384431764206
 31
0.0
 11
39.79889469377376
 21
324.457880244834
 31
0.0
 11
40.04079709480104
 21
324.6656133061091
 31
0.0
 11
40.29217090195552
 21
324.8609104643104
 31
0.0
 11
40.55290018024743
 21
325.0437047699019
 31
0.0
 11
41.09843382445726
 21
325.3692388333326
 31
0.0
 11
41.67334364457597
 21
325.6402385009502
 31
0.0
 11
42.27128983232078
 21
325.8536613606665
 31
0.0
 11
42.88708236452974
 21
326.0079032848798
 31
0.0
 11
43.51701464647614
 21
326.1017112198685
 31
0.0
 11
44.15311776819498
 21
326.1337131449507
 31
0.0
 11
44.79077872723032
 21
326.1033488751991
 31
0.0
 11
45.42239626015761
 21
326.0108201656886
 31
0.0
 11
46.04296913226381
 21
325.8565198090659
 31
0.0
 11
46.64546993938637
 21
325.6420010936779
 31
0.0
 11
47.22577713575287
 21
325.3682227545918
 31
0.0
 11
47.7760021237988
 21
325.0387306356383
 31
0.0
 11
48.03860942794626
 21
324.8536538599896
 31
0.0
 11
48.29162988533811
 21
324.6558403438623
 31
0.0
 11
48.53447818670243
 21
324.445787864268
 31
0.0
 11
48.76668062210945
 21
324.2238796466974
 31
0.0
 11
49.1955966798437
 21
323.7481794289377
 31
0.0
 11
49.57570733851679
 21
323.2321861155629
 31
0.0
 11
49.90114648424196
 21
322.6844821761937
 31
0.0
 11
50.17122734237165
 21
322.1078652176025
 31
0.0
 11
50.28431778755584
 21
321.8114766979476
 31
0.0
 11
50.38276189089501
 21
321.5100287518647
 31
0.0
 11
50.46624469627064
 21
321.2046970173308
 31
0.0
 11
50.53479411971468
 21
320.8954996437453
 31
0.0
 11
50.62622119763921
 21
320.271184665616
 31
0.0
 11
50.6568134097
 21
319.6413276037
 31
0.0
  0
SPLINE
  5
103
330
1F
100
AcDbEntity
  8
BEZUGSACHSEN
  6
Continuous
 62
     7
100
AcDbSpline
210
0.0
220
0.0
230
1.0
 70
     8
 71
     3
 72
    11
 73
     7
 74
     5
 42
0.0000000001
 43
0.0000000001
 44
0.00000001
 40
0.0
 40
0.0
 40
0.0
 40
0.0
 40
0.55212694061949
 40
1.105196183264978
 40
1.651906304669035
 40
2.198197048716902
 40
2.198197048716902
 40
2.198197048716902
 40
2.198197048716902
 10
19.1573875803
 20
306.7716720973
 30
0.0
 10
19.15080214267094
 20
306.5875369069172
 30
0.0
 10
19.13762002820177
 20
306.2189522669657
 30
0.0
 10
19.04013166440432
 20
305.6755278622907
 30
0.0
 10
18.90049435138086
 20
305.1442537327436
 30
0.0
 10
18.77430432916209
 20
304.8022592526252
 30
0.0
 10
18.7112335272
 20
304.6313276231
 30
0.0
 11
19.1573875803
 21
306.7716720973
 31
0.0
 11
19.1246429978732
 21
306.2205169912912
 31
0.0
 11
19.03257634492982
 21
305.6751645194198
 31
0.0
 11
18.89208486009641
 21
305.1468141626158
 31
0.0
 11
18.7112335272
 21
304.6313276231
 31
0.0
  0
SPLINE
  5
104
330
1F
100
AcDbEntity
  8
BEZUGSACHSEN
  6
Continuous
 62
     7
100
AcDbSpline
210
0.0
220
0.0
230
1.0
 70
     8
 71
     3
 72
    19
 73
    15
 74
    13
 42
0.0000000001
 43
0.0000000001
 44
0.00000001
 40
0.0
 40
0.0
 40
0.0
 40
0.0
 40
0.2679411643110201
 40
0.5361267936765217
 40
0.8065304773480861
 40
1.076465993197521
 40
1.21391337611157
 40
1.35135310484735
 40
1.491586367042051
 40
1.631807897536876
 40
1.775491562731541
 40
1.919219204701167
 40
2.065713007362042
 40
2.21193640931288
 40
2.21193640931288
 40
2.21193640931288
 40
2.21193640931288
 10
18.7112335272
 20
304.6313276231
 30
0.0
 10
18.67733928342776
 20
304.5486560433933
 30
0.0
 10
18.60951987133994
 20
304.3832374558079
 30
0.0
 10
18.48488136501053
 20
304.144571482168
 30
0.0
 10
18.33997056569781
 20
303.9168834861529
 30
0.0
 10
18.19692693417851
 20
303.7410789948365
 30
0.0
 10
18.06782054724892
 20
303.6131292757361
 30
0.0
 10
17.96170544816274
 20
303.5240422549376
 30
0.0
 10
17.84689602051543
 20
303.444740614599
 30
0.0
 10
17.72243640829861
 20
303.3770701471338
 30
0.0
 10
17.58958285318148
 20
303.3242674604304
 30
0.0
 10
17.44893205430563
 20
303.2891011964412
 30
0.0
 10
17.30360667119669
 20
303.2727489945624
 30
0.0
 10
17.20609725213581
 20
303.2793717279282
 30
0.0
 10
17.1573875803
 20
303.2826800357
 30
0.0
 11
18.7112335272
 21
304.6313276231
 31
0.0
 11
18.605796267543
 21
304.385003747261
 31
0.0
 11
18.48192675194939
 21
304.1471385019964
 31
0.0
 11
18.33558126564909
 21
303.9197596314242
 31
0.0
 11
18.16432907452313
 21
303.711102329248
 31
0.0
 11
18.06653663582113
 21
303.6145185728361
 31
0.0
 11
17.96111964654158
 21
303.526331627055
 31
0.0
 11
17.84558100281885
 21
303.4468571680604
 31
0.0
 11
17.72225899293797
 21
303.3801206750955
 31
0.0
 11
17.58862830476829
 21
303.3273207241195
 31
0.0
 11
17.44920060357252
 21
303.2924272977269
 31
0.0
 11
17.30350616502226
 21
303.2771444709737
 31
0.0
 11
17.1573875803
 21
303.2826800357
 31
0.0
  0
SPLINE
  5
105
330
1F
100
AcDbEntity
  8
BEZUGSACHSEN
  6
Continuous
 62
     7
100
AcDbSpline
210
0.0
220
0.0
230
1.0
 70
     8
 71
     3
 72
    47
 73
    43
 74
    41
 42
0.0000000001
 43
0.0000000001
 44
0.00000001
 40
0.0
 40
0.0
 40
0.0
 40
0.0
 40
0.6302393213906023
 40
1.260854867258943
 40
1.577476088330747
 40
1.893930800152476
 40
2.210999113812914
 40
2.528183472174098
 40
3.164887038224429
 40
3.801951183352434
 40
4.442851001557715
 40
5.083381259733654
 40
5.404527292272904
 40
5.725573838733282
 40
6.046670710008242
 40
6.36787102712465
 40
7.009090242497339
 40
7.650619763902067
 40
8.290330346452043
 40
8.92995876445286
 40
9.568647011318976
 40
10.20735923009133
 40
10.84445705809292
 40
11.4815262648739
 40
12.11643462213662
 40
12.75141965570843
 40
13.38691908728513
 40
14.02211738521622
 40
14.34050449134023
 40
14.65879153784258
 40
14.97761586862376
 40
15.29653774940467
 40
15.93537694097403
 40
16.57458694061904
 40
17.21386274984501
 40
17.85277859067448
 40
18.17219860076941
 40
18.4915002407159
 40
18.81067156630602
 40
19.1300145241609
 40
19.76719627019357
 40
20.40398968277803
 40
20.40398968277803
 40
20.40398968277803
 40
20.40398968277803
 10
50.6568012181
 20
319.6413276418
 30
0.0
 10
50.65093201635453
 20
319.4311716199332
 30
0.0
 10
50.63919010921457
 20
319.0107341225236
 30
0.0
 10
50.55974336666043
 20
318.4895706802926
 30
0.0
 10
50.46901186159537
 20
318.0781792128694
 30
0.0
 10
50.3854064792996
 20
317.7725413725724
 30
0.0
 10
50.28705453793562
 20
317.4711575263674
 30
0.0
 10
50.13603572708769
 20
317.0751843467532
 30
0.0
 10
49.91075313948474
 20
316.5940775380657
 30
0.0
 10
49.58437510472867
 20
316.0444433130803
 30
0.0
 10
49.20450804269331
 20
315.5287154504268
 30
0.0
 10
48.84625360339584
 20
315.1311900482276
 30
0.0
 10
48.5370728656961
 20
314.8356366933003
 30
0.0
 10
48.29414790965297
 20
314.6254517848612
 30
0.0
 10
48.0410990063433
 20
314.427542320516
 30
0.0
 10
47.69131649791576
 20
314.1809189690111
 30
0.0
 10
47.23183126017898
 20
313.9057123597145
 30
0.0
 10
46.65143555320998
 20
313.6316722530158
 30
0.0
 10
46.04728124535302
 20
313.4164837757006
 30
0.0
 10
45.42586609793572
 20
313.2618219366996
 30
0.0
 10
44.79259688650652
 20
313.1690115636774
 30
0.0
 10
44.15413742208919
 20
313.1385008138566
 30
0.0
 10
43.51630440855009
 20
313.1706025562017
 30
0.0
 10
42.88587442155765
 20
313.2644156185534
 30
0.0
 10
42.26830075206421
 20
313.4191294348673
 30
0.0
 10
41.66915734064008
 20
313.6329260069595
 30
0.0
 10
41.0937001191688
 20
313.9042473753849
 30
0.0
 10
40.63801472620702
 20
314.1760922590047
 30
0.0
 10
40.2907588284567
 20
314.4195528115896
 30
0.0
 10
40.03913924715116
 20
314.6150353379196
 30
0.0
 10
39.79726419688011
 20
314.8227283966339
 30
0.0
 10
39.48832791320478
 20
315.1155659447915
 30
0.0
 10
39.12948515631378
 20
315.5100235937317
 30
0.0
 10
38.7472582510643
 20
316.0235082596699
 30
0.0
 10
38.41763380580065
 20
316.572276038373
 30
0.0
 10
38.18914635988035
 20
317.0543394548631
 30
0.0
 10
38.03564485992036
 20
317.4517490140398
 30
0.0
 10
37.93538805699707
 20
317.755031377332
 30
0.0
 10
37.85007156407158
 20
318.0628552490358
 30
0.0
 10
37.75730910870243
 20
318.4778961161426
 30
0.0
 10
37.676016741745
 20
319.0041689152315
 30
0.0
 10
37.6639769422567
 20
319.4289845649505
 30
0.0
 10
37.6579588775
 20
319.6413276436
 30
0.0
 11
50.6568012181
 21
319.6413276418
 31
0.0
 11
50.62626163937877
 21
319.0118286852016
 31
0.0
 11
50.53493036385195
 21
318.3878618873658
 31
0.0
 11
50.46643562516542
 21
318.0787381768465
 31
0.0
 11
50.38301680032868
 21
317.7734761839665
 31
0.0
 11
50.28463005648962
 21
317.4720589247324
 31
0.0
 11
50.17159942538706
 21
317.1756976694685
 31
0.0
 11
49.90161928887473
 21
316.5990676694599
 31
0.0
 11
49.57628266702139
 21
316.0513388976314
 31
0.0
 11
49.19624617222527
 21
315.535272196905
 31
0.0
 11
48.76739567453548
 21
315.059492560655
 31
0.0
 11
48.53525854013835
 21
314.8375756278861
 31
0.0
 11
48.29247604678739
 21
314.6275100526091
 31
0.0
 11
48.03954643850366
 21
314.4296974797124
 31
0.0
 11
47.77703204269643
 21
314.2446141587199
 31
0.0
 11
47.22697386112462
 21
313.9150719322161
 31
0.0
 11
46.64683302946317
 21
313.6412166012967
 31
0.0
 11
46.04422771914035
 21
313.4265157177467
 31
0.0
 11
45.42352844880037
 21
313.2720588340748
 31
0.0
 11
44.79159963489679
 21
313.1793838598728
 31
0.0
 11
44.15361350774687
 21
313.1489371856152
 31
0.0
 11
43.51731851963653
 21
313.1809110898184
 31
0.0
 11
42.88719524553093
 21
313.2747291779411
 31
0.0
 11
42.27131133728949
 21
313.4289875122096
 31
0.0
 11
41.67327886747051
 21
313.6424427953544
 31
0.0
 11
41.0984431189238
 21
313.9134103021279
 31
0.0
 11
40.55297643138242
 21
314.2388991198731
 31
0.0
 11
40.29227413860551
 21
314.4216685480795
 31
0.0
 11
40.04092488679717
 21
314.6169380991789
 31
0.0
 11
39.79904158844761
 21
314.8246432360379
 31
0.0
 11
39.56758575714742
 21
315.0440500823257
 31
0.0
 11
39.1376627262672
 21
315.5165770129908
 31
0.0
 11
38.7560415868094
 21
316.0293681298845
 31
0.0
 11
38.42681011263036
 21
316.5773464110886
 31
0.0
 11
38.15319580548633
 21
317.1547099556504
 31
0.0
 11
38.03810355302636
 21
317.4526745781691
 31
0.0
 11
37.93786386459948
 21
317.7558338467667
 31
0.0
 11
37.85269678438085
 21
318.0634324545756
 31
0.0
 11
37.7827337568974
 21
318.375017273713
 31
0.0
 11
37.68924485991691
 21
319.0053032434272
 31
0.0
 11
37.6579588775
 21
319.6413276436
 31
0.0
  0
SPLINE
  5
106
330
1F
100
AcDbEntity
  8
BEZUGSACHSEN
  6
Continuous
 62
     7
100
AcDbSpline
210
0.0
220
0.0
230
1.0
 70
     8
 71
     3
 72
    27
 73
    23
 74
    21
 42
0.0000000001
 43
0.0000000001
 44
0.00000001
 40
0.0
 40
0.0
 40
0.0
 40
0.0
 40
0.1219765139516172
 40
0.2439857714748824
 40
0.3566831398333639
 40
0.469441814962956
 40
0.5721317672955346
 40
0.6745445881167732
 40
0.7225206521206042
 40
0.7704888797673922
 40
0.8171412936077497
 40
0.8637898734420119
 40
0.9102318001039796
 40
0.9566751324303178
 40
1.004175175749697
 40
1.05168310011931
 40
1.153672388695209
 40
1.256049376628845
 40
1.370745138053956
 40
1.485385401841095
 40
1.611534903891071
 40
1.737631876023453
 40
1.737631876023453
 40
1.737631876023453
 40
1.737631876023453
 10
10.3032302559
 20
304.3989916277
 30
0.0
 10
10.26797523829661
 20
304.3787121024351
 30
0.0
 10
10.19745573917618
 20
304.3381476080371
 30
0.0
 10
10.08980333599036
 20
304.2873517471454
 30
0.0
 10
9.981645320119076
 20
304.2456001112762
 30
0.0
 10
9.876066099150396
 20
304.2161855261348
 30
0.0
 10
9.771234554004465
 20
304.1992709387467
 30
0.0
 10
9.686506884158337
 20
304.1974057154965
 30
0.0
 10
9.620682947751618
 20
304.2043610234739
 30
0.0
 10
9.573975744533138
 20
304.2135581506144
 30
0.0
 10
9.528795127230834
 20
304.2270915956304
 30
0.0
 10
9.48565551658495
 20
304.2448848544713
 30
0.0
 10
9.444701040008505
 20
304.2671132121859
 30
0.0
 10
9.406053613537635
 20
304.2936482438781
 30
0.0
 10
9.37014753490253
 20
304.3243435213835
 30
0.0
 10
9.324708213364874
 20
304.3718809944663
 30
0.0
 10
9.276165073304655
 20
304.4410503615585
 30
0.0
 10
9.229939364376545
 20
304.5372084162787
 30
0.0
 10
9.195973490578693
 20
304.6427838492669
 30
0.0
 10
9.173018066360564
 20
304.7592015401767
 30
0.0
 10
9.159573507994956
 20
304.8809488488675
 30
0.0
 10
9.158116121698878
 20
304.9650522124188
 30
0.0
 10
9.1573875803
 20
305.007095137
 30
0.0
 11
10.3032302559
 21
304.3989916277
 31
0.0
 11
10.19668563183946
 21
304.3396071765399
 31
0.0
 11
10.08639274267079
 21
304.2874369022431
 31
0.0
 11
9.981074734818355
 21
304.2473268778486
 31
0.0
 11
9.872351006275307
 21
304.2174325695496
 31
0.0
 11
9.770886854154162
 21
304.2016132097521
 31
0.0
 11
9.668487313569763
 21
304.199963980639
 31
0.0
 11
9.620783457357216
 21
304.2050673931985
 31
0.0
 11
9.573732687095767
 21
304.2144041957229
 31
0.0
 11
9.529053119662343
 21
304.2278274580348
 31
0.0
 11
9.485946983066412
 21
304.2456586382629
 31
0.0
 11
9.445124390269553
 21
304.2678029031957
 31
0.0
 11
9.406837133723403
 21
304.2940910964342
 31
0.0
 11
9.370700036713561
 21
304.3249190761774
 31
0.0
 11
9.33784753634668
 21
304.3592369446653
 31
0.0
 11
9.278675142123703
 21
304.4423058482703
 31
0.0
 11
9.233775418549108
 21
304.5343116224439
 31
0.0
 11
9.198137258969028
 21
304.6433301496337
 31
0.0
 11
9.175285695571638
 21
304.7556697959367
 31
0.0
 11
9.161518939232206
 21
304.881065861614
 31
0.0
 11
9.1573875803
 21
305.007095137
 31
0.0
  0
SPLINE
  5
107
330
1F
100
AcDbEntity
  8
BEZUGSACHSEN
  6
Continuous
 62
     7
100
AcDbSpline
210
0.0
220
0.0
230
1.0
 70
     8
 71
     3
 72
    11
 73
     7
 74
     5
 42
0.0000000001
 43
0.0000000001
 44
0.00000001
 40
0.0
 40
0.0
 40
0.0
 40
0.0
 40
0.914055666000282
 40
1.828030949185935
 40
2.279806974871064
 40
2.730944124762506
 40
2.730944124762506
 40
2.730944124762506
 40
2.730944124762506
 10
10.4243405071854
 20
304.631327623285
 30
0.0
 10
10.55699521414878
 20
304.9060442209516
 30
0.0
 10
10.8222929623104
 20
305.4554532574788
 30
0.0
 10
11.03764817562297
 20
306.1881641785837
 30
0.0
 10
11.14134238928539
 20
306.7861093846898
 30
0.0
 10
11.15204170680649
 20
307.0872326001165
 30
0.0
 10
11.1573875803
 20
307.2376876747
 30
0.0
 11
10.4243405071854
 21
304.631327623285
 31
0.0
 11
10.79914803696086
 21
305.4650044648554
 31
0.0
 11
11.05843939735873
 21
306.341428339871
 31
0.0
 11
11.13115637085736
 21
306.7873137726327
 31
0.0
 11
11.1573875803
 21
307.2376876747
 31
0.0
  0
SPLINE
  5
108
330
1F
100
AcDbEntity
  8
BEZUGSACHSEN
  6
Continuous
 62
     7
100
AcDbSpline
210
0.0
220
0.0
230
1.0
 70
     8
 71
     3
 72
    11
 73
     7
 74
     5
 42
0.0000000001
 43
0.0000000001
 44
0.00000001
 40
0.0
 40
0.0
 40
0.0
 40
0.0
 40
0.824919236672472
 40
1.650116891930984
 40
2.19049215229343
 40
2.730585915378207
 40
2.730585915378207
 40
2.730585915378207
 40
2.730585915378207
 10
11.1573875803
 20
332.0449675715
 30
0.0
 10
11.13965427596183
 20
332.3201578634769
 30
0.0
 10
11.1041816821159
 20
332.8706313269377
 30
0.0
 10
10.89574686548048
 20
333.5753649120905
 30
0.0
 10
10.6655204345008
 20
334.1675786371709
 30
0.0
 10
10.50471985169882
 20
334.4901059706159
 30
0.0
 10
10.4243405071854
 20
334.651327622915
 30
0.0
 11
11.1573875803
 21
332.0449675715
 31
0.0
 11
11.0738121261843
 21
332.865642227196
 31
0.0
 11
10.85585068407253
 21
333.6615341670953
 31
0.0
 11
10.65791560551333
 21
334.1643533460131
 31
0.0
 11
10.4243405071854
 21
334.651327622915
 31
0.0
  0
SPLINE
  5
109
330
1F
100
AcDbEntity
  8
FASEN
  6
Continuous
 62
     7
100
AcDbSpline
210
0.0
220
0.0
230
1.0
 70
    24
 71
     3
 72
     9
 73
     5
 74
     3
 42
0.0000000001
 43
0.0000000001
 44
0.00000001
 40
0.0
 40
0.0
 40
0.0
 40
0.0
 40
0.2578063726613891
 40
0.5156127453227424
 40
0.5156127453227424
 40
0.5156127453227424
 40
0.5156127453227424
 10
87.7073875815811
 20
280.690364863244
 30
0.0
 10
87.77405424777477
 20
280.7445908577816
 30
0.0
 10
87.90738758016215
 20
280.853042846857
 30
0.0
 10
88.04072091254952
 20
280.9614948359324
 30
0.0
 10
88.1073875787432
 20
281.01572083047
 30
0.0
 11
87.7073875815811
 21
280.690364863244
 31
0.0
 11
87.90738758016215
 21
280.853042846857
 31
0.0
 11
88.1073875787432
 21
281.01572083047
 31
0.0
  0
DIMENSION
  5
116
330
1F
100
AcDbEntity
  8
1
100
AcDbDimension
  2
*D2
 10
229.966988649629
 20
322.6413276231
 30
0.0
 11
226.216988649629
 21
319.760286993669
 31
0.0
 70
    32
  1
<>
 71
     5
 42
-1.0
 53
90.0
  3
ME10_DIM_10
100
AcDbAlignedDimension
 13
219.1573875803
 23
316.6413276231
 33
0.0
 14
219.1573875803
 24
322.6413276231
 34
0.0
 50
90.0
100
AcDbRotatedDimension
  0
DIMENSION
  5
121
330
1F
100
AcDbEntity
  8
1
100
AcDbDimension
  2
*D3
 10
239.994593760726
 20
332.1413276231
 30
0.0
 11
236.244593760726
 21
319.862609494802
 31
0.0
 70
    32
  1
<>
 71
     5
 42
-1.0
 53
90.0
  3
ME10_DIM_11
100
AcDbAlignedDimension
 13
208.2131583151
 23
307.1413276231
 33
0.0
 14
208.2131583151
 24
332.1413276231
 34
0.0
 50
90.0
100
AcDbRotatedDimension
  0
DIMENSION
  5
12C
330
1F
100
AcDbEntity
  8
1
100
AcDbDimension
  2
*D4
 10
219.1573875803
 20
377.438196089209
 30
0.0
 11
160.360672713553
 21
381.188196089209
 31
0.0
 70
    32
  1
<>
 71
     5
 42
-1.0
 53
0.00013888888889
  3
ME10_DIM_12
100
AcDbAlignedDimension
 13
88.1573875803
 23
369.6412907529
 33
0.0
 14
219.1573875803
 24
326.5042573623
 34
0.0
100
AcDbRotatedDimension
  0
DIMENSION
  5
137
330
1F
100
AcDbEntity
  8
1
100
AcDbDimension
  2
*D5
 10
219.1573875803
 20
385.328982374507
 30
0.0
 11
144.286848799057
 21
389.078982374507
 31
0.0
 70
    32
  1
<>
 71
     5
 42
-1.0
 53
0.00013888888889
  3
ME10_DIM_13
100
AcDbAlignedDimension
 13
59.1573875803
 23
369.6413276231
 33
0.0
 14
219.1573875803
 24
326.5042573623
 34
0.0
100
AcDbRotatedDimension
  0
DIMENSION
  5
142
330
1F
100
AcDbEntity
  8
1
100
AcDbDimension
  2
*D6
 10
219.1573875803
 20
392.635265972006
 30
0.0
 11
124.706008757762
 21
396.385265972006
 31
0.0
 70
    32
  1
<>
 71
     5
 42
-1.0
 53
0.00013888888889
  3
ME10_DIM_14
100
AcDbAlignedDimension
 13
9.1573875803
 23
353.2415191857
 33
0.0
 14
219.1573875803
 24
326.5042573623
 34
0.0
100
AcDbRotatedDimension
  0
INSERT
  5
149
330
1F
100
AcDbEntity
  8
1
100
AcDbBlockReference
  2
*D7
 10
0.0
 20
0.0
 30
0.0
  0
ENDSEC
  0
SECTION
  2
OBJECTS
  0
DICTIONARY
  5
C
330
0
100
AcDbDictionary
281
     1
  3
ACAD_GROUP
350
D
  3
ACAD_LAYOUT
350
1A
  3
ACAD_MLEADERSTYLE
350
14C
  3
ACAD_MLINESTYLE
350
17
  3
ACAD_PLOTSETTINGS
350
19
  3
ACAD_PLOTSTYLENAME
350
E
  3
ACAD_SCALELIST
350
4B
  3
ACAD_VISUALSTYLE
350
2A
  3
AcDbVariableDictionary
350
14A
  0
DICTIONARY
  5
D
102
{ACAD_REACTORS
330
C
102
}
330
C
100
AcDbDictionary
281
     1
  0
DICTIONARY
  5
1A
102
{ACAD_REACTORS
330
C
102
}
330
C
100
AcDbDictionary
281
     1
  3
Layout1
350
1E
  3
Layout2
350
26
  3
Model
350
22
  0
DICTIONARY
  5
14C
102
{ACAD_REACTORS
330
C
102
}
330
C
100
AcDbDictionary
281
     1
  0
DICTIONARY
  5
17
102
{ACAD_REACTORS
330
C
102
}
330
C
100
AcDbDictionary
281
     1
  3
Standard
350
18
  0
DICTIONARY
  5
19
102
{ACAD_REACTORS
330
C
102
}
330
C
100
AcDbDictionary
281
     1
  0
ACDBDICTIONARYWDFLT
  5
E
102
{ACAD_REACTORS
330
C
102
}
330
C
100
AcDbDictionary
281
     1
  3
Normal
350
F
100
AcDbDictionaryWithDefault
340
F
  0
DICTIONARY
  5
4B
102
{ACAD_REACTORS
330
C
102
}
330
C
100
AcDbDictionary
281
     1
  3
A0
350
4C
  3
A1
350
4D
  3
A2
350
4E
  3
A3
350
4F
  3
A4
350
50
  3
A5
350
51
  3
A6
350
52
  3
A7
350
53
  3
A8
350
54
  3
A9
350
55
  3
B0
350
56
  3
B1
350
57
  3
B2
350
58
  3
B3
350
59
  3
B4
350
5A
  3
B5
350
5B
  3
B6
350
5C
  3
B7
350
5D
  3
B8
350
5E
  3
B9
350
5F
  3
C0
350
60
  3
C1
350
61
  3
C2
350
62
  3
C3
350
63
  3
C4
350
64
  3
C5
350
65
  3
C6
350
66
  3
C7
350
67
  3
C8
350
68
  3
C9
350
69
  3
D0
350
6A
  3
D1
350
6B
  3
D2
350
6C
  0
DICTIONARY
  5
2A
102
{ACAD_REACTORS
330
C
102
}
330
C
100
AcDbDictionary
281
     1
  3
2dWireframe
350
2F
  3
3D Hidden
350
31
  3
3dWireframe
350
30
  3
Basic
350
32
  3
Brighten
350
36
  3
ColorChange
350
3A
  3
Conceptual
350
34
  3
Dim
350
35
  3
Facepattern
350
39
  3
Flat
350
2B
  3
FlatWithEdges
350
2C
  3
Gouraud
350
2D
  3
GouraudWithEdges
350
2E
  3
Linepattern
350
38
  3
Realistic
350
33
  3
Thicken
350
37
  0
DICTIONARY
  5
14A
102
{ACAD_REACTORS
330
C
102
}
330
C
100
AcDbDictionary
281
     1
  3
CANNOSCALE
350
14D
  0
LAYOUT
  5
1E
102
{ACAD_REACTORS
330
1A
102
}
330
1A
100
AcDbPlotSettings
  1

  2
none_device
  4

  6

 40
0.0
 41
0.0
 42
0.0
 43
0.0
 44
0.0
 45
0.0
 46
0.0
 47
0.0
 48
0.0
 49
0.0
140
0.0
141
0.0
142
1.0
143
1.0
 70
   688
 72
     0
 73
     0
 74
     5
  7

 75
    16
147
1.0
148
0.0
149
0.0
100
AcDbLayout
  1
Layout1
 70
     1
 71
     1
 10
0.0
 20
0.0
 11
12.0
 21
9.0
 12
0.0
 22
0.0
 32
0.0
 14
1.00000000000000E+20
 24
1.00000000000000E+20
 34
1.00000000000000E+20
 15
-1.00000000000000E+20
 25
-1.00000000000000E+20
 35
-1.00000000000000E+20
146
0.0
 13
0.0
 23
0.0
 33
0.0
 16
1.0
 26
0.0
 36
0.0
 17
0.0
 27
1.0
 37
0.0
 76
     0
330
1B
  0
LAYOUT
  5
26
102
{ACAD_REACTORS
330
1A
102
}
330
1A
100
AcDbPlotSettings
  1

  2
none_device
  4

  6

 40
0.0
 41
0.0
 42
0.0
 43
0.0
 44
0.0
 45
0.0
 46
0.0
 47
0.0
 48
0.0
 49
0.0
140
0.0
141
0.0
142
1.0
143
1.0
 70
   688
 72
     0
 73
     0
 74
     5
  7

 75
    16
147
1.0
148
0.0
149
0.0
100
AcDbLayout
  1
Layout2
 70
     1
 71
     2
 10
0.0
 20
0.0
 11
0.0
 21
0.0
 12
0.0
 22
0.0
 32
0.0
 14
0.0
 24
0.0
 34
0.0
 15
0.0
 25
0.0
 35
0.0
146
0.0
 13
0.0
 23
0.0
 33
0.0
 16
1.0
 26
0.0
 36
0.0
 17
0.0
 27
1.0
 37
0.0
 76
     0
330
23
  0
LAYOUT
  5
22
102
{ACAD_REACTORS
330
1A
102
}
330
1A
100
AcDbPlotSettings
  1

  2
none_device
  4

  6

 40
0.0
 41
0.0
 42
0.0
 43
0.0
 44
0.0
 45
0.0
 46
0.0
 47
0.0
 48
0.0
 49
0.0
140
0.0
141
0.0
142
1.0
143
1.0
 70
  1712
 72
     0
 73
     0
 74
     0
  7

 75
     0
147
1.0
148
0.0
149
0.0
100
AcDbLayout
  1
Model
 70
     1
 71
     0
 10
0.0
 20
0.0
 11
12.0
 21
9.0
 12
0.0
 22
0.0
 32
0.0
 14
-13.82208146104919
 24
269.6413276231
 34
0.0
 15
241.994593760726
 25
398.135265972006
 35
0.0
146
0.0
 13
0.0
 23
0.0
 33
0.0
 16
1.0
 26
0.0
 36
0.0
 17
0.0
 27
1.0
 37
0.0
 76
     0
330
1F
331
29
  0
MLINESTYLE
  5
18
102
{ACAD_REACTORS
330
17
102
}
330
17
100
AcDbMlineStyle
  2
Standard
 70
     0
  3

 62
   256
 51
90.0
 52
90.0
 71
     2
 49
0.5
 62
   256
  6
BYLAYER
 49
-0.5
 62
   256
  6
BYLAYER
  0
ACDBPLACEHOLDER
  5
F
102
{ACAD_REACTORS
330
E
102
}
330
E
  0
SCALE
  5
4C
102
{ACAD_REACTORS
330
4B
102
}
330
4B
100
AcDbScale
 70
     0
300
1:1
140
1.0
141
1.0
290
     1
  0
SCALE
  5
4D
102
{ACAD_REACTORS
330
4B
102
}
330
4B
100
AcDbScale
 70
     0
300
1:2
140
1.0
141
2.0
290
     0
  0
SCALE
  5
4E
102
{ACAD_REACTORS
330
4B
102
}
330
4B
100
AcDbScale
 70
     0
300
1:4
140
1.0
141
4.0
290
     0
  0
SCALE
  5
4F
102
{ACAD_REACTORS
330
4B
102
}
330
4B
100
AcDbScale
 70
     0
300
1:5
140
1.0
141
5.0
290
     0
  0
SCALE
  5
50
102
{ACAD_REACTORS
330
4B
102
}
330
4B
100
AcDbScale
 70
     0
300
1:8
140
1.0
141
8.0
290
     0
  0
SCALE
  5
51
102
{ACAD_REACTORS
330
4B
102
}
330
4B
100
AcDbScale
 70
     0
300
1:10
140
1.0
141
10.0
290
     0
  0
SCALE
  5
52
102
{ACAD_REACTORS
330
4B
102
}
330
4B
100
AcDbScale
 70
     0
300
1:16
140
1.0
141
16.0
290
     0
  0
SCALE
  5
53
102
{ACAD_REACTORS
330
4B
102
}
330
4B
100
AcDbScale
 70
     0
300
1:20
140
1.0
141
20.0
290
     0
  0
SCALE
  5
54
102
{ACAD_REACTORS
330
4B
102
}
330
4B
100
AcDbScale
 70
     0
300
1:30
140
1.0
141
30.0
290
     0
  0
SCALE
  5
55
102
{ACAD_REACTORS
330
4B
102
}
330
4B
100
AcDbScale
 70
     0
300
1:40
140
1.0
141
40.0
290
     0
  0
SCALE
  5
56
102
{ACAD_REACTORS
330
4B
102
}
330
4B
100
AcDbScale
 70
     0
300
1:50
140
1.0
141
50.0
290
     0
  0
SCALE
  5
57
102
{ACAD_REACTORS
330
4B
102
}
330
4B
100
AcDbScale
 70
     0
300
1:100
140
1.0
141
100.0
290
     0
  0
SCALE
  5
58
102
{ACAD_REACTORS
330
4B
102
}
330
4B
100
AcDbScale
 70
     0
300
2:1
140
2.0
141
1.0
290
     0
  0
SCALE
  5
59
102
{ACAD_REACTORS
330
4B
102
}
330
4B
100
AcDbScale
 70
     0
300
4:1
140
4.0
141
1.0
290
     0
  0
SCALE
  5
5A
102
{ACAD_REACTORS
330
4B
102
}
330
4B
100
AcDbScale
 70
     0
300
8:1
140
8.0
141
1.0
290
     0
  0
SCALE
  5
5B
102
{ACAD_REACTORS
330
4B
102
}
330
4B
100
AcDbScale
 70
     0
300
10:1
140
10.0
141
1.0
290
     0
  0
SCALE
  5
5C
102
{ACAD_REACTORS
330
4B
102
}
330
4B
100
AcDbScale
 70
     0
300
100:1
140
100.0
141
1.0
290
     0
  0
SCALE
  5
5D
102
{ACAD_REACTORS
330
4B
102
}
330
4B
100
AcDbScale
 70
     0
300
1/128" = 1'-0"
140
0.0078125
141
12.0
290
     0
  0
SCALE
  5
5E
102
{ACAD_REACTORS
330
4B
102
}
330
4B
100
AcDbScale
 70
     0
300
1/64" = 1'-0"
140
0.015625
141
12.0
290
     0
  0
SCALE
  5
5F
102
{ACAD_REACTORS
330
4B
102
}
330
4B
100
AcDbScale
 70
     0
300
1/32" = 1'-0"
140
0.03125
141
12.0
290
     0
  0
SCALE
  5
60
102
{ACAD_REACTORS
330
4B
102
}
330
4B
100
AcDbScale
 70
     0
300
1/16" = 1'-0"
140
0.0625
141
12.0
290
     0
  0
SCALE
  5
61
102
{ACAD_REACTORS
330
4B
102
}
330
4B
100
AcDbScale
 70
     0
300
3/32" = 1'-0"
140
0.09375
141
12.0
290
     0
  0
SCALE
  5
62
102
{ACAD_REACTORS
330
4B
102
}
330
4B
100
AcDbScale
 70
     0
300
1/8" = 1'-0"
140
0.125
141
12.0
290
     0
  0
SCALE
  5
63
102
{ACAD_REACTORS
330
4B
102
}
330
4B
100
AcDbScale
 70
     0
300
3/16" = 1'-0"
140
0.1875
141
12.0
290
     0
  0
SCALE
  5
64
102
{ACAD_REACTORS
330
4B
102
}
330
4B
100
AcDbScale
 70
     0
300
1/4" = 1'-0"
140
0.25
141
12.0
290
     0
  0
SCALE
  5
65
102
{ACAD_REACTORS
330
4B
102
}
330
4B
100
AcDbScale
 70
     0
300
3/8" = 1'-0"
140
0.375
141
12.0
290
     0
  0
SCALE
  5
66
102
{ACAD_REACTORS
330
4B
102
}
330
4B
100
AcDbScale
 70
     0
300
1/2" = 1'-0"
140
0.5
141
12.0
290
     0
  0
SCALE
  5
67
102
{ACAD_REACTORS
330
4B
102
}
330
4B
100
AcDbScale
 70
     0
300
3/4" = 1'-0"
140
0.75
141
12.0
290
     0
  0
SCALE
  5
68
102
{ACAD_REACTORS
330
4B
102
}
330
4B
100
AcDbScale
 70
     0
300
1" = 1'-0"
140
1.0
141
12.0
290
     0
  0
SCALE
  5
69
102
{ACAD_REACTORS
330
4B
102
}
330
4B
100
AcDbScale
 70
     0
300
1-1/2" = 1'-0"
140
1.5
141
12.0
290
     0
  0
SCALE
  5
6A
102
{ACAD_REACTORS
330
4B
102
}
330
4B
100
AcDbScale
 70
     0
300
3" = 1'-0"
140
3.0
141
12.0
290
     0
  0
SCALE
  5
6B
102
{ACAD_REACTORS
330
4B
102
}
330
4B
100
AcDbScale
 70
     0
300
6" = 1'-0"
140
6.0
141
12.0
290
     0
  0
SCALE
  5
6C
102
{ACAD_REACTORS
330
4B
102
}
330
4B
100
AcDbScale
 70
     0
300
1'-0" = 1'-0"
140
12.0
141
12.0
290
     0
  0
VISUALSTYLE
  5
2F
102
{ACAD_REACTORS
330
2A
102
}
330
2A
100
AcDbVisualStyle
  2
2dWireframe
 70
     4
 71
     0
 72
     2
 73
     0
 90
        0
 40
-0.6
 41
-30.0
 62
     5
 63
     7
 74
     1
 91
        4
 64
     7
 65
   257
 75
     1
175
     1
 42
1.0
 92
        0
 66
   257
 43
1.0
 76
     1
 77
     6
 78
     2
 67
     7
 79
     5
170
     0
171
     0
290
     0
174
     0
 93
        1
 44
0.0
173
     0
291
     0
 45
0.0
1001
ACAD
1000
AcDbSavedByObjectVersion
1070
     0
  0
VISUALSTYLE
  5
31
102
{ACAD_REACTORS
330
2A
102
}
330
2A
100
AcDbVisualStyle
  2
3D Hidden
 70
     6
 71
     1
 72
     2
 73
     2
 90
        0
 40
-0.6
 41
-30.0
 62
     5
 63
     7
 74
     2
 91
        2
 64
     7
 65
   257
 75
     2
175
     1
 42
40.0
 92
        0
 66
   257
 43
1.0
 76
     1
 77
     6
 78
     2
 67
     7
 79
     3
170
     0
171
     0
290
     0
174
     0
 93
        1
 44
0.0
173
     0
291
     0
 45
0.0
1001
ACAD
1000
AcDbSavedByObjectVersion
1070
     0
  0
VISUALSTYLE
  5
30
102
{ACAD_REACTORS
330
2A
102
}
330
2A
100
AcDbVisualStyle
  2
3dWireframe
 70
     5
 71
     0
 72
     2
 73
     0
 90
        0
 40
-0.6
 41
-30.0
 62
     5
 63
     7
 74
     1
 91
        4
 64
     7
 65
   257
 75
     1
175
     1
 42
1.0
 92
        0
 66
   257
 43
1.0
 76
     1
 77
     6
 78
     2
 67
     7
 79
     5
170
     0
171
     0
290
     0
174
     0
 93
        1
 44
0.0
173
     0
291
     0
 45
0.0
1001
ACAD
1000
AcDbSavedByObjectVersion
1070
     0
  0
VISUALSTYLE
  5
32
102
{ACAD_REACTORS
330
2A
102
}
330
2A
100
AcDbVisualStyle
  2
Basic
 70
     7
 71
     1
 72
     0
 73
     1
 90
        0
 40
-0.6
 41
-30.0
 62
     5
 63
     7
 74
     0
 91
        4
 64
     7
 65
   257
 75
     1
175
     1
 42
1.0
 92
        8
 66
     7
 43
1.0
 76
     1
 77
     6
 78
     2
 67
     7
 79
     5
170
     0
171
     0
290
     0
174
     0
 93
        1
 44
0.0
173
     0
291
     1
 45
0.0
1001
ACAD
1000
AcDbSavedByObjectVersion
1070
     0
  0
VISUALSTYLE
  5
36
102
{ACAD_REACTORS
330
2A
102
}
330
2A
100
AcDbVisualStyle
  2
Brighten
 70
    12
 71
     2
 72
     2
 73
     0
 90
        0
 40
-0.6
 41
-30.0
 62
     5
 63
     7
 74
     1
 91
        4
 64
     7
 65
   257
 75
     1
175
     1
 42
1.0
 92
        8
 66
     7
 43
1.0
 76
     1
 77
     6
 78
     2
 67
     7
 79
     5
170
     0
171
     0
290
     0
174
     0
 93
        1
 44
50.0
173
     0
291
     1
 45
0.0
1001
ACAD
1000
AcDbSavedByObjectVersion
1070
     0
  0
VISUALSTYLE
  5
3A
102
{ACAD_REACTORS
330
2A
102
}
330
2A
100
AcDbVisualStyle
  2
ColorChange
 70
    16
 71
     2
 72
     2
 73
     3
 90
        0
 40
-0.6
 41
-30.0
 62
     5
 63
     8
 74
     1
 91
        4
 64
     7
 65
   257
 75
     1
175
     1
 42
1.0
 92
        8
 66
     8
 43
1.0
 76
     1
 77
     6
 78
     2
 67
     7
 79
     5
170
     0
171
     0
290
     0
174
     0
 93
        1
 44
0.0
173
     0
291
     1
 45
0.0
1001
ACAD
1000
AcDbSavedByObjectVersion
1070
     0
  0
VISUALSTYLE
  5
34
102
{ACAD_REACTORS
330
2A
102
}
330
2A
100
AcDbVisualStyle
  2
Conceptual
 70
     9
 71
     3
 72
     2
 73
     0
 90
        0
 40
-0.6
 41
-30.0
 62
     5
 63
     7
 74
     2
 91
        2
 64
     7
 65
   257
 75
     1
175
     1
 42
40.0
 92
        8
 66
     7
 43
1.0
 76
     1
 77
     6
 78
     2
 67
     7
 79
     3
170
     0
171
     0
290
     0
174
     0
 93
        1
 44
0.0
173
     0
291
     0
 45
0.0
1001
ACAD
1000
AcDbSavedByObjectVersion
1070
     0
  0
VISUALSTYLE
  5
35
102
{ACAD_REACTORS
330
2A
102
}
330
2A
100
AcDbVisualStyle
  2
Dim
 70
    11
 71
     2
 72
     2
 73
     0
 90
        0
 40
-0.6
 41
-30.0
 62
     5
 63
     7
 74
     1
 91
        4
 64
     7
 65
   257
 75
     1
175
     1
 42
1.0
 92
        8
 66
     7
 43
1.0
 76
     1
 77
     6
 78
     2
 67
     7
 79
     5
170
     0
171
     0
290
     0
174
     0
 93
        1
 44
-50.0
173
     0
291
     1
 45
0.0
1001
ACAD
1000
AcDbSavedByObjectVersion
1070
     0
  0
VISUALSTYLE
  5
39
102
{ACAD_REACTORS
330
2A
102
}
330
2A
100
AcDbVisualStyle
  2
Facepattern
 70
    15
 71
     2
 72
     2
 73
     0
 90
        0
 40
-0.6
 41
-30.0
 62
     5
 63
     7
 74
     1
 91
        4
 64
     7
 65
   257
 75
     1
175
     1
 42
1.0
 92
        8
 66
     7
 43
1.0
 76
     1
 77
     6
 78
     2
 67
     7
 79
     5
170
     0
171
     0
290
     0
174
     0
 93
        1
 44
0.0
173
     0
291
     1
 45
0.0
1001
ACAD
1000
AcDbSavedByObjectVersion
1070
     0
  0
VISUALSTYLE
  5
2B
102
{ACAD_REACTORS
330
2A
102
}
330
2A
100
AcDbVisualStyle
  2
Flat
 70
     0
 71
     2
 72
     1
 73
     1
 90
        2
 40
-0.6
 41
30.0
 62
     5
 63
     7
 74
     0
 91
        4
 64
     7
 65
   257
 75
     1
175
     1
 42
1.0
 92
        8
 66
     7
 43
1.0
 76
     1
 77
     6
 78
     2
 67
     7
 79
     5
170
     0
171
     0
290
     0
174
     0
 93
       13
 44
0.0
173
     0
291
     1
 45
0.0
1001
ACAD
1000
AcDbSavedByObjectVersion
1070
     0
  0
VISUALSTYLE
  5
2C
102
{ACAD_REACTORS
330
2A
102
}
330
2A
100
AcDbVisualStyle
  2
FlatWithEdges
 70
     1
 71
     2
 72
     1
 73
     1
 90
        2
 40
-0.6
 41
30.0
 62
     5
 63
     7
 74
     1
 91
        4
 64
     7
 65
   257
 75
     1
175
     1
 42
1.0
 92
        0
 66
   257
 43
1.0
 76
     1
 77
     6
 78
     2
 67
     7
 79
     5
170
     0
171
     0
290
     0
174
     0
 93
       13
 44
0.0
173
     0
291
     1
 45
0.0
1001
ACAD
1000
AcDbSavedByObjectVersion
1070
     0
  0
VISUALSTYLE
  5
2D
102
{ACAD_REACTORS
330
2A
102
}
330
2A
100
AcDbVisualStyle
  2
Gouraud
 70
     2
 71
     2
 72
     2
 73
     1
 90
        2
 40
-0.6
 41
30.0
 62
     5
 63
     7
 74
     0
 91
        4
 64
     7
 65
   257
 75
     1
175
     1
 42
1.0
 92
        0
 66
     7
 43
1.0
 76
     1
 77
     6
 78
     2
 67
     7
 79
     5
170
     0
171
     0
290
     0
174
     0
 93
       13
 44
0.0
173
     0
291
     1
 45
0.0
1001
ACAD
1000
AcDbSavedByObjectVersion
1070
     0
  0
VISUALSTYLE
  5
2E
102
{ACAD_REACTORS
330
2A
102
}
330
2A
100
AcDbVisualStyle
  2
GouraudWithEdges
 70
     3
 71
     2
 72
     2
 73
     1
 90
        2
 40
-0.6
 41
30.0
 62
     5
 63
     7
 74
     1
 91
        4
 64
     7
 65
   257
 75
     1
175
     1
 42
1.0
 92
        0
 66
   257
 43
1.0
 76
     1
 77
     6
 78
     2
 67
     7
 79
     5
170
     0
171
     0
290
     0
174
     0
 93
       13
 44
0.0
173
     0
291
     1
 45
0.0
1001
ACAD
1000
AcDbSavedByObjectVersion
1070
     0
  0
VISUALSTYLE
  5
38
102
{ACAD_REACTORS
330
2A
102
}
330
2A
100
AcDbVisualStyle
  2
Linepattern
 70
    14
 71
     2
 72
     2
 73
     0
 90
        0
 40
-0.6
 41
-30.0
 62
     5
 63
     7
 74
     1
 91
        4
 64
     7
 65
   257
 75
     7
175
     7
 42
1.0
 92
        8
 66
     7
 43
1.0
 76
     1
 77
     6
 78
     2
 67
     7
 79
     5
170
     0
171
     0
290
     0
174
     0
 93
        1
 44
0.0
173
     0
291
     1
 45
0.0
1001
ACAD
1000
AcDbSavedByObjectVersion
1070
     0
  0
VISUALSTYLE
  5
33
102
{ACAD_REACTORS
330
2A
102
}
330
2A
100
AcDbVisualStyle
  2
Realistic
 70
     8
 71
     2
 72
     2
 73
     0
 90
        0
 40
-0.6
 41
-30.0
 62
     5
 63
     7
 74
     1
 91
        0
 64
     7
 65
   257
 75
     1
175
     1
 42
1.0
 92
        8
 66
     8
 43
1.0
 76
     1
 77
     6
 78
     2
 67
     7
 79
     5
170
     0
171
     0
290
     0
174
     0
 93
       13
 44
0.0
173
     0
291
     0
 45
0.0
1001
ACAD
1000
AcDbSavedByObjectVersion
1070
     0
  0
VISUALSTYLE
  5
37
102
{ACAD_REACTORS
330
2A
102
}
330
2A
100
AcDbVisualStyle
  2
Thicken
 70
    13
 71
     2
 72
     2
 73
     0
 90
        0
 40
-0.6
 41
-30.0
 62
     5
 63
     7
 74
     1
 91
        4
 64
     7
 65
   257
 75
     1
175
     1
 42
1.0
 92
       12
 66
     7
 43
1.0
 76
     1
 77
     6
 78
     2
 67
     7
 79
     5
170
     0
171
     0
290
     0
174
     0
 93
        1
 44
0.0
173
     0
291
     1
 45
0.0
1001
ACAD
1000
AcDbSavedByObjectVersion
1070
     0
  0
DICTIONARYVAR
  5
14D
102
{ACAD_REACTORS
330
14A
102
}
330
14A
100
DictionaryVariables
280
     0
  1
1:1
  0
ENDSEC
  0
EOF
