  0
SECTION
  2
HEADER
  9
$ACADVER
  1
AC1015
  9
$DWGCODEPAGE
  3
ansi_1252
  9
$HANDSEED
  5
106AB90
  9
$INSUNITS
  70
4
  0
ENDSEC
  0
SECTION
  2
TABLES
  0
TABLE
  2
VPORT
  5
2
  330
0
  100
AcDbSymbolTable
  70
    0
  0
ENDTAB
  0
TABLE
  2
LTYPE
  5
3
  330
0
  100
AcDbSymbolTable
  70
    4
  0
LTYPE
  5
4
  330
3
  100
AcDbSymbolTableRecord
  100
AcDbLinetypeTableRecord
  2
ByBlock
  70
    0
  3

  72
65
  73
    0
  40
0
  0
LTYPE
  5
5
  330
3
  100
AcDbSymbolTableRecord
  100
AcDbLinetypeTableRecord
  2
ByLayer
  70
    0
  3

  72
65
  73
    0
  40
0
  0
LTYPE
  5
6
  330
3
  100
AcDbSymbolTableRecord
  100
AcDbLinetypeTableRecord
  2
CONTINUOUS
  70
    0
  3
Solid Line
  72
65
  73
    0
  40
0
  0
LTYPE
  5
7
  330
3
  100
AcDbSymbolTableRecord
  100
AcDbLinetypeTableRecord
  2
DASH
  70
    0
  3
Hidden
  72
65
  73
2
  40
2.5
  49
1.5
  74
0
  49
-1
  74
0
  0
LTYPE
  5
8
  330
3
  100
AcDbSymbolTableRecord
  100
AcDbLinetypeTableRecord
  2
LONGDASHDASH
  70
    0
  3
__ . __
  72
65
  73
    4
  40
7
  49
4
  74
    0
  49
-1
  74
    0
  49
1
  74
    0
  49
-1
  74
    0
  0
ENDTAB
  0
TABLE
  2
LAYER
  5
9
  330
0
  100
AcDbSymbolTable
  70
    40
  0
LAYER
  5
a
  330
9
  100
AcDbSymbolTableRecord
  100
AcDbLayerTableRecord
  2
0
  70
    0
  62
    0
  6
CONTINUOUS
  390
0
  0
LAYER
  5
b
  330
9
  100
AcDbSymbolTableRecord
  100
AcDbLayerTableRecord
  2
DEFPOINT
  70
    0
  62
    0
  6
CONTINUOUS
  390
0
  0
LAYER
  5
c
  330
9
  100
AcDbSymbolTableRecord
  100
AcDbLayerTableRecord
  2
1
  70
    0
  62
    4
  6
CONTINUOUS
  370
50
  390
0
  0
LAYER
  5
d
  330
9
  100
AcDbSymbolTableRecord
  100
AcDbLayerTableRecord
  2
2
  70
    0
  62
    7
  6
CONTINUOUS
  370
25
  390
0
  0
LAYER
  5
e
  330
9
  100
AcDbSymbolTableRecord
  100
AcDbLayerTableRecord
  2
3
  70
    0
  62
    1
  6
DASH
  370
35
  390
0
  0
LAYER
  5
f
  330
9
  100
AcDbSymbolTableRecord
  100
AcDbLayerTableRecord
  2
4
  70
    0
  62
    2
  6
LONGDASHDASH
  370
25
  390
0
  0
LAYER
  5
10
  330
9
  100
AcDbSymbolTableRecord
  100
AcDbLayerTableRecord
  2
6
  70
    0
  62
    5
  6
CONTINUOUS
  390
0
  0
LAYER
  5
11
  330
9
  100
AcDbSymbolTableRecord
  100
AcDbLayerTableRecord
  2
7
  70
    0
  62
    5
  6
CONTINUOUS
  370
25
  390
0
  0
LAYER
  5
12
  330
9
  100
AcDbSymbolTableRecord
  100
AcDbLayerTableRecord
  2
11
  70
    0
  62
    4
  6
CONTINUOUS
  370
25
  390
0
  0
LAYER
  5
13
  330
9
  100
AcDbSymbolTableRecord
  100
AcDbLayerTableRecord
  2
SK1
  70
    0
  62
    4
  6
CONTINUOUS
  370
50
  390
0
  0
LAYER
  5
14
  330
9
  100
AcDbSymbolTableRecord
  100
AcDbLayerTableRecord
  2
SK2
  70
    0
  62
    7
  6
CONTINUOUS
  370
25
  390
0
  0
LAYER
  5
15
  330
9
  100
AcDbSymbolTableRecord
  100
AcDbLayerTableRecord
  2
SK3
  70
    0
  62
    1
  6
DASH
  370
35
  390
0
  0
LAYER
  5
16
  330
9
  100
AcDbSymbolTableRecord
  100
AcDbLayerTableRecord
  2
SK4
  70
    0
  62
    2
  6
LONGDASHDASH
  370
25
  390
0
  0
LAYER
  5
17
  330
9
  100
AcDbSymbolTableRecord
  100
AcDbLayerTableRecord
  2
SK6
  70
    0
  62
    5
  6
CONTINUOUS
  390
0
  0
LAYER
  5
18
  330
9
  100
AcDbSymbolTableRecord
  100
AcDbLayerTableRecord
  2
SK7
  70
    0
  62
    5
  6
CONTINUOUS
  370
25
  390
0
  0
LAYER
  5
19
  330
9
  100
AcDbSymbolTableRecord
  100
AcDbLayerTableRecord
  2
SK11
  70
    0
  62
    4
  6
CONTINUOUS
  370
25
  390
0
  0
LAYER
  5
1a
  330
9
  100
AcDbSymbolTableRecord
  100
AcDbLayerTableRecord
  2
SKVIEW1
  70
    0
  62
    4
  6
CONTINUOUS
  370
50
  390
0
  0
LAYER
  5
1b
  330
9
  100
AcDbSymbolTableRecord
  100
AcDbLayerTableRecord
  2
SKVIEW2
  70
    0
  62
    7
  6
CONTINUOUS
  370
25
  390
0
  0
LAYER
  5
1c
  330
9
  100
AcDbSymbolTableRecord
  100
AcDbLayerTableRecord
  2
SKVIEW3
  70
    0
  62
    1
  6
DASH
  370
35
  390
0
  0
LAYER
  5
1d
  330
9
  100
AcDbSymbolTableRecord
  100
AcDbLayerTableRecord
  2
SKVIEW4
  70
    0
  62
    2
  6
LONGDASHDASH
  370
25
  390
0
  0
LAYER
  5
1e
  330
9
  100
AcDbSymbolTableRecord
  100
AcDbLayerTableRecord
  2
SKVIEW6
  70
    0
  62
    5
  6
CONTINUOUS
  390
0
  0
LAYER
  5
1f
  330
9
  100
AcDbSymbolTableRecord
  100
AcDbLayerTableRecord
  2
SKVIEW7
  70
    0
  62
    5
  6
CONTINUOUS
  370
25
  390
0
  0
LAYER
  5
20
  330
9
  100
AcDbSymbolTableRecord
  100
AcDbLayerTableRecord
  2
SKVIEW11
  70
    0
  62
    4
  6
CONTINUOUS
  370
25
  390
0
  0
LAYER
  5
21
  330
9
  100
AcDbSymbolTableRecord
  100
AcDbLayerTableRecord
  2
NOCUT
  70
    0
  62
    7
  6
CONTINUOUS
  370
25
  390
0
  0
LAYER
  5
22
  330
9
  100
AcDbSymbolTableRecord
  100
AcDbLayerTableRecord
  2
CUT
  70
    0
  62
    1
  6
CONTINUOUS
  370
25
  390
0
  0
LAYER
  5
23
  330
9
  100
AcDbSymbolTableRecord
  100
AcDbLayerTableRecord
  2
FRAME50
  70
    0
  62
    7
  6
CONTINUOUS
  390
0
  0
LAYER
  5
24
  330
9
  100
AcDbSymbolTableRecord
  100
AcDbLayerTableRecord
  2
53
  70
    0
  62
    5
  6
CONTINUOUS
  390
0
  0
LAYER
  5
25
  330
9
  100
AcDbSymbolTableRecord
  100
AcDbLayerTableRecord
  2
INFTEXT
  70
    0
  62
    5
  6
CONTINUOUS
  390
0
  0
LAYER
  5
26
  330
9
  100
AcDbSymbolTableRecord
  100
AcDbLayerTableRecord
  2
INFTOTAL
  70
    0
  62
    9
  6
CONTINUOUS
  370
18
  390
0
  0
ENDTAB
  0
TABLE
  2
STYLE
  5
27
  330
0
  100
AcDbSymbolTable
  70
    1
  0
STYLE
  5
28
  330
27
  100
AcDbSymbolTableRecord
  100
AcDbTextStyleTableRecord
  2
Monospac821 BT
  70
    0
  40
    3.5
  41
1
  50
0
  71
0
  42
3
  3

  4

  1001
ACAD
  1000
Monospac821 BT
  1071
256
  0
ENDTAB
  0
TABLE
  2
VIEW
  5
29
  330
0
  100
AcDbSymbolTable
  70
    0
  0
ENDTAB
  0
TABLE
  2
UCS
  5
2a
  330
0
  100
AcDbSymbolTable
  70
    0
  0
ENDTAB
  0
TABLE
  2
APPID
  5
2b
  330
0
  100
AcDbSymbolTable
  70
    1
  0
APPID
  5
2c
  330
2b
  100
AcDbSymbolTableRecord
  100
AcDbRegAppTableRecord
  2
ACAD
  70
    0
  0
ENDTAB
  0
TABLE
  2
DIMSTYLE
  5
2d
  330
0
  100
AcDbSymbolTable
  70
    1
  100
AcDbDimStyleTable
  0
DIMSTYLE
  105
2e
  330
2d
  100
AcDbSymbolTableRecord
  100
AcDbDimStyleTableRecord
  2
STANDARD
  70
    0
  41
    3
  42
0.5
  44
1
  73
0
  77
1
  78
1
  140
3.5
  141
2.5
  143
0.03937
  147
0.8
  172
1
  174
1
  178
0
  179
1
  271
2
  279
1
  284
1
  340
28
  0
ENDTAB
  0
TABLE
  2
BLOCK_RECORD
  5
2f
  330
0
  100
AcDbSymbolTable
  70
    2
  0
BLOCK_RECORD
  5
30
  330
2f
  100
AcDbSymbolTableRecord
  100
AcDbBlockTableRecord
  2
*Model_Space
  0
BLOCK_RECORD
  5
31
  330
2f
  100
AcDbSymbolTableRecord
  100
AcDbBlockTableRecord
  2
*Paper_Space
  0
BLOCK_RECORD
  5
5db
  330
2f
  100
AcDbSymbolTableRecord
  100
AcDbBlockTableRecord
  2
*D5da
  340
0
  0
BLOCK_RECORD
  5
5e9
  330
2f
  100
AcDbSymbolTableRecord
  100
AcDbBlockTableRecord
  2
*D5e8
  340
0
  0
BLOCK_RECORD
  5
5f7
  330
2f
  100
AcDbSymbolTableRecord
  100
AcDbBlockTableRecord
  2
*D5f6
  340
0
  0
BLOCK_RECORD
  5
605
  330
2f
  100
AcDbSymbolTableRecord
  100
AcDbBlockTableRecord
  2
*D604
  340
0
  0
BLOCK_RECORD
  5
613
  330
2f
  100
AcDbSymbolTableRecord
  100
AcDbBlockTableRecord
  2
*D612
  340
0
  0
ENDTAB
  0
ENDSEC
  0
SECTION
  2
BLOCKS
  0
BLOCK
  5
32
  330
30
  100
AcDbEntity
  8
0
  100
AcDbBlockBegin
  2
*Model_Space
  70
    0
  10
0
  20
0
  30
0
  3
*Model_Space
  1

  0
ENDBLK
  5
33
  330
30
  100
AcDbEntity
  8
0
  100
AcDbBlockEnd
  0
BLOCK
  5
34
  330
31
  100
AcDbEntity
  8
0
  100
AcDbBlockBegin
  2
*Paper_Space
  70
    0
  10
0
  20
0
  30
0
  3
*Paper_Space
  1

  0
ENDBLK
  5
35
  330
31
  100
AcDbEntity
  8
0
  100
AcDbBlockEnd
  0
BLOCK
  5
5d9
  330
5db
  100
AcDbEntity
  8
SK2
  100
AcDbBlockBegin
  2
*D5da
  70
1
  10
0
  20
0
  30
0
  3
*D5da
  1

  0
LINE
  5
5dc
  330
5db
  100
AcDbEntity
  8
SK2
  100
AcDbLine
  10
5.73204
  20
0
  30
0
  11
5.73204
  21
41.943298
  31
0
  0
LINE
  5
5dd
  330
5db
  100
AcDbEntity
  8
SK2
  100
AcDbLine
  10
-34.26796
  20
0.8
  30
0
  11
-34.26796
  21
41.943298
  31
0
  0
LINE
  5
5de
  330
5db
  100
AcDbEntity
  8
SK2
  100
AcDbLine
  10
5.73204
  20
39.943298
  30
0
  11
-34.26796
  21
39.943298
  31
0
  0
SOLID
  5
5df
  330
5db
  100
AcDbEntity
  8
SK2
  100
AcDbTrace
  10
5.73204
  20
39.943298
  30
0
  11
3.253427
  21
39.616982
  31
0
  12
3.253427
  22
40.269613
  32
0
  13
3.253427
  23
40.269613
  33
0
  0
SOLID
  5
5e0
  330
5db
  100
AcDbEntity
  8
SK2
  100
AcDbTrace
  10
-34.26796
  20
39.943298
  30
0
  11
-31.789348
  21
40.269613
  31
0
  12
-31.789348
  22
39.616982
  32
0
  13
-31.789348
  23
39.616982
  33
0
  0
MTEXT
  5
5e1
  330
5db
  100
AcDbEntity
  8
SK2
  100
AcDbMText
  10
-14.26796
  20
39.943298
  30
0
  11
1
  21
-0
  31
0
  40
2
  41
0
  71
8
  72
1
  1
40+2
  0
POINT
  5
5e2
  330
5db
  100
AcDbEntity
  8
SK2
  62
0
  100
AcDbPoint
  10
5.73204
  20
0
  30
0
  0
POINT
  5
5e3
  330
5db
  100
AcDbEntity
  8
SK2
  62
0
  100
AcDbPoint
  10
-34.26796
  20
0.8
  30
0
  0
POINT
  5
5e4
  330
5db
  100
AcDbEntity
  8
SK2
  62
0
  100
AcDbPoint
  10
-34.26796
  20
39.943298
  30
0
  0
ENDBLK
  5
5e5
  330
5db
  100
AcDbEntity
  8
SK2
  100
AcDbBlockEnd
  0
BLOCK
  5
5e7
  330
5e9
  100
AcDbEntity
  8
SK2
  100
AcDbBlockBegin
  2
*D5e8
  70
1
  10
0
  20
0
  30
0
  3
*D5e8
  1

  0
LINE
  5
5ea
  330
5e9
  100
AcDbEntity
  8
SK2
  100
AcDbLine
  10
-33.56796
  20
-1.5
  30
0
  11
-46.26796
  21
-1.5
  31
0
  0
LINE
  5
5eb
  330
5e9
  100
AcDbEntity
  8
SK2
  100
AcDbLine
  10
-33.56796
  20
1.5
  30
0
  11
-46.26796
  21
1.5
  31
0
  0
LINE
  5
5ec
  330
5e9
  100
AcDbEntity
  8
SK2
  100
AcDbLine
  10
-44.26796
  20
-6.198569
  30
0
  11
-44.26796
  21
1.5
  31
0
  0
SOLID
  5
5ed
  330
5e9
  100
AcDbEntity
  8
SK2
  100
AcDbTrace
  10
-44.26796
  20
-1.5
  30
0
  11
-43.941645
  21
-3.978612
  31
0
  12
-44.594276
  22
-3.978612
  32
0
  13
-44.594276
  23
-3.978612
  33
0
  0
SOLID
  5
5ee
  330
5e9
  100
AcDbEntity
  8
SK2
  100
AcDbTrace
  10
-44.26796
  20
1.5
  30
0
  11
-44.594276
  21
3.978612
  31
0
  12
-43.941645
  22
3.978612
  32
0
  13
-43.941645
  23
3.978612
  33
0
  0
MTEXT
  5
5ef
  330
5e9
  100
AcDbEntity
  8
SK2
  100
AcDbMText
  10
-44.26796
  20
0
  30
0
  11
0
  21
1
  31
0
  40
2
  41
0
  71
9
  72
1
  1
Ø3h6
  0
POINT
  5
5f0
  330
5e9
  100
AcDbEntity
  8
SK2
  62
0
  100
AcDbPoint
  10
-33.56796
  20
-1.5
  30
0
  0
POINT
  5
5f1
  330
5e9
  100
AcDbEntity
  8
SK2
  62
0
  100
AcDbPoint
  10
-33.56796
  20
1.5
  30
0
  0
POINT
  5
5f2
  330
5e9
  100
AcDbEntity
  8
SK2
  62
0
  100
AcDbPoint
  10
-44.26796
  20
1.5
  30
0
  0
ENDBLK
  5
5f3
  330
5e9
  100
AcDbEntity
  8
SK2
  100
AcDbBlockEnd
  0
BLOCK
  5
5f5
  330
5f7
  100
AcDbEntity
  8
2
  100
AcDbBlockBegin
  2
*D5f6
  70
1
  10
0
  20
0
  30
0
  3
*D5f6
  1

  0
LINE
  5
5f8
  330
5f7
  100
AcDbEntity
  8
2
  100
AcDbLine
  10
5.73204
  20
0.48
  30
0
  11
5.73204
  21
13
  31
0
  0
LINE
  5
5f9
  330
5f7
  100
AcDbEntity
  8
2
  100
AcDbLine
  10
5.71204
  20
0.5
  30
0
  11
5.71204
  21
13
  31
0
  0
LINE
  5
5fa
  330
5f7
  100
AcDbEntity
  8
2
  100
AcDbLine
  10
24.60644
  20
11
  30
0
  11
5.71204
  21
11
  31
0
  0
SOLID
  5
5fb
  330
5f7
  100
AcDbEntity
  8
2
  100
AcDbTrace
  10
5.73204
  20
11
  30
0
  11
8.210652
  21
11.326315
  31
0
  12
8.210652
  22
10.673685
  32
0
  13
8.210652
  23
10.673685
  33
0
  0
SOLID
  5
5fc
  330
5f7
  100
AcDbEntity
  8
2
  100
AcDbTrace
  10
5.71204
  20
11
  30
0
  11
3.233427
  21
10.673685
  31
0
  12
3.233427
  22
11.326315
  32
0
  13
3.233427
  23
11.326315
  33
0
  0
MTEXT
  5
5fd
  330
5f7
  100
AcDbEntity
  8
2
  100
AcDbMText
  10
9.59781
  20
11
  30
0
  11
1
  21
-0
  31
0
  40
2
  41
0
  71
7
  72
1
  1
0.02 x 45°
  0
POINT
  5
5fe
  330
5f7
  100
AcDbEntity
  8
2
  62
0
  100
AcDbPoint
  10
5.73204
  20
0.48
  30
0
  0
POINT
  5
5ff
  330
5f7
  100
AcDbEntity
  8
2
  62
0
  100
AcDbPoint
  10
5.71204
  20
0.5
  30
0
  0
POINT
  5
600
  330
5f7
  100
AcDbEntity
  8
2
  62
0
  100
AcDbPoint
  10
5.71204
  20
11
  30
0
  0
ENDBLK
  5
601
  330
5f7
  100
AcDbEntity
  8
2
  100
AcDbBlockEnd
  0
BLOCK
  5
603
  330
605
  100
AcDbEntity
  8
2
  100
AcDbBlockBegin
  2
*D604
  70
1
  10
0
  20
0
  30
0
  3
*D604
  1

  0
LINE
  5
606
  330
605
  100
AcDbEntity
  8
2
  100
AcDbLine
  10
5.71204
  20
-0.5
  30
0
  11
17.73204
  21
-0.5
  31
0
  0
LINE
  5
607
  330
605
  100
AcDbEntity
  8
2
  100
AcDbLine
  10
5.71204
  20
0.5
  30
0
  11
17.73204
  21
0.5
  31
0
  0
LINE
  5
608
  330
605
  100
AcDbEntity
  8
2
  100
AcDbLine
  10
15.73204
  20
-21.037567
  30
0
  11
15.73204
  21
0.5
  31
0
  0
SOLID
  5
609
  330
605
  100
AcDbEntity
  8
2
  100
AcDbTrace
  10
15.73204
  20
-0.5
  30
0
  11
16.058355
  21
-2.978612
  31
0
  12
15.405724
  22
-2.978612
  32
0
  13
15.405724
  23
-2.978612
  33
0
  0
SOLID
  5
60a
  330
605
  100
AcDbEntity
  8
2
  100
AcDbTrace
  10
15.73204
  20
0.5
  30
0
  11
15.405724
  21
2.978612
  31
0
  12
16.058355
  22
2.978612
  32
0
  13
16.058355
  23
2.978612
  33
0
  0
MTEXT
  5
60b
  330
605
  100
AcDbEntity
  8
2
  100
AcDbMText
  10
15.73204
  20
-14.671864
  30
0
  11
0
  21
1
  31
0
  40
2
  41
0
  71
9
  72
1
  1
Ø1e8
  0
POINT
  5
60c
  330
605
  100
AcDbEntity
  8
2
  62
0
  100
AcDbPoint
  10
5.71204
  20
-0.5
  30
0
  0
POINT
  5
60d
  330
605
  100
AcDbEntity
  8
2
  62
0
  100
AcDbPoint
  10
5.71204
  20
0.5
  30
0
  0
POINT
  5
60e
  330
605
  100
AcDbEntity
  8
2
  62
0
  100
AcDbPoint
  10
15.73204
  20
0.5
  30
0
  0
ENDBLK
  5
60f
  330
605
  100
AcDbEntity
  8
2
  100
AcDbBlockEnd
  0
BLOCK
  5
611
  330
613
  100
AcDbEntity
  8
2
  100
AcDbBlockBegin
  2
*D612
  70
1
  10
0
  20
0
  30
0
  3
*D612
  1

  0
LINE
  5
614
  330
613
  100
AcDbEntity
  8
2
  100
AcDbLine
  10
5.73204
  20
0
  30
0
  11
5.73204
  21
22.550831
  31
0
  0
LINE
  5
615
  330
613
  100
AcDbEntity
  8
2
  100
AcDbLine
  10
3.73204
  20
0.5
  30
0
  11
3.73204
  21
22.550831
  31
0
  0
LINE
  5
616
  330
613
  100
AcDbEntity
  8
2
  100
AcDbLine
  10
5.73204
  20
20.550831
  30
0
  11
3.73204
  21
20.550831
  31
0
  0
SOLID
  5
617
  330
613
  100
AcDbEntity
  8
2
  100
AcDbTrace
  10
5.73204
  20
20.550831
  30
0
  11
8.210652
  21
20.877146
  31
0
  12
8.210652
  22
20.224515
  32
0
  13
8.210652
  23
20.224515
  33
0
  0
SOLID
  5
618
  330
613
  100
AcDbEntity
  8
2
  100
AcDbTrace
  10
3.73204
  20
20.550831
  30
0
  11
1.253427
  21
20.224515
  31
0
  12
1.253427
  22
20.877146
  32
0
  13
1.253427
  23
20.877146
  33
0
  0
MTEXT
  5
619
  330
613
  100
AcDbEntity
  8
2
  100
AcDbMText
  10
4.73204
  20
20.550831
  30
0
  11
1
  21
-0
  31
0
  40
2
  41
0
  71
8
  72
1
  1
2
  0
POINT
  5
61a
  330
613
  100
AcDbEntity
  8
2
  62
0
  100
AcDbPoint
  10
5.73204
  20
0
  30
0
  0
POINT
  5
61b
  330
613
  100
AcDbEntity
  8
2
  62
0
  100
AcDbPoint
  10
3.73204
  20
0.5
  30
0
  0
POINT
  5
61c
  330
613
  100
AcDbEntity
  8
2
  62
0
  100
AcDbPoint
  10
3.73204
  20
20.550831
  30
0
  0
ENDBLK
  5
61d
  330
613
  100
AcDbEntity
  8
2
  100
AcDbBlockEnd
  0
ENDSEC
  0
SECTION
  2
ENTITIES
  0
DIMENSION
  5
5e6
  100
AcDbEntity
  8
SK2
  100
AcDbDimension
  2
*D5da
  10
-34.26796
  20
39.943298
  30
0
  11
-14.26796
  21
39.943298
  31
0
  70
160
  1
<>+2
  71
5
  3
STANDARD
  42
40
  100
AcDbAlignedDimension
  13
5.73204
  23
0
  33
0
  14
-34.26796
  24
0.8
  34
0
  50
0
  100
AcDbRotatedDimension
  0
DIMENSION
  5
5f4
  100
AcDbEntity
  8
SK2
  100
AcDbDimension
  2
*D5e8
  10
-44.26796
  20
1.5
  30
0
  11
-44.26796
  21
0
  31
0
  70
160
  1
%%c<>h6
  71
5
  3
STANDARD
  42
3
  100
AcDbAlignedDimension
  13
-33.56796
  23
-1.5
  33
0
  14
-33.56796
  24
1.5
  34
0
  50
-90
  100
AcDbRotatedDimension
  0
DIMENSION
  5
602
  100
AcDbEntity
  8
2
  100
AcDbDimension
  2
*D5f6
  10
5.71204
  20
11
  30
0
  11
9.59781
  21
11
  31
0
  70
160
  1
<>
  71
5
  3
STANDARD
  42
0.02
  100
AcDbAlignedDimension
  13
5.73204
  23
0.48
  33
0
  14
5.71204
  24
0.5
  34
0
  50
0
  100
AcDbRotatedDimension
  0
DIMENSION
  5
610
  100
AcDbEntity
  8
2
  100
AcDbDimension
  2
*D604
  10
15.73204
  20
0.5
  30
0
  11
15.73204
  21
-14.671864
  31
0
  70
160
  1
%%c<>e8
  71
5
  3
STANDARD
  42
1
  100
AcDbAlignedDimension
  13
5.71204
  23
-0.5
  33
0
  14
5.71204
  24
0.5
  34
0
  50
-90
  100
AcDbRotatedDimension
  0
DIMENSION
  5
61e
  100
AcDbEntity
  8
2
  100
AcDbDimension
  2
*D612
  10
3.73204
  20
20.550831
  30
0
  11
4.73204
  21
20.550831
  31
0
  70
160
  1
<>
  71
5
  3
STANDARD
  42
2
  100
AcDbAlignedDimension
  13
5.73204
  23
0
  33
0
  14
3.73204
  24
0.5
  34
0
  50
0
  100
AcDbRotatedDimension
  0
LINE
  5
36
  100
AcDbEntity
  8
1
  100
AcDbLine
  10
5.73204
  20
0
  30
0
  11
5.73204
  21
0.48
  31
0
  0
LINE
  5
37
  100
AcDbEntity
  8
1
  100
AcDbLine
  10
5.73204
  20
0.48
  30
0
  11
5.71204
  21
0.5
  31
0
  0
LINE
  5
38
  100
AcDbEntity
  8
1
  100
AcDbLine
  10
5.71204
  20
0.5
  30
0
  11
3.73204
  21
0.5
  31
0
  0
LINE
  5
39
  100
AcDbEntity
  8
1
  100
AcDbLine
  10
3.73204
  20
0.5
  30
0
  11
0
  21
1.5
  31
0
  0
LINE
  5
3a
  100
AcDbEntity
  8
1
  100
AcDbLine
  10
0
  20
1.5
  30
0
  11
0
  21
-1.5
  31
0
  0
LINE
  5
3b
  100
AcDbEntity
  8
1
  100
AcDbLine
  10
0
  20
-1.5
  30
0
  11
3.73204
  21
-0.5
  31
0
  0
LINE
  5
3c
  100
AcDbEntity
  8
1
  100
AcDbLine
  10
3.73204
  20
-0.5
  30
0
  11
5.71204
  21
-0.5
  31
0
  0
LINE
  5
3d
  100
AcDbEntity
  8
1
  100
AcDbLine
  10
5.71204
  20
-0.5
  30
0
  11
5.73204
  21
-0.48
  31
0
  0
LINE
  5
3e
  100
AcDbEntity
  8
1
  100
AcDbLine
  10
5.73204
  20
-0.48
  30
0
  11
5.73204
  21
0
  31
0
  0
LINE
  5
3f
  100
AcDbEntity
  8
1
  100
AcDbLine
  10
5.71204
  20
-0.5
  30
0
  11
5.71204
  21
0.5
  31
0
  0
LINE
  5
40
  100
AcDbEntity
  8
1
  100
AcDbLine
  10
5.71204
  20
0.5
  30
0
  11
5.71204
  21
-0.5
  31
0
  0
LINE
  5
41
  100
AcDbEntity
  8
1
  100
AcDbLine
  10
5.73204
  20
0.242431
  30
0
  11
5.72504
  21
0.249195
  31
0
  0
LINE
  5
42
  100
AcDbEntity
  8
1
  100
AcDbLine
  10
5.72504
  20
0.249195
  30
0
  11
5.71804
  21
0.256061
  31
0
  0
LINE
  5
43
  100
AcDbEntity
  8
1
  100
AcDbLine
  10
5.71804
  20
0.256061
  30
0
  11
5.71104
  21
0.262624
  31
0
  0
LINE
  5
44
  100
AcDbEntity
  8
1
  100
AcDbLine
  10
5.71104
  20
0.262624
  30
0
  11
5.70404
  21
0.266783
  31
0
  0
LINE
  5
45
  100
AcDbEntity
  8
1
  100
AcDbLine
  10
5.70404
  20
0.266783
  30
0
  11
5.69704
  21
0.270915
  31
0
  0
LINE
  5
46
  100
AcDbEntity
  8
1
  100
AcDbLine
  10
5.69704
  20
0.270915
  30
0
  11
5.69004
  21
0.275022
  31
0
  0
LINE
  5
47
  100
AcDbEntity
  8
1
  100
AcDbLine
  10
5.69004
  20
0.275022
  30
0
  11
5.68304
  21
0.279102
  31
0
  0
LINE
  5
48
  100
AcDbEntity
  8
1
  100
AcDbLine
  10
5.68304
  20
0.279102
  30
0
  11
5.67604
  21
0.283155
  31
0
  0
LINE
  5
49
  100
AcDbEntity
  8
1
  100
AcDbLine
  10
5.67604
  20
0.283155
  30
0
  11
5.66904
  21
0.287181
  31
0
  0
LINE
  5
4a
  100
AcDbEntity
  8
1
  100
AcDbLine
  10
5.66904
  20
0.287181
  30
0
  11
5.66204
  21
0.29118
  31
0
  0
LINE
  5
4b
  100
AcDbEntity
  8
1
  100
AcDbLine
  10
5.66204
  20
0.29118
  30
0
  11
5.65504
  21
0.29515
  31
0
  0
LINE
  5
4c
  100
AcDbEntity
  8
1
  100
AcDbLine
  10
5.65504
  20
0.29515
  30
0
  11
5.64804
  21
0.299092
  31
0
  0
LINE
  5
4d
  100
AcDbEntity
  8
1
  100
AcDbLine
  10
5.64804
  20
0.299092
  30
0
  11
5.64104
  21
0.303006
  31
0
  0
LINE
  5
4e
  100
AcDbEntity
  8
1
  100
AcDbLine
  10
5.64104
  20
0.303006
  30
0
  11
5.63404
  21
0.30689
  31
0
  0
LINE
  5
4f
  100
AcDbEntity
  8
1
  100
AcDbLine
  10
5.63404
  20
0.30689
  30
0
  11
5.62704
  21
0.310745
  31
0
  0
LINE
  5
50
  100
AcDbEntity
  8
1
  100
AcDbLine
  10
5.62704
  20
0.310745
  30
0
  11
5.62004
  21
0.31457
  31
0
  0
LINE
  5
51
  100
AcDbEntity
  8
1
  100
AcDbLine
  10
5.62004
  20
0.31457
  30
0
  11
5.61304
  21
0.318364
  31
0
  0
LINE
  5
52
  100
AcDbEntity
  8
1
  100
AcDbLine
  10
5.61304
  20
0.318364
  30
0
  11
5.60604
  21
0.322128
  31
0
  0
LINE
  5
53
  100
AcDbEntity
  8
1
  100
AcDbLine
  10
5.60604
  20
0.322128
  30
0
  11
5.59904
  21
0.325862
  31
0
  0
LINE
  5
54
  100
AcDbEntity
  8
1
  100
AcDbLine
  10
5.59904
  20
0.325862
  30
0
  11
5.59204
  21
0.329563
  31
0
  0
LINE
  5
55
  100
AcDbEntity
  8
1
  100
AcDbLine
  10
5.59204
  20
0.329563
  30
0
  11
5.58504
  21
0.333233
  31
0
  0
LINE
  5
56
  100
AcDbEntity
  8
1
  100
AcDbLine
  10
5.58504
  20
0.333233
  30
0
  11
5.57804
  21
0.336872
  31
0
  0
LINE
  5
57
  100
AcDbEntity
  8
1
  100
AcDbLine
  10
5.57804
  20
0.336872
  30
0
  11
5.57104
  21
0.340477
  31
0
  0
LINE
  5
58
  100
AcDbEntity
  8
1
  100
AcDbLine
  10
5.57104
  20
0.340477
  30
0
  11
5.56404
  21
0.34405
  31
0
  0
LINE
  5
59
  100
AcDbEntity
  8
1
  100
AcDbLine
  10
5.56404
  20
0.34405
  30
0
  11
5.55704
  21
0.34759
  31
0
  0
LINE
  5
5a
  100
AcDbEntity
  8
1
  100
AcDbLine
  10
5.55704
  20
0.34759
  30
0
  11
5.55004
  21
0.351097
  31
0
  0
LINE
  5
5b
  100
AcDbEntity
  8
1
  100
AcDbLine
  10
5.55004
  20
0.351097
  30
0
  11
5.54304
  21
0.35457
  31
0
  0
LINE
  5
5c
  100
AcDbEntity
  8
1
  100
AcDbLine
  10
5.54304
  20
0.35457
  30
0
  11
5.53604
  21
0.358009
  31
0
  0
LINE
  5
5d
  100
AcDbEntity
  8
1
  100
AcDbLine
  10
5.53604
  20
0.358009
  30
0
  11
5.52904
  21
0.361413
  31
0
  0
LINE
  5
5e
  100
AcDbEntity
  8
1
  100
AcDbLine
  10
5.52904
  20
0.361413
  30
0
  11
5.52204
  21
0.364783
  31
0
  0
LINE
  5
5f
  100
AcDbEntity
  8
1
  100
AcDbLine
  10
5.52204
  20
0.364783
  30
0
  11
5.51504
  21
0.368117
  31
0
  0
LINE
  5
60
  100
AcDbEntity
  8
1
  100
AcDbLine
  10
5.51504
  20
0.368117
  30
0
  11
5.50804
  21
0.371416
  31
0
  0
LINE
  5
61
  100
AcDbEntity
  8
1
  100
AcDbLine
  10
5.50804
  20
0.371416
  30
0
  11
5.50104
  21
0.37468
  31
0
  0
LINE
  5
62
  100
AcDbEntity
  8
1
  100
AcDbLine
  10
5.50104
  20
0.37468
  30
0
  11
5.49404
  21
0.377907
  31
0
  0
LINE
  5
63
  100
AcDbEntity
  8
1
  100
AcDbLine
  10
5.49404
  20
0.377907
  30
0
  11
5.48704
  21
0.381099
  31
0
  0
LINE
  5
64
  100
AcDbEntity
  8
1
  100
AcDbLine
  10
5.48704
  20
0.381099
  30
0
  11
5.48004
  21
0.384253
  31
0
  0
LINE
  5
65
  100
AcDbEntity
  8
1
  100
AcDbLine
  10
5.48004
  20
0.384253
  30
0
  11
5.47304
  21
0.387371
  31
0
  0
LINE
  5
66
  100
AcDbEntity
  8
1
  100
AcDbLine
  10
5.47304
  20
0.387371
  30
0
  11
5.46604
  21
0.390451
  31
0
  0
LINE
  5
67
  100
AcDbEntity
  8
1
  100
AcDbLine
  10
5.46604
  20
0.390451
  30
0
  11
5.45904
  21
0.393494
  31
0
  0
LINE
  5
68
  100
AcDbEntity
  8
1
  100
AcDbLine
  10
5.45904
  20
0.393494
  30
0
  11
5.45204
  21
0.396499
  31
0
  0
LINE
  5
69
  100
AcDbEntity
  8
1
  100
AcDbLine
  10
5.45204
  20
0.396499
  30
0
  11
5.44504
  21
0.399466
  31
0
  0
LINE
  5
6a
  100
AcDbEntity
  8
1
  100
AcDbLine
  10
5.44504
  20
0.399466
  30
0
  11
5.43804
  21
0.402395
  31
0
  0
LINE
  5
6b
  100
AcDbEntity
  8
1
  100
AcDbLine
  10
5.43804
  20
0.402395
  30
0
  11
5.43104
  21
0.405285
  31
0
  0
LINE
  5
6c
  100
AcDbEntity
  8
1
  100
AcDbLine
  10
5.43104
  20
0.405285
  30
0
  11
5.42404
  21
0.408136
  31
0
  0
LINE
  5
6d
  100
AcDbEntity
  8
1
  100
AcDbLine
  10
5.42404
  20
0.408136
  30
0
  11
5.41704
  21
0.410947
  31
0
  0
LINE
  5
6e
  100
AcDbEntity
  8
1
  100
AcDbLine
  10
5.41704
  20
0.410947
  30
0
  11
5.41004
  21
0.41372
  31
0
  0
LINE
  5
6f
  100
AcDbEntity
  8
1
  100
AcDbLine
  10
5.41004
  20
0.41372
  30
0
  11
5.40304
  21
0.416452
  31
0
  0
LINE
  5
70
  100
AcDbEntity
  8
1
  100
AcDbLine
  10
5.40304
  20
0.416452
  30
0
  11
5.39604
  21
0.419145
  31
0
  0
LINE
  5
71
  100
AcDbEntity
  8
1
  100
AcDbLine
  10
5.39604
  20
0.419145
  30
0
  11
5.38904
  21
0.421797
  31
0
  0
LINE
  5
72
  100
AcDbEntity
  8
1
  100
AcDbLine
  10
5.38904
  20
0.421797
  30
0
  11
5.38204
  21
0.424409
  31
0
  0
LINE
  5
73
  100
AcDbEntity
  8
1
  100
AcDbLine
  10
5.38204
  20
0.424409
  30
0
  11
5.37504
  21
0.42698
  31
0
  0
LINE
  5
74
  100
AcDbEntity
  8
1
  100
AcDbLine
  10
5.37504
  20
0.42698
  30
0
  11
5.36804
  21
0.429509
  31
0
  0
LINE
  5
75
  100
AcDbEntity
  8
1
  100
AcDbLine
  10
5.36804
  20
0.429509
  30
0
  11
5.36104
  21
0.431998
  31
0
  0
LINE
  5
76
  100
AcDbEntity
  8
1
  100
AcDbLine
  10
5.36104
  20
0.431998
  30
0
  11
5.35404
  21
0.434445
  31
0
  0
LINE
  5
77
  100
AcDbEntity
  8
1
  100
AcDbLine
  10
5.35404
  20
0.434445
  30
0
  11
5.34704
  21
0.43685
  31
0
  0
LINE
  5
78
  100
AcDbEntity
  8
1
  100
AcDbLine
  10
5.34704
  20
0.43685
  30
0
  11
5.34004
  21
0.439214
  31
0
  0
LINE
  5
79
  100
AcDbEntity
  8
1
  100
AcDbLine
  10
5.34004
  20
0.439214
  30
0
  11
5.33304
  21
0.441535
  31
0
  0
LINE
  5
7a
  100
AcDbEntity
  8
1
  100
AcDbLine
  10
5.33304
  20
0.441535
  30
0
  11
5.32604
  21
0.443814
  31
0
  0
LINE
  5
7b
  100
AcDbEntity
  8
1
  100
AcDbLine
  10
5.32604
  20
0.443814
  30
0
  11
5.31904
  21
0.44605
  31
0
  0
LINE
  5
7c
  100
AcDbEntity
  8
1
  100
AcDbLine
  10
5.31904
  20
0.44605
  30
0
  11
5.31204
  21
0.448243
  31
0
  0
LINE
  5
7d
  100
AcDbEntity
  8
1
  100
AcDbLine
  10
5.31204
  20
0.448243
  30
0
  11
5.30504
  21
0.450393
  31
0
  0
LINE
  5
7e
  100
AcDbEntity
  8
1
  100
AcDbLine
  10
5.30504
  20
0.450393
  30
0
  11
5.29804
  21
0.4525
  31
0
  0
LINE
  5
7f
  100
AcDbEntity
  8
1
  100
AcDbLine
  10
5.29804
  20
0.4525
  30
0
  11
5.29104
  21
0.454563
  31
0
  0
LINE
  5
80
  100
AcDbEntity
  8
1
  100
AcDbLine
  10
5.29104
  20
0.454563
  30
0
  11
5.28404
  21
0.456583
  31
0
  0
LINE
  5
81
  100
AcDbEntity
  8
1
  100
AcDbLine
  10
5.28404
  20
0.456583
  30
0
  11
5.27704
  21
0.458559
  31
0
  0
LINE
  5
82
  100
AcDbEntity
  8
1
  100
AcDbLine
  10
5.27704
  20
0.458559
  30
0
  11
5.27004
  21
0.46049
  31
0
  0
LINE
  5
83
  100
AcDbEntity
  8
1
  100
AcDbLine
  10
5.27004
  20
0.46049
  30
0
  11
5.26304
  21
0.462378
  31
0
  0
LINE
  5
84
  100
AcDbEntity
  8
1
  100
AcDbLine
  10
5.26304
  20
0.462378
  30
0
  11
5.25604
  21
0.464221
  31
0
  0
LINE
  5
85
  100
AcDbEntity
  8
1
  100
AcDbLine
  10
5.25604
  20
0.464221
  30
0
  11
5.24904
  21
0.466019
  31
0
  0
LINE
  5
86
  100
AcDbEntity
  8
1
  100
AcDbLine
  10
5.24904
  20
0.466019
  30
0
  11
5.24204
  21
0.467773
  31
0
  0
LINE
  5
87
  100
AcDbEntity
  8
1
  100
AcDbLine
  10
5.24204
  20
0.467773
  30
0
  11
5.23504
  21
0.469482
  31
0
  0
LINE
  5
88
  100
AcDbEntity
  8
1
  100
AcDbLine
  10
5.23504
  20
0.469482
  30
0
  11
5.22804
  21
0.471145
  31
0
  0
LINE
  5
89
  100
AcDbEntity
  8
1
  100
AcDbLine
  10
5.22804
  20
0.471145
  30
0
  11
5.22104
  21
0.472764
  31
0
  0
LINE
  5
8a
  100
AcDbEntity
  8
1
  100
AcDbLine
  10
5.22104
  20
0.472764
  30
0
  11
5.21404
  21
0.474337
  31
0
  0
LINE
  5
8b
  100
AcDbEntity
  8
1
  100
AcDbLine
  10
5.21404
  20
0.474337
  30
0
  11
5.20704
  21
0.475864
  31
0
  0
LINE
  5
8c
  100
AcDbEntity
  8
1
  100
AcDbLine
  10
5.20704
  20
0.475864
  30
0
  11
5.20004
  21
0.477345
  31
0
  0
LINE
  5
8d
  100
AcDbEntity
  8
1
  100
AcDbLine
  10
5.20004
  20
0.477345
  30
0
  11
5.19304
  21
0.478781
  31
0
  0
LINE
  5
8e
  100
AcDbEntity
  8
1
  100
AcDbLine
  10
5.19304
  20
0.478781
  30
0
  11
5.18604
  21
0.480171
  31
0
  0
LINE
  5
8f
  100
AcDbEntity
  8
1
  100
AcDbLine
  10
5.18604
  20
0.480171
  30
0
  11
5.17904
  21
0.481514
  31
0
  0
LINE
  5
90
  100
AcDbEntity
  8
1
  100
AcDbLine
  10
5.17904
  20
0.481514
  30
0
  11
5.17204
  21
0.482812
  31
0
  0
LINE
  5
91
  100
AcDbEntity
  8
1
  100
AcDbLine
  10
5.17204
  20
0.482812
  30
0
  11
5.16504
  21
0.484063
  31
0
  0
LINE
  5
92
  100
AcDbEntity
  8
1
  100
AcDbLine
  10
5.16504
  20
0.484063
  30
0
  11
5.15804
  21
0.485267
  31
0
  0
LINE
  5
93
  100
AcDbEntity
  8
1
  100
AcDbLine
  10
5.15804
  20
0.485267
  30
0
  11
5.15104
  21
0.486425
  31
0
  0
LINE
  5
94
  100
AcDbEntity
  8
1
  100
AcDbLine
  10
5.15104
  20
0.486425
  30
0
  11
5.14404
  21
0.487536
  31
0
  0
LINE
  5
95
  100
AcDbEntity
  8
1
  100
AcDbLine
  10
5.14404
  20
0.487536
  30
0
  11
5.13704
  21
0.4886
  31
0
  0
LINE
  5
96
  100
AcDbEntity
  8
1
  100
AcDbLine
  10
5.13704
  20
0.4886
  30
0
  11
5.13004
  21
0.489617
  31
0
  0
LINE
  5
97
  100
AcDbEntity
  8
1
  100
AcDbLine
  10
5.13004
  20
0.489617
  30
0
  11
5.12304
  21
0.490587
  31
0
  0
LINE
  5
98
  100
AcDbEntity
  8
1
  100
AcDbLine
  10
5.12304
  20
0.490587
  30
0
  11
5.11604
  21
0.49151
  31
0
  0
LINE
  5
99
  100
AcDbEntity
  8
1
  100
AcDbLine
  10
5.11604
  20
0.49151
  30
0
  11
5.10904
  21
0.492386
  31
0
  0
LINE
  5
9a
  100
AcDbEntity
  8
1
  100
AcDbLine
  10
5.10904
  20
0.492386
  30
0
  11
5.10204
  21
0.493214
  31
0
  0
LINE
  5
9b
  100
AcDbEntity
  8
1
  100
AcDbLine
  10
5.10204
  20
0.493214
  30
0
  11
5.09504
  21
0.493995
  31
0
  0
LINE
  5
9c
  100
AcDbEntity
  8
1
  100
AcDbLine
  10
5.09504
  20
0.493995
  30
0
  11
5.08804
  21
0.494729
  31
0
  0
LINE
  5
9d
  100
AcDbEntity
  8
1
  100
AcDbLine
  10
5.08804
  20
0.494729
  30
0
  11
5.08104
  21
0.495415
  31
0
  0
LINE
  5
9e
  100
AcDbEntity
  8
1
  100
AcDbLine
  10
5.08104
  20
0.495415
  30
0
  11
5.07404
  21
0.496054
  31
0
  0
LINE
  5
9f
  100
AcDbEntity
  8
1
  100
AcDbLine
  10
5.07404
  20
0.496054
  30
0
  11
5.06704
  21
0.496644
  31
0
  0
LINE
  5
a0
  100
AcDbEntity
  8
1
  100
AcDbLine
  10
5.06704
  20
0.496644
  30
0
  11
5.06004
  21
0.497187
  31
0
  0
LINE
  5
a1
  100
AcDbEntity
  8
1
  100
AcDbLine
  10
5.06004
  20
0.497187
  30
0
  11
5.05304
  21
0.497683
  31
0
  0
LINE
  5
a2
  100
AcDbEntity
  8
1
  100
AcDbLine
  10
5.05304
  20
0.497683
  30
0
  11
5.04604
  21
0.49813
  31
0
  0
LINE
  5
a3
  100
AcDbEntity
  8
1
  100
AcDbLine
  10
5.04604
  20
0.49813
  30
0
  11
5.03904
  21
0.49853
  31
0
  0
LINE
  5
a4
  100
AcDbEntity
  8
1
  100
AcDbLine
  10
5.03904
  20
0.49853
  30
0
  11
5.03204
  21
0.498881
  31
0
  0
LINE
  5
a5
  100
AcDbEntity
  8
1
  100
AcDbLine
  10
5.03204
  20
0.498881
  30
0
  11
5.02504
  21
0.499185
  31
0
  0
LINE
  5
a6
  100
AcDbEntity
  8
1
  100
AcDbLine
  10
5.02504
  20
0.499185
  30
0
  11
5.01804
  21
0.499441
  31
0
  0
LINE
  5
a7
  100
AcDbEntity
  8
1
  100
AcDbLine
  10
5.01804
  20
0.499441
  30
0
  11
5.01104
  21
0.499649
  31
0
  0
LINE
  5
a8
  100
AcDbEntity
  8
1
  100
AcDbLine
  10
5.01104
  20
0.499649
  30
0
  11
5.00404
  21
0.499808
  31
0
  0
LINE
  5
a9
  100
AcDbEntity
  8
1
  100
AcDbLine
  10
5.00404
  20
0.499808
  30
0
  11
4.99704
  21
0.49992
  31
0
  0
LINE
  5
aa
  100
AcDbEntity
  8
1
  100
AcDbLine
  10
4.99704
  20
0.49992
  30
0
  11
4.99004
  21
0.499984
  31
0
  0
LINE
  5
ab
  100
AcDbEntity
  8
1
  100
AcDbLine
  10
4.99004
  20
0.499984
  30
0
  11
4.984263
  21
0.5
  31
0
  0
LINE
  5
ac
  100
AcDbEntity
  8
1
  100
AcDbLine
  10
5.73204
  20
0.280544
  30
0
  11
5.72504
  21
0.287058
  31
0
  0
LINE
  5
ad
  100
AcDbEntity
  8
1
  100
AcDbLine
  10
5.72504
  20
0.287058
  30
0
  11
5.71804
  21
0.29367
  31
0
  0
LINE
  5
ae
  100
AcDbEntity
  8
1
  100
AcDbLine
  10
5.71804
  20
0.29367
  30
0
  11
5.71104
  21
0.299965
  31
0
  0
LINE
  5
af
  100
AcDbEntity
  8
1
  100
AcDbLine
  10
5.71104
  20
0.299965
  30
0
  11
5.70404
  21
0.303795
  31
0
  0
LINE
  5
b0
  100
AcDbEntity
  8
1
  100
AcDbLine
  10
5.70404
  20
0.303795
  30
0
  11
5.69704
  21
0.307597
  31
0
  0
LINE
  5
b1
  100
AcDbEntity
  8
1
  100
AcDbLine
  10
5.69704
  20
0.307597
  30
0
  11
5.69004
  21
0.311368
  31
0
  0
LINE
  5
b2
  100
AcDbEntity
  8
1
  100
AcDbLine
  10
5.69004
  20
0.311368
  30
0
  11
5.68304
  21
0.31511
  31
0
  0
LINE
  5
b3
  100
AcDbEntity
  8
1
  100
AcDbLine
  10
5.68304
  20
0.31511
  30
0
  11
5.67604
  21
0.318822
  31
0
  0
LINE
  5
b4
  100
AcDbEntity
  8
1
  100
AcDbLine
  10
5.67604
  20
0.318822
  30
0
  11
5.66904
  21
0.322503
  31
0
  0
LINE
  5
b5
  100
AcDbEntity
  8
1
  100
AcDbLine
  10
5.66904
  20
0.322503
  30
0
  11
5.66204
  21
0.326152
  31
0
  0
LINE
  5
b6
  100
AcDbEntity
  8
1
  100
AcDbLine
  10
5.66204
  20
0.326152
  30
0
  11
5.65504
  21
0.329771
  31
0
  0
LINE
  5
b7
  100
AcDbEntity
  8
1
  100
AcDbLine
  10
5.65504
  20
0.329771
  30
0
  11
5.64804
  21
0.333358
  31
0
  0
LINE
  5
b8
  100
AcDbEntity
  8
1
  100
AcDbLine
  10
5.64804
  20
0.333358
  30
0
  11
5.64104
  21
0.336913
  31
0
  0
LINE
  5
b9
  100
AcDbEntity
  8
1
  100
AcDbLine
  10
5.64104
  20
0.336913
  30
0
  11
5.63404
  21
0.340435
  31
0
  0
LINE
  5
ba
  100
AcDbEntity
  8
1
  100
AcDbLine
  10
5.63404
  20
0.340435
  30
0
  11
5.62704
  21
0.343925
  31
0
  0
LINE
  5
bb
  100
AcDbEntity
  8
1
  100
AcDbLine
  10
5.62704
  20
0.343925
  30
0
  11
5.62004
  21
0.347381
  31
0
  0
LINE
  5
bc
  100
AcDbEntity
  8
1
  100
AcDbLine
  10
5.62004
  20
0.347381
  30
0
  11
5.61304
  21
0.350805
  31
0
  0
LINE
  5
bd
  100
AcDbEntity
  8
1
  100
AcDbLine
  10
5.61304
  20
0.350805
  30
0
  11
5.60604
  21
0.354194
  31
0
  0
LINE
  5
be
  100
AcDbEntity
  8
1
  100
AcDbLine
  10
5.60604
  20
0.354194
  30
0
  11
5.59904
  21
0.35755
  31
0
  0
LINE
  5
bf
  100
AcDbEntity
  8
1
  100
AcDbLine
  10
5.59904
  20
0.35755
  30
0
  11
5.59204
  21
0.360871
  31
0
  0
LINE
  5
c0
  100
AcDbEntity
  8
1
  100
AcDbLine
  10
5.59204
  20
0.360871
  30
0
  11
5.58504
  21
0.364157
  31
0
  0
LINE
  5
c1
  100
AcDbEntity
  8
1
  100
AcDbLine
  10
5.58504
  20
0.364157
  30
0
  11
5.57804
  21
0.367409
  31
0
  0
LINE
  5
c2
  100
AcDbEntity
  8
1
  100
AcDbLine
  10
5.57804
  20
0.367409
  30
0
  11
5.57104
  21
0.370625
  31
0
  0
LINE
  5
c3
  100
AcDbEntity
  8
1
  100
AcDbLine
  10
5.57104
  20
0.370625
  30
0
  11
5.56404
  21
0.373806
  31
0
  0
LINE
  5
c4
  100
AcDbEntity
  8
1
  100
AcDbLine
  10
5.56404
  20
0.373806
  30
0
  11
5.55704
  21
0.37695
  31
0
  0
LINE
  5
c5
  100
AcDbEntity
  8
1
  100
AcDbLine
  10
5.55704
  20
0.37695
  30
0
  11
5.55004
  21
0.380059
  31
0
  0
LINE
  5
c6
  100
AcDbEntity
  8
1
  100
AcDbLine
  10
5.55004
  20
0.380059
  30
0
  11
5.54304
  21
0.383131
  31
0
  0
LINE
  5
c7
  100
AcDbEntity
  8
1
  100
AcDbLine
  10
5.54304
  20
0.383131
  30
0
  11
5.53604
  21
0.386166
  31
0
  0
LINE
  5
c8
  100
AcDbEntity
  8
1
  100
AcDbLine
  10
5.53604
  20
0.386166
  30
0
  11
5.52904
  21
0.389164
  31
0
  0
LINE
  5
c9
  100
AcDbEntity
  8
1
  100
AcDbLine
  10
5.52904
  20
0.389164
  30
0
  11
5.52204
  21
0.392124
  31
0
  0
LINE
  5
ca
  100
AcDbEntity
  8
1
  100
AcDbLine
  10
5.52204
  20
0.392124
  30
0
  11
5.51504
  21
0.395047
  31
0
  0
LINE
  5
cb
  100
AcDbEntity
  8
1
  100
AcDbLine
  10
5.51504
  20
0.395047
  30
0
  11
5.50804
  21
0.397932
  31
0
  0
LINE
  5
cc
  100
AcDbEntity
  8
1
  100
AcDbLine
  10
5.50804
  20
0.397932
  30
0
  11
5.50104
  21
0.400779
  31
0
  0
LINE
  5
cd
  100
AcDbEntity
  8
1
  100
AcDbLine
  10
5.50104
  20
0.400779
  30
0
  11
5.49404
  21
0.403587
  31
0
  0
LINE
  5
ce
  100
AcDbEntity
  8
1
  100
AcDbLine
  10
5.49404
  20
0.403587
  30
0
  11
5.48704
  21
0.406356
  31
0
  0
LINE
  5
cf
  100
AcDbEntity
  8
1
  100
AcDbLine
  10
5.48704
  20
0.406356
  30
0
  11
5.48004
  21
0.409087
  31
0
  0
LINE
  5
d0
  100
AcDbEntity
  8
1
  100
AcDbLine
  10
5.48004
  20
0.409087
  30
0
  11
5.47304
  21
0.411778
  31
0
  0
LINE
  5
d1
  100
AcDbEntity
  8
1
  100
AcDbLine
  10
5.47304
  20
0.411778
  30
0
  11
5.46604
  21
0.414429
  31
0
  0
LINE
  5
d2
  100
AcDbEntity
  8
1
  100
AcDbLine
  10
5.46604
  20
0.414429
  30
0
  11
5.45904
  21
0.417041
  31
0
  0
LINE
  5
d3
  100
AcDbEntity
  8
1
  100
AcDbLine
  10
5.45904
  20
0.417041
  30
0
  11
5.45204
  21
0.419612
  31
0
  0
LINE
  5
d4
  100
AcDbEntity
  8
1
  100
AcDbLine
  10
5.45204
  20
0.419612
  30
0
  11
5.44504
  21
0.422144
  31
0
  0
LINE
  5
d5
  100
AcDbEntity
  8
1
  100
AcDbLine
  10
5.44504
  20
0.422144
  30
0
  11
5.43804
  21
0.424634
  31
0
  0
LINE
  5
d6
  100
AcDbEntity
  8
1
  100
AcDbLine
  10
5.43804
  20
0.424634
  30
0
  11
5.43104
  21
0.427084
  31
0
  0
LINE
  5
d7
  100
AcDbEntity
  8
1
  100
AcDbLine
  10
5.43104
  20
0.427084
  30
0
  11
5.42404
  21
0.429493
  31
0
  0
LINE
  5
d8
  100
AcDbEntity
  8
1
  100
AcDbLine
  10
5.42404
  20
0.429493
  30
0
  11
5.41704
  21
0.431861
  31
0
  0
LINE
  5
d9
  100
AcDbEntity
  8
1
  100
AcDbLine
  10
5.41704
  20
0.431861
  30
0
  11
5.41004
  21
0.434187
  31
0
  0
LINE
  5
da
  100
AcDbEntity
  8
1
  100
AcDbLine
  10
5.41004
  20
0.434187
  30
0
  11
5.40304
  21
0.436471
  31
0
  0
LINE
  5
db
  100
AcDbEntity
  8
1
  100
AcDbLine
  10
5.40304
  20
0.436471
  30
0
  11
5.39604
  21
0.438713
  31
0
  0
LINE
  5
dc
  100
AcDbEntity
  8
1
  100
AcDbLine
  10
5.39604
  20
0.438713
  30
0
  11
5.38904
  21
0.440914
  31
0
  0
LINE
  5
dd
  100
AcDbEntity
  8
1
  100
AcDbLine
  10
5.38904
  20
0.440914
  30
0
  11
5.38204
  21
0.443072
  31
0
  0
LINE
  5
de
  100
AcDbEntity
  8
1
  100
AcDbLine
  10
5.38204
  20
0.443072
  30
0
  11
5.37504
  21
0.445187
  31
0
  0
LINE
  5
df
  100
AcDbEntity
  8
1
  100
AcDbLine
  10
5.37504
  20
0.445187
  30
0
  11
5.36804
  21
0.447259
  31
0
  0
LINE
  5
e0
  100
AcDbEntity
  8
1
  100
AcDbLine
  10
5.36804
  20
0.447259
  30
0
  11
5.36104
  21
0.449289
  31
0
  0
LINE
  5
e1
  100
AcDbEntity
  8
1
  100
AcDbLine
  10
5.36104
  20
0.449289
  30
0
  11
5.35404
  21
0.451275
  31
0
  0
LINE
  5
e2
  100
AcDbEntity
  8
1
  100
AcDbLine
  10
5.35404
  20
0.451275
  30
0
  11
5.34704
  21
0.453218
  31
0
  0
LINE
  5
e3
  100
AcDbEntity
  8
1
  100
AcDbLine
  10
5.34704
  20
0.453218
  30
0
  11
5.34004
  21
0.455118
  31
0
  0
LINE
  5
e4
  100
AcDbEntity
  8
1
  100
AcDbLine
  10
5.34004
  20
0.455118
  30
0
  11
5.33304
  21
0.456973
  31
0
  0
LINE
  5
e5
  100
AcDbEntity
  8
1
  100
AcDbLine
  10
5.33304
  20
0.456973
  30
0
  11
5.32604
  21
0.458785
  31
0
  0
LINE
  5
e6
  100
AcDbEntity
  8
1
  100
AcDbLine
  10
5.32604
  20
0.458785
  30
0
  11
5.31904
  21
0.460553
  31
0
  0
LINE
  5
e7
  100
AcDbEntity
  8
1
  100
AcDbLine
  10
5.31904
  20
0.460553
  30
0
  11
5.31204
  21
0.462276
  31
0
  0
LINE
  5
e8
  100
AcDbEntity
  8
1
  100
AcDbLine
  10
5.31204
  20
0.462276
  30
0
  11
5.30504
  21
0.463955
  31
0
  0
LINE
  5
e9
  100
AcDbEntity
  8
1
  100
AcDbLine
  10
5.30504
  20
0.463955
  30
0
  11
5.29804
  21
0.46559
  31
0
  0
LINE
  5
ea
  100
AcDbEntity
  8
1
  100
AcDbLine
  10
5.29804
  20
0.46559
  30
0
  11
5.29104
  21
0.467179
  31
0
  0
LINE
  5
eb
  100
AcDbEntity
  8
1
  100
AcDbLine
  10
5.29104
  20
0.467179
  30
0
  11
5.28404
  21
0.468724
  31
0
  0
LINE
  5
ec
  100
AcDbEntity
  8
1
  100
AcDbLine
  10
5.28404
  20
0.468724
  30
0
  11
5.27704
  21
0.470224
  31
0
  0
LINE
  5
ed
  100
AcDbEntity
  8
1
  100
AcDbLine
  10
5.27704
  20
0.470224
  30
0
  11
5.27004
  21
0.471679
  31
0
  0
LINE
  5
ee
  100
AcDbEntity
  8
1
  100
AcDbLine
  10
5.27004
  20
0.471679
  30
0
  11
5.26304
  21
0.473088
  31
0
  0
LINE
  5
ef
  100
AcDbEntity
  8
1
  100
AcDbLine
  10
5.26304
  20
0.473088
  30
0
  11
5.25604
  21
0.474452
  31
0
  0
LINE
  5
f0
  100
AcDbEntity
  8
1
  100
AcDbLine
  10
5.25604
  20
0.474452
  30
0
  11
5.24904
  21
0.47577
  31
0
  0
LINE
  5
f1
  100
AcDbEntity
  8
1
  100
AcDbLine
  10
5.24904
  20
0.47577
  30
0
  11
5.24204
  21
0.477042
  31
0
  0
LINE
  5
f2
  100
AcDbEntity
  8
1
  100
AcDbLine
  10
5.24204
  20
0.477042
  30
0
  11
5.23504
  21
0.478269
  31
0
  0
LINE
  5
f3
  100
AcDbEntity
  8
1
  100
AcDbLine
  10
5.23504
  20
0.478269
  30
0
  11
5.22804
  21
0.479449
  31
0
  0
LINE
  5
f4
  100
AcDbEntity
  8
1
  100
AcDbLine
  10
5.22804
  20
0.479449
  30
0
  11
5.22104
  21
0.480584
  31
0
  0
LINE
  5
f5
  100
AcDbEntity
  8
1
  100
AcDbLine
  10
5.22104
  20
0.480584
  30
0
  11
5.21404
  21
0.481672
  31
0
  0
LINE
  5
f6
  100
AcDbEntity
  8
1
  100
AcDbLine
  10
5.21404
  20
0.481672
  30
0
  11
5.20704
  21
0.482715
  31
0
  0
LINE
  5
f7
  100
AcDbEntity
  8
1
  100
AcDbLine
  10
5.20704
  20
0.482715
  30
0
  11
5.20004
  21
0.48371
  31
0
  0
LINE
  5
f8
  100
AcDbEntity
  8
1
  100
AcDbLine
  10
5.20004
  20
0.48371
  30
0
  11
5.19304
  21
0.48466
  31
0
  0
LINE
  5
f9
  100
AcDbEntity
  8
1
  100
AcDbLine
  10
5.19304
  20
0.48466
  30
0
  11
5.18604
  21
0.485562
  31
0
  0
LINE
  5
fa
  100
AcDbEntity
  8
1
  100
AcDbLine
  10
5.18604
  20
0.485562
  30
0
  11
5.17904
  21
0.486418
  31
0
  0
LINE
  5
fb
  100
AcDbEntity
  8
1
  100
AcDbLine
  10
5.17904
  20
0.486418
  30
0
  11
5.17204
  21
0.487228
  31
0
  0
LINE
  5
fc
  100
AcDbEntity
  8
1
  100
AcDbLine
  10
5.17204
  20
0.487228
  30
0
  11
5.16504
  21
0.48799
  31
0
  0
LINE
  5
fd
  100
AcDbEntity
  8
1
  100
AcDbLine
  10
5.16504
  20
0.48799
  30
0
  11
5.15804
  21
0.488706
  31
0
  0
LINE
  5
fe
  100
AcDbEntity
  8
1
  100
AcDbLine
  10
5.15804
  20
0.488706
  30
0
  11
5.15104
  21
0.489374
  31
0
  0
LINE
  5
ff
  100
AcDbEntity
  8
1
  100
AcDbLine
  10
5.15104
  20
0.489374
  30
0
  11
5.14404
  21
0.489996
  31
0
  0
LINE
  5
100
  100
AcDbEntity
  8
1
  100
AcDbLine
  10
5.14404
  20
0.489996
  30
0
  11
5.13704
  21
0.49057
  31
0
  0
LINE
  5
101
  100
AcDbEntity
  8
1
  100
AcDbLine
  10
5.13704
  20
0.49057
  30
0
  11
5.13004
  21
0.491098
  31
0
  0
LINE
  5
102
  100
AcDbEntity
  8
1
  100
AcDbLine
  10
5.13004
  20
0.491098
  30
0
  11
5.12304
  21
0.491578
  31
0
  0
LINE
  5
103
  100
AcDbEntity
  8
1
  100
AcDbLine
  10
5.12304
  20
0.491578
  30
0
  11
5.11604
  21
0.492011
  31
0
  0
LINE
  5
104
  100
AcDbEntity
  8
1
  100
AcDbLine
  10
5.11604
  20
0.492011
  30
0
  11
5.10904
  21
0.492396
  31
0
  0
LINE
  5
105
  100
AcDbEntity
  8
1
  100
AcDbLine
  10
5.10904
  20
0.492396
  30
0
  11
5.10204
  21
0.492735
  31
0
  0
LINE
  5
106
  100
AcDbEntity
  8
1
  100
AcDbLine
  10
5.10204
  20
0.492735
  30
0
  11
5.09504
  21
0.493026
  31
0
  0
LINE
  5
107
  100
AcDbEntity
  8
1
  100
AcDbLine
  10
5.09504
  20
0.493026
  30
0
  11
5.08804
  21
0.493269
  31
0
  0
LINE
  5
108
  100
AcDbEntity
  8
1
  100
AcDbLine
  10
5.08804
  20
0.493269
  30
0
  11
5.08104
  21
0.493465
  31
0
  0
LINE
  5
109
  100
AcDbEntity
  8
1
  100
AcDbLine
  10
5.08104
  20
0.493465
  30
0
  11
5.07404
  21
0.493614
  31
0
  0
LINE
  5
10a
  100
AcDbEntity
  8
1
  100
AcDbLine
  10
5.07404
  20
0.493614
  30
0
  11
5.06704
  21
0.493715
  31
0
  0
LINE
  5
10b
  100
AcDbEntity
  8
1
  100
AcDbLine
  10
5.06704
  20
0.493715
  30
0
  11
5.06004
  21
0.493769
  31
0
  0
LINE
  5
10c
  100
AcDbEntity
  8
1
  100
AcDbLine
  10
5.06004
  20
0.493769
  30
0
  11
5.05559
  21
0.5
  31
0
  0
LINE
  5
10d
  100
AcDbEntity
  8
1
  100
AcDbLine
  10
5.383077
  20
0.5
  30
0
  11
5.38904
  21
0.499983
  31
0
  0
LINE
  5
10e
  100
AcDbEntity
  8
1
  100
AcDbLine
  10
5.38904
  20
0.499983
  30
0
  11
5.39604
  21
0.499918
  31
0
  0
LINE
  5
10f
  100
AcDbEntity
  8
1
  100
AcDbLine
  10
5.39604
  20
0.499918
  30
0
  11
5.40304
  21
0.499805
  31
0
  0
LINE
  5
110
  100
AcDbEntity
  8
1
  100
AcDbLine
  10
5.40304
  20
0.499805
  30
0
  11
5.41004
  21
0.499644
  31
0
  0
LINE
  5
111
  100
AcDbEntity
  8
1
  100
AcDbLine
  10
5.41004
  20
0.499644
  30
0
  11
5.41704
  21
0.499435
  31
0
  0
LINE
  5
112
  100
AcDbEntity
  8
1
  100
AcDbLine
  10
5.41704
  20
0.499435
  30
0
  11
5.42404
  21
0.499178
  31
0
  0
LINE
  5
113
  100
AcDbEntity
  8
1
  100
AcDbLine
  10
5.42404
  20
0.499178
  30
0
  11
5.43104
  21
0.498873
  31
0
  0
LINE
  5
114
  100
AcDbEntity
  8
1
  100
AcDbLine
  10
5.43104
  20
0.498873
  30
0
  11
5.43804
  21
0.49852
  31
0
  0
LINE
  5
115
  100
AcDbEntity
  8
1
  100
AcDbLine
  10
5.43804
  20
0.49852
  30
0
  11
5.44504
  21
0.498119
  31
0
  0
LINE
  5
116
  100
AcDbEntity
  8
1
  100
AcDbLine
  10
5.44504
  20
0.498119
  30
0
  11
5.45204
  21
0.49767
  31
0
  0
LINE
  5
117
  100
AcDbEntity
  8
1
  100
AcDbLine
  10
5.45204
  20
0.49767
  30
0
  11
5.45904
  21
0.497174
  31
0
  0
LINE
  5
118
  100
AcDbEntity
  8
1
  100
AcDbLine
  10
5.45904
  20
0.497174
  30
0
  11
5.46604
  21
0.496629
  31
0
  0
LINE
  5
119
  100
AcDbEntity
  8
1
  100
AcDbLine
  10
5.46604
  20
0.496629
  30
0
  11
5.47304
  21
0.496037
  31
0
  0
LINE
  5
11a
  100
AcDbEntity
  8
1
  100
AcDbLine
  10
5.47304
  20
0.496037
  30
0
  11
5.48004
  21
0.495398
  31
0
  0
LINE
  5
11b
  100
AcDbEntity
  8
1
  100
AcDbLine
  10
5.48004
  20
0.495398
  30
0
  11
5.48704
  21
0.49471
  31
0
  0
LINE
  5
11c
  100
AcDbEntity
  8
1
  100
AcDbLine
  10
5.48704
  20
0.49471
  30
0
  11
5.49404
  21
0.493975
  31
0
  0
LINE
  5
11d
  100
AcDbEntity
  8
1
  100
AcDbLine
  10
5.49404
  20
0.493975
  30
0
  11
5.50104
  21
0.493193
  31
0
  0
LINE
  5
11e
  100
AcDbEntity
  8
1
  100
AcDbLine
  10
5.50104
  20
0.493193
  30
0
  11
5.50804
  21
0.492363
  31
0
  0
LINE
  5
11f
  100
AcDbEntity
  8
1
  100
AcDbLine
  10
5.50804
  20
0.492363
  30
0
  11
5.51504
  21
0.491486
  31
0
  0
LINE
  5
120
  100
AcDbEntity
  8
1
  100
AcDbLine
  10
5.51504
  20
0.491486
  30
0
  11
5.52204
  21
0.490562
  31
0
  0
LINE
  5
121
  100
AcDbEntity
  8
1
  100
AcDbLine
  10
5.52204
  20
0.490562
  30
0
  11
5.52904
  21
0.489591
  31
0
  0
LINE
  5
122
  100
AcDbEntity
  8
1
  100
AcDbLine
  10
5.52904
  20
0.489591
  30
0
  11
5.53604
  21
0.488572
  31
0
  0
LINE
  5
123
  100
AcDbEntity
  8
1
  100
AcDbLine
  10
5.53604
  20
0.488572
  30
0
  11
5.54304
  21
0.487507
  31
0
  0
LINE
  5
124
  100
AcDbEntity
  8
1
  100
AcDbLine
  10
5.54304
  20
0.487507
  30
0
  11
5.55004
  21
0.486395
  31
0
  0
LINE
  5
125
  100
AcDbEntity
  8
1
  100
AcDbLine
  10
5.55004
  20
0.486395
  30
0
  11
5.55704
  21
0.485236
  31
0
  0
LINE
  5
126
  100
AcDbEntity
  8
1
  100
AcDbLine
  10
5.55704
  20
0.485236
  30
0
  11
5.56404
  21
0.48403
  31
0
  0
LINE
  5
127
  100
AcDbEntity
  8
1
  100
AcDbLine
  10
5.56404
  20
0.48403
  30
0
  11
5.57104
  21
0.482778
  31
0
  0
LINE
  5
128
  100
AcDbEntity
  8
1
  100
AcDbLine
  10
5.57104
  20
0.482778
  30
0
  11
5.57804
  21
0.481479
  31
0
  0
LINE
  5
129
  100
AcDbEntity
  8
1
  100
AcDbLine
  10
5.57804
  20
0.481479
  30
0
  11
5.58504
  21
0.480135
  31
0
  0
LINE
  5
12a
  100
AcDbEntity
  8
1
  100
AcDbLine
  10
5.58504
  20
0.480135
  30
0
  11
5.59204
  21
0.478744
  31
0
  0
LINE
  5
12b
  100
AcDbEntity
  8
1
  100
AcDbLine
  10
5.59204
  20
0.478744
  30
0
  11
5.59904
  21
0.477307
  31
0
  0
LINE
  5
12c
  100
AcDbEntity
  8
1
  100
AcDbLine
  10
5.59904
  20
0.477307
  30
0
  11
5.60604
  21
0.475824
  31
0
  0
LINE
  5
12d
  100
AcDbEntity
  8
1
  100
AcDbLine
  10
5.60604
  20
0.475824
  30
0
  11
5.61304
  21
0.474295
  31
0
  0
LINE
  5
12e
  100
AcDbEntity
  8
1
  100
AcDbLine
  10
5.61304
  20
0.474295
  30
0
  11
5.62004
  21
0.472721
  31
0
  0
LINE
  5
12f
  100
AcDbEntity
  8
1
  100
AcDbLine
  10
5.62004
  20
0.472721
  30
0
  11
5.62704
  21
0.471102
  31
0
  0
LINE
  5
130
  100
AcDbEntity
  8
1
  100
AcDbLine
  10
5.62704
  20
0.471102
  30
0
  11
5.63404
  21
0.469437
  31
0
  0
LINE
  5
131
  100
AcDbEntity
  8
1
  100
AcDbLine
  10
5.63404
  20
0.469437
  30
0
  11
5.64104
  21
0.467727
  31
0
  0
LINE
  5
132
  100
AcDbEntity
  8
1
  100
AcDbLine
  10
5.64104
  20
0.467727
  30
0
  11
5.64804
  21
0.465972
  31
0
  0
LINE
  5
133
  100
AcDbEntity
  8
1
  100
AcDbLine
  10
5.64804
  20
0.465972
  30
0
  11
5.65504
  21
0.464173
  31
0
  0
LINE
  5
134
  100
AcDbEntity
  8
1
  100
AcDbLine
  10
5.65504
  20
0.464173
  30
0
  11
5.66204
  21
0.462328
  31
0
  0
LINE
  5
135
  100
AcDbEntity
  8
1
  100
AcDbLine
  10
5.66204
  20
0.462328
  30
0
  11
5.66904
  21
0.46044
  31
0
  0
LINE
  5
136
  100
AcDbEntity
  8
1
  100
AcDbLine
  10
5.66904
  20
0.46044
  30
0
  11
5.67604
  21
0.458507
  31
0
  0
LINE
  5
137
  100
AcDbEntity
  8
1
  100
AcDbLine
  10
5.67604
  20
0.458507
  30
0
  11
5.68304
  21
0.45653
  31
0
  0
LINE
  5
138
  100
AcDbEntity
  8
1
  100
AcDbLine
  10
5.68304
  20
0.45653
  30
0
  11
5.69004
  21
0.454509
  31
0
  0
LINE
  5
139
  100
AcDbEntity
  8
1
  100
AcDbLine
  10
5.69004
  20
0.454509
  30
0
  11
5.69704
  21
0.452444
  31
0
  0
LINE
  5
13a
  100
AcDbEntity
  8
1
  100
AcDbLine
  10
5.69704
  20
0.452444
  30
0
  11
5.70404
  21
0.450336
  31
0
  0
LINE
  5
13b
  100
AcDbEntity
  8
1
  100
AcDbLine
  10
5.70404
  20
0.450336
  30
0
  11
5.71104
  21
0.448185
  31
0
  0
LINE
  5
13c
  100
AcDbEntity
  8
1
  100
AcDbLine
  10
5.71104
  20
0.448185
  30
0
  11
5.71804
  21
0.442197
  31
0
  0
LINE
  5
13d
  100
AcDbEntity
  8
1
  100
AcDbLine
  10
5.71804
  20
0.442197
  30
0
  11
5.72504
  21
0.435638
  31
0
  0
LINE
  5
13e
  100
AcDbEntity
  8
1
  100
AcDbLine
  10
5.72504
  20
0.435638
  30
0
  11
5.73204
  21
0.42915
  31
0
  0
LINE
  5
13f
  100
AcDbEntity
  8
1
  100
AcDbLine
  10
5.73204
  20
0.48
  30
0
  11
5.73204
  21
-0.48
  31
0
  0
LINE
  5
140
  100
AcDbEntity
  8
1
  100
AcDbLine
  10
5.73204
  20
-0.479992
  30
0
  11
5.72504
  21
-0.486955
  31
0
  0
LINE
  5
141
  100
AcDbEntity
  8
1
  100
AcDbLine
  10
5.72504
  20
-0.486955
  30
0
  11
5.71804
  21
-0.493888
  31
0
  0
LINE
  5
142
  100
AcDbEntity
  8
1
  100
AcDbLine
  10
5.71804
  20
-0.493888
  30
0
  11
5.71104
  21
-0.499784
  31
0
  0
LINE
  5
143
  100
AcDbEntity
  8
1
  100
AcDbLine
  10
5.71104
  20
-0.499784
  30
0
  11
5.70404
  21
-0.499616
  31
0
  0
LINE
  5
144
  100
AcDbEntity
  8
1
  100
AcDbLine
  10
5.70404
  20
-0.499616
  30
0
  11
5.69704
  21
-0.4994
  31
0
  0
LINE
  5
145
  100
AcDbEntity
  8
1
  100
AcDbLine
  10
5.69704
  20
-0.4994
  30
0
  11
5.69004
  21
-0.499135
  31
0
  0
LINE
  5
146
  100
AcDbEntity
  8
1
  100
AcDbLine
  10
5.69004
  20
-0.499135
  30
0
  11
5.68304
  21
-0.498823
  31
0
  0
LINE
  5
147
  100
AcDbEntity
  8
1
  100
AcDbLine
  10
5.68304
  20
-0.498823
  30
0
  11
5.67604
  21
-0.498463
  31
0
  0
LINE
  5
148
  100
AcDbEntity
  8
1
  100
AcDbLine
  10
5.67604
  20
-0.498463
  30
0
  11
5.66904
  21
-0.498055
  31
0
  0
LINE
  5
149
  100
AcDbEntity
  8
1
  100
AcDbLine
  10
5.66904
  20
-0.498055
  30
0
  11
5.66204
  21
-0.497599
  31
0
  0
LINE
  5
14a
  100
AcDbEntity
  8
1
  100
AcDbLine
  10
5.66204
  20
-0.497599
  30
0
  11
5.65504
  21
-0.497096
  31
0
  0
LINE
  5
14b
  100
AcDbEntity
  8
1
  100
AcDbLine
  10
5.65504
  20
-0.497096
  30
0
  11
5.64804
  21
-0.496544
  31
0
  0
LINE
  5
14c
  100
AcDbEntity
  8
1
  100
AcDbLine
  10
5.64804
  20
-0.496544
  30
0
  11
5.64104
  21
-0.495945
  31
0
  0
LINE
  5
14d
  100
AcDbEntity
  8
1
  100
AcDbLine
  10
5.64104
  20
-0.495945
  30
0
  11
5.63404
  21
-0.495299
  31
0
  0
LINE
  5
14e
  100
AcDbEntity
  8
1
  100
AcDbLine
  10
5.63404
  20
-0.495299
  30
0
  11
5.62704
  21
-0.494604
  31
0
  0
LINE
  5
14f
  100
AcDbEntity
  8
1
  100
AcDbLine
  10
5.62704
  20
-0.494604
  30
0
  11
5.62004
  21
-0.493862
  31
0
  0
LINE
  5
150
  100
AcDbEntity
  8
1
  100
AcDbLine
  10
5.62004
  20
-0.493862
  30
0
  11
5.61304
  21
-0.493073
  31
0
  0
LINE
  5
151
  100
AcDbEntity
  8
1
  100
AcDbLine
  10
5.61304
  20
-0.493073
  30
0
  11
5.60604
  21
-0.492236
  31
0
  0
LINE
  5
152
  100
AcDbEntity
  8
1
  100
AcDbLine
  10
5.60604
  20
-0.492236
  30
0
  11
5.59904
  21
-0.491352
  31
0
  0
LINE
  5
153
  100
AcDbEntity
  8
1
  100
AcDbLine
  10
5.59904
  20
-0.491352
  30
0
  11
5.59204
  21
-0.490421
  31
0
  0
LINE
  5
154
  100
AcDbEntity
  8
1
  100
AcDbLine
  10
5.59204
  20
-0.490421
  30
0
  11
5.58504
  21
-0.489443
  31
0
  0
LINE
  5
155
  100
AcDbEntity
  8
1
  100
AcDbLine
  10
5.58504
  20
-0.489443
  30
0
  11
5.57804
  21
-0.488417
  31
0
  0
LINE
  5
156
  100
AcDbEntity
  8
1
  100
AcDbLine
  10
5.57804
  20
-0.488417
  30
0
  11
5.57104
  21
-0.487345
  31
0
  0
LINE
  5
157
  100
AcDbEntity
  8
1
  100
AcDbLine
  10
5.57104
  20
-0.487345
  30
0
  11
5.56404
  21
-0.486226
  31
0
  0
LINE
  5
158
  100
AcDbEntity
  8
1
  100
AcDbLine
  10
5.56404
  20
-0.486226
  30
0
  11
5.55704
  21
-0.48506
  31
0
  0
LINE
  5
159
  100
AcDbEntity
  8
1
  100
AcDbLine
  10
5.55704
  20
-0.48506
  30
0
  11
5.55004
  21
-0.483847
  31
0
  0
LINE
  5
15a
  100
AcDbEntity
  8
1
  100
AcDbLine
  10
5.55004
  20
-0.483847
  30
0
  11
5.54304
  21
-0.482588
  31
0
  0
LINE
  5
15b
  100
AcDbEntity
  8
1
  100
AcDbLine
  10
5.54304
  20
-0.482588
  30
0
  11
5.53604
  21
-0.481283
  31
0
  0
LINE
  5
15c
  100
AcDbEntity
  8
1
  100
AcDbLine
  10
5.53604
  20
-0.481283
  30
0
  11
5.52904
  21
-0.479931
  31
0
  0
LINE
  5
15d
  100
AcDbEntity
  8
1
  100
AcDbLine
  10
5.52904
  20
-0.479931
  30
0
  11
5.52204
  21
-0.478534
  31
0
  0
LINE
  5
15e
  100
AcDbEntity
  8
1
  100
AcDbLine
  10
5.52204
  20
-0.478534
  30
0
  11
5.51504
  21
-0.47709
  31
0
  0
LINE
  5
15f
  100
AcDbEntity
  8
1
  100
AcDbLine
  10
5.51504
  20
-0.47709
  30
0
  11
5.50804
  21
-0.4756
  31
0
  0
LINE
  5
160
  100
AcDbEntity
  8
1
  100
AcDbLine
  10
5.50804
  20
-0.4756
  30
0
  11
5.50104
  21
-0.474065
  31
0
  0
LINE
  5
161
  100
AcDbEntity
  8
1
  100
AcDbLine
  10
5.50104
  20
-0.474065
  30
0
  11
5.49404
  21
-0.472484
  31
0
  0
LINE
  5
162
  100
AcDbEntity
  8
1
  100
AcDbLine
  10
5.49404
  20
-0.472484
  30
0
  11
5.48704
  21
-0.470858
  31
0
  0
LINE
  5
163
  100
AcDbEntity
  8
1
  100
AcDbLine
  10
5.48704
  20
-0.470858
  30
0
  11
5.48004
  21
-0.469186
  31
0
  0
LINE
  5
164
  100
AcDbEntity
  8
1
  100
AcDbLine
  10
5.48004
  20
-0.469186
  30
0
  11
5.47304
  21
-0.46747
  31
0
  0
LINE
  5
165
  100
AcDbEntity
  8
1
  100
AcDbLine
  10
5.47304
  20
-0.46747
  30
0
  11
5.46604
  21
-0.465708
  31
0
  0
LINE
  5
166
  100
AcDbEntity
  8
1
  100
AcDbLine
  10
5.46604
  20
-0.465708
  30
0
  11
5.45904
  21
-0.463902
  31
0
  0
LINE
  5
167
  100
AcDbEntity
  8
1
  100
AcDbLine
  10
5.45904
  20
-0.463902
  30
0
  11
5.45204
  21
-0.462051
  31
0
  0
LINE
  5
168
  100
AcDbEntity
  8
1
  100
AcDbLine
  10
5.45204
  20
-0.462051
  30
0
  11
5.44504
  21
-0.460156
  31
0
  0
LINE
  5
169
  100
AcDbEntity
  8
1
  100
AcDbLine
  10
5.44504
  20
-0.460156
  30
0
  11
5.43804
  21
-0.458217
  31
0
  0
LINE
  5
16a
  100
AcDbEntity
  8
1
  100
AcDbLine
  10
5.43804
  20
-0.458217
  30
0
  11
5.43104
  21
-0.456233
  31
0
  0
LINE
  5
16b
  100
AcDbEntity
  8
1
  100
AcDbLine
  10
5.43104
  20
-0.456233
  30
0
  11
5.42404
  21
-0.454206
  31
0
  0
LINE
  5
16c
  100
AcDbEntity
  8
1
  100
AcDbLine
  10
5.42404
  20
-0.454206
  30
0
  11
5.41704
  21
-0.452135
  31
0
  0
LINE
  5
16d
  100
AcDbEntity
  8
1
  100
AcDbLine
  10
5.41704
  20
-0.452135
  30
0
  11
5.41004
  21
-0.45002
  31
0
  0
LINE
  5
16e
  100
AcDbEntity
  8
1
  100
AcDbLine
  10
5.41004
  20
-0.45002
  30
0
  11
5.40304
  21
-0.447863
  31
0
  0
LINE
  5
16f
  100
AcDbEntity
  8
1
  100
AcDbLine
  10
5.40304
  20
-0.447863
  30
0
  11
5.39604
  21
-0.445662
  31
0
  0
LINE
  5
170
  100
AcDbEntity
  8
1
  100
AcDbLine
  10
5.39604
  20
-0.445662
  30
0
  11
5.38904
  21
-0.443418
  31
0
  0
LINE
  5
171
  100
AcDbEntity
  8
1
  100
AcDbLine
  10
5.38904
  20
-0.443418
  30
0
  11
5.38204
  21
-0.441132
  31
0
  0
LINE
  5
172
  100
AcDbEntity
  8
1
  100
AcDbLine
  10
5.38204
  20
-0.441132
  30
0
  11
5.37504
  21
-0.438804
  31
0
  0
LINE
  5
173
  100
AcDbEntity
  8
1
  100
AcDbLine
  10
5.37504
  20
-0.438804
  30
0
  11
5.36804
  21
-0.436433
  31
0
  0
LINE
  5
174
  100
AcDbEntity
  8
1
  100
AcDbLine
  10
5.36804
  20
-0.436433
  30
0
  11
5.36104
  21
-0.43402
  31
0
  0
LINE
  5
175
  100
AcDbEntity
  8
1
  100
AcDbLine
  10
5.36104
  20
-0.43402
  30
0
  11
5.35404
  21
-0.431566
  31
0
  0
LINE
  5
176
  100
AcDbEntity
  8
1
  100
AcDbLine
  10
5.35404
  20
-0.431566
  30
0
  11
5.34704
  21
-0.42907
  31
0
  0
LINE
  5
177
  100
AcDbEntity
  8
1
  100
AcDbLine
  10
5.34704
  20
-0.42907
  30
0
  11
5.34004
  21
-0.426533
  31
0
  0
LINE
  5
178
  100
AcDbEntity
  8
1
  100
AcDbLine
  10
5.34004
  20
-0.426533
  30
0
  11
5.33304
  21
-0.423955
  31
0
  0
LINE
  5
179
  100
AcDbEntity
  8
1
  100
AcDbLine
  10
5.33304
  20
-0.423955
  30
0
  11
5.32604
  21
-0.421336
  31
0
  0
LINE
  5
17a
  100
AcDbEntity
  8
1
  100
AcDbLine
  10
5.32604
  20
-0.421336
  30
0
  11
5.31904
  21
-0.418677
  31
0
  0
LINE
  5
17b
  100
AcDbEntity
  8
1
  100
AcDbLine
  10
5.31904
  20
-0.418677
  30
0
  11
5.31204
  21
-0.415978
  31
0
  0
LINE
  5
17c
  100
AcDbEntity
  8
1
  100
AcDbLine
  10
5.31204
  20
-0.415978
  30
0
  11
5.30504
  21
-0.413238
  31
0
  0
LINE
  5
17d
  100
AcDbEntity
  8
1
  100
AcDbLine
  10
5.30504
  20
-0.413238
  30
0
  11
5.29804
  21
-0.410459
  31
0
  0
LINE
  5
17e
  100
AcDbEntity
  8
1
  100
AcDbLine
  10
5.29804
  20
-0.410459
  30
0
  11
5.29104
  21
-0.40764
  31
0
  0
LINE
  5
17f
  100
AcDbEntity
  8
1
  100
AcDbLine
  10
5.29104
  20
-0.40764
  30
0
  11
5.28404
  21
-0.404782
  31
0
  0
LINE
  5
180
  100
AcDbEntity
  8
1
  100
AcDbLine
  10
5.28404
  20
-0.404782
  30
0
  11
5.27704
  21
-0.401886
  31
0
  0
LINE
  5
181
  100
AcDbEntity
  8
1
  100
AcDbLine
  10
5.27704
  20
-0.401886
  30
0
  11
5.27004
  21
-0.39895
  31
0
  0
LINE
  5
182
  100
AcDbEntity
  8
1
  100
AcDbLine
  10
5.27004
  20
-0.39895
  30
0
  11
5.26304
  21
-0.395977
  31
0
  0
LINE
  5
183
  100
AcDbEntity
  8
1
  100
AcDbLine
  10
5.26304
  20
-0.395977
  30
0
  11
5.25604
  21
-0.392965
  31
0
  0
LINE
  5
184
  100
AcDbEntity
  8
1
  100
AcDbLine
  10
5.25604
  20
-0.392965
  30
0
  11
5.24904
  21
-0.389916
  31
0
  0
LINE
  5
185
  100
AcDbEntity
  8
1
  100
AcDbLine
  10
5.24904
  20
-0.389916
  30
0
  11
5.24204
  21
-0.386829
  31
0
  0
LINE
  5
186
  100
AcDbEntity
  8
1
  100
AcDbLine
  10
5.24204
  20
-0.386829
  30
0
  11
5.23504
  21
-0.383704
  31
0
  0
LINE
  5
187
  100
AcDbEntity
  8
1
  100
AcDbLine
  10
5.23504
  20
-0.383704
  30
0
  11
5.22804
  21
-0.380543
  31
0
  0
LINE
  5
188
  100
AcDbEntity
  8
1
  100
AcDbLine
  10
5.22804
  20
-0.380543
  30
0
  11
5.22104
  21
-0.377346
  31
0
  0
LINE
  5
189
  100
AcDbEntity
  8
1
  100
AcDbLine
  10
5.22104
  20
-0.377346
  30
0
  11
5.21404
  21
-0.374112
  31
0
  0
LINE
  5
18a
  100
AcDbEntity
  8
1
  100
AcDbLine
  10
5.21404
  20
-0.374112
  30
0
  11
5.20704
  21
-0.370842
  31
0
  0
LINE
  5
18b
  100
AcDbEntity
  8
1
  100
AcDbLine
  10
5.20704
  20
-0.370842
  30
0
  11
5.20004
  21
-0.367537
  31
0
  0
LINE
  5
18c
  100
AcDbEntity
  8
1
  100
AcDbLine
  10
5.20004
  20
-0.367537
  30
0
  11
5.19304
  21
-0.364196
  31
0
  0
LINE
  5
18d
  100
AcDbEntity
  8
1
  100
AcDbLine
  10
5.19304
  20
-0.364196
  30
0
  11
5.18604
  21
-0.36082
  31
0
  0
LINE
  5
18e
  100
AcDbEntity
  8
1
  100
AcDbLine
  10
5.18604
  20
-0.36082
  30
0
  11
5.17904
  21
-0.35741
  31
0
  0
LINE
  5
18f
  100
AcDbEntity
  8
1
  100
AcDbLine
  10
5.17904
  20
-0.35741
  30
0
  11
5.17204
  21
-0.353965
  31
0
  0
LINE
  5
190
  100
AcDbEntity
  8
1
  100
AcDbLine
  10
5.17204
  20
-0.353965
  30
0
  11
5.16504
  21
-0.350487
  31
0
  0
LINE
  5
191
  100
AcDbEntity
  8
1
  100
AcDbLine
  10
5.16504
  20
-0.350487
  30
0
  11
5.15804
  21
-0.346974
  31
0
  0
LINE
  5
192
  100
AcDbEntity
  8
1
  100
AcDbLine
  10
5.15804
  20
-0.346974
  30
0
  11
5.15104
  21
-0.343428
  31
0
  0
LINE
  5
193
  100
AcDbEntity
  8
1
  100
AcDbLine
  10
5.15104
  20
-0.343428
  30
0
  11
5.14404
  21
-0.33985
  31
0
  0
LINE
  5
194
  100
AcDbEntity
  8
1
  100
AcDbLine
  10
5.14404
  20
-0.33985
  30
0
  11
5.13704
  21
-0.336238
  31
0
  0
LINE
  5
195
  100
AcDbEntity
  8
1
  100
AcDbLine
  10
5.13704
  20
-0.336238
  30
0
  11
5.13004
  21
-0.332594
  31
0
  0
LINE
  5
196
  100
AcDbEntity
  8
1
  100
AcDbLine
  10
5.13004
  20
-0.332594
  30
0
  11
5.12304
  21
-0.328919
  31
0
  0
LINE
  5
197
  100
AcDbEntity
  8
1
  100
AcDbLine
  10
5.12304
  20
-0.328919
  30
0
  11
5.11604
  21
-0.325211
  31
0
  0
LINE
  5
198
  100
AcDbEntity
  8
1
  100
AcDbLine
  10
5.11604
  20
-0.325211
  30
0
  11
5.10904
  21
-0.321473
  31
0
  0
LINE
  5
199
  100
AcDbEntity
  8
1
  100
AcDbLine
  10
5.10904
  20
-0.321473
  30
0
  11
5.10204
  21
-0.317703
  31
0
  0
LINE
  5
19a
  100
AcDbEntity
  8
1
  100
AcDbLine
  10
5.10204
  20
-0.317703
  30
0
  11
5.09504
  21
-0.313903
  31
0
  0
LINE
  5
19b
  100
AcDbEntity
  8
1
  100
AcDbLine
  10
5.09504
  20
-0.313903
  30
0
  11
5.08804
  21
-0.310073
  31
0
  0
LINE
  5
19c
  100
AcDbEntity
  8
1
  100
AcDbLine
  10
5.08804
  20
-0.310073
  30
0
  11
5.08104
  21
-0.306213
  31
0
  0
LINE
  5
19d
  100
AcDbEntity
  8
1
  100
AcDbLine
  10
5.08104
  20
-0.306213
  30
0
  11
5.07404
  21
-0.302324
  31
0
  0
LINE
  5
19e
  100
AcDbEntity
  8
1
  100
AcDbLine
  10
5.07404
  20
-0.302324
  30
0
  11
5.06704
  21
-0.298405
  31
0
  0
LINE
  5
19f
  100
AcDbEntity
  8
1
  100
AcDbLine
  10
5.06704
  20
-0.298405
  30
0
  11
5.06004
  21
-0.294458
  31
0
  0
LINE
  5
1a0
  100
AcDbEntity
  8
1
  100
AcDbLine
  10
5.06004
  20
-0.294458
  30
0
  11
5.05304
  21
-0.290483
  31
0
  0
LINE
  5
1a1
  100
AcDbEntity
  8
1
  100
AcDbLine
  10
5.05304
  20
-0.290483
  30
0
  11
5.04604
  21
-0.286479
  31
0
  0
LINE
  5
1a2
  100
AcDbEntity
  8
1
  100
AcDbLine
  10
5.04604
  20
-0.286479
  30
0
  11
5.03904
  21
-0.282449
  31
0
  0
LINE
  5
1a3
  100
AcDbEntity
  8
1
  100
AcDbLine
  10
5.03904
  20
-0.282449
  30
0
  11
5.03204
  21
-0.278391
  31
0
  0
LINE
  5
1a4
  100
AcDbEntity
  8
1
  100
AcDbLine
  10
5.03204
  20
-0.278391
  30
0
  11
5.02504
  21
-0.274306
  31
0
  0
LINE
  5
1a5
  100
AcDbEntity
  8
1
  100
AcDbLine
  10
5.02504
  20
-0.274306
  30
0
  11
5.01804
  21
-0.270195
  31
0
  0
LINE
  5
1a6
  100
AcDbEntity
  8
1
  100
AcDbLine
  10
5.01804
  20
-0.270195
  30
0
  11
5.01104
  21
-0.266058
  31
0
  0
LINE
  5
1a7
  100
AcDbEntity
  8
1
  100
AcDbLine
  10
5.01104
  20
-0.266058
  30
0
  11
5.00404
  21
-0.261895
  31
0
  0
LINE
  5
1a8
  100
AcDbEntity
  8
1
  100
AcDbLine
  10
5.00404
  20
-0.261895
  30
0
  11
4.99704
  21
-0.257707
  31
0
  0
LINE
  5
1a9
  100
AcDbEntity
  8
1
  100
AcDbLine
  10
4.99704
  20
-0.257707
  30
0
  11
4.99004
  21
-0.253495
  31
0
  0
LINE
  5
1aa
  100
AcDbEntity
  8
1
  100
AcDbLine
  10
4.99004
  20
-0.253495
  30
0
  11
4.98304
  21
-0.249258
  31
0
  0
LINE
  5
1ab
  100
AcDbEntity
  8
1
  100
AcDbLine
  10
4.98304
  20
-0.249258
  30
0
  11
4.97604
  21
-0.244997
  31
0
  0
LINE
  5
1ac
  100
AcDbEntity
  8
1
  100
AcDbLine
  10
4.97604
  20
-0.244997
  30
0
  11
4.96904
  21
-0.240712
  31
0
  0
LINE
  5
1ad
  100
AcDbEntity
  8
1
  100
AcDbLine
  10
4.96904
  20
-0.240712
  30
0
  11
4.96204
  21
-0.236405
  31
0
  0
LINE
  5
1ae
  100
AcDbEntity
  8
1
  100
AcDbLine
  10
4.96204
  20
-0.236405
  30
0
  11
4.95504
  21
-0.232075
  31
0
  0
LINE
  5
1af
  100
AcDbEntity
  8
1
  100
AcDbLine
  10
4.95504
  20
-0.232075
  30
0
  11
4.94804
  21
-0.227722
  31
0
  0
LINE
  5
1b0
  100
AcDbEntity
  8
1
  100
AcDbLine
  10
4.94804
  20
-0.227722
  30
0
  11
4.94104
  21
-0.223348
  31
0
  0
LINE
  5
1b1
  100
AcDbEntity
  8
1
  100
AcDbLine
  10
4.94104
  20
-0.223348
  30
0
  11
4.93404
  21
-0.218952
  31
0
  0
LINE
  5
1b2
  100
AcDbEntity
  8
1
  100
AcDbLine
  10
4.93404
  20
-0.218952
  30
0
  11
4.92704
  21
-0.214535
  31
0
  0
LINE
  5
1b3
  100
AcDbEntity
  8
1
  100
AcDbLine
  10
4.92704
  20
-0.214535
  30
0
  11
4.92004
  21
-0.210097
  31
0
  0
LINE
  5
1b4
  100
AcDbEntity
  8
1
  100
AcDbLine
  10
4.92004
  20
-0.210097
  30
0
  11
4.91304
  21
-0.205639
  31
0
  0
LINE
  5
1b5
  100
AcDbEntity
  8
1
  100
AcDbLine
  10
4.91304
  20
-0.205639
  30
0
  11
4.90604
  21
-0.201162
  31
0
  0
LINE
  5
1b6
  100
AcDbEntity
  8
1
  100
AcDbLine
  10
4.90604
  20
-0.201162
  30
0
  11
4.89904
  21
-0.196665
  31
0
  0
LINE
  5
1b7
  100
AcDbEntity
  8
1
  100
AcDbLine
  10
4.89904
  20
-0.196665
  30
0
  11
4.89204
  21
-0.192149
  31
0
  0
LINE
  5
1b8
  100
AcDbEntity
  8
1
  100
AcDbLine
  10
4.89204
  20
-0.192149
  30
0
  11
4.88504
  21
-0.187615
  31
0
  0
LINE
  5
1b9
  100
AcDbEntity
  8
1
  100
AcDbLine
  10
4.88504
  20
-0.187615
  30
0
  11
4.87804
  21
-0.183063
  31
0
  0
LINE
  5
1ba
  100
AcDbEntity
  8
1
  100
AcDbLine
  10
4.87804
  20
-0.183063
  30
0
  11
4.87104
  21
-0.178493
  31
0
  0
LINE
  5
1bb
  100
AcDbEntity
  8
1
  100
AcDbLine
  10
4.87104
  20
-0.178493
  30
0
  11
4.86404
  21
-0.173906
  31
0
  0
LINE
  5
1bc
  100
AcDbEntity
  8
1
  100
AcDbLine
  10
4.86404
  20
-0.173906
  30
0
  11
4.85704
  21
-0.169302
  31
0
  0
LINE
  5
1bd
  100
AcDbEntity
  8
1
  100
AcDbLine
  10
4.85704
  20
-0.169302
  30
0
  11
4.85004
  21
-0.164682
  31
0
  0
LINE
  5
1be
  100
AcDbEntity
  8
1
  100
AcDbLine
  10
4.85004
  20
-0.164682
  30
0
  11
4.84304
  21
-0.160046
  31
0
  0
LINE
  5
1bf
  100
AcDbEntity
  8
1
  100
AcDbLine
  10
4.84304
  20
-0.160046
  30
0
  11
4.83604
  21
-0.155395
  31
0
  0
LINE
  5
1c0
  100
AcDbEntity
  8
1
  100
AcDbLine
  10
4.83604
  20
-0.155395
  30
0
  11
4.82904
  21
-0.150729
  31
0
  0
LINE
  5
1c1
  100
AcDbEntity
  8
1
  100
AcDbLine
  10
4.82904
  20
-0.150729
  30
0
  11
4.82204
  21
-0.146048
  31
0
  0
LINE
  5
1c2
  100
AcDbEntity
  8
1
  100
AcDbLine
  10
4.82204
  20
-0.146048
  30
0
  11
4.81504
  21
-0.141354
  31
0
  0
LINE
  5
1c3
  100
AcDbEntity
  8
1
  100
AcDbLine
  10
4.81504
  20
-0.141354
  30
0
  11
4.80804
  21
-0.136646
  31
0
  0
LINE
  5
1c4
  100
AcDbEntity
  8
1
  100
AcDbLine
  10
4.80804
  20
-0.136646
  30
0
  11
4.80104
  21
-0.131924
  31
0
  0
LINE
  5
1c5
  100
AcDbEntity
  8
1
  100
AcDbLine
  10
4.80104
  20
-0.131924
  30
0
  11
4.79404
  21
-0.12719
  31
0
  0
LINE
  5
1c6
  100
AcDbEntity
  8
1
  100
AcDbLine
  10
4.79404
  20
-0.12719
  30
0
  11
4.78704
  21
-0.122444
  31
0
  0
LINE
  5
1c7
  100
AcDbEntity
  8
1
  100
AcDbLine
  10
4.78704
  20
-0.122444
  30
0
  11
4.78004
  21
-0.117686
  31
0
  0
LINE
  5
1c8
  100
AcDbEntity
  8
1
  100
AcDbLine
  10
4.78004
  20
-0.117686
  30
0
  11
4.77304
  21
-0.112917
  31
0
  0
LINE
  5
1c9
  100
AcDbEntity
  8
1
  100
AcDbLine
  10
4.77304
  20
-0.112917
  30
0
  11
4.76604
  21
-0.108136
  31
0
  0
LINE
  5
1ca
  100
AcDbEntity
  8
1
  100
AcDbLine
  10
4.76604
  20
-0.108136
  30
0
  11
4.75904
  21
-0.103346
  31
0
  0
LINE
  5
1cb
  100
AcDbEntity
  8
1
  100
AcDbLine
  10
4.75904
  20
-0.103346
  30
0
  11
4.75204
  21
-0.098545
  31
0
  0
LINE
  5
1cc
  100
AcDbEntity
  8
1
  100
AcDbLine
  10
4.75204
  20
-0.098545
  30
0
  11
4.74504
  21
-0.093735
  31
0
  0
LINE
  5
1cd
  100
AcDbEntity
  8
1
  100
AcDbLine
  10
4.74504
  20
-0.093735
  30
0
  11
4.73804
  21
-0.088916
  31
0
  0
LINE
  5
1ce
  100
AcDbEntity
  8
1
  100
AcDbLine
  10
4.73804
  20
-0.088916
  30
0
  11
4.73104
  21
-0.084089
  31
0
  0
LINE
  5
1cf
  100
AcDbEntity
  8
1
  100
AcDbLine
  10
4.73104
  20
-0.084089
  30
0
  11
4.72404
  21
-0.079253
  31
0
  0
LINE
  5
1d0
  100
AcDbEntity
  8
1
  100
AcDbLine
  10
4.72404
  20
-0.079253
  30
0
  11
4.71704
  21
-0.07441
  31
0
  0
LINE
  5
1d1
  100
AcDbEntity
  8
1
  100
AcDbLine
  10
4.71704
  20
-0.07441
  30
0
  11
4.71004
  21
-0.06956
  31
0
  0
LINE
  5
1d2
  100
AcDbEntity
  8
1
  100
AcDbLine
  10
4.71004
  20
-0.06956
  30
0
  11
4.70304
  21
-0.064703
  31
0
  0
LINE
  5
1d3
  100
AcDbEntity
  8
1
  100
AcDbLine
  10
4.70304
  20
-0.064703
  30
0
  11
4.69604
  21
-0.059839
  31
0
  0
LINE
  5
1d4
  100
AcDbEntity
  8
1
  100
AcDbLine
  10
4.69604
  20
-0.059839
  30
0
  11
4.68904
  21
-0.05497
  31
0
  0
LINE
  5
1d5
  100
AcDbEntity
  8
1
  100
AcDbLine
  10
4.68904
  20
-0.05497
  30
0
  11
4.68204
  21
-0.050096
  31
0
  0
LINE
  5
1d6
  100
AcDbEntity
  8
1
  100
AcDbLine
  10
4.68204
  20
-0.050096
  30
0
  11
4.67504
  21
-0.045217
  31
0
  0
LINE
  5
1d7
  100
AcDbEntity
  8
1
  100
AcDbLine
  10
4.67504
  20
-0.045217
  30
0
  11
4.66804
  21
-0.040333
  31
0
  0
LINE
  5
1d8
  100
AcDbEntity
  8
1
  100
AcDbLine
  10
4.66804
  20
-0.040333
  30
0
  11
4.66104
  21
-0.035446
  31
0
  0
LINE
  5
1d9
  100
AcDbEntity
  8
1
  100
AcDbLine
  10
4.66104
  20
-0.035446
  30
0
  11
4.65404
  21
-0.030555
  31
0
  0
LINE
  5
1da
  100
AcDbEntity
  8
1
  100
AcDbLine
  10
4.65404
  20
-0.030555
  30
0
  11
4.64704
  21
-0.025662
  31
0
  0
LINE
  5
1db
  100
AcDbEntity
  8
1
  100
AcDbLine
  10
4.64704
  20
-0.025662
  30
0
  11
4.64004
  21
-0.020766
  31
0
  0
LINE
  5
1dc
  100
AcDbEntity
  8
1
  100
AcDbLine
  10
4.64004
  20
-0.020766
  30
0
  11
4.63304
  21
-0.015867
  31
0
  0
LINE
  5
1dd
  100
AcDbEntity
  8
1
  100
AcDbLine
  10
4.63304
  20
-0.015867
  30
0
  11
4.62604
  21
-0.010968
  31
0
  0
LINE
  5
1de
  100
AcDbEntity
  8
1
  100
AcDbLine
  10
4.62604
  20
-0.010968
  30
0
  11
4.61904
  21
-0.006067
  31
0
  0
LINE
  5
1df
  100
AcDbEntity
  8
1
  100
AcDbLine
  10
4.61904
  20
-0.006067
  30
0
  11
4.61204
  21
-0.001166
  31
0
  0
LINE
  5
1e0
  100
AcDbEntity
  8
1
  100
AcDbLine
  10
4.61204
  20
-0.001166
  30
0
  11
4.60504
  21
0.003736
  31
0
  0
LINE
  5
1e1
  100
AcDbEntity
  8
1
  100
AcDbLine
  10
4.60504
  20
0.003736
  30
0
  11
4.59804
  21
0.008637
  31
0
  0
LINE
  5
1e2
  100
AcDbEntity
  8
1
  100
AcDbLine
  10
4.59804
  20
0.008637
  30
0
  11
4.59104
  21
0.013537
  31
0
  0
LINE
  5
1e3
  100
AcDbEntity
  8
1
  100
AcDbLine
  10
4.59104
  20
0.013537
  30
0
  11
4.58404
  21
0.018436
  31
0
  0
LINE
  5
1e4
  100
AcDbEntity
  8
1
  100
AcDbLine
  10
4.58404
  20
0.018436
  30
0
  11
4.57704
  21
0.023333
  31
0
  0
LINE
  5
1e5
  100
AcDbEntity
  8
1
  100
AcDbLine
  10
4.57704
  20
0.023333
  30
0
  11
4.57004
  21
0.028228
  31
0
  0
LINE
  5
1e6
  100
AcDbEntity
  8
1
  100
AcDbLine
  10
4.57004
  20
0.028228
  30
0
  11
4.56304
  21
0.03312
  31
0
  0
LINE
  5
1e7
  100
AcDbEntity
  8
1
  100
AcDbLine
  10
4.56304
  20
0.03312
  30
0
  11
4.55604
  21
0.038009
  31
0
  0
LINE
  5
1e8
  100
AcDbEntity
  8
1
  100
AcDbLine
  10
4.55604
  20
0.038009
  30
0
  11
4.54904
  21
0.042895
  31
0
  0
LINE
  5
1e9
  100
AcDbEntity
  8
1
  100
AcDbLine
  10
4.54904
  20
0.042895
  30
0
  11
4.54204
  21
0.047776
  31
0
  0
LINE
  5
1ea
  100
AcDbEntity
  8
1
  100
AcDbLine
  10
4.54204
  20
0.047776
  30
0
  11
4.53504
  21
0.052652
  31
0
  0
LINE
  5
1eb
  100
AcDbEntity
  8
1
  100
AcDbLine
  10
4.53504
  20
0.052652
  30
0
  11
4.52804
  21
0.057524
  31
0
  0
LINE
  5
1ec
  100
AcDbEntity
  8
1
  100
AcDbLine
  10
4.52804
  20
0.057524
  30
0
  11
4.52104
  21
0.06239
  31
0
  0
LINE
  5
1ed
  100
AcDbEntity
  8
1
  100
AcDbLine
  10
4.52104
  20
0.06239
  30
0
  11
4.51404
  21
0.06725
  31
0
  0
LINE
  5
1ee
  100
AcDbEntity
  8
1
  100
AcDbLine
  10
4.51404
  20
0.06725
  30
0
  11
4.50704
  21
0.072104
  31
0
  0
LINE
  5
1ef
  100
AcDbEntity
  8
1
  100
AcDbLine
  10
4.50704
  20
0.072104
  30
0
  11
4.50004
  21
0.07695
  31
0
  0
LINE
  5
1f0
  100
AcDbEntity
  8
1
  100
AcDbLine
  10
4.50004
  20
0.07695
  30
0
  11
4.49304
  21
0.08179
  31
0
  0
LINE
  5
1f1
  100
AcDbEntity
  8
1
  100
AcDbLine
  10
4.49304
  20
0.08179
  30
0
  11
4.48604
  21
0.086621
  31
0
  0
LINE
  5
1f2
  100
AcDbEntity
  8
1
  100
AcDbLine
  10
4.48604
  20
0.086621
  30
0
  11
4.47904
  21
0.091444
  31
0
  0
LINE
  5
1f3
  100
AcDbEntity
  8
1
  100
AcDbLine
  10
4.47904
  20
0.091444
  30
0
  11
4.47204
  21
0.096259
  31
0
  0
LINE
  5
1f4
  100
AcDbEntity
  8
1
  100
AcDbLine
  10
4.47204
  20
0.096259
  30
0
  11
4.46504
  21
0.101064
  31
0
  0
LINE
  5
1f5
  100
AcDbEntity
  8
1
  100
AcDbLine
  10
4.46504
  20
0.101064
  30
0
  11
4.45804
  21
0.105859
  31
0
  0
LINE
  5
1f6
  100
AcDbEntity
  8
1
  100
AcDbLine
  10
4.45804
  20
0.105859
  30
0
  11
4.45104
  21
0.110644
  31
0
  0
LINE
  5
1f7
  100
AcDbEntity
  8
1
  100
AcDbLine
  10
4.45104
  20
0.110644
  30
0
  11
4.44404
  21
0.115419
  31
0
  0
LINE
  5
1f8
  100
AcDbEntity
  8
1
  100
AcDbLine
  10
4.44404
  20
0.115419
  30
0
  11
4.43704
  21
0.120182
  31
0
  0
LINE
  5
1f9
  100
AcDbEntity
  8
1
  100
AcDbLine
  10
4.43704
  20
0.120182
  30
0
  11
4.43004
  21
0.124934
  31
0
  0
LINE
  5
1fa
  100
AcDbEntity
  8
1
  100
AcDbLine
  10
4.43004
  20
0.124934
  30
0
  11
4.42304
  21
0.129674
  31
0
  0
LINE
  5
1fb
  100
AcDbEntity
  8
1
  100
AcDbLine
  10
4.42304
  20
0.129674
  30
0
  11
4.41604
  21
0.134401
  31
0
  0
LINE
  5
1fc
  100
AcDbEntity
  8
1
  100
AcDbLine
  10
4.41604
  20
0.134401
  30
0
  11
4.40904
  21
0.139116
  31
0
  0
LINE
  5
1fd
  100
AcDbEntity
  8
1
  100
AcDbLine
  10
4.40904
  20
0.139116
  30
0
  11
4.40204
  21
0.143817
  31
0
  0
LINE
  5
1fe
  100
AcDbEntity
  8
1
  100
AcDbLine
  10
4.40204
  20
0.143817
  30
0
  11
4.39504
  21
0.148504
  31
0
  0
LINE
  5
1ff
  100
AcDbEntity
  8
1
  100
AcDbLine
  10
4.39504
  20
0.148504
  30
0
  11
4.38804
  21
0.153177
  31
0
  0
LINE
  5
200
  100
AcDbEntity
  8
1
  100
AcDbLine
  10
4.38804
  20
0.153177
  30
0
  11
4.38104
  21
0.157836
  31
0
  0
LINE
  5
201
  100
AcDbEntity
  8
1
  100
AcDbLine
  10
4.38104
  20
0.157836
  30
0
  11
4.37404
  21
0.162479
  31
0
  0
LINE
  5
202
  100
AcDbEntity
  8
1
  100
AcDbLine
  10
4.37404
  20
0.162479
  30
0
  11
4.36704
  21
0.167107
  31
0
  0
LINE
  5
203
  100
AcDbEntity
  8
1
  100
AcDbLine
  10
4.36704
  20
0.167107
  30
0
  11
4.36004
  21
0.171718
  31
0
  0
LINE
  5
204
  100
AcDbEntity
  8
1
  100
AcDbLine
  10
4.36004
  20
0.171718
  30
0
  11
4.35304
  21
0.176313
  31
0
  0
LINE
  5
205
  100
AcDbEntity
  8
1
  100
AcDbLine
  10
4.35304
  20
0.176313
  30
0
  11
4.34604
  21
0.180891
  31
0
  0
LINE
  5
206
  100
AcDbEntity
  8
1
  100
AcDbLine
  10
4.34604
  20
0.180891
  30
0
  11
4.33904
  21
0.185452
  31
0
  0
LINE
  5
207
  100
AcDbEntity
  8
1
  100
AcDbLine
  10
4.33904
  20
0.185452
  30
0
  11
4.33204
  21
0.189995
  31
0
  0
LINE
  5
208
  100
AcDbEntity
  8
1
  100
AcDbLine
  10
4.33204
  20
0.189995
  30
0
  11
4.32504
  21
0.194519
  31
0
  0
LINE
  5
209
  100
AcDbEntity
  8
1
  100
AcDbLine
  10
4.32504
  20
0.194519
  30
0
  11
4.31804
  21
0.199025
  31
0
  0
LINE
  5
20a
  100
AcDbEntity
  8
1
  100
AcDbLine
  10
4.31804
  20
0.199025
  30
0
  11
4.31104
  21
0.203512
  31
0
  0
LINE
  5
20b
  100
AcDbEntity
  8
1
  100
AcDbLine
  10
4.31104
  20
0.203512
  30
0
  11
4.30404
  21
0.207979
  31
0
  0
LINE
  5
20c
  100
AcDbEntity
  8
1
  100
AcDbLine
  10
4.30404
  20
0.207979
  30
0
  11
4.29704
  21
0.212426
  31
0
  0
LINE
  5
20d
  100
AcDbEntity
  8
1
  100
AcDbLine
  10
4.29704
  20
0.212426
  30
0
  11
4.29004
  21
0.216853
  31
0
  0
LINE
  5
20e
  100
AcDbEntity
  8
1
  100
AcDbLine
  10
4.29004
  20
0.216853
  30
0
  11
4.28304
  21
0.221259
  31
0
  0
LINE
  5
20f
  100
AcDbEntity
  8
1
  100
AcDbLine
  10
4.28304
  20
0.221259
  30
0
  11
4.27604
  21
0.225644
  31
0
  0
LINE
  5
210
  100
AcDbEntity
  8
1
  100
AcDbLine
  10
4.27604
  20
0.225644
  30
0
  11
4.26904
  21
0.230007
  31
0
  0
LINE
  5
211
  100
AcDbEntity
  8
1
  100
AcDbLine
  10
4.26904
  20
0.230007
  30
0
  11
4.26204
  21
0.234348
  31
0
  0
LINE
  5
212
  100
AcDbEntity
  8
1
  100
AcDbLine
  10
4.26204
  20
0.234348
  30
0
  11
4.25504
  21
0.238666
  31
0
  0
LINE
  5
213
  100
AcDbEntity
  8
1
  100
AcDbLine
  10
4.25504
  20
0.238666
  30
0
  11
4.24804
  21
0.242962
  31
0
  0
LINE
  5
214
  100
AcDbEntity
  8
1
  100
AcDbLine
  10
4.24804
  20
0.242962
  30
0
  11
4.24104
  21
0.247234
  31
0
  0
LINE
  5
215
  100
AcDbEntity
  8
1
  100
AcDbLine
  10
4.24104
  20
0.247234
  30
0
  11
4.23404
  21
0.251482
  31
0
  0
LINE
  5
216
  100
AcDbEntity
  8
1
  100
AcDbLine
  10
4.23404
  20
0.251482
  30
0
  11
4.22704
  21
0.255707
  31
0
  0
LINE
  5
217
  100
AcDbEntity
  8
1
  100
AcDbLine
  10
4.22704
  20
0.255707
  30
0
  11
4.22004
  21
0.259906
  31
0
  0
LINE
  5
218
  100
AcDbEntity
  8
1
  100
AcDbLine
  10
4.22004
  20
0.259906
  30
0
  11
4.21304
  21
0.264081
  31
0
  0
LINE
  5
219
  100
AcDbEntity
  8
1
  100
AcDbLine
  10
4.21304
  20
0.264081
  30
0
  11
4.20604
  21
0.26823
  31
0
  0
LINE
  5
21a
  100
AcDbEntity
  8
1
  100
AcDbLine
  10
4.20604
  20
0.26823
  30
0
  11
4.19904
  21
0.272354
  31
0
  0
LINE
  5
21b
  100
AcDbEntity
  8
1
  100
AcDbLine
  10
4.19904
  20
0.272354
  30
0
  11
4.19204
  21
0.276451
  31
0
  0
LINE
  5
21c
  100
AcDbEntity
  8
1
  100
AcDbLine
  10
4.19204
  20
0.276451
  30
0
  11
4.18504
  21
0.280522
  31
0
  0
LINE
  5
21d
  100
AcDbEntity
  8
1
  100
AcDbLine
  10
4.18504
  20
0.280522
  30
0
  11
4.17804
  21
0.284566
  31
0
  0
LINE
  5
21e
  100
AcDbEntity
  8
1
  100
AcDbLine
  10
4.17804
  20
0.284566
  30
0
  11
4.17104
  21
0.288582
  31
0
  0
LINE
  5
21f
  100
AcDbEntity
  8
1
  100
AcDbLine
  10
4.17104
  20
0.288582
  30
0
  11
4.16404
  21
0.292571
  31
0
  0
LINE
  5
220
  100
AcDbEntity
  8
1
  100
AcDbLine
  10
4.16404
  20
0.292571
  30
0
  11
4.15704
  21
0.296531
  31
0
  0
LINE
  5
221
  100
AcDbEntity
  8
1
  100
AcDbLine
  10
4.15704
  20
0.296531
  30
0
  11
4.15004
  21
0.300463
  31
0
  0
LINE
  5
222
  100
AcDbEntity
  8
1
  100
AcDbLine
  10
4.15004
  20
0.300463
  30
0
  11
4.14304
  21
0.304367
  31
0
  0
LINE
  5
223
  100
AcDbEntity
  8
1
  100
AcDbLine
  10
4.14304
  20
0.304367
  30
0
  11
4.13604
  21
0.308241
  31
0
  0
LINE
  5
224
  100
AcDbEntity
  8
1
  100
AcDbLine
  10
4.13604
  20
0.308241
  30
0
  11
4.12904
  21
0.312085
  31
0
  0
LINE
  5
225
  100
AcDbEntity
  8
1
  100
AcDbLine
  10
4.12904
  20
0.312085
  30
0
  11
4.12204
  21
0.3159
  31
0
  0
LINE
  5
226
  100
AcDbEntity
  8
1
  100
AcDbLine
  10
4.12204
  20
0.3159
  30
0
  11
4.11504
  21
0.319684
  31
0
  0
LINE
  5
227
  100
AcDbEntity
  8
1
  100
AcDbLine
  10
4.11504
  20
0.319684
  30
0
  11
4.10804
  21
0.323437
  31
0
  0
LINE
  5
228
  100
AcDbEntity
  8
1
  100
AcDbLine
  10
4.10804
  20
0.323437
  30
0
  11
4.10104
  21
0.327159
  31
0
  0
LINE
  5
229
  100
AcDbEntity
  8
1
  100
AcDbLine
  10
4.10104
  20
0.327159
  30
0
  11
4.09404
  21
0.33085
  31
0
  0
LINE
  5
22a
  100
AcDbEntity
  8
1
  100
AcDbLine
  10
4.09404
  20
0.33085
  30
0
  11
4.08704
  21
0.334509
  31
0
  0
LINE
  5
22b
  100
AcDbEntity
  8
1
  100
AcDbLine
  10
4.08704
  20
0.334509
  30
0
  11
4.08004
  21
0.338136
  31
0
  0
LINE
  5
22c
  100
AcDbEntity
  8
1
  100
AcDbLine
  10
4.08004
  20
0.338136
  30
0
  11
4.07304
  21
0.34173
  31
0
  0
LINE
  5
22d
  100
AcDbEntity
  8
1
  100
AcDbLine
  10
4.07304
  20
0.34173
  30
0
  11
4.06604
  21
0.345292
  31
0
  0
LINE
  5
22e
  100
AcDbEntity
  8
1
  100
AcDbLine
  10
4.06604
  20
0.345292
  30
0
  11
4.05904
  21
0.34882
  31
0
  0
LINE
  5
22f
  100
AcDbEntity
  8
1
  100
AcDbLine
  10
4.05904
  20
0.34882
  30
0
  11
4.05204
  21
0.352315
  31
0
  0
LINE
  5
230
  100
AcDbEntity
  8
1
  100
AcDbLine
  10
4.05204
  20
0.352315
  30
0
  11
4.04504
  21
0.355776
  31
0
  0
LINE
  5
231
  100
AcDbEntity
  8
1
  100
AcDbLine
  10
4.04504
  20
0.355776
  30
0
  11
4.03804
  21
0.359203
  31
0
  0
LINE
  5
232
  100
AcDbEntity
  8
1
  100
AcDbLine
  10
4.03804
  20
0.359203
  30
0
  11
4.03104
  21
0.362595
  31
0
  0
LINE
  5
233
  100
AcDbEntity
  8
1
  100
AcDbLine
  10
4.03104
  20
0.362595
  30
0
  11
4.02404
  21
0.365952
  31
0
  0
LINE
  5
234
  100
AcDbEntity
  8
1
  100
AcDbLine
  10
4.02404
  20
0.365952
  30
0
  11
4.01704
  21
0.369274
  31
0
  0
LINE
  5
235
  100
AcDbEntity
  8
1
  100
AcDbLine
  10
4.01704
  20
0.369274
  30
0
  11
4.01004
  21
0.372561
  31
0
  0
LINE
  5
236
  100
AcDbEntity
  8
1
  100
AcDbLine
  10
4.01004
  20
0.372561
  30
0
  11
4.00304
  21
0.375812
  31
0
  0
LINE
  5
237
  100
AcDbEntity
  8
1
  100
AcDbLine
  10
4.00304
  20
0.375812
  30
0
  11
3.99604
  21
0.379027
  31
0
  0
LINE
  5
238
  100
AcDbEntity
  8
1
  100
AcDbLine
  10
3.99604
  20
0.379027
  30
0
  11
3.98904
  21
0.382205
  31
0
  0
LINE
  5
239
  100
AcDbEntity
  8
1
  100
AcDbLine
  10
3.98904
  20
0.382205
  30
0
  11
3.98204
  21
0.385347
  31
0
  0
LINE
  5
23a
  100
AcDbEntity
  8
1
  100
AcDbLine
  10
3.98204
  20
0.385347
  30
0
  11
3.97504
  21
0.388452
  31
0
  0
LINE
  5
23b
  100
AcDbEntity
  8
1
  100
AcDbLine
  10
3.97504
  20
0.388452
  30
0
  11
3.96804
  21
0.391519
  31
0
  0
LINE
  5
23c
  100
AcDbEntity
  8
1
  100
AcDbLine
  10
3.96804
  20
0.391519
  30
0
  11
3.96104
  21
0.394549
  31
0
  0
LINE
  5
23d
  100
AcDbEntity
  8
1
  100
AcDbLine
  10
3.96104
  20
0.394549
  30
0
  11
3.95404
  21
0.397541
  31
0
  0
LINE
  5
23e
  100
AcDbEntity
  8
1
  100
AcDbLine
  10
3.95404
  20
0.397541
  30
0
  11
3.94704
  21
0.400494
  31
0
  0
LINE
  5
23f
  100
AcDbEntity
  8
1
  100
AcDbLine
  10
3.94704
  20
0.400494
  30
0
  11
3.94004
  21
0.403409
  31
0
  0
LINE
  5
240
  100
AcDbEntity
  8
1
  100
AcDbLine
  10
3.94004
  20
0.403409
  30
0
  11
3.93304
  21
0.406286
  31
0
  0
LINE
  5
241
  100
AcDbEntity
  8
1
  100
AcDbLine
  10
3.93304
  20
0.406286
  30
0
  11
3.92604
  21
0.409123
  31
0
  0
LINE
  5
242
  100
AcDbEntity
  8
1
  100
AcDbLine
  10
3.92604
  20
0.409123
  30
0
  11
3.91904
  21
0.411921
  31
0
  0
LINE
  5
243
  100
AcDbEntity
  8
1
  100
AcDbLine
  10
3.91904
  20
0.411921
  30
0
  11
3.91204
  21
0.414679
  31
0
  0
LINE
  5
244
  100
AcDbEntity
  8
1
  100
AcDbLine
  10
3.91204
  20
0.414679
  30
0
  11
3.90504
  21
0.417398
  31
0
  0
LINE
  5
245
  100
AcDbEntity
  8
1
  100
AcDbLine
  10
3.90504
  20
0.417398
  30
0
  11
3.89804
  21
0.420076
  31
0
  0
LINE
  5
246
  100
AcDbEntity
  8
1
  100
AcDbLine
  10
3.89804
  20
0.420076
  30
0
  11
3.89104
  21
0.422714
  31
0
  0
LINE
  5
247
  100
AcDbEntity
  8
1
  100
AcDbLine
  10
3.89104
  20
0.422714
  30
0
  11
3.88404
  21
0.425312
  31
0
  0
LINE
  5
248
  100
AcDbEntity
  8
1
  100
AcDbLine
  10
3.88404
  20
0.425312
  30
0
  11
3.87704
  21
0.427869
  31
0
  0
LINE
  5
249
  100
AcDbEntity
  8
1
  100
AcDbLine
  10
3.87704
  20
0.427869
  30
0
  11
3.87004
  21
0.430384
  31
0
  0
LINE
  5
24a
  100
AcDbEntity
  8
1
  100
AcDbLine
  10
3.87004
  20
0.430384
  30
0
  11
3.86304
  21
0.432858
  31
0
  0
LINE
  5
24b
  100
AcDbEntity
  8
1
  100
AcDbLine
  10
3.86304
  20
0.432858
  30
0
  11
3.85604
  21
0.435291
  31
0
  0
LINE
  5
24c
  100
AcDbEntity
  8
1
  100
AcDbLine
  10
3.85604
  20
0.435291
  30
0
  11
3.84904
  21
0.437681
  31
0
  0
LINE
  5
24d
  100
AcDbEntity
  8
1
  100
AcDbLine
  10
3.84904
  20
0.437681
  30
0
  11
3.84204
  21
0.44003
  31
0
  0
LINE
  5
24e
  100
AcDbEntity
  8
1
  100
AcDbLine
  10
3.84204
  20
0.44003
  30
0
  11
3.83504
  21
0.442336
  31
0
  0
LINE
  5
24f
  100
AcDbEntity
  8
1
  100
AcDbLine
  10
3.83504
  20
0.442336
  30
0
  11
3.82804
  21
0.4446
  31
0
  0
LINE
  5
250
  100
AcDbEntity
  8
1
  100
AcDbLine
  10
3.82804
  20
0.4446
  30
0
  11
3.82104
  21
0.446821
  31
0
  0
LINE
  5
251
  100
AcDbEntity
  8
1
  100
AcDbLine
  10
3.82104
  20
0.446821
  30
0
  11
3.81404
  21
0.448999
  31
0
  0
LINE
  5
252
  100
AcDbEntity
  8
1
  100
AcDbLine
  10
3.81404
  20
0.448999
  30
0
  11
3.80704
  21
0.451134
  31
0
  0
LINE
  5
253
  100
AcDbEntity
  8
1
  100
AcDbLine
  10
3.80704
  20
0.451134
  30
0
  11
3.80004
  21
0.453226
  31
0
  0
LINE
  5
254
  100
AcDbEntity
  8
1
  100
AcDbLine
  10
3.80004
  20
0.453226
  30
0
  11
3.79304
  21
0.455274
  31
0
  0
LINE
  5
255
  100
AcDbEntity
  8
1
  100
AcDbLine
  10
3.79304
  20
0.455274
  30
0
  11
3.78604
  21
0.457279
  31
0
  0
LINE
  5
256
  100
AcDbEntity
  8
1
  100
AcDbLine
  10
3.78604
  20
0.457279
  30
0
  11
3.77904
  21
0.459239
  31
0
  0
LINE
  5
257
  100
AcDbEntity
  8
1
  100
AcDbLine
  10
3.77904
  20
0.459239
  30
0
  11
3.77204
  21
0.461155
  31
0
  0
LINE
  5
258
  100
AcDbEntity
  8
1
  100
AcDbLine
  10
3.77204
  20
0.461155
  30
0
  11
3.76504
  21
0.463027
  31
0
  0
LINE
  5
259
  100
AcDbEntity
  8
1
  100
AcDbLine
  10
3.76504
  20
0.463027
  30
0
  11
3.75804
  21
0.464855
  31
0
  0
LINE
  5
25a
  100
AcDbEntity
  8
1
  100
AcDbLine
  10
3.75804
  20
0.464855
  30
0
  11
3.75104
  21
0.466638
  31
0
  0
LINE
  5
25b
  100
AcDbEntity
  8
1
  100
AcDbLine
  10
3.75104
  20
0.466638
  30
0
  11
3.74404
  21
0.468375
  31
0
  0
LINE
  5
25c
  100
AcDbEntity
  8
1
  100
AcDbLine
  10
3.74404
  20
0.468375
  30
0
  11
3.73704
  21
0.470068
  31
0
  0
LINE
  5
25d
  100
AcDbEntity
  8
1
  100
AcDbLine
  10
3.73704
  20
0.470068
  30
0
  11
3.73004
  21
0.472197
  31
0
  0
LINE
  5
25e
  100
AcDbEntity
  8
1
  100
AcDbLine
  10
3.73004
  20
0.472197
  30
0
  11
3.72304
  21
0.475492
  31
0
  0
LINE
  5
25f
  100
AcDbEntity
  8
1
  100
AcDbLine
  10
3.72304
  20
0.475492
  30
0
  11
3.71604
  21
0.478759
  31
0
  0
LINE
  5
260
  100
AcDbEntity
  8
1
  100
AcDbLine
  10
3.71604
  20
0.478759
  30
0
  11
3.70904
  21
0.481995
  31
0
  0
LINE
  5
261
  100
AcDbEntity
  8
1
  100
AcDbLine
  10
3.70904
  20
0.481995
  30
0
  11
3.70204
  21
0.485201
  31
0
  0
LINE
  5
262
  100
AcDbEntity
  8
1
  100
AcDbLine
  10
3.70204
  20
0.485201
  30
0
  11
3.69504
  21
0.488376
  31
0
  0
LINE
  5
263
  100
AcDbEntity
  8
1
  100
AcDbLine
  10
3.69504
  20
0.488376
  30
0
  11
3.68804
  21
0.491516
  31
0
  0
LINE
  5
264
  100
AcDbEntity
  8
1
  100
AcDbLine
  10
3.68804
  20
0.491516
  30
0
  11
3.68104
  21
0.494606
  31
0
  0
LINE
  5
265
  100
AcDbEntity
  8
1
  100
AcDbLine
  10
3.68104
  20
0.494606
  30
0
  11
3.67404
  21
0.497593
  31
0
  0
LINE
  5
266
  100
AcDbEntity
  8
1
  100
AcDbLine
  10
3.67404
  20
0.497593
  30
0
  11
3.66704
  21
0.500308
  31
0
  0
LINE
  5
267
  100
AcDbEntity
  8
1
  100
AcDbLine
  10
3.66704
  20
0.500308
  30
0
  11
3.66004
  21
0.502267
  31
0
  0
LINE
  5
268
  100
AcDbEntity
  8
1
  100
AcDbLine
  10
3.66004
  20
0.502267
  30
0
  11
3.65304
  21
0.502115
  31
0
  0
LINE
  5
269
  100
AcDbEntity
  8
1
  100
AcDbLine
  10
3.65304
  20
0.502115
  30
0
  11
3.64604
  21
0.495737
  31
0
  0
LINE
  5
26a
  100
AcDbEntity
  8
1
  100
AcDbLine
  10
3.64604
  20
0.495737
  30
0
  11
3.63904
  21
0.468492
  31
0
  0
LINE
  5
26b
  100
AcDbEntity
  8
1
  100
AcDbLine
  10
3.63904
  20
0.468492
  30
0
  11
3.63204
  21
0.364419
  31
0
  0
LINE
  5
26c
  100
AcDbEntity
  8
1
  100
AcDbLine
  10
3.63204
  20
0.364419
  30
0
  11
3.63204
  21
0.343876
  31
0
  0
LINE
  5
26d
  100
AcDbEntity
  8
1
  100
AcDbLine
  10
3.63204
  20
0.343876
  30
0
  11
3.63904
  21
0.196394
  31
0
  0
LINE
  5
26e
  100
AcDbEntity
  8
1
  100
AcDbLine
  10
3.63904
  20
0.196394
  30
0
  11
3.64604
  21
0.08123
  31
0
  0
LINE
  5
26f
  100
AcDbEntity
  8
1
  100
AcDbLine
  10
3.64604
  20
0.08123
  30
0
  11
3.65304
  21
0.000918
  31
0
  0
LINE
  5
270
  100
AcDbEntity
  8
1
  100
AcDbLine
  10
3.65304
  20
0.000918
  30
0
  11
3.66004
  21
-0.051896
  31
0
  0
LINE
  5
271
  100
AcDbEntity
  8
1
  100
AcDbLine
  10
3.66004
  20
-0.051896
  30
0
  11
3.66704
  21
-0.085402
  31
0
  0
LINE
  5
272
  100
AcDbEntity
  8
1
  100
AcDbLine
  10
3.66704
  20
-0.085402
  30
0
  11
3.67404
  21
-0.106185
  31
0
  0
LINE
  5
273
  100
AcDbEntity
  8
1
  100
AcDbLine
  10
3.67404
  20
-0.106185
  30
0
  11
3.68104
  21
-0.118995
  31
0
  0
LINE
  5
274
  100
AcDbEntity
  8
1
  100
AcDbLine
  10
3.68104
  20
-0.118995
  30
0
  11
3.68804
  21
-0.127071
  31
0
  0
LINE
  5
275
  100
AcDbEntity
  8
1
  100
AcDbLine
  10
3.68804
  20
-0.127071
  30
0
  11
3.69504
  21
-0.13252
  31
0
  0
LINE
  5
276
  100
AcDbEntity
  8
1
  100
AcDbLine
  10
3.69504
  20
-0.13252
  30
0
  11
3.70204
  21
-0.136633
  31
0
  0
LINE
  5
277
  100
AcDbEntity
  8
1
  100
AcDbLine
  10
3.70204
  20
-0.136633
  30
0
  11
3.70904
  21
-0.140138
  31
0
  0
LINE
  5
278
  100
AcDbEntity
  8
1
  100
AcDbLine
  10
3.70904
  20
-0.140138
  30
0
  11
3.71604
  21
-0.143398
  31
0
  0
LINE
  5
279
  100
AcDbEntity
  8
1
  100
AcDbLine
  10
3.71604
  20
-0.143398
  30
0
  11
3.72304
  21
-0.146562
  31
0
  0
LINE
  5
27a
  100
AcDbEntity
  8
1
  100
AcDbLine
  10
3.72304
  20
-0.146562
  30
0
  11
3.73004
  21
-0.149674
  31
0
  0
LINE
  5
27b
  100
AcDbEntity
  8
1
  100
AcDbLine
  10
3.73004
  20
-0.149674
  30
0
  11
3.73704
  21
-0.15389
  31
0
  0
LINE
  5
27c
  100
AcDbEntity
  8
1
  100
AcDbLine
  10
3.73704
  20
-0.15389
  30
0
  11
3.74404
  21
-0.158546
  31
0
  0
LINE
  5
27d
  100
AcDbEntity
  8
1
  100
AcDbLine
  10
3.74404
  20
-0.158546
  30
0
  11
3.75104
  21
-0.163186
  31
0
  0
LINE
  5
27e
  100
AcDbEntity
  8
1
  100
AcDbLine
  10
3.75104
  20
-0.163186
  30
0
  11
3.75804
  21
-0.167812
  31
0
  0
LINE
  5
27f
  100
AcDbEntity
  8
1
  100
AcDbLine
  10
3.75804
  20
-0.167812
  30
0
  11
3.76504
  21
-0.172421
  31
0
  0
LINE
  5
280
  100
AcDbEntity
  8
1
  100
AcDbLine
  10
3.76504
  20
-0.172421
  30
0
  11
3.77204
  21
-0.177013
  31
0
  0
LINE
  5
281
  100
AcDbEntity
  8
1
  100
AcDbLine
  10
3.77204
  20
-0.177013
  30
0
  11
3.77904
  21
-0.181588
  31
0
  0
LINE
  5
282
  100
AcDbEntity
  8
1
  100
AcDbLine
  10
3.77904
  20
-0.181588
  30
0
  11
3.78604
  21
-0.186146
  31
0
  0
LINE
  5
283
  100
AcDbEntity
  8
1
  100
AcDbLine
  10
3.78604
  20
-0.186146
  30
0
  11
3.79304
  21
-0.190687
  31
0
  0
LINE
  5
284
  100
AcDbEntity
  8
1
  100
AcDbLine
  10
3.79304
  20
-0.190687
  30
0
  11
3.80004
  21
-0.195208
  31
0
  0
LINE
  5
285
  100
AcDbEntity
  8
1
  100
AcDbLine
  10
3.80004
  20
-0.195208
  30
0
  11
3.80704
  21
-0.199711
  31
0
  0
LINE
  5
286
  100
AcDbEntity
  8
1
  100
AcDbLine
  10
3.80704
  20
-0.199711
  30
0
  11
3.81404
  21
-0.204195
  31
0
  0
LINE
  5
287
  100
AcDbEntity
  8
1
  100
AcDbLine
  10
3.81404
  20
-0.204195
  30
0
  11
3.82104
  21
-0.208659
  31
0
  0
LINE
  5
288
  100
AcDbEntity
  8
1
  100
AcDbLine
  10
3.82104
  20
-0.208659
  30
0
  11
3.82804
  21
-0.213104
  31
0
  0
LINE
  5
289
  100
AcDbEntity
  8
1
  100
AcDbLine
  10
3.82804
  20
-0.213104
  30
0
  11
3.83504
  21
-0.217527
  31
0
  0
LINE
  5
28a
  100
AcDbEntity
  8
1
  100
AcDbLine
  10
3.83504
  20
-0.217527
  30
0
  11
3.84204
  21
-0.22193
  31
0
  0
LINE
  5
28b
  100
AcDbEntity
  8
1
  100
AcDbLine
  10
3.84204
  20
-0.22193
  30
0
  11
3.84904
  21
-0.226311
  31
0
  0
LINE
  5
28c
  100
AcDbEntity
  8
1
  100
AcDbLine
  10
3.84904
  20
-0.226311
  30
0
  11
3.85604
  21
-0.230671
  31
0
  0
LINE
  5
28d
  100
AcDbEntity
  8
1
  100
AcDbLine
  10
3.85604
  20
-0.230671
  30
0
  11
3.86304
  21
-0.235009
  31
0
  0
LINE
  5
28e
  100
AcDbEntity
  8
1
  100
AcDbLine
  10
3.86304
  20
-0.235009
  30
0
  11
3.87004
  21
-0.239324
  31
0
  0
LINE
  5
28f
  100
AcDbEntity
  8
1
  100
AcDbLine
  10
3.87004
  20
-0.239324
  30
0
  11
3.87704
  21
-0.243615
  31
0
  0
LINE
  5
290
  100
AcDbEntity
  8
1
  100
AcDbLine
  10
3.87704
  20
-0.243615
  30
0
  11
3.88404
  21
-0.247884
  31
0
  0
LINE
  5
291
  100
AcDbEntity
  8
1
  100
AcDbLine
  10
3.88404
  20
-0.247884
  30
0
  11
3.89104
  21
-0.252129
  31
0
  0
LINE
  5
292
  100
AcDbEntity
  8
1
  100
AcDbLine
  10
3.89104
  20
-0.252129
  30
0
  11
3.89804
  21
-0.256349
  31
0
  0
LINE
  5
293
  100
AcDbEntity
  8
1
  100
AcDbLine
  10
3.89804
  20
-0.256349
  30
0
  11
3.90504
  21
-0.260545
  31
0
  0
LINE
  5
294
  100
AcDbEntity
  8
1
  100
AcDbLine
  10
3.90504
  20
-0.260545
  30
0
  11
3.91204
  21
-0.264716
  31
0
  0
LINE
  5
295
  100
AcDbEntity
  8
1
  100
AcDbLine
  10
3.91204
  20
-0.264716
  30
0
  11
3.91904
  21
-0.268861
  31
0
  0
LINE
  5
296
  100
AcDbEntity
  8
1
  100
AcDbLine
  10
3.91904
  20
-0.268861
  30
0
  11
3.92604
  21
-0.272981
  31
0
  0
LINE
  5
297
  100
AcDbEntity
  8
1
  100
AcDbLine
  10
3.92604
  20
-0.272981
  30
0
  11
3.93304
  21
-0.277074
  31
0
  0
LINE
  5
298
  100
AcDbEntity
  8
1
  100
AcDbLine
  10
3.93304
  20
-0.277074
  30
0
  11
3.94004
  21
-0.281141
  31
0
  0
LINE
  5
299
  100
AcDbEntity
  8
1
  100
AcDbLine
  10
3.94004
  20
-0.281141
  30
0
  11
3.94704
  21
-0.28518
  31
0
  0
LINE
  5
29a
  100
AcDbEntity
  8
1
  100
AcDbLine
  10
3.94704
  20
-0.28518
  30
0
  11
3.95404
  21
-0.289193
  31
0
  0
LINE
  5
29b
  100
AcDbEntity
  8
1
  100
AcDbLine
  10
3.95404
  20
-0.289193
  30
0
  11
3.96104
  21
-0.293177
  31
0
  0
LINE
  5
29c
  100
AcDbEntity
  8
1
  100
AcDbLine
  10
3.96104
  20
-0.293177
  30
0
  11
3.96804
  21
-0.297133
  31
0
  0
LINE
  5
29d
  100
AcDbEntity
  8
1
  100
AcDbLine
  10
3.96804
  20
-0.297133
  30
0
  11
3.97504
  21
-0.301061
  31
0
  0
LINE
  5
29e
  100
AcDbEntity
  8
1
  100
AcDbLine
  10
3.97504
  20
-0.301061
  30
0
  11
3.98204
  21
-0.30496
  31
0
  0
LINE
  5
29f
  100
AcDbEntity
  8
1
  100
AcDbLine
  10
3.98204
  20
-0.30496
  30
0
  11
3.98904
  21
-0.30883
  31
0
  0
LINE
  5
2a0
  100
AcDbEntity
  8
1
  100
AcDbLine
  10
3.98904
  20
-0.30883
  30
0
  11
3.99604
  21
-0.312669
  31
0
  0
LINE
  5
2a1
  100
AcDbEntity
  8
1
  100
AcDbLine
  10
3.99604
  20
-0.312669
  30
0
  11
4.00304
  21
-0.316479
  31
0
  0
LINE
  5
2a2
  100
AcDbEntity
  8
1
  100
AcDbLine
  10
4.00304
  20
-0.316479
  30
0
  11
4.01004
  21
-0.320259
  31
0
  0
LINE
  5
2a3
  100
AcDbEntity
  8
1
  100
AcDbLine
  10
4.01004
  20
-0.320259
  30
0
  11
4.01704
  21
-0.324007
  31
0
  0
LINE
  5
2a4
  100
AcDbEntity
  8
1
  100
AcDbLine
  10
4.01704
  20
-0.324007
  30
0
  11
4.02404
  21
-0.327725
  31
0
  0
LINE
  5
2a5
  100
AcDbEntity
  8
1
  100
AcDbLine
  10
4.02404
  20
-0.327725
  30
0
  11
4.03104
  21
-0.331411
  31
0
  0
LINE
  5
2a6
  100
AcDbEntity
  8
1
  100
AcDbLine
  10
4.03104
  20
-0.331411
  30
0
  11
4.03804
  21
-0.335065
  31
0
  0
LINE
  5
2a7
  100
AcDbEntity
  8
1
  100
AcDbLine
  10
4.03804
  20
-0.335065
  30
0
  11
4.04504
  21
-0.338687
  31
0
  0
LINE
  5
2a8
  100
AcDbEntity
  8
1
  100
AcDbLine
  10
4.04504
  20
-0.338687
  30
0
  11
4.05204
  21
-0.342276
  31
0
  0
LINE
  5
2a9
  100
AcDbEntity
  8
1
  100
AcDbLine
  10
4.05204
  20
-0.342276
  30
0
  11
4.05904
  21
-0.345832
  31
0
  0
LINE
  5
2aa
  100
AcDbEntity
  8
1
  100
AcDbLine
  10
4.05904
  20
-0.345832
  30
0
  11
4.06604
  21
-0.349356
  31
0
  0
LINE
  5
2ab
  100
AcDbEntity
  8
1
  100
AcDbLine
  10
4.06604
  20
-0.349356
  30
0
  11
4.07304
  21
-0.352845
  31
0
  0
LINE
  5
2ac
  100
AcDbEntity
  8
1
  100
AcDbLine
  10
4.07304
  20
-0.352845
  30
0
  11
4.08004
  21
-0.356301
  31
0
  0
LINE
  5
2ad
  100
AcDbEntity
  8
1
  100
AcDbLine
  10
4.08004
  20
-0.356301
  30
0
  11
4.08704
  21
-0.359723
  31
0
  0
LINE
  5
2ae
  100
AcDbEntity
  8
1
  100
AcDbLine
  10
4.08704
  20
-0.359723
  30
0
  11
4.09404
  21
-0.36311
  31
0
  0
LINE
  5
2af
  100
AcDbEntity
  8
1
  100
AcDbLine
  10
4.09404
  20
-0.36311
  30
0
  11
4.10104
  21
-0.366462
  31
0
  0
LINE
  5
2b0
  100
AcDbEntity
  8
1
  100
AcDbLine
  10
4.10104
  20
-0.366462
  30
0
  11
4.10804
  21
-0.369779
  31
0
  0
LINE
  5
2b1
  100
AcDbEntity
  8
1
  100
AcDbLine
  10
4.10804
  20
-0.369779
  30
0
  11
4.11504
  21
-0.37306
  31
0
  0
LINE
  5
2b2
  100
AcDbEntity
  8
1
  100
AcDbLine
  10
4.11504
  20
-0.37306
  30
0
  11
4.12204
  21
-0.376305
  31
0
  0
LINE
  5
2b3
  100
AcDbEntity
  8
1
  100
AcDbLine
  10
4.12204
  20
-0.376305
  30
0
  11
4.12904
  21
-0.379515
  31
0
  0
LINE
  5
2b4
  100
AcDbEntity
  8
1
  100
AcDbLine
  10
4.12904
  20
-0.379515
  30
0
  11
4.13604
  21
-0.382687
  31
0
  0
LINE
  5
2b5
  100
AcDbEntity
  8
1
  100
AcDbLine
  10
4.13604
  20
-0.382687
  30
0
  11
4.14304
  21
-0.385823
  31
0
  0
LINE
  5
2b6
  100
AcDbEntity
  8
1
  100
AcDbLine
  10
4.14304
  20
-0.385823
  30
0
  11
4.15004
  21
-0.388922
  31
0
  0
LINE
  5
2b7
  100
AcDbEntity
  8
1
  100
AcDbLine
  10
4.15004
  20
-0.388922
  30
0
  11
4.15704
  21
-0.391984
  31
0
  0
LINE
  5
2b8
  100
AcDbEntity
  8
1
  100
AcDbLine
  10
4.15704
  20
-0.391984
  30
0
  11
4.16404
  21
-0.395008
  31
0
  0
LINE
  5
2b9
  100
AcDbEntity
  8
1
  100
AcDbLine
  10
4.16404
  20
-0.395008
  30
0
  11
4.17104
  21
-0.397994
  31
0
  0
LINE
  5
2ba
  100
AcDbEntity
  8
1
  100
AcDbLine
  10
4.17104
  20
-0.397994
  30
0
  11
4.17804
  21
-0.400942
  31
0
  0
LINE
  5
2bb
  100
AcDbEntity
  8
1
  100
AcDbLine
  10
4.17804
  20
-0.400942
  30
0
  11
4.18504
  21
-0.403851
  31
0
  0
LINE
  5
2bc
  100
AcDbEntity
  8
1
  100
AcDbLine
  10
4.18504
  20
-0.403851
  30
0
  11
4.19204
  21
-0.406721
  31
0
  0
LINE
  5
2bd
  100
AcDbEntity
  8
1
  100
AcDbLine
  10
4.19204
  20
-0.406721
  30
0
  11
4.19904
  21
-0.409553
  31
0
  0
LINE
  5
2be
  100
AcDbEntity
  8
1
  100
AcDbLine
  10
4.19904
  20
-0.409553
  30
0
  11
4.20604
  21
-0.412345
  31
0
  0
LINE
  5
2bf
  100
AcDbEntity
  8
1
  100
AcDbLine
  10
4.20604
  20
-0.412345
  30
0
  11
4.21304
  21
-0.415097
  31
0
  0
LINE
  5
2c0
  100
AcDbEntity
  8
1
  100
AcDbLine
  10
4.21304
  20
-0.415097
  30
0
  11
4.22004
  21
-0.417809
  31
0
  0
LINE
  5
2c1
  100
AcDbEntity
  8
1
  100
AcDbLine
  10
4.22004
  20
-0.417809
  30
0
  11
4.22704
  21
-0.420482
  31
0
  0
LINE
  5
2c2
  100
AcDbEntity
  8
1
  100
AcDbLine
  10
4.22704
  20
-0.420482
  30
0
  11
4.23404
  21
-0.423114
  31
0
  0
LINE
  5
2c3
  100
AcDbEntity
  8
1
  100
AcDbLine
  10
4.23404
  20
-0.423114
  30
0
  11
4.24104
  21
-0.425705
  31
0
  0
LINE
  5
2c4
  100
AcDbEntity
  8
1
  100
AcDbLine
  10
4.24104
  20
-0.425705
  30
0
  11
4.24804
  21
-0.428255
  31
0
  0
LINE
  5
2c5
  100
AcDbEntity
  8
1
  100
AcDbLine
  10
4.24804
  20
-0.428255
  30
0
  11
4.25504
  21
-0.430764
  31
0
  0
LINE
  5
2c6
  100
AcDbEntity
  8
1
  100
AcDbLine
  10
4.25504
  20
-0.430764
  30
0
  11
4.26204
  21
-0.433232
  31
0
  0
LINE
  5
2c7
  100
AcDbEntity
  8
1
  100
AcDbLine
  10
4.26204
  20
-0.433232
  30
0
  11
4.26904
  21
-0.435658
  31
0
  0
LINE
  5
2c8
  100
AcDbEntity
  8
1
  100
AcDbLine
  10
4.26904
  20
-0.435658
  30
0
  11
4.27604
  21
-0.438043
  31
0
  0
LINE
  5
2c9
  100
AcDbEntity
  8
1
  100
AcDbLine
  10
4.27604
  20
-0.438043
  30
0
  11
4.28304
  21
-0.440385
  31
0
  0
LINE
  5
2ca
  100
AcDbEntity
  8
1
  100
AcDbLine
  10
4.28304
  20
-0.440385
  30
0
  11
4.29004
  21
-0.442685
  31
0
  0
LINE
  5
2cb
  100
AcDbEntity
  8
1
  100
AcDbLine
  10
4.29004
  20
-0.442685
  30
0
  11
4.29704
  21
-0.444942
  31
0
  0
LINE
  5
2cc
  100
AcDbEntity
  8
1
  100
AcDbLine
  10
4.29704
  20
-0.444942
  30
0
  11
4.30404
  21
-0.447156
  31
0
  0
LINE
  5
2cd
  100
AcDbEntity
  8
1
  100
AcDbLine
  10
4.30404
  20
-0.447156
  30
0
  11
4.31104
  21
-0.449328
  31
0
  0
LINE
  5
2ce
  100
AcDbEntity
  8
1
  100
AcDbLine
  10
4.31104
  20
-0.449328
  30
0
  11
4.31804
  21
-0.451456
  31
0
  0
LINE
  5
2cf
  100
AcDbEntity
  8
1
  100
AcDbLine
  10
4.31804
  20
-0.451456
  30
0
  11
4.32504
  21
-0.453542
  31
0
  0
LINE
  5
2d0
  100
AcDbEntity
  8
1
  100
AcDbLine
  10
4.32504
  20
-0.453542
  30
0
  11
4.33204
  21
-0.455583
  31
0
  0
LINE
  5
2d1
  100
AcDbEntity
  8
1
  100
AcDbLine
  10
4.33204
  20
-0.455583
  30
0
  11
4.33904
  21
-0.457581
  31
0
  0
LINE
  5
2d2
  100
AcDbEntity
  8
1
  100
AcDbLine
  10
4.33904
  20
-0.457581
  30
0
  11
4.34604
  21
-0.459534
  31
0
  0
LINE
  5
2d3
  100
AcDbEntity
  8
1
  100
AcDbLine
  10
4.34604
  20
-0.459534
  30
0
  11
4.35304
  21
-0.461444
  31
0
  0
LINE
  5
2d4
  100
AcDbEntity
  8
1
  100
AcDbLine
  10
4.35304
  20
-0.461444
  30
0
  11
4.36004
  21
-0.463309
  31
0
  0
LINE
  5
2d5
  100
AcDbEntity
  8
1
  100
AcDbLine
  10
4.36004
  20
-0.463309
  30
0
  11
4.36704
  21
-0.46513
  31
0
  0
LINE
  5
2d6
  100
AcDbEntity
  8
1
  100
AcDbLine
  10
4.36704
  20
-0.46513
  30
0
  11
4.37404
  21
-0.466906
  31
0
  0
LINE
  5
2d7
  100
AcDbEntity
  8
1
  100
AcDbLine
  10
4.37404
  20
-0.466906
  30
0
  11
4.38104
  21
-0.468637
  31
0
  0
LINE
  5
2d8
  100
AcDbEntity
  8
1
  100
AcDbLine
  10
4.38104
  20
-0.468637
  30
0
  11
4.38804
  21
-0.470323
  31
0
  0
LINE
  5
2d9
  100
AcDbEntity
  8
1
  100
AcDbLine
  10
4.38804
  20
-0.470323
  30
0
  11
4.39504
  21
-0.471964
  31
0
  0
LINE
  5
2da
  100
AcDbEntity
  8
1
  100
AcDbLine
  10
4.39504
  20
-0.471964
  30
0
  11
4.40204
  21
-0.473559
  31
0
  0
LINE
  5
2db
  100
AcDbEntity
  8
1
  100
AcDbLine
  10
4.40204
  20
-0.473559
  30
0
  11
4.40904
  21
-0.475109
  31
0
  0
LINE
  5
2dc
  100
AcDbEntity
  8
1
  100
AcDbLine
  10
4.40904
  20
-0.475109
  30
0
  11
4.41604
  21
-0.476614
  31
0
  0
LINE
  5
2dd
  100
AcDbEntity
  8
1
  100
AcDbLine
  10
4.41604
  20
-0.476614
  30
0
  11
4.42304
  21
-0.478072
  31
0
  0
LINE
  5
2de
  100
AcDbEntity
  8
1
  100
AcDbLine
  10
4.42304
  20
-0.478072
  30
0
  11
4.43004
  21
-0.479485
  31
0
  0
LINE
  5
2df
  100
AcDbEntity
  8
1
  100
AcDbLine
  10
4.43004
  20
-0.479485
  30
0
  11
4.43704
  21
-0.480851
  31
0
  0
LINE
  5
2e0
  100
AcDbEntity
  8
1
  100
AcDbLine
  10
4.43704
  20
-0.480851
  30
0
  11
4.44404
  21
-0.482172
  31
0
  0
LINE
  5
2e1
  100
AcDbEntity
  8
1
  100
AcDbLine
  10
4.44404
  20
-0.482172
  30
0
  11
4.45104
  21
-0.483446
  31
0
  0
LINE
  5
2e2
  100
AcDbEntity
  8
1
  100
AcDbLine
  10
4.45104
  20
-0.483446
  30
0
  11
4.45804
  21
-0.484673
  31
0
  0
LINE
  5
2e3
  100
AcDbEntity
  8
1
  100
AcDbLine
  10
4.45804
  20
-0.484673
  30
0
  11
4.46504
  21
-0.485854
  31
0
  0
LINE
  5
2e4
  100
AcDbEntity
  8
1
  100
AcDbLine
  10
4.46504
  20
-0.485854
  30
0
  11
4.47204
  21
-0.486989
  31
0
  0
LINE
  5
2e5
  100
AcDbEntity
  8
1
  100
AcDbLine
  10
4.47204
  20
-0.486989
  30
0
  11
4.47904
  21
-0.488076
  31
0
  0
LINE
  5
2e6
  100
AcDbEntity
  8
1
  100
AcDbLine
  10
4.47904
  20
-0.488076
  30
0
  11
4.48604
  21
-0.489117
  31
0
  0
LINE
  5
2e7
  100
AcDbEntity
  8
1
  100
AcDbLine
  10
4.48604
  20
-0.489117
  30
0
  11
4.49304
  21
-0.49011
  31
0
  0
LINE
  5
2e8
  100
AcDbEntity
  8
1
  100
AcDbLine
  10
4.49304
  20
-0.49011
  30
0
  11
4.50004
  21
-0.491057
  31
0
  0
LINE
  5
2e9
  100
AcDbEntity
  8
1
  100
AcDbLine
  10
4.50004
  20
-0.491057
  30
0
  11
4.50704
  21
-0.491956
  31
0
  0
LINE
  5
2ea
  100
AcDbEntity
  8
1
  100
AcDbLine
  10
4.50704
  20
-0.491956
  30
0
  11
4.51404
  21
-0.492808
  31
0
  0
LINE
  5
2eb
  100
AcDbEntity
  8
1
  100
AcDbLine
  10
4.51404
  20
-0.492808
  30
0
  11
4.52104
  21
-0.493613
  31
0
  0
LINE
  5
2ec
  100
AcDbEntity
  8
1
  100
AcDbLine
  10
4.52104
  20
-0.493613
  30
0
  11
4.52804
  21
-0.49437
  31
0
  0
LINE
  5
2ed
  100
AcDbEntity
  8
1
  100
AcDbLine
  10
4.52804
  20
-0.49437
  30
0
  11
4.53504
  21
-0.49508
  31
0
  0
LINE
  5
2ee
  100
AcDbEntity
  8
1
  100
AcDbLine
  10
4.53504
  20
-0.49508
  30
0
  11
4.54204
  21
-0.495742
  31
0
  0
LINE
  5
2ef
  100
AcDbEntity
  8
1
  100
AcDbLine
  10
4.54204
  20
-0.495742
  30
0
  11
4.54904
  21
-0.496356
  31
0
  0
LINE
  5
2f0
  100
AcDbEntity
  8
1
  100
AcDbLine
  10
4.54904
  20
-0.496356
  30
0
  11
4.55604
  21
-0.496923
  31
0
  0
LINE
  5
2f1
  100
AcDbEntity
  8
1
  100
AcDbLine
  10
4.55604
  20
-0.496923
  30
0
  11
4.56304
  21
-0.497442
  31
0
  0
LINE
  5
2f2
  100
AcDbEntity
  8
1
  100
AcDbLine
  10
4.56304
  20
-0.497442
  30
0
  11
4.57004
  21
-0.497913
  31
0
  0
LINE
  5
2f3
  100
AcDbEntity
  8
1
  100
AcDbLine
  10
4.57004
  20
-0.497913
  30
0
  11
4.57704
  21
-0.498337
  31
0
  0
LINE
  5
2f4
  100
AcDbEntity
  8
1
  100
AcDbLine
  10
4.57704
  20
-0.498337
  30
0
  11
4.58404
  21
-0.498712
  31
0
  0
LINE
  5
2f5
  100
AcDbEntity
  8
1
  100
AcDbLine
  10
4.58404
  20
-0.498712
  30
0
  11
4.59104
  21
-0.49904
  31
0
  0
LINE
  5
2f6
  100
AcDbEntity
  8
1
  100
AcDbLine
  10
4.59104
  20
-0.49904
  30
0
  11
4.59804
  21
-0.499319
  31
0
  0
LINE
  5
2f7
  100
AcDbEntity
  8
1
  100
AcDbLine
  10
4.59804
  20
-0.499319
  30
0
  11
4.60504
  21
-0.499551
  31
0
  0
LINE
  5
2f8
  100
AcDbEntity
  8
1
  100
AcDbLine
  10
4.60504
  20
-0.499551
  30
0
  11
4.61204
  21
-0.499735
  31
0
  0
LINE
  5
2f9
  100
AcDbEntity
  8
1
  100
AcDbLine
  10
4.61204
  20
-0.499735
  30
0
  11
4.61904
  21
-0.49987
  31
0
  0
LINE
  5
2fa
  100
AcDbEntity
  8
1
  100
AcDbLine
  10
4.61904
  20
-0.49987
  30
0
  11
4.62604
  21
-0.499958
  31
0
  0
LINE
  5
2fb
  100
AcDbEntity
  8
1
  100
AcDbLine
  10
4.62604
  20
-0.499958
  30
0
  11
4.63304
  21
-0.499997
  31
0
  0
LINE
  5
2fc
  100
AcDbEntity
  8
1
  100
AcDbLine
  10
4.63304
  20
-0.499997
  30
0
  11
4.635301
  21
-0.5
  31
0
  0
LINE
  5
2fd
  100
AcDbEntity
  8
1
  100
AcDbLine
  10
4.307814
  20
-0.5
  30
0
  11
4.30404
  21
-0.493772
  31
0
  0
LINE
  5
2fe
  100
AcDbEntity
  8
1
  100
AcDbLine
  10
4.30404
  20
-0.493772
  30
0
  11
4.29704
  21
-0.493723
  31
0
  0
LINE
  5
2ff
  100
AcDbEntity
  8
1
  100
AcDbLine
  10
4.29704
  20
-0.493723
  30
0
  11
4.29004
  21
-0.493626
  31
0
  0
LINE
  5
300
  100
AcDbEntity
  8
1
  100
AcDbLine
  10
4.29004
  20
-0.493626
  30
0
  11
4.28304
  21
-0.493482
  31
0
  0
LINE
  5
301
  100
AcDbEntity
  8
1
  100
AcDbLine
  10
4.28304
  20
-0.493482
  30
0
  11
4.27604
  21
-0.49329
  31
0
  0
LINE
  5
302
  100
AcDbEntity
  8
1
  100
AcDbLine
  10
4.27604
  20
-0.49329
  30
0
  11
4.26904
  21
-0.493051
  31
0
  0
LINE
  5
303
  100
AcDbEntity
  8
1
  100
AcDbLine
  10
4.26904
  20
-0.493051
  30
0
  11
4.26204
  21
-0.492765
  31
0
  0
LINE
  5
304
  100
AcDbEntity
  8
1
  100
AcDbLine
  10
4.26204
  20
-0.492765
  30
0
  11
4.25504
  21
-0.492431
  31
0
  0
LINE
  5
305
  100
AcDbEntity
  8
1
  100
AcDbLine
  10
4.25504
  20
-0.492431
  30
0
  11
4.24804
  21
-0.49205
  31
0
  0
LINE
  5
306
  100
AcDbEntity
  8
1
  100
AcDbLine
  10
4.24804
  20
-0.49205
  30
0
  11
4.24104
  21
-0.491622
  31
0
  0
LINE
  5
307
  100
AcDbEntity
  8
1
  100
AcDbLine
  10
4.24104
  20
-0.491622
  30
0
  11
4.23404
  21
-0.491146
  31
0
  0
LINE
  5
308
  100
AcDbEntity
  8
1
  100
AcDbLine
  10
4.23404
  20
-0.491146
  30
0
  11
4.22704
  21
-0.490623
  31
0
  0
LINE
  5
309
  100
AcDbEntity
  8
1
  100
AcDbLine
  10
4.22704
  20
-0.490623
  30
0
  11
4.22004
  21
-0.490053
  31
0
  0
LINE
  5
30a
  100
AcDbEntity
  8
1
  100
AcDbLine
  10
4.22004
  20
-0.490053
  30
0
  11
4.21304
  21
-0.489436
  31
0
  0
LINE
  5
30b
  100
AcDbEntity
  8
1
  100
AcDbLine
  10
4.21304
  20
-0.489436
  30
0
  11
4.20604
  21
-0.488772
  31
0
  0
LINE
  5
30c
  100
AcDbEntity
  8
1
  100
AcDbLine
  10
4.20604
  20
-0.488772
  30
0
  11
4.19904
  21
-0.488061
  31
0
  0
LINE
  5
30d
  100
AcDbEntity
  8
1
  100
AcDbLine
  10
4.19904
  20
-0.488061
  30
0
  11
4.19204
  21
-0.487303
  31
0
  0
LINE
  5
30e
  100
AcDbEntity
  8
1
  100
AcDbLine
  10
4.19204
  20
-0.487303
  30
0
  11
4.18504
  21
-0.486498
  31
0
  0
LINE
  5
30f
  100
AcDbEntity
  8
1
  100
AcDbLine
  10
4.18504
  20
-0.486498
  30
0
  11
4.17804
  21
-0.485647
  31
0
  0
LINE
  5
310
  100
AcDbEntity
  8
1
  100
AcDbLine
  10
4.17804
  20
-0.485647
  30
0
  11
4.17104
  21
-0.484749
  31
0
  0
LINE
  5
311
  100
AcDbEntity
  8
1
  100
AcDbLine
  10
4.17104
  20
-0.484749
  30
0
  11
4.16404
  21
-0.483804
  31
0
  0
LINE
  5
312
  100
AcDbEntity
  8
1
  100
AcDbLine
  10
4.16404
  20
-0.483804
  30
0
  11
4.15704
  21
-0.482813
  31
0
  0
LINE
  5
313
  100
AcDbEntity
  8
1
  100
AcDbLine
  10
4.15704
  20
-0.482813
  30
0
  11
4.15004
  21
-0.481775
  31
0
  0
LINE
  5
314
  100
AcDbEntity
  8
1
  100
AcDbLine
  10
4.15004
  20
-0.481775
  30
0
  11
4.14304
  21
-0.480691
  31
0
  0
LINE
  5
315
  100
AcDbEntity
  8
1
  100
AcDbLine
  10
4.14304
  20
-0.480691
  30
0
  11
4.13604
  21
-0.479561
  31
0
  0
LINE
  5
316
  100
AcDbEntity
  8
1
  100
AcDbLine
  10
4.13604
  20
-0.479561
  30
0
  11
4.12904
  21
-0.478385
  31
0
  0
LINE
  5
317
  100
AcDbEntity
  8
1
  100
AcDbLine
  10
4.12904
  20
-0.478385
  30
0
  11
4.12204
  21
-0.477163
  31
0
  0
LINE
  5
318
  100
AcDbEntity
  8
1
  100
AcDbLine
  10
4.12204
  20
-0.477163
  30
0
  11
4.11504
  21
-0.475895
  31
0
  0
LINE
  5
319
  100
AcDbEntity
  8
1
  100
AcDbLine
  10
4.11504
  20
-0.475895
  30
0
  11
4.10804
  21
-0.474581
  31
0
  0
LINE
  5
31a
  100
AcDbEntity
  8
1
  100
AcDbLine
  10
4.10804
  20
-0.474581
  30
0
  11
4.10104
  21
-0.473221
  31
0
  0
LINE
  5
31b
  100
AcDbEntity
  8
1
  100
AcDbLine
  10
4.10104
  20
-0.473221
  30
0
  11
4.09404
  21
-0.471816
  31
0
  0
LINE
  5
31c
  100
AcDbEntity
  8
1
  100
AcDbLine
  10
4.09404
  20
-0.471816
  30
0
  11
4.08704
  21
-0.470366
  31
0
  0
LINE
  5
31d
  100
AcDbEntity
  8
1
  100
AcDbLine
  10
4.08704
  20
-0.470366
  30
0
  11
4.08004
  21
-0.468871
  31
0
  0
LINE
  5
31e
  100
AcDbEntity
  8
1
  100
AcDbLine
  10
4.08004
  20
-0.468871
  30
0
  11
4.07304
  21
-0.46733
  31
0
  0
LINE
  5
31f
  100
AcDbEntity
  8
1
  100
AcDbLine
  10
4.07304
  20
-0.46733
  30
0
  11
4.06604
  21
-0.465745
  31
0
  0
LINE
  5
320
  100
AcDbEntity
  8
1
  100
AcDbLine
  10
4.06604
  20
-0.465745
  30
0
  11
4.05904
  21
-0.464115
  31
0
  0
LINE
  5
321
  100
AcDbEntity
  8
1
  100
AcDbLine
  10
4.05904
  20
-0.464115
  30
0
  11
4.05204
  21
-0.46244
  31
0
  0
LINE
  5
322
  100
AcDbEntity
  8
1
  100
AcDbLine
  10
4.05204
  20
-0.46244
  30
0
  11
4.04504
  21
-0.460721
  31
0
  0
LINE
  5
323
  100
AcDbEntity
  8
1
  100
AcDbLine
  10
4.04504
  20
-0.460721
  30
0
  11
4.03804
  21
-0.458958
  31
0
  0
LINE
  5
324
  100
AcDbEntity
  8
1
  100
AcDbLine
  10
4.03804
  20
-0.458958
  30
0
  11
4.03104
  21
-0.45715
  31
0
  0
LINE
  5
325
  100
AcDbEntity
  8
1
  100
AcDbLine
  10
4.03104
  20
-0.45715
  30
0
  11
4.02404
  21
-0.455299
  31
0
  0
LINE
  5
326
  100
AcDbEntity
  8
1
  100
AcDbLine
  10
4.02404
  20
-0.455299
  30
0
  11
4.01704
  21
-0.453403
  31
0
  0
LINE
  5
327
  100
AcDbEntity
  8
1
  100
AcDbLine
  10
4.01704
  20
-0.453403
  30
0
  11
4.01004
  21
-0.451465
  31
0
  0
LINE
  5
328
  100
AcDbEntity
  8
1
  100
AcDbLine
  10
4.01004
  20
-0.451465
  30
0
  11
4.00304
  21
-0.449482
  31
0
  0
LINE
  5
329
  100
AcDbEntity
  8
1
  100
AcDbLine
  10
4.00304
  20
-0.449482
  30
0
  11
3.99604
  21
-0.447457
  31
0
  0
LINE
  5
32a
  100
AcDbEntity
  8
1
  100
AcDbLine
  10
3.99604
  20
-0.447457
  30
0
  11
3.98904
  21
-0.445389
  31
0
  0
LINE
  5
32b
  100
AcDbEntity
  8
1
  100
AcDbLine
  10
3.98904
  20
-0.445389
  30
0
  11
3.98204
  21
-0.443278
  31
0
  0
LINE
  5
32c
  100
AcDbEntity
  8
1
  100
AcDbLine
  10
3.98204
  20
-0.443278
  30
0
  11
3.97504
  21
-0.441124
  31
0
  0
LINE
  5
32d
  100
AcDbEntity
  8
1
  100
AcDbLine
  10
3.97504
  20
-0.441124
  30
0
  11
3.96804
  21
-0.438928
  31
0
  0
LINE
  5
32e
  100
AcDbEntity
  8
1
  100
AcDbLine
  10
3.96804
  20
-0.438928
  30
0
  11
3.96104
  21
-0.436689
  31
0
  0
LINE
  5
32f
  100
AcDbEntity
  8
1
  100
AcDbLine
  10
3.96104
  20
-0.436689
  30
0
  11
3.95404
  21
-0.434409
  31
0
  0
LINE
  5
330
  100
AcDbEntity
  8
1
  100
AcDbLine
  10
3.95404
  20
-0.434409
  30
0
  11
3.94704
  21
-0.432087
  31
0
  0
LINE
  5
331
  100
AcDbEntity
  8
1
  100
AcDbLine
  10
3.94704
  20
-0.432087
  30
0
  11
3.94004
  21
-0.429723
  31
0
  0
LINE
  5
332
  100
AcDbEntity
  8
1
  100
AcDbLine
  10
3.94004
  20
-0.429723
  30
0
  11
3.93304
  21
-0.427318
  31
0
  0
LINE
  5
333
  100
AcDbEntity
  8
1
  100
AcDbLine
  10
3.93304
  20
-0.427318
  30
0
  11
3.92604
  21
-0.424873
  31
0
  0
LINE
  5
334
  100
AcDbEntity
  8
1
  100
AcDbLine
  10
3.92604
  20
-0.424873
  30
0
  11
3.91904
  21
-0.422386
  31
0
  0
LINE
  5
335
  100
AcDbEntity
  8
1
  100
AcDbLine
  10
3.91904
  20
-0.422386
  30
0
  11
3.91204
  21
-0.419858
  31
0
  0
LINE
  5
336
  100
AcDbEntity
  8
1
  100
AcDbLine
  10
3.91204
  20
-0.419858
  30
0
  11
3.90504
  21
-0.417291
  31
0
  0
LINE
  5
337
  100
AcDbEntity
  8
1
  100
AcDbLine
  10
3.90504
  20
-0.417291
  30
0
  11
3.89804
  21
-0.414683
  31
0
  0
LINE
  5
338
  100
AcDbEntity
  8
1
  100
AcDbLine
  10
3.89804
  20
-0.414683
  30
0
  11
3.89104
  21
-0.412035
  31
0
  0
LINE
  5
339
  100
AcDbEntity
  8
1
  100
AcDbLine
  10
3.89104
  20
-0.412035
  30
0
  11
3.88404
  21
-0.409348
  31
0
  0
LINE
  5
33a
  100
AcDbEntity
  8
1
  100
AcDbLine
  10
3.88404
  20
-0.409348
  30
0
  11
3.87704
  21
-0.406622
  31
0
  0
LINE
  5
33b
  100
AcDbEntity
  8
1
  100
AcDbLine
  10
3.87704
  20
-0.406622
  30
0
  11
3.87004
  21
-0.403856
  31
0
  0
LINE
  5
33c
  100
AcDbEntity
  8
1
  100
AcDbLine
  10
3.87004
  20
-0.403856
  30
0
  11
3.86304
  21
-0.401051
  31
0
  0
LINE
  5
33d
  100
AcDbEntity
  8
1
  100
AcDbLine
  10
3.86304
  20
-0.401051
  30
0
  11
3.85604
  21
-0.398208
  31
0
  0
LINE
  5
33e
  100
AcDbEntity
  8
1
  100
AcDbLine
  10
3.85604
  20
-0.398208
  30
0
  11
3.84904
  21
-0.395327
  31
0
  0
LINE
  5
33f
  100
AcDbEntity
  8
1
  100
AcDbLine
  10
3.84904
  20
-0.395327
  30
0
  11
3.84204
  21
-0.392408
  31
0
  0
LINE
  5
340
  100
AcDbEntity
  8
1
  100
AcDbLine
  10
3.84204
  20
-0.392408
  30
0
  11
3.83504
  21
-0.389451
  31
0
  0
LINE
  5
341
  100
AcDbEntity
  8
1
  100
AcDbLine
  10
3.83504
  20
-0.389451
  30
0
  11
3.82804
  21
-0.386457
  31
0
  0
LINE
  5
342
  100
AcDbEntity
  8
1
  100
AcDbLine
  10
3.82804
  20
-0.386457
  30
0
  11
3.82104
  21
-0.383425
  31
0
  0
LINE
  5
343
  100
AcDbEntity
  8
1
  100
AcDbLine
  10
3.82104
  20
-0.383425
  30
0
  11
3.81404
  21
-0.380357
  31
0
  0
LINE
  5
344
  100
AcDbEntity
  8
1
  100
AcDbLine
  10
3.81404
  20
-0.380357
  30
0
  11
3.80704
  21
-0.377252
  31
0
  0
LINE
  5
345
  100
AcDbEntity
  8
1
  100
AcDbLine
  10
3.80704
  20
-0.377252
  30
0
  11
3.80004
  21
-0.374111
  31
0
  0
LINE
  5
346
  100
AcDbEntity
  8
1
  100
AcDbLine
  10
3.80004
  20
-0.374111
  30
0
  11
3.79304
  21
-0.370934
  31
0
  0
LINE
  5
347
  100
AcDbEntity
  8
1
  100
AcDbLine
  10
3.79304
  20
-0.370934
  30
0
  11
3.78604
  21
-0.367721
  31
0
  0
LINE
  5
348
  100
AcDbEntity
  8
1
  100
AcDbLine
  10
3.78604
  20
-0.367721
  30
0
  11
3.77904
  21
-0.364473
  31
0
  0
LINE
  5
349
  100
AcDbEntity
  8
1
  100
AcDbLine
  10
3.77904
  20
-0.364473
  30
0
  11
3.77204
  21
-0.36119
  31
0
  0
LINE
  5
34a
  100
AcDbEntity
  8
1
  100
AcDbLine
  10
3.77204
  20
-0.36119
  30
0
  11
3.76504
  21
-0.357872
  31
0
  0
LINE
  5
34b
  100
AcDbEntity
  8
1
  100
AcDbLine
  10
3.76504
  20
-0.357872
  30
0
  11
3.75804
  21
-0.354519
  31
0
  0
LINE
  5
34c
  100
AcDbEntity
  8
1
  100
AcDbLine
  10
3.75804
  20
-0.354519
  30
0
  11
3.75104
  21
-0.351133
  31
0
  0
LINE
  5
34d
  100
AcDbEntity
  8
1
  100
AcDbLine
  10
3.75104
  20
-0.351133
  30
0
  11
3.74404
  21
-0.347713
  31
0
  0
LINE
  5
34e
  100
AcDbEntity
  8
1
  100
AcDbLine
  10
3.74404
  20
-0.347713
  30
0
  11
3.73704
  21
-0.34426
  31
0
  0
LINE
  5
34f
  100
AcDbEntity
  8
1
  100
AcDbLine
  10
3.73204
  20
-0.5
  30
0
  11
3.73204
  21
0.5
  31
0
  0
LINE
  5
350
  100
AcDbEntity
  8
1
  100
AcDbLine
  10
3.73204
  20
0.5
  30
0
  11
3.73204
  21
-0.5
  31
0
  0
LINE
  5
351
  100
AcDbEntity
  8
1
  100
AcDbLine
  10
3.636049
  20
-0.525721
  30
0
  11
3.63204
  21
-0.517549
  31
0
  0
LINE
  5
352
  100
AcDbEntity
  8
1
  100
AcDbLine
  10
3.63204
  20
-0.517549
  30
0
  11
3.63204
  21
-0.511654
  31
0
  0
LINE
  5
353
  100
AcDbEntity
  8
1
  100
AcDbLine
  10
3.63204
  20
-0.511654
  30
0
  11
3.63904
  21
-0.439286
  31
0
  0
LINE
  5
354
  100
AcDbEntity
  8
1
  100
AcDbLine
  10
3.63904
  20
-0.439286
  30
0
  11
3.64604
  21
-0.392315
  31
0
  0
LINE
  5
355
  100
AcDbEntity
  8
1
  100
AcDbLine
  10
3.64604
  20
-0.392315
  30
0
  11
3.65304
  21
-0.371981
  31
0
  0
LINE
  5
356
  100
AcDbEntity
  8
1
  100
AcDbLine
  10
3.65304
  20
-0.371981
  30
0
  11
3.66004
  21
-0.365347
  31
0
  0
LINE
  5
357
  100
AcDbEntity
  8
1
  100
AcDbLine
  10
3.66004
  20
-0.365347
  30
0
  11
3.66704
  21
-0.364429
  31
0
  0
LINE
  5
358
  100
AcDbEntity
  8
1
  100
AcDbLine
  10
3.66704
  20
-0.364429
  30
0
  11
3.67404
  21
-0.365577
  31
0
  0
LINE
  5
359
  100
AcDbEntity
  8
1
  100
AcDbLine
  10
3.67404
  20
-0.365577
  30
0
  11
3.68104
  21
-0.367357
  31
0
  0
LINE
  5
35a
  100
AcDbEntity
  8
1
  100
AcDbLine
  10
3.68104
  20
-0.367357
  30
0
  11
3.68804
  21
-0.369272
  31
0
  0
LINE
  5
35b
  100
AcDbEntity
  8
1
  100
AcDbLine
  10
3.68804
  20
-0.369272
  30
0
  11
3.69504
  21
-0.371176
  31
0
  0
LINE
  5
35c
  100
AcDbEntity
  8
1
  100
AcDbLine
  10
3.69504
  20
-0.371176
  30
0
  11
3.70204
  21
-0.373031
  31
0
  0
LINE
  5
35d
  100
AcDbEntity
  8
1
  100
AcDbLine
  10
3.70204
  20
-0.373031
  30
0
  11
3.70904
  21
-0.37483
  31
0
  0
LINE
  5
35e
  100
AcDbEntity
  8
1
  100
AcDbLine
  10
3.70904
  20
-0.37483
  30
0
  11
3.71604
  21
-0.376572
  31
0
  0
LINE
  5
35f
  100
AcDbEntity
  8
1
  100
AcDbLine
  10
3.71604
  20
-0.376572
  30
0
  11
3.72304
  21
-0.378257
  31
0
  0
LINE
  5
360
  100
AcDbEntity
  8
1
  100
AcDbLine
  10
3.72304
  20
-0.378257
  30
0
  11
3.73004
  21
-0.379886
  31
0
  0
LINE
  5
361
  100
AcDbEntity
  8
1
  100
AcDbLine
  10
3.73004
  20
-0.379886
  30
0
  11
3.73704
  21
-0.382604
  31
0
  0
LINE
  5
362
  100
AcDbEntity
  8
1
  100
AcDbLine
  10
3.73704
  20
-0.382604
  30
0
  11
3.74404
  21
-0.385741
  31
0
  0
LINE
  5
363
  100
AcDbEntity
  8
1
  100
AcDbLine
  10
3.74404
  20
-0.385741
  30
0
  11
3.75104
  21
-0.388841
  31
0
  0
LINE
  5
364
  100
AcDbEntity
  8
1
  100
AcDbLine
  10
3.75104
  20
-0.388841
  30
0
  11
3.75804
  21
-0.391903
  31
0
  0
LINE
  5
365
  100
AcDbEntity
  8
1
  100
AcDbLine
  10
3.75804
  20
-0.391903
  30
0
  11
3.76504
  21
-0.394928
  31
0
  0
LINE
  5
366
  100
AcDbEntity
  8
1
  100
AcDbLine
  10
3.76504
  20
-0.394928
  30
0
  11
3.77204
  21
-0.397915
  31
0
  0
LINE
  5
367
  100
AcDbEntity
  8
1
  100
AcDbLine
  10
3.77204
  20
-0.397915
  30
0
  11
3.77904
  21
-0.400864
  31
0
  0
LINE
  5
368
  100
AcDbEntity
  8
1
  100
AcDbLine
  10
3.77904
  20
-0.400864
  30
0
  11
3.78604
  21
-0.403774
  31
0
  0
LINE
  5
369
  100
AcDbEntity
  8
1
  100
AcDbLine
  10
3.78604
  20
-0.403774
  30
0
  11
3.79304
  21
-0.406646
  31
0
  0
LINE
  5
36a
  100
AcDbEntity
  8
1
  100
AcDbLine
  10
3.79304
  20
-0.406646
  30
0
  11
3.80004
  21
-0.409478
  31
0
  0
LINE
  5
36b
  100
AcDbEntity
  8
1
  100
AcDbLine
  10
3.80004
  20
-0.409478
  30
0
  11
3.80704
  21
-0.412271
  31
0
  0
LINE
  5
36c
  100
AcDbEntity
  8
1
  100
AcDbLine
  10
3.80704
  20
-0.412271
  30
0
  11
3.81404
  21
-0.415024
  31
0
  0
LINE
  5
36d
  100
AcDbEntity
  8
1
  100
AcDbLine
  10
3.81404
  20
-0.415024
  30
0
  11
3.82104
  21
-0.417738
  31
0
  0
LINE
  5
36e
  100
AcDbEntity
  8
1
  100
AcDbLine
  10
3.82104
  20
-0.417738
  30
0
  11
3.82804
  21
-0.420411
  31
0
  0
LINE
  5
36f
  100
AcDbEntity
  8
1
  100
AcDbLine
  10
3.82804
  20
-0.420411
  30
0
  11
3.83504
  21
-0.423044
  31
0
  0
LINE
  5
370
  100
AcDbEntity
  8
1
  100
AcDbLine
  10
3.83504
  20
-0.423044
  30
0
  11
3.84204
  21
-0.425637
  31
0
  0
LINE
  5
371
  100
AcDbEntity
  8
1
  100
AcDbLine
  10
3.84204
  20
-0.425637
  30
0
  11
3.84904
  21
-0.428188
  31
0
  0
LINE
  5
372
  100
AcDbEntity
  8
1
  100
AcDbLine
  10
3.84904
  20
-0.428188
  30
0
  11
3.85604
  21
-0.430698
  31
0
  0
LINE
  5
373
  100
AcDbEntity
  8
1
  100
AcDbLine
  10
3.85604
  20
-0.430698
  30
0
  11
3.86304
  21
-0.433167
  31
0
  0
LINE
  5
374
  100
AcDbEntity
  8
1
  100
AcDbLine
  10
3.86304
  20
-0.433167
  30
0
  11
3.87004
  21
-0.435594
  31
0
  0
LINE
  5
375
  100
AcDbEntity
  8
1
  100
AcDbLine
  10
3.87004
  20
-0.435594
  30
0
  11
3.87704
  21
-0.43798
  31
0
  0
LINE
  5
376
  100
AcDbEntity
  8
1
  100
AcDbLine
  10
3.87704
  20
-0.43798
  30
0
  11
3.88404
  21
-0.440323
  31
0
  0
LINE
  5
377
  100
AcDbEntity
  8
1
  100
AcDbLine
  10
3.88404
  20
-0.440323
  30
0
  11
3.89104
  21
-0.442624
  31
0
  0
LINE
  5
378
  100
AcDbEntity
  8
1
  100
AcDbLine
  10
3.89104
  20
-0.442624
  30
0
  11
3.89804
  21
-0.444883
  31
0
  0
LINE
  5
379
  100
AcDbEntity
  8
1
  100
AcDbLine
  10
3.89804
  20
-0.444883
  30
0
  11
3.90504
  21
-0.447098
  31
0
  0
LINE
  5
37a
  100
AcDbEntity
  8
1
  100
AcDbLine
  10
3.90504
  20
-0.447098
  30
0
  11
3.91204
  21
-0.449271
  31
0
  0
LINE
  5
37b
  100
AcDbEntity
  8
1
  100
AcDbLine
  10
3.91204
  20
-0.449271
  30
0
  11
3.91904
  21
-0.451401
  31
0
  0
LINE
  5
37c
  100
AcDbEntity
  8
1
  100
AcDbLine
  10
3.91904
  20
-0.451401
  30
0
  11
3.92604
  21
-0.453487
  31
0
  0
LINE
  5
37d
  100
AcDbEntity
  8
1
  100
AcDbLine
  10
3.92604
  20
-0.453487
  30
0
  11
3.93304
  21
-0.455529
  31
0
  0
LINE
  5
37e
  100
AcDbEntity
  8
1
  100
AcDbLine
  10
3.93304
  20
-0.455529
  30
0
  11
3.94004
  21
-0.457528
  31
0
  0
LINE
  5
37f
  100
AcDbEntity
  8
1
  100
AcDbLine
  10
3.94004
  20
-0.457528
  30
0
  11
3.94704
  21
-0.459483
  31
0
  0
LINE
  5
380
  100
AcDbEntity
  8
1
  100
AcDbLine
  10
3.94704
  20
-0.459483
  30
0
  11
3.95404
  21
-0.461394
  31
0
  0
LINE
  5
381
  100
AcDbEntity
  8
1
  100
AcDbLine
  10
3.95404
  20
-0.461394
  30
0
  11
3.96104
  21
-0.46326
  31
0
  0
LINE
  5
382
  100
AcDbEntity
  8
1
  100
AcDbLine
  10
3.96104
  20
-0.46326
  30
0
  11
3.96804
  21
-0.465082
  31
0
  0
LINE
  5
383
  100
AcDbEntity
  8
1
  100
AcDbLine
  10
3.96804
  20
-0.465082
  30
0
  11
3.97504
  21
-0.466859
  31
0
  0
LINE
  5
384
  100
AcDbEntity
  8
1
  100
AcDbLine
  10
3.97504
  20
-0.466859
  30
0
  11
3.98204
  21
-0.468591
  31
0
  0
LINE
  5
385
  100
AcDbEntity
  8
1
  100
AcDbLine
  10
3.98204
  20
-0.468591
  30
0
  11
3.98904
  21
-0.470279
  31
0
  0
LINE
  5
386
  100
AcDbEntity
  8
1
  100
AcDbLine
  10
3.98904
  20
-0.470279
  30
0
  11
3.99604
  21
-0.471921
  31
0
  0
LINE
  5
387
  100
AcDbEntity
  8
1
  100
AcDbLine
  10
3.99604
  20
-0.471921
  30
0
  11
4.00304
  21
-0.473518
  31
0
  0
LINE
  5
388
  100
AcDbEntity
  8
1
  100
AcDbLine
  10
4.00304
  20
-0.473518
  30
0
  11
4.01004
  21
-0.475069
  31
0
  0
LINE
  5
389
  100
AcDbEntity
  8
1
  100
AcDbLine
  10
4.01004
  20
-0.475069
  30
0
  11
4.01704
  21
-0.476574
  31
0
  0
LINE
  5
38a
  100
AcDbEntity
  8
1
  100
AcDbLine
  10
4.01704
  20
-0.476574
  30
0
  11
4.02404
  21
-0.478034
  31
0
  0
LINE
  5
38b
  100
AcDbEntity
  8
1
  100
AcDbLine
  10
4.02404
  20
-0.478034
  30
0
  11
4.03104
  21
-0.479448
  31
0
  0
LINE
  5
38c
  100
AcDbEntity
  8
1
  100
AcDbLine
  10
4.03104
  20
-0.479448
  30
0
  11
4.03804
  21
-0.480816
  31
0
  0
LINE
  5
38d
  100
AcDbEntity
  8
1
  100
AcDbLine
  10
4.03804
  20
-0.480816
  30
0
  11
4.04504
  21
-0.482137
  31
0
  0
LINE
  5
38e
  100
AcDbEntity
  8
1
  100
AcDbLine
  10
4.04504
  20
-0.482137
  30
0
  11
4.05204
  21
-0.483413
  31
0
  0
LINE
  5
38f
  100
AcDbEntity
  8
1
  100
AcDbLine
  10
4.05204
  20
-0.483413
  30
0
  11
4.05904
  21
-0.484641
  31
0
  0
LINE
  5
390
  100
AcDbEntity
  8
1
  100
AcDbLine
  10
4.05904
  20
-0.484641
  30
0
  11
4.06604
  21
-0.485824
  31
0
  0
LINE
  5
391
  100
AcDbEntity
  8
1
  100
AcDbLine
  10
4.06604
  20
-0.485824
  30
0
  11
4.07304
  21
-0.486959
  31
0
  0
LINE
  5
392
  100
AcDbEntity
  8
1
  100
AcDbLine
  10
4.07304
  20
-0.486959
  30
0
  11
4.08004
  21
-0.488048
  31
0
  0
LINE
  5
393
  100
AcDbEntity
  8
1
  100
AcDbLine
  10
4.08004
  20
-0.488048
  30
0
  11
4.08704
  21
-0.48909
  31
0
  0
LINE
  5
394
  100
AcDbEntity
  8
1
  100
AcDbLine
  10
4.08704
  20
-0.48909
  30
0
  11
4.09404
  21
-0.490084
  31
0
  0
LINE
  5
395
  100
AcDbEntity
  8
1
  100
AcDbLine
  10
4.09404
  20
-0.490084
  30
0
  11
4.10104
  21
-0.491032
  31
0
  0
LINE
  5
396
  100
AcDbEntity
  8
1
  100
AcDbLine
  10
4.10104
  20
-0.491032
  30
0
  11
4.10804
  21
-0.491933
  31
0
  0
LINE
  5
397
  100
AcDbEntity
  8
1
  100
AcDbLine
  10
4.10804
  20
-0.491933
  30
0
  11
4.11504
  21
-0.492786
  31
0
  0
LINE
  5
398
  100
AcDbEntity
  8
1
  100
AcDbLine
  10
4.11504
  20
-0.492786
  30
0
  11
4.12204
  21
-0.493592
  31
0
  0
LINE
  5
399
  100
AcDbEntity
  8
1
  100
AcDbLine
  10
4.12204
  20
-0.493592
  30
0
  11
4.12904
  21
-0.49435
  31
0
  0
LINE
  5
39a
  100
AcDbEntity
  8
1
  100
AcDbLine
  10
4.12904
  20
-0.49435
  30
0
  11
4.13604
  21
-0.495061
  31
0
  0
LINE
  5
39b
  100
AcDbEntity
  8
1
  100
AcDbLine
  10
4.13604
  20
-0.495061
  30
0
  11
4.14304
  21
-0.495725
  31
0
  0
LINE
  5
39c
  100
AcDbEntity
  8
1
  100
AcDbLine
  10
4.14304
  20
-0.495725
  30
0
  11
4.15004
  21
-0.49634
  31
0
  0
LINE
  5
39d
  100
AcDbEntity
  8
1
  100
AcDbLine
  10
4.15004
  20
-0.49634
  30
0
  11
4.15704
  21
-0.496909
  31
0
  0
LINE
  5
39e
  100
AcDbEntity
  8
1
  100
AcDbLine
  10
4.15704
  20
-0.496909
  30
0
  11
4.16404
  21
-0.497429
  31
0
  0
LINE
  5
39f
  100
AcDbEntity
  8
1
  100
AcDbLine
  10
4.16404
  20
-0.497429
  30
0
  11
4.17104
  21
-0.497901
  31
0
  0
LINE
  5
3a0
  100
AcDbEntity
  8
1
  100
AcDbLine
  10
4.17104
  20
-0.497901
  30
0
  11
4.17804
  21
-0.498326
  31
0
  0
LINE
  5
3a1
  100
AcDbEntity
  8
1
  100
AcDbLine
  10
4.17804
  20
-0.498326
  30
0
  11
4.18504
  21
-0.498703
  31
0
  0
LINE
  5
3a2
  100
AcDbEntity
  8
1
  100
AcDbLine
  10
4.18504
  20
-0.498703
  30
0
  11
4.19204
  21
-0.499032
  31
0
  0
LINE
  5
3a3
  100
AcDbEntity
  8
1
  100
AcDbLine
  10
4.19204
  20
-0.499032
  30
0
  11
4.19904
  21
-0.499313
  31
0
  0
LINE
  5
3a4
  100
AcDbEntity
  8
1
  100
AcDbLine
  10
4.19904
  20
-0.499313
  30
0
  11
4.20604
  21
-0.499546
  31
0
  0
LINE
  5
3a5
  100
AcDbEntity
  8
1
  100
AcDbLine
  10
4.20604
  20
-0.499546
  30
0
  11
4.21304
  21
-0.49973
  31
0
  0
LINE
  5
3a6
  100
AcDbEntity
  8
1
  100
AcDbLine
  10
4.21304
  20
-0.49973
  30
0
  11
4.22004
  21
-0.499867
  31
0
  0
LINE
  5
3a7
  100
AcDbEntity
  8
1
  100
AcDbLine
  10
4.22004
  20
-0.499867
  30
0
  11
4.22704
  21
-0.499956
  31
0
  0
LINE
  5
3a8
  100
AcDbEntity
  8
1
  100
AcDbLine
  10
4.22704
  20
-0.499956
  30
0
  11
4.23404
  21
-0.499997
  31
0
  0
LINE
  5
3a9
  100
AcDbEntity
  8
1
  100
AcDbLine
  10
4.23404
  20
-0.499997
  30
0
  11
4.236486
  21
-0.5
  31
0
  0
LINE
  5
3aa
  100
AcDbEntity
  8
1
  100
AcDbLine
  10
3.887524
  20
0.5
  30
0
  11
3.89104
  21
0.499994
  31
0
  0
LINE
  5
3ab
  100
AcDbEntity
  8
1
  100
AcDbLine
  10
3.89104
  20
0.499994
  30
0
  11
3.89804
  21
0.499946
  31
0
  0
LINE
  5
3ac
  100
AcDbEntity
  8
1
  100
AcDbLine
  10
3.89804
  20
0.499946
  30
0
  11
3.90504
  21
0.49985
  31
0
  0
LINE
  5
3ad
  100
AcDbEntity
  8
1
  100
AcDbLine
  10
3.90504
  20
0.49985
  30
0
  11
3.91204
  21
0.499705
  31
0
  0
LINE
  5
3ae
  100
AcDbEntity
  8
1
  100
AcDbLine
  10
3.91204
  20
0.499705
  30
0
  11
3.91904
  21
0.499513
  31
0
  0
LINE
  5
3af
  100
AcDbEntity
  8
1
  100
AcDbLine
  10
3.91904
  20
0.499513
  30
0
  11
3.92604
  21
0.499273
  31
0
  0
LINE
  5
3b0
  100
AcDbEntity
  8
1
  100
AcDbLine
  10
3.92604
  20
0.499273
  30
0
  11
3.93304
  21
0.498985
  31
0
  0
LINE
  5
3b1
  100
AcDbEntity
  8
1
  100
AcDbLine
  10
3.93304
  20
0.498985
  30
0
  11
3.94004
  21
0.498648
  31
0
  0
LINE
  5
3b2
  100
AcDbEntity
  8
1
  100
AcDbLine
  10
3.94004
  20
0.498648
  30
0
  11
3.94704
  21
0.498264
  31
0
  0
LINE
  5
3b3
  100
AcDbEntity
  8
1
  100
AcDbLine
  10
3.94704
  20
0.498264
  30
0
  11
3.95404
  21
0.497832
  31
0
  0
LINE
  5
3b4
  100
AcDbEntity
  8
1
  100
AcDbLine
  10
3.95404
  20
0.497832
  30
0
  11
3.96104
  21
0.497353
  31
0
  0
LINE
  5
3b5
  100
AcDbEntity
  8
1
  100
AcDbLine
  10
3.96104
  20
0.497353
  30
0
  11
3.96804
  21
0.496825
  31
0
  0
LINE
  5
3b6
  100
AcDbEntity
  8
1
  100
AcDbLine
  10
3.96804
  20
0.496825
  30
0
  11
3.97504
  21
0.49625
  31
0
  0
LINE
  5
3b7
  100
AcDbEntity
  8
1
  100
AcDbLine
  10
3.97504
  20
0.49625
  30
0
  11
3.98204
  21
0.495627
  31
0
  0
LINE
  5
3b8
  100
AcDbEntity
  8
1
  100
AcDbLine
  10
3.98204
  20
0.495627
  30
0
  11
3.98904
  21
0.494956
  31
0
  0
LINE
  5
3b9
  100
AcDbEntity
  8
1
  100
AcDbLine
  10
3.98904
  20
0.494956
  30
0
  11
3.99604
  21
0.494238
  31
0
  0
LINE
  5
3ba
  100
AcDbEntity
  8
1
  100
AcDbLine
  10
3.99604
  20
0.494238
  30
0
  11
4.00304
  21
0.493472
  31
0
  0
LINE
  5
3bb
  100
AcDbEntity
  8
1
  100
AcDbLine
  10
4.00304
  20
0.493472
  30
0
  11
4.01004
  21
0.492659
  31
0
  0
LINE
  5
3bc
  100
AcDbEntity
  8
1
  100
AcDbLine
  10
4.01004
  20
0.492659
  30
0
  11
4.01704
  21
0.491798
  31
0
  0
LINE
  5
3bd
  100
AcDbEntity
  8
1
  100
AcDbLine
  10
4.01704
  20
0.491798
  30
0
  11
4.02404
  21
0.490891
  31
0
  0
LINE
  5
3be
  100
AcDbEntity
  8
1
  100
AcDbLine
  10
4.02404
  20
0.490891
  30
0
  11
4.03104
  21
0.489936
  31
0
  0
LINE
  5
3bf
  100
AcDbEntity
  8
1
  100
AcDbLine
  10
4.03104
  20
0.489936
  30
0
  11
4.03804
  21
0.488934
  31
0
  0
LINE
  5
3c0
  100
AcDbEntity
  8
1
  100
AcDbLine
  10
4.03804
  20
0.488934
  30
0
  11
4.04504
  21
0.487885
  31
0
  0
LINE
  5
3c1
  100
AcDbEntity
  8
1
  100
AcDbLine
  10
4.04504
  20
0.487885
  30
0
  11
4.05204
  21
0.486789
  31
0
  0
LINE
  5
3c2
  100
AcDbEntity
  8
1
  100
AcDbLine
  10
4.05204
  20
0.486789
  30
0
  11
4.05904
  21
0.485646
  31
0
  0
LINE
  5
3c3
  100
AcDbEntity
  8
1
  100
AcDbLine
  10
4.05904
  20
0.485646
  30
0
  11
4.06604
  21
0.484457
  31
0
  0
LINE
  5
3c4
  100
AcDbEntity
  8
1
  100
AcDbLine
  10
4.06604
  20
0.484457
  30
0
  11
4.07304
  21
0.483221
  31
0
  0
LINE
  5
3c5
  100
AcDbEntity
  8
1
  100
AcDbLine
  10
4.07304
  20
0.483221
  30
0
  11
4.08004
  21
0.481939
  31
0
  0
LINE
  5
3c6
  100
AcDbEntity
  8
1
  100
AcDbLine
  10
4.08004
  20
0.481939
  30
0
  11
4.08704
  21
0.48061
  31
0
  0
LINE
  5
3c7
  100
AcDbEntity
  8
1
  100
AcDbLine
  10
4.08704
  20
0.48061
  30
0
  11
4.09404
  21
0.479235
  31
0
  0
LINE
  5
3c8
  100
AcDbEntity
  8
1
  100
AcDbLine
  10
4.09404
  20
0.479235
  30
0
  11
4.10104
  21
0.477814
  31
0
  0
LINE
  5
3c9
  100
AcDbEntity
  8
1
  100
AcDbLine
  10
4.10104
  20
0.477814
  30
0
  11
4.10804
  21
0.476347
  31
0
  0
LINE
  5
3ca
  100
AcDbEntity
  8
1
  100
AcDbLine
  10
4.10804
  20
0.476347
  30
0
  11
4.11504
  21
0.474835
  31
0
  0
LINE
  5
3cb
  100
AcDbEntity
  8
1
  100
AcDbLine
  10
4.11504
  20
0.474835
  30
0
  11
4.12204
  21
0.473277
  31
0
  0
LINE
  5
3cc
  100
AcDbEntity
  8
1
  100
AcDbLine
  10
4.12204
  20
0.473277
  30
0
  11
4.12904
  21
0.471673
  31
0
  0
LINE
  5
3cd
  100
AcDbEntity
  8
1
  100
AcDbLine
  10
4.12904
  20
0.471673
  30
0
  11
4.13604
  21
0.470024
  31
0
  0
LINE
  5
3ce
  100
AcDbEntity
  8
1
  100
AcDbLine
  10
4.13604
  20
0.470024
  30
0
  11
4.14304
  21
0.46833
  31
0
  0
LINE
  5
3cf
  100
AcDbEntity
  8
1
  100
AcDbLine
  10
4.14304
  20
0.46833
  30
0
  11
4.15004
  21
0.466591
  31
0
  0
LINE
  5
3d0
  100
AcDbEntity
  8
1
  100
AcDbLine
  10
4.15004
  20
0.466591
  30
0
  11
4.15704
  21
0.464807
  31
0
  0
LINE
  5
3d1
  100
AcDbEntity
  8
1
  100
AcDbLine
  10
4.15704
  20
0.464807
  30
0
  11
4.16404
  21
0.462978
  31
0
  0
LINE
  5
3d2
  100
AcDbEntity
  8
1
  100
AcDbLine
  10
4.16404
  20
0.462978
  30
0
  11
4.17104
  21
0.461105
  31
0
  0
LINE
  5
3d3
  100
AcDbEntity
  8
1
  100
AcDbLine
  10
4.17104
  20
0.461105
  30
0
  11
4.17804
  21
0.459187
  31
0
  0
LINE
  5
3d4
  100
AcDbEntity
  8
1
  100
AcDbLine
  10
4.17804
  20
0.459187
  30
0
  11
4.18504
  21
0.457226
  31
0
  0
LINE
  5
3d5
  100
AcDbEntity
  8
1
  100
AcDbLine
  10
4.18504
  20
0.457226
  30
0
  11
4.19204
  21
0.45522
  31
0
  0
LINE
  5
3d6
  100
AcDbEntity
  8
1
  100
AcDbLine
  10
4.19204
  20
0.45522
  30
0
  11
4.19904
  21
0.453171
  31
0
  0
LINE
  5
3d7
  100
AcDbEntity
  8
1
  100
AcDbLine
  10
4.19904
  20
0.453171
  30
0
  11
4.20604
  21
0.451078
  31
0
  0
LINE
  5
3d8
  100
AcDbEntity
  8
1
  100
AcDbLine
  10
4.20604
  20
0.451078
  30
0
  11
4.21304
  21
0.448942
  31
0
  0
LINE
  5
3d9
  100
AcDbEntity
  8
1
  100
AcDbLine
  10
4.21304
  20
0.448942
  30
0
  11
4.22004
  21
0.446763
  31
0
  0
LINE
  5
3da
  100
AcDbEntity
  8
1
  100
AcDbLine
  10
4.22004
  20
0.446763
  30
0
  11
4.22704
  21
0.444541
  31
0
  0
LINE
  5
3db
  100
AcDbEntity
  8
1
  100
AcDbLine
  10
4.22704
  20
0.444541
  30
0
  11
4.23404
  21
0.442276
  31
0
  0
LINE
  5
3dc
  100
AcDbEntity
  8
1
  100
AcDbLine
  10
4.23404
  20
0.442276
  30
0
  11
4.24104
  21
0.439968
  31
0
  0
LINE
  5
3dd
  100
AcDbEntity
  8
1
  100
AcDbLine
  10
4.24104
  20
0.439968
  30
0
  11
4.24804
  21
0.437618
  31
0
  0
LINE
  5
3de
  100
AcDbEntity
  8
1
  100
AcDbLine
  10
4.24804
  20
0.437618
  30
0
  11
4.25504
  21
0.435227
  31
0
  0
LINE
  5
3df
  100
AcDbEntity
  8
1
  100
AcDbLine
  10
4.25504
  20
0.435227
  30
0
  11
4.26204
  21
0.432793
  31
0
  0
LINE
  5
3e0
  100
AcDbEntity
  8
1
  100
AcDbLine
  10
4.26204
  20
0.432793
  30
0
  11
4.26904
  21
0.430318
  31
0
  0
LINE
  5
3e1
  100
AcDbEntity
  8
1
  100
AcDbLine
  10
4.26904
  20
0.430318
  30
0
  11
4.27604
  21
0.427801
  31
0
  0
LINE
  5
3e2
  100
AcDbEntity
  8
1
  100
AcDbLine
  10
4.27604
  20
0.427801
  30
0
  11
4.28304
  21
0.425244
  31
0
  0
LINE
  5
3e3
  100
AcDbEntity
  8
1
  100
AcDbLine
  10
4.28304
  20
0.425244
  30
0
  11
4.29004
  21
0.422645
  31
0
  0
LINE
  5
3e4
  100
AcDbEntity
  8
1
  100
AcDbLine
  10
4.29004
  20
0.422645
  30
0
  11
4.29704
  21
0.420006
  31
0
  0
LINE
  5
3e5
  100
AcDbEntity
  8
1
  100
AcDbLine
  10
4.29704
  20
0.420006
  30
0
  11
4.30404
  21
0.417326
  31
0
  0
LINE
  5
3e6
  100
AcDbEntity
  8
1
  100
AcDbLine
  10
4.30404
  20
0.417326
  30
0
  11
4.31104
  21
0.414607
  31
0
  0
LINE
  5
3e7
  100
AcDbEntity
  8
1
  100
AcDbLine
  10
4.31104
  20
0.414607
  30
0
  11
4.31804
  21
0.411847
  31
0
  0
LINE
  5
3e8
  100
AcDbEntity
  8
1
  100
AcDbLine
  10
4.31804
  20
0.411847
  30
0
  11
4.32504
  21
0.409048
  31
0
  0
LINE
  5
3e9
  100
AcDbEntity
  8
1
  100
AcDbLine
  10
4.32504
  20
0.409048
  30
0
  11
4.33204
  21
0.40621
  31
0
  0
LINE
  5
3ea
  100
AcDbEntity
  8
1
  100
AcDbLine
  10
4.33204
  20
0.40621
  30
0
  11
4.33904
  21
0.403332
  31
0
  0
LINE
  5
3eb
  100
AcDbEntity
  8
1
  100
AcDbLine
  10
4.33904
  20
0.403332
  30
0
  11
4.34604
  21
0.400416
  31
0
  0
LINE
  5
3ec
  100
AcDbEntity
  8
1
  100
AcDbLine
  10
4.34604
  20
0.400416
  30
0
  11
4.35304
  21
0.397462
  31
0
  0
LINE
  5
3ed
  100
AcDbEntity
  8
1
  100
AcDbLine
  10
4.35304
  20
0.397462
  30
0
  11
4.36004
  21
0.394469
  31
0
  0
LINE
  5
3ee
  100
AcDbEntity
  8
1
  100
AcDbLine
  10
4.36004
  20
0.394469
  30
0
  11
4.36704
  21
0.391438
  31
0
  0
LINE
  5
3ef
  100
AcDbEntity
  8
1
  100
AcDbLine
  10
4.36704
  20
0.391438
  30
0
  11
4.37404
  21
0.38837
  31
0
  0
LINE
  5
3f0
  100
AcDbEntity
  8
1
  100
AcDbLine
  10
4.37404
  20
0.38837
  30
0
  11
4.38104
  21
0.385264
  31
0
  0
LINE
  5
3f1
  100
AcDbEntity
  8
1
  100
AcDbLine
  10
4.38104
  20
0.385264
  30
0
  11
4.38804
  21
0.382122
  31
0
  0
LINE
  5
3f2
  100
AcDbEntity
  8
1
  100
AcDbLine
  10
4.38804
  20
0.382122
  30
0
  11
4.39504
  21
0.378942
  31
0
  0
LINE
  5
3f3
  100
AcDbEntity
  8
1
  100
AcDbLine
  10
4.39504
  20
0.378942
  30
0
  11
4.40204
  21
0.375726
  31
0
  0
LINE
  5
3f4
  100
AcDbEntity
  8
1
  100
AcDbLine
  10
4.40204
  20
0.375726
  30
0
  11
4.40904
  21
0.372474
  31
0
  0
LINE
  5
3f5
  100
AcDbEntity
  8
1
  100
AcDbLine
  10
4.40904
  20
0.372474
  30
0
  11
4.41604
  21
0.369187
  31
0
  0
LINE
  5
3f6
  100
AcDbEntity
  8
1
  100
AcDbLine
  10
4.41604
  20
0.369187
  30
0
  11
4.42304
  21
0.365864
  31
0
  0
LINE
  5
3f7
  100
AcDbEntity
  8
1
  100
AcDbLine
  10
4.42304
  20
0.365864
  30
0
  11
4.43004
  21
0.362505
  31
0
  0
LINE
  5
3f8
  100
AcDbEntity
  8
1
  100
AcDbLine
  10
4.43004
  20
0.362505
  30
0
  11
4.43704
  21
0.359112
  31
0
  0
LINE
  5
3f9
  100
AcDbEntity
  8
1
  100
AcDbLine
  10
4.43704
  20
0.359112
  30
0
  11
4.44404
  21
0.355684
  31
0
  0
LINE
  5
3fa
  100
AcDbEntity
  8
1
  100
AcDbLine
  10
4.44404
  20
0.355684
  30
0
  11
4.45104
  21
0.352222
  31
0
  0
LINE
  5
3fb
  100
AcDbEntity
  8
1
  100
AcDbLine
  10
4.45104
  20
0.352222
  30
0
  11
4.45804
  21
0.348727
  31
0
  0
LINE
  5
3fc
  100
AcDbEntity
  8
1
  100
AcDbLine
  10
4.45804
  20
0.348727
  30
0
  11
4.46504
  21
0.345198
  31
0
  0
LINE
  5
3fd
  100
AcDbEntity
  8
1
  100
AcDbLine
  10
4.46504
  20
0.345198
  30
0
  11
4.47204
  21
0.341635
  31
0
  0
LINE
  5
3fe
  100
AcDbEntity
  8
1
  100
AcDbLine
  10
4.47204
  20
0.341635
  30
0
  11
4.47904
  21
0.33804
  31
0
  0
LINE
  5
3ff
  100
AcDbEntity
  8
1
  100
AcDbLine
  10
4.47904
  20
0.33804
  30
0
  11
4.48604
  21
0.334412
  31
0
  0
LINE
  5
400
  100
AcDbEntity
  8
1
  100
AcDbLine
  10
4.48604
  20
0.334412
  30
0
  11
4.49304
  21
0.330752
  31
0
  0
LINE
  5
401
  100
AcDbEntity
  8
1
  100
AcDbLine
  10
4.49304
  20
0.330752
  30
0
  11
4.50004
  21
0.327061
  31
0
  0
LINE
  5
402
  100
AcDbEntity
  8
1
  100
AcDbLine
  10
4.50004
  20
0.327061
  30
0
  11
4.50704
  21
0.323338
  31
0
  0
LINE
  5
403
  100
AcDbEntity
  8
1
  100
AcDbLine
  10
4.50704
  20
0.323338
  30
0
  11
4.51404
  21
0.319583
  31
0
  0
LINE
  5
404
  100
AcDbEntity
  8
1
  100
AcDbLine
  10
4.51404
  20
0.319583
  30
0
  11
4.52104
  21
0.315799
  31
0
  0
LINE
  5
405
  100
AcDbEntity
  8
1
  100
AcDbLine
  10
4.52104
  20
0.315799
  30
0
  11
4.52804
  21
0.311983
  31
0
  0
LINE
  5
406
  100
AcDbEntity
  8
1
  100
AcDbLine
  10
4.52804
  20
0.311983
  30
0
  11
4.53504
  21
0.308138
  31
0
  0
LINE
  5
407
  100
AcDbEntity
  8
1
  100
AcDbLine
  10
4.53504
  20
0.308138
  30
0
  11
4.54204
  21
0.304263
  31
0
  0
LINE
  5
408
  100
AcDbEntity
  8
1
  100
AcDbLine
  10
4.54204
  20
0.304263
  30
0
  11
4.54904
  21
0.300359
  31
0
  0
LINE
  5
409
  100
AcDbEntity
  8
1
  100
AcDbLine
  10
4.54904
  20
0.300359
  30
0
  11
4.55604
  21
0.296427
  31
0
  0
LINE
  5
40a
  100
AcDbEntity
  8
1
  100
AcDbLine
  10
4.55604
  20
0.296427
  30
0
  11
4.56304
  21
0.292465
  31
0
  0
LINE
  5
40b
  100
AcDbEntity
  8
1
  100
AcDbLine
  10
4.56304
  20
0.292465
  30
0
  11
4.57004
  21
0.288476
  31
0
  0
LINE
  5
40c
  100
AcDbEntity
  8
1
  100
AcDbLine
  10
4.57004
  20
0.288476
  30
0
  11
4.57704
  21
0.284459
  31
0
  0
LINE
  5
40d
  100
AcDbEntity
  8
1
  100
AcDbLine
  10
4.57704
  20
0.284459
  30
0
  11
4.58404
  21
0.280414
  31
0
  0
LINE
  5
40e
  100
AcDbEntity
  8
1
  100
AcDbLine
  10
4.58404
  20
0.280414
  30
0
  11
4.59104
  21
0.276343
  31
0
  0
LINE
  5
40f
  100
AcDbEntity
  8
1
  100
AcDbLine
  10
4.59104
  20
0.276343
  30
0
  11
4.59804
  21
0.272244
  31
0
  0
LINE
  5
410
  100
AcDbEntity
  8
1
  100
AcDbLine
  10
4.59804
  20
0.272244
  30
0
  11
4.60504
  21
0.26812
  31
0
  0
LINE
  5
411
  100
AcDbEntity
  8
1
  100
AcDbLine
  10
4.60504
  20
0.26812
  30
0
  11
4.61204
  21
0.26397
  31
0
  0
LINE
  5
412
  100
AcDbEntity
  8
1
  100
AcDbLine
  10
4.61204
  20
0.26397
  30
0
  11
4.61904
  21
0.259795
  31
0
  0
LINE
  5
413
  100
AcDbEntity
  8
1
  100
AcDbLine
  10
4.61904
  20
0.259795
  30
0
  11
4.62604
  21
0.255595
  31
0
  0
LINE
  5
414
  100
AcDbEntity
  8
1
  100
AcDbLine
  10
4.62604
  20
0.255595
  30
0
  11
4.63304
  21
0.25137
  31
0
  0
LINE
  5
415
  100
AcDbEntity
  8
1
  100
AcDbLine
  10
4.63304
  20
0.25137
  30
0
  11
4.64004
  21
0.247121
  31
0
  0
LINE
  5
416
  100
AcDbEntity
  8
1
  100
AcDbLine
  10
4.64004
  20
0.247121
  30
0
  11
4.64704
  21
0.242848
  31
0
  0
LINE
  5
417
  100
AcDbEntity
  8
1
  100
AcDbLine
  10
4.64704
  20
0.242848
  30
0
  11
4.65404
  21
0.238552
  31
0
  0
LINE
  5
418
  100
AcDbEntity
  8
1
  100
AcDbLine
  10
4.65404
  20
0.238552
  30
0
  11
4.66104
  21
0.234233
  31
0
  0
LINE
  5
419
  100
AcDbEntity
  8
1
  100
AcDbLine
  10
4.66104
  20
0.234233
  30
0
  11
4.66804
  21
0.229891
  31
0
  0
LINE
  5
41a
  100
AcDbEntity
  8
1
  100
AcDbLine
  10
4.66804
  20
0.229891
  30
0
  11
4.67504
  21
0.225528
  31
0
  0
LINE
  5
41b
  100
AcDbEntity
  8
1
  100
AcDbLine
  10
4.67504
  20
0.225528
  30
0
  11
4.68204
  21
0.221143
  31
0
  0
LINE
  5
41c
  100
AcDbEntity
  8
1
  100
AcDbLine
  10
4.68204
  20
0.221143
  30
0
  11
4.68904
  21
0.216736
  31
0
  0
LINE
  5
41d
  100
AcDbEntity
  8
1
  100
AcDbLine
  10
4.68904
  20
0.216736
  30
0
  11
4.69604
  21
0.212309
  31
0
  0
LINE
  5
41e
  100
AcDbEntity
  8
1
  100
AcDbLine
  10
4.69604
  20
0.212309
  30
0
  11
4.70304
  21
0.207861
  31
0
  0
LINE
  5
41f
  100
AcDbEntity
  8
1
  100
AcDbLine
  10
4.70304
  20
0.207861
  30
0
  11
4.71004
  21
0.203393
  31
0
  0
LINE
  5
420
  100
AcDbEntity
  8
1
  100
AcDbLine
  10
4.71004
  20
0.203393
  30
0
  11
4.71704
  21
0.198906
  31
0
  0
LINE
  5
421
  100
AcDbEntity
  8
1
  100
AcDbLine
  10
4.71704
  20
0.198906
  30
0
  11
4.72404
  21
0.194399
  31
0
  0
LINE
  5
422
  100
AcDbEntity
  8
1
  100
AcDbLine
  10
4.72404
  20
0.194399
  30
0
  11
4.73104
  21
0.189874
  31
0
  0
LINE
  5
423
  100
AcDbEntity
  8
1
  100
AcDbLine
  10
4.73104
  20
0.189874
  30
0
  11
4.73804
  21
0.185331
  31
0
  0
LINE
  5
424
  100
AcDbEntity
  8
1
  100
AcDbLine
  10
4.73804
  20
0.185331
  30
0
  11
4.74504
  21
0.18077
  31
0
  0
LINE
  5
425
  100
AcDbEntity
  8
1
  100
AcDbLine
  10
4.74504
  20
0.18077
  30
0
  11
4.75204
  21
0.176191
  31
0
  0
LINE
  5
426
  100
AcDbEntity
  8
1
  100
AcDbLine
  10
4.75204
  20
0.176191
  30
0
  11
4.75904
  21
0.171596
  31
0
  0
LINE
  5
427
  100
AcDbEntity
  8
1
  100
AcDbLine
  10
4.75904
  20
0.171596
  30
0
  11
4.76604
  21
0.166984
  31
0
  0
LINE
  5
428
  100
AcDbEntity
  8
1
  100
AcDbLine
  10
4.76604
  20
0.166984
  30
0
  11
4.77304
  21
0.162356
  31
0
  0
LINE
  5
429
  100
AcDbEntity
  8
1
  100
AcDbLine
  10
4.77304
  20
0.162356
  30
0
  11
4.78004
  21
0.157712
  31
0
  0
LINE
  5
42a
  100
AcDbEntity
  8
1
  100
AcDbLine
  10
4.78004
  20
0.157712
  30
0
  11
4.78704
  21
0.153054
  31
0
  0
LINE
  5
42b
  100
AcDbEntity
  8
1
  100
AcDbLine
  10
4.78704
  20
0.153054
  30
0
  11
4.79404
  21
0.14838
  31
0
  0
LINE
  5
42c
  100
AcDbEntity
  8
1
  100
AcDbLine
  10
4.79404
  20
0.14838
  30
0
  11
4.80104
  21
0.143692
  31
0
  0
LINE
  5
42d
  100
AcDbEntity
  8
1
  100
AcDbLine
  10
4.80104
  20
0.143692
  30
0
  11
4.80804
  21
0.138991
  31
0
  0
LINE
  5
42e
  100
AcDbEntity
  8
1
  100
AcDbLine
  10
4.80804
  20
0.138991
  30
0
  11
4.81504
  21
0.134276
  31
0
  0
LINE
  5
42f
  100
AcDbEntity
  8
1
  100
AcDbLine
  10
4.81504
  20
0.134276
  30
0
  11
4.82204
  21
0.129548
  31
0
  0
LINE
  5
430
  100
AcDbEntity
  8
1
  100
AcDbLine
  10
4.82204
  20
0.129548
  30
0
  11
4.82904
  21
0.124808
  31
0
  0
LINE
  5
431
  100
AcDbEntity
  8
1
  100
AcDbLine
  10
4.82904
  20
0.124808
  30
0
  11
4.83604
  21
0.120056
  31
0
  0
LINE
  5
432
  100
AcDbEntity
  8
1
  100
AcDbLine
  10
4.83604
  20
0.120056
  30
0
  11
4.84304
  21
0.115292
  31
0
  0
LINE
  5
433
  100
AcDbEntity
  8
1
  100
AcDbLine
  10
4.84304
  20
0.115292
  30
0
  11
4.85004
  21
0.110517
  31
0
  0
LINE
  5
434
  100
AcDbEntity
  8
1
  100
AcDbLine
  10
4.85004
  20
0.110517
  30
0
  11
4.85704
  21
0.105732
  31
0
  0
LINE
  5
435
  100
AcDbEntity
  8
1
  100
AcDbLine
  10
4.85704
  20
0.105732
  30
0
  11
4.86404
  21
0.100936
  31
0
  0
LINE
  5
436
  100
AcDbEntity
  8
1
  100
AcDbLine
  10
4.86404
  20
0.100936
  30
0
  11
4.87104
  21
0.096131
  31
0
  0
LINE
  5
437
  100
AcDbEntity
  8
1
  100
AcDbLine
  10
4.87104
  20
0.096131
  30
0
  11
4.87804
  21
0.091316
  31
0
  0
LINE
  5
438
  100
AcDbEntity
  8
1
  100
AcDbLine
  10
4.87804
  20
0.091316
  30
0
  11
4.88504
  21
0.086493
  31
0
  0
LINE
  5
439
  100
AcDbEntity
  8
1
  100
AcDbLine
  10
4.88504
  20
0.086493
  30
0
  11
4.89204
  21
0.081661
  31
0
  0
LINE
  5
43a
  100
AcDbEntity
  8
1
  100
AcDbLine
  10
4.89204
  20
0.081661
  30
0
  11
4.89904
  21
0.076822
  31
0
  0
LINE
  5
43b
  100
AcDbEntity
  8
1
  100
AcDbLine
  10
4.89904
  20
0.076822
  30
0
  11
4.90604
  21
0.071975
  31
0
  0
LINE
  5
43c
  100
AcDbEntity
  8
1
  100
AcDbLine
  10
4.90604
  20
0.071975
  30
0
  11
4.91304
  21
0.067121
  31
0
  0
LINE
  5
43d
  100
AcDbEntity
  8
1
  100
AcDbLine
  10
4.91304
  20
0.067121
  30
0
  11
4.92004
  21
0.062261
  31
0
  0
LINE
  5
43e
  100
AcDbEntity
  8
1
  100
AcDbLine
  10
4.92004
  20
0.062261
  30
0
  11
4.92704
  21
0.057395
  31
0
  0
LINE
  5
43f
  100
AcDbEntity
  8
1
  100
AcDbLine
  10
4.92704
  20
0.057395
  30
0
  11
4.93404
  21
0.052523
  31
0
  0
LINE
  5
440
  100
AcDbEntity
  8
1
  100
AcDbLine
  10
4.93404
  20
0.052523
  30
0
  11
4.94104
  21
0.047646
  31
0
  0
LINE
  5
441
  100
AcDbEntity
  8
1
  100
AcDbLine
  10
4.94104
  20
0.047646
  30
0
  11
4.94804
  21
0.042765
  31
0
  0
LINE
  5
442
  100
AcDbEntity
  8
1
  100
AcDbLine
  10
4.94804
  20
0.042765
  30
0
  11
4.95504
  21
0.037879
  31
0
  0
LINE
  5
443
  100
AcDbEntity
  8
1
  100
AcDbLine
  10
4.95504
  20
0.037879
  30
0
  11
4.96204
  21
0.03299
  31
0
  0
LINE
  5
444
  100
AcDbEntity
  8
1
  100
AcDbLine
  10
4.96204
  20
0.03299
  30
0
  11
4.96904
  21
0.028098
  31
0
  0
LINE
  5
445
  100
AcDbEntity
  8
1
  100
AcDbLine
  10
4.96904
  20
0.028098
  30
0
  11
4.97604
  21
0.023203
  31
0
  0
LINE
  5
446
  100
AcDbEntity
  8
1
  100
AcDbLine
  10
4.97604
  20
0.023203
  30
0
  11
4.98304
  21
0.018306
  31
0
  0
LINE
  5
447
  100
AcDbEntity
  8
1
  100
AcDbLine
  10
4.98304
  20
0.018306
  30
0
  11
4.99004
  21
0.013407
  31
0
  0
LINE
  5
448
  100
AcDbEntity
  8
1
  100
AcDbLine
  10
4.99004
  20
0.013407
  30
0
  11
4.99704
  21
0.008507
  31
0
  0
LINE
  5
449
  100
AcDbEntity
  8
1
  100
AcDbLine
  10
4.99704
  20
0.008507
  30
0
  11
5.00404
  21
0.003606
  31
0
  0
LINE
  5
44a
  100
AcDbEntity
  8
1
  100
AcDbLine
  10
5.00404
  20
0.003606
  30
0
  11
5.01104
  21
-0.001296
  31
0
  0
LINE
  5
44b
  100
AcDbEntity
  8
1
  100
AcDbLine
  10
5.01104
  20
-0.001296
  30
0
  11
5.01804
  21
-0.006197
  31
0
  0
LINE
  5
44c
  100
AcDbEntity
  8
1
  100
AcDbLine
  10
5.01804
  20
-0.006197
  30
0
  11
5.02504
  21
-0.011098
  31
0
  0
LINE
  5
44d
  100
AcDbEntity
  8
1
  100
AcDbLine
  10
5.02504
  20
-0.011098
  30
0
  11
5.03204
  21
-0.015997
  31
0
  0
LINE
  5
44e
  100
AcDbEntity
  8
1
  100
AcDbLine
  10
5.03204
  20
-0.015997
  30
0
  11
5.03904
  21
-0.020896
  31
0
  0
LINE
  5
44f
  100
AcDbEntity
  8
1
  100
AcDbLine
  10
5.03904
  20
-0.020896
  30
0
  11
5.04604
  21
-0.025792
  31
0
  0
LINE
  5
450
  100
AcDbEntity
  8
1
  100
AcDbLine
  10
5.04604
  20
-0.025792
  30
0
  11
5.05304
  21
-0.030685
  31
0
  0
LINE
  5
451
  100
AcDbEntity
  8
1
  100
AcDbLine
  10
5.05304
  20
-0.030685
  30
0
  11
5.06004
  21
-0.035576
  31
0
  0
LINE
  5
452
  100
AcDbEntity
  8
1
  100
AcDbLine
  10
5.06004
  20
-0.035576
  30
0
  11
5.06704
  21
-0.040463
  31
0
  0
LINE
  5
453
  100
AcDbEntity
  8
1
  100
AcDbLine
  10
5.06704
  20
-0.040463
  30
0
  11
5.07404
  21
-0.045347
  31
0
  0
LINE
  5
454
  100
AcDbEntity
  8
1
  100
AcDbLine
  10
5.07404
  20
-0.045347
  30
0
  11
5.08104
  21
-0.050226
  31
0
  0
LINE
  5
455
  100
AcDbEntity
  8
1
  100
AcDbLine
  10
5.08104
  20
-0.050226
  30
0
  11
5.08804
  21
-0.0551
  31
0
  0
LINE
  5
456
  100
AcDbEntity
  8
1
  100
AcDbLine
  10
5.08804
  20
-0.0551
  30
0
  11
5.09504
  21
-0.059969
  31
0
  0
LINE
  5
457
  100
AcDbEntity
  8
1
  100
AcDbLine
  10
5.09504
  20
-0.059969
  30
0
  11
5.10204
  21
-0.064832
  31
0
  0
LINE
  5
458
  100
AcDbEntity
  8
1
  100
AcDbLine
  10
5.10204
  20
-0.064832
  30
0
  11
5.10904
  21
-0.069689
  31
0
  0
LINE
  5
459
  100
AcDbEntity
  8
1
  100
AcDbLine
  10
5.10904
  20
-0.069689
  30
0
  11
5.11604
  21
-0.074539
  31
0
  0
LINE
  5
45a
  100
AcDbEntity
  8
1
  100
AcDbLine
  10
5.11604
  20
-0.074539
  30
0
  11
5.12304
  21
-0.079382
  31
0
  0
LINE
  5
45b
  100
AcDbEntity
  8
1
  100
AcDbLine
  10
5.12304
  20
-0.079382
  30
0
  11
5.13004
  21
-0.084217
  31
0
  0
LINE
  5
45c
  100
AcDbEntity
  8
1
  100
AcDbLine
  10
5.13004
  20
-0.084217
  30
0
  11
5.13704
  21
-0.089044
  31
0
  0
LINE
  5
45d
  100
AcDbEntity
  8
1
  100
AcDbLine
  10
5.13704
  20
-0.089044
  30
0
  11
5.14404
  21
-0.093863
  31
0
  0
LINE
  5
45e
  100
AcDbEntity
  8
1
  100
AcDbLine
  10
5.14404
  20
-0.093863
  30
0
  11
5.15104
  21
-0.098673
  31
0
  0
LINE
  5
45f
  100
AcDbEntity
  8
1
  100
AcDbLine
  10
5.15104
  20
-0.098673
  30
0
  11
5.15804
  21
-0.103473
  31
0
  0
LINE
  5
460
  100
AcDbEntity
  8
1
  100
AcDbLine
  10
5.15804
  20
-0.103473
  30
0
  11
5.16504
  21
-0.108263
  31
0
  0
LINE
  5
461
  100
AcDbEntity
  8
1
  100
AcDbLine
  10
5.16504
  20
-0.108263
  30
0
  11
5.17204
  21
-0.113043
  31
0
  0
LINE
  5
462
  100
AcDbEntity
  8
1
  100
AcDbLine
  10
5.17204
  20
-0.113043
  30
0
  11
5.17904
  21
-0.117812
  31
0
  0
LINE
  5
463
  100
AcDbEntity
  8
1
  100
AcDbLine
  10
5.17904
  20
-0.117812
  30
0
  11
5.18604
  21
-0.12257
  31
0
  0
LINE
  5
464
  100
AcDbEntity
  8
1
  100
AcDbLine
  10
5.18604
  20
-0.12257
  30
0
  11
5.19304
  21
-0.127316
  31
0
  0
LINE
  5
465
  100
AcDbEntity
  8
1
  100
AcDbLine
  10
5.19304
  20
-0.127316
  30
0
  11
5.20004
  21
-0.13205
  31
0
  0
LINE
  5
466
  100
AcDbEntity
  8
1
  100
AcDbLine
  10
5.20004
  20
-0.13205
  30
0
  11
5.20704
  21
-0.136771
  31
0
  0
LINE
  5
467
  100
AcDbEntity
  8
1
  100
AcDbLine
  10
5.20704
  20
-0.136771
  30
0
  11
5.21404
  21
-0.141479
  31
0
  0
LINE
  5
468
  100
AcDbEntity
  8
1
  100
AcDbLine
  10
5.21404
  20
-0.141479
  30
0
  11
5.22104
  21
-0.146173
  31
0
  0
LINE
  5
469
  100
AcDbEntity
  8
1
  100
AcDbLine
  10
5.22104
  20
-0.146173
  30
0
  11
5.22804
  21
-0.150853
  31
0
  0
LINE
  5
46a
  100
AcDbEntity
  8
1
  100
AcDbLine
  10
5.22804
  20
-0.150853
  30
0
  11
5.23504
  21
-0.155519
  31
0
  0
LINE
  5
46b
  100
AcDbEntity
  8
1
  100
AcDbLine
  10
5.23504
  20
-0.155519
  30
0
  11
5.24204
  21
-0.16017
  31
0
  0
LINE
  5
46c
  100
AcDbEntity
  8
1
  100
AcDbLine
  10
5.24204
  20
-0.16017
  30
0
  11
5.24904
  21
-0.164805
  31
0
  0
LINE
  5
46d
  100
AcDbEntity
  8
1
  100
AcDbLine
  10
5.24904
  20
-0.164805
  30
0
  11
5.25604
  21
-0.169425
  31
0
  0
LINE
  5
46e
  100
AcDbEntity
  8
1
  100
AcDbLine
  10
5.25604
  20
-0.169425
  30
0
  11
5.26304
  21
-0.174028
  31
0
  0
LINE
  5
46f
  100
AcDbEntity
  8
1
  100
AcDbLine
  10
5.26304
  20
-0.174028
  30
0
  11
5.27004
  21
-0.178614
  31
0
  0
LINE
  5
470
  100
AcDbEntity
  8
1
  100
AcDbLine
  10
5.27004
  20
-0.178614
  30
0
  11
5.27704
  21
-0.183184
  31
0
  0
LINE
  5
471
  100
AcDbEntity
  8
1
  100
AcDbLine
  10
5.27704
  20
-0.183184
  30
0
  11
5.28404
  21
-0.187736
  31
0
  0
LINE
  5
472
  100
AcDbEntity
  8
1
  100
AcDbLine
  10
5.28404
  20
-0.187736
  30
0
  11
5.29104
  21
-0.192269
  31
0
  0
LINE
  5
473
  100
AcDbEntity
  8
1
  100
AcDbLine
  10
5.29104
  20
-0.192269
  30
0
  11
5.29804
  21
-0.196785
  31
0
  0
LINE
  5
474
  100
AcDbEntity
  8
1
  100
AcDbLine
  10
5.29804
  20
-0.196785
  30
0
  11
5.30504
  21
-0.201281
  31
0
  0
LINE
  5
475
  100
AcDbEntity
  8
1
  100
AcDbLine
  10
5.30504
  20
-0.201281
  30
0
  11
5.31204
  21
-0.205758
  31
0
  0
LINE
  5
476
  100
AcDbEntity
  8
1
  100
AcDbLine
  10
5.31204
  20
-0.205758
  30
0
  11
5.31904
  21
-0.210215
  31
0
  0
LINE
  5
477
  100
AcDbEntity
  8
1
  100
AcDbLine
  10
5.31904
  20
-0.210215
  30
0
  11
5.32604
  21
-0.214652
  31
0
  0
LINE
  5
478
  100
AcDbEntity
  8
1
  100
AcDbLine
  10
5.32604
  20
-0.214652
  30
0
  11
5.33304
  21
-0.219069
  31
0
  0
LINE
  5
479
  100
AcDbEntity
  8
1
  100
AcDbLine
  10
5.33304
  20
-0.219069
  30
0
  11
5.34004
  21
-0.223464
  31
0
  0
LINE
  5
47a
  100
AcDbEntity
  8
1
  100
AcDbLine
  10
5.34004
  20
-0.223464
  30
0
  11
5.34704
  21
-0.227838
  31
0
  0
LINE
  5
47b
  100
AcDbEntity
  8
1
  100
AcDbLine
  10
5.34704
  20
-0.227838
  30
0
  11
5.35404
  21
-0.23219
  31
0
  0
LINE
  5
47c
  100
AcDbEntity
  8
1
  100
AcDbLine
  10
5.35404
  20
-0.23219
  30
0
  11
5.36104
  21
-0.23652
  31
0
  0
LINE
  5
47d
  100
AcDbEntity
  8
1
  100
AcDbLine
  10
5.36104
  20
-0.23652
  30
0
  11
5.36804
  21
-0.240826
  31
0
  0
LINE
  5
47e
  100
AcDbEntity
  8
1
  100
AcDbLine
  10
5.36804
  20
-0.240826
  30
0
  11
5.37504
  21
-0.24511
  31
0
  0
LINE
  5
47f
  100
AcDbEntity
  8
1
  100
AcDbLine
  10
5.37504
  20
-0.24511
  30
0
  11
5.38204
  21
-0.249371
  31
0
  0
LINE
  5
480
  100
AcDbEntity
  8
1
  100
AcDbLine
  10
5.38204
  20
-0.249371
  30
0
  11
5.38904
  21
-0.253607
  31
0
  0
LINE
  5
481
  100
AcDbEntity
  8
1
  100
AcDbLine
  10
5.38904
  20
-0.253607
  30
0
  11
5.39604
  21
-0.257819
  31
0
  0
LINE
  5
482
  100
AcDbEntity
  8
1
  100
AcDbLine
  10
5.39604
  20
-0.257819
  30
0
  11
5.40304
  21
-0.262006
  31
0
  0
LINE
  5
483
  100
AcDbEntity
  8
1
  100
AcDbLine
  10
5.40304
  20
-0.262006
  30
0
  11
5.41004
  21
-0.266168
  31
0
  0
LINE
  5
484
  100
AcDbEntity
  8
1
  100
AcDbLine
  10
5.41004
  20
-0.266168
  30
0
  11
5.41704
  21
-0.270304
  31
0
  0
LINE
  5
485
  100
AcDbEntity
  8
1
  100
AcDbLine
  10
5.41704
  20
-0.270304
  30
0
  11
5.42404
  21
-0.274415
  31
0
  0
LINE
  5
486
  100
AcDbEntity
  8
1
  100
AcDbLine
  10
5.42404
  20
-0.274415
  30
0
  11
5.43104
  21
-0.278499
  31
0
  0
LINE
  5
487
  100
AcDbEntity
  8
1
  100
AcDbLine
  10
5.43104
  20
-0.278499
  30
0
  11
5.43804
  21
-0.282556
  31
0
  0
LINE
  5
488
  100
AcDbEntity
  8
1
  100
AcDbLine
  10
5.43804
  20
-0.282556
  30
0
  11
5.44504
  21
-0.286586
  31
0
  0
LINE
  5
489
  100
AcDbEntity
  8
1
  100
AcDbLine
  10
5.44504
  20
-0.286586
  30
0
  11
5.45204
  21
-0.290589
  31
0
  0
LINE
  5
48a
  100
AcDbEntity
  8
1
  100
AcDbLine
  10
5.45204
  20
-0.290589
  30
0
  11
5.45904
  21
-0.294563
  31
0
  0
LINE
  5
48b
  100
AcDbEntity
  8
1
  100
AcDbLine
  10
5.45904
  20
-0.294563
  30
0
  11
5.46604
  21
-0.29851
  31
0
  0
LINE
  5
48c
  100
AcDbEntity
  8
1
  100
AcDbLine
  10
5.46604
  20
-0.29851
  30
0
  11
5.47304
  21
-0.302427
  31
0
  0
LINE
  5
48d
  100
AcDbEntity
  8
1
  100
AcDbLine
  10
5.47304
  20
-0.302427
  30
0
  11
5.48004
  21
-0.306316
  31
0
  0
LINE
  5
48e
  100
AcDbEntity
  8
1
  100
AcDbLine
  10
5.48004
  20
-0.306316
  30
0
  11
5.48704
  21
-0.310175
  31
0
  0
LINE
  5
48f
  100
AcDbEntity
  8
1
  100
AcDbLine
  10
5.48704
  20
-0.310175
  30
0
  11
5.49404
  21
-0.314005
  31
0
  0
LINE
  5
490
  100
AcDbEntity
  8
1
  100
AcDbLine
  10
5.49404
  20
-0.314005
  30
0
  11
5.50104
  21
-0.317804
  31
0
  0
LINE
  5
491
  100
AcDbEntity
  8
1
  100
AcDbLine
  10
5.50104
  20
-0.317804
  30
0
  11
5.50804
  21
-0.321572
  31
0
  0
LINE
  5
492
  100
AcDbEntity
  8
1
  100
AcDbLine
  10
5.50804
  20
-0.321572
  30
0
  11
5.51504
  21
-0.32531
  31
0
  0
LINE
  5
493
  100
AcDbEntity
  8
1
  100
AcDbLine
  10
5.51504
  20
-0.32531
  30
0
  11
5.52204
  21
-0.329017
  31
0
  0
LINE
  5
494
  100
AcDbEntity
  8
1
  100
AcDbLine
  10
5.52204
  20
-0.329017
  30
0
  11
5.52904
  21
-0.332691
  31
0
  0
LINE
  5
495
  100
AcDbEntity
  8
1
  100
AcDbLine
  10
5.52904
  20
-0.332691
  30
0
  11
5.53604
  21
-0.336334
  31
0
  0
LINE
  5
496
  100
AcDbEntity
  8
1
  100
AcDbLine
  10
5.53604
  20
-0.336334
  30
0
  11
5.54304
  21
-0.339945
  31
0
  0
LINE
  5
497
  100
AcDbEntity
  8
1
  100
AcDbLine
  10
5.54304
  20
-0.339945
  30
0
  11
5.55004
  21
-0.343523
  31
0
  0
LINE
  5
498
  100
AcDbEntity
  8
1
  100
AcDbLine
  10
5.55004
  20
-0.343523
  30
0
  11
5.55704
  21
-0.347068
  31
0
  0
LINE
  5
499
  100
AcDbEntity
  8
1
  100
AcDbLine
  10
5.55704
  20
-0.347068
  30
0
  11
5.56404
  21
-0.350579
  31
0
  0
LINE
  5
49a
  100
AcDbEntity
  8
1
  100
AcDbLine
  10
5.56404
  20
-0.350579
  30
0
  11
5.57104
  21
-0.354057
  31
0
  0
LINE
  5
49b
  100
AcDbEntity
  8
1
  100
AcDbLine
  10
5.57104
  20
-0.354057
  30
0
  11
5.57804
  21
-0.357501
  31
0
  0
LINE
  5
49c
  100
AcDbEntity
  8
1
  100
AcDbLine
  10
5.57804
  20
-0.357501
  30
0
  11
5.58504
  21
-0.360911
  31
0
  0
LINE
  5
49d
  100
AcDbEntity
  8
1
  100
AcDbLine
  10
5.58504
  20
-0.360911
  30
0
  11
5.59204
  21
-0.364285
  31
0
  0
LINE
  5
49e
  100
AcDbEntity
  8
1
  100
AcDbLine
  10
5.59204
  20
-0.364285
  30
0
  11
5.59904
  21
-0.367625
  31
0
  0
LINE
  5
49f
  100
AcDbEntity
  8
1
  100
AcDbLine
  10
5.59904
  20
-0.367625
  30
0
  11
5.60604
  21
-0.37093
  31
0
  0
LINE
  5
4a0
  100
AcDbEntity
  8
1
  100
AcDbLine
  10
5.60604
  20
-0.37093
  30
0
  11
5.61304
  21
-0.374198
  31
0
  0
LINE
  5
4a1
  100
AcDbEntity
  8
1
  100
AcDbLine
  10
5.61304
  20
-0.374198
  30
0
  11
5.62004
  21
-0.377431
  31
0
  0
LINE
  5
4a2
  100
AcDbEntity
  8
1
  100
AcDbLine
  10
5.62004
  20
-0.377431
  30
0
  11
5.62704
  21
-0.380628
  31
0
  0
LINE
  5
4a3
  100
AcDbEntity
  8
1
  100
AcDbLine
  10
5.62704
  20
-0.380628
  30
0
  11
5.63404
  21
-0.383788
  31
0
  0
LINE
  5
4a4
  100
AcDbEntity
  8
1
  100
AcDbLine
  10
5.63404
  20
-0.383788
  30
0
  11
5.64104
  21
-0.386911
  31
0
  0
LINE
  5
4a5
  100
AcDbEntity
  8
1
  100
AcDbLine
  10
5.64104
  20
-0.386911
  30
0
  11
5.64804
  21
-0.389997
  31
0
  0
LINE
  5
4a6
  100
AcDbEntity
  8
1
  100
AcDbLine
  10
5.64804
  20
-0.389997
  30
0
  11
5.65504
  21
-0.393045
  31
0
  0
LINE
  5
4a7
  100
AcDbEntity
  8
1
  100
AcDbLine
  10
5.65504
  20
-0.393045
  30
0
  11
5.66204
  21
-0.396056
  31
0
  0
LINE
  5
4a8
  100
AcDbEntity
  8
1
  100
AcDbLine
  10
5.66204
  20
-0.396056
  30
0
  11
5.66904
  21
-0.399029
  31
0
  0
LINE
  5
4a9
  100
AcDbEntity
  8
1
  100
AcDbLine
  10
5.66904
  20
-0.399029
  30
0
  11
5.67604
  21
-0.401963
  31
0
  0
LINE
  5
4aa
  100
AcDbEntity
  8
1
  100
AcDbLine
  10
5.67604
  20
-0.401963
  30
0
  11
5.68304
  21
-0.404859
  31
0
  0
LINE
  5
4ab
  100
AcDbEntity
  8
1
  100
AcDbLine
  10
5.68304
  20
-0.404859
  30
0
  11
5.69004
  21
-0.407716
  31
0
  0
LINE
  5
4ac
  100
AcDbEntity
  8
1
  100
AcDbLine
  10
5.69004
  20
-0.407716
  30
0
  11
5.69704
  21
-0.410533
  31
0
  0
LINE
  5
4ad
  100
AcDbEntity
  8
1
  100
AcDbLine
  10
5.69704
  20
-0.410533
  30
0
  11
5.70404
  21
-0.413311
  31
0
  0
LINE
  5
4ae
  100
AcDbEntity
  8
1
  100
AcDbLine
  10
5.70404
  20
-0.413311
  30
0
  11
5.71104
  21
-0.41605
  31
0
  0
LINE
  5
4af
  100
AcDbEntity
  8
1
  100
AcDbLine
  10
5.71104
  20
-0.41605
  30
0
  11
5.71804
  21
-0.411816
  31
0
  0
LINE
  5
4b0
  100
AcDbEntity
  8
1
  100
AcDbLine
  10
5.71804
  20
-0.411816
  30
0
  11
5.72504
  21
-0.406343
  31
0
  0
LINE
  5
4b1
  100
AcDbEntity
  8
1
  100
AcDbLine
  10
5.72504
  20
-0.406343
  30
0
  11
5.73204
  21
-0.400782
  31
0
  0
LINE
  5
4b2
  100
AcDbEntity
  8
1
  100
AcDbLine
  10
5.73204
  20
-0.471021
  30
0
  11
5.72504
  21
-0.477606
  31
0
  0
LINE
  5
4b3
  100
AcDbEntity
  8
1
  100
AcDbLine
  10
5.72504
  20
-0.477606
  30
0
  11
5.71804
  21
-0.484158
  31
0
  0
LINE
  5
4b4
  100
AcDbEntity
  8
1
  100
AcDbLine
  10
5.71804
  20
-0.484158
  30
0
  11
5.71104
  21
-0.489657
  31
0
  0
LINE
  5
4b5
  100
AcDbEntity
  8
1
  100
AcDbLine
  10
5.71104
  20
-0.489657
  30
0
  11
5.70404
  21
-0.48901
  31
0
  0
LINE
  5
4b6
  100
AcDbEntity
  8
1
  100
AcDbLine
  10
5.70404
  20
-0.48901
  30
0
  11
5.69704
  21
-0.488315
  31
0
  0
LINE
  5
4b7
  100
AcDbEntity
  8
1
  100
AcDbLine
  10
5.69704
  20
-0.488315
  30
0
  11
5.69004
  21
-0.487573
  31
0
  0
LINE
  5
4b8
  100
AcDbEntity
  8
1
  100
AcDbLine
  10
5.69004
  20
-0.487573
  30
0
  11
5.68304
  21
-0.486785
  31
0
  0
LINE
  5
4b9
  100
AcDbEntity
  8
1
  100
AcDbLine
  10
5.68304
  20
-0.486785
  30
0
  11
5.67604
  21
-0.48595
  31
0
  0
LINE
  5
4ba
  100
AcDbEntity
  8
1
  100
AcDbLine
  10
5.67604
  20
-0.48595
  30
0
  11
5.66904
  21
-0.485068
  31
0
  0
LINE
  5
4bb
  100
AcDbEntity
  8
1
  100
AcDbLine
  10
5.66904
  20
-0.485068
  30
0
  11
5.66204
  21
-0.48414
  31
0
  0
LINE
  5
4bc
  100
AcDbEntity
  8
1
  100
AcDbLine
  10
5.66204
  20
-0.48414
  30
0
  11
5.65504
  21
-0.483164
  31
0
  0
LINE
  5
4bd
  100
AcDbEntity
  8
1
  100
AcDbLine
  10
5.65504
  20
-0.483164
  30
0
  11
5.64804
  21
-0.482143
  31
0
  0
LINE
  5
4be
  100
AcDbEntity
  8
1
  100
AcDbLine
  10
5.64804
  20
-0.482143
  30
0
  11
5.64104
  21
-0.481075
  31
0
  0
LINE
  5
4bf
  100
AcDbEntity
  8
1
  100
AcDbLine
  10
5.64104
  20
-0.481075
  30
0
  11
5.63404
  21
-0.479961
  31
0
  0
LINE
  5
4c0
  100
AcDbEntity
  8
1
  100
AcDbLine
  10
5.63404
  20
-0.479961
  30
0
  11
5.62704
  21
-0.478801
  31
0
  0
LINE
  5
4c1
  100
AcDbEntity
  8
1
  100
AcDbLine
  10
5.62704
  20
-0.478801
  30
0
  11
5.62004
  21
-0.477595
  31
0
  0
LINE
  5
4c2
  100
AcDbEntity
  8
1
  100
AcDbLine
  10
5.62004
  20
-0.477595
  30
0
  11
5.61304
  21
-0.476343
  31
0
  0
LINE
  5
4c3
  100
AcDbEntity
  8
1
  100
AcDbLine
  10
5.61304
  20
-0.476343
  30
0
  11
5.60604
  21
-0.475045
  31
0
  0
LINE
  5
4c4
  100
AcDbEntity
  8
1
  100
AcDbLine
  10
5.60604
  20
-0.475045
  30
0
  11
5.59904
  21
-0.473702
  31
0
  0
LINE
  5
4c5
  100
AcDbEntity
  8
1
  100
AcDbLine
  10
5.59904
  20
-0.473702
  30
0
  11
5.59204
  21
-0.472313
  31
0
  0
LINE
  5
4c6
  100
AcDbEntity
  8
1
  100
AcDbLine
  10
5.59204
  20
-0.472313
  30
0
  11
5.58504
  21
-0.470878
  31
0
  0
LINE
  5
4c7
  100
AcDbEntity
  8
1
  100
AcDbLine
  10
5.58504
  20
-0.470878
  30
0
  11
5.57804
  21
-0.469399
  31
0
  0
LINE
  5
4c8
  100
AcDbEntity
  8
1
  100
AcDbLine
  10
5.57804
  20
-0.469399
  30
0
  11
5.57104
  21
-0.467874
  31
0
  0
LINE
  5
4c9
  100
AcDbEntity
  8
1
  100
AcDbLine
  10
5.57104
  20
-0.467874
  30
0
  11
5.56404
  21
-0.466304
  31
0
  0
LINE
  5
4ca
  100
AcDbEntity
  8
1
  100
AcDbLine
  10
5.56404
  20
-0.466304
  30
0
  11
5.55704
  21
-0.46469
  31
0
  0
LINE
  5
4cb
  100
AcDbEntity
  8
1
  100
AcDbLine
  10
5.55704
  20
-0.46469
  30
0
  11
5.55004
  21
-0.463031
  31
0
  0
LINE
  5
4cc
  100
AcDbEntity
  8
1
  100
AcDbLine
  10
5.55004
  20
-0.463031
  30
0
  11
5.54304
  21
-0.461327
  31
0
  0
LINE
  5
4cd
  100
AcDbEntity
  8
1
  100
AcDbLine
  10
5.54304
  20
-0.461327
  30
0
  11
5.53604
  21
-0.459579
  31
0
  0
LINE
  5
4ce
  100
AcDbEntity
  8
1
  100
AcDbLine
  10
5.53604
  20
-0.459579
  30
0
  11
5.52904
  21
-0.457787
  31
0
  0
LINE
  5
4cf
  100
AcDbEntity
  8
1
  100
AcDbLine
  10
5.52904
  20
-0.457787
  30
0
  11
5.52204
  21
-0.455951
  31
0
  0
LINE
  5
4d0
  100
AcDbEntity
  8
1
  100
AcDbLine
  10
5.52204
  20
-0.455951
  30
0
  11
5.51504
  21
-0.454071
  31
0
  0
LINE
  5
4d1
  100
AcDbEntity
  8
1
  100
AcDbLine
  10
5.51504
  20
-0.454071
  30
0
  11
5.50804
  21
-0.452147
  31
0
  0
LINE
  5
4d2
  100
AcDbEntity
  8
1
  100
AcDbLine
  10
5.50804
  20
-0.452147
  30
0
  11
5.50104
  21
-0.45018
  31
0
  0
LINE
  5
4d3
  100
AcDbEntity
  8
1
  100
AcDbLine
  10
5.50104
  20
-0.45018
  30
0
  11
5.49404
  21
-0.44817
  31
0
  0
LINE
  5
4d4
  100
AcDbEntity
  8
1
  100
AcDbLine
  10
5.49404
  20
-0.44817
  30
0
  11
5.48704
  21
-0.446117
  31
0
  0
LINE
  5
4d5
  100
AcDbEntity
  8
1
  100
AcDbLine
  10
5.48704
  20
-0.446117
  30
0
  11
5.48004
  21
-0.44402
  31
0
  0
LINE
  5
4d6
  100
AcDbEntity
  8
1
  100
AcDbLine
  10
5.48004
  20
-0.44402
  30
0
  11
5.47304
  21
-0.441881
  31
0
  0
LINE
  5
4d7
  100
AcDbEntity
  8
1
  100
AcDbLine
  10
5.47304
  20
-0.441881
  30
0
  11
5.46604
  21
-0.4397
  31
0
  0
LINE
  5
4d8
  100
AcDbEntity
  8
1
  100
AcDbLine
  10
5.46604
  20
-0.4397
  30
0
  11
5.45904
  21
-0.437476
  31
0
  0
LINE
  5
4d9
  100
AcDbEntity
  8
1
  100
AcDbLine
  10
5.45904
  20
-0.437476
  30
0
  11
5.45204
  21
-0.435211
  31
0
  0
LINE
  5
4da
  100
AcDbEntity
  8
1
  100
AcDbLine
  10
5.45204
  20
-0.435211
  30
0
  11
5.44504
  21
-0.432903
  31
0
  0
LINE
  5
4db
  100
AcDbEntity
  8
1
  100
AcDbLine
  10
5.44504
  20
-0.432903
  30
0
  11
5.43804
  21
-0.430554
  31
0
  0
LINE
  5
4dc
  100
AcDbEntity
  8
1
  100
AcDbLine
  10
5.43804
  20
-0.430554
  30
0
  11
5.43104
  21
-0.428164
  31
0
  0
LINE
  5
4dd
  100
AcDbEntity
  8
1
  100
AcDbLine
  10
5.43104
  20
-0.428164
  30
0
  11
5.42404
  21
-0.425732
  31
0
  0
LINE
  5
4de
  100
AcDbEntity
  8
1
  100
AcDbLine
  10
5.42404
  20
-0.425732
  30
0
  11
5.41704
  21
-0.42326
  31
0
  0
LINE
  5
4df
  100
AcDbEntity
  8
1
  100
AcDbLine
  10
5.41704
  20
-0.42326
  30
0
  11
5.41004
  21
-0.420747
  31
0
  0
LINE
  5
4e0
  100
AcDbEntity
  8
1
  100
AcDbLine
  10
5.41004
  20
-0.420747
  30
0
  11
5.40304
  21
-0.418193
  31
0
  0
LINE
  5
4e1
  100
AcDbEntity
  8
1
  100
AcDbLine
  10
5.40304
  20
-0.418193
  30
0
  11
5.39604
  21
-0.415599
  31
0
  0
LINE
  5
4e2
  100
AcDbEntity
  8
1
  100
AcDbLine
  10
5.39604
  20
-0.415599
  30
0
  11
5.38904
  21
-0.412965
  31
0
  0
LINE
  5
4e3
  100
AcDbEntity
  8
1
  100
AcDbLine
  10
5.38904
  20
-0.412965
  30
0
  11
5.38204
  21
-0.410292
  31
0
  0
LINE
  5
4e4
  100
AcDbEntity
  8
1
  100
AcDbLine
  10
5.38204
  20
-0.410292
  30
0
  11
5.37504
  21
-0.407579
  31
0
  0
LINE
  5
4e5
  100
AcDbEntity
  8
1
  100
AcDbLine
  10
5.37504
  20
-0.407579
  30
0
  11
5.36804
  21
-0.404827
  31
0
  0
LINE
  5
4e6
  100
AcDbEntity
  8
1
  100
AcDbLine
  10
5.36804
  20
-0.404827
  30
0
  11
5.36104
  21
-0.402036
  31
0
  0
LINE
  5
4e7
  100
AcDbEntity
  8
1
  100
AcDbLine
  10
5.36104
  20
-0.402036
  30
0
  11
5.35404
  21
-0.399207
  31
0
  0
LINE
  5
4e8
  100
AcDbEntity
  8
1
  100
AcDbLine
  10
5.35404
  20
-0.399207
  30
0
  11
5.34704
  21
-0.396339
  31
0
  0
LINE
  5
4e9
  100
AcDbEntity
  8
1
  100
AcDbLine
  10
5.34704
  20
-0.396339
  30
0
  11
5.34004
  21
-0.393433
  31
0
  0
LINE
  5
4ea
  100
AcDbEntity
  8
1
  100
AcDbLine
  10
5.34004
  20
-0.393433
  30
0
  11
5.33304
  21
-0.390489
  31
0
  0
LINE
  5
4eb
  100
AcDbEntity
  8
1
  100
AcDbLine
  10
5.33304
  20
-0.390489
  30
0
  11
5.32604
  21
-0.387508
  31
0
  0
LINE
  5
4ec
  100
AcDbEntity
  8
1
  100
AcDbLine
  10
5.32604
  20
-0.387508
  30
0
  11
5.31904
  21
-0.384489
  31
0
  0
LINE
  5
4ed
  100
AcDbEntity
  8
1
  100
AcDbLine
  10
5.31904
  20
-0.384489
  30
0
  11
5.31204
  21
-0.381433
  31
0
  0
LINE
  5
4ee
  100
AcDbEntity
  8
1
  100
AcDbLine
  10
5.31204
  20
-0.381433
  30
0
  11
5.30504
  21
-0.378341
  31
0
  0
LINE
  5
4ef
  100
AcDbEntity
  8
1
  100
AcDbLine
  10
5.30504
  20
-0.378341
  30
0
  11
5.29804
  21
-0.375213
  31
0
  0
LINE
  5
4f0
  100
AcDbEntity
  8
1
  100
AcDbLine
  10
5.29804
  20
-0.375213
  30
0
  11
5.29104
  21
-0.372048
  31
0
  0
LINE
  5
4f1
  100
AcDbEntity
  8
1
  100
AcDbLine
  10
5.29104
  20
-0.372048
  30
0
  11
5.28404
  21
-0.368848
  31
0
  0
LINE
  5
4f2
  100
AcDbEntity
  8
1
  100
AcDbLine
  10
5.28404
  20
-0.368848
  30
0
  11
5.27704
  21
-0.365612
  31
0
  0
LINE
  5
4f3
  100
AcDbEntity
  8
1
  100
AcDbLine
  10
5.27704
  20
-0.365612
  30
0
  11
5.27004
  21
-0.362341
  31
0
  0
LINE
  5
4f4
  100
AcDbEntity
  8
1
  100
AcDbLine
  10
5.27004
  20
-0.362341
  30
0
  11
5.26304
  21
-0.359035
  31
0
  0
LINE
  5
4f5
  100
AcDbEntity
  8
1
  100
AcDbLine
  10
5.26304
  20
-0.359035
  30
0
  11
5.25604
  21
-0.355695
  31
0
  0
LINE
  5
4f6
  100
AcDbEntity
  8
1
  100
AcDbLine
  10
5.25604
  20
-0.355695
  30
0
  11
5.24904
  21
-0.352321
  31
0
  0
LINE
  5
4f7
  100
AcDbEntity
  8
1
  100
AcDbLine
  10
5.24904
  20
-0.352321
  30
0
  11
5.24204
  21
-0.348912
  31
0
  0
LINE
  5
4f8
  100
AcDbEntity
  8
1
  100
AcDbLine
  10
5.24204
  20
-0.348912
  30
0
  11
5.23504
  21
-0.345471
  31
0
  0
LINE
  5
4f9
  100
AcDbEntity
  8
1
  100
AcDbLine
  10
5.23504
  20
-0.345471
  30
0
  11
5.22804
  21
-0.341996
  31
0
  0
LINE
  5
4fa
  100
AcDbEntity
  8
1
  100
AcDbLine
  10
5.22804
  20
-0.341996
  30
0
  11
5.22104
  21
-0.338488
  31
0
  0
LINE
  5
4fb
  100
AcDbEntity
  8
1
  100
AcDbLine
  10
5.22104
  20
-0.338488
  30
0
  11
5.21404
  21
-0.334947
  31
0
  0
LINE
  5
4fc
  100
AcDbEntity
  8
1
  100
AcDbLine
  10
5.21404
  20
-0.334947
  30
0
  11
5.20704
  21
-0.331375
  31
0
  0
LINE
  5
4fd
  100
AcDbEntity
  8
1
  100
AcDbLine
  10
5.20704
  20
-0.331375
  30
0
  11
5.20004
  21
-0.32777
  31
0
  0
LINE
  5
4fe
  100
AcDbEntity
  8
1
  100
AcDbLine
  10
5.20004
  20
-0.32777
  30
0
  11
5.19304
  21
-0.324134
  31
0
  0
LINE
  5
4ff
  100
AcDbEntity
  8
1
  100
AcDbLine
  10
5.19304
  20
-0.324134
  30
0
  11
5.18604
  21
-0.320467
  31
0
  0
LINE
  5
500
  100
AcDbEntity
  8
1
  100
AcDbLine
  10
5.18604
  20
-0.320467
  30
0
  11
5.17904
  21
-0.316769
  31
0
  0
LINE
  5
501
  100
AcDbEntity
  8
1
  100
AcDbLine
  10
5.17904
  20
-0.316769
  30
0
  11
5.17204
  21
-0.313041
  31
0
  0
LINE
  5
502
  100
AcDbEntity
  8
1
  100
AcDbLine
  10
5.17204
  20
-0.313041
  30
0
  11
5.16504
  21
-0.309283
  31
0
  0
LINE
  5
503
  100
AcDbEntity
  8
1
  100
AcDbLine
  10
5.16504
  20
-0.309283
  30
0
  11
5.15804
  21
-0.305495
  31
0
  0
LINE
  5
504
  100
AcDbEntity
  8
1
  100
AcDbLine
  10
5.15804
  20
-0.305495
  30
0
  11
5.15104
  21
-0.301677
  31
0
  0
LINE
  5
505
  100
AcDbEntity
  8
1
  100
AcDbLine
  10
5.15104
  20
-0.301677
  30
0
  11
5.14404
  21
-0.297831
  31
0
  0
LINE
  5
506
  100
AcDbEntity
  8
1
  100
AcDbLine
  10
5.14404
  20
-0.297831
  30
0
  11
5.13704
  21
-0.293956
  31
0
  0
LINE
  5
507
  100
AcDbEntity
  8
1
  100
AcDbLine
  10
5.13704
  20
-0.293956
  30
0
  11
5.13004
  21
-0.290052
  31
0
  0
LINE
  5
508
  100
AcDbEntity
  8
1
  100
AcDbLine
  10
5.13004
  20
-0.290052
  30
0
  11
5.12304
  21
-0.286121
  31
0
  0
LINE
  5
509
  100
AcDbEntity
  8
1
  100
AcDbLine
  10
5.12304
  20
-0.286121
  30
0
  11
5.11604
  21
-0.282162
  31
0
  0
LINE
  5
50a
  100
AcDbEntity
  8
1
  100
AcDbLine
  10
5.11604
  20
-0.282162
  30
0
  11
5.10904
  21
-0.278177
  31
0
  0
LINE
  5
50b
  100
AcDbEntity
  8
1
  100
AcDbLine
  10
5.10904
  20
-0.278177
  30
0
  11
5.10204
  21
-0.274164
  31
0
  0
LINE
  5
50c
  100
AcDbEntity
  8
1
  100
AcDbLine
  10
5.10204
  20
-0.274164
  30
0
  11
5.09504
  21
-0.270125
  31
0
  0
LINE
  5
50d
  100
AcDbEntity
  8
1
  100
AcDbLine
  10
5.09504
  20
-0.270125
  30
0
  11
5.08804
  21
-0.26606
  31
0
  0
LINE
  5
50e
  100
AcDbEntity
  8
1
  100
AcDbLine
  10
5.08804
  20
-0.26606
  30
0
  11
5.08104
  21
-0.26197
  31
0
  0
LINE
  5
50f
  100
AcDbEntity
  8
1
  100
AcDbLine
  10
5.08104
  20
-0.26197
  30
0
  11
5.07404
  21
-0.257854
  31
0
  0
LINE
  5
510
  100
AcDbEntity
  8
1
  100
AcDbLine
  10
5.07404
  20
-0.257854
  30
0
  11
5.06704
  21
-0.253714
  31
0
  0
LINE
  5
511
  100
AcDbEntity
  8
1
  100
AcDbLine
  10
5.06704
  20
-0.253714
  30
0
  11
5.06004
  21
-0.249549
  31
0
  0
LINE
  5
512
  100
AcDbEntity
  8
1
  100
AcDbLine
  10
5.06004
  20
-0.249549
  30
0
  11
5.05304
  21
-0.24536
  31
0
  0
LINE
  5
513
  100
AcDbEntity
  8
1
  100
AcDbLine
  10
5.05304
  20
-0.24536
  30
0
  11
5.04604
  21
-0.241148
  31
0
  0
LINE
  5
514
  100
AcDbEntity
  8
1
  100
AcDbLine
  10
5.04604
  20
-0.241148
  30
0
  11
5.03904
  21
-0.236913
  31
0
  0
LINE
  5
515
  100
AcDbEntity
  8
1
  100
AcDbLine
  10
5.03904
  20
-0.236913
  30
0
  11
5.03204
  21
-0.232654
  31
0
  0
LINE
  5
516
  100
AcDbEntity
  8
1
  100
AcDbLine
  10
5.03204
  20
-0.232654
  30
0
  11
5.02504
  21
-0.228374
  31
0
  0
LINE
  5
517
  100
AcDbEntity
  8
1
  100
AcDbLine
  10
5.02504
  20
-0.228374
  30
0
  11
5.01804
  21
-0.224071
  31
0
  0
LINE
  5
518
  100
AcDbEntity
  8
1
  100
AcDbLine
  10
5.01804
  20
-0.224071
  30
0
  11
5.01104
  21
-0.219747
  31
0
  0
LINE
  5
519
  100
AcDbEntity
  8
1
  100
AcDbLine
  10
5.01104
  20
-0.219747
  30
0
  11
5.00404
  21
-0.215402
  31
0
  0
LINE
  5
51a
  100
AcDbEntity
  8
1
  100
AcDbLine
  10
5.00404
  20
-0.215402
  30
0
  11
4.99704
  21
-0.211036
  31
0
  0
LINE
  5
51b
  100
AcDbEntity
  8
1
  100
AcDbLine
  10
4.99704
  20
-0.211036
  30
0
  11
4.99004
  21
-0.20665
  31
0
  0
LINE
  5
51c
  100
AcDbEntity
  8
1
  100
AcDbLine
  10
4.99004
  20
-0.20665
  30
0
  11
4.98304
  21
-0.202244
  31
0
  0
LINE
  5
51d
  100
AcDbEntity
  8
1
  100
AcDbLine
  10
4.98304
  20
-0.202244
  30
0
  11
4.97604
  21
-0.197818
  31
0
  0
LINE
  5
51e
  100
AcDbEntity
  8
1
  100
AcDbLine
  10
4.97604
  20
-0.197818
  30
0
  11
4.96904
  21
-0.193374
  31
0
  0
LINE
  5
51f
  100
AcDbEntity
  8
1
  100
AcDbLine
  10
4.96904
  20
-0.193374
  30
0
  11
4.96204
  21
-0.188911
  31
0
  0
LINE
  5
520
  100
AcDbEntity
  8
1
  100
AcDbLine
  10
4.96204
  20
-0.188911
  30
0
  11
4.95504
  21
-0.18443
  31
0
  0
LINE
  5
521
  100
AcDbEntity
  8
1
  100
AcDbLine
  10
4.95504
  20
-0.18443
  30
0
  11
4.94804
  21
-0.179931
  31
0
  0
LINE
  5
522
  100
AcDbEntity
  8
1
  100
AcDbLine
  10
4.94804
  20
-0.179931
  30
0
  11
4.94104
  21
-0.175414
  31
0
  0
LINE
  5
523
  100
AcDbEntity
  8
1
  100
AcDbLine
  10
4.94104
  20
-0.175414
  30
0
  11
4.93404
  21
-0.170881
  31
0
  0
LINE
  5
524
  100
AcDbEntity
  8
1
  100
AcDbLine
  10
4.93404
  20
-0.170881
  30
0
  11
4.92704
  21
-0.166332
  31
0
  0
LINE
  5
525
  100
AcDbEntity
  8
1
  100
AcDbLine
  10
4.92704
  20
-0.166332
  30
0
  11
4.92004
  21
-0.161766
  31
0
  0
LINE
  5
526
  100
AcDbEntity
  8
1
  100
AcDbLine
  10
4.92004
  20
-0.161766
  30
0
  11
4.91304
  21
-0.157185
  31
0
  0
LINE
  5
527
  100
AcDbEntity
  8
1
  100
AcDbLine
  10
4.91304
  20
-0.157185
  30
0
  11
4.90604
  21
-0.152589
  31
0
  0
LINE
  5
528
  100
AcDbEntity
  8
1
  100
AcDbLine
  10
4.90604
  20
-0.152589
  30
0
  11
4.89904
  21
-0.147978
  31
0
  0
LINE
  5
529
  100
AcDbEntity
  8
1
  100
AcDbLine
  10
4.89904
  20
-0.147978
  30
0
  11
4.89204
  21
-0.143353
  31
0
  0
LINE
  5
52a
  100
AcDbEntity
  8
1
  100
AcDbLine
  10
4.89204
  20
-0.143353
  30
0
  11
4.88504
  21
-0.138715
  31
0
  0
LINE
  5
52b
  100
AcDbEntity
  8
1
  100
AcDbLine
  10
4.88504
  20
-0.138715
  30
0
  11
4.87804
  21
-0.134062
  31
0
  0
LINE
  5
52c
  100
AcDbEntity
  8
1
  100
AcDbLine
  10
4.87804
  20
-0.134062
  30
0
  11
4.87104
  21
-0.129397
  31
0
  0
LINE
  5
52d
  100
AcDbEntity
  8
1
  100
AcDbLine
  10
4.87104
  20
-0.129397
  30
0
  11
4.86404
  21
-0.12472
  31
0
  0
LINE
  5
52e
  100
AcDbEntity
  8
1
  100
AcDbLine
  10
4.86404
  20
-0.12472
  30
0
  11
4.85704
  21
-0.120031
  31
0
  0
LINE
  5
52f
  100
AcDbEntity
  8
1
  100
AcDbLine
  10
4.85704
  20
-0.120031
  30
0
  11
4.85004
  21
-0.11533
  31
0
  0
LINE
  5
530
  100
AcDbEntity
  8
1
  100
AcDbLine
  10
4.85004
  20
-0.11533
  30
0
  11
4.84304
  21
-0.110618
  31
0
  0
LINE
  5
531
  100
AcDbEntity
  8
1
  100
AcDbLine
  10
4.84304
  20
-0.110618
  30
0
  11
4.83604
  21
-0.105895
  31
0
  0
LINE
  5
532
  100
AcDbEntity
  8
1
  100
AcDbLine
  10
4.83604
  20
-0.105895
  30
0
  11
4.82904
  21
-0.101162
  31
0
  0
LINE
  5
533
  100
AcDbEntity
  8
1
  100
AcDbLine
  10
4.82904
  20
-0.101162
  30
0
  11
4.82204
  21
-0.096419
  31
0
  0
LINE
  5
534
  100
AcDbEntity
  8
1
  100
AcDbLine
  10
4.82204
  20
-0.096419
  30
0
  11
4.81504
  21
-0.091668
  31
0
  0
LINE
  5
535
  100
AcDbEntity
  8
1
  100
AcDbLine
  10
4.81504
  20
-0.091668
  30
0
  11
4.80804
  21
-0.086907
  31
0
  0
LINE
  5
536
  100
AcDbEntity
  8
1
  100
AcDbLine
  10
4.80804
  20
-0.086907
  30
0
  11
4.80104
  21
-0.082138
  31
0
  0
LINE
  5
537
  100
AcDbEntity
  8
1
  100
AcDbLine
  10
4.80104
  20
-0.082138
  30
0
  11
4.79404
  21
-0.077361
  31
0
  0
LINE
  5
538
  100
AcDbEntity
  8
1
  100
AcDbLine
  10
4.79404
  20
-0.077361
  30
0
  11
4.78704
  21
-0.072577
  31
0
  0
LINE
  5
539
  100
AcDbEntity
  8
1
  100
AcDbLine
  10
4.78704
  20
-0.072577
  30
0
  11
4.78004
  21
-0.067785
  31
0
  0
LINE
  5
53a
  100
AcDbEntity
  8
1
  100
AcDbLine
  10
4.78004
  20
-0.067785
  30
0
  11
4.77304
  21
-0.062988
  31
0
  0
LINE
  5
53b
  100
AcDbEntity
  8
1
  100
AcDbLine
  10
4.77304
  20
-0.062988
  30
0
  11
4.76604
  21
-0.058184
  31
0
  0
LINE
  5
53c
  100
AcDbEntity
  8
1
  100
AcDbLine
  10
4.76604
  20
-0.058184
  30
0
  11
4.75904
  21
-0.053374
  31
0
  0
LINE
  5
53d
  100
AcDbEntity
  8
1
  100
AcDbLine
  10
4.75904
  20
-0.053374
  30
0
  11
4.75204
  21
-0.04856
  31
0
  0
LINE
  5
53e
  100
AcDbEntity
  8
1
  100
AcDbLine
  10
4.75204
  20
-0.04856
  30
0
  11
4.74504
  21
-0.04374
  31
0
  0
LINE
  5
53f
  100
AcDbEntity
  8
1
  100
AcDbLine
  10
4.74504
  20
-0.04374
  30
0
  11
4.73804
  21
-0.038917
  31
0
  0
LINE
  5
540
  100
AcDbEntity
  8
1
  100
AcDbLine
  10
4.73804
  20
-0.038917
  30
0
  11
4.73104
  21
-0.03409
  31
0
  0
LINE
  5
541
  100
AcDbEntity
  8
1
  100
AcDbLine
  10
4.73104
  20
-0.03409
  30
0
  11
4.72404
  21
-0.029259
  31
0
  0
LINE
  5
542
  100
AcDbEntity
  8
1
  100
AcDbLine
  10
4.72404
  20
-0.029259
  30
0
  11
4.71704
  21
-0.024426
  31
0
  0
LINE
  5
543
  100
AcDbEntity
  8
1
  100
AcDbLine
  10
4.71704
  20
-0.024426
  30
0
  11
4.71004
  21
-0.01959
  31
0
  0
LINE
  5
544
  100
AcDbEntity
  8
1
  100
AcDbLine
  10
4.71004
  20
-0.01959
  30
0
  11
4.70304
  21
-0.014753
  31
0
  0
LINE
  5
545
  100
AcDbEntity
  8
1
  100
AcDbLine
  10
4.70304
  20
-0.014753
  30
0
  11
4.69604
  21
-0.009914
  31
0
  0
LINE
  5
546
  100
AcDbEntity
  8
1
  100
AcDbLine
  10
4.69604
  20
-0.009914
  30
0
  11
4.68904
  21
-0.005074
  31
0
  0
LINE
  5
547
  100
AcDbEntity
  8
1
  100
AcDbLine
  10
4.68904
  20
-0.005074
  30
0
  11
4.68204
  21
-0.000234
  31
0
  0
LINE
  5
548
  100
AcDbEntity
  8
1
  100
AcDbLine
  10
4.68204
  20
-0.000234
  30
0
  11
4.67504
  21
0.004607
  31
0
  0
LINE
  5
549
  100
AcDbEntity
  8
1
  100
AcDbLine
  10
4.67504
  20
0.004607
  30
0
  11
4.66804
  21
0.009447
  31
0
  0
LINE
  5
54a
  100
AcDbEntity
  8
1
  100
AcDbLine
  10
4.66804
  20
0.009447
  30
0
  11
4.66104
  21
0.014286
  31
0
  0
LINE
  5
54b
  100
AcDbEntity
  8
1
  100
AcDbLine
  10
4.66104
  20
0.014286
  30
0
  11
4.65404
  21
0.019124
  31
0
  0
LINE
  5
54c
  100
AcDbEntity
  8
1
  100
AcDbLine
  10
4.65404
  20
0.019124
  30
0
  11
4.64704
  21
0.023959
  31
0
  0
LINE
  5
54d
  100
AcDbEntity
  8
1
  100
AcDbLine
  10
4.64704
  20
0.023959
  30
0
  11
4.64004
  21
0.028793
  31
0
  0
LINE
  5
54e
  100
AcDbEntity
  8
1
  100
AcDbLine
  10
4.64004
  20
0.028793
  30
0
  11
4.63304
  21
0.033624
  31
0
  0
LINE
  5
54f
  100
AcDbEntity
  8
1
  100
AcDbLine
  10
4.63304
  20
0.033624
  30
0
  11
4.62604
  21
0.038451
  31
0
  0
LINE
  5
550
  100
AcDbEntity
  8
1
  100
AcDbLine
  10
4.62604
  20
0.038451
  30
0
  11
4.61904
  21
0.043275
  31
0
  0
LINE
  5
551
  100
AcDbEntity
  8
1
  100
AcDbLine
  10
4.61904
  20
0.043275
  30
0
  11
4.61204
  21
0.048095
  31
0
  0
LINE
  5
552
  100
AcDbEntity
  8
1
  100
AcDbLine
  10
4.61204
  20
0.048095
  30
0
  11
4.60504
  21
0.05291
  31
0
  0
LINE
  5
553
  100
AcDbEntity
  8
1
  100
AcDbLine
  10
4.60504
  20
0.05291
  30
0
  11
4.59804
  21
0.05772
  31
0
  0
LINE
  5
554
  100
AcDbEntity
  8
1
  100
AcDbLine
  10
4.59804
  20
0.05772
  30
0
  11
4.59104
  21
0.062524
  31
0
  0
LINE
  5
555
  100
AcDbEntity
  8
1
  100
AcDbLine
  10
4.59104
  20
0.062524
  30
0
  11
4.58404
  21
0.067323
  31
0
  0
LINE
  5
556
  100
AcDbEntity
  8
1
  100
AcDbLine
  10
4.58404
  20
0.067323
  30
0
  11
4.57704
  21
0.072115
  31
0
  0
LINE
  5
557
  100
AcDbEntity
  8
1
  100
AcDbLine
  10
4.57704
  20
0.072115
  30
0
  11
4.57004
  21
0.0769
  31
0
  0
LINE
  5
558
  100
AcDbEntity
  8
1
  100
AcDbLine
  10
4.57004
  20
0.0769
  30
0
  11
4.56304
  21
0.081677
  31
0
  0
LINE
  5
559
  100
AcDbEntity
  8
1
  100
AcDbLine
  10
4.56304
  20
0.081677
  30
0
  11
4.55604
  21
0.086447
  31
0
  0
LINE
  5
55a
  100
AcDbEntity
  8
1
  100
AcDbLine
  10
4.55604
  20
0.086447
  30
0
  11
4.54904
  21
0.091209
  31
0
  0
LINE
  5
55b
  100
AcDbEntity
  8
1
  100
AcDbLine
  10
4.54904
  20
0.091209
  30
0
  11
4.54204
  21
0.095961
  31
0
  0
LINE
  5
55c
  100
AcDbEntity
  8
1
  100
AcDbLine
  10
4.54204
  20
0.095961
  30
0
  11
4.53504
  21
0.100705
  31
0
  0
LINE
  5
55d
  100
AcDbEntity
  8
1
  100
AcDbLine
  10
4.53504
  20
0.100705
  30
0
  11
4.52804
  21
0.105439
  31
0
  0
LINE
  5
55e
  100
AcDbEntity
  8
1
  100
AcDbLine
  10
4.52804
  20
0.105439
  30
0
  11
4.52104
  21
0.110162
  31
0
  0
LINE
  5
55f
  100
AcDbEntity
  8
1
  100
AcDbLine
  10
4.52104
  20
0.110162
  30
0
  11
4.51404
  21
0.114875
  31
0
  0
LINE
  5
560
  100
AcDbEntity
  8
1
  100
AcDbLine
  10
4.51404
  20
0.114875
  30
0
  11
4.50704
  21
0.119577
  31
0
  0
LINE
  5
561
  100
AcDbEntity
  8
1
  100
AcDbLine
  10
4.50704
  20
0.119577
  30
0
  11
4.50004
  21
0.124268
  31
0
  0
LINE
  5
562
  100
AcDbEntity
  8
1
  100
AcDbLine
  10
4.50004
  20
0.124268
  30
0
  11
4.49304
  21
0.128947
  31
0
  0
LINE
  5
563
  100
AcDbEntity
  8
1
  100
AcDbLine
  10
4.49304
  20
0.128947
  30
0
  11
4.48604
  21
0.133613
  31
0
  0
LINE
  5
564
  100
AcDbEntity
  8
1
  100
AcDbLine
  10
4.48604
  20
0.133613
  30
0
  11
4.47904
  21
0.138266
  31
0
  0
LINE
  5
565
  100
AcDbEntity
  8
1
  100
AcDbLine
  10
4.47904
  20
0.138266
  30
0
  11
4.47204
  21
0.142906
  31
0
  0
LINE
  5
566
  100
AcDbEntity
  8
1
  100
AcDbLine
  10
4.47204
  20
0.142906
  30
0
  11
4.46504
  21
0.147533
  31
0
  0
LINE
  5
567
  100
AcDbEntity
  8
1
  100
AcDbLine
  10
4.46504
  20
0.147533
  30
0
  11
4.45804
  21
0.152145
  31
0
  0
LINE
  5
568
  100
AcDbEntity
  8
1
  100
AcDbLine
  10
4.45804
  20
0.152145
  30
0
  11
4.45104
  21
0.156743
  31
0
  0
LINE
  5
569
  100
AcDbEntity
  8
1
  100
AcDbLine
  10
4.45104
  20
0.156743
  30
0
  11
4.44404
  21
0.161325
  31
0
  0
LINE
  5
56a
  100
AcDbEntity
  8
1
  100
AcDbLine
  10
4.44404
  20
0.161325
  30
0
  11
4.43704
  21
0.165892
  31
0
  0
LINE
  5
56b
  100
AcDbEntity
  8
1
  100
AcDbLine
  10
4.43704
  20
0.165892
  30
0
  11
4.43004
  21
0.170443
  31
0
  0
LINE
  5
56c
  100
AcDbEntity
  8
1
  100
AcDbLine
  10
4.43004
  20
0.170443
  30
0
  11
4.42304
  21
0.174978
  31
0
  0
LINE
  5
56d
  100
AcDbEntity
  8
1
  100
AcDbLine
  10
4.42304
  20
0.174978
  30
0
  11
4.41604
  21
0.179496
  31
0
  0
LINE
  5
56e
  100
AcDbEntity
  8
1
  100
AcDbLine
  10
4.41604
  20
0.179496
  30
0
  11
4.40904
  21
0.183996
  31
0
  0
LINE
  5
56f
  100
AcDbEntity
  8
1
  100
AcDbLine
  10
4.40904
  20
0.183996
  30
0
  11
4.40204
  21
0.188479
  31
0
  0
LINE
  5
570
  100
AcDbEntity
  8
1
  100
AcDbLine
  10
4.40204
  20
0.188479
  30
0
  11
4.39504
  21
0.192944
  31
0
  0
LINE
  5
571
  100
AcDbEntity
  8
1
  100
AcDbLine
  10
4.39504
  20
0.192944
  30
0
  11
4.38804
  21
0.19739
  31
0
  0
LINE
  5
572
  100
AcDbEntity
  8
1
  100
AcDbLine
  10
4.38804
  20
0.19739
  30
0
  11
4.38104
  21
0.201818
  31
0
  0
LINE
  5
573
  100
AcDbEntity
  8
1
  100
AcDbLine
  10
4.38104
  20
0.201818
  30
0
  11
4.37404
  21
0.206226
  31
0
  0
LINE
  5
574
  100
AcDbEntity
  8
1
  100
AcDbLine
  10
4.37404
  20
0.206226
  30
0
  11
4.36704
  21
0.210614
  31
0
  0
LINE
  5
575
  100
AcDbEntity
  8
1
  100
AcDbLine
  10
4.36704
  20
0.210614
  30
0
  11
4.36004
  21
0.214982
  31
0
  0
LINE
  5
576
  100
AcDbEntity
  8
1
  100
AcDbLine
  10
4.36004
  20
0.214982
  30
0
  11
4.35304
  21
0.219329
  31
0
  0
LINE
  5
577
  100
AcDbEntity
  8
1
  100
AcDbLine
  10
4.35304
  20
0.219329
  30
0
  11
4.34604
  21
0.223655
  31
0
  0
LINE
  5
578
  100
AcDbEntity
  8
1
  100
AcDbLine
  10
4.34604
  20
0.223655
  30
0
  11
4.33904
  21
0.22796
  31
0
  0
LINE
  5
579
  100
AcDbEntity
  8
1
  100
AcDbLine
  10
4.33904
  20
0.22796
  30
0
  11
4.33204
  21
0.232242
  31
0
  0
LINE
  5
57a
  100
AcDbEntity
  8
1
  100
AcDbLine
  10
4.33204
  20
0.232242
  30
0
  11
4.32504
  21
0.236503
  31
0
  0
LINE
  5
57b
  100
AcDbEntity
  8
1
  100
AcDbLine
  10
4.32504
  20
0.236503
  30
0
  11
4.31804
  21
0.24074
  31
0
  0
LINE
  5
57c
  100
AcDbEntity
  8
1
  100
AcDbLine
  10
4.31804
  20
0.24074
  30
0
  11
4.31104
  21
0.244955
  31
0
  0
LINE
  5
57d
  100
AcDbEntity
  8
1
  100
AcDbLine
  10
4.31104
  20
0.244955
  30
0
  11
4.30404
  21
0.249146
  31
0
  0
LINE
  5
57e
  100
AcDbEntity
  8
1
  100
AcDbLine
  10
4.30404
  20
0.249146
  30
0
  11
4.29704
  21
0.253313
  31
0
  0
LINE
  5
57f
  100
AcDbEntity
  8
1
  100
AcDbLine
  10
4.29704
  20
0.253313
  30
0
  11
4.29004
  21
0.257456
  31
0
  0
LINE
  5
580
  100
AcDbEntity
  8
1
  100
AcDbLine
  10
4.29004
  20
0.257456
  30
0
  11
4.28304
  21
0.261574
  31
0
  0
LINE
  5
581
  100
AcDbEntity
  8
1
  100
AcDbLine
  10
4.28304
  20
0.261574
  30
0
  11
4.27604
  21
0.265667
  31
0
  0
LINE
  5
582
  100
AcDbEntity
  8
1
  100
AcDbLine
  10
4.27604
  20
0.265667
  30
0
  11
4.26904
  21
0.269734
  31
0
  0
LINE
  5
583
  100
AcDbEntity
  8
1
  100
AcDbLine
  10
4.26904
  20
0.269734
  30
0
  11
4.26204
  21
0.273775
  31
0
  0
LINE
  5
584
  100
AcDbEntity
  8
1
  100
AcDbLine
  10
4.26204
  20
0.273775
  30
0
  11
4.25504
  21
0.277791
  31
0
  0
LINE
  5
585
  100
AcDbEntity
  8
1
  100
AcDbLine
  10
4.25504
  20
0.277791
  30
0
  11
4.24804
  21
0.281779
  31
0
  0
LINE
  5
586
  100
AcDbEntity
  8
1
  100
AcDbLine
  10
4.24804
  20
0.281779
  30
0
  11
4.24104
  21
0.28574
  31
0
  0
LINE
  5
587
  100
AcDbEntity
  8
1
  100
AcDbLine
  10
4.24104
  20
0.28574
  30
0
  11
4.23404
  21
0.289674
  31
0
  0
LINE
  5
588
  100
AcDbEntity
  8
1
  100
AcDbLine
  10
4.23404
  20
0.289674
  30
0
  11
4.22704
  21
0.29358
  31
0
  0
LINE
  5
589
  100
AcDbEntity
  8
1
  100
AcDbLine
  10
4.22704
  20
0.29358
  30
0
  11
4.22004
  21
0.297458
  31
0
  0
LINE
  5
58a
  100
AcDbEntity
  8
1
  100
AcDbLine
  10
4.22004
  20
0.297458
  30
0
  11
4.21304
  21
0.301307
  31
0
  0
LINE
  5
58b
  100
AcDbEntity
  8
1
  100
AcDbLine
  10
4.21304
  20
0.301307
  30
0
  11
4.20604
  21
0.305128
  31
0
  0
LINE
  5
58c
  100
AcDbEntity
  8
1
  100
AcDbLine
  10
4.20604
  20
0.305128
  30
0
  11
4.19904
  21
0.308919
  31
0
  0
LINE
  5
58d
  100
AcDbEntity
  8
1
  100
AcDbLine
  10
4.19904
  20
0.308919
  30
0
  11
4.19204
  21
0.31268
  31
0
  0
LINE
  5
58e
  100
AcDbEntity
  8
1
  100
AcDbLine
  10
4.19204
  20
0.31268
  30
0
  11
4.18504
  21
0.316411
  31
0
  0
LINE
  5
58f
  100
AcDbEntity
  8
1
  100
AcDbLine
  10
4.18504
  20
0.316411
  30
0
  11
4.17804
  21
0.320112
  31
0
  0
LINE
  5
590
  100
AcDbEntity
  8
1
  100
AcDbLine
  10
4.17804
  20
0.320112
  30
0
  11
4.17104
  21
0.323782
  31
0
  0
LINE
  5
591
  100
AcDbEntity
  8
1
  100
AcDbLine
  10
4.17104
  20
0.323782
  30
0
  11
4.16404
  21
0.327421
  31
0
  0
LINE
  5
592
  100
AcDbEntity
  8
1
  100
AcDbLine
  10
4.16404
  20
0.327421
  30
0
  11
4.15704
  21
0.331028
  31
0
  0
LINE
  5
593
  100
AcDbEntity
  8
1
  100
AcDbLine
  10
4.15704
  20
0.331028
  30
0
  11
4.15004
  21
0.334604
  31
0
  0
LINE
  5
594
  100
AcDbEntity
  8
1
  100
AcDbLine
  10
4.15004
  20
0.334604
  30
0
  11
4.14304
  21
0.338148
  31
0
  0
LINE
  5
595
  100
AcDbEntity
  8
1
  100
AcDbLine
  10
4.14304
  20
0.338148
  30
0
  11
4.13604
  21
0.341659
  31
0
  0
LINE
  5
596
  100
AcDbEntity
  8
1
  100
AcDbLine
  10
4.13604
  20
0.341659
  30
0
  11
4.12904
  21
0.345137
  31
0
  0
LINE
  5
597
  100
AcDbEntity
  8
1
  100
AcDbLine
  10
4.12904
  20
0.345137
  30
0
  11
4.12204
  21
0.348582
  31
0
  0
LINE
  5
598
  100
AcDbEntity
  8
1
  100
AcDbLine
  10
4.12204
  20
0.348582
  30
0
  11
4.11504
  21
0.351993
  31
0
  0
LINE
  5
599
  100
AcDbEntity
  8
1
  100
AcDbLine
  10
4.11504
  20
0.351993
  30
0
  11
4.10804
  21
0.355371
  31
0
  0
LINE
  5
59a
  100
AcDbEntity
  8
1
  100
AcDbLine
  10
4.10804
  20
0.355371
  30
0
  11
4.10104
  21
0.358715
  31
0
  0
LINE
  5
59b
  100
AcDbEntity
  8
1
  100
AcDbLine
  10
4.10104
  20
0.358715
  30
0
  11
4.09404
  21
0.362024
  31
0
  0
LINE
  5
59c
  100
AcDbEntity
  8
1
  100
AcDbLine
  10
4.09404
  20
0.362024
  30
0
  11
4.08704
  21
0.365298
  31
0
  0
LINE
  5
59d
  100
AcDbEntity
  8
1
  100
AcDbLine
  10
4.08704
  20
0.365298
  30
0
  11
4.08004
  21
0.368537
  31
0
  0
LINE
  5
59e
  100
AcDbEntity
  8
1
  100
AcDbLine
  10
4.08004
  20
0.368537
  30
0
  11
4.07304
  21
0.371741
  31
0
  0
LINE
  5
59f
  100
AcDbEntity
  8
1
  100
AcDbLine
  10
4.07304
  20
0.371741
  30
0
  11
4.06604
  21
0.374909
  31
0
  0
LINE
  5
5a0
  100
AcDbEntity
  8
1
  100
AcDbLine
  10
4.06604
  20
0.374909
  30
0
  11
4.05904
  21
0.378041
  31
0
  0
LINE
  5
5a1
  100
AcDbEntity
  8
1
  100
AcDbLine
  10
4.05904
  20
0.378041
  30
0
  11
4.05204
  21
0.381137
  31
0
  0
LINE
  5
5a2
  100
AcDbEntity
  8
1
  100
AcDbLine
  10
4.05204
  20
0.381137
  30
0
  11
4.04504
  21
0.384196
  31
0
  0
LINE
  5
5a3
  100
AcDbEntity
  8
1
  100
AcDbLine
  10
4.04504
  20
0.384196
  30
0
  11
4.03804
  21
0.387218
  31
0
  0
LINE
  5
5a4
  100
AcDbEntity
  8
1
  100
AcDbLine
  10
4.03804
  20
0.387218
  30
0
  11
4.03104
  21
0.390203
  31
0
  0
LINE
  5
5a5
  100
AcDbEntity
  8
1
  100
AcDbLine
  10
4.03104
  20
0.390203
  30
0
  11
4.02404
  21
0.39315
  31
0
  0
LINE
  5
5a6
  100
AcDbEntity
  8
1
  100
AcDbLine
  10
4.02404
  20
0.39315
  30
0
  11
4.01704
  21
0.39606
  31
0
  0
LINE
  5
5a7
  100
AcDbEntity
  8
1
  100
AcDbLine
  10
4.01704
  20
0.39606
  30
0
  11
4.01004
  21
0.398932
  31
0
  0
LINE
  5
5a8
  100
AcDbEntity
  8
1
  100
AcDbLine
  10
4.01004
  20
0.398932
  30
0
  11
4.00304
  21
0.401765
  31
0
  0
LINE
  5
5a9
  100
AcDbEntity
  8
1
  100
AcDbLine
  10
4.00304
  20
0.401765
  30
0
  11
3.99604
  21
0.404559
  31
0
  0
LINE
  5
5aa
  100
AcDbEntity
  8
1
  100
AcDbLine
  10
3.99604
  20
0.404559
  30
0
  11
3.98904
  21
0.407315
  31
0
  0
LINE
  5
5ab
  100
AcDbEntity
  8
1
  100
AcDbLine
  10
3.98904
  20
0.407315
  30
0
  11
3.98204
  21
0.410032
  31
0
  0
LINE
  5
5ac
  100
AcDbEntity
  8
1
  100
AcDbLine
  10
3.98204
  20
0.410032
  30
0
  11
3.97504
  21
0.412709
  31
0
  0
LINE
  5
5ad
  100
AcDbEntity
  8
1
  100
AcDbLine
  10
3.97504
  20
0.412709
  30
0
  11
3.96804
  21
0.415347
  31
0
  0
LINE
  5
5ae
  100
AcDbEntity
  8
1
  100
AcDbLine
  10
3.96804
  20
0.415347
  30
0
  11
3.96104
  21
0.417944
  31
0
  0
LINE
  5
5af
  100
AcDbEntity
  8
1
  100
AcDbLine
  10
3.96104
  20
0.417944
  30
0
  11
3.95404
  21
0.420502
  31
0
  0
LINE
  5
5b0
  100
AcDbEntity
  8
1
  100
AcDbLine
  10
3.95404
  20
0.420502
  30
0
  11
3.94704
  21
0.423019
  31
0
  0
LINE
  5
5b1
  100
AcDbEntity
  8
1
  100
AcDbLine
  10
3.94704
  20
0.423019
  30
0
  11
3.94004
  21
0.425495
  31
0
  0
LINE
  5
5b2
  100
AcDbEntity
  8
1
  100
AcDbLine
  10
3.94004
  20
0.425495
  30
0
  11
3.93304
  21
0.427931
  31
0
  0
LINE
  5
5b3
  100
AcDbEntity
  8
1
  100
AcDbLine
  10
3.93304
  20
0.427931
  30
0
  11
3.92604
  21
0.430325
  31
0
  0
LINE
  5
5b4
  100
AcDbEntity
  8
1
  100
AcDbLine
  10
3.92604
  20
0.430325
  30
0
  11
3.91904
  21
0.432678
  31
0
  0
LINE
  5
5b5
  100
AcDbEntity
  8
1
  100
AcDbLine
  10
3.91904
  20
0.432678
  30
0
  11
3.91204
  21
0.43499
  31
0
  0
LINE
  5
5b6
  100
AcDbEntity
  8
1
  100
AcDbLine
  10
3.91204
  20
0.43499
  30
0
  11
3.90504
  21
0.43726
  31
0
  0
LINE
  5
5b7
  100
AcDbEntity
  8
1
  100
AcDbLine
  10
3.90504
  20
0.43726
  30
0
  11
3.89804
  21
0.439487
  31
0
  0
LINE
  5
5b8
  100
AcDbEntity
  8
1
  100
AcDbLine
  10
3.89804
  20
0.439487
  30
0
  11
3.89104
  21
0.441673
  31
0
  0
LINE
  5
5b9
  100
AcDbEntity
  8
1
  100
AcDbLine
  10
3.89104
  20
0.441673
  30
0
  11
3.88404
  21
0.443816
  31
0
  0
LINE
  5
5ba
  100
AcDbEntity
  8
1
  100
AcDbLine
  10
3.88404
  20
0.443816
  30
0
  11
3.87704
  21
0.445916
  31
0
  0
LINE
  5
5bb
  100
AcDbEntity
  8
1
  100
AcDbLine
  10
3.87704
  20
0.445916
  30
0
  11
3.87004
  21
0.447974
  31
0
  0
LINE
  5
5bc
  100
AcDbEntity
  8
1
  100
AcDbLine
  10
3.87004
  20
0.447974
  30
0
  11
3.86304
  21
0.449988
  31
0
  0
LINE
  5
5bd
  100
AcDbEntity
  8
1
  100
AcDbLine
  10
3.86304
  20
0.449988
  30
0
  11
3.85604
  21
0.451959
  31
0
  0
LINE
  5
5be
  100
AcDbEntity
  8
1
  100
AcDbLine
  10
3.85604
  20
0.451959
  30
0
  11
3.84904
  21
0.453887
  31
0
  0
LINE
  5
5bf
  100
AcDbEntity
  8
1
  100
AcDbLine
  10
3.84904
  20
0.453887
  30
0
  11
3.84204
  21
0.455771
  31
0
  0
LINE
  5
5c0
  100
AcDbEntity
  8
1
  100
AcDbLine
  10
3.84204
  20
0.455771
  30
0
  11
3.83504
  21
0.457612
  31
0
  0
LINE
  5
5c1
  100
AcDbEntity
  8
1
  100
AcDbLine
  10
3.83504
  20
0.457612
  30
0
  11
3.82804
  21
0.459408
  31
0
  0
LINE
  5
5c2
  100
AcDbEntity
  8
1
  100
AcDbLine
  10
3.82804
  20
0.459408
  30
0
  11
3.82104
  21
0.46116
  31
0
  0
LINE
  5
5c3
  100
AcDbEntity
  8
1
  100
AcDbLine
  10
3.82104
  20
0.46116
  30
0
  11
3.81404
  21
0.462868
  31
0
  0
LINE
  5
5c4
  100
AcDbEntity
  8
1
  100
AcDbLine
  10
3.81404
  20
0.462868
  30
0
  11
3.80704
  21
0.464532
  31
0
  0
LINE
  5
5c5
  100
AcDbEntity
  8
1
  100
AcDbLine
  10
3.80704
  20
0.464532
  30
0
  11
3.80004
  21
0.466151
  31
0
  0
LINE
  5
5c6
  100
AcDbEntity
  8
1
  100
AcDbLine
  10
3.80004
  20
0.466151
  30
0
  11
3.79304
  21
0.467725
  31
0
  0
LINE
  5
5c7
  100
AcDbEntity
  8
1
  100
AcDbLine
  10
3.79304
  20
0.467725
  30
0
  11
3.78604
  21
0.469254
  31
0
  0
LINE
  5
5c8
  100
AcDbEntity
  8
1
  100
AcDbLine
  10
3.78604
  20
0.469254
  30
0
  11
3.77904
  21
0.470738
  31
0
  0
LINE
  5
5c9
  100
AcDbEntity
  8
1
  100
AcDbLine
  10
3.77904
  20
0.470738
  30
0
  11
3.77204
  21
0.472176
  31
0
  0
LINE
  5
5ca
  100
AcDbEntity
  8
1
  100
AcDbLine
  10
3.77204
  20
0.472176
  30
0
  11
3.76504
  21
0.47357
  31
0
  0
LINE
  5
5cb
  100
AcDbEntity
  8
1
  100
AcDbLine
  10
3.76504
  20
0.47357
  30
0
  11
3.75804
  21
0.474918
  31
0
  0
LINE
  5
5cc
  100
AcDbEntity
  8
1
  100
AcDbLine
  10
3.75804
  20
0.474918
  30
0
  11
3.75104
  21
0.47622
  31
0
  0
LINE
  5
5cd
  100
AcDbEntity
  8
1
  100
AcDbLine
  10
3.75104
  20
0.47622
  30
0
  11
3.74404
  21
0.477476
  31
0
  0
LINE
  5
5ce
  100
AcDbEntity
  8
1
  100
AcDbLine
  10
3.74404
  20
0.477476
  30
0
  11
3.73704
  21
0.478687
  31
0
  0
LINE
  5
5cf
  100
AcDbEntity
  8
1
  100
AcDbLine
  10
0
  20
1.5
  30
0
  11
0
  21
-1.5
  31
0
  0
LINE
  5
5d0
  100
AcDbEntity
  8
1
  100
AcDbLine
  10
0
  20
-1.5
  30
0
  11
0
  21
1.5
  31
0
  0
LINE
  5
5d1
  100
AcDbEntity
  8
SK1
  100
AcDbLine
  10
0
  20
1.5
  30
0
  11
-33.56796
  21
1.5
  31
0
  0
LINE
  5
5d2
  100
AcDbEntity
  8
SK1
  100
AcDbLine
  10
-33.56796
  20
1.5
  30
0
  11
-34.26796
  21
0.8
  31
0
  0
LINE
  5
5d3
  100
AcDbEntity
  8
SK1
  100
AcDbLine
  10
0
  20
-1.5
  30
0
  11
-33.56796
  21
-1.5
  31
0
  0
LINE
  5
5d4
  100
AcDbEntity
  8
SK1
  100
AcDbLine
  10
-33.56796
  20
-1.5
  30
0
  11
-34.26796
  21
-0.8
  31
0
  0
LINE
  5
5d5
  100
AcDbEntity
  8
SK1
  100
AcDbLine
  10
0
  20
1.5
  30
0
  11
0
  21
-1.5
  31
0
  0
LINE
  5
5d6
  100
AcDbEntity
  8
SK1
  100
AcDbLine
  10
0
  20
1.5
  30
0
  11
0
  21
-1.5
  31
0
  0
LINE
  5
5d7
  100
AcDbEntity
  8
SK1
  100
AcDbLine
  10
-33.56796
  20
1.5
  30
0
  11
-33.56796
  21
-1.5
  31
0
  0
LINE
  5
5d8
  100
AcDbEntity
  8
SK1
  100
AcDbLine
  10
-34.26796
  20
0.8
  30
0
  11
-34.26796
  21
-0.8
  31
0
  0
LINE
  5
61f
  100
AcDbEntity
  8
NOCUT
  100
AcDbLine
  10
3.73204
  20
0
  30
0
  11
3.73204
  21
0.5
  31
0
  0
LINE
  5
620
  100
AcDbEntity
  8
NOCUT
  100
AcDbLine
  10
3.73204
  20
0.5
  30
0
  11
0
  21
1.5
  31
0
  0
LINE
  5
621
  100
AcDbEntity
  8
NOCUT
  100
AcDbLine
  10
0
  20
1.5
  30
0
  11
-33.56796
  21
1.5
  31
0
  0
LINE
  5
622
  100
AcDbEntity
  8
NOCUT
  100
AcDbLine
  10
-33.56796
  20
1.5
  30
0
  11
-34.26796
  21
0.8
  31
0
  0
LINE
  5
623
  100
AcDbEntity
  8
NOCUT
  100
AcDbLine
  10
-34.26796
  20
0.8
  30
0
  11
-34.26796
  21
0
  31
0
  0
LINE
  5
624
  100
AcDbEntity
  8
NOCUT
  100
AcDbLine
  10
-34.26796
  20
0
  30
0
  11
3.73204
  21
0
  31
0
  0
LINE
  5
625
  100
AcDbEntity
  8
CUT
  100
AcDbLine
  10
5.73204
  20
0
  30
0
  11
5.73204
  21
0.48
  31
0
  0
LINE
  5
626
  100
AcDbEntity
  8
CUT
  100
AcDbLine
  10
5.73204
  20
0.48
  30
0
  11
5.71204
  21
0.5
  31
0
  0
LINE
  5
627
  100
AcDbEntity
  8
CUT
  100
AcDbLine
  10
5.71204
  20
0.5
  30
0
  11
3.73204
  21
0.5
  31
0
  0
LINE
  5
628
  100
AcDbEntity
  8
CUT
  100
AcDbLine
  10
3.73204
  20
0.5
  30
0
  11
3.73204
  21
0
  31
0
  0
LINE
  5
629
  100
AcDbEntity
  8
CUT
  100
AcDbLine
  10
3.73204
  20
0
  30
0
  11
5.73204
  21
0
  31
0
  0
LINE
  5
62a
  100
AcDbEntity
  8
4
  100
AcDbLine
  10
-34.26796
  20
0
  30
0
  11
5.73204
  21
0
  31
0
  0
LINE
  5
62b
  100
AcDbEntity
  8
INFTOTAL
  100
AcDbLine
  10
-49.81168
  20
45.487018
  30
0
  11
28.15016
  21
45.487018
  31
0
  0
LINE
  5
62c
  100
AcDbEntity
  8
INFTOTAL
  100
AcDbLine
  10
28.15016
  20
45.487018
  30
0
  11
28.15016
  21
-24.581287
  31
0
  0
LINE
  5
62d
  100
AcDbEntity
  8
INFTOTAL
  100
AcDbLine
  10
28.15016
  20
-24.581287
  30
0
  11
-49.81168
  21
-24.581287
  31
0
  0
LINE
  5
62e
  100
AcDbEntity
  8
INFTOTAL
  100
AcDbLine
  10
-49.81168
  20
-24.581287
  30
0
  11
-49.81168
  21
45.487018
  31
0
  0
ENDSEC
  0
SECTION
  2
OBJECTS
  0
DICTIONARY
  5
62f
  330
0
100
AcDbDictionary
281
    1
  3
ACAD_GROUP
  350
630
  0
DICTIONARY
  5
630
102
{ACAD_REACTORS
  330
62f
102
}
  330
62f
100
AcDbDictionary
281
    1
  0
ENDSEC
  0
EOF
