999
DXF file: 50-490-dl12-ex.dxf
999
Pro/ENGINEER 2011490 by Parametric Technology Corporation
  0
SECTION
  2
HEADER
  9
$ACADVER
  1
AC1021
  9
$DWGCODEPAGE
  3
ANSI_1252
  9
$EXTMAX
 10
420.0
 20
297.0
 30
0.0
  9
$EXTMIN
 10
0.0
 20
0.0
 30
0.0
  9
$LIMMIN
 10
0.0
 20
0.0
  9
$LIMMAX
 10
420.0
 20
297.0
  9
$VIEWCTR
 10
210.0
 20
148.5
  9
$VIEWSIZE
 40
297.0
  9
$CLAYER
  8
0
  9
$LTSCALE
 40
23.1
  9
$CELTYPE
  6
BYLAYER
  9
$DIMSCALE
 40
1.0
  9
$DIMASZ
 40
3.5
  9
$DIMEXO
 40
2.625
  9
$DIMDLI
 40
15.96
  9
$DIMEXE
 40
7.56
  9
$DIMCEN
 40
3.78
  9
$DIMLFAC
 40
1.0
  9
$DIMBLK
  1
_FILLED
  9
$DIMTXT
 40
3.5
  9
$DIMTOL
 70
1
  9
$DIMLIM
 70
0
  9
$DIMTFAC
 40
1.0
  9
$DIMTP
 40
0.005
  9
$DIMTM
 40
0.005
  9
$PDMODE
 70
3
  9
$PDSIZE
 40
0.3125
  9
$HANDSEED
  5
30D
  9
$TILEMODE
 70
1
  9
$MEASUREMENT
 70
1
  9
$INSUNITS
 70
4
  0
ENDSEC
  0
SECTION
  2
CLASSES
  0
CLASS
  1
ACDBDICTIONARYWDFLT
  2
AcDbDictionaryWithDefault
  3
AutoCAD 2000
 90
0
 91
1
280
0
281
0
  0
CLASS
  1
ACDBPLACEHOLDER
  2
AcDbPlaceHolder
  3
AutoCAD 2000
 90
0
 91
1
280
0
281
0
  0
CLASS
  1
LAYOUT
  2
AcDbLayout
  3
AutoCAD 2000
 90
0
 91
0
280
0
281
0
  0
ENDSEC
  0
SECTION
  2
TABLES
  0
TABLE
  2
VPORT
  5
8
100
AcDbSymbolTable
 70
2
  0
VPORT
  5
1F4
100
AcDbSymbolTableRecord
100
AcDbViewportTableRecord
  2
*ACTIVE
 70
0
 10
0.0
 20
0.0
 11
1.0
 21
1.0
 12
210.0
 22
148.5
 13
0.0
 23
0.0
 14
1.0
 24
1.0
 15
0.0
 25
0.0
 16
0.0
 26
0.0
 36
1.0
 17
0.0
 27
0.0
 37
0.0
 40
297.0
 41
1.4141414141
 42
50.0
 43
0.0
 44
0.0
 50
0.0
 51
0.0
 71
0
 72
100
 73
1
 74
1
 75
0
 76
0
 77
0
 78
0
  0
ENDTAB
  0
TABLE
  2
LTYPE
  5
5
100
AcDbSymbolTable
 70
6
  0
LTYPE
  5
14
100
AcDbSymbolTableRecord
100
AcDbLinetypeTableRecord
  2
BYBLOCK
 70
0
  3

 72
65
 73
0
 40
0.0
  0
LTYPE
  5
15
100
AcDbSymbolTableRecord
100
AcDbLinetypeTableRecord
  2
BYLAYER
 70
0
  3

 72
65
 73
0
 40
0.0
  0
LTYPE
  5
16
100
AcDbSymbolTableRecord
100
AcDbLinetypeTableRecord
  2
CONTINUOUS
 70
64
  3
Solid line
 72
65
 73
0
 40
0.0
  0
LTYPE
  5
1F5
100
AcDbSymbolTableRecord
100
AcDbLinetypeTableRecord
  2
CENTER
 70
64
  3
____ _ ____ _ ____ _ ____ _ ____ _ ____ _ ____
 72
65
 73
4
 40
0.6
 49
0.375
 74
0
 49
-0.075
 74
0
 49
0.075
 74
0
 49
-0.075
 74
0
  0
LTYPE
  5
1F6
100
AcDbSymbolTableRecord
100
AcDbLinetypeTableRecord
  2
HIDDEN
 70
64
  3
- - - - - - - - - - - - - - - - - - - -
 72
65
 73
2
 40
0.2
 49
0.1
 74
0
 49
-0.1
 74
0
  0
LTYPE
  5
1F7
100
AcDbSymbolTableRecord
100
AcDbLinetypeTableRecord
  2
PHANTOM
 70
64
  3
_____ _ _ _____ _ _ _____ _ _ _____
 72
65
 73
6
 40
0.8
 49
0.45
 74
0
 49
-0.05
 74
0
 49
0.1
 74
0
 49
-0.05
 74
0
 49
0.1
 74
0
 49
-0.05
 74
0
  0
LTYPE
  5
1F8
100
AcDbSymbolTableRecord
100
AcDbLinetypeTableRecord
  2
DOT
 70
64
  3
. . . . . . . . . . . . . . . . . . . .
 72
65
 73
2
 40
0.2
 49
0.1
 74
0
 49
-0.1
 74
0
  0
LTYPE
  5
1F9
100
AcDbSymbolTableRecord
100
AcDbLinetypeTableRecord
  2
DASHED
 70
64
  3
- - - - - - - - - - - - - - - - - - - -
 72
65
 73
2
 40
0.2
 49
0.1
 74
0
 49
-0.1
 74
0
  0
ENDTAB
  0
TABLE
  2
LAYER
  5
2
100
AcDbSymbolTable
 70
36
  0
LAYER
  5
10
100
AcDbSymbolTableRecord
100
AcDbLayerTableRecord
  2
0
 70
0
 62
7
  6
CONTINUOUS
370
-3
390
F
  0
LAYER
  5
1FA
100
AcDbSymbolTableRecord
100
AcDbLayerTableRecord
  2
DEFAULT_1
 70
0
 62
7
  6
CENTER
370
-3
390
F
  0
LAYER
  5
1FB
100
AcDbSymbolTableRecord
100
AcDbLayerTableRecord
  2
DEFAULT_2
 70
0
 62
8
  6
HIDDEN
370
-3
390
F
  0
LAYER
  5
1FC
100
AcDbSymbolTableRecord
100
AcDbLayerTableRecord
  2
DEFAULT_3
 70
0
 62
7
  6
PHANTOM
370
-3
390
F
  0
LAYER
  5
1FD
100
AcDbSymbolTableRecord
100
AcDbLayerTableRecord
  2
1
 70
0
 62
7
  6
CONTINUOUS
370
-3
390
F
  0
LAYER
  5
1FE
100
AcDbSymbolTableRecord
100
AcDbLayerTableRecord
  2
2
 70
0
 62
7
  6
CONTINUOUS
370
-3
390
F
  0
LAYER
  5
1FF
100
AcDbSymbolTableRecord
100
AcDbLayerTableRecord
  2
4
 70
0
 62
7
  6
CONTINUOUS
370
-3
390
F
  0
LAYER
  5
200
100
AcDbSymbolTableRecord
100
AcDbLayerTableRecord
  2
ACHSEN
 70
0
 62
7
  6
CONTINUOUS
370
-3
390
F
  0
LAYER
  5
201
100
AcDbSymbolTableRecord
100
AcDbLayerTableRecord
  2
ANALYSEN
 70
0
 62
7
  6
CONTINUOUS
370
-3
390
F
  0
LAYER
  5
202
100
AcDbSymbolTableRecord
100
AcDbLayerTableRecord
  2
AUFMASS_WEICHBEARBEITUNG
 70
0
 62
7
  6
CONTINUOUS
370
-3
390
F
  0
LAYER
  5
203
100
AcDbSymbolTableRecord
100
AcDbLayerTableRecord
  2
AUFMASS_WEICHBE_INNENKONTUR
 70
0
 62
7
  6
CONTINUOUS
370
-3
390
F
  0
LAYER
  5
204
100
AcDbSymbolTableRecord
100
AcDbLayerTableRecord
  2
AUSSENKONTUR
 70
0
 62
7
  6
CONTINUOUS
370
-3
390
F
  0
LAYER
  5
205
100
AcDbSymbolTableRecord
100
AcDbLayerTableRecord
  2
BEZUGSACHSEN
 70
0
 62
7
  6
CONTINUOUS
370
-3
390
F
  0
LAYER
  5
206
100
AcDbSymbolTableRecord
100
AcDbLayerTableRecord
  2
BEZUGSACHSENKENNZEICHEN
 70
0
 62
7
  6
CONTINUOUS
370
-3
390
F
  0
LAYER
  5
207
100
AcDbSymbolTableRecord
100
AcDbLayerTableRecord
  2
BEZUGSEBENEN
 70
0
 62
7
  6
CONTINUOUS
370
-3
390
F
  0
LAYER
  5
208
100
AcDbSymbolTableRecord
100
AcDbLayerTableRecord
  2
BEZUGSEBENE_B
 70
0
 62
7
  6
CONTINUOUS
370
-3
390
F
  0
LAYER
  5
209
100
AcDbSymbolTableRecord
100
AcDbLayerTableRecord
  2
BEZUGSPUNKTE
 70
0
 62
7
  6
CONTINUOUS
370
-3
390
F
  0
LAYER
  5
20A
100
AcDbSymbolTableRecord
100
AcDbLayerTableRecord
  2
BOHRUNGEN
 70
0
 62
7
  6
CONTINUOUS
370
-3
390
F
  0
LAYER
  5
20B
100
AcDbSymbolTableRecord
100
AcDbLayerTableRecord
  2
EBENEN
 70
0
 62
7
  6
CONTINUOUS
370
-3
390
F
  0
LAYER
  5
20C
100
AcDbSymbolTableRecord
100
AcDbLayerTableRecord
  2
FASEN
 70
0
 62
7
  6
CONTINUOUS
370
-3
390
F
  0
LAYER
  5
20D
100
AcDbSymbolTableRecord
100
AcDbLayerTableRecord
  2
FLAECHEN
 70
0
 62
7
  6
CONTINUOUS
370
-3
390
F
  0
LAYER
  5
20E
100
AcDbSymbolTableRecord
100
AcDbLayerTableRecord
  2
FORM_LAGE_TOLERANZEN
 70
0
 62
7
  6
CONTINUOUS
370
-3
390
F
  0
LAYER
  5
20F
100
AcDbSymbolTableRecord
100
AcDbLayerTableRecord
  2
GEWINDE
 70
0
 62
7
  6
CONTINUOUS
370
-3
390
F
  0
LAYER
  5
210
100
AcDbSymbolTableRecord
100
AcDbLayerTableRecord
  2
HILFEN
 70
0
 62
7
  6
CONTINUOUS
370
-3
390
F
  0
LAYER
  5
211
100
AcDbSymbolTableRecord
100
AcDbLayerTableRecord
  2
INNENKONTUR
 70
0
 62
7
  6
CONTINUOUS
370
-3
390
F
  0
LAYER
  5
212
100
AcDbSymbolTableRecord
100
AcDbLayerTableRecord
  2
KOORDINATENSYSTEME
 70
0
 62
7
  6
CONTINUOUS
370
-3
390
F
  0
LAYER
  5
213
100
AcDbSymbolTableRecord
100
AcDbLayerTableRecord
  2
KOORDSYS
 70
0
 62
7
  6
CONTINUOUS
370
-3
390
F
  0
LAYER
  5
214
100
AcDbSymbolTableRecord
100
AcDbLayerTableRecord
  2
KT-AUFMASS_BEI_HARTBEARBEITUNG
 70
0
 62
7
  6
CONTINUOUS
370
-3
390
F
  0
LAYER
  5
215
100
AcDbSymbolTableRecord
100
AcDbLayerTableRecord
  2
KT-AUFMASS_BEI_WEICHBEARBEITUNG
 70
0
 62
7
  6
CONTINUOUS
370
-3
390
F
  0
LAYER
  5
216
100
AcDbSymbolTableRecord
100
AcDbLayerTableRecord
  2
KT-BASISBEMASSUNG
 70
0
 62
7
  6
CONTINUOUS
370
-3
390
F
  0
LAYER
  5
217
100
AcDbSymbolTableRecord
100
AcDbLayerTableRecord
  2
KT-BESCHRIFTUNG
 70
0
 62
7
  6
CONTINUOUS
370
-3
390
F
  0
LAYER
  5
218
100
AcDbSymbolTableRecord
100
AcDbLayerTableRecord
  2
KT-HARTBEARBEITUNG
 70
0
 62
7
  6
CONTINUOUS
370
-3
390
F
  0
LAYER
  5
219
100
AcDbSymbolTableRecord
100
AcDbLayerTableRecord
  2
KT-WEICHBEARBEITUNG
 70
0
 62
7
  6
CONTINUOUS
370
-3
390
F
  0
LAYER
  5
21A
100
AcDbSymbolTableRecord
100
AcDbLayerTableRecord
  2
KURVEN
 70
0
 62
7
  6
CONTINUOUS
370
-3
390
F
  0
LAYER
  5
21B
100
AcDbSymbolTableRecord
100
AcDbLayerTableRecord
  2
KURVE_FUER_GTOL_DETAILANSICHT
 70
0
 62
7
  6
CONTINUOUS
370
-3
390
F
  0
LAYER
  5
21C
100
AcDbSymbolTableRecord
100
AcDbLayerTableRecord
  2
KURVE_GAUGE2_POLIGON_INNENEINST
 70
0
 62
7
  6
CONTINUOUS
370
-3
390
F
  0
LAYER
  5
21D
100
AcDbSymbolTableRecord
100
AcDbLayerTableRecord
  2
KURVE_PHANTOM1_GAUGE_PIN_1
 70
0
 62
7
  6
CONTINUOUS
370
-3
390
F
  0
LAYER
  5
21E
100
AcDbSymbolTableRecord
100
AcDbLayerTableRecord
  2
KURVE_PHANTOM2_GAUGE_PIN1
 70
0
 62
7
  6
CONTINUOUS
370
-3
390
F
  0
LAYER
  5
21F
100
AcDbSymbolTableRecord
100
AcDbLayerTableRecord
  2
KURVE_POLIGON_BEMASUNG
 70
0
 62
7
  6
CONTINUOUS
370
-3
390
F
  0
LAYER
  5
220
100
AcDbSymbolTableRecord
100
AcDbLayerTableRecord
  2
NOCUT
 70
0
 62
7
  6
CONTINUOUS
370
-3
390
F
  0
LAYER
  5
221
100
AcDbSymbolTableRecord
100
AcDbLayerTableRecord
  2
PLATZIERUNG
 70
0
 62
7
  6
CONTINUOUS
370
-3
390
F
  0
LAYER
  5
222
100
AcDbSymbolTableRecord
100
AcDbLayerTableRecord
  2
PUNKTE
 70
0
 62
7
  6
CONTINUOUS
370
-3
390
F
  0
LAYER
  5
223
100
AcDbSymbolTableRecord
100
AcDbLayerTableRecord
  2
RUNDUNGEN
 70
0
 62
7
  6
CONTINUOUS
370
-3
390
F
  0
LAYER
  5
224
100
AcDbSymbolTableRecord
100
AcDbLayerTableRecord
  2
SK1
 70
0
 62
7
  6
CONTINUOUS
370
-3
390
F
  0
LAYER
  5
225
100
AcDbSymbolTableRecord
100
AcDbLayerTableRecord
  2
SK4
 70
0
 62
7
  6
CONTINUOUS
370
-3
390
F
  0
LAYER
  5
226
100
AcDbSymbolTableRecord
100
AcDbLayerTableRecord
  2
S_ACHSEN
 70
0
 62
7
  6
CONTINUOUS
370
-3
390
F
  0
LAYER
  5
227
100
AcDbSymbolTableRecord
100
AcDbLayerTableRecord
  2
S_EBENEN
 70
0
 62
7
  6
CONTINUOUS
370
-3
390
F
  0
LAYER
  5
228
100
AcDbSymbolTableRecord
100
AcDbLayerTableRecord
  2
S_KOORDSYS
 70
0
 62
7
  6
CONTINUOUS
370
-3
390
F
  0
LAYER
  5
229
100
AcDbSymbolTableRecord
100
AcDbLayerTableRecord
  2
TEIL_STARTBEZUEGE
 70
0
 62
7
  6
CONTINUOUS
370
-3
390
F
  0
LAYER
  5
22A
100
AcDbSymbolTableRecord
100
AcDbLayerTableRecord
  2
TOL_BEZUEGE
 70
0
 62
7
  6
CONTINUOUS
370
-3
390
F
  0
LAYER
  5
22B
100
AcDbSymbolTableRecord
100
AcDbLayerTableRecord
  2
VERBFLAECHE
 70
0
 62
7
  6
CONTINUOUS
370
-3
390
F
  0
LAYER
  5
22C
100
AcDbSymbolTableRecord
100
AcDbLayerTableRecord
  2
VERERBUNG
 70
0
 62
7
  6
CONTINUOUS
370
-3
390
F
  0
LAYER
  5
22D
100
AcDbSymbolTableRecord
100
AcDbLayerTableRecord
  2
VOLGEOM
 70
0
 62
7
  6
CONTINUOUS
370
-3
390
F
  0
LAYER
  5
22E
100
AcDbSymbolTableRecord
100
AcDbLayerTableRecord
  2
VOLUMEN
 70
0
 62
7
  6
CONTINUOUS
370
-3
390
F
  0
LAYER
  5
22F
100
AcDbSymbolTableRecord
100
AcDbLayerTableRecord
  2
XSEC_DATUMS
 70
0
 62
7
  6
CONTINUOUS
370
-3
390
F
  0
LAYER
  5
230
100
AcDbSymbolTableRecord
100
AcDbLayerTableRecord
  2
ZEICHNUNG
 70
0
 62
7
  6
CONTINUOUS
370
-3
390
F
  0
LAYER
  5
231
100
AcDbSymbolTableRecord
100
AcDbLayerTableRecord
  2
ZEICHNUNGSBEMASSUNGEN
 70
0
 62
7
  6
CONTINUOUS
370
-3
390
F
  0
ENDTAB
  0
TABLE
  2
STYLE
  5
3
100
AcDbSymbolTable
 70
1
  0
STYLE
  5
11
100
AcDbSymbolTableRecord
100
AcDbTextStyleTableRecord
  2
STANDARD
 70
0
 40
0.0
 41
0.7
 50
0.0
 71
0
 42
0.2
  3
txt
  4

  0
STYLE
  5
232
100
AcDbSymbolTableRecord
100
AcDbTextStyleTableRecord
  2
TEXTSTYLE_1
 70
0
 40
0.0
 41
0.8
 50
0.0
 71
0
 42
0.2
  3
gdt
  4

  0
STYLE
  5
233
100
AcDbSymbolTableRecord
100
AcDbTextStyleTableRecord
  2
TEXTSTYLE_2
 70
0
 40
0.0
 41
0.7
 50
0.0
 71
0
 42
0.2
  3
gdt
  4

  0
ENDTAB
  0
TABLE
  2
VIEW
  5
6
100
AcDbSymbolTable
 70
0
  0
ENDTAB
  0
TABLE
  2
UCS
  5
7
100
AcDbSymbolTable
 70
0
  0
ENDTAB
  0
TABLE
  2
APPID
  5
9
100
AcDbSymbolTable
 70
1
  0
APPID
  5
234
100
AcDbSymbolTableRecord
100
AcDbRegAppTableRecord
  2
ACAD
 70
0
  0
ENDTAB
  0
TABLE
  2
BLOCK_RECORD
  5
1
100
AcDbSymbolTable
 70
0
  0
BLOCK_RECORD
  5
235
100
AcDbSymbolTableRecord
100
AcDbBlockTableRecord
  2
*Model_Space
  0
BLOCK_RECORD
  5
236
100
AcDbSymbolTableRecord
100
AcDbBlockTableRecord
  2
*Paper_Space
  0
BLOCK_RECORD
  5
237
100
AcDbSymbolTableRecord
100
AcDbBlockTableRecord
  2
_FILLED
  0
BLOCK_RECORD
  5
238
100
AcDbSymbolTableRecord
100
AcDbBlockTableRecord
  2
*D0
  0
BLOCK_RECORD
  5
239
100
AcDbSymbolTableRecord
100
AcDbBlockTableRecord
  2
*D1
  0
BLOCK_RECORD
  5
23A
100
AcDbSymbolTableRecord
100
AcDbBlockTableRecord
  2
*D2
  0
BLOCK_RECORD
  5
23B
100
AcDbSymbolTableRecord
100
AcDbBlockTableRecord
  2
*D3
  0
BLOCK_RECORD
  5
23C
100
AcDbSymbolTableRecord
100
AcDbBlockTableRecord
  2
*D4
  0
BLOCK_RECORD
  5
23D
100
AcDbSymbolTableRecord
100
AcDbBlockTableRecord
  2
*D5
  0
BLOCK_RECORD
  5
23E
100
AcDbSymbolTableRecord
100
AcDbBlockTableRecord
  2
*D6
  0
ENDTAB
  0
TABLE
  2
DIMSTYLE
  5
A
100
AcDbSymbolTable
 70
1
100
AcDbDimStyleTable
 71
0
  0
DIMSTYLE
105
23F
100
AcDbSymbolTableRecord
100
AcDbDimStyleTableRecord
  2
STANDARD
 70
0
  3

  4

 40
1.0
 41
3.5
 42
0.0625
 43
0.38
 44
0.18
 45
0.0
 46
0.0
 47
0.005
 48
0.005
140
3.5
141
0.09
142
0.0
143
25.4
144
1.0
145
0.0
146
1.0
147
0.09
 71
1.0
 72
0.0
 73
0
 74
0
 75
0
 76
0
 77
1
 78
8
170
0
171
2
172
0
173
0
174
0
175
0
176
0
177
0
178
5
270
2
271
3
272
3
273
2
274
2
275
0
280
0
281
0
282
0
283
1
284
8
285
0
286
0
287
3
288
0
340
11
341
237
342
237
343
237
344
237
  0
DIMSTYLE
105
240
100
AcDbSymbolTableRecord
100
AcDbDimStyleTableRecord
  2
DIMSTYLE_1
 70
0
  3

  4

 40
1.0
 41
3.5
 42
0.0625
 43
0.38
 44
0.18
 45
0.0
 46
0.0
 47
0.5
 48
0.5
140
3.5
141
0.09
142
0.0
143
25.4
144
1.0
145
0.0
146
1.0
147
0.09
 71
0.0
 72
0.0
 73
0
 74
0
 75
0
 76
0
 77
1
 78
8
170
0
171
2
172
0
173
0
174
0
175
0
176
0
177
0
178
5
270
2
271
3
272
3
273
2
274
2
275
0
280
0
281
0
282
0
283
1
284
8
285
0
286
0
287
3
288
0
340
11
341
237
342
237
343
237
344
237
  0
DIMSTYLE
105
241
100
AcDbSymbolTableRecord
100
AcDbDimStyleTableRecord
  2
DIMSTYLE_2
 70
0
  3

  4

 40
1.0
 41
3.5
 42
0.0625
 43
0.38
 44
0.18
 45
0.0
 46
0.0
 47
0.005
 48
0.005
140
3.5
141
0.09
142
0.0
143
25.4
144
1.0
145
0.0
146
1.0
147
0.09
 71
0.0
 72
0.0
 73
0
 74
0
 75
0
 76
0
 77
1
 78
8
170
0
171
2
172
0
173
0
174
0
175
0
176
0
177
0
178
5
270
2
271
3
272
3
273
2
274
2
275
0
280
0
281
0
282
0
283
1
284
8
285
0
286
0
287
3
288
0
340
11
341
237
342
237
343
237
344
237
  0
DIMSTYLE
105
242
100
AcDbSymbolTableRecord
100
AcDbDimStyleTableRecord
  2
DIMSTYLE_3
 70
0
  3

  4

 40
1.0
 41
3.5
 42
0.0625
 43
0.38
 44
0.18
 45
0.0
 46
0.0
 47
0.0
 48
0.0
140
3.5
141
0.09
142
0.0
143
25.4
144
1.0
145
0.0
146
1.0
147
0.09
 71
0.0
 72
0.0
 73
0
 74
0
 75
0
 76
0
 77
1
 78
8
170
0
171
2
172
0
173
0
174
0
175
0
176
0
177
0
178
5
270
2
271
3
272
3
273
2
274
2
275
0
280
0
281
0
282
0
283
1
284
8
285
0
286
0
287
3
288
0
340
11
341
237
342
237
343
237
344
237
  0
DIMSTYLE
105
243
100
AcDbSymbolTableRecord
100
AcDbDimStyleTableRecord
  2
DIMSTYLE_4
 70
0
  3

  4

 40
1.0
 41
3.5
 42
0.0625
 43
0.38
 44
0.18
 45
0.0
 46
0.0
 47
0.3
 48
0.3
140
3.5
141
0.09
142
0.0
143
25.4
144
1.0
145
0.0
146
1.0
147
0.09
 71
0.0
 72
0.0
 73
0
 74
0
 75
0
 76
0
 77
1
 78
8
170
0
171
2
172
0
173
0
174
0
175
0
176
0
177
0
178
5
270
2
271
3
272
3
273
2
274
2
275
0
280
0
281
0
282
0
283
1
284
8
285
0
286
0
287
3
288
0
340
11
341
237
342
237
343
237
344
237
  0
DIMSTYLE
105
244
100
AcDbSymbolTableRecord
100
AcDbDimStyleTableRecord
  2
DIMSTYLE_5
 70
0
  3

  4

 40
1.0
 41
3.5
 42
0.0625
 43
0.38
 44
0.18
 45
0.0
 46
0.0
 47
0.2
 48
0.2
140
3.5
141
0.09
142
0.0
143
25.4
144
1.0
145
0.0
146
1.0
147
0.09
 71
0.0
 72
0.0
 73
0
 74
0
 75
0
 76
0
 77
1
 78
8
170
0
171
2
172
0
173
0
174
0
175
0
176
0
177
0
178
5
270
2
271
3
272
3
273
2
274
2
275
0
280
0
281
0
282
0
283
1
284
8
285
0
286
0
287
3
288
0
340
11
341
237
342
237
343
237
344
237
  0
ENDTAB
  0
ENDSEC
  0
SECTION
  2
BLOCKS
  0
BLOCK
  5
20
100
AcDbEntity
  8
0
100
AcDbBlockBegin
  2
*Model_Space
 70
0
 10
0.0
 20
0.0
 30
0.0
  3
*Model_Space
  1

  0
ENDBLK
  5
21
100
AcDbEntity
  8
0
100
AcDbBlockEnd
  0
BLOCK
  5
1C
100
AcDbEntity
  8
0
100
AcDbBlockBegin
  2
*Paper_Space
 70
0
 10
0.0
 20
0.0
 30
0.0
  3
*Paper_Space
  1

  0
ENDBLK
  5
1D
100
AcDbEntity
  8
0
100
AcDbBlockEnd
  0
BLOCK
  5
245
100
AcDbEntity
  8
0
100
AcDbBlockBegin
  2
_FILLED
 70
64
 10
0.0
 20
0.0
  3
_FILLED
  1

  0
SOLID
  5
246
100
AcDbEntity
  8
0
  6
BYBLOCK
 62
0
100
AcDbTrace
 10
0.0
 20
0.0
 11
-1.0
 21
0.125
 12
-1.0
 22
-0.125
 13
-1.0
 23
-0.125
  0
ENDBLK
  5
247
100
AcDbEntity
  8
0
  6
BYBLOCK
 62
0
100
AcDbBlockEnd
  0
BLOCK
  5
248
100
AcDbEntity
  8
ZEICHNUNGSBEMASSUNGEN
100
AcDbBlockBegin
 62
2
  6
CONTINUOUS
  2
*D0
 70
65
 10
0.0
 20
0.0
  3
*D0
  1

  0
MTEXT
  5
249
100
AcDbEntity
  8
ZEICHNUNGSBEMASSUNGEN
100
AcDbMText
 62
5
  6
CONTINUOUS
  7
STANDARD
 71
2
 72
1
 10
196.6703748202
 20
244.6247308954
 30
0.0
 11
1.0
 21
0.0
 31
0.0
 44
0.9
  1
181.6
 40
3.5
 41
11.5
  0
LINE
  5
24A
100
AcDbEntity
  8
ZEICHNUNGSBEMASSUNGEN
100
AcDbLine
 62
2
  6
CONTINUOUS
 10
105.8703748202
 20
187.1761778966
 11
105.8703748202
 21
241.7497308954
  0
LINE
  5
24B
100
AcDbEntity
  8
ZEICHNUNGSBEMASSUNGEN
100
AcDbLine
 62
2
  6
CONTINUOUS
 10
287.4703748202
 20
187.1761778966
 11
287.4703748202
 21
241.7497308954
  0
LINE
  5
24C
100
AcDbEntity
  8
ZEICHNUNGSBEMASSUNGEN
100
AcDbLine
 62
2
  6
CONTINUOUS
 10
105.8703748202
 20
240.2497308954
 11
196.6703748202
 21
240.2497308954
  0
LINE
  5
24D
100
AcDbEntity
  8
ZEICHNUNGSBEMASSUNGEN
100
AcDbLine
 62
2
  6
CONTINUOUS
 10
287.4703748202
 20
240.2497308954
 11
196.6703748202
 21
240.2497308954
  0
INSERT
  5
24E
100
AcDbEntity
  8
ZEICHNUNGSBEMASSUNGEN
100
AcDbBlockReference
 62
2
  6
CONTINUOUS
  2
_FILLED
 10
105.8703748202
 20
240.2497308954
 41
3.5
 42
3.5
 43
3.5
 50
180.0
  0
INSERT
  5
24F
100
AcDbEntity
  8
ZEICHNUNGSBEMASSUNGEN
100
AcDbBlockReference
 62
2
  6
CONTINUOUS
  2
_FILLED
 10
287.4703748202
 20
240.2497308954
 41
3.5
 42
3.5
 43
3.5
  0
ENDBLK
  5
250
100
AcDbEntity
  8
0
  6
BYBLOCK
 62
0
100
AcDbBlockEnd
  0
BLOCK
  5
251
100
AcDbEntity
  8
0
100
AcDbBlockBegin
 62
2
  6
CONTINUOUS
  2
*D1
 70
65
 10
0.0
 20
0.0
  3
*D1
  1

  0
MTEXT
  5
252
100
AcDbEntity
  8
0
100
AcDbMText
 62
5
  6
CONTINUOUS
  7
STANDARD
 71
2
 72
1
 10
252.7126281597
 20
186.8457900716
 30
0.0
 11
0.4270323274
 21
0.9042363581
 31
0.0
 44
0.9
  1
10\Fgdt;{\Fgdt;~}
 40
3.5
 41
7.0833333333
  0
LINE
  5
253
100
AcDbEntity
  8
0
100
AcDbLine
 62
2
  6
CONTINUOUS
 10
279.9931631907
 20
173.5252031619
 11
255.5666304148
 21
177.8322599354
  0
LINE
  5
254
100
AcDbEntity
  8
0
100
AcDbLine
 62
2
  6
CONTINUOUS
 10
279.9703748202
 20
173.2647308954
 11
255.1670234035
 21
173.2647308954
  0
ARC
  5
255
100
AcDbEntity
  8
0
100
AcDbCircle
 62
2
  6
CONTINUOUS
 10
281.4703748202
 20
173.2647308954
 40
24.8033514167
100
AcDbArc
 50
154.7206289223
 51
170.0
  0
ARC
  5
256
100
AcDbEntity
  8
0
100
AcDbCircle
 62
2
  6
CONTINUOUS
 10
281.4703748202
 20
173.2647308954
 40
24.8033514167
100
AcDbArc
 50
180.0
 51
193.8600091295
  0
ARC
  5
257
100
AcDbEntity
  8
0
100
AcDbCircle
 62
2
  6
CONTINUOUS
 10
281.4703748202
 20
173.2647308954
 40
24.8033514167
100
AcDbArc
 50
170.0
 51
180.0
  0
SOLID
  5
258
100
AcDbEntity
  8
0
100
AcDbTrace
 62
2
  6
CONTINUOUS
 10
257.4686619137
 20
181.0733493675
 11
257.0438420443
 21
177.5717876689
 12
258.3175134128
 22
180.8610379627
 13
258.3175134128
 23
180.8610379627
  0
SOLID
  5
259
100
AcDbEntity
  8
0
100
AcDbTrace
 62
2
  6
CONTINUOUS
 10
257.3501725225
 20
169.8042809924
 11
256.6670234035
 21
173.2647308954
 12
256.4773494966
 22
169.7425965909
 13
256.4773494966
 23
169.7425965909
  0
ENDBLK
  5
25A
100
AcDbEntity
  8
0
  6
BYBLOCK
 62
0
100
AcDbBlockEnd
  0
BLOCK
  5
25B
100
AcDbEntity
  8
0
100
AcDbBlockBegin
 62
2
  6
CONTINUOUS
  2
*D2
 70
65
 10
0.0
 20
0.0
  3
*D2
  1

  0
MTEXT
  5
25C
100
AcDbEntity
  8
0
100
AcDbMText
 62
5
  6
CONTINUOUS
  7
STANDARD
 71
2
 72
1
 10
284.4703748202
 20
220.7207887372
 30
0.0
 11
1.0
 21
0.0
 31
0.0
 44
0.9
  1
6
 40
3.5
 41
2.75
  0
LINE
  5
25D
100
AcDbEntity
  8
0
100
AcDbLine
 62
2
  6
CONTINUOUS
 10
281.4703748202
 20
174.7647308954
 11
281.4703748202
 21
217.8457887372
  0
LINE
  5
25E
100
AcDbEntity
  8
0
100
AcDbLine
 62
2
  6
CONTINUOUS
 10
287.4703748202
 20
174.7647308954
 11
287.4703748202
 21
217.8457887372
  0
LINE
  5
25F
100
AcDbEntity
  8
0
100
AcDbLine
 62
2
  6
CONTINUOUS
 10
281.4703748202
 20
216.3457887372
 11
275.4703748202
 21
216.3457887372
  0
LINE
  5
260
100
AcDbEntity
  8
0
100
AcDbLine
 62
2
  6
CONTINUOUS
 10
275.4703748202
 20
216.3457887372
 11
284.4703748202
 21
216.3457887372
  0
LINE
  5
261
100
AcDbEntity
  8
0
100
AcDbLine
 62
2
  6
CONTINUOUS
 10
287.4703748202
 20
216.3457887372
 11
293.4703748202
 21
216.3457887372
  0
LINE
  5
262
100
AcDbEntity
  8
0
100
AcDbLine
 62
2
  6
CONTINUOUS
 10
293.4703748202
 20
216.3457887372
 11
284.4703748202
 21
216.3457887372
  0
INSERT
  5
263
100
AcDbEntity
  8
0
100
AcDbBlockReference
 62
2
  6
CONTINUOUS
  2
_FILLED
 10
281.4703748202
 20
216.3457887372
 41
3.5
 42
3.5
 43
3.5
  0
INSERT
  5
264
100
AcDbEntity
  8
0
100
AcDbBlockReference
 62
2
  6
CONTINUOUS
  2
_FILLED
 10
287.4703748202
 20
216.3457887372
 41
3.5
 42
3.5
 43
3.5
 50
180.0
  0
ENDBLK
  5
265
100
AcDbEntity
  8
0
  6
BYBLOCK
 62
0
100
AcDbBlockEnd
  0
BLOCK
  5
266
100
AcDbEntity
  8
0
100
AcDbBlockBegin
 62
2
  6
CONTINUOUS
  2
*D3
 70
65
 10
0.0
 20
0.0
  3
*D3
  1

  0
MTEXT
  5
267
100
AcDbEntity
  8
0
100
AcDbMText
 62
5
  6
CONTINUOUS
  7
TEXTSTYLE_2
 71
1
 72
1
 10
293.6569215042
 20
178.3492472957
 30
0.0
 11
0.0
 21
1.0
 31
0.0
 44
0.9
  1
{\Fgdt;n}\Ftxt;11.5
 40
3.5
 41
13.1666666667
  0
LINE
  5
268
100
AcDbEntity
  8
0
100
AcDbLine
 62
2
  6
CONTINUOUS
 10
288.9703748202
 20
161.7647308954
 11
299.5319215042
 21
161.7647308954
  0
LINE
  5
269
100
AcDbEntity
  8
0
100
AcDbLine
 62
2
  6
CONTINUOUS
 10
288.9703748202
 20
173.2647308954
 11
299.5319215042
 21
173.2647308954
  0
LINE
  5
26A
100
AcDbEntity
  8
0
100
AcDbLine
 62
2
  6
CONTINUOUS
 10
298.0319215042
 20
161.7647308954
 11
298.0319215042
 21
155.7647308954
  0
LINE
  5
26B
100
AcDbEntity
  8
0
100
AcDbLine
 62
2
  6
CONTINUOUS
 10
298.0319215042
 20
155.7647308954
 11
298.0319215042
 21
167.5147308954
  0
LINE
  5
26C
100
AcDbEntity
  8
0
100
AcDbLine
 62
2
  6
CONTINUOUS
 10
298.0319215042
 20
173.2647308954
 11
298.0319215042
 21
191.5159139624
  0
LINE
  5
26D
100
AcDbEntity
  8
0
100
AcDbLine
 62
2
  6
CONTINUOUS
 10
298.0319215042
 20
191.5159139624
 11
298.0319215042
 21
167.5147308954
  0
INSERT
  5
26E
100
AcDbEntity
  8
0
100
AcDbBlockReference
 62
2
  6
CONTINUOUS
  2
_FILLED
 10
298.0319215042
 20
161.7647308954
 41
3.5
 42
3.5
 43
3.5
 50
90.0
  0
INSERT
  5
26F
100
AcDbEntity
  8
0
100
AcDbBlockReference
 62
2
  6
CONTINUOUS
  2
_FILLED
 10
298.0319215042
 20
173.2647308954
 41
3.5
 42
3.5
 43
3.5
 50
270.0
  0
ENDBLK
  5
270
100
AcDbEntity
  8
0
  6
BYBLOCK
 62
0
100
AcDbBlockEnd
  0
BLOCK
  5
271
100
AcDbEntity
  8
0
100
AcDbBlockBegin
 62
2
  6
CONTINUOUS
  2
*D4
 70
65
 10
0.0
 20
0.0
  3
*D4
  1

  0
MTEXT
  5
272
100
AcDbEntity
  8
0
100
AcDbMText
 62
5
  6
CONTINUOUS
  7
STANDARD
 71
2
 72
1
 10
247.4703748202
 20
236.6247308954
 30
0.0
 11
1.0
 21
0.0
 31
0.0
 44
0.9
  1
80
 40
3.5
 41
5.5
  0
LINE
  5
273
100
AcDbEntity
  8
0
100
AcDbLine
 62
2
  6
CONTINUOUS
 10
287.4703748202
 20
174.7647308954
 11
287.4703748202
 21
233.7497308954
  0
LINE
  5
274
100
AcDbEntity
  8
0
100
AcDbLine
 62
2
  6
CONTINUOUS
 10
207.4703748202
 20
174.7647308954
 11
207.4703748202
 21
233.7497308954
  0
LINE
  5
275
100
AcDbEntity
  8
0
100
AcDbLine
 62
2
  6
CONTINUOUS
 10
287.4703748202
 20
232.2497308954
 11
247.4703748202
 21
232.2497308954
  0
LINE
  5
276
100
AcDbEntity
  8
0
100
AcDbLine
 62
2
  6
CONTINUOUS
 10
207.4703748202
 20
232.2497308954
 11
247.4703748202
 21
232.2497308954
  0
INSERT
  5
277
100
AcDbEntity
  8
0
100
AcDbBlockReference
 62
2
  6
CONTINUOUS
  2
_FILLED
 10
287.4703748202
 20
232.2497308954
 41
3.5
 42
3.5
 43
3.5
  0
INSERT
  5
278
100
AcDbEntity
  8
0
100
AcDbBlockReference
 62
2
  6
CONTINUOUS
  2
_FILLED
 10
207.4703748202
 20
232.2497308954
 41
3.5
 42
3.5
 43
3.5
 50
180.0
  0
ENDBLK
  5
279
100
AcDbEntity
  8
0
  6
BYBLOCK
 62
0
100
AcDbBlockEnd
  0
BLOCK
  5
27A
100
AcDbEntity
  8
0
100
AcDbBlockBegin
 62
2
  6
CONTINUOUS
  2
*D5
 70
65
 10
0.0
 20
0.0
  3
*D5
  1

  0
MTEXT
  5
27B
100
AcDbEntity
  8
0
100
AcDbMText
 62
5
  6
CONTINUOUS
  7
STANDARD
 71
2
 72
1
 10
256.9953748202
 20
228.6247308954
 30
0.0
 11
1.0
 21
0.0
 31
0.0
 44
0.9
  1
60.95
 40
3.5
 41
12.75
  0
LINE
  5
27C
100
AcDbEntity
  8
0
100
AcDbLine
 62
2
  6
CONTINUOUS
 10
287.4703748202
 20
174.7647308954
 11
287.4703748202
 21
225.7497308954
  0
LINE
  5
27D
100
AcDbEntity
  8
0
100
AcDbLine
 62
2
  6
CONTINUOUS
 10
226.5203748202
 20
174.7647308954
 11
226.5203748202
 21
225.7497308954
  0
LINE
  5
27E
100
AcDbEntity
  8
0
100
AcDbLine
 62
2
  6
CONTINUOUS
 10
287.4703748202
 20
224.2497308954
 11
256.9953748202
 21
224.2497308954
  0
LINE
  5
27F
100
AcDbEntity
  8
0
100
AcDbLine
 62
2
  6
CONTINUOUS
 10
226.5203748202
 20
224.2497308954
 11
256.9953748202
 21
224.2497308954
  0
INSERT
  5
280
100
AcDbEntity
  8
0
100
AcDbBlockReference
 62
2
  6
CONTINUOUS
  2
_FILLED
 10
287.4703748202
 20
224.2497308954
 41
3.5
 42
3.5
 43
3.5
  0
INSERT
  5
281
100
AcDbEntity
  8
0
100
AcDbBlockReference
 62
2
  6
CONTINUOUS
  2
_FILLED
 10
226.5203748202
 20
224.2497308954
 41
3.5
 42
3.5
 43
3.5
 50
180.0
  0
ENDBLK
  5
282
100
AcDbEntity
  8
0
  6
BYBLOCK
 62
0
100
AcDbBlockEnd
  0
BLOCK
  5
283
100
AcDbEntity
  8
0
100
AcDbBlockBegin
 62
2
  6
CONTINUOUS
  2
*D6
 70
65
 10
0.0
 20
0.0
  3
*D6
  1

  0
MTEXT
  5
284
100
AcDbEntity
  8
0
100
AcDbMText
 62
5
  6
CONTINUOUS
  7
STANDARD
 71
2
 72
1
 10
237.9644501487
 20
198.3439317594
 30
0.0
 11
0.7660444431
 21
0.6427876097
 31
0.0
 44
0.9
  1
R20
 40
3.5
 41
8.25
  0
LINE
  5
285
100
AcDbEntity
  8
0
100
AcDbLine
 62
2
  6
CONTINUOUS
 10
231.1244859578
 20
186.8933634387
 11
243.936579269
 21
197.6439862107
  0
INSERT
  5
286
100
AcDbEntity
  8
0
100
AcDbBlockReference
 62
2
  6
CONTINUOUS
  2
_FILLED
 10
231.1244859578
 20
186.8933634387
 41
3.5
 42
3.5
 43
3.5
 50
220.0
  0
ENDBLK
  5
287
100
AcDbEntity
  8
0
  6
BYBLOCK
 62
0
100
AcDbBlockEnd
  0
ENDSEC
  0
SECTION
  2
ENTITIES
  0
DIMENSION
  5
288
100
AcDbEntity
  8
ZEICHNUNGSBEMASSUNGEN
100
AcDbDimension
 62
2
  6
CONTINUOUS
  2
*D0
 10
287.4703748202
 20
240.2497308954
 11
190.9203748202
 21
242.8747308954
 70
160
 71
2
 42
181.6
  3
DIMSTYLE_1
100
AcDbAlignedDimension
 13
105.8703748202
 23
187.1761778966
 14
287.4703748202
 24
187.1761778966
100
AcDbRotatedDimension
  0
DIMENSION
  5
289
100
AcDbEntity
  8
0
100
AcDbDimension
 62
2
  6
CONTINUOUS
  2
*D1
 10
255.1670234035
 20
173.2647308954
 11
254.8486893079
 21
184.4164237147
 70
162
 71
2
 42
0.1745329252
  3
DIMSTYLE_2
100
AcDb2LineAngularDimension
 13
255.5666304148
 23
177.8322599354
 14
279.9931631907
 24
173.5252031619
 15
279.9703748202
 25
173.2647308954
 16
256.761407644
 26
175.4264854108
  0
DIMENSION
  5
28A
100
AcDbEntity
  8
0
100
AcDbDimension
 62
2
  6
CONTINUOUS
  2
*D2
 10
287.4703748202
 20
216.3457887372
 11
283.0953748202
 21
218.9707887372
 70
160
 71
2
 42
6.0
  3
DIMSTYLE_3
100
AcDbAlignedDimension
 13
281.4703748202
 23
174.7647308954
 14
287.4703748202
 24
174.7647308954
100
AcDbRotatedDimension
  0
DIMENSION
  5
28B
100
AcDbEntity
  8
0
100
AcDbDimension
 62
2
  6
CONTINUOUS
  2
*D3
 10
298.0319215042
 20
173.2647308954
 11
295.4069215042
 21
184.9325806291
 70
160
 71
1
 42
11.5
  1
%%c<>
  3
DIMSTYLE_3
100
AcDbAlignedDimension
 13
288.9703748202
 23
161.7647308954
 14
288.9703748202
 24
173.2647308954
 50
90.0
100
AcDbRotatedDimension
  0
DIMENSION
  5
28C
100
AcDbEntity
  8
0
100
AcDbDimension
 62
2
  6
CONTINUOUS
  2
*D4
 10
207.4703748202
 20
232.2497308954
 11
244.7203748202
 21
234.8747308954
 70
160
 71
2
 42
80.0
  3
DIMSTYLE_4
100
AcDbAlignedDimension
 13
287.4703748202
 23
174.7647308954
 14
207.4703748202
 24
174.7647308954
 50
180.0
100
AcDbRotatedDimension
  0
DIMENSION
  5
28D
100
AcDbEntity
  8
0
100
AcDbDimension
 62
2
  6
CONTINUOUS
  2
*D5
 10
226.5203748202
 20
224.2497308954
 11
250.6203748202
 21
226.8747308954
 70
160
 71
2
 42
60.95
  3
DIMSTYLE_4
100
AcDbAlignedDimension
 13
287.4703748202
 23
174.7647308954
 14
226.5203748202
 24
174.7647308954
 50
180.0
100
AcDbRotatedDimension
  0
DIMENSION
  5
28E
100
AcDbEntity
  8
0
100
AcDbDimension
 62
2
  6
CONTINUOUS
  2
*D6
 10
246.4453748202
 20
199.7491156324
 11
240.4648882178
 21
195.4665580905
 70
164
 71
2
 42
20.0
  1
<>
  3
DIMSTYLE_5
100
AcDbRadialDimension
 15
231.1244859578
 25
186.8933634387
  0
MTEXT
  5
28F
100
AcDbEntity
  8
0
100
AcDbMText
 62
5
  6
CONTINUOUS
  7
STANDARD
 71
1
 72
1
 10
31.3780858989
 20
69.113193784
 30
0.0
 11
1.0
 21
0.0
 31
0.0
 44
0.9
  3
Für diese Unterlage behalten wir das Ur-\Pheberrecht. Sie darf nur für den von uns\Pbestimmten Zweck benutzt und ohne unsere \PZustimmung weder vervielfältigt noch \PDritten zugänglich gemacht werden.\P \PWe own the copyright of this document. It\Pde
  1
termined and may neither be copied or\Pmade accessible to outsiders without our\Ppermission.\P \PCe plan reste notre propriété. Il ne peut\Pétre utilisé, copié ou reproduit sans notre\Paccord.
 40
2.5
 41
73.9880952381
  0
LINE
  5
290
100
AcDbEntity
  8
BEZUGSACHSEN
100
AcDbLine
 62
7
  6
CONTINUOUS
 10
105.8703748202
 20
185.6761778966
 11
105.8703748202
 21
149.3532838942
  0
LINE
  5
291
100
AcDbEntity
  8
BEZUGSACHSEN
100
AcDbLine
 62
9
  6
CONTINUOUS
 10
107.7956578146
 20
187.9026232398
 11
107.7956578146
 21
147.126838551
  0
LINE
  5
292
100
AcDbEntity
  8
BEZUGSACHSEN
100
AcDbLine
 62
7
  6
CONTINUOUS
 10
211.6703748202
 20
118.7797308954
 11
215.40643981
 21
118.7797308954
  0
LINE
  5
293
100
AcDbEntity
  8
BEZUGSACHSEN
100
AcDbLine
 62
7
  6
CONTINUOUS
 10
221.8843098303
 20
118.7797308954
 11
225.4453748202
 21
118.7797308954
  0
LINE
  5
294
100
AcDbEntity
  8
BEZUGSACHSEN
100
AcDbLine
 62
7
  6
CONTINUOUS
 10
217.4828748202
 20
122.0147308954
 11
219.8078748202
 21
122.0147308954
  0
LINE
  5
295
100
AcDbEntity
  8
BEZUGSACHSEN
100
AcDbLine
 62
7
  6
CONTINUOUS
 10
208.0203748202
 20
132.9397308954
 11
206.980692487
 21
132.6611488538
  0
LINE
  5
296
100
AcDbEntity
  8
BEZUGSACHSEN
100
AcDbLine
 62
7
  6
CONTINUOUS
 10
211.6703748202
 20
128.9910015199
 11
215.40643981
 21
128.9910015199
  0
LINE
  5
297
100
AcDbEntity
  8
0
100
AcDbLine
 62
7
  6
CONTINUOUS
 10
221.8843098303
 20
128.9910015199
 11
225.4453748202
 21
128.9910015199
  0
LINE
  5
298
100
AcDbEntity
  8
BEZUGSACHSEN
100
AcDbLine
 62
7
  6
CONTINUOUS
 10
209.6703748202
 20
132.9397308954
 11
208.0203748202
 21
132.9397308954
  0
LINE
  5
299
100
AcDbEntity
  8
BEZUGSACHSEN
100
AcDbLine
 62
7
  6
CONTINUOUS
 10
217.4828748202
 20
133.1748488339
 11
219.8078748202
 21
133.1748488339
  0
LINE
  5
29A
100
AcDbEntity
  8
0
100
AcDbLine
 62
7
  6
CONTINUOUS
 10
226.4453748202
 20
137.2647308954
 11
210.6703748202
 21
137.2647308954
  0
LINE
  5
29B
100
AcDbEntity
  8
BEZUGSACHSEN
100
AcDbLine
 62
7
  6
CONTINUOUS
 10
210.6703748202
 20
137.6647308954
 11
221.8843098303
 21
137.6647308954
  0
LINE
  5
29C
100
AcDbEntity
  8
0
100
AcDbLine
 62
7
  6
CONTINUOUS
 10
221.8843098303
 20
137.6647308954
 11
226.5203748202
 21
137.6647308954
  0
LINE
  5
29D
100
AcDbEntity
  8
BEZUGSACHSEN
100
AcDbLine
 62
7
  6
CONTINUOUS
 10
206.980692487
 20
132.6611488538
 11
107.7956578146
 21
147.126838551
  0
LINE
  5
29E
100
AcDbEntity
  8
RUNDUNGEN
100
AcDbLine
 62
7
  6
CONTINUOUS
 10
281.2118962778
 20
161.7191541544
 11
242.9724112669
 21
154.9765012186
  0
LINE
  5
29F
100
AcDbEntity
  8
0
100
AcDbLine
 62
7
  6
CONTINUOUS
 10
281.2118962778
 20
161.7191541544
 11
242.9724112669
 21
154.9765012186
  0
LINE
  5
2A0
100
AcDbEntity
  8
BEZUGSACHSEN
100
AcDbLine
 62
7
  6
CONTINUOUS
 10
210.6703748202
 20
154.6122308954
 11
221.8843098303
 21
154.6122308954
  0
LINE
  5
2A1
100
AcDbEntity
  8
0
100
AcDbLine
 62
7
  6
CONTINUOUS
 10
221.8843098303
 20
154.6122308954
 11
226.5203748202
 21
154.6122308954
  0
LINE
  5
2A2
100
AcDbEntity
  8
BEZUGSACHSEN
100
AcDbLine
 62
7
  6
CONTINUOUS
 10
220.5578748202
 20
213.9522780649
 11
221.8843098303
 21
216.2497308954
  0
LINE
  5
2A3
100
AcDbEntity
  8
0
100
AcDbLine
 62
7
  6
CONTINUOUS
 10
287.3639283673
 20
161.7647308954
 11
281.7328408108
 21
161.7647308954
  0
LINE
  5
2A4
100
AcDbEntity
  8
RUNDUNGEN
100
AcDbLine
 62
7
  6
CONTINUOUS
 10
281.7328408108
 20
161.7647308954
 11
287.3639283673
 21
161.7647308954
  0
LINE
  5
2A5
100
AcDbEntity
  8
TEIL_STARTBEZUEGE
100
AcDbLine
 62
7
  6
CENTER
 10
290.5639283673
 20
167.5147308954
 11
102.8703748202
 21
167.5147308954
  0
LINE
  5
2A6
100
AcDbEntity
  8
BEZUGSACHSEN
100
AcDbLine
 62
7
  6
CONTINUOUS
 10
220.5578748202
 20
121.0771837259
 11
221.8843098303
 21
118.7797308954
  0
LINE
  5
2A7
100
AcDbEntity
  8
RUNDUNGEN
100
AcDbLine
 62
7
  6
CONTINUOUS
 10
287.3639283673
 20
173.2647308954
 11
281.7328408108
 21
173.2647308954
  0
LINE
  5
2A8
100
AcDbEntity
  8
BEZUGSACHSEN
100
AcDbLine
 62
7
  6
CONTINUOUS
 10
206.980692487
 20
202.368312937
 11
206.980692487
 21
132.6611488538
  0
LINE
  5
2A9
100
AcDbEntity
  8
TEIL_STARTBEZUEGE
100
AcDbLine
 62
7
  6
CENTER
 10
207.4703748202
 20
114.6647308954
 11
207.4703748202
 21
219.2647308954
  0
LINE
  5
2AA
100
AcDbEntity
  8
BEZUGSACHSEN
100
AcDbLine
 62
7
  6
CONTINUOUS
 10
208.0203748202
 20
202.0897308954
 11
208.0203748202
 21
132.9397308954
  0
LINE
  5
2AB
100
AcDbEntity
  8
BEZUGSACHSEN
100
AcDbLine
 62
9
  6
CONTINUOUS
 10
209.6703748202
 20
202.0897308954
 11
209.6703748202
 21
132.9397308954
  0
LINE
  5
2AC
100
AcDbEntity
  8
BEZUGSACHSEN
100
AcDbLine
 62
7
  6
CONTINUOUS
 10
210.6703748202
 20
119.7797308955
 11
210.6703748202
 21
215.2497308954
  0
LINE
  5
2AD
100
AcDbEntity
  8
BEZUGSACHSEN
100
AcDbLine
 62
7
  6
CONTINUOUS
 10
210.6703748202
 20
180.4172308954
 11
221.8843098303
 21
180.4172308954
  0
LINE
  5
2AE
100
AcDbEntity
  8
0
100
AcDbLine
 62
7
  6
CONTINUOUS
 10
221.8843098303
 20
180.4172308954
 11
226.5203748202
 21
180.4172308954
  0
LINE
  5
2AF
100
AcDbEntity
  8
BEZUGSACHSEN
100
AcDbLine
 62
9
  6
CONTINUOUS
 10
211.6703748202
 20
216.2497308954
 11
211.6703748202
 21
180.4172308954
  0
LINE
  5
2B0
100
AcDbEntity
  8
BEZUGSACHSEN
100
AcDbLine
 62
9
  6
CONTINUOUS
 10
211.6703748202
 20
154.6122308954
 11
211.6703748202
 21
137.6647308954
  0
LINE
  5
2B1
100
AcDbEntity
  8
BEZUGSACHSEN
100
AcDbLine
 62
9
  6
CONTINUOUS
 10
211.6703748202
 20
128.9910015199
 11
211.6703748202
 21
118.7797308954
  0
LINE
  5
2B2
100
AcDbEntity
  8
BEZUGSACHSEN
100
AcDbLine
 62
7
  6
CONTINUOUS
 10
215.40643981
 20
118.7797308954
 11
215.40643981
 21
128.9910015199
  0
LINE
  5
2B3
100
AcDbEntity
  8
BEZUGSACHSEN
100
AcDbLine
 62
7
  6
CONTINUOUS
 10
215.40643981
 20
137.6647308954
 11
215.40643981
 21
154.6122308954
  0
LINE
  5
2B4
100
AcDbEntity
  8
BEZUGSACHSEN
100
AcDbLine
 62
7
  6
CONTINUOUS
 10
215.40643981
 20
180.4172308954
 11
215.40643981
 21
216.2497308954
  0
LINE
  5
2B5
100
AcDbEntity
  8
BEZUGSACHSEN
100
AcDbLine
 62
7
  6
CONTINUOUS
 10
216.7328748202
 20
213.9522780614
 11
216.7328748202
 21
211.2371940492
  0
LINE
  5
2B6
100
AcDbEntity
  8
BEZUGSACHSEN
100
AcDbLine
 62
7
  6
CONTINUOUS
 10
216.7328748202
 20
210.8776292144
 11
216.7328748202
 21
180.4172308954
  0
LINE
  5
2B7
100
AcDbEntity
  8
BEZUGSACHSEN
100
AcDbLine
 62
7
  6
CONTINUOUS
 10
216.7328748202
 20
154.6122308954
 11
216.7328748202
 21
137.6647308954
  0
LINE
  5
2B8
100
AcDbEntity
  8
BEZUGSACHSEN
100
AcDbLine
 62
7
  6
CONTINUOUS
 10
216.7328748202
 20
121.0771837253
 11
216.7328748202
 21
132.1871212961
  0
LINE
  5
2B9
100
AcDbEntity
  8
BEZUGSACHSEN
100
AcDbLine
 62
9
  6
CONTINUOUS
 10
217.4828748202
 20
122.0147308954
 11
217.4828748202
 21
133.1748488339
  0
LINE
  5
2BA
100
AcDbEntity
  8
BEZUGSACHSEN
100
AcDbLine
 62
9
  6
CONTINUOUS
 10
217.4828748202
 20
137.6647308954
 11
217.4828748202
 21
154.6122308954
  0
LINE
  5
2BB
100
AcDbEntity
  8
BEZUGSACHSEN
100
AcDbLine
 62
9
  6
CONTINUOUS
 10
217.4828748202
 20
180.4172308954
 11
217.4828748202
 21
209.6686859615
  0
LINE
  5
2BC
100
AcDbEntity
  8
BEZUGSACHSEN
100
AcDbLine
 62
9
  6
CONTINUOUS
 10
217.4828748202
 20
210.8148056172
 11
217.4828748202
 21
213.0147308954
  0
LINE
  5
2BD
100
AcDbEntity
  8
RUNDUNGEN
100
AcDbLine
 62
7
  6
CONTINUOUS
 10
242.9724112669
 20
180.0529605722
 11
281.2118962778
 21
173.3103076364
  0
LINE
  5
2BE
100
AcDbEntity
  8
BEZUGSACHSEN
100
AcDbLine
 62
9
  6
CONTINUOUS
 10
219.8078748202
 20
122.0147308954
 11
219.8078748202
 21
133.1748488339
  0
LINE
  5
2BF
100
AcDbEntity
  8
BEZUGSACHSEN
100
AcDbLine
 62
9
  6
CONTINUOUS
 10
219.8078748202
 20
137.6647308954
 11
219.8078748202
 21
154.6122308954
  0
LINE
  5
2C0
100
AcDbEntity
  8
BEZUGSACHSEN
100
AcDbLine
 62
9
  6
CONTINUOUS
 10
219.8078748202
 20
180.4172308954
 11
219.8078748202
 21
209.709064409
  0
LINE
  5
2C1
100
AcDbEntity
  8
BEZUGSACHSEN
100
AcDbLine
 62
9
  6
CONTINUOUS
 10
219.8078748202
 20
210.7816343434
 11
219.8078748202
 21
213.0147308954
  0
LINE
  5
2C2
100
AcDbEntity
  8
BEZUGSACHSEN
100
AcDbLine
 62
7
  6
CONTINUOUS
 10
220.5578748202
 20
121.0771837076
 11
220.5578748202
 21
132.1871212961
  0
LINE
  5
2C3
100
AcDbEntity
  8
BEZUGSACHSEN
100
AcDbLine
 62
7
  6
CONTINUOUS
 10
220.5578748202
 20
137.6647308954
 11
220.5578748202
 21
154.6122308954
  0
LINE
  5
2C4
100
AcDbEntity
  8
BEZUGSACHSEN
100
AcDbLine
 62
7
  6
CONTINUOUS
 10
220.5578748202
 20
180.4172308954
 11
220.5578748202
 21
213.9522780558
  0
LINE
  5
2C5
100
AcDbEntity
  8
BEZUGSACHSEN
100
AcDbLine
 62
7
  6
CONTINUOUS
 10
221.8843098303
 20
216.2497308954
 11
221.8843098303
 21
180.4172308954
  0
LINE
  5
2C6
100
AcDbEntity
  8
BEZUGSACHSEN
100
AcDbLine
 62
7
  6
CONTINUOUS
 10
221.8843098303
 20
154.6122308954
 11
221.8843098303
 21
137.6647308954
  0
LINE
  5
2C7
100
AcDbEntity
  8
BEZUGSACHSEN
100
AcDbLine
 62
7
  6
CONTINUOUS
 10
221.8843098303
 20
128.9910015199
 11
221.8843098303
 21
118.7797308954
  0
LINE
  5
2C8
100
AcDbEntity
  8
0
100
AcDbLine
 62
9
  6
CONTINUOUS
 10
225.4453748202
 20
154.6122308954
 11
225.4453748202
 21
137.6647308954
  0
LINE
  5
2C9
100
AcDbEntity
  8
0
100
AcDbLine
 62
9
  6
CONTINUOUS
 10
225.4453748202
 20
118.7797308954
 11
225.4453748202
 21
128.9910015199
  0
LINE
  5
2CA
100
AcDbEntity
  8
0
100
AcDbLine
 62
9
  6
CONTINUOUS
 10
225.4453748202
 20
180.4172308954
 11
225.4453748202
 21
216.2497308954
  0
LINE
  5
2CB
100
AcDbEntity
  8
0
100
AcDbLine
 62
7
  6
CONTINUOUS
 10
226.4453748202
 20
119.7797309447
 11
226.4453748202
 21
130.9735271258
  0
LINE
  5
2CC
100
AcDbEntity
  8
0
100
AcDbLine
 62
7
  6
CONTINUOUS
 10
226.4453748202
 20
135.4388251591
 11
226.4453748202
 21
215.2497308954
  0
LINE
  5
2CD
100
AcDbEntity
  8
0
100
AcDbLine
 62
9
  6
CONTINUOUS
 10
226.4721697394
 20
154.6122308954
 11
226.4721697394
 21
137.6647308954
  0
LINE
  5
2CE
100
AcDbEntity
  8
0
100
AcDbLine
 62
9
  6
CONTINUOUS
 10
226.4721697394
 20
136.305028981
 11
226.4721697394
 21
135.3023570296
  0
LINE
  5
2CF
100
AcDbEntity
  8
0
100
AcDbLine
 62
9
  6
CONTINUOUS
 10
226.4721697394
 20
120.4312372463
 11
226.4721697394
 21
131.1027428393
  0
LINE
  5
2D0
100
AcDbEntity
  8
0
100
AcDbLine
 62
9
  6
CONTINUOUS
 10
226.4721697394
 20
180.4172308954
 11
226.4721697394
 21
214.5982245445
  0
LINE
  5
2D1
100
AcDbEntity
  8
0
100
AcDbLine
 62
7
  6
CONTINUOUS
 10
226.5203748202
 20
214.5147305712
 11
226.5203748202
 21
180.4172308954
  0
LINE
  5
2D2
100
AcDbEntity
  8
0
100
AcDbLine
 62
7
  6
CONTINUOUS
 10
226.5203748202
 20
154.6122308954
 11
226.5203748202
 21
137.6647308954
  0
LINE
  5
2D3
100
AcDbEntity
  8
0
100
AcDbLine
 62
7
  6
CONTINUOUS
 10
226.5203748202
 20
120.514731218
 11
226.5203748202
 21
137.0096640486
  0
LINE
  5
2D4
100
AcDbEntity
  8
BEZUGSACHSEN
100
AcDbLine
 62
7
  6
CONTINUOUS
 10
206.980692487
 20
202.368312937
 11
107.7956578146
 21
187.9026232398
  0
LINE
  5
2D5
100
AcDbEntity
  8
BEZUGSACHSEN
100
AcDbLine
 62
7
  6
CONTINUOUS
 10
209.6703748202
 20
202.0897308954
 11
208.0203748202
 21
202.0897308954
  0
LINE
  5
2D6
100
AcDbEntity
  8
BEZUGSACHSEN
100
AcDbLine
 62
7
  6
CONTINUOUS
 10
215.40643981
 20
118.7797308954
 11
216.7328748202
 21
121.0771837259
  0
LINE
  5
2D7
100
AcDbEntity
  8
BEZUGSACHSEN
100
AcDbLine
 62
7
  6
CONTINUOUS
 10
208.0203748202
 20
202.0897308954
 11
206.980692487
 21
202.368312937
  0
LINE
  5
2D8
100
AcDbEntity
  8
BEZUGSACHSEN
100
AcDbLine
 62
7
  6
CONTINUOUS
 10
215.40643981
 20
216.2497308954
 11
216.7328748202
 21
213.9522780649
  0
LINE
  5
2D9
100
AcDbEntity
  8
RUNDUNGEN
100
AcDbLine
 62
9
  6
CONTINUOUS
 10
242.9724112669
 20
154.9765012186
 11
242.9724112669
 21
180.0529605722
  0
LINE
  5
2DA
100
AcDbEntity
  8
BEZUGSACHSEN
100
AcDbLine
 62
7
  6
CONTINUOUS
 10
217.4828748202
 20
213.0147308954
 11
219.8078748202
 21
213.0147308954
  0
LINE
  5
2DB
100
AcDbEntity
  8
BEZUGSACHSEN
100
AcDbLine
 62
7
  6
CONTINUOUS
 10
211.6703748202
 20
216.2497308954
 11
215.40643981
 21
216.2497308954
  0
LINE
  5
2DC
100
AcDbEntity
  8
BEZUGSACHSEN
100
AcDbLine
 62
7
  6
CONTINUOUS
 10
221.8843098303
 20
216.2497308954
 11
225.4453748202
 21
216.2497308954
  0
LINE
  5
2DD
100
AcDbEntity
  8
0
100
AcDbLine
 62
7
  6
CONTINUOUS
 10
226.4721697394
 20
120.4312372463
 11
226.5203748202
 21
120.5147308954
  0
LINE
  5
2DE
100
AcDbEntity
  8
0
100
AcDbLine
 62
7
  6
CONTINUOUS
 10
226.4721697394
 20
214.5982245445
 11
226.5203748202
 21
214.5147308954
  0
LINE
  5
2DF
100
AcDbEntity
  8
RUNDUNGEN
100
AcDbLine
 62
9
  6
CONTINUOUS
 10
281.2118962778
 20
173.3103076364
 11
281.2118962778
 21
161.7191541544
  0
LINE
  5
2E0
100
AcDbEntity
  8
RUNDUNGEN
100
AcDbLine
 62
9
  6
CONTINUOUS
 10
281.7328408108
 20
173.2647308954
 11
281.7328408108
 21
161.7647308954
  0
LINE
  5
2E1
100
AcDbEntity
  8
RUNDUNGEN
100
AcDbLine
 62
9
  6
CONTINUOUS
 10
287.3639283673
 20
161.7647308954
 11
287.3639283673
 21
173.2647308954
  0
LINE
  5
2E2
100
AcDbEntity
  8
RUNDUNGEN
100
AcDbLine
 62
7
  6
CONTINUOUS
 10
287.5639283673
 20
161.9647308954
 11
287.5639283673
 21
173.0647308954
  0
ARC
  5
2E3
100
AcDbEntity
  8
BEZUGSACHSEN
100
AcDbCircle
 62
7
  6
CONTINUOUS
 10
108.1203748202
 20
149.3532838942
 40
2.25
100
AcDbArc
 50
180.0
 51
261.7021731718
  0
ARC
  5
2E4
100
AcDbEntity
  8
BEZUGSACHSEN
100
AcDbCircle
 62
7
  6
CONTINUOUS
 10
209.6703748202
 20
131.9397308954
 40
1.0
100
AcDbArc
 50
1.6940190589
 51
90.0
  0
ARC
  5
2E5
100
AcDbEntity
  8
BEZUGSACHSEN
100
AcDbCircle
 62
7
  6
CONTINUOUS
 10
211.6703748202
 20
119.7797308954
 40
1.0
100
AcDbArc
 50
180.0
 51
270.0
  0
ARC
  5
2E6
100
AcDbEntity
  8
BEZUGSACHSEN
100
AcDbCircle
 62
7
  6
CONTINUOUS
 10
217.4828748202
 20
121.2647308954
 40
0.75
100
AcDbArc
 50
90.0
 51
180.0
  0
ARC
  5
2E7
100
AcDbEntity
  8
BEZUGSACHSEN
100
AcDbCircle
 62
7
  6
CONTINUOUS
 10
-35.2999660318
 20
243.4560205469
 40
275.6010568031
100
AcDbArc
 50
335.4599842057
 51
336.1325973457
  0
ARC
  5
2E8
100
AcDbEntity
  8
BEZUGSACHSEN
100
AcDbCircle
 62
7
  6
CONTINUOUS
 10
108.1203748202
 20
185.6761778966
 40
2.25
100
AcDbArc
 50
98.2978268282
 51
180.0
  0
ARC
  5
2E9
100
AcDbEntity
  8
BEZUGSACHSEN
100
AcDbCircle
 62
7
  6
CONTINUOUS
 10
209.6703748202
 20
203.0897308954
 40
1.0
100
AcDbArc
 50
270.0
 51
360.0
  0
ARC
  5
2EA
100
AcDbEntity
  8
BEZUGSACHSEN
100
AcDbCircle
 62
7
  6
CONTINUOUS
 10
211.6703748202
 20
215.2497308954
 40
1.0
100
AcDbArc
 50
90.0
 51
180.0
  0
ARC
  5
2EB
100
AcDbEntity
  8
BEZUGSACHSEN
100
AcDbCircle
 62
7
  6
CONTINUOUS
 10
217.4828748202
 20
213.7647308954
 40
0.75
100
AcDbArc
 50
180.0
 51
270.0
  0
ARC
  5
2EC
100
AcDbEntity
  8
RUNDUNGEN
100
AcDbCircle
 62
7
  6
CONTINUOUS
 10
246.4453748202
 20
135.2803461584
 40
20.0
100
AcDbArc
 50
100.0
 51
179.5459991092
  0
ARC
  5
2ED
100
AcDbEntity
  8
RUNDUNGEN
100
AcDbCircle
 62
7
  6
CONTINUOUS
 10
281.7328408108
 20
158.7647308954
 40
3.0
100
AcDbArc
 50
90.0
 51
100.0
  0
ARC
  5
2EE
100
AcDbEntity
  8
RUNDUNGEN
100
AcDbCircle
 62
7
  6
CONTINUOUS
 10
281.7328408108
 20
176.2647308954
 40
3.0
100
AcDbArc
 50
260.0
 51
270.0
  0
ARC
  5
2EF
100
AcDbEntity
  8
0
100
AcDbCircle
 62
7
  6
CONTINUOUS
 10
225.4453748202
 20
119.7797308954
 40
1.0
100
AcDbArc
 50
270.0
 51
360.0
  0
ARC
  5
2F0
100
AcDbEntity
  8
BEZUGSACHSEN
100
AcDbCircle
 62
7
  6
CONTINUOUS
 10
219.8078748202
 20
121.2647308954
 40
0.75
100
AcDbArc
 50
0.0
 51
90.0
  0
ARC
  5
2F1
100
AcDbEntity
  8
0
100
AcDbCircle
 62
7
  6
CONTINUOUS
 10
226.6453748202
 20
120.3312372463
 40
0.2
100
AcDbArc
 50
150.0
 51
180.0
  0
ARC
  5
2F2
100
AcDbEntity
  8
RUNDUNGEN
100
AcDbCircle
 62
7
  6
CONTINUOUS
 10
287.3639283673
 20
161.9647308954
 40
0.2
100
AcDbArc
 50
270.0
 51
360.0
  0
ARC
  5
2F3
100
AcDbEntity
  8
RUNDUNGEN
100
AcDbCircle
 62
7
  6
CONTINUOUS
 10
287.3639283673
 20
173.0647308954
 40
0.2
100
AcDbArc
 50
0.0
 51
90.0
  0
ARC
  5
2F4
100
AcDbEntity
  8
BEZUGSACHSEN
100
AcDbCircle
 62
7
  6
CONTINUOUS
 10
472.590715673
 20
243.4560205473
 40
275.6010568041
100
AcDbArc
 50
203.8674026543
 51
204.5400157943
  0
ARC
  5
2F5
100
AcDbEntity
  8
RUNDUNGEN
100
AcDbCircle
 62
7
  6
CONTINUOUS
 10
246.4453748202
 20
199.7491156324
 40
20.0
100
AcDbArc
 50
184.9588867876
 51
260.0
  0
ARC
  5
2F6
100
AcDbEntity
  8
0
100
AcDbCircle
 62
7
  6
CONTINUOUS
 10
225.4453748202
 20
215.2497308954
 40
1.0
100
AcDbArc
 50
0.0
 51
90.0
  0
ARC
  5
2F7
100
AcDbEntity
  8
BEZUGSACHSEN
100
AcDbCircle
 62
7
  6
CONTINUOUS
 10
219.8078748202
 20
213.7647308954
 40
0.75
100
AcDbArc
 50
270.0
 51
360.0
  0
ARC
  5
2F8
100
AcDbEntity
  8
0
100
AcDbCircle
 62
7
  6
CONTINUOUS
 10
226.6453748202
 20
214.6982245445
 40
0.2
100
AcDbArc
 50
180.0
 51
210.0
  0
SPLINE
  5
2F9
100
AcDbEntity
  8
BEZUGSACHSEN
100
AcDbSpline
 62
7
  6
CONTINUOUS
 70
0
 71
3
 72
17
 73
13
 74
0
 42
0.0000001
 43
0.0000001
 44
0.0000000001
 40
0.0
 40
0.0
 40
0.0
 40
0.0
 40
0.1192236114
 40
0.2382806419
 40
0.3578533155
 40
0.4787206822
 40
0.6019622554
 40
0.7292861046
 40
0.7952833723
 40
0.8631511538
 40
0.932340889
 40
1.0
 40
1.0
 40
1.0
 40
1.0
 10
217.4828748202
 20
209.6686859615
 30
0.0
 10
217.4304185991
 20
209.6815096481
 30
0.0
 10
217.3283052575
 20
209.7194850183
 30
0.0
 10
217.1899722054
 20
209.8055871803
 30
0.0
 10
217.0679314581
 20
209.9144490685
 30
0.0
 10
216.9624844261
 20
210.0417197
 30
0.0
 10
216.8734724727
 20
210.1850318363
 30
0.0
 10
216.8139863032
 20
210.3159811269
 30
0.0
 10
216.7759875983
 20
210.4280971579
 30
0.0
 10
216.7528672205
 20
210.5172164869
 30
0.0
 10
216.7371202885
 20
210.6087076019
 30
0.0
 10
216.7328748202
 20
210.670721937
 30
0.0
 10
216.7328748202
 20
210.7013673427
 30
0.0
  0
SPLINE
  5
2FA
100
AcDbEntity
  8
BEZUGSACHSEN
100
AcDbSpline
 62
7
  6
CONTINUOUS
 70
0
 71
3
 72
15
 73
11
 74
0
 42
0.0000001
 43
0.0000001
 44
0.0000000001
 40
0.0
 40
0.0
 40
0.0
 40
0.0
 40
0.1131556374
 40
0.2347941823
 40
0.3625280843
 40
0.4937699618
 40
0.6258223303
 40
0.7559626876
 40
0.881527792
 40
1.0
 40
1.0
 40
1.0
 40
1.0
 10
219.8078748202
 20
209.709064409
 30
0.0
 10
219.7229156946
 20
209.6839586576
 30
0.0
 10
219.5443231478
 20
209.639499232
 30
0.0
 10
219.2645200073
 20
209.5907093878
 30
0.0
 10
218.9680720131
 20
209.5585581047
 30
0.0
 10
218.6620916628
 20
209.5440920483
 30
0.0
 10
218.3539095858
 20
209.5477824573
 30
0.0
 10
218.0509171346
 20
209.5695097099
 30
0.0
 10
217.7603962564
 20
209.6085624727
 30
0.0
 10
217.5729748964
 20
209.6466596868
 30
0.0
 10
217.4828748202
 20
209.6686859615
 30
0.0
  0
SPLINE
  5
2FB
100
AcDbEntity
  8
BEZUGSACHSEN
100
AcDbSpline
 62
7
  6
CONTINUOUS
 70
0
 71
3
 72
19
 73
15
 74
0
 42
0.0000001
 43
0.0000001
 44
0.0000000001
 40
0.0
 40
0.0
 40
0.0
 40
0.0
 40
0.0375691592
 40
0.0733181552
 40
0.1395021394
 40
0.202742654
 40
0.2648074949
 40
0.3263132218
 40
0.3875310968
 40
0.5095414208
 40
0.6314721309
 40
0.7536300172
 40
0.8763192837
 40
1.0
 40
1.0
 40
1.0
 40
1.0
 10
220.5578748202
 20
210.9068341245
 30
0.0
 10
220.5578748202
 20
210.8880411473
 30
0.0
 10
220.5564267672
 20
210.851366176
 30
0.0
 10
220.5506795757
 20
210.7818124994
 30
0.0
 10
220.5397066867
 20
210.6998580554
 30
0.0
 10
220.521384108
 20
210.6057879507
 30
0.0
 10
220.4982318271
 20
210.515200628
 30
0.0
 10
220.4701647994
 20
210.4270703167
 30
0.0
 10
220.4261312931
 20
210.3127807996
 30
0.0
 10
220.3581952592
 20
210.1755814697
 30
0.0
 10
220.2552244289
 20
210.023404458
 30
0.0
 10
220.1297117121
 20
209.8883959856
 30
0.0
 10
219.9810552641
 20
209.7775210037
 30
0.0
 10
219.8672065358
 20
209.7265971612
 30
0.0
 10
219.8078748202
 20
209.709064409
 30
0.0
  0
SPLINE
  5
2FC
100
AcDbEntity
  8
BEZUGSACHSEN
100
AcDbSpline
 62
7
  6
CONTINUOUS
 70
0
 71
3
 72
9
 73
5
 74
0
 42
0.0000001
 43
0.0000001
 44
0.0000000001
 40
0.0
 40
0.0
 40
0.0
 40
0.0
 40
0.4507623654
 40
1.0
 40
1.0
 40
1.0
 40
1.0
 10
220.5678748202
 20
211.1680272516
 30
0.0
 10
220.5678748202
 20
211.155160145
 30
0.0
 10
220.5656425267
 20
211.1266234643
 30
0.0
 10
220.5609069449
 20
211.0984545559
 30
0.0
 10
220.5578748202
 20
211.0830724507
 30
0.0
  0
SPLINE
  5
2FD
100
AcDbEntity
  8
BEZUGSACHSEN
100
AcDbSpline
 62
7
  6
CONTINUOUS
 70
0
 71
3
 72
14
 73
10
 74
0
 42
0.0000001
 43
0.0000001
 44
0.0000000001
 40
0.0
 40
0.0
 40
0.0
 40
0.0
 40
0.3181026041
 40
0.4646661401
 40
0.6005886282
 40
0.7239084838
 40
0.8326432022
 40
0.9250478121
 40
1.0
 40
1.0
 40
1.0
 40
1.0
 10
216.7328748202
 20
210.8776292144
 30
0.0
 10
216.7105648436
 20
210.9326749412
 30
0.0
 10
216.6790079574
 20
211.0135181258
 30
0.0
 10
216.6414877229
 20
211.1192036182
 30
0.0
 10
216.6179763246
 20
211.1912460629
 30
0.0
 10
216.5988281482
 20
211.2572462677
 30
0.0
 10
216.5845346793
 20
211.3161512731
 30
0.0
 10
216.5755128312
 20
211.3669369643
 30
0.0
 10
216.5728748202
 20
211.3981717448
 30
0.0
 10
216.5728748202
 20
211.412166556
 30
0.0
  0
SPLINE
  5
2FE
100
AcDbEntity
  8
0
100
AcDbSpline
 62
7
  6
CONTINUOUS
 70
0
 71
3
 72
9
 73
5
 74
0
 42
0.0000001
 43
0.0000001
 44
0.0000000001
 40
0.0
 40
0.0
 40
0.0
 40
0.0
 40
0.250573905
 40
1.0
 40
1.0
 40
1.0
 40
1.0
 10
226.4721697394
 20
135.3023570296
 30
0.0
 10
226.4676225504
 20
135.3130946658
 30
0.0
 10
226.451901512
 20
135.3569543652
 30
0.0
 10
226.4453748202
 20
135.4039496527
 30
0.0
 10
226.4453748202
 20
135.4388251591
 30
0.0
  0
LINE
  5
2FF
100
AcDbEntity
  8
0
100
AcDbLine
 62
7
  6
CONTINUOUS
 10
226.5203748202
 20
135.1886191589
 11
226.4721697394
 21
135.3023570296
  0
SPLINE
  5
300
100
AcDbEntity
  8
BEZUGSACHSEN
100
AcDbSpline
 62
7
  6
CONTINUOUS
 70
0
 71
3
 72
16
 73
12
 74
0
 42
0.0000001
 43
0.0000001
 44
0.0000000001
 40
0.0
 40
0.0
 40
0.0
 40
0.0
 40
0.0625473556
 40
0.1250980035
 40
0.187654282
 40
0.2502171974
 40
0.375159295
 40
0.5001788943
 40
0.6252471887
 40
0.7503438753
 40
1.0
 40
1.0
 40
1.0
 40
1.0
 10
217.4828748202
 20
133.1748488339
 30
0.0
 10
217.4543471367
 20
133.1748488339
 30
0.0
 10
217.3971974575
 20
133.1705075624
 30
0.0
 10
217.3134887681
 20
133.1513183996
 30
0.0
 10
217.2333724033
 20
133.1203828739
 30
0.0
 10
217.1331717451
 20
133.0653147076
 30
0.0
 10
217.0220082382
 20
132.9739016879
 30
0.0
 10
216.9145873772
 20
132.8395370591
 30
0.0
 10
216.8324743511
 20
132.6884658961
 30
0.0
 10
216.755635777
 20
132.4731984125
 30
0.0
 10
216.7328748202
 20
132.3009887944
 30
0.0
 10
216.7328748202
 20
132.1871212961
 30
0.0
  0
SPLINE
  5
301
100
AcDbEntity
  8
BEZUGSACHSEN
100
AcDbSpline
 62
7
  6
CONTINUOUS
 70
0
 71
3
 72
16
 73
12
 74
0
 42
0.0000001
 43
0.0000001
 44
0.0000000001
 40
0.0
 40
0.0
 40
0.0
 40
0.0
 40
0.2496561246
 40
0.3747528113
 40
0.4998211057
 40
0.624840705
 40
0.7497828026
 40
0.812345718
 40
0.8749019965
 40
0.9374526444
 40
1.0
 40
1.0
 40
1.0
 40
1.0
 10
220.5578748202
 20
132.1871212961
 30
0.0
 10
220.5578748202
 20
132.3009887944
 30
0.0
 10
220.5351138634
 20
132.4731984125
 30
0.0
 10
220.4582752893
 20
132.6884658961
 30
0.0
 10
220.3761622632
 20
132.8395370591
 30
0.0
 10
220.2687414022
 20
132.9739016879
 30
0.0
 10
220.1575778953
 20
133.0653147075
 30
0.0
 10
220.0573772372
 20
133.1203828738
 30
0.0
 10
219.9772608723
 20
133.1513183996
 30
0.0
 10
219.8935521829
 20
133.1705075624
 30
0.0
 10
219.8364025037
 20
133.1748488339
 30
0.0
 10
219.8078748202
 20
133.1748488339
 30
0.0
  0
SPLINE
  5
302
100
AcDbEntity
  8
BEZUGSACHSEN
100
AcDbSpline
 62
7
  6
CONTINUOUS
 70
0
 71
3
 72
17
 73
13
 74
0
 42
0.0000001
 43
0.0000001
 44
0.0000000001
 40
0.0
 40
0.0
 40
0.0
 40
0.0
 40
0.0625200129
 40
0.1250421908
 40
0.18756821
 40
0.2500989982
 40
0.3749737141
 40
0.4999151377
 40
0.6249031509
 40
0.7499208719
 40
0.8749561168
 40
1.0
 40
1.0
 40
1.0
 40
1.0
 10
211.6703748202
 20
128.9910015199
 30
0.0
 10
211.633060175
 20
128.9910015199
 30
0.0
 10
211.5583225261
 20
128.9963141095
 30
0.0
 10
211.4485353546
 20
129.0198811211
 30
0.0
 10
211.3429478437
 20
129.0581207533
 30
0.0
 10
211.2101048059
 20
129.1267358381
 30
0.0
 10
211.0613285643
 20
129.2420152723
 30
0.0
 10
210.9162773738
 20
129.4141143985
 30
0.0
 10
210.8050089996
 20
129.6095508451
 30
0.0
 10
210.7268210322
 20
129.82024256
 30
0.0
 10
210.6805509431
 20
130.0400273558
 30
0.0
 10
210.6703748202
 20
130.1894922608
 30
0.0
 10
210.6703748202
 20
130.2641238534
 30
0.0
  0
SPLINE
  5
303
100
AcDbEntity
  8
BEZUGSACHSEN
100
AcDbSpline
 62
7
  6
CONTINUOUS
 70
0
 71
3
 72
20
 73
16
 74
0
 42
0.0000001
 43
0.0000001
 44
0.0000000001
 40
0.0
 40
0.0
 40
0.0
 40
0.0
 40
0.0753596488
 40
0.1405028702
 40
0.1962985158
 40
0.2442171343
 40
0.2865148852
 40
0.3262320783
 40
0.3667086493
 40
0.4107883508
 40
0.4603809319
 40
0.5165463597
 40
0.6500359702
 40
0.8118076589
 40
1.0
 40
1.0
 40
1.0
 40
1.0
 10
216.5728748202
 20
211.412166556
 30
0.0
 10
216.5728748202
 20
211.4179385185
 30
0.0
 10
216.573265019
 20
211.42870915
 30
0.0
 10
216.5753444578
 20
211.4436333061
 30
0.0
 10
216.5788753818
 20
211.4561308393
 30
0.0
 10
216.5838831984
 20
211.4662245682
 30
0.0
 10
216.5904224901
 20
211.4738917915
 30
0.0
 10
216.5984598013
 20
211.4790096854
 30
0.0
 10
216.6077663454
 20
211.4815394504
 30
0.0
 10
216.6181241297
 20
211.4816586987
 30
0.0
 10
216.6294638058
 20
211.4795825511
 30
0.0
 10
216.6468741359
 20
211.4737236127
 30
0.0
 10
216.6707708878
 20
211.461026288
 30
0.0
 10
216.7012043419
 20
211.4398740761
 30
0.0
 10
216.7219609542
 20
211.4228714879
 30
0.0
 10
216.7328748202
 20
211.4134559209
 30
0.0
  0
SPLINE
  5
304
100
AcDbEntity
  8
BEZUGSACHSEN
100
AcDbSpline
 62
7
  6
CONTINUOUS
 70
0
 71
3
 72
15
 73
11
 74
0
 42
0.0000001
 43
0.0000001
 44
0.0000000001
 40
0.0
 40
0.0
 40
0.0
 40
0.0
 40
0.1180509045
 40
0.243638646
 40
0.3741067819
 40
0.5066187053
 40
0.6382639748
 40
0.7661633557
 40
0.8875743275
 40
1.0
 40
1.0
 40
1.0
 40
1.0
 10
217.4828748202
 20
210.8148056172
 30
0.0
 10
217.5731950958
 20
210.8328258391
 30
0.0
 10
217.7609205755
 20
210.8635614276
 30
0.0
 10
218.0512650273
 20
210.8945251132
 30
0.0
 10
218.354056224
 20
210.9115821445
 30
0.0
 10
218.6620293215
 20
210.9144676132
 30
0.0
 10
218.9678043303
 20
210.9031374837
 30
0.0
 10
219.2640622408
 20
210.8777659587
 30
0.0
 10
219.5437071536
 20
210.8387530354
 30
0.0
 10
219.7226700539
 20
210.8024548399
 30
0.0
 10
219.8078748202
 20
210.7816343434
 30
0.0
  0
SPLINE
  5
305
100
AcDbEntity
  8
BEZUGSACHSEN
100
AcDbSpline
 62
7
  6
CONTINUOUS
 70
0
 71
3
 72
18
 73
14
 74
0
 42
0.0000001
 43
0.0000001
 44
0.0000000001
 40
0.0
 40
0.0
 40
0.0
 40
0.0
 40
0.0828097799
 40
0.1532572001
 40
0.2138601481
 40
0.268467149
 40
0.3200763444
 40
0.3707293253
 40
0.4740891538
 40
0.5855840008
 40
0.7090105228
 40
0.8467479619
 40
1.0
 40
1.0
 40
1.0
 40
1.0
 10
216.7328748202
 20
211.2371940492
 30
0.0
 10
216.7328748202
 20
211.2095780532
 30
0.0
 10
216.7360424188
 20
211.1583549884
 30
0.0
 10
216.7515043271
 20
211.0884135283
 30
0.0
 10
216.7749438837
 20
211.030786836
 30
0.0
 10
216.8043135244
 20
210.9832551232
 30
0.0
 10
216.8385189258
 20
210.9434177394
 30
0.0
 10
216.8901810268
 20
210.898043217
 30
0.0
 10
216.9672178798
 20
210.8527470628
 30
0.0
 10
217.0743873826
 20
210.8157577067
 30
0.0
 10
217.1974415429
 20
210.7950242911
 30
0.0
 10
217.3360781837
 20
210.7925403562
 30
0.0
 10
217.43275504
 20
210.8048059848
 30
0.0
 10
217.4828748202
 20
210.8148056172
 30
0.0
  0
SPLINE
  5
306
100
AcDbEntity
  8
BEZUGSACHSEN
100
AcDbSpline
 62
7
  6
CONTINUOUS
 70
0
 71
3
 72
9
 73
5
 74
0
 42
0.0000001
 43
0.0000001
 44
0.0000000001
 40
0.0
 40
0.0
 40
0.0
 40
0.0
 40
0.4295611169
 40
1.0
 40
1.0
 40
1.0
 40
1.0
 10
220.5578748202
 20
211.219623752
 30
0.0
 10
220.5616581113
 20
211.2130507116
 30
0.0
 10
220.5668582806
 20
211.1957771175
 30
0.0
 10
220.5678748202
 20
211.1780985768
 30
0.0
 10
220.5678748202
 20
211.1680272516
 30
0.0
  0
SPLINE
  5
307
100
AcDbEntity
  8
0
100
AcDbSpline
 62
7
  6
CONTINUOUS
 70
0
 71
3
 72
17
 73
13
 74
0
 42
0.0000001
 43
0.0000001
 44
0.0000000001
 40
0.0
 40
0.0
 40
0.0
 40
0.0
 40
0.0625214388
 40
0.1250450331
 40
0.1875722574
 40
0.2501040229
 40
0.374979911
 40
0.4999214791
 40
0.6249087611
 40
0.7499250253
 40
0.8749583129
 40
1.0
 40
1.0
 40
1.0
 40
1.0
 10
225.4453748202
 20
128.9910015199
 30
0.0
 10
225.4826903162
 20
128.9910015199
 30
0.0
 10
225.5574296651
 20
128.9963144093
 30
0.0
 10
225.6672191036
 20
129.0198824564
 30
0.0
 10
225.7728083683
 20
129.0581236049
 30
0.0
 10
225.9056525752
 20
129.1267408134
 30
0.0
 10
226.0544287492
 20
129.2420226111
 30
0.0
 10
226.199478461
 20
129.4141234174
 30
0.0
 10
226.3107446125
 20
129.6095596863
 30
0.0
 10
226.3889304671
 20
129.8202495047
 30
0.0
 10
226.4351990595
 20
130.0400311576
 30
0.0
 10
226.4453748202
 20
130.189493572
 30
0.0
 10
226.4453748202
 20
130.2641238534
 30
0.0
  0
LINE
  5
308
100
AcDbEntity
  8
0
100
AcDbLine
 62
7
  6
CONTINUOUS
 10
226.5203748202
 20
131.2107710563
 11
226.4721697394
 21
131.1027428393
  0
SPLINE
  5
309
100
AcDbEntity
  8
0
100
AcDbSpline
 62
7
  6
CONTINUOUS
 70
0
 71
3
 72
9
 73
5
 74
0
 42
0.0000001
 43
0.0000001
 44
0.0000000001
 40
0.0
 40
0.0
 40
0.0
 40
0.0
 40
0.5000690625
 40
1.0
 40
1.0
 40
1.0
 40
1.0
 10
226.4453748202
 20
130.9735271258
 30
0.0
 10
226.4453748202
 20
130.9956443058
 30
0.0
 10
226.4497635741
 20
131.0399804491
 30
0.0
 10
226.4631550507
 20
131.0825528703
 30
0.0
 10
226.4721697394
 20
131.1027428393
 30
0.0
  0
SPLINE
  5
30A
100
AcDbEntity
  8
BEZUGSACHSEN
100
AcDbSpline
 62
7
  6
CONTINUOUS
 70
0
 71
3
 72
20
 73
16
 74
0
 42
0.0000001
 43
0.0000001
 44
0.0000000001
 40
0.0
 40
0.0
 40
0.0
 40
0.0
 40
0.1905954053
 40
0.3546205399
 40
0.4942313808
 40
0.6121878248
 40
0.7114740316
 40
0.7552929375
 40
0.7960502133
 40
0.8348543236
 40
0.8739261808
 40
0.8951480439
 40
0.919537153
 40
0.9513092074
 40
1.0
 40
1.0
 40
1.0
 40
1.0
 10
219.8078748202
 20
210.7816343434
 30
0.0
 10
219.8636884646
 20
210.7679958131
 30
0.0
 10
219.9695560185
 20
210.7501038649
 30
0.0
 10
220.1189310422
 20
210.746181668
 30
0.0
 10
220.2456630319
 20
210.7603030274
 30
0.0
 10
220.3501251319
 20
210.787507265
 30
0.0
 10
220.4225049612
 20
210.8196757369
 30
0.0
 10
220.4689773579
 20
210.8500825406
 30
0.0
 10
220.497476272
 20
210.874152034
 30
0.0
 10
220.5212638323
 20
210.9010522927
 30
0.0
 10
220.5368284998
 20
210.9267987377
 30
0.0
 10
220.5464135168
 20
210.9505099694
 30
0.0
 10
220.5525928743
 20
210.9730632689
 30
0.0
 10
220.5571420509
 20
211.0044143534
 30
0.0
 10
220.5578748202
 20
211.0287073704
 30
0.0
 10
220.5578748202
 20
211.0433854258
 30
0.0
  0
ENDSEC
  0
SECTION
  2
OBJECTS
  0
DICTIONARY
  5
C
100
AcDbDictionary
280
0
281
1
  3
ACAD_GROUP
350
D
  3
ACAD_MLINESTYLE
350
17
  3
ACAD_LAYOUT
350
1A
  3
ACAD_PLOTSETTINGS
350
19
  3
ACAD_PLOTSTYLENAME
350
E
  0
DICTIONARY
  5
D
102
{ACAD_REACTORS
330
C
102
}
100
AcDbDictionary
280
0
281
1
  0
ACDBDICTIONARYWDFLT
  5
E
102
{ACAD_REACTORS
330
C
102
}
100
AcDbDictionary
281
1
  3
Normal
350
F
100
AcDbDictionaryWithDefault
340
F
  0
DICTIONARY
  5
17
102
{ACAD_REACTORS
330
C
102
}
100
AcDbDictionary
280
0
281
1
  3
Standard
350
18
  0
DICTIONARY
  5
19
102
{ACAD_REACTORS
330
C
102
}
100
AcDbDictionary
281
1
  0
DICTIONARY
  5
1A
102
{ACAD_REACTORS
330
C
102
}
100
AcDbDictionary
281
1
  3
Model
350
30B
  3
Layout1
350
30C
  0
ACDBPLACEHOLDER
  5
F
102
{ACAD_REACTORS
330
E
102
}
  0
MLINESTYLE
  5
18
102
{ACAD_REACTORS
330
17
102
}
100
AcDbMlineStyle
  2
STANDARD
 70
0
  3

 62
256
 51
90.0
 52
90.0
 71
2
 49
0.5
 62
256
  6
BYLAYER
 49
-0.5
 62
256
  6
BYLAYER
  0
LAYOUT
  5
30B
102
{ACAD_REACTORS
330
1A
102
}
100
AcDbPlotSettings
  1

  2
none_device
  4
ISO_A3_(420.00_x_297.00_MM)
  6

 40
0.0
 41
0.0
 42
0.0
 43
0.0
 44
420.0
 45
297.0
 46
0.0
 47
0.0
 48
0.0
 49
0.0
140
0.0
141
0.0
142
1.0
143
1.0
 70
1024
 72
1
 73
0
 74
0
  7

 75
0
147
1.0
148
0.0
149
0.0
100
AcDbLayout
  1
Model
 70
0
 71
0
 10
0.0
 20
0.0
 11
420.0
 21
297.0
 12
0.0
 22
0.0
 32
0.0
 14
0.0
 24
0.0
 34
0.0
 15
0.0
 25
0.0
 35
0.0
146
0.0
 13
0.0
 23
0.0
 33
0.0
 16
1.0
 26
0.0
 36
0.0
 17
0.0
 27
1.0
 37
0.0
 76
0
330
235
345
0
346
0
  0
LAYOUT
  5
30C
102
{ACAD_REACTORS
330
1A
102
}
100
AcDbPlotSettings
  1

  2
none_device
  4
ISO_A3_(420.00_x_297.00_MM)
  6

 40
0.0
 41
0.0
 42
0.0
 43
0.0
 44
420.0
 45
297.0
 46
0.0
 47
0.0
 48
0.0
 49
0.0
140
0.0
141
0.0
142
1.0
143
1.0
 70
0
 72
1
 73
0
 74
0
  7

 75
0
147
1.0
148
0.0
149
0.0
100
AcDbLayout
  1
Layout1
 70
0
 71
1
 10
0.0
 20
0.0
 11
420.0
 21
297.0
 12
0.0
 22
0.0
 32
0.0
 14
0.0
 24
0.0
 34
0.0
 15
0.0
 25
0.0
 35
0.0
146
0.0
 13
0.0
 23
0.0
 33
0.0
 16
1.0
 26
0.0
 36
0.0
 17
0.0
 27
1.0
 37
0.0
 76
0
330
236
345
0
346
0
  0
ENDSEC
  0
EOF
