  0
SECTION
  2
HEADER
  9
$ACADVER
  1
AC1027
  9
$ACADMAINTVER
 70
     8
  9
$DWGCODEPAGE
  3
ANSI_1252
  9
$REQUIREDVERSIONS
160
                 0
  9
$LASTSAVEDBY
  1
bdapprich
  9
$INSBASE
 10
0.0
 20
0.0
 30
0.0
  9
$EXTMIN
 10
-0.0000000000027285
 20
-1891.649683832064
 30
0.0
  9
$EXTMAX
 10
5456.123370110049
 20
3.401747982837605
 30
0.0
  9
$LIMMIN
 10
0.0
 20
0.0
  9
$LIMMAX
 10
420.0
 20
297.0
  9
$ORTHOMODE
 70
     0
  9
$REGENMODE
 70
     1
  9
$FILLMODE
 70
     1
  9
$QTEXTMODE
 70
     0
  9
$MIRRTEXT
 70
     0
  9
$LTSCALE
 40
1.0
  9
$ATTMODE
 70
     1
  9
$TEXTSIZE
 40
2.5
  9
$TRACEWID
 40
1.0
  9
$TEXTSTYLE
  7
Standard
  9
$CLAYER
  8
L1
  9
$CELTYPE
  6
ByLayer
  9
$CECOLOR
 62
   256
  9
$CELTSCALE
 40
1.0
  9
$DISPSILH
 70
     0
  9
$DIMSCALE
 40
1.0
  9
$DIMASZ
 40
2.0
  9
$DIMEXO
 40
0.625
  9
$DIMDLI
 40
3.75
  9
$DIMRND
 40
0.0
  9
$DIMDLE
 40
0.0
  9
$DIMEXE
 40
1.25
  9
$DIMTP
 40
0.0
  9
$DIMTM
 40
0.0
  9
$DIMTXT
 40
2.0
  9
$DIMCEN
 40
2.0
  9
$DIMTSZ
 40
0.0
  9
$DIMTOL
 70
     0
  9
$DIMLIM
 70
     0
  9
$DIMTIH
 70
     0
  9
$DIMTOH
 70
     0
  9
$DIMSE1
 70
     0
  9
$DIMSE2
 70
     0
  9
$DIMTAD
 70
     1
  9
$DIMZIN
 70
     8
  9
$DIMBLK
  1

  9
$DIMASO
 70
     1
  9
$DIMSHO
 70
     1
  9
$DIMPOST
  1

  9
$DIMAPOST
  1

  9
$DIMALT
 70
     0
  9
$DIMALTD
 70
     3
  9
$DIMALTF
 40
0.03937007874016
  9
$DIMLFAC
 40
1.0
  9
$DIMTOFL
 70
     1
  9
$DIMTVP
 40
0.0
  9
$DIMTIX
 70
     0
  9
$DIMSOXD
 70
     0
  9
$DIMSAH
 70
     0
  9
$DIMBLK1
  1

  9
$DIMBLK2
  1

  9
$DIMSTYLE
  2
ISO-25
  9
$DIMCLRD
 70
     5
  9
$DIMCLRE
 70
     0
  9
$DIMCLRT
 70
     2
  9
$DIMTFAC
 40
0.8
  9
$DIMGAP
 40
0.625
  9
$DIMJUST
 70
     0
  9
$DIMSD1
 70
     0
  9
$DIMSD2
 70
     0
  9
$DIMTOLJ
 70
     1
  9
$DIMTZIN
 70
     8
  9
$DIMALTZ
 70
     0
  9
$DIMALTTZ
 70
     0
  9
$DIMUPT
 70
     0
  9
$DIMDEC
 70
     2
  9
$DIMTDEC
 70
     2
  9
$DIMALTU
 70
     2
  9
$DIMALTTD
 70
     3
  9
$DIMTXSTY
  7
Standard
  9
$DIMAUNIT
 70
     0
  9
$DIMADEC
 70
     0
  9
$DIMALTRND
 40
0.0
  9
$DIMAZIN
 70
     0
  9
$DIMDSEP
 70
    46
  9
$DIMATFIT
 70
     3
  9
$DIMFRAC
 70
     0
  9
$DIMLDRBLK
  1

  9
$DIMLUNIT
 70
     2
  9
$DIMLWD
 70
    -1
  9
$DIMLWE
 70
    -2
  9
$DIMTMOVE
 70
     0
  9
$DIMFXL
 40
1.0
  9
$DIMFXLON
 70
     0
  9
$DIMJOGANG
 40
1.570796326794896
  9
$DIMTFILL
 70
     0
  9
$DIMTFILLCLR
 70
     0
  9
$DIMARCSYM
 70
     0
  9
$DIMLTYPE
  6
ByLayer
  9
$DIMLTEX1
  6

  9
$DIMLTEX2
  6

  9
$DIMTXTDIRECTION
 70
     0
  9
$LUNITS
 70
     2
  9
$LUPREC
 70
     4
  9
$SKETCHINC
 40
1.0
  9
$FILLETRAD
 40
1.0
  9
$AUNITS
 70
     0
  9
$AUPREC
 70
     0
  9
$MENU
  1
.
  9
$ELEVATION
 40
0.0
  9
$PELEVATION
 40
0.0
  9
$THICKNESS
 40
0.0
  9
$LIMCHECK
 70
     0
  9
$CHAMFERA
 40
0.5
  9
$CHAMFERB
 40
0.5
  9
$CHAMFERC
 40
0.0
  9
$CHAMFERD
 40
0.0
  9
$SKPOLY
 70
     0
  9
$TDCREATE
 40
2455533.102204398
  9
$TDUCREATE
 40
2455533.018871065
  9
$TDUPDATE
 40
2457528.569940359
  9
$TDUUPDATE
 40
2457528.486607025
  9
$TDINDWG
 40
6.8546373727
  9
$TDUSRTIMER
 40
2457528.486346782
  9
$USRTIMER
 70
     1
  9
$ANGBASE
 50
0.0
  9
$ANGDIR
 70
     0
  9
$PDMODE
 70
     0
  9
$PDSIZE
 40
0.0
  9
$PLINEWID
 40
0.0
  9
$SPLFRAME
 70
     0
  9
$SPLINETYPE
 70
     6
  9
$SPLINESEGS
 70
     8
  9
$HANDSEED
  5
6696E
  9
$SURFTAB1
 70
     6
  9
$SURFTAB2
 70
     6
  9
$SURFTYPE
 70
     6
  9
$SURFU
 70
     6
  9
$SURFV
 70
     6
  9
$UCSBASE
  2

  9
$UCSNAME
  2

  9
$UCSORG
 10
0.0
 20
0.0
 30
0.0
  9
$UCSXDIR
 10
1.0
 20
0.0
 30
0.0
  9
$UCSYDIR
 10
0.0
 20
1.0
 30
0.0
  9
$UCSORTHOREF
  2

  9
$UCSORTHOVIEW
 70
     0
  9
$UCSORGTOP
 10
0.0
 20
0.0
 30
0.0
  9
$UCSORGBOTTOM
 10
0.0
 20
0.0
 30
0.0
  9
$UCSORGLEFT
 10
0.0
 20
0.0
 30
0.0
  9
$UCSORGRIGHT
 10
0.0
 20
0.0
 30
0.0
  9
$UCSORGFRONT
 10
0.0
 20
0.0
 30
0.0
  9
$UCSORGBACK
 10
0.0
 20
0.0
 30
0.0
  9
$PUCSBASE
  2

  9
$PUCSNAME
  2

  9
$PUCSORG
 10
0.0
 20
0.0
 30
0.0
  9
$PUCSXDIR
 10
1.0
 20
0.0
 30
0.0
  9
$PUCSYDIR
 10
0.0
 20
1.0
 30
0.0
  9
$PUCSORTHOREF
  2

  9
$PUCSORTHOVIEW
 70
     0
  9
$PUCSORGTOP
 10
0.0
 20
0.0
 30
0.0
  9
$PUCSORGBOTTOM
 10
0.0
 20
0.0
 30
0.0
  9
$PUCSORGLEFT
 10
0.0
 20
0.0
 30
0.0
  9
$PUCSORGRIGHT
 10
0.0
 20
0.0
 30
0.0
  9
$PUCSORGFRONT
 10
0.0
 20
0.0
 30
0.0
  9
$PUCSORGBACK
 10
0.0
 20
0.0
 30
0.0
  9
$USERI1
 70
     0
  9
$USERI2
 70
     0
  9
$USERI3
 70
     0
  9
$USERI4
 70
     0
  9
$USERI5
 70
     0
  9
$USERR1
 40
0.0
  9
$USERR2
 40
0.0
  9
$USERR3
 40
0.0
  9
$USERR4
 40
0.0
  9
$USERR5
 40
0.0
  9
$WORLDVIEW
 70
     1
  9
$SHADEDGE
 70
     3
  9
$SHADEDIF
 70
    70
  9
$TILEMODE
 70
     1
  9
$MAXACTVP
 70
    64
  9
$PINSBASE
 10
0.0
 20
0.0
 30
0.0
  9
$PLIMCHECK
 70
     0
  9
$PEXTMIN
 10
1.000000000000000E+20
 20
1.000000000000000E+20
 30
1.000000000000000E+20
  9
$PEXTMAX
 10
-1.000000000000000E+20
 20
-1.000000000000000E+20
 30
-1.000000000000000E+20
  9
$PLIMMIN
 10
0.0
 20
0.0
  9
$PLIMMAX
 10
0.0
 20
0.0
  9
$UNITMODE
 70
     0
  9
$VISRETAIN
 70
     1
  9
$PLINEGEN
 70
     0
  9
$PSLTSCALE
 70
     1
  9
$TREEDEPTH
 70
  3020
  9
$CMLSTYLE
  2
Standard
  9
$CMLJUST
 70
     0
  9
$CMLSCALE
 40
20.0
  9
$PROXYGRAPHICS
 70
     1
  9
$MEASUREMENT
 70
     1
  9
$CELWEIGHT
370
    -1
  9
$ENDCAPS
280
     0
  9
$JOINSTYLE
280
     0
  9
$LWDISPLAY
290
     0
  9
$INSUNITS
 70
     4
  9
$HYPERLINKBASE
  1

  9
$STYLESHEET
  1
MONOCHROME.CTB
  9
$XEDIT
290
     1
  9
$CEPSNTYPE
380
     0
  9
$PSTYLEMODE
290
     1
  9
$FINGERPRINTGUID
  2
{3AD37D10-C404-4F59-AB63-D9658A624F2F}
  9
$VERSIONGUID
  2
{2B510D26-2619-45F2-8EAD-6F8F03C84048}
  9
$EXTNAMES
290
     1
  9
$PSVPSCALE
 40
0.0
  9
$OLESTARTUP
290
     0
  9
$SORTENTS
280
   127
  9
$INDEXCTL
280
     0
  9
$HIDETEXT
280
     1
  9
$XCLIPFRAME
280
     0
  9
$HALOGAP
280
     0
  9
$OBSCOLOR
 70
   257
  9
$OBSLTYPE
280
     0
  9
$INTERSECTIONDISPLAY
280
     0
  9
$INTERSECTIONCOLOR
 70
   257
  9
$DIMASSOC
280
     2
  9
$PROJECTNAME
  1

  9
$CAMERADISPLAY
290
     0
  9
$LENSLENGTH
 40
50.0
  9
$CAMERAHEIGHT
 40
0.0
  9
$STEPSPERSEC
 40
2.0
  9
$STEPSIZE
 40
6.0
  9
$3DDWFPREC
 40
2.0
  9
$PSOLWIDTH
 40
0.25
  9
$PSOLHEIGHT
 40
4.0
  9
$LOFTANG1
 40
1.570796326794896
  9
$LOFTANG2
 40
1.570796326794896
  9
$LOFTMAG1
 40
0.0
  9
$LOFTMAG2
 40
0.0
  9
$LOFTPARAM
 70
     7
  9
$LOFTNORMALS
280
     1
  9
$LATITUDE
 40
37.795
  9
$LONGITUDE
 40
-122.394
  9
$NORTHDIRECTION
 40
0.0
  9
$TIMEZONE
 70
 -8000
  9
$LIGHTGLYPHDISPLAY
280
     1
  9
$TILEMODELIGHTSYNCH
280
     1
  9
$CMATERIAL
347
11
  9
$SOLIDHIST
280
     1
  9
$SHOWHIST
280
     1
  9
$DWFFRAME
280
     2
  9
$DGNFRAME
280
     0
  9
$REALWORLDSCALE
290
     1
  9
$INTERFERECOLOR
 62
     1
  9
$INTERFEREOBJVS
345
1E
  9
$INTERFEREVPVS
346
1B
  9
$CSHADOW
280
     0
  9
$SHADOWPLANELOCATION
 40
0.0
  0
ENDSEC
  0
SECTION
  2
CLASSES
  0
CLASS
  1
ACDBDICTIONARYWDFLT
  2
AcDbDictionaryWithDefault
  3
ObjectDBX Classes
 90
        0
 91
        4
280
     0
281
     0
  0
CLASS
  1
MATERIAL
  2
AcDbMaterial
  3
ObjectDBX Classes
 90
     1153
 91
        4
280
     0
281
     0
  0
CLASS
  1
VISUALSTYLE
  2
AcDbVisualStyle
  3
ObjectDBX Classes
 90
     4095
 91
        4
280
     0
281
     0
  0
CLASS
  1
TABLESTYLE
  2
AcDbTableStyle
  3
ObjectDBX Classes
 90
     4095
 91
        4
280
     0
281
     0
  0
CLASS
  1
DIMASSOC
  2
AcDbDimAssoc
  3
"AcDbDimAssoc|Product Desc:     AcDim ARX App For Dimension|Company:          Autodesk, Inc.|WEB Address:      www.autodesk.com"
 90
        0
 91
        4
280
     0
281
     0
  0
CLASS
  1
SORTENTSTABLE
  2
AcDbSortentsTable
  3
ObjectDBX Classes
 90
        0
 91
        4
280
     0
281
     0
  0
CLASS
  1
DICTIONARYVAR
  2
AcDbDictionaryVar
  3
ObjectDBX Classes
 90
        0
 91
        4
280
     0
281
     0
  0
CLASS
  1
SCALE
  2
AcDbScale
  3
ObjectDBX Classes
 90
     1153
 91
        4
280
     0
281
     0
  0
CLASS
  1
MLEADERSTYLE
  2
AcDbMLeaderStyle
  3
ACDB_MLEADERSTYLE_CLASS
 90
     4095
 91
        4
280
     0
281
     0
  0
CLASS
  1
CELLSTYLEMAP
  2
AcDbCellStyleMap
  3
ObjectDBX Classes
 90
     1152
 91
        4
280
     0
281
     0
  0
CLASS
  1
MULTILEADER
  2
AcDbMLeader
  3
ACDB_MLEADER_CLASS
 90
     1025
 91
        4
280
     0
281
     1
  0
CLASS
  1
SUN
  2
AcDbSun
  3
SCENEOE
 90
     1153
 91
        4
280
     0
281
     0
  0
CLASS
  1
RASTERVARIABLES
  2
AcDbRasterVariables
  3
ISM
 90
        0
 91
        4
280
     0
281
     0
  0
ENDSEC
  0
SECTION
  2
TABLES
  0
TABLE
  2
VPORT
  5
8
102
{ACAD_XDICTIONARY
360
42A1
102
}
330
0
100
AcDbSymbolTable
 70
     1
  0
VPORT
  5
1900E
330
8
100
AcDbSymbolTableRecord
100
AcDbViewportTableRecord
  2
*Active
 70
     0
 10
0.0
 20
0.0
 11
1.0
 21
1.0
 12
5397.497957741034
 22
-1867.587002328133
 13
0.0
 23
0.0
 14
10.0
 24
10.0
 15
10.0
 25
10.0
 16
0.0
 26
0.0
 36
1.0
 17
0.0
 27
0.0
 37
0.0
 40
89.79686957318697
 41
2.276960784313725
 42
50.0
 43
0.0
 44
0.0
 50
0.0
 51
0.0
 71
    16
 72
 20000
 73
     1
 74
     3
 75
     0
 76
     0
 77
     0
 78
     0
281
     0
 65
     1
110
0.0
120
0.0
130
0.0
111
1.0
121
0.0
131
0.0
112
0.0
122
1.0
132
0.0
 79
     0
146
0.0
348
1A
 60
     3
 61
     5
292
     1
282
     1
141
0.0
142
0.0
 63
   250
421
  3355443
361
6692E
  0
ENDTAB
  0
TABLE
  2
LTYPE
  5
5
330
0
100
AcDbSymbolTable
 70
     2
  0
LTYPE
  5
29
330
5
100
AcDbSymbolTableRecord
100
AcDbLinetypeTableRecord
  2
ByBlock
 70
     0
  3

 72
    65
 73
     0
 40
0.0
  0
LTYPE
  5
2A
330
5
100
AcDbSymbolTableRecord
100
AcDbLinetypeTableRecord
  2
ByLayer
 70
     0
  3

 72
    65
 73
     0
 40
0.0
  0
LTYPE
  5
2B
330
5
100
AcDbSymbolTableRecord
100
AcDbLinetypeTableRecord
  2
Continuous
 70
     0
  3
Solid line
 72
    65
 73
     0
 40
0.0
  0
LTYPE
  5
960A
330
5
100
AcDbSymbolTableRecord
100
AcDbLinetypeTableRecord
  2
DASHED
 70
     0
  3
Dashed __ __ __ __ __ __ __ __ __ __ __ __ __ _
 72
    65
 73
     2
 40
19.05
 49
12.7
 74
     0
 49
-6.349999999999997
 74
     0
  0
ENDTAB
  0
TABLE
  2
LAYER
  5
2
102
{ACAD_XDICTIONARY
360
1EF
102
}
330
0
100
AcDbSymbolTable
 70
     7
  0
LAYER
  5
25
102
{ACAD_XDICTIONARY
360
41645
102
}
330
2
100
AcDbSymbolTableRecord
100
AcDbLayerTableRecord
  2
0
 70
     0
 62
     7
  6
Continuous
370
    -3
390
F
347
13
348
0
  0
LAYER
  5
1E1
330
2
100
AcDbSymbolTableRecord
100
AcDbLayerTableRecord
  2
DEFPOINTS
 70
     0
 62
     7
  6
Continuous
290
     0
370
    -3
390
F
347
13
348
0
  0
LAYER
  5
1E3
102
{ACAD_XDICTIONARY
360
4164B
102
}
330
2
100
AcDbSymbolTableRecord
100
AcDbLayerTableRecord
  2
DIM
 70
     0
 62
     5
  6
Continuous
370
    13
390
F
347
13
348
0
  0
LAYER
  5
1E5
102
{ACAD_XDICTIONARY
360
4164F
102
}
330
2
100
AcDbSymbolTableRecord
100
AcDbLayerTableRecord
  2
MAIN
 70
     0
 62
     7
  6
Continuous
370
    -3
390
F
347
13
348
0
  0
LAYER
  5
1E8
102
{ACAD_XDICTIONARY
360
41655
102
}
330
2
100
AcDbSymbolTableRecord
100
AcDbLayerTableRecord
  2
HATCH
 70
     0
 62
     6
  6
Continuous
370
    -3
390
F
347
13
348
0
  0
LAYER
  5
960B
102
{ACAD_XDICTIONARY
360
4165B
102
}
330
2
100
AcDbSymbolTableRecord
100
AcDbLayerTableRecord
  2
TIME
 70
     0
 62
     1
  6
DASHED
370
    -3
390
F
347
13
348
0
  0
LAYER
  5
2CB04
102
{ACAD_XDICTIONARY
360
2CB05
102
}
330
2
100
AcDbSymbolTableRecord
100
AcDbLayerTableRecord
  2
L1
 70
     0
 62
     4
  6
Continuous
370
    -3
390
F
347
13
348
0
  0
ENDTAB
  0
TABLE
  2
STYLE
  5
3
330
0
100
AcDbSymbolTable
 70
     1
  0
STYLE
  5
26
330
3
100
AcDbSymbolTableRecord
100
AcDbTextStyleTableRecord
  2
Standard
 70
     0
 40
0.0
 41
1.0
 50
0.0
 71
     0
 42
2.5
  3
txt
  4

  0
ENDTAB
  0
TABLE
  2
VIEW
  5
6
330
0
100
AcDbSymbolTable
 70
     0
  0
ENDTAB
  0
TABLE
  2
UCS
  5
7
330
0
100
AcDbSymbolTable
 70
     0
  0
ENDTAB
  0
TABLE
  2
APPID
  5
9
330
0
100
AcDbSymbolTable
 70
    14
  0
APPID
  5
27
330
9
100
AcDbSymbolTableRecord
100
AcDbRegAppTableRecord
  2
ACAD
 70
     0
  0
APPID
  5
1EE
330
9
100
AcDbSymbolTableRecord
100
AcDbRegAppTableRecord
  2
ACAD_PSEXT
 70
     0
  0
APPID
  5
25B7
330
9
100
AcDbSymbolTableRecord
100
AcDbRegAppTableRecord
  2
ACAD_EXEMPT_FROM_CAD_STANDARDS
 70
     0
  0
APPID
  5
42AD
330
9
100
AcDbSymbolTableRecord
100
AcDbRegAppTableRecord
  2
ACAD_DSTYLE_DIMJOGGED_JOGANGLE_SYMBOL
 70
     0
  0
APPID
  5
5212
330
9
100
AcDbSymbolTableRecord
100
AcDbRegAppTableRecord
  2
ACAD_DSTYLE_DIMTEXT_FILL
 70
     0
  0
APPID
  5
2E8BE
330
9
100
AcDbSymbolTableRecord
100
AcDbRegAppTableRecord
  2
AcAecLayerStandard
 70
     0
  0
APPID
  5
39244
330
9
100
AcDbSymbolTableRecord
100
AcDbRegAppTableRecord
  2
ACAD_DSTYLE_DIM_LINETYPE
 70
     0
  0
APPID
  5
40CE2
330
9
100
AcDbSymbolTableRecord
100
AcDbRegAppTableRecord
  2
ACAD_MLEADERVER
 70
     0
  0
APPID
  5
47826
330
9
100
AcDbSymbolTableRecord
100
AcDbRegAppTableRecord
  2
ACAD_DSTYLE_DIMRADIAL_EXTENSION
 70
     0
  0
APPID
  5
4F8FD
330
9
100
AcDbSymbolTableRecord
100
AcDbRegAppTableRecord
  2
AcDbBlockRepETag
 70
     0
  0
APPID
  5
4F8FE
330
9
100
AcDbSymbolTableRecord
100
AcDbRegAppTableRecord
  2
AcDbDynamicBlockGUID
 70
     0
  0
APPID
  5
523E1
330
9
100
AcDbSymbolTableRecord
100
AcDbRegAppTableRecord
  2
ACAD_DSTYLE_DIMJAG
 70
     0
  0
APPID
  5
523E2
330
9
100
AcDbSymbolTableRecord
100
AcDbRegAppTableRecord
  2
ACAD_DSTYLE_DIMBREAK
 70
     0
  0
APPID
  5
523E3
330
9
100
AcDbSymbolTableRecord
100
AcDbRegAppTableRecord
  2
ACAD_DSTYLE_DIMTALN
 70
     0
  0
ENDTAB
  0
TABLE
  2
DIMSTYLE
  5
A
330
0
100
AcDbSymbolTable
 70
     3
100
AcDbDimStyleTable
  0
DIMSTYLE
105
3F
102
{ACAD_REACTORS
330
588CC
330
58AF1
330
6391F
330
63A1E
330
63A65
102
}
330
A
100
AcDbSymbolTableRecord
100
AcDbDimStyleTableRecord
  2
ISO-25
 70
     0
 41
2.0
 42
0.625
 43
3.75
 44
1.25
 50
89.99999999999999
 73
     0
 74
     0
 77
     1
 78
     8
140
2.0
141
2.0
143
0.03937007874016
146
0.8
147
0.625
171
     3
172
     1
176
     5
271
     2
178
     2
271
     2
272
     2
274
     3
284
     8
340
26
371
    -1
345
2A
1001
ACAD_DSTYLE_DIMJOGGED_JOGANGLE_SYMBOL
1070
   384
1040
1.570796326794896
  0
DIMSTYLE
105
1EB
330
A
100
AcDbSymbolTableRecord
100
AcDbDimStyleTableRecord
  2
STANDARD
 70
     0
 41
0.8
140
0.5
141
0.8
176
     5
178
     2
340
26
  0
DIMSTYLE
105
523E0
102
{ACAD_REACTORS
330
58C17
102
}
330
A
100
AcDbSymbolTableRecord
100
AcDbDimStyleTableRecord
  2
ISO-25$2
 70
     0
 41
3.0
 42
0.625
 43
3.75
 44
1.25
 73
     0
 74
     0
 77
     1
 78
     8
140
2.0
141
2.5
143
0.03937007874016
147
0.625
171
     3
172
     1
271
     3
178
     2
179
     1
271
     3
272
     3
274
     3
283
     0
284
     8
289
     1
340
26
1001
ACAD_DSTYLE_DIMBREAK
1070
   391
1040
3.75
1001
ACAD_DSTYLE_DIMJAG
1070
   388
1040
1.5
1001
ACAD_DSTYLE_DIMTALN
1070
   392
1070
     0
  0
ENDTAB
  0
TABLE
  2
BLOCK_RECORD
  5
1
330
0
100
AcDbSymbolTable
 70
    12
  0
BLOCK_RECORD
  5
37
102
{ACAD_XDICTIONARY
360
25C1
102
}
330
1
100
AcDbSymbolTableRecord
100
AcDbBlockTableRecord
  2
*Model_Space
340
3A
 70
     0
280
     1
281
     0
  0
BLOCK_RECORD
  5
33
330
1
100
AcDbSymbolTableRecord
100
AcDbBlockTableRecord
  2
*Paper_Space
340
36
 70
     0
280
     1
281
     0
  0
BLOCK_RECORD
  5
3B
330
1
100
AcDbSymbolTableRecord
100
AcDbBlockTableRecord
  2
*Paper_Space0
340
3E
 70
     0
280
     1
281
     0
  0
BLOCK_RECORD
  5
588F8
330
1
100
AcDbSymbolTableRecord
100
AcDbBlockTableRecord
  2
*D1
340
0
 70
     0
280
     1
281
     0
  0
BLOCK_RECORD
  5
58AF2
330
1
100
AcDbSymbolTableRecord
100
AcDbBlockTableRecord
  2
*D2
340
0
 70
     0
280
     1
281
     0
  0
BLOCK_RECORD
  5
58C18
330
1
100
AcDbSymbolTableRecord
100
AcDbBlockTableRecord
  2
*D3
340
0
 70
     0
280
     1
281
     0
  0
BLOCK_RECORD
  5
58E2C
330
1
100
AcDbSymbolTableRecord
100
AcDbBlockTableRecord
  2
D6.1-D7.9
340
0
310
2800000020000000200000000100080000000000000400000000000000000000000000000000000000000000000080000080000000808000800000008000800080800000C0C0C000C0DCC000F0CAA6000020400000206000002080000020A0000020C0000020E00000400000004020000040400000406000004080000040A0
310
000040C0000040E00000600000006020000060400000606000006080000060A0000060C0000060E00000800000008020000080400000806000008080000080A0000080C0000080E00000A0000000A0200000A0400000A0600000A0800000A0A00000A0C00000A0E00000C0000000C0200000C0400000C0600000C0800000C0
310
A00000C0C00000C0E00000E0000000E0200000E0400000E0600000E0800000E0A00000E0C00000E0E00040000000400020004000400040006000400080004000A0004000C0004000E00040200000402020004020400040206000402080004020A0004020C0004020E000404000004040200040404000404060004040800040
310
40A0004040C0004040E00040600000406020004060400040606000406080004060A0004060C0004060E00040800000408020004080400040806000408080004080A0004080C0004080E00040A0000040A0200040A0400040A0600040A0800040A0A00040A0C00040A0E00040C0000040C0200040C0400040C0600040C08000
310
40C0A00040C0C00040C0E00040E0000040E0200040E0400040E0600040E0800040E0A00040E0C00040E0E00080000000800020008000400080006000800080008000A0008000C0008000E00080200000802020008020400080206000802080008020A0008020C0008020E00080400000804020008040400080406000804080
310
008040A0008040C0008040E00080600000806020008060400080606000806080008060A0008060C0008060E00080800000808020008080400080806000808080008080A0008080C0008080E00080A0000080A0200080A0400080A0600080A0800080A0A00080A0C00080A0E00080C0000080C0200080C0400080C0600080C0
310
800080C0A00080C0C00080C0E00080E0000080E0200080E0400080E0600080E0800080E0A00080E0C00080E0E000C0000000C0002000C0004000C0006000C0008000C000A000C000C000C000E000C0200000C0202000C0204000C0206000C0208000C020A000C020C000C020E000C0400000C0402000C0404000C0406000C0
310
408000C040A000C040C000C040E000C0600000C0602000C0604000C0606000C0608000C060A000C060C000C060E000C0800000C0802000C0804000C0806000C0808000C080A000C080C000C080E000C0A00000C0A02000C0A04000C0A06000C0A08000C0A0A000C0A0C000C0A0E000C0C00000C0C02000C0C04000C0C06000
310
C0C08000C0C0A000F0FBFF00A4A0A000808080000000FF0000FF000000FFFF00FF000000FF00FF00FFFF0000FFFFFF0000000000000000000000000000000000000000000000000000000000000000000000000000000000000000000000000000000000000000000000000000000000000000000000000000000000000000
310
00000000000000000000000000000000000000000000000000000000000000000000000000000000000000000000000000000000000000000000000000000000000000000000000000000000000000000000000000000000000000000000000000000000000000000000000000000000000000000000000000000000000000
310
00000000000000000000000000000000000000000000000000000000000000000000000000000000000000000000000000000000000000000000000000000000000000000000000000000000000000000000000000000000000000000000000000000000000000000000000000000000000000000000000000000000000000
310
00000000000000000000000000000000000000000000000000000000000000000000000000000000000000000000000000000000000000000000000000000000000000000000000000000000000000000000000000FEFEFEFEFEFEFEFEFEFEFEFEFEFEFEFEFEFEFEFEFEFEFEFEFEFEFEFEFE000000FE00FEFEFEFE000000FE
310
FEFE0000000000FEFEFE000000FE00000000000000FEFEFEFEFE000000FEFEFE0000000000FEFEFE00000000FEFEFEFE0000000000FEFEFEFE0000FEFEFE0000000000FEFEFE00000000FEFEFEFE00FEFE0000000000FEFE00FEFEFEFE00000000FEFEFE000000FEFEFEFE00000000FEFE0000000000FEFEFEFEFEFEFEFEFE
310
FEFEFEFEFEFEFEFEFEFEFEFEFEFEFEFEFEFEFEFE0000000000000000000000000000000000000000000000000000000000000000000000000000000000000000000000000000000000000000000000000000000000000000000000000000000000000000000000000000000000000000000000000000000000000000000000
310
00000000000000000000000000000000000000000000000000000000000000000000000000000000000000000000000000000000000000000000000000000000000000000000000000000000000000000000000000000000000000000000000000000000000000000000000000000000000000000000000000000000000000
310
00000000000000000000000000000000000000000000000000000000000000000000000000000000000000000000000000000000000000000000000000000000000000000000000000000000000000000000000000000000000000000000000000000000000000000000000000000000000000000000000000000000000000
310
0000000000000000000000000000000000000000000000000000000000000000000000000000000000000000000000000000000000000000
102
{BLKREFS
331
58F9C
102
}
 70
     4
280
     1
281
     0
  0
BLOCK_RECORD
  5
63920
330
1
100
AcDbSymbolTableRecord
100
AcDbBlockTableRecord
  2
*D5
340
0
 70
     0
280
     1
281
     0
  0
BLOCK_RECORD
  5
63A1F
330
1
100
AcDbSymbolTableRecord
100
AcDbBlockTableRecord
  2
*D6
340
0
 70
     0
280
     1
281
     0
  0
BLOCK_RECORD
  5
63A66
330
1
100
AcDbSymbolTableRecord
100
AcDbBlockTableRecord
  2
*D7
340
0
 70
     0
280
     1
281
     0
  0
BLOCK_RECORD
  5
668B0
330
1
100
AcDbSymbolTableRecord
100
AcDbBlockTableRecord
  2
*D8
340
0
 70
     0
280
     1
281
     0
  0
BLOCK_RECORD
  5
668BC
330
1
100
AcDbSymbolTableRecord
100
AcDbBlockTableRecord
  2
*D9
340
0
 70
     0
280
     1
281
     0
  0
BLOCK_RECORD
  5
668F4
330
1
100
AcDbSymbolTableRecord
100
AcDbBlockTableRecord
  2
*D10
340
0
 70
     0
280
     1
281
     0
  0
BLOCK_RECORD
  5
66909
330
1
100
AcDbSymbolTableRecord
100
AcDbBlockTableRecord
  2
*D11
340
0
 70
     0
280
     1
281
     0
  0
ENDTAB
  0
ENDSEC
  0
SECTION
  2
BLOCKS
  0
BLOCK
  5
38
330
37
100
AcDbEntity
  8
0
100
AcDbBlockBegin
  2
*Model_Space
 70
     0
 10
0.0
 20
0.0
 30
0.0
  3
*Model_Space
  1
*Model_Space
  0
ENDBLK
  5
39
330
37
100
AcDbEntity
  8
0
100
AcDbBlockEnd
  0
BLOCK
  5
34
330
33
100
AcDbEntity
 67
     1
  8
0
100
AcDbBlockBegin
  2
*Paper_Space
 70
     0
 10
0.0
 20
0.0
 30
0.0
  3
*Paper_Space
  1
*Paper_Space
  0
ENDBLK
  5
35
330
33
100
AcDbEntity
 67
     1
  8
0
100
AcDbBlockEnd
  0
BLOCK
  5
3C
330
3B
100
AcDbEntity
  8
0
100
AcDbBlockBegin
  2
*Paper_Space0
 70
     0
 10
0.0
 20
0.0
 30
0.0
  3
*Paper_Space0
  1
*Paper_Space0
  0
ENDBLK
  5
3D
330
3B
100
AcDbEntity
  8
0
100
AcDbBlockEnd
  0
BLOCK
  5
588F9
330
588F8
100
AcDbEntity
  8
0
100
AcDbBlockBegin
  2
*D1
 70
     1
 10
0.0
 20
0.0
 30
0.0
  3
*D1
  1
*D1
  0
LINE
  5
66881
330
588F8
100
AcDbEntity
  8
DIM
 62
     0
370
    -2
100
AcDbLine
 10
5443.582372892261
 20
-1844.53591554731
 30
0.0
 11
5450.099185250092
 21
-1844.53591554731
 31
0.0
  0
LINE
  5
66882
330
588F8
100
AcDbEntity
  8
DIM
 62
     0
370
    -2
100
AcDbLine
 10
5443.582371532472
 20
-1854.5359169007
 30
0.0
 11
5450.099185250092
 21
-1854.5359169007
 31
0.0
  0
LINE
  5
66883
330
588F8
100
AcDbEntity
  8
DIM
 62
     5
100
AcDbLine
 10
5448.849185250092
 20
-1846.53591554731
 30
0.0
 11
5448.849185250092
 21
-1852.5359169007
 31
0.0
  0
SOLID
  5
66884
330
588F8
100
AcDbEntity
  8
DIM
 62
     5
100
AcDbTrace
 10
5448.515851916759
 20
-1846.53591554731
 30
0.0
 11
5449.182518583425
 21
-1846.53591554731
 31
0.0
 12
5448.849185250092
 22
-1844.53591554731
 32
0.0
 13
5448.849185250092
 23
-1844.53591554731
 33
0.0
  0
SOLID
  5
66885
330
588F8
100
AcDbEntity
  8
DIM
 62
     5
100
AcDbTrace
 10
5448.515851916759
 20
-1852.5359169007
 30
0.0
 11
5449.182518583425
 21
-1852.5359169007
 31
0.0
 12
5448.849185250092
 22
-1854.5359169007
 32
0.0
 13
5448.849185250092
 23
-1854.5359169007
 33
0.0
  0
MTEXT
  5
66886
330
588F8
100
AcDbEntity
  8
DIM
 62
     2
100
AcDbMText
 10
5447.224185250092
 20
-1849.518445204519
 30
0.0
 40
2.0
 41
0.0
 46
0.0
 71
     5
 72
     1
  1
\A1;%%C10h6
 11
1.000000000000000E-16
 21
1.0
 31
0.0
 73
     1
 44
1.0
  0
POINT
  5
66887
330
588F8
100
AcDbEntity
  8
DEFPOINTS
 62
     0
100
AcDbPoint
 10
5442.95737289226
 20
-1844.53591554731
 30
0.0
  0
POINT
  5
66888
330
588F8
100
AcDbEntity
  8
DEFPOINTS
 62
     0
100
AcDbPoint
 10
5442.957371532472
 20
-1854.5359169007
 30
0.0
  0
POINT
  5
66889
330
588F8
100
AcDbEntity
  8
DEFPOINTS
 62
     0
100
AcDbPoint
 10
5448.849185250092
 20
-1854.5359169007
 30
0.0
  0
ENDBLK
  5
588FA
330
588F8
100
AcDbEntity
  8
0
100
AcDbBlockEnd
  0
BLOCK
  5
58AF3
330
58AF2
100
AcDbEntity
  8
0
100
AcDbBlockBegin
  2
*D2
 70
     1
 10
0.0
 20
0.0
 30
0.0
  3
*D2
  1
*D2
  0
LINE
  5
6688A
330
58AF2
100
AcDbEntity
  8
DIM
 62
     0
370
    -2
100
AcDbLine
 10
5355.537235008828
 20
-1844.539321751062
 30
0.0
 11
5346.600536124359
 21
-1844.539321751062
 31
0.0
  0
LINE
  5
6688B
330
58AF2
100
AcDbEntity
  8
DIM
 62
     0
370
    -2
100
AcDbLine
 10
5355.501655021284
 20
-1854.541246535875
 30
0.0
 11
5346.600536124359
 21
-1854.541246535875
 31
0.0
  0
LINE
  5
6688C
330
58AF2
100
AcDbEntity
  8
DIM
 62
     5
100
AcDbLine
 10
5347.850536124359
 20
-1846.539321751062
 30
0.0
 11
5347.850536124359
 21
-1852.541246535875
 31
0.0
  0
SOLID
  5
6688D
330
58AF2
100
AcDbEntity
  8
DIM
 62
     5
100
AcDbTrace
 10
5347.517202791026
 20
-1846.539321751062
 30
0.0
 11
5348.183869457692
 21
-1846.539321751062
 31
0.0
 12
5347.850536124359
 22
-1844.539321751062
 32
0.0
 13
5347.850536124359
 23
-1844.539321751062
 33
0.0
  0
SOLID
  5
6688E
330
58AF2
100
AcDbEntity
  8
DIM
 62
     5
100
AcDbTrace
 10
5347.517202791026
 20
-1852.541246535875
 30
0.0
 11
5348.183869457692
 21
-1852.541246535875
 31
0.0
 12
5347.850536124359
 22
-1854.541246535875
 32
0.0
 13
5347.850536124359
 23
-1854.541246535875
 33
0.0
  0
MTEXT
  5
6688F
330
58AF2
100
AcDbEntity
  8
DIM
 62
     2
100
AcDbMText
 10
5346.225536124359
 20
-1849.540284143468
 30
0.0
 40
2.0
 41
0.0
 46
0.0
 71
     5
 72
     1
  1
\A1;%%C10.0m7
 11
1.000000000000000E-16
 21
1.0
 31
0.0
 73
     1
 44
1.0
  0
POINT
  5
66890
330
58AF2
100
AcDbEntity
  8
DEFPOINTS
 62
     0
100
AcDbPoint
 10
5356.162235008828
 20
-1844.539321751062
 30
0.0
  0
POINT
  5
66891
330
58AF2
100
AcDbEntity
  8
DEFPOINTS
 62
     0
100
AcDbPoint
 10
5356.126655021284
 20
-1854.541246535875
 30
0.0
  0
POINT
  5
66892
330
58AF2
100
AcDbEntity
  8
DEFPOINTS
 62
     0
100
AcDbPoint
 10
5347.850536124359
 20
-1854.541246535875
 30
0.0
  0
ENDBLK
  5
58AF4
330
58AF2
100
AcDbEntity
  8
0
100
AcDbBlockEnd
  0
BLOCK
  5
58C19
330
58C18
100
AcDbEntity
  8
0
100
AcDbBlockBegin
  2
*D3
 70
     1
 10
0.0
 20
0.0
 30
0.0
  3
*D3
  1
*D3
  0
LINE
  5
63AD7
330
58C18
100
AcDbEntity
  8
DIM
 62
     0
370
    -2
100
AcDbLine
 10
5354.082182017642
 20
-1848.941945762887
 30
0.0
 11
5349.467316396635
 21
-1836.454238119259
 31
0.0
  0
LINE
  5
63AD8
330
58C18
100
AcDbEntity
  8
DIM
 62
     0
370
    -2
100
AcDbLine
 10
5354.081464213102
 20
-1850.114177906185
 30
0.0
 11
5349.451308614721
 21
-1862.596224454225
 31
0.0
  0
ARC
  5
63AD9
330
58C18
100
AcDbEntity
  8
DIM
 62
     0
370
    -2
100
AcDbCircle
 10
5354.29883188037
 20
-1849.528194717666
 30
0.0
 40
12.68814489114612
100
AcDbArc
 50
123.8607642230208
 51
236.0690667992586
  0
SOLID
  5
63ADA
330
58C18
100
AcDbEntity
  8
DIM
 62
     0
100
AcDbTrace
 10
5347.001744742311
 20
-1838.54681467953
 30
0.0
 11
5347.456844379284
 21
-1839.43725519996
 31
0.0
 12
5349.90061612209
 22
-1837.626736028819
 32
0.0
 13
5349.90061612209
 23
-1837.626736028819
 33
0.0
  0
SOLID
  5
63ADB
330
58C18
100
AcDbEntity
  8
DIM
 62
     0
100
AcDbTrace
 10
5347.444491344597
 20
-1859.61074742691
 30
0.0
 11
5346.988301544758
 21
-1860.500629928437
 31
0.0
 12
5349.886043949258
 22
-1861.424258077188
 32
0.0
 13
5349.886043949258
 23
-1861.424258077188
 33
0.0
  0
MTEXT
  5
63ADC
330
58C18
100
AcDbEntity
  8
DIM
 62
     2
100
AcDbMText
 10
5339.985689672652
 20
-1849.519430209255
 30
0.0
 40
2.0
 41
0.0
 46
0.0
 71
     5
 72
     1
  1
140°
 11
0.000612339809214
 21
0.9999998125199615
 31
0.0
 73
     1
 44
1.0
  0
POINT
  5
63ADD
330
58C18
100
AcDbEntity
  8
DEFPOINTS
 62
     0
100
AcDbPoint
 10
5342.642190512168
 20
-1844.517033894877
 30
0.0
  0
POINT
  5
63ADE
330
58C18
100
AcDbEntity
  8
DEFPOINTS
 62
     0
100
AcDbPoint
 10
5354.858559620029
 20
-1848.01927184192
 30
0.0
  0
POINT
  5
63ADF
330
58C18
100
AcDbEntity
  8
DEFPOINTS
 62
     0
100
AcDbPoint
 10
5354.822124077557
 20
-1850.944209940498
 30
0.0
  0
POINT
  5
63AE0
330
58C18
100
AcDbEntity
  8
DEFPOINTS
 62
     0
100
AcDbPoint
 10
5355.535452717916
 20
-1852.874458889477
 30
0.0
  0
POINT
  5
63AE1
330
58C18
100
AcDbEntity
  8
DEFPOINTS
 62
     0
100
AcDbPoint
 10
5355.529944328079
 20
-1846.209342348307
 30
0.0
  0
ENDBLK
  5
58C1A
330
58C18
100
AcDbEntity
  8
0
100
AcDbBlockEnd
  0
BLOCK
  5
58E2D
330
58E2C
100
AcDbEntity
  8
0
100
AcDbBlockBegin
  2
D6.1-D7.9
 70
     0
 10
0.0
 20
0.0
 30
0.0
  3
D6.1-D7.9
  1
D6.1-D7.9
  0
LINE
  5
58E2F
330
58E2C
100
AcDbEntity
  8
L1
  6
Continuous
 62
     4
370
    15
100
AcDbLine
 10
-5332.486556053517
 20
1812.642095906195
 30
0.0
 11
-5337.987116136565
 21
1812.637474603867
 31
0.0
  0
LINE
  5
58E30
330
58E2C
100
AcDbEntity
  8
L1
  6
Continuous
 62
     4
370
    15
100
AcDbLine
 10
-5337.78781093962
 20
1806.275443947313
 30
0.0
 11
-5332.373515060822
 21
1806.264930247681
 31
0.0
  0
LINE
  5
58E31
330
58E2C
100
AcDbEntity
  8
L1
100
AcDbLine
 10
-5349.025434511701
 20
1809.451322651916
 30
0.0
 11
-5348.663817205442
 21
1808.043177789206
 31
0.0
  0
LINE
  5
58E32
330
58E2C
100
AcDbEntity
  8
L1
100
AcDbLine
 10
-5348.663817205442
 20
1808.043177789206
 30
0.0
 11
-5347.950488565083
 21
1806.112928840228
 31
0.0
  0
LINE
  5
58E33
330
58E2C
100
AcDbEntity
  8
L1
100
AcDbLine
 10
-5347.950488565083
 20
1806.112928840228
 30
0.0
 11
-5347.845595033653
 21
1806.050070189455
 31
0.0
  0
LINE
  5
58E34
330
58E2C
100
AcDbEntity
  8
L1
100
AcDbLine
 10
-5349.0254345117
 20
1809.451322651918
 30
0.0
 11
-5348.627381662969
 21
1810.968115887784
 31
0.0
  0
LINE
  5
58E35
330
58E2C
100
AcDbEntity
  8
L1
100
AcDbLine
 10
-5348.627381662969
 20
1810.968115887784
 30
0.0
 11
-5347.955996954919
 21
1812.778045381397
 31
0.0
  0
LINE
  5
58E36
330
58E2C
100
AcDbEntity
  8
L1
100
AcDbLine
 10
-5347.955996954919
 20
1812.778045381397
 30
0.0
 11
-5347.846575827614
 21
1812.847342127376
 31
0.0
  0
LINE
  5
58E37
330
58E2C
100
AcDbEntity
  8
L1
100
AcDbLine
 10
-5347.846575827614
 20
1812.847342127376
 30
0.0
 11
-5347.693287146943
 21
1812.794971083289
 31
0.0
  0
LINE
  5
58E38
330
58E2C
100
AcDbEntity
  8
L1
100
AcDbLine
 10
-5347.693287146943
 20
1812.794971083289
 30
0.0
 11
-5347.751004939072
 21
1812.592692036696
 31
0.0
  0
LINE
  5
58E39
330
58E2C
100
AcDbEntity
  8
L1
100
AcDbLine
 10
-5347.751004939072
 20
1812.592692036696
 30
0.0
 11
-5347.845048336661
 21
1812.618211102204
 31
0.0
  0
LINE
  5
58E3A
330
58E2C
100
AcDbEntity
  8
L1
100
AcDbLine
 10
-5347.845048336661
 20
1812.618211102204
 30
0.0
 11
-5347.952492257909
 21
1812.775707527938
 31
0.0
  0
LINE
  5
58E3B
330
58E2C
100
AcDbEntity
  8
L1
100
AcDbLine
 10
-5347.845290536078
 20
1812.61827746444
 30
0.0
 11
-5349.0254345117
 21
1809.451322651918
 31
0.0
  0
LINE
  5
58E3C
330
58E2C
100
AcDbEntity
  8
L1
100
AcDbLine
 10
-5347.551140584959
 20
1808.538571816003
 30
0.0
 11
-5349.025434511701
 21
1809.451322651915
 31
0.0
  0
LINE
  5
58E3D
330
58E2C
100
AcDbEntity
  8
L1
100
AcDbLine
 10
-5347.464895384837
 20
1810.640688754278
 30
0.0
 11
-5349.025434511704
 21
1809.451322651918
 31
0.0
  0
SPLINE
  5
58E3E
330
58E2C
100
AcDbEntity
  8
L1
100
AcDbSpline
210
0.0
220
0.0
230
1.0
 70
  1064
 71
     3
 72
    11
 73
     7
 74
     5
 42
0.000000001
 43
0.0000000001
 44
0.0000000001
 40
0.0
 40
0.0
 40
0.0
 40
0.0
 40
0.4655444965206488
 40
1.097730083477339
 40
1.438009305065888
 40
2.003633821158066
 40
2.003633821158066
 40
2.003633821158066
 40
2.003633821158066
 10
-5347.751004939073
 20
1812.592692036696
 30
0.0
 10
-5347.685325171158
 20
1812.451789738145
 30
0.0
 10
-5347.530455641709
 20
1812.1195493334
 30
0.0
 10
-5347.43492681805
 20
1811.643095791606
 30
0.0
 10
-5347.423052910375
 20
1811.130004339855
 30
0.0
 10
-5347.448803435933
 20
1810.828848058693
 30
0.0
 10
-5347.464881445054
 20
1810.640813316462
 30
0.0
 11
-5347.751004939073
 21
1812.592692036696
 31
0.0
 11
-5347.568704311239
 21
1812.16432518535
 31
0.0
 11
-5347.439664006294
 21
1811.545449417481
 31
0.0
 11
-5347.429412520834
 21
1811.205324652592
 31
0.0
 11
-5347.464881445054
 21
1810.640813316462
 31
0.0
  0
SPLINE
  5
58E3F
330
58E2C
100
AcDbEntity
  8
L1
100
AcDbSpline
210
0.0
220
0.0
230
1.0
 70
  1064
 71
     3
 72
    36
 73
    32
 74
    30
 42
0.000000001
 43
0.0000000001
 44
0.0000000001
 40
0.0
 40
0.0
 40
0.0
 40
0.0
 40
0.0696508959759657
 40
0.1428791045941924
 40
0.195546973020251
 40
0.5116475925440974
 40
0.894946111043847
 40
1.211862086846454
 40
1.277329224403825
 40
1.346874160210618
 40
1.493257241990465
 40
1.606256089072365
 40
1.698513968311909
 40
1.768519254041176
 40
1.943100811250942
 40
2.189719331656508
 40
2.541710254784789
 40
2.865724718132134
 40
3.118549773914904
 40
3.48938243100012
 40
3.73828764208615
 40
4.051880229789099
 40
4.297159475045362
 40
4.373515774090905
 40
4.466726691222953
 40
4.860638652108026
 40
5.402155806546053
 40
6.084832726635722
 40
6.492744379430831
 40
7.321941446581922
 40
8.008434716614982
 40
8.008434716614982
 40
8.008434716614982
 40
8.008434716614982
 10
-5348.57884104947
 20
1807.813234497334
 30
0.0
 10
-5348.576260059286
 20
1807.836440104222
 30
0.0
 10
-5348.570965517686
 20
1807.88404317217
 30
0.0
 10
-5348.542957628844
 20
1807.944030020318
 30
0.0
 10
-5348.455628166785
 20
1808.064157568425
 30
0.0
 10
-5348.203617223762
 20
1808.151027077348
 30
0.0
 10
-5347.936504642951
 20
1808.35516776309
 30
0.0
 10
-5347.630063414009
 20
1808.331630823059
 30
0.0
 10
-5347.548215158139
 20
1808.469266019851
 30
0.0
 10
-5347.551575459582
 20
1808.564844805995
 30
0.0
 10
-5347.56259177924
 20
1808.674011318826
 30
0.0
 10
-5347.519478907419
 20
1808.790134627623
 30
0.0
 10
-5347.438642131794
 20
1808.844882379376
 30
0.0
 10
-5347.325932332979
 20
1808.856130060255
 30
0.0
 10
-5347.161349359951
 20
1808.861338765549
 30
0.0
 10
-5346.911339371165
 20
1808.781742986536
 30
0.0
 10
-5346.64173679635
 20
1808.634623800005
 30
0.0
 10
-5346.338570465326
 20
1808.551826580555
 30
0.0
 10
-5346.082742856664
 20
1808.359983056406
 30
0.0
 10
-5345.800082246108
 20
1808.272632419312
 30
0.0
 10
-5345.506829761753
 20
1808.184854779965
 30
0.0
 10
-5345.226256716836
 20
1808.124669240829
 30
0.0
 10
-5345.054171453563
 20
1808.121113576858
 30
0.0
 10
-5344.859587282484
 20
1808.104903375052
 30
0.0
 10
-5345.049299109322
 20
1808.311664754644
 30
0.0
 10
-5345.169746441436
 20
1808.546154412781
 30
0.0
 10
-5345.493550491301
 20
1809.028910796164
 30
0.0
 10
-5345.875682052323
 20
1809.402194895933
 30
0.0
 10
-5346.360035102856
 20
1809.823589578385
 30
0.0
 10
-5346.854976509823
 20
1810.231281375869
 30
0.0
 10
-5347.274763553145
 20
1810.513062970007
 30
0.0
 10
-5347.464895384837
 20
1810.640688754278
 30
0.0
 11
-5348.57884104947
 21
1807.813234497334
 31
0.0
 11
-5348.567493154811
 21
1807.881954746148
 31
0.0
 11
-5348.537697797064
 21
1807.948847250916
 31
0.0
 11
-5348.506642690718
 21
1807.991385289592
 31
0.0
 11
-5348.236458989054
 21
1808.155459568559
 31
0.0
 11
-5347.890229581171
 21
1808.319906980826
 31
0.0
 11
-5347.58697966577
 21
1808.411967963484
 31
0.0
 11
-5347.555082058708
 21
1808.469138661955
 31
0.0
 11
-5347.551140584959
 21
1808.538571816003
 31
0.0
 11
-5347.550814428343
 21
1808.684954534427
 31
0.0
 11
-5347.50629411944
 21
1808.788813484629
 31
0.0
 11
-5347.429960050596
 21
1808.840626863359
 31
0.0
 11
-5347.360914923735
 21
1808.852181537171
 31
0.0
 11
-5347.186333456053
 21
1808.852358341146
 31
0.0
 11
-5346.948574819577
 21
1808.786848606084
 31
0.0
 11
-5346.627296704521
 21
1808.643050195972
 31
0.0
 11
-5346.325607058076
 21
1808.524860815374
 31
0.0
 11
-5346.109065927888
 21
1808.394360057642
 31
0.0
 11
-5345.762746610654
 21
1808.26177125694
 31
0.0
 11
-5345.523504520585
 21
1808.193090645081
 31
0.0
 11
-5345.215978735494
 21
1808.1317049581
 31
0.0
 11
-5344.97134614086
 21
1808.113906031274
 31
0.0
 11
-5344.895196649368
 21
1808.119522021783
 31
0.0
 11
-5344.944142757299
 21
1808.198847639278
 31
0.0
 11
-5345.16623381616
 21
1808.524181613069
 31
0.0
 11
-5345.473451922813
 21
1808.970116432852
 31
0.0
 11
-5345.94777494478
 21
1809.461100595586
 31
0.0
 11
-5346.254419766051
 21
1809.730100354087
 31
0.0
 11
-5346.900613286776
 21
1810.24971724175
 31
0.0
 11
-5347.464895384837
 21
1810.640688754278
 31
0.0
  0
SPLINE
  5
58E40
330
58E2C
100
AcDbEntity
  8
L1
100
AcDbSpline
210
0.0
220
0.0
230
1.0
 70
  1064
 71
     3
 72
    18
 73
    14
 74
    12
 42
0.000000001
 43
0.0000000001
 44
0.0000000001
 40
0.0
 40
0.0
 40
0.0
 40
0.0
 40
0.8101759034093658
 40
1.059595289584383
 40
1.428552474045612
 40
1.703645636162857
 40
2.066583212782037
 40
2.71083795164221
 40
3.368765666701933
 40
3.934065688464091
 40
4.40732412916929
 40
4.84783431249606
 40
5.139070723982873
 40
5.139070723982873
 40
5.139070723982873
 40
5.139070723982873
 10
-5347.845595033653
 20
1806.050070189455
 30
0.0
 10
-5347.575303279029
 20
1806.053349938519
 30
0.0
 10
-5347.221799961035
 20
1806.057639385594
 30
0.0
 10
-5346.747990060781
 20
1806.106913409253
 30
0.0
 10
-5346.452729106101
 20
1806.145922479079
 30
0.0
 10
-5346.120669950204
 20
1806.195150600469
 30
0.0
 10
-5345.699999007154
 20
1806.271404405774
 30
0.0
 10
-5345.158684293805
 20
1806.395087176725
 30
0.0
 10
-5344.558272630306
 20
1806.560511796968
 30
0.0
 10
-5344.022504869242
 20
1806.742375456156
 30
0.0
 10
-5343.558617397119
 20
1806.908106838118
 30
0.0
 10
-5343.181463696663
 20
1807.049871744912
 30
0.0
 10
-5342.96914491786
 20
1807.170512914996
 30
0.0
 10
-5342.884641676345
 20
1807.218528309536
 30
0.0
 11
-5347.845595033653
 21
1806.050070189455
 31
0.0
 11
-5347.035927572264
 21
1806.078768559325
 31
0.0
 11
-5346.787758626952
 21
1806.103712592336
 31
0.0
 11
-5346.421860494626
 21
1806.151125256529
 31
0.0
 11
-5346.149837693292
 21
1806.1921111492
 31
0.0
 11
-5345.792677679074
 21
1806.256612379929
 31
0.0
 11
-5345.164270965441
 21
1806.398630585821
 31
0.0
 11
-5344.530508520467
 21
1806.575305546087
 31
0.0
 11
-5343.994106569304
 21
1806.753734975813
 31
0.0
 11
-5343.548504629149
 21
1806.913147844267
 31
0.0
 11
-5343.140798368468
 21
1807.079955597732
 31
0.0
 11
-5342.884641676345
 21
1807.218528309536
 31
0.0
  0
SPLINE
  5
58E41
330
58E2C
100
AcDbEntity
  8
L1
100
AcDbSpline
210
0.0
220
0.0
230
1.0
 70
  1064
 71
     3
 72
    39
 73
    35
 74
    33
 42
0.000000001
 43
0.0000000001
 44
0.0000000001
 40
0.0
 40
0.0
 40
0.0
 40
0.0
 40
0.5207943191569824
 40
0.878018687074106
 40
1.571432980979467
 40
2.205197941477909
 40
3.079997524894519
 40
4.31675568603483
 40
5.351681862949377
 40
6.732018178324597
 40
7.633431875928049
 40
10.20546963312947
 40
12.34714938690237
 40
14.45930356155005
 40
16.28530531885944
 40
16.94671089810909
 40
17.46349707016713
 40
17.95782100970183
 40
18.59724880768532
 40
19.24100672977087
 40
19.68553560505405
 40
20.21730115434481
 40
20.48796958115591
 40
20.76125687307631
 40
21.25638322734586
 40
21.89963787579887
 40
22.40299290224217
 40
23.03326658945588
 40
23.52321221174231
 40
23.98297600261312
 40
24.2939578046694
 40
24.82228085433209
 40
25.03873072057656
 40
25.12085560366371
 40
25.12085560366371
 40
25.12085560366371
 40
25.12085560366371
 10
-5347.846575827614
 20
1812.847342127376
 30
0.0
 10
-5347.67281567765
 20
1812.850448487854
 30
0.0
 10
-5347.379869589098
 20
1812.855685569842
 30
0.0
 10
-5346.858072312407
 20
1812.805110231142
 30
0.0
 10
-5346.299563733905
 20
1812.746681399547
 30
0.0
 10
-5345.576595119654
 20
1812.616510104087
 30
0.0
 10
-5344.687382744242
 20
1812.397170245411
 30
0.0
 10
-5343.693222368609
 20
1812.058227594867
 30
0.0
 10
-5342.569280638326
 20
1811.589615588628
 30
0.0
 10
-5341.571623276534
 20
1811.111762155393
 30
0.0
 10
-5340.142900127717
 20
1810.352136215936
 30
0.0
 10
-5338.524901452971
 20
1809.41058239957
 30
0.0
 10
-5336.550756698307
 20
1808.279149458585
 30
0.0
 10
-5334.746990185475
 20
1807.352510637713
 30
0.0
 10
-5333.321905651375
 20
1806.776461070664
 30
0.0
 10
-5332.362359261061
 20
1806.489535088319
 30
0.0
 10
-5331.824941207923
 20
1806.340185461601
 30
0.0
 10
-5331.284830950548
 20
1806.233564155082
 30
0.0
 10
-5330.700278959375
 20
1806.137152898176
 30
0.0
 10
-5330.127517938902
 20
1806.070303549873
 30
0.0
 10
-5329.587586067524
 20
1806.053736446279
 30
0.0
 10
-5329.171753362447
 20
1806.047942815236
 30
0.0
 10
-5328.813555721736
 20
1806.065926334939
 30
0.0
 10
-5328.46782237148
 20
1806.08740630747
 30
0.0
 10
-5327.999904245296
 20
1806.137455590503
 30
0.0
 10
-5327.457142694067
 20
1806.21332297336
 30
0.0
 10
-5326.881042941323
 20
1806.350120196633
 30
0.0
 10
-5326.34267570333
 20
1806.430070008599
 30
0.0
 10
-5325.853371607021
 20
1806.630783939281
 30
0.0
 10
-5325.455741701244
 20
1806.76566065101
 30
0.0
 10
-5325.046903365162
 20
1806.909031527895
 30
0.0
 10
-5324.724872410125
 20
1807.051564789276
 30
0.0
 10
-5324.470202933425
 20
1807.156952929598
 30
0.0
 10
-5324.378458240892
 20
1807.195531200771
 30
0.0
 10
-5324.353223279913
 20
1807.20614239953
 30
0.0
 11
-5347.846575827614
 21
1812.847342127376
 31
0.0
 11
-5347.325787343993
 21
1812.844876728009
 31
0.0
 11
-5346.969762554444
 21
1812.815626116731
 31
0.0
 11
-5346.280962743772
 21
1812.7357624591
 31
0.0
 11
-5345.656911649717
 21
1812.625226233526
 31
0.0
 11
-5344.807499685301
 21
1812.416004757923
 31
0.0
 11
-5343.634973121959
 21
1812.022619187008
 31
0.0
 11
-5342.678669492618
 21
1811.626948161822
 31
0.0
 11
-5341.432947573697
 21
1811.032385091775
 31
0.0
 11
-5340.63610295297
 21
1810.610976377288
 31
0.0
 11
-5338.399398843823
 21
1809.341120892362
 31
0.0
 11
-5336.534168043151
 21
1808.288644656077
 31
0.0
 11
-5334.647197523027
 21
1807.339678105737
 31
0.0
 11
-5332.948247543029
 21
1806.670461113155
 31
0.0
 11
-5332.315454282799
 21
1806.47802922892
 31
0.0
 11
-5331.816162624373
 21
1806.3447033595
 31
0.0
 11
-5331.331962989303
 21
1806.245170095736
 31
0.0
 11
-5330.700857439054
 21
1806.142341630423
 31
0.0
 11
-5330.060797967924
 21
1806.073434913295
 31
0.0
 11
-5329.616620697989
 21
1806.055757983893
 31
0.0
 11
-5329.084857263578
 21
1806.054258238609
 31
0.0
 11
-5328.814461984649
 21
1806.066415146332
 31
0.0
 11
-5328.541757737736
 21
1806.084257165295
 31
0.0
 11
-5328.049189262999
 21
1806.134520515638
 31
0.0
 11
-5327.413194992556
 21
1806.230893907817
 31
0.0
 11
-5326.920544185652
 21
1806.334148278682
 31
0.0
 11
-5326.303911373263
 21
1806.46456643493
 31
0.0
 11
-5325.842579641356
 21
1806.629550512747
 31
0.0
 11
-5325.409004102969
 21
1806.782504740897
 31
0.0
 11
-5325.116421022428
 21
1806.887884161046
 31
0.0
 11
-5324.628635106533
 21
1807.090837714992
 31
0.0
 11
-5324.428944118523
 21
1807.174348516119
 31
0.0
 11
-5324.353223279913
 21
1807.20614239953
 31
0.0
  0
SPLINE
  5
58E42
330
58E2C
100
AcDbEntity
  8
L1
100
AcDbSpline
210
0.0
220
0.0
230
1.0
 70
  1064
 71
     3
 72
    39
 73
    35
 74
    33
 42
0.000000001
 43
0.0000000001
 44
0.0000000001
 40
0.0
 40
0.0
 40
0.0
 40
0.0
 40
0.3222654791055219
 40
0.6360939165391839
 40
1.016981678447258
 40
1.713755597663932
 40
2.068300592288459
 40
2.355908766858113
 40
2.837870429678695
 40
3.26131514226161
 40
4.231792086778179
 40
4.815997187060002
 40
5.610308186401106
 40
6.075706281450801
 40
7.125613522982139
 40
7.656348301137752
 40
8.561023257950254
 40
9.80356109637972
 40
10.8230740842456
 40
11.8180512070947
 40
12.64875685758354
 40
14.42651194365477
 40
14.92083551572336
 40
15.6963952835854
 40
16.37709182574973
 40
16.83433298729362
 40
17.29159216350824
 40
17.65909100723366
 40
18.21971861051161
 40
18.53563235281491
 40
18.83368106438929
 40
18.99098823902813
 40
19.34001078538012
 40
19.60206301354681
 40
19.60206301354681
 40
19.60206301354681
 40
19.60206301354681
 10
-5347.693287146943
 20
1812.794971083289
 30
0.0
 10
-5347.585989044193
 20
1812.787183177978
 30
0.0
 10
-5347.374201946783
 20
1812.771811257893
 30
0.0
 10
-5347.042768917308
 20
1812.697881968652
 30
0.0
 10
-5346.581540910433
 20
1812.640658164393
 30
0.0
 10
-5346.126008653366
 20
1812.490756918239
 30
0.0
 10
-5345.684998009616
 20
1812.413675002857
 30
0.0
 10
-5345.333717018422
 20
1812.28046328297
 30
0.0
 10
-5344.948316238495
 20
1812.180320009767
 30
0.0
 10
-5344.366291208927
 20
1811.949661330914
 30
0.0
 10
-5343.758486001578
 20
1811.695206263407
 30
0.0
 10
-5343.036131790035
 20
1811.391742977679
 30
0.0
 10
-5342.493666092837
 20
1811.101443523024
 30
0.0
 10
-5341.81606385641
 20
1810.736265193351
 30
0.0
 10
-5341.222523645761
 20
1810.39991903943
 30
0.0
 10
-5340.481366720284
 20
1810.029031999186
 30
0.0
 10
-5339.717732482885
 20
1809.56553320186
 30
0.0
 10
-5338.793084958116
 20
1809.056271241768
 30
0.0
 10
-5337.859471625175
 20
1808.502068044699
 30
0.0
 10
-5337.028576980955
 20
1808.043868394838
 30
0.0
 10
-5335.94658235827
 20
1807.52199931124
 30
0.0
 10
-5335.007089782997
 20
1807.087960894518
 30
0.0
 10
-5334.060124861099
 20
1806.719070276142
 30
0.0
 10
-5333.438598717812
 20
1806.526540828394
 30
0.0
 10
-5332.822794916914
 20
1806.359462719864
 30
0.0
 10
-5332.302682123937
 20
1806.248492736186
 30
0.0
 10
-5331.882149145245
 20
1806.171126931892
 30
0.0
 10
-5331.423256294613
 20
1806.118493524442
 30
0.0
 10
-5331.010971431569
 20
1806.072796319393
 30
0.0
 10
-5330.619697015391
 20
1806.053960047609
 30
0.0
 10
-5330.362578767243
 20
1806.053413631491
 30
0.0
 10
-5330.094457271673
 20
1806.053471929774
 30
0.0
 10
-5329.838327884243
 20
1806.053657103451
 30
0.0
 10
-5329.634637046909
 20
1806.053155148765
 30
0.0
 10
-5329.547286627605
 20
1806.052939891403
 30
0.0
 11
-5347.693287146943
 21
1812.794971083289
 31
0.0
 11
-5347.372544005153
 21
1812.763684088897
 31
0.0
 11
-5347.063834578086
 21
1812.707232536375
 31
0.0
 11
-5346.688049539073
 21
1812.645094853562
 31
0.0
 11
-5346.011933965457
 21
1812.47668575163
 31
0.0
 11
-5345.666254993156
 21
1812.39789361165
 31
0.0
 11
-5345.393317417174
 21
1812.307209866158
 31
0.0
 11
-5344.932691414383
 21
1812.165397560693
 31
0.0
 11
-5344.536403793676
 21
1812.016194523563
 31
0.0
 11
-5343.639645367048
 21
1811.645182631423
 31
0.0
 11
-5343.104041623537
 21
1811.411892620636
 31
0.0
 11
-5342.397307807043
 21
1811.049322246367
 31
0.0
 11
-5341.988019310967
 21
1810.82778598781
 31
0.0
 11
-5341.066251621113
 21
1810.325143429164
 31
0.0
 11
-5340.595443405144
 21
1810.080155616162
 31
0.0
 11
-5339.811472198097
 21
1809.628684771028
 31
0.0
 11
-5338.731610791031
 21
1809.014030704534
 31
0.0
 11
-5337.849658256416
 21
1808.502595020295
 31
0.0
 11
-5336.976139694471
 21
1808.026207786071
 31
0.0
 11
-5336.230282929802
 21
1807.66046256826
 31
0.0
 11
-5334.607447874213
 21
1806.934639223084
 31
0.0
 11
-5334.145987650551
 21
1806.757409835338
 31
0.0
 11
-5333.407056507649
 21
1806.52188123925
 31
0.0
 11
-5332.749160616128
 21
1806.347179268927
 31
0.0
 11
-5332.302235389279
 21
1806.25060121026
 31
0.0
 11
-5331.85189155314
 21
1806.171377580678
 31
0.0
 11
-5331.487203261406
 21
1806.126014048946
 31
0.0
 11
-5330.929258957683
 21
1806.071228434958
 31
0.0
 11
-5330.61370453985
 21
1806.056165169627
 31
0.0
 11
-5330.315668048098
 21
1806.053466270732
 31
0.0
 11
-5330.158360873459
 21
1806.053466270732
 31
0.0
 11
-5329.809338327107
 21
1806.053466270732
 31
0.0
 11
-5329.547286627605
 21
1806.052939891403
 31
0.0
  0
SPLINE
  5
58E43
330
58E2C
100
AcDbEntity
  8
L1
100
AcDbSpline
210
0.0
220
0.0
230
1.0
 70
     8
 71
     3
 72
    43
 73
    39
 74
     0
 42
0.000000001
 43
0.0000000001
 40
0.0
 40
0.0
 40
0.0
 40
0.0
 40
0.0072885241643812
 40
0.0369214010618597
 40
0.0577900546858436
 40
0.0914414960371423
 40
0.1369730996769079
 40
0.1716908114533642
 40
0.2851123804129458
 40
0.4279193309399252
 40
0.5980407906606492
 40
0.7316136176477448
 40
0.9729433675242168
 40
1.143096312221397
 40
1.264302861491922
 40
1.533672826688573
 40
1.698241025895343
 40
1.874717456165291
 40
2.052320320157683
 40
2.100229035618649
 40
2.218024616094358
 40
2.313842046929499
 40
2.379666871403428
 40
2.541270603744576
 40
2.62665887517771
 40
2.968788416452133
 40
3.204169095299851
 40
3.547142904149493
 40
3.858003529877866
 40
4.20116132544421
 40
4.512514168829697
 40
5.16047761366628
 40
5.480768668476617
 40
5.796066844354926
 40
6.115677774927021
 40
6.418862097792067
 40
7.041947118472825
 40
7.425714991202669
 40
7.425714991202669
 40
7.425714991202669
 40
7.425714991202669
 10
-5344.895196649368
 20
1808.119522021783
 30
0.0
 10
-5344.893398465767
 20
1808.1178744226
 30
0.0
 10
-5344.884289425795
 20
1808.109528196553
 30
0.0
 10
-5344.865483950976
 20
1808.103261667816
 30
0.0
 10
-5344.840875410431
 20
1808.089987987418
 30
0.0
 10
-5344.810883919323
 20
1808.075302830249
 30
0.0
 10
-5344.777019077764
 20
1808.058171324571
 30
0.0
 10
-5344.719315680949
 20
1808.029212547404
 30
0.0
 10
-5344.632443212812
 20
1807.986112152215
 30
0.0
 10
-5344.506635764422
 20
1807.919914039209
 30
0.0
 10
-5344.370811860507
 20
1807.858924715462
 30
0.0
 10
-5344.205630696635
 20
1807.783317539832
 30
0.0
 10
-5344.03968573773
 20
1807.709337407161
 30
0.0
 10
-5343.880290984763
 20
1807.630869025295
 30
0.0
 10
-5343.706879244713
 20
1807.560959442537
 30
0.0
 10
-5343.537246237548
 20
1807.487012715688
 30
0.0
 10
-5343.350030680513
 20
1807.407368853952
 30
0.0
 10
-5343.192248532671
 20
1807.336458250535
 30
0.0
 10
-5343.065405020499
 20
1807.292821199556
 30
0.0
 10
-5342.960102692293
 20
1807.247936042598
 30
0.0
 10
-5342.877059718336
 20
1807.220978561389
 30
0.0
 10
-5342.792130425583
 20
1807.182402573012
 30
0.0
 10
-5342.689909641205
 20
1807.148108304029
 30
0.0
 10
-5342.593749666025
 20
1807.107623874026
 30
0.0
 10
-5342.409570960548
 20
1807.039454541438
 30
0.0
 10
-5342.199961552464
 20
1806.969449617266
 30
0.0
 10
-5341.909226849558
 20
1806.87130569636
 30
0.0
 10
-5341.624360928816
 20
1806.789093329388
 30
0.0
 10
-5341.305582578087
 20
1806.695480700192
 30
0.0
 10
-5340.996783269032
 20
1806.603938757042
 30
0.0
 10
-5340.570608609944
 20
1806.519973497218
 30
0.0
 10
-5340.153844755592
 20
1806.427782393262
 30
0.0
 10
-5339.729568383969
 20
1806.371394291702
 30
0.0
 10
-5339.413921276011
 20
1806.329368603982
 30
0.0
 10
-5339.102267235144
 20
1806.30310533874
 30
0.0
 10
-5338.688339554359
 20
1806.268877784926
 30
0.0
 10
-5338.251304684646
 20
1806.278727558676
 30
0.0
 10
-5337.915650924599
 20
1806.270741195852
 30
0.0
 10
-5337.787810939623
 20
1806.275443947313
 30
0.0
  0
SPLINE
  5
58E44
330
58E2C
100
AcDbEntity
  8
L1
100
AcDbSpline
210
0.0
220
0.0
230
1.0
 70
     8
 71
     3
 72
    84
 73
    80
 74
     0
 42
0.000000001
 43
0.0000000001
 40
0.0
 40
0.0
 40
0.0
 40
0.0
 40
0.6282066007943135
 40
1.171117925198386
 40
1.350056333769983
 40
1.606501087452046
 40
1.939691144428394
 40
2.251488146982937
 40
2.584050311329095
 40
2.886428706913113
 40
3.219637318511272
 40
3.521361855507516
 40
3.854545876597258
 40
4.157730199462305
 40
4.483950855014936
 40
4.780861720183981
 40
5.111498636602276
 40
5.412110426116599
 40
5.743765135192615
 40
6.045348382480908
 40
6.375687440392042
 40
6.677205601167136
 40
7.014122212882784
 40
7.660622745874924
 40
7.993717072435213
 40
8.634517222022778
 40
8.974239336192058
 40
9.297005245916276
 40
9.645500098777424
 40
9.967390193830637
 40
10.43672255904135
 40
10.63323918476117
 40
11.03410560702773
 40
11.46668755270245
 40
11.7557237174852
 40
11.95874777471439
 40
12.4108067733255
 40
12.8017766064774
 40
13.13372746889003
 40
13.58554125116397
 40
13.86982452079974
 40
14.31682561042288
 40
14.64673441363319
 40
14.89323357708278
 40
16.23160223122259
 40
16.56285643110573
 40
16.71714052148117
 40
17.02976582279191
 40
17.19508604126859
 40
17.39323044150346
 40
17.72665572726217
 40
18.01225459243074
 40
18.19783817723577
 40
18.42120376916655
 40
18.59029074225491
 40
18.78688998711189
 40
19.00494995477164
 40
19.34567782028302
 40
19.47671793738828
 40
19.54845862553151
 40
19.6897763969515
 40
19.77839723364951
 40
19.8397771447326
 40
19.93061705737471
 40
20.00711337030179
 40
20.04514374104723
 40
21.14845895979621
 40
21.50305112989554
 40
21.82890529887262
 40
22.2379193280507
 40
22.72437072862401
 40
23.11882088592133
 40
23.51904731048484
 40
23.83070907991401
 40
24.44219823097806
 40
24.71937538463989
 40
24.93107914879253
 40
25.07379396068127
 40
25.19901580958763
 40
25.19901580958763
 40
25.19901580958763
 40
25.19901580958763
 10
-5342.827420211863
 20
1811.693846212035
 30
0.0
 10
-5342.633225009716
 20
1811.772608158091
 30
0.0
 10
-5342.271201621339
 20
1811.919438081136
 30
0.0
 10
-5341.838428242351
 20
1812.044453918053
 30
0.0
 10
-5341.525045167684
 20
1812.13463478365
 30
0.0
 10
-5341.284435249953
 20
1812.223946943723
 30
0.0
 10
-5340.989968012568
 20
1812.286523094105
 30
0.0
 10
-5340.675174389541
 20
1812.370965692251
 30
0.0
 10
-5340.364278738437
 20
1812.426394313984
 30
0.0
 10
-5340.047768494641
 20
1812.489456532227
 30
0.0
 10
-5339.738414217415
 20
1812.533953288539
 30
0.0
 10
-5339.418397790652
 20
1812.575856965858
 30
0.0
 10
-5339.10677528706
 20
1812.602293476694
 30
0.0
 10
-5338.787001745663
 20
1812.629472779801
 30
0.0
 10
-5338.478208786614
 20
1812.637766699945
 30
0.0
 10
-5338.16033365333
 20
1812.640578261181
 30
0.0
 10
-5337.850851298113
 20
1812.638510441999
 30
0.0
 10
-5337.530358506672
 20
1812.619888375175
 30
0.0
 10
-5337.219862196736
 20
1812.597303425732
 30
0.0
 10
-5336.900464434581
 20
1812.563306144734
 30
0.0
 10
-5336.591456026221
 20
1812.525840939044
 30
0.0
 10
-5336.273744394774
 20
1812.467640400119
 30
0.0
 10
-5335.851228722116
 20
1812.397121759332
 30
0.0
 10
-5335.423939112715
 20
1812.295181460763
 30
0.0
 10
-5334.902787876295
 20
1812.153211773807
 30
0.0
 10
-5334.485080475758
 20
1812.02168915805
 30
0.0
 10
-5334.070594157562
 20
1811.891179067789
 30
0.0
 10
-5333.755537071318
 20
1811.771399585178
 30
0.0
 10
-5333.443994082098
 20
1811.659117887943
 30
0.0
 10
-5333.095610995371
 20
1811.50736815293
 30
0.0
 10
-5332.787265217448
 20
1811.390999892091
 30
0.0
 10
-5332.46690755519
 20
1811.236414383352
 30
0.0
 10
-5332.149533972375
 20
1811.104989611754
 30
0.0
 10
-5331.814681582305
 20
1810.937765814603
 30
0.0
 10
-5331.534612387716
 20
1810.808881310642
 30
0.0
 10
-5331.257089628536
 20
1810.66028234735
 30
0.0
 10
-5330.938231313335
 20
1810.518138292299
 30
0.0
 10
-5330.599001582864
 20
1810.321576471008
 30
0.0
 10
-5330.24520832077
 20
1810.153216743783
 30
0.0
 10
-5329.93699850323
 20
1809.974463862506
 30
0.0
 10
-5329.583611671608
 20
1809.799133582071
 30
0.0
 10
-5329.277327980252
 20
1809.621817096673
 30
0.0
 10
-5328.973259337073
 20
1809.466945798104
 30
0.0
 10
-5328.420910084231
 20
1809.146754573627
 30
0.0
 10
-5327.827196003163
 20
1808.901702168954
 30
0.0
 10
-5327.314514126125
 20
1808.572634750294
 30
0.0
 10
-5327.074722501285
 20
1808.456961977907
 30
0.0
 10
-5326.891199332793
 20
1808.353086345798
 30
0.0
 10
-5326.687737720618
 20
1808.256049879523
 30
0.0
 10
-5326.47850779337
 20
1808.155142606588
 30
0.0
 10
-5326.238223099913
 20
1808.026505054211
 30
0.0
 10
-5325.993111333046
 20
1807.917404463962
 30
0.0
 10
-5325.781614527708
 20
1807.823152152556
 30
0.0
 10
-5325.611500132602
 20
1807.732163904421
 30
0.0
 10
-5325.429693604398
 20
1807.657657478226
 30
0.0
 10
-5325.251685766889
 20
1807.579127344786
 30
0.0
 10
-5325.021775891817
 20
1807.476406307468
 30
0.0
 10
-5324.809008536917
 20
1807.389106153038
 30
0.0
 10
-5324.64068113806
 20
1807.322119739012
 30
0.0
 10
-5324.534497512942
 20
1807.278740405139
 30
0.0
 10
-5324.441096586191
 20
1807.241508758115
 30
0.0
 10
-5324.351526710294
 20
1807.203894861904
 30
0.0
 10
-5324.275613675135
 20
1807.177706330759
 30
0.0
 10
-5324.204653483294
 20
1807.149770289474
 30
0.0
 10
-5324.139642563292
 20
1807.128268770378
 30
0.0
 10
-5323.757950070387
 20
1806.990060538413
 30
0.0
 10
-5323.286989449805
 20
1806.824174476438
 30
0.0
 10
-5322.712335485984
 20
1806.670921506452
 30
0.0
 10
-5322.359876926789
 20
1806.583691267072
 30
0.0
 10
-5321.962387524421
 20
1806.494039299985
 30
0.0
 10
-5321.535330341943
 20
1806.440772295312
 30
0.0
 10
-5321.117286249735
 20
1806.350658586369
 30
0.0
 10
-5320.749159226294
 20
1806.320224949113
 30
0.0
 10
-5320.309524692937
 20
1806.286561357161
 30
0.0
 10
-5319.909743683279
 20
1806.261994974223
 30
0.0
 10
-5319.542904484659
 20
1806.265695612987
 30
0.0
 10
-5319.33238312791
 20
1806.264857171338
 30
0.0
 10
-5319.172492099824
 20
1806.265785209399
 30
0.0
 10
-5319.083200068291
 20
1806.264043247241
 30
0.0
 10
-5319.04147170812
 20
1806.262986417672
 30
0.0
  0
SPLINE
  5
58E45
330
58E2C
100
AcDbEntity
  8
L1
100
AcDbSpline
210
0.0
220
0.0
230
1.0
 70
     8
 71
     3
 72
    28
 73
    24
 74
     0
 42
0.000000001
 43
0.0000000001
 40
0.0
 40
0.0
 40
0.0
 40
0.0
 40
0.3651491050298758
 40
0.5315686953180825
 40
0.9866137533371926
 40
1.30782940559875
 40
1.458622064050956
 40
1.738681392653548
 40
2.051140437218967
 40
2.388825598021815
 40
2.537360608044534
 40
3.040718898003343
 40
3.390261017436924
 40
4.960051470881444
 40
6.170940686567687
 40
7.286915829901244
 40
8.9945076879479
 40
10.79190055511602
 40
12.08894458204991
 40
13.11905440983064
 40
13.94257036760751
 40
14.27596278578971
 40
14.37464631754385
 40
14.37464631754385
 40
14.37464631754385
 40
14.37464631754385
 10
-5332.486556053517
 20
1812.642095906195
 30
0.0
 10
-5332.245402832693
 20
1812.664611693234
 30
0.0
 10
-5332.071231252082
 20
1812.697241449973
 30
0.0
 10
-5331.74677717626
 20
1812.750854037927
 30
0.0
 10
-5331.435429976425
 20
1812.795358911206
 30
0.0
 10
-5331.126983799951
 20
1812.815945625731
 30
0.0
 10
-5330.877311582502
 20
1812.838096387586
 30
0.0
 10
-5330.630013704792
 20
1812.856569806921
 30
0.0
 10
-5330.31979442418
 20
1812.851330944912
 30
0.0
 10
-5330.053561044035
 20
1812.854273484688
 30
0.0
 10
-5329.723856556687
 20
1812.843146978525
 30
0.0
 10
-5329.390532405934
 20
1812.821873656481
 30
0.0
 10
-5328.587981224622
 20
1812.731941060334
 30
0.0
 10
-5327.558239420377
 20
1812.541606502056
 30
0.0
 10
-5326.320553158886
 20
1812.140042808482
 30
0.0
 10
-5325.077887707172
 20
1811.625210625513
 30
0.0
 10
-5323.675999558118
 20
1810.983372418537
 30
0.0
 10
-5322.286276283929
 20
1810.186815478707
 30
0.0
 10
-5321.095517628362
 20
1809.499931350123
 30
0.0
 10
-5320.190175453203
 20
1808.967713514583
 30
0.0
 10
-5319.541145567171
 20
1808.633431615682
 30
0.0
 10
-5319.191099109172
 20
1808.403649431023
 30
0.0
 10
-5319.069338406007
 20
1808.326699331917
 30
0.0
 10
-5319.041471708118
 20
1808.309217786038
 30
0.0
  0
SPLINE
  5
58E46
330
58E2C
100
AcDbEntity
  8
L1
100
AcDbSpline
210
0.0
220
0.0
230
1.0
 70
     8
 71
     3
 72
    52
 73
    48
 74
     0
 42
0.000000001
 43
0.0000000001
 40
0.0
 40
0.0
 40
0.0
 40
0.0
 40
0.1371658962960435
 40
0.2062093636866662
 40
0.4452022018892833
 40
0.6301412103385028
 40
1.263984673697128
 40
1.803804445862968
 40
2.455606179044333
 40
3.011337703385843
 40
3.389223826089851
 40
3.87282840522804
 40
4.342405305623907
 40
4.81217098721413
 40
6.033733644708825
 40
8.176312299894356
 40
9.392906665916763
 40
10.65472481757963
 40
10.91109155753601
 40
11.28904601667946
 40
11.89343520582707
 40
12.27221166290638
 40
12.82592993893177
 40
13.2656378722915
 40
13.32334767259874
 40
13.35158352732511
 40
13.45735541361276
 40
13.62126080837569
 40
13.78164916318905
 40
13.97368789694784
 40
14.47878096995124
 40
14.91838180631739
 40
15.2309002532357
 40
15.59592116231369
 40
15.87162900489187
 40
16.13309418306255
 40
16.26452340358374
 40
16.54895927642003
 40
16.88735119721321
 40
17.13565832391937
 40
17.50586495761988
 40
17.85708686519932
 40
18.19289666572899
 40
18.57642628095663
 40
18.95252201353197
 40
19.32412067817975
 40
19.58480793044578
 40
19.58480793044578
 40
19.58480793044578
 40
19.58480793044578
 10
-5330.607539511726
 20
1812.852606343719
 30
0.0
 10
-5328.941517806004
 20
1812.849701953052
 30
0.0
 10
-5328.872877611757
 20
1812.845942855957
 30
0.0
 10
-5328.724389255838
 20
1812.845125126221
 30
0.0
 10
-5328.561273776244
 20
1812.821669264655
 30
0.0
 10
-5328.209615555387
 20
1812.796376894046
 30
0.0
 10
-5327.760809305608
 20
1812.732981966464
 30
0.0
 10
-5327.159873557175
 20
1812.635886731392
 30
0.0
 10
-5326.594493264696
 20
1812.493828826907
 30
0.0
 10
-5326.085112792117
 20
1812.352621560861
 30
0.0
 10
-5325.637406875731
 20
1812.201540203228
 30
0.0
 10
-5325.217938123458
 20
1812.056954891749
 30
0.0
 10
-5324.774907098262
 20
1811.887131391734
 30
0.0
 10
-5324.113162406534
 20
1811.602427000227
 30
0.0
 10
-5322.951470630194
 20
1811.069569732068
 30
0.0
 10
-5321.578722089324
 20
1810.400493464783
 30
0.0
 10
-5320.161030092407
 20
1809.796148446515
 30
0.0
 10
-5319.298530251142
 20
1809.498325259676
 30
0.0
 10
-5318.694303379889
 20
1809.313122823521
 30
0.0
 10
-5318.298080251579
 20
1809.196069166794
 30
0.0
 10
-5317.851951687599
 20
1809.110115052369
 30
0.0
 10
-5317.354931627081
 20
1808.987686410057
 30
0.0
 10
-5316.899529317094
 20
1808.918221740512
 30
0.0
 10
-5316.555610830985
 20
1808.892410102046
 30
0.0
 10
-5316.375871630128
 20
1808.881711965964
 30
0.0
 10
-5316.317599660577
 20
1808.910562632712
 30
0.0
 10
-5316.246523437929
 20
1808.980947028315
 30
0.0
 10
-5316.126709107812
 20
1809.061622062779
 30
0.0
 10
-5316.018942064571
 20
1809.197511738378
 30
0.0
 10
-5315.821649547274
 20
1809.404001950906
 30
0.0
 10
-5315.593762888737
 20
1809.708176480144
 30
0.0
 10
-5315.371383236935
 20
1810.065404827034
 30
0.0
 10
-5315.144709667844
 20
1810.360267267959
 30
0.0
 10
-5315.047354649674
 20
1810.693520114378
 30
0.0
 10
-5315.022291360852
 20
1811.043175629083
 30
0.0
 10
-5315.082679582804
 20
1811.249286579852
 30
0.0
 10
-5315.199805369005
 20
1811.475131232144
 30
0.0
 10
-5315.423515434073
 20
1811.764218800138
 30
0.0
 10
-5315.678049961815
 20
1811.894323373726
 30
0.0
 10
-5315.926147306683
 20
1812.09907652495
 30
0.0
 10
-5316.205592038025
 20
1812.261312658685
 30
0.0
 10
-5316.516540013994
 20
1812.431053030444
 30
0.0
 10
-5316.862335229631
 20
1812.524825591372
 30
0.0
 10
-5317.207409674733
 20
1812.644864339306
 30
0.0
 10
-5317.5828643648
 20
1812.7023725271
 30
0.0
 10
-5317.905554462649
 20
1812.774860745099
 30
0.0
 10
-5318.124486436838
 20
1812.806307677994
 30
0.0
 10
-5318.213026538971
 20
1812.81628149577
 30
0.0
  0
SPLINE
  5
58E47
330
58E2C
100
AcDbEntity
  8
L1
100
AcDbSpline
210
0.0
220
0.0
230
1.0
 70
     8
 71
     3
 72
    24
 73
    20
 74
     0
 42
0.000000001
 43
0.0000000001
 40
20.77563157545164
 40
20.77563157545164
 40
20.77563157545164
 40
20.77563157545164
 40
20.87304655252233
 40
21.16201201841642
 40
21.31508071514343
 40
21.49418860405792
 40
21.65703051501685
 40
21.82429434754124
 40
22.15412965411884
 40
22.42552518624281
 40
22.75099366304119
 40
23.0162710568637
 40
23.3165640308682
 40
23.70008811725282
 40
24.26792264055166
 40
24.73113530213383
 40
25.273282913965
 40
25.7550572323135
 40
26.03749234070731
 40
26.03749234070731
 40
26.03749234070731
 40
26.03749234070731
 10
-5319.041471708118
 20
1812.650198461856
 30
0.0
 10
-5319.111827167664
 20
1812.633735081683
 30
0.0
 10
-5319.370302796411
 20
1812.642143797738
 30
0.0
 10
-5319.548373181635
 20
1812.633351803744
 30
0.0
 10
-5319.755690195988
 20
1812.635562446243
 30
0.0
 10
-5319.92028381277
 20
1812.633117709412
 30
0.0
 10
-5320.089963753359
 20
1812.634129164661
 30
0.0
 10
-5320.310007677868
 20
1812.621498881912
 30
0.0
 10
-5320.565078340202
 20
1812.60024711774
 30
0.0
 10
-5320.873343740739
 20
1812.577610460682
 30
0.0
 10
-5321.15938268233
 20
1812.55391071294
 30
0.0
 10
-5321.455874403074
 20
1812.524335077711
 30
0.0
 10
-5321.764030013788
 20
1812.448657940164
 30
0.0
 10
-5322.175079796728
 20
1812.375892161482
 30
0.0
 10
-5322.627701923239
 20
1812.240478292606
 30
0.0
 10
-5323.14051366386
 20
1812.130334820412
 30
0.0
 10
-5323.606051189893
 20
1811.955126486963
 30
0.0
 10
-5324.02056836111
 20
1811.822487783349
 30
0.0
 10
-5324.259802940741
 20
1811.734846999835
 30
0.0
 10
-5324.348218814802
 20
1811.702456880943
 30
0.0
  0
LINE
  5
58E48
330
58E2C
100
AcDbEntity
  8
L1
100
AcDbLine
 10
-5319.041470809406
 20
1806.086364067559
 30
0.0
 11
-5319.04147170812
 21
1808.309217786038
 31
0.0
  0
LINE
  5
58E49
330
58E2C
100
AcDbEntity
  8
L1
100
AcDbLine
 10
-5319.041471708118
 20
1812.650198461856
 30
0.0
 11
-5319.041471708117
 21
1812.816281495773
 31
0.0
  0
LINE
  5
58E4A
330
58E2C
100
AcDbEntity
  8
L1
100
AcDbLine
 10
-5319.041471708117
 20
1812.816281495773
 30
0.0
 11
-5312.851783696276
 21
1812.816281495773
 31
0.0
  0
LINE
  5
58E4B
330
58E2C
100
AcDbEntity
  8
L1
100
AcDbLine
 10
-5319.041470809406
 20
1806.086364067559
 30
0.0
 11
-5312.851783696276
 21
1806.086364067559
 31
0.0
  0
ENDBLK
  5
58E2E
330
58E2C
100
AcDbEntity
  8
0
100
AcDbBlockEnd
  0
BLOCK
  5
63921
330
63920
100
AcDbEntity
  8
0
100
AcDbBlockBegin
  2
*D5
 70
     1
 10
0.0
 20
0.0
 30
0.0
  3
*D5
  1
*D5
  0
LINE
  5
66893
330
63920
100
AcDbEntity
  8
DIM
 62
     0
370
    -2
100
AcDbLine
 10
5443.455827289465
 20
-1854.664862113745
 30
0.0
 11
5443.455827289465
 21
-1863.638019553424
 31
0.0
  0
LINE
  5
66894
330
63920
100
AcDbEntity
  8
DIM
 62
     0
370
    -2
100
AcDbLine
 10
5403.456021200408
 20
-1855.162447259978
 30
0.0
 11
5403.456021200408
 21
-1863.638019553424
 31
0.0
  0
LINE
  5
66895
330
63920
100
AcDbEntity
  8
DIM
 62
     5
100
AcDbLine
 10
5441.455827289464
 20
-1862.388019553424
 30
0.0
 11
5405.456021200408
 21
-1862.388019553424
 31
0.0
  0
SOLID
  5
66896
330
63920
100
AcDbEntity
  8
DIM
 62
     5
100
AcDbTrace
 10
5441.455827289464
 20
-1862.054686220091
 30
0.0
 11
5441.455827289464
 21
-1862.721352886757
 31
0.0
 12
5443.455827289465
 22
-1862.388019553424
 32
0.0
 13
5443.455827289465
 23
-1862.388019553424
 33
0.0
  0
SOLID
  5
66897
330
63920
100
AcDbEntity
  8
DIM
 62
     5
100
AcDbTrace
 10
5405.456021200408
 20
-1862.054686220091
 30
0.0
 11
5405.456021200408
 21
-1862.721352886757
 31
0.0
 12
5403.456021200408
 22
-1862.388019553424
 32
0.0
 13
5403.456021200408
 23
-1862.388019553424
 33
0.0
  0
MTEXT
  5
66898
330
63920
100
AcDbEntity
  8
DIM
 62
     2
100
AcDbMText
 10
5423.455924244936
 20
-1860.763019553424
 30
0.0
 40
2.0
 41
0.0
 46
0.0
 71
     5
 72
     1
  1
\A1;40
 73
     1
 44
1.0
  0
POINT
  5
66899
330
63920
100
AcDbEntity
  8
DEFPOINTS
 62
     0
100
AcDbPoint
 10
5443.455827289465
 20
-1854.039862113745
 30
0.0
  0
POINT
  5
6689A
330
63920
100
AcDbEntity
  8
DEFPOINTS
 62
     0
100
AcDbPoint
 10
5403.456021200408
 20
-1854.537447259978
 30
0.0
  0
POINT
  5
6689B
330
63920
100
AcDbEntity
  8
DEFPOINTS
 62
     0
100
AcDbPoint
 10
5403.456021200408
 20
-1862.388019553424
 30
0.0
  0
ENDBLK
  5
63922
330
63920
100
AcDbEntity
  8
0
100
AcDbBlockEnd
  0
BLOCK
  5
63A20
330
63A1F
100
AcDbEntity
  8
0
100
AcDbBlockBegin
  2
*D6
 70
     1
 10
0.0
 20
0.0
 30
0.0
  3
*D6
  1
*D6
  0
LINE
  5
6689C
330
63A1F
100
AcDbEntity
  8
DIM
 62
     0
370
    -2
100
AcDbLine
 10
5354.455826909424
 20
-1850.160920176973
 30
0.0
 11
5354.455826909424
 21
-1872.62482213736
 31
0.0
  0
LINE
  5
6689D
330
63A1F
100
AcDbEntity
  8
DIM
 62
     0
370
    -2
100
AcDbLine
 10
5443.45582725997
 20
-1850.160920176973
 30
0.0
 11
5443.45582725997
 21
-1872.62482213736
 31
0.0
  0
LINE
  5
6689E
330
63A1F
100
AcDbEntity
  8
DIM
 62
     5
100
AcDbLine
 10
5356.455826909424
 20
-1871.37482213736
 30
0.0
 11
5441.45582725997
 21
-1871.37482213736
 31
0.0
  0
SOLID
  5
6689F
330
63A1F
100
AcDbEntity
  8
DIM
 62
     5
100
AcDbTrace
 10
5356.455826909424
 20
-1871.041488804027
 30
0.0
 11
5356.455826909424
 21
-1871.708155470694
 31
0.0
 12
5354.455826909424
 22
-1871.37482213736
 32
0.0
 13
5354.455826909424
 23
-1871.37482213736
 33
0.0
  0
SOLID
  5
668A0
330
63A1F
100
AcDbEntity
  8
DIM
 62
     5
100
AcDbTrace
 10
5441.45582725997
 20
-1871.041488804027
 30
0.0
 11
5441.45582725997
 21
-1871.708155470694
 31
0.0
 12
5443.45582725997
 22
-1871.37482213736
 32
0.0
 13
5443.45582725997
 23
-1871.37482213736
 33
0.0
  0
MTEXT
  5
668A1
330
63A1F
100
AcDbEntity
  8
DIM
 62
     2
100
AcDbMText
 10
5399.309151710017
 20
-1869.74982213736
 30
0.0
 40
2.0
 41
0.0
 46
0.0
 71
     5
 72
     1
  1
\A1;89
 73
     1
 44
1.0
  0
POINT
  5
668A2
330
63A1F
100
AcDbEntity
  8
DEFPOINTS
 62
     0
100
AcDbPoint
 10
5354.455826909424
 20
-1849.535920176973
 30
0.0
  0
POINT
  5
668A3
330
63A1F
100
AcDbEntity
  8
DEFPOINTS
 62
     0
100
AcDbPoint
 10
5443.45582725997
 20
-1849.535920176973
 30
0.0
  0
POINT
  5
668A4
330
63A1F
100
AcDbEntity
  8
DEFPOINTS
 62
     0
100
AcDbPoint
 10
5443.45582725997
 20
-1871.37482213736
 30
0.0
  0
ENDBLK
  5
63A21
330
63A1F
100
AcDbEntity
  8
0
100
AcDbBlockEnd
  0
BLOCK
  5
63A67
330
63A66
100
AcDbEntity
  8
0
100
AcDbBlockBegin
  2
*D7
 70
     1
 10
0.0
 20
0.0
 30
0.0
  3
*D7
  1
*D7
  0
LINE
  5
668A5
330
63A66
100
AcDbEntity
  8
DIM
 62
     0
370
    -2
100
AcDbLine
 10
5354.455826909424
 20
-1850.160920176973
 30
0.0
 11
5354.455826909424
 21
-1863.501250220871
 31
0.0
  0
LINE
  5
668A6
330
63A66
100
AcDbEntity
  8
DIM
 62
     0
370
    -2
100
AcDbLine
 10
5400.881656726479
 20
-1847.61964769857
 30
0.0
 11
5400.881656726479
 21
-1863.501250220871
 31
0.0
  0
LINE
  5
668A7
330
63A66
100
AcDbEntity
  8
DIM
 62
     5
100
AcDbLine
 10
5356.455826909424
 20
-1862.251250220871
 30
0.0
 11
5398.881656726478
 21
-1862.251250220871
 31
0.0
  0
SOLID
  5
668A8
330
63A66
100
AcDbEntity
  8
DIM
 62
     5
100
AcDbTrace
 10
5356.455826909424
 20
-1861.917916887538
 30
0.0
 11
5356.455826909424
 21
-1862.584583554204
 31
0.0
 12
5354.455826909424
 22
-1862.251250220871
 32
0.0
 13
5354.455826909424
 23
-1862.251250220871
 33
0.0
  0
SOLID
  5
668A9
330
63A66
100
AcDbEntity
  8
DIM
 62
     5
100
AcDbTrace
 10
5398.881656726478
 20
-1861.917916887538
 30
0.0
 11
5398.881656726478
 21
-1862.584583554204
 31
0.0
 12
5400.881656726479
 22
-1862.251250220871
 32
0.0
 13
5400.881656726479
 23
-1862.251250220871
 33
0.0
  0
MTEXT
  5
668AA
330
63A66
100
AcDbEntity
  8
DIM
 62
     2
100
AcDbMText
 10
5377.668741817952
 20
-1860.626250220871
 30
0.0
 40
2.0
 41
0.0
 46
0.0
 71
     5
 72
     1
  1
\A1;47
 73
     1
 44
1.0
  0
POINT
  5
668AB
330
63A66
100
AcDbEntity
  8
DEFPOINTS
 62
     0
100
AcDbPoint
 10
5354.455826909424
 20
-1849.535920176973
 30
0.0
  0
POINT
  5
668AC
330
63A66
100
AcDbEntity
  8
DEFPOINTS
 62
     0
100
AcDbPoint
 10
5400.881656726479
 20
-1846.99464769857
 30
0.0
  0
POINT
  5
668AD
330
63A66
100
AcDbEntity
  8
DEFPOINTS
 62
     0
100
AcDbPoint
 10
5400.881656726479
 20
-1862.251250220871
 30
0.0
  0
ENDBLK
  5
63A68
330
63A66
100
AcDbEntity
  8
0
100
AcDbBlockEnd
  0
BLOCK
  5
668B1
330
668B0
100
AcDbEntity
  8
0
100
AcDbBlockBegin
  2
*D8
 70
     1
 10
0.0
 20
0.0
 30
0.0
  3
*D8
  1
*D8
  0
LINE
  5
668B2
330
668B0
100
AcDbEntity
  8
DIM
 62
     0
370
    -2
100
AcDbLine
 10
5443.582372892261
 20
-1844.53591554731
 30
0.0
 11
5450.099185250092
 21
-1844.53591554731
 31
0.0
  0
LINE
  5
668B3
330
668B0
100
AcDbEntity
  8
DIM
 62
     0
370
    -2
100
AcDbLine
 10
5443.582371532472
 20
-1854.5359169007
 30
0.0
 11
5450.099185250092
 21
-1854.5359169007
 31
0.0
  0
LINE
  5
668B4
330
668B0
100
AcDbEntity
  8
DIM
 62
     5
100
AcDbLine
 10
5448.849185250092
 20
-1846.53591554731
 30
0.0
 11
5448.849185250092
 21
-1852.5359169007
 31
0.0
  0
SOLID
  5
668B5
330
668B0
100
AcDbEntity
  8
DIM
 62
     5
100
AcDbTrace
 10
5448.515851916759
 20
-1846.53591554731
 30
0.0
 11
5449.182518583425
 21
-1846.53591554731
 31
0.0
 12
5448.849185250092
 22
-1844.53591554731
 32
0.0
 13
5448.849185250092
 23
-1844.53591554731
 33
0.0
  0
SOLID
  5
668B6
330
668B0
100
AcDbEntity
  8
DIM
 62
     5
100
AcDbTrace
 10
5448.515851916759
 20
-1852.5359169007
 30
0.0
 11
5449.182518583425
 21
-1852.5359169007
 31
0.0
 12
5448.849185250092
 22
-1854.5359169007
 32
0.0
 13
5448.849185250092
 23
-1854.5359169007
 33
0.0
  0
MTEXT
  5
668B7
330
668B0
100
AcDbEntity
  8
DIM
 62
     2
100
AcDbMText
 10
5447.224185250092
 20
-1849.518445204519
 30
0.0
 40
2.0
 41
0.0
 46
0.0
 71
     5
 72
     1
  1
\A1;%%C10h6
 11
1.000000000000000E-16
 21
1.0
 31
0.0
 73
     1
 44
1.0
  0
POINT
  5
668B8
330
668B0
100
AcDbEntity
  8
DEFPOINTS
 62
     0
100
AcDbPoint
 10
5442.95737289226
 20
-1844.53591554731
 30
0.0
  0
POINT
  5
668B9
330
668B0
100
AcDbEntity
  8
DEFPOINTS
 62
     0
100
AcDbPoint
 10
5442.957371532472
 20
-1854.5359169007
 30
0.0
  0
POINT
  5
668BA
330
668B0
100
AcDbEntity
  8
DEFPOINTS
 62
     0
100
AcDbPoint
 10
5448.849185250092
 20
-1854.5359169007
 30
0.0
  0
ENDBLK
  5
668BB
330
668B0
100
AcDbEntity
  8
0
100
AcDbBlockEnd
  0
BLOCK
  5
668BD
330
668BC
100
AcDbEntity
  8
0
100
AcDbBlockBegin
  2
*D9
 70
     1
 10
0.0
 20
0.0
 30
0.0
  3
*D9
  1
*D9
  0
LINE
  5
668BE
330
668BC
100
AcDbEntity
  8
DIM
 62
     0
370
    -2
100
AcDbLine
 10
5443.45582725997
 20
-1854.664806354044
 30
0.0
 11
5443.45582725997
 21
-1863.638019553426
 31
0.0
  0
LINE
  5
668BF
330
668BC
100
AcDbEntity
  8
DIM
 62
     0
370
    -2
100
AcDbLine
 10
5403.456021200408
 20
-1855.162447259978
 30
0.0
 11
5403.456021200408
 21
-1863.638019553426
 31
0.0
  0
LINE
  5
668C0
330
668BC
100
AcDbEntity
  8
DIM
 62
     5
100
AcDbLine
 10
5441.45582725997
 20
-1862.388019553426
 30
0.0
 11
5405.456021200408
 21
-1862.388019553426
 31
0.0
  0
SOLID
  5
668C1
330
668BC
100
AcDbEntity
  8
DIM
 62
     5
100
AcDbTrace
 10
5441.45582725997
 20
-1862.054686220093
 30
0.0
 11
5441.45582725997
 21
-1862.721352886759
 31
0.0
 12
5443.45582725997
 22
-1862.388019553426
 32
0.0
 13
5443.45582725997
 23
-1862.388019553426
 33
0.0
  0
SOLID
  5
668C2
330
668BC
100
AcDbEntity
  8
DIM
 62
     5
100
AcDbTrace
 10
5405.456021200408
 20
-1862.054686220093
 30
0.0
 11
5405.456021200408
 21
-1862.721352886759
 31
0.0
 12
5403.456021200408
 22
-1862.388019553426
 32
0.0
 13
5403.456021200408
 23
-1862.388019553426
 33
0.0
  0
MTEXT
  5
668C3
330
668BC
100
AcDbEntity
  8
DIM
 62
     2
100
AcDbMText
 10
5423.455924230189
 20
-1860.763019553426
 30
0.0
 40
2.0
 41
0.0
 46
0.0
 71
     5
 72
     1
  1
\A1;40
 73
     1
 44
1.0
  0
POINT
  5
668C4
330
668BC
100
AcDbEntity
  8
DEFPOINTS
 62
     0
100
AcDbPoint
 10
5443.45582725997
 20
-1854.039806354044
 30
0.0
  0
POINT
  5
668C5
330
668BC
100
AcDbEntity
  8
DEFPOINTS
 62
     0
100
AcDbPoint
 10
5403.456021200408
 20
-1854.537447259978
 30
0.0
  0
POINT
  5
668C6
330
668BC
100
AcDbEntity
  8
DEFPOINTS
 62
     0
100
AcDbPoint
 10
5403.456021200408
 20
-1862.388019553426
 30
0.0
  0
ENDBLK
  5
668C7
330
668BC
100
AcDbEntity
  8
0
100
AcDbBlockEnd
  0
BLOCK
  5
668F5
330
668F4
100
AcDbEntity
  8
0
100
AcDbBlockBegin
  2
*D10
 70
     1
 10
0.0
 20
0.0
 30
0.0
  3
*D10
  1
*D10
  0
LINE
  5
66900
330
668F4
100
AcDbEntity
  8
DIM
 62
     0
370
    -2
100
AcDbLine
 10
5444.394066008625
 20
-1810.81168973692
 30
0.0
 11
5450.910878366456
 21
-1810.81168973692
 31
0.0
  0
LINE
  5
66901
330
668F4
100
AcDbEntity
  8
DIM
 62
     0
370
    -2
100
AcDbLine
 10
5444.394064648836
 20
-1820.81169109031
 30
0.0
 11
5450.910878366456
 21
-1820.81169109031
 31
0.0
  0
LINE
  5
66902
330
668F4
100
AcDbEntity
  8
DIM
 62
     5
100
AcDbLine
 10
5449.660878366456
 20
-1812.811689736919
 30
0.0
 11
5449.660878366456
 21
-1818.811691090309
 31
0.0
  0
SOLID
  5
66903
330
668F4
100
AcDbEntity
  8
DIM
 62
     5
100
AcDbTrace
 10
5449.327545033123
 20
-1812.811689736919
 30
0.0
 11
5449.994211699789
 21
-1812.811689736919
 31
0.0
 12
5449.660878366456
 22
-1810.81168973692
 32
0.0
 13
5449.660878366456
 23
-1810.81168973692
 33
0.0
  0
SOLID
  5
66904
330
668F4
100
AcDbEntity
  8
DIM
 62
     5
100
AcDbTrace
 10
5449.327545033123
 20
-1818.811691090309
 30
0.0
 11
5449.994211699789
 21
-1818.811691090309
 31
0.0
 12
5449.660878366456
 22
-1820.81169109031
 32
0.0
 13
5449.660878366456
 23
-1820.81169109031
 33
0.0
  0
MTEXT
  5
66905
330
668F4
100
AcDbEntity
  8
DIM
 62
     2
100
AcDbMText
 10
5448.035878366456
 20
-1815.794219394128
 30
0.0
 40
2.0
 41
0.0
 46
0.0
 71
     5
 72
     1
  1
\A1;%%C10h6
 11
1.000000000000000E-16
 21
1.0
 31
0.0
 73
     1
 44
1.0
  0
POINT
  5
66906
330
668F4
100
AcDbEntity
  8
DEFPOINTS
 62
     0
100
AcDbPoint
 10
5443.769066008624
 20
-1810.81168973692
 30
0.0
  0
POINT
  5
66907
330
668F4
100
AcDbEntity
  8
DEFPOINTS
 62
     0
100
AcDbPoint
 10
5443.769064648837
 20
-1820.81169109031
 30
0.0
  0
POINT
  5
66908
330
668F4
100
AcDbEntity
  8
DEFPOINTS
 62
     0
100
AcDbPoint
 10
5449.660878366456
 20
-1820.81169109031
 30
0.0
  0
ENDBLK
  5
668F6
330
668F4
100
AcDbEntity
  8
0
100
AcDbBlockEnd
  0
BLOCK
  5
6690A
330
66909
100
AcDbEntity
  8
0
100
AcDbBlockBegin
  2
*D11
 70
     1
 10
0.0
 20
0.0
 30
0.0
  3
*D11
  1
*D11
  0
LINE
  5
66915
330
66909
100
AcDbEntity
  8
DIM
 62
     0
370
    -2
100
AcDbLine
 10
5444.267520376333
 20
-1820.940580543653
 30
0.0
 11
5444.267520376333
 21
-1829.913793743036
 31
0.0
  0
LINE
  5
66916
330
66909
100
AcDbEntity
  8
DIM
 62
     0
370
    -2
100
AcDbLine
 10
5404.267714316772
 20
-1821.438221449587
 30
0.0
 11
5404.267714316772
 21
-1829.913793743036
 31
0.0
  0
LINE
  5
66917
330
66909
100
AcDbEntity
  8
DIM
 62
     5
100
AcDbLine
 10
5442.267520376334
 20
-1828.663793743037
 30
0.0
 11
5406.267714316772
 21
-1828.663793743037
 31
0.0
  0
SOLID
  5
66918
330
66909
100
AcDbEntity
  8
DIM
 62
     5
100
AcDbTrace
 10
5442.267520376334
 20
-1828.330460409703
 30
0.0
 11
5442.267520376334
 21
-1828.99712707637
 31
0.0
 12
5444.267520376333
 22
-1828.663793743037
 32
0.0
 13
5444.267520376333
 23
-1828.663793743037
 33
0.0
  0
SOLID
  5
66919
330
66909
100
AcDbEntity
  8
DIM
 62
     5
100
AcDbTrace
 10
5406.267714316772
 20
-1828.330460409703
 30
0.0
 11
5406.267714316772
 21
-1828.99712707637
 31
0.0
 12
5404.267714316772
 22
-1828.663793743037
 32
0.0
 13
5404.267714316772
 23
-1828.663793743037
 33
0.0
  0
MTEXT
  5
6691A
330
66909
100
AcDbEntity
  8
DIM
 62
     2
100
AcDbMText
 10
5424.267617346553
 20
-1827.038793743037
 30
0.0
 40
2.0
 41
0.0
 46
0.0
 71
     5
 72
     1
  1
\A1;40
 73
     1
 44
1.0
  0
POINT
  5
6691B
330
66909
100
AcDbEntity
  8
DEFPOINTS
 62
     0
100
AcDbPoint
 10
5444.267520376333
 20
-1820.315580543653
 30
0.0
  0
POINT
  5
6691C
330
66909
100
AcDbEntity
  8
DEFPOINTS
 62
     0
100
AcDbPoint
 10
5404.267714316772
 20
-1820.813221449587
 30
0.0
  0
POINT
  5
6691D
330
66909
100
AcDbEntity
  8
DEFPOINTS
 62
     0
100
AcDbPoint
 10
5404.267714316772
 20
-1828.663793743037
 30
0.0
  0
ENDBLK
  5
6690B
330
66909
100
AcDbEntity
  8
0
100
AcDbBlockEnd
  0
ENDSEC
  0
SECTION
  2
ENTITIES
  0
MTEXT
  5
2680
330
37
100
AcDbEntity
  8
DIM
100
AcDbMText
 10
659.1782343192181
 20
308.5995177706703
 30
0.0
 40
2.5
 41
0.0
 46
0.0
 71
     1
 72
     1
  1

 73
     1
 44
1.0
  0
MTEXT
  5
300E
330
37
100
AcDbEntity
  8
MAIN
100
AcDbMText
 10
669.755012248568
 20
245.6076319018014
 30
0.0
 40
2.5
 41
26.10617534803031
 46
0.0
 71
     1
 72
     1
  1

 73
     1
 44
1.0
  0
MTEXT
  5
37B2
330
37
100
AcDbEntity
  8
HATCH
100
AcDbMText
 10
628.7863083573952
 20
149.6267201321197
 30
0.0
 40
2.5
 41
21.09453396890625
 46
0.0
 71
     1
 72
     1
  1

 73
     1
 44
1.0
  0
MTEXT
  5
708E
330
37
100
AcDbEntity
  8
DIM
 62
     2
100
AcDbMText
 10
2726.257056660871
 20
171.487667160402
 30
0.0
 40
2.0
 41
0.0
 46
0.0
 71
     1
 72
     1
  1

 73
     1
 44
1.0
  0
DIMENSION
  5
588CC
330
37
100
AcDbEntity
  8
DIM
100
AcDbDimension
280
     0
  2
*D1
 10
5448.849185250092
 20
-1854.5359169007
 30
0.0
 11
5448.849185250092
 21
-1849.518445204519
 31
0.0
 70
   160
  1
%%C10h6
 71
     5
 42
10.00000135338996
 73
     0
 74
     0
 75
     0
  3
ISO-25
100
AcDbAlignedDimension
 13
5442.95737289226
 23
-1844.53591554731
 33
0.0
 14
5442.957371532472
 24
-1854.5359169007
 34
0.0
 50
90.0
100
AcDbRotatedDimension
  0
DIMENSION
  5
58AF1
330
37
100
AcDbEntity
  8
DIM
100
AcDbDimension
280
     0
  2
*D2
 10
5347.850536124359
 20
-1854.541246535875
 30
0.0
 11
5347.850536124359
 21
-1849.540284143468
 31
0.0
 70
   160
  1
%%C10.0m7
 71
     5
 42
10.0019247848129
 73
     0
 74
     0
 75
     0
  3
ISO-25
100
AcDbAlignedDimension
 13
5356.162235008828
 23
-1844.539321751062
 33
0.0
 14
5356.126655021284
 24
-1854.541246535875
 34
0.0
 50
90.0
100
AcDbRotatedDimension
  0
DIMENSION
  5
58C17
330
37
100
AcDbEntity
  8
DIM
100
AcDbDimension
280
     0
  2
*D3
 10
5355.529944328079
 20
-1846.209342348307
 30
0.0
 11
5341.610689367997
 21
-1849.520425261445
 31
0.0
 70
   162
  1
140°
 71
     5
 42
2.432395190953335
 73
     0
 74
     0
 75
     0
  3
ISO-25$2
100
AcDb2LineAngularDimension
 13
5354.822124077557
 23
-1850.944209940498
 33
0.0
 14
5355.535452717916
 24
-1852.874458889476
 34
0.0
 15
5354.858559620029
 25
-1848.01927184192
 35
0.0
 16
5342.642190512168
 26
-1844.517033894877
 36
0.0
  0
INSERT
  5
58F9C
330
37
100
AcDbEntity
  8
L1
100
AcDbBlockReference
  2
D6.1-D7.9
 10
5349.025434511701
 20
-1809.451322651915
 30
0.0
  0
MTEXT
  5
590C7
330
37
100
AcDbEntity
  8
0
100
AcDbMText
 10
5337.153106631271
 20
-1880.152545075705
 30
0.0
 40
2.5
 41
33.7222680383984
 46
2.5425
 71
     1
 72
     5
  1
{\fArial|b0|i0|c0|p34;103432  10,00}
 73
     1
 44
1.0
1001
ACAD
1000
ACAD_MTEXT_DEFINED_HEIGHT_BEGIN
1070
    46
1040
2.5425
1000
ACAD_MTEXT_DEFINED_HEIGHT_END
  0
LWPOLYLINE
  5
590C8
330
37
100
AcDbEntity
  8
0
100
AcDbPolyline
 90
        4
 70
     1
 43
0.0
 10
5336.123370110048
 20
-1877.649683832064
 10
5456.123370110049
 20
-1877.649683832064
 10
5456.123370110049
 20
-1891.649683832064
 10
5336.123370110048
 20
-1891.649683832064
  0
LINE
  5
590C9
330
37
100
AcDbEntity
  8
0
100
AcDbLine
 10
5336.123370110048
 20
-1884.649683832064
 30
0.0
 11
5441.123370110048
 21
-1884.649683832064
 31
0.0
  0
LINE
  5
590CA
330
37
100
AcDbEntity
  8
0
100
AcDbLine
 10
5441.123370110048
 20
-1891.649683832064
 30
0.0
 11
5441.123370110048
 21
-1877.649683832064
 31
0.0
  0
MTEXT
  5
590CB
330
37
100
AcDbEntity
  8
0
100
AcDbMText
 10
5442.246713513744
 20
-1878.944927889565
 30
0.0
 40
2.0
 41
12.77551408241788
 46
0.0
 71
     1
 72
     5
  1
\pxqc;{\fArial|b0|i0|c0|p34;Maβstab:\P1:1}
 73
     1
 44
1.0
  0
LINE
  5
590CC
330
37
100
AcDbEntity
  8
0
100
AcDbLine
 10
5441.123370110048
 20
-1885.649683832063
 30
0.0
 11
5456.123370110049
 21
-1885.649683832063
 31
0.0
  0
LINE
  5
6389B
330
37
100
AcDbEntity
  8
TIME
100
AcDbLine
 10
5445.117726069433
 20
-1849.535915547309
 30
0.0
 11
5353.254000142753
 21
-1849.535915547309
 31
0.0
  0
LINE
  5
6390C
330
37
100
AcDbEntity
  8
L1
100
AcDbLine
 10
5442.957369910352
 20
-1849.535971307011
 30
0.0
 11
5442.957372921757
 21
-1844.535971307011
 31
0.0
  0
LINE
  5
63910
330
37
100
AcDbEntity
  8
L1
100
AcDbLine
 10
5442.957371561966
 20
-1844.53596995362
 30
0.0
 11
5443.455827289465
 21
-1845.032080500275
 31
0.0
  0
LINE
  5
63918
330
37
100
AcDbEntity
  8
L1
100
AcDbLine
 10
5442.957369910352
 20
-1849.535971307011
 30
0.0
 11
5442.957372921757
 21
-1854.53597130701
 31
0.0
  0
LINE
  5
63919
330
37
100
AcDbEntity
  8
L1
100
AcDbLine
 10
5442.957372921757
 20
-1854.53597130701
 30
0.0
 11
5397.358656522606
 21
-1854.537739452368
 31
0.0
  0
LINE
  5
6391A
102
{ACAD_REACTORS
330
63936
102
}
330
37
100
AcDbEntity
  8
L1
100
AcDbLine
 10
5442.957371561966
 20
-1854.535972660401
 30
0.0
 11
5443.455827289465
 21
-1854.039862113746
 31
0.0
  0
LINE
  5
6391B
330
37
100
AcDbEntity
  8
L1
100
AcDbLine
 10
5403.455633346806
 20
-1844.534382319993
 30
0.0
 11
5403.456021232123
 21
-1854.537560278987
 31
0.0
  0
LINE
  5
6391E
102
{ACAD_REACTORS
330
63936
102
}
330
37
100
AcDbEntity
  8
L1
100
AcDbLine
 10
5443.455827289465
 20
-1845.032080500275
 30
0.0
 11
5443.455827289465
 21
-1854.039862113746
 31
0.0
  0
DIMENSION
  5
6391F
102
{ACAD_REACTORS
330
63936
102
}
102
{ACAD_XDICTIONARY
360
6392C
102
}
330
37
100
AcDbEntity
  8
DIM
100
AcDbDimension
280
     0
  2
*D5
 10
5403.456021200408
 20
-1862.388019553424
 30
0.0
 11
5423.455924244936
 21
-1860.763019553424
 31
0.0
 70
    32
 71
     5
 42
39.99980608905662
 73
     0
 74
     0
 75
     0
  3
ISO-25
100
AcDbAlignedDimension
 13
5443.455827289465
 23
-1854.039862113745
 33
0.0
 14
5403.456021200408
 24
-1854.537447259978
 34
0.0
100
AcDbRotatedDimension
  0
DIMENSION
  5
63A1E
330
37
100
AcDbEntity
  8
DIM
100
AcDbDimension
280
     0
  2
*D6
 10
5443.45582725997
 20
-1871.37482213736
 30
0.0
 11
5399.309151710017
 21
-1871.37482213736
 31
0.0
 70
   160
 71
     5
 42
89.00000035054563
 73
     0
 74
     0
 75
     0
  3
ISO-25
100
AcDbAlignedDimension
 13
5354.455826909424
 23
-1849.535920176973
 33
0.0
 14
5443.45582725997
 24
-1849.535920176973
 34
0.0
100
AcDbRotatedDimension
  0
DIMENSION
  5
63A65
330
37
100
AcDbEntity
  8
DIM
100
AcDbDimension
280
     0
  2
*D7
 10
5400.881656726479
 20
-1862.251250220871
 30
0.0
 11
5377.668741817952
 21
-1860.626250220871
 31
0.0
 70
    32
  1
47
 71
     5
 42
46.42582981705436
 73
     0
 74
     0
 75
     0
  3
ISO-25
100
AcDbAlignedDimension
 13
5354.455826909424
 23
-1849.535920176973
 33
0.0
 14
5400.881656726479
 24
-1846.99464769857
 34
0.0
100
AcDbRotatedDimension
  0
LINE
  5
66732
330
37
100
AcDbEntity
  8
L1
100
AcDbLine
 10
5397.35819294384
 20
-1854.22452511253
 30
0.0
 11
5397.358656522606
 21
-1854.537739452368
 31
0.0
  0
LINE
  5
66733
330
37
100
AcDbEntity
  8
L1
100
AcDbLine
 10
5354.455826909424
 20
-1849.535911653942
 30
0.0
 11
5355.025457667982
 21
-1847.242838408036
 31
0.0
  0
LINE
  5
66734
330
37
100
AcDbEntity
  8
L1
100
AcDbLine
 10
5355.025457667982
 20
-1847.242838408036
 30
0.0
 11
5355.988771418356
 21
-1844.63041135352
 31
0.0
  0
LINE
  5
66735
330
37
100
AcDbEntity
  8
L1
100
AcDbLine
 10
5355.988771418356
 20
-1844.63041135352
 30
0.0
 11
5356.164579060344
 21
-1844.538090837301
 31
0.0
  0
LINE
  5
66736
330
37
100
AcDbEntity
  8
L1
100
AcDbLine
 10
5356.164579060344
 20
-1844.538090837301
 30
0.0
 11
5356.320797614525
 21
-1844.660693293903
 31
0.0
  0
LINE
  5
66737
330
37
100
AcDbEntity
  8
L1
100
AcDbLine
 10
5356.320797614525
 20
-1844.660693293903
 30
0.0
 11
5356.25834556029
 21
-1845.077731573507
 31
0.0
  0
LINE
  5
66738
330
37
100
AcDbEntity
  8
L1
100
AcDbLine
 10
5356.25834556029
 20
-1845.077731573507
 30
0.0
 11
5356.098370964033
 21
-1844.954389489496
 31
0.0
  0
LINE
  5
66739
330
37
100
AcDbEntity
  8
L1
100
AcDbLine
 10
5356.098370964033
 20
-1844.954389489496
 30
0.0
 11
5355.99069887161
 21
-1844.645023725746
 31
0.0
  0
LINE
  5
6673A
330
37
100
AcDbEntity
  8
L1
100
AcDbLine
 10
5356.096969469628
 20
-1844.950362685733
 30
0.0
 11
5354.455826938919
 21
-1849.535989521283
 31
0.0
  0
LINE
  5
6673B
330
37
100
AcDbEntity
  8
L1
100
AcDbLine
 10
5354.455826938919
 20
-1849.535989521283
 30
0.0
 11
5355.081881339804
 21
-1852.004632922623
 31
0.0
  0
LINE
  5
6673C
330
37
100
AcDbEntity
  8
L1
100
AcDbLine
 10
5355.081881339804
 20
-1852.004632922623
 30
0.0
 11
5355.93847255037
 21
-1854.397328052245
 31
0.0
  0
LINE
  5
6673D
330
37
100
AcDbEntity
  8
L1
100
AcDbLine
 10
5355.93847255037
 20
-1854.397328052245
 30
0.0
 11
5356.127525384346
 21
-1854.541474528474
 31
0.0
  0
SPLINE
  5
6673E
330
37
100
AcDbEntity
  8
L1
100
AcDbSpline
210
0.0
220
0.0
230
1.0
 70
     8
 71
     3
 72
    12
 73
     8
 74
     0
 42
0.000000001
 43
0.0000000001
 40
0.0
 40
0.0
 40
0.0
 40
0.0
 40
0.5007920901755912
 40
1.130386962410822
 40
1.88632447051346
 40
2.575089955264858
 40
2.851784309829497
 40
2.851784309829497
 40
2.851784309829497
 40
2.851784309829497
 10
5356.25834556029
 20
-1845.077731573507
 30
0.0
 10
5356.321658010866
 20
-1845.240441198781
 30
0.0
 10
5356.464566755025
 20
-1845.607709058392
 30
0.0
 10
5356.611373783159
 20
-1846.255730739251
 30
0.0
 10
5356.637726988846
 20
-1846.986314602974
 30
0.0
 10
5356.601450488899
 20
-1847.589607340276
 30
0.0
 10
5356.561999590431
 20
-1847.925838383876
 30
0.0
 10
5356.550693225894
 20
-1848.022199959785
 30
0.0
  0
LINE
  5
6673F
330
37
100
AcDbEntity
  8
L1
100
AcDbLine
 10
5356.550693225894
 20
-1848.022199959785
 30
0.0
 11
5354.591358388248
 21
-1849.452512313152
 31
0.0
  0
LINE
  5
66740
330
37
100
AcDbEntity
  8
L1
100
AcDbLine
 10
5354.591358388248
 20
-1849.452512313152
 30
0.0
 11
5356.546420704447
 21
-1850.960251361796
 31
0.0
  0
LINE
  5
66741
330
37
100
AcDbEntity
  8
L1
100
AcDbLine
 10
5354.591358388248
 20
-1849.452512313152
 30
0.0
 11
5354.494125852403
 21
-1849.687008921383
 31
0.0
  0
SPLINE
  5
66742
330
37
100
AcDbEntity
  8
L1
100
AcDbSpline
210
0.0
220
0.0
230
1.0
 70
     8
 71
     3
 72
    13
 73
     9
 74
     0
 42
0.000000001
 43
0.0000000001
 40
0.0
 40
0.0
 40
0.0
 40
0.0
 40
0.2313554470059568
 40
0.5056934647661132
 40
1.096372343388634
 40
2.511453515261794
 40
3.771574777620653
 40
4.75122078653561
 40
4.75122078653561
 40
4.75122078653561
 40
4.75122078653561
 10
5356.550693225894
 20
-1848.022199959785
 30
0.0
 10
5356.614681891837
 20
-1848.067513945596
 30
0.0
 10
5356.754547413073
 20
-1848.166560615057
 30
0.0
 10
5357.053046907926
 20
-1848.388515225123
 30
0.0
 10
5357.666193711468
 20
-1848.861843321683
 30
0.0
 10
5358.488105694534
 20
-1849.614608953163
 30
0.0
 10
5359.335422206243
 20
-1850.546005043079
 30
0.0
 10
5359.734550665526
 20
-1851.212015318658
 30
0.0
 10
5359.909124429146
 20
-1851.503319829056
 30
0.0
  0
SPLINE
  5
66743
330
37
100
AcDbEntity
  8
L1
100
AcDbSpline
210
0.0
220
0.0
230
1.0
 70
     8
 71
     3
 72
    27
 73
    23
 74
     0
 42
0.000000001
 43
0.0000000001
 40
0.0
 40
0.0
 40
0.0
 40
0.0
 40
0.3490911964591215
 40
0.981007318517555
 40
1.458120621627118
 40
2.02937673535072
 40
2.415229068013811
 40
2.82766677421891
 40
3.134654858071681
 40
3.332364600986796
 40
3.434133167110891
 40
3.524186577813011
 40
3.587841037541068
 40
3.734803429540879
 40
3.827586622853218
 40
3.936411744977325
 40
4.016129635551354
 40
4.089661969015707
 40
4.949994328727028
 40
5.366509114672031
 40
5.500654133230438
 40
5.754103268431133
 40
5.754103268431133
 40
5.754103268431133
 40
5.754103268431133
 10
5359.909124429146
 20
-1851.503319829056
 30
0.0
 10
5359.792574036861
 20
-1851.511221596888
 30
0.0
 10
5359.46504704974
 20
-1851.533426946527
 30
0.0
 10
5358.986385781619
 20
-1851.408164887097
 30
0.0
 10
5358.454205331067
 20
-1851.228743591734
 30
0.0
 10
5358.013129498619
 20
-1851.030654111169
 30
0.0
 10
5357.607584377579
 20
-1850.81099236785
 30
0.0
 10
5357.277676614405
 20
-1850.635424007414
 30
0.0
 10
5356.98393822665
 20
-1850.543192144782
 30
0.0
 10
5356.780075643992
 20
-1850.518243763736
 30
0.0
 10
5356.651702030365
 20
-1850.548327992073
 30
0.0
 10
5356.577296386189
 20
-1850.597889638984
 30
0.0
 10
5356.522177808722
 20
-1850.688195939539
 30
0.0
 10
5356.511095026715
 20
-1850.801322567562
 30
0.0
 10
5356.553759938876
 20
-1850.918614714548
 30
0.0
 10
5356.52740167372
 20
-1851.017217560524
 30
0.0
 10
5356.51320027911
 20
-1851.108209274785
 30
0.0
 10
5356.322447302298
 20
-1851.414331282082
 30
0.0
 10
5355.78126544291
 20
-1851.363984988084
 30
0.0
 10
5355.329516546817
 20
-1851.564703848796
 30
0.0
 10
5355.176441475997
 20
-1851.800939342578
 30
0.0
 10
5355.118838640951
 20
-1851.922407340747
 30
0.0
 10
5355.08117195123
 20
-1852.001835677816
 30
0.0
  0
SPLINE
  5
66744
330
37
100
AcDbEntity
  8
L1
100
AcDbSpline
210
0.0
220
0.0
230
1.0
 70
     8
 71
     3
 72
    17
 73
    13
 74
     0
 42
0.000000001
 43
0.0000000001
 40
0.0
 40
0.0
 40
0.0
 40
0.0
 40
0.2604688894223275
 40
0.8712241981274413
 40
1.753594989555594
 40
2.66839195762841
 40
3.001152819464059
 40
3.805515073208296
 40
4.491490210702551
 40
5.373910544162657
 40
6.298223730774192
 40
6.924737227693209
 40
6.924737227693209
 40
6.924737227693209
 40
6.924737227693209
 10
5356.126655021284
 20
-1854.541246535875
 30
0.0
 10
5356.213474945729
 20
-1854.539662535525
 30
0.0
 10
5356.503872847844
 20
-1854.534364323374
 30
0.0
 10
5357.086940338388
 20
-1854.48431619812
 30
0.0
 10
5357.88451174107
 20
-1854.393675742132
 30
0.0
 10
5358.588917987271
 20
-1854.28829128811
 30
0.0
 10
5359.252637093154
 20
-1854.113554453598
 30
0.0
 10
5359.845377052423
 20
-1853.97177349877
 30
0.0
 10
5360.604135668221
 20
-1853.735536236583
 30
0.0
 10
5361.393588053532
 20
-1853.462082752203
 30
0.0
 10
5362.150232206116
 20
-1853.153560347885
 30
0.0
 10
5362.626639285782
 20
-1852.94234964712
 30
0.0
 10
5362.819101453608
 20
-1852.85702331367
 30
0.0
  0
SPLINE
  5
66745
330
37
100
AcDbEntity
  8
L1
100
AcDbSpline
210
0.0
220
0.0
230
1.0
 70
     8
 71
     3
 72
    15
 73
    11
 74
     0
 42
0.000000001
 43
0.0000000001
 40
0.0
 40
0.0
 40
0.0
 40
0.0
 40
0.1126520925319389
 40
0.9787499144865108
 40
3.517144945878546
 40
4.753062877859561
 40
6.559047930514219
 40
7.912891290422617
 40
8.712569724736491
 40
9.10874901729998
 40
9.10874901729998
 40
9.10874901729998
 40
9.10874901729998
 10
5359.909124429146
 20
-1851.503319829056
 30
0.0
 10
5359.943021450366
 20
-1851.520327230861
 30
0.0
 10
5360.237527356776
 20
-1851.668091845682
 30
0.0
 10
5361.289372754269
 20
-1852.213275328495
 30
0.0
 10
5362.722077735689
 20
-1852.833979436441
 30
0.0
 10
5364.478642845405
 20
-1853.478682921207
 30
0.0
 10
5365.899376679337
 20
-1853.870941637212
 30
0.0
 10
5367.204642693423
 20
-1854.083023978919
 30
0.0
 10
5368.049296177686
 20
-1854.186292140361
 30
0.0
 10
5368.447221553033
 20
-1854.210998025489
 30
0.0
 10
5368.579159724038
 20
-1854.217336973828
 30
0.0
  0
LINE
  5
66746
330
37
100
AcDbEntity
  8
L1
100
AcDbLine
 10
5377.686029376347
 20
-1854.231746839648
 30
0.0
 11
5368.579159724038
 21
-1854.217336973828
 31
0.0
  0
SPLINE
  5
66747
330
37
100
AcDbEntity
  8
L1
100
AcDbSpline
210
0.0
220
0.0
230
1.0
 70
     8
 71
     3
 72
    28
 73
    24
 74
     0
 42
0.000000001
 43
0.0000000001
 40
0.0
 40
0.0
 40
0.0
 40
0.0
 40
0.1820483367688787
 40
0.3398600215715172
 40
1.979552932990385
 40
3.201413545337578
 40
5.237207245340584
 40
7.363273410893862
 40
11.50664822900658
 40
13.71709827797252
 40
15.93337094090379
 40
17.46315440226606
 40
21.02917225985728
 40
22.71246629615407
 40
24.70885012285295
 40
26.97734251772688
 40
28.58371871753526
 40
29.88485872097774
 40
31.13393720886765
 40
32.03904454496136
 40
32.95706389852645
 40
34.12012327396364
 40
34.75632635019144
 40
34.75632635019144
 40
34.75632635019144
 40
34.75632635019144
 10
5356.162235008826
 20
-1844.539321751062
 30
0.0
 10
5356.222894983162
 20
-1844.541049600404
 30
0.0
 10
5356.336139083889
 20
-1844.544275265218
 30
0.0
 10
5356.995870777225
 20
-1844.559415622983
 30
0.0
 10
5357.99824873604
 20
-1844.685744790626
 30
0.0
 10
5359.604595465526
 20
-1844.996710311705
 30
0.0
 10
5361.322783012955
 20
-1845.560317242036
 30
0.0
 10
5363.889127195183
 20
-1846.659074119262
 30
0.0
 10
5366.383959996793
 20
-1848.07015326503
 30
0.0
 10
5368.85851460833
 20
-1849.570854720937
 30
0.0
 10
5370.577206601293
 20
-1850.618060351023
 30
0.0
 10
5372.713382189252
 20
-1851.852811076295
 30
0.0
 10
5374.74896963925
 20
-1852.897752618117
 30
0.0
 10
5377.018143130979
 20
-1853.775007497946
 30
0.0
 10
5378.939606944671
 20
-1854.307944823234
 30
0.0
 10
5380.890679432563
 20
-1854.556804602159
 30
0.0
 10
5382.619267205011
 20
-1854.532141413261
 30
0.0
 10
5383.997694820194
 20
-1854.365616831977
 30
0.0
 10
5385.127237060462
 20
-1854.123167258686
 30
0.0
 10
5386.118488218819
 20
-1853.85009903633
 30
0.0
 10
5387.06488984512
 20
-1853.525657151148
 30
0.0
 10
5387.92206561972
 20
-1853.212665106934
 30
0.0
 10
5388.464510411413
 20
-1852.942669201971
 30
0.0
 10
5388.656314027857
 20
-1852.847201069933
 30
0.0
  0
SPLINE
  5
66748
330
37
100
AcDbEntity
  8
L1
100
AcDbSpline
210
0.0
220
0.0
230
1.0
 70
     8
 71
     3
 72
    19
 73
    15
 74
     0
 42
0.000000001
 43
0.0000000001
 40
0.0
 40
0.0
 40
0.0
 40
0.0
 40
0.8389688284130453
 40
2.722245464907997
 40
5.131677869415613
 40
7.344551368826906
 40
10.64910561035181
 40
13.69277990273224
 40
16.52877793302647
 40
18.73502476955344
 40
20.8067849235296
 40
23.3698768700597
 40
24.8152417279814
 40
26.75209789920389
 40
26.75209789920389
 40
26.75209789920389
 40
26.75209789920389
 10
5356.320797614525
 20
-1844.660693293903
 30
0.0
 10
5356.599742759019
 20
-1844.684777137033
 30
0.0
 10
5357.504850468435
 20
-1844.762923226039
 30
0.0
 10
5359.172318484929
 20
-1845.203876014597
 30
0.0
 10
5361.218643759562
 20
-1845.963082991644
 30
0.0
 10
5363.62316697015
 20
-1847.125104802802
 30
0.0
 10
5366.11282273574
 20
-1848.596400114326
 30
0.0
 10
5368.760300309248
 20
-1850.21419968371
 30
0.0
 10
5371.122988702984
 20
-1851.579467052917
 30
0.0
 10
5373.236340589048
 20
-1852.715905535091
 30
0.0
 10
5375.357976553416
 20
-1853.604501070147
 30
0.0
 10
5377.312029369138
 20
-1854.192621628869
 30
0.0
 10
5379.27512125076
 20
-1854.51742422561
 30
0.0
 10
5380.4043842752
 20
-1854.518659781431
 30
0.0
 10
5381.051065860754
 20
-1854.519367332446
 30
0.0
  0
SPLINE
  5
66749
330
37
100
AcDbEntity
  8
L1
100
AcDbSpline
210
0.0
220
0.0
230
1.0
 70
     8
 71
     3
 72
    31
 73
    27
 74
     0
 42
0.000000001
 43
0.0000000001
 40
0.0
 40
0.0
 40
0.0
 40
0.0
 40
0.1130388242179951
 40
0.6492426326483103
 40
1.50259841264245
 40
2.444621145460045
 40
3.418484166009446
 40
4.284735788861555
 40
5.409056202554369
 40
6.590877716768511
 40
7.355881897951867
 40
10.1080515281003
 40
11.37384145877275
 40
13.17663444664003
 40
15.76919616194731
 40
17.05688836727321
 40
19.84137536345824
 40
21.0145718713961
 40
23.31960460933455
 40
24.49201069452413
 40
26.02597631385993
 40
27.13641910804013
 40
27.96465376628138
 40
30.49351500779052
 40
32.66561196355032
 40
34.2205423717319
 40
34.2205423717319
 40
34.2205423717319
 40
34.2205423717319
 10
5362.822790084114
 20
-1846.215924403946
 30
0.0
 10
5362.858085629913
 20
-1846.202041123629
 30
0.0
 10
5363.060806891685
 20
-1846.122301993952
 30
0.0
 10
5363.527908101729
 20
-1845.93169441656
 30
0.0
 10
5364.268076937872
 20
-1845.680980569358
 30
0.0
 10
5365.154132454595
 20
-1845.407624581319
 30
0.0
 10
5366.058532641464
 20
-1845.189416979723
 30
0.0
 10
5367.031239268028
 20
-1845.002928562427
 30
0.0
 10
5368.08343518284
 20
-1844.885881154079
 30
0.0
 10
5369.106922113171
 20
-1844.824406670062
 30
0.0
 10
5370.67278886988
 20
-1844.888656318035
 30
0.0
 10
5372.260839022843
 20
-1845.111374381143
 30
0.0
 10
5374.141264392996
 20
-1845.619807951993
 30
0.0
 10
5375.929497981168
 20
-1846.261708563789
 30
0.0
 10
5377.664959167461
 20
-1847.066610915681
 30
0.0
 10
5379.659685924012
 20
-1848.096197698788
 30
0.0
 10
5381.200790127312
 20
-1848.966412117766
 30
0.0
 10
5383.032508223867
 20
-1850.02082063295
 30
0.0
 10
5384.42953827749
 20
-1850.729833078885
 30
0.0
 10
5385.88505039124
 20
-1851.595166469139
 30
0.0
 10
5387.04790225301
 20
-1852.140838354641
 30
0.0
 10
5388.10127711013
 20
-1852.647512474998
 30
0.0
 10
5389.502587680084
 20
-1853.179666780494
 30
0.0
 10
5391.257639353515
 20
-1853.781979024873
 30
0.0
 10
5393.322322984326
 20
-1854.156554233312
 30
0.0
 10
5394.564646503383
 20
-1854.200503761164
 30
0.0
 10
5395.082948739442
 20
-1854.218839676254
 30
0.0
  0
LINE
  5
6674A
330
37
100
AcDbEntity
  8
L1
100
AcDbLine
 10
5369.551042134681
 20
-1844.845763196681
 30
0.0
 11
5377.741814950844
 21
-1844.841351305652
 31
0.0
  0
SPLINE
  5
6674B
330
37
100
AcDbEntity
  8
L1
100
AcDbSpline
210
0.0
220
0.0
230
1.0
 70
     8
 71
     3
 72
    28
 73
    24
 74
     0
 42
0.000000001
 43
0.0000000001
 40
0.0
 40
0.0
 40
0.0
 40
0.0
 40
1.389081215960372
 40
2.880196842475231
 40
4.449982992772716
 40
6.529522420036231
 40
9.366806232384164
 40
11.95197038027759
 40
15.07886959235697
 40
18.0689071679535
 40
20.66580898049899
 40
21.67248441558465
 40
21.80563978045006
 40
21.97227080930995
 40
22.51001887806271
 40
23.51021985597229
 40
25.24046587735965
 40
25.95834713368496
 40
26.60189682001386
 40
27.54541180839005
 40
28.4814500837154
 40
29.28120181774986
 40
30.12236984595228
 40
30.12236984595228
 40
30.12236984595228
 40
30.12236984595228
 10
5377.741814950844
 20
-1844.841351305652
 30
0.0
 10
5378.197683145842
 20
-1844.751421824428
 30
0.0
 10
5379.142905153547
 20
-1844.564957127552
 30
0.0
 10
5380.629774005995
 20
-1844.532470445041
 30
0.0
 10
5382.342901894267
 20
-1844.515728022301
 30
0.0
 10
5384.500926020808
 20
-1844.74447196061
 30
0.0
 10
5386.933128051317
 20
-1845.422009865017
 30
0.0
 10
5389.536257966631
 20
-1846.655287494213
 30
0.0
 10
5392.173959656492
 20
-1847.909468009586
 30
0.0
 10
5394.762496396104
 20
-1849.350689070287
 30
0.0
 10
5396.964730713193
 20
-1849.720562906094
 30
0.0
 10
5398.165672974352
 20
-1849.989292320971
 30
0.0
 10
5398.616933512363
 20
-1850.002007363899
 30
0.0
 10
5398.838451958439
 20
-1849.800384746139
 30
0.0
 10
5399.281221184747
 20
-1849.444078499488
 30
0.0
 10
5400.093063120031
 20
-1848.678150198981
 30
0.0
 10
5400.83453173985
 20
-1847.672540024473
 30
0.0
 10
5400.921627002656
 20
-1846.546550480531
 30
0.0
 10
5400.565959855745
 20
-1845.793045176169
 30
0.0
 10
5399.863591387207
 20
-1845.257518334702
 30
0.0
 10
5399.023564662865
 20
-1844.92848912794
 30
0.0
 10
5398.181038955403
 20
-1844.740414510823
 30
0.0
 10
5397.637373394793
 20
-1844.675883210283
 30
0.0
 10
5397.358666804464
 20
-1844.64290201318
 30
0.0
  0
SPLINE
  5
6674C
330
37
100
AcDbEntity
  8
L1
100
AcDbSpline
210
0.0
220
0.0
230
1.0
 70
     8
 71
     3
 72
    17
 73
    13
 74
     0
 42
0.000000001
 43
0.0000000001
 40
0.0
 40
0.0
 40
0.0
 40
0.0
 40
0.0473833460404929
 40
0.1885761977611928
 40
0.2467978294112077
 40
1.117982200512622
 40
2.080344441597505
 40
3.822134108994323
 40
4.700037867041111
 40
6.237765083393543
 40
7.194034604882951
 40
7.435251752278557
 40
7.435251752278557
 40
7.435251752278557
 40
7.435251752278557
 10
5388.628812878511
 20
-1846.22797840452
 30
0.0
 10
5388.643616668993
 20
-1846.222193489528
 30
0.0
 10
5388.702532780971
 20
-1846.199170690067
 30
0.0
 10
5388.77838797621
 20
-1846.16486435399
 30
0.0
 10
5389.124714995247
 20
-1846.072676667678
 30
0.0
 10
5389.702574006898
 20
-1845.797444460918
 30
0.0
 10
5390.850321259192
 20
-1845.455078306047
 30
0.0
 10
5392.0118453116
 20
-1845.159517993996
 30
0.0
 10
5393.381037000693
 20
-1844.928494779001
 30
0.0
 10
5394.505343375707
 20
-1844.850634980019
 30
0.0
 10
5395.416689511647
 20
-1844.859389332087
 30
0.0
 10
5395.816122742512
 20
-1844.849629862133
 30
0.0
 10
5395.896590366892
 20
-1844.847438926899
 30
0.0
  0
LINE
  5
6674D
330
37
100
AcDbEntity
  8
L1
100
AcDbLine
 10
5397.358666804464
 20
-1844.847438926899
 30
0.0
 11
5395.8965903669
 21
-1844.847438926899
 31
0.0
  0
SPLINE
  5
6674E
330
37
100
AcDbEntity
  8
L1
100
AcDbSpline
210
0.0
220
0.0
230
1.0
 70
     8
 71
     3
 72
    14
 73
    10
 74
     0
 42
0.000000001
 43
0.0000000001
 40
0.0
 40
0.0
 40
0.0
 40
0.0
 40
1.909772121640408
 40
3.80928580697589
 40
6.197945000371427
 40
8.32612174221504
 40
13.1193189882112
 40
15.36699086149118
 40
17.78167324077025
 40
17.78167324077025
 40
17.78167324077025
 40
17.78167324077025
 10
5381.194056784018
 20
-1844.529130115947
 30
0.0
 10
5381.828748299994
 20
-1844.590506659246
 30
0.0
 10
5383.094722054782
 20
-1844.712930058677
 30
0.0
 10
5385.107910491959
 20
-1845.230218463066
 30
0.0
 10
5387.126819241493
 20
-1845.983804172199
 30
0.0
 10
5389.944161349117
 20
-1847.361641951318
 30
0.0
 10
5392.589546977017
 20
-1848.97911039552
 30
0.0
 10
5395.319336643414
 20
-1850.636641626571
 30
0.0
 10
5396.662848079539
 20
-1851.459050033234
 30
0.0
 10
5397.358666804464
 20
-1851.884984010055
 30
0.0
  0
LINE
  5
6674F
330
37
100
AcDbEntity
  8
L1
100
AcDbLine
 10
5397.358084015146
 20
-1854.224524840335
 30
0.0
 11
5395.082948739451
 21
-1854.218839676254
 31
0.0
  0
LINE
  5
66751
330
37
100
AcDbEntity
  8
L1
100
AcDbLine
 10
5397.358666804464
 20
-1844.534203162052
 30
0.0
 11
5397.358666804464
 21
-1844.847438926899
 31
0.0
  0
LINE
  5
66753
330
37
100
AcDbEntity
  8
L1
100
AcDbLine
 10
5397.358666804468
 20
-1851.884984010055
 30
0.0
 11
5397.35819294384
 21
-1854.22452511253
 31
0.0
  0
LINE
  5
668F1
330
37
100
AcDbEntity
  8
L1
347
13
100
AcDbLine
 10
5426.955828649255
 20
-1846.035972660403
 30
0.0
 11
5428.456390942415
 21
-1844.535410367243
 31
0.0
  0
LINE
  5
668F2
330
37
100
AcDbEntity
  8
L1
347
13
100
AcDbLine
 10
5419.955828649256
 20
-1846.035972660403
 30
0.0
 11
5418.454878535361
 21
-1844.535022546508
 31
0.0
  0
LINE
  5
668F3
330
37
100
AcDbEntity
  8
L1
347
13
100
AcDbLine
 10
5419.955828649256
 20
-1846.035972660403
 30
0.0
 11
5426.955828649255
 21
-1846.035972660403
 31
0.0
  0
LINE
  5
6691E
330
37
100
AcDbEntity
  8
L1
100
AcDbLine
 10
5397.358666804464
 20
-1844.534203162052
 30
0.0
 11
5418.454878535361
 21
-1844.535022546508
 31
0.0
  0
LINE
  5
6691F
330
37
100
AcDbEntity
  8
L1
100
AcDbLine
 10
5428.456390942415
 20
-1844.535410367243
 30
0.0
 11
5442.957372921757
 21
-1844.535971307013
 31
0.0
  0
MTEXT
  5
66964
330
37
100
AcDbEntity
  8
0
100
AcDbMText
 10
5337.359467886769
 20
-1887.17968145954
 30
0.0
 40
2.5
 41
118.4935713232217
 46
0.0
 71
     1
 72
     5
  1
{\fArial|b0|i0|c0|p34;VHM-INOX Hochleistungsbohrer, 3xD ohne IK, Schaftform HB}
 73
     1
 44
1.0
  0
ENDSEC
  0
SECTION
  2
OBJECTS
  0
DICTIONARY
  5
C
330
0
100
AcDbDictionary
281
     1
  3
ACAD_COLOR
350
30
  3
ACAD_DETAILVIEWSTYLE
350
66969
  3
ACAD_GROUP
350
D
  3
ACAD_IMAGE_VARS
350
6692F
  3
ACAD_LAYOUT
350
2F
  3
ACAD_MATERIAL
350
10
  3
ACAD_MLEADERSTYLE
350
40CE0
  3
ACAD_MLINESTYLE
350
2C
  3
ACAD_PLOTSETTINGS
350
2E
  3
ACAD_PLOTSTYLENAME
350
E
  3
ACAD_SCALELIST
350
40CBE
  3
ACAD_SECTIONVIEWSTYLE
350
6696A
  3
ACAD_TABLESTYLE
350
31
  3
ACAD_VISUALSTYLE
350
14
  3
AcadDim
350
349AB
  3
ACDB_RECOMPOSE_DATA
350
6696D
  3
AcDbVariableDictionary
350
25CB
  3
APPDATA
350
6692D
  0
DICTIONARY
  5
42A1
330
8
100
AcDbDictionary
280
     1
281
     1
  0
SUN
  5
6692E
330
1900E
100
AcDbSun
 90
        1
290
     0
 63
     7
421
 16777215
 40
1.0
291
     1
 91
  2455826
 92
 54000000
292
     0
 70
     2
 71
   256
280
     1
  0
DICTIONARY
  5
1EF
330
2
100
AcDbDictionary
280
     1
281
     1
  3
ACAD_LAYERFILTERS
360
582C3
  3
ACAD_LAYERSTATES
360
1F0
  3
ACLYDICTIONARY
360
582C2
  0
DICTIONARY
  5
41645
330
25
100
AcDbDictionary
280
     1
281
     1
  3
ADSK_XREC_LAYER_RECONCILED
360
41646
  0
DICTIONARY
  5
4164B
330
1E3
100
AcDbDictionary
280
     1
281
     1
  3
ADSK_XREC_LAYER_RECONCILED
360
4164C
  0
DICTIONARY
  5
4164F
330
1E5
100
AcDbDictionary
280
     1
281
     1
  3
ADSK_XREC_LAYER_RECONCILED
360
41650
  0
DICTIONARY
  5
41655
330
1E8
100
AcDbDictionary
280
     1
281
     1
  3
ADSK_XREC_LAYER_RECONCILED
360
41656
  0
DICTIONARY
  5
4165B
330
960B
100
AcDbDictionary
280
     1
281
     1
  3
ADSK_XREC_LAYER_RECONCILED
360
4165C
  0
DICTIONARY
  5
2CB05
330
2CB04
100
AcDbDictionary
280
     1
281
     1
  3
ADSK_XREC_LAYER_RECONCILED
360
2CB06
  0
DICTIONARY
  5
25C1
330
37
100
AcDbDictionary
280
     1
281
     1
  3
ACAD_SORTENTS
360
25C2
  0
DICTIONARY
  5
6392C
330
6391F
100
AcDbDictionary
280
     1
281
     1
  3
ACAD_DIMASSOC
360
63936
  0
DICTIONARY
  5
30
102
{ACAD_REACTORS
330
C
102
}
330
C
100
AcDbDictionary
281
     1
  0
DICTIONARY
  5
66969
102
{ACAD_REACTORS
330
C
102
}
330
C
100
AcDbDictionary
281
     1
  0
DICTIONARY
  5
D
102
{ACAD_REACTORS
330
C
102
}
330
C
100
AcDbDictionary
281
     1
  0
RASTERVARIABLES
  5
6692F
102
{ACAD_REACTORS
330
C
102
}
330
C
100
AcDbRasterVariables
 90
        0
 70
     1
 71
     1
 72
     1
  0
DICTIONARY
  5
2F
102
{ACAD_REACTORS
330
C
102
}
330
C
100
AcDbDictionary
281
     1
  3
Model
350
3A
  3
Sheet1
350
36
  3
Sheet2
350
3E
  0
DICTIONARY
  5
10
102
{ACAD_REACTORS
330
C
102
}
330
C
100
AcDbDictionary
281
     1
  3
ByBlock
350
12
  3
ByLayer
350
11
  3
Global
350
13
  0
DICTIONARY
  5
40CE0
102
{ACAD_REACTORS
330
C
102
}
330
C
100
AcDbDictionary
281
     1
  3
Standard
350
40CE1
  0
DICTIONARY
  5
2C
102
{ACAD_REACTORS
330
C
102
}
330
C
100
AcDbDictionary
281
     1
  3
Standard
350
2D
  0
DICTIONARY
  5
2E
102
{ACAD_REACTORS
330
C
102
}
330
C
100
AcDbDictionary
281
     1
  0
ACDBDICTIONARYWDFLT
  5
E
102
{ACAD_REACTORS
330
C
102
}
330
C
100
AcDbDictionary
281
     1
  3
Normal
350
F
100
AcDbDictionaryWithDefault
340
F
  0
DICTIONARY
  5
40CBE
102
{ACAD_REACTORS
330
C
102
}
330
C
100
AcDbDictionary
281
     1
  3
A0
350
40CBF
  3
A1
350
40CC0
  3
A2
350
40CC1
  3
A3
350
40CC2
  3
A4
350
40CC3
  3
A5
350
40CC4
  3
A6
350
40CC5
  3
A7
350
40CC6
  3
A8
350
40CC7
  3
A9
350
40CC8
  3
B0
350
40CC9
  3
B1
350
40CCA
  3
B2
350
40CCB
  3
B3
350
40CCC
  3
B4
350
40CCD
  3
B5
350
40CCE
  3
B6
350
40CCF
  3
B7
350
40CD0
  3
B8
350
40CD1
  3
B9
350
40CD2
  3
C0
350
40CD3
  3
C1
350
40CD4
  3
C2
350
40CD5
  3
C3
350
40CD6
  3
C4
350
40CD7
  3
C5
350
40CD8
  3
C6
350
40CD9
  3
C7
350
40CDA
  3
C8
350
40CDB
  3
C9
350
40CDC
  3
D0
350
40CDD
  3
D1
350
40CDE
  3
D2
350
40CDF
  0
DICTIONARY
  5
6696A
102
{ACAD_REACTORS
330
C
102
}
330
C
100
AcDbDictionary
281
     1
  0
DICTIONARY
  5
31
102
{ACAD_REACTORS
330
C
102
}
330
C
100
AcDbDictionary
281
     1
  3
Standard
350
32
  0
DICTIONARY
  5
14
102
{ACAD_REACTORS
330
C
102
}
330
C
100
AcDbDictionary
281
     1
  3
2dWireframe
350
1A
  3
3D Hidden
350
1C
  3
3dWireframe
350
1B
  3
Basic
350
19
  3
Brighten
350
20
  3
ColorChange
350
24
  3
Conceptual
350
1D
  3
Dim
350
1F
  3
EdgeColorOff
350
66927
  3
Facepattern
350
23
  3
Flat
350
15
  3
FlatWithEdges
350
16
  3
Gouraud
350
17
  3
GouraudWithEdges
350
18
  3
Hidden
350
66924
  3
JitterOff
350
66925
  3
Linepattern
350
22
  3
OverhangOff
350
66926
  3
Realistic
350
1E
  3
Shaded
350
6692C
  3
Shaded with edges
350
6692B
  3
Shades of Gray
350
66928
  3
Sketchy
350
66929
  3
Thicken
350
21
  3
Wireframe
350
66923
  3
X-Ray
350
6692A
  0
XRECORD
  5
349AB
102
{ACAD_REACTORS
330
C
102
}
330
C
100
AcDbXrecord
280
     1
 90
   990106
  3

 60
     0
 61
     0
 62
     1
 63
     3
 64
     0
 65
     0
 66
     0
 67
     3
 68
     1
 69
     0
 70
     0
 71
     0
 72
     0
 40
0.0
170
     0
340
708E
  0
XRECORD
  5
6696D
102
{ACAD_REACTORS
330
C
102
}
330
C
100
AcDbXrecord
280
     1
 90
        1
330
32
  0
DICTIONARY
  5
25CB
102
{ACAD_REACTORS
330
C
102
}
330
C
100
AcDbDictionary
281
     1
  3
CANNOSCALE
350
418C4
  3
CMLEADERSTYLE
350
418C2
  3
CTABLESTYLE
350
25CC
  3
LIGHTINGUNITS
350
418C5
  3
MSLTSCALE
350
418C3
  3
XCLIPFRAME
350
66968
  0
DICTIONARY
  5
6692D
102
{ACAD_REACTORS
330
C
102
}
330
C
100
AcDbDictionary
281
     1
  0
DICTIONARY
  5
582C3
102
{ACAD_REACTORS
330
1EF
102
}
330
1EF
100
AcDbDictionary
281
     1
  0
DICTIONARY
  5
1F0
102
{ACAD_REACTORS
330
1EF
102
}
330
1EF
100
AcDbDictionary
281
     1
  0
DICTIONARY
  5
582C2
102
{ACAD_REACTORS
330
1EF
102
}
330
1EF
100
AcDbDictionary
281
     1
1001
ACAD
1000
<All
  0
XRECORD
  5
41646
102
{ACAD_REACTORS
330
41645
102
}
330
41645
100
AcDbXrecord
280
     1
290
     1
  0
XRECORD
  5
4164C
102
{ACAD_REACTORS
330
4164B
102
}
330
4164B
100
AcDbXrecord
280
     1
290
     1
  0
XRECORD
  5
41650
102
{ACAD_REACTORS
330
4164F
102
}
330
4164F
100
AcDbXrecord
280
     1
290
     1
  0
XRECORD
  5
41656
102
{ACAD_REACTORS
330
41655
102
}
330
41655
100
AcDbXrecord
280
     1
290
     1
  0
XRECORD
  5
4165C
102
{ACAD_REACTORS
330
4165B
102
}
330
4165B
100
AcDbXrecord
280
     1
290
     1
  0
XRECORD
  5
2CB06
102
{ACAD_REACTORS
330
2CB05
102
}
330
2CB05
100
AcDbXrecord
280
     1
290
     1
  0
SORTENTSTABLE
  5
25C2
102
{ACAD_REACTORS
330
25C1
102
}
330
25C1
100
AcDbSortentsTable
330
37
331
2680
  5
27D2
331
300E
  5
31B6
331
37B2
  5
385A
331
708E
  5
708E
331
588CC
  5
588CF
331
58AF1
  5
58AF1
331
58C17
  5
58C17
331
58F9C
  5
58F9C
331
590C7
  5
590C7
331
590C8
  5
590C8
331
590C9
  5
590C9
331
590CA
  5
590CA
331
590CB
  5
590CB
331
590CC
  5
590CC
331
6389B
  5
6390C
331
6390C
  5
63910
331
63910
  5
63918
331
63918
  5
6391A
331
63919
  5
6391B
331
6391A
  5
6391C
331
6391B
  5
6391E
331
6391E
  5
6394B
331
6391F
  5
6394C
331
63A1E
  5
63A1E
331
63A65
  5
63A65
331
66732
  5
66732
331
66733
  5
66733
331
66734
  5
66734
331
66735
  5
66735
331
66736
  5
66736
331
66737
  5
66737
331
66738
  5
66738
331
66739
  5
66739
331
6673A
  5
6673A
331
6673B
  5
6673B
331
6673C
  5
6673C
331
6673D
  5
6673D
331
6673E
  5
6673E
331
6673F
  5
6673F
331
66740
  5
66740
331
66741
  5
66741
331
66742
  5
66742
331
66743
  5
66743
331
66744
  5
66744
331
66745
  5
66745
331
66746
  5
66746
331
66747
  5
66747
331
66748
  5
66748
331
66749
  5
66749
331
6674A
  5
6674A
331
6674B
  5
6674B
331
6674C
  5
6674C
331
6674D
  5
6674D
331
6674E
  5
6674E
331
6674F
  5
6674F
331
66751
  5
66751
331
66753
  5
66753
  0
DIMASSOC
  5
63936
102
{ACAD_REACTORS
330
6392C
102
}
330
6392C
100
AcDbDimAssoc
330
6391F
 90
        1
 70
     0
 71
     0
  1
AcDbOsnapPointRef
 72
     6
331
6391E
 73
     2
 91
        0
 40
0.9999999999999495
 10
0.0
 20
0.0
 30
0.0
332
6391A
 74
     2
 92
        0
 75
     0
  0
LAYOUT
  5
3A
102
{ACAD_REACTORS
330
2F
102
}
330
2F
100
AcDbPlotSettings
  1

  2
Canon iR2520 UFRII LT
  4
A4
  6

 40
5.873749732971191
 41
5.873747825622557
 42
5.873748779296875
 43
5.873748779296875
 44
209.9733276367186
 45
296.9259948730469
 46
6.206330631668148
 47
0.0000000000000059
 48
5017.433781574021
 49
-1420.118612969112
140
5204.433781574021
141
-1133.118612969112
142
1.0
143
1.006387233760377
 70
 11956
 72
     1
 73
     0
 74
     4
  7
monochrome.ctb
 75
     0
 76
     0
 77
     2
 78
   300
147
0.9936533040701304
148
-5017.433781574021
149
1420.118612969112
100
AcDbLayout
  1
Model
 70
     1
 71
     0
 10
0.0
 20
0.0
 11
12.0
 21
9.0
 12
0.0
 22
0.0
 32
0.0
 14
-0.0000000000027285
 24
-1891.649683832064
 34
0.0
 15
5456.123370110049
 25
3.401747982837605
 35
0.0
146
0.0
 13
0.0
 23
0.0
 33
0.0
 16
1.0
 26
0.0
 36
0.0
 17
0.0
 27
1.0
 37
0.0
 76
     0
330
37
331
1900E
1001
ACAD_PSEXT
1000
Canon iR2520 UFRII LT
1000
Canon iR2520 UFRII LT
1000
IP_10.30.31.251
1000

1070
     0
  0
LAYOUT
  5
36
102
{ACAD_REACTORS
330
2F
102
}
330
2F
100
AcDbPlotSettings
  1

  2
发送至 OneNote 2007
  4

  6

 40
0.0
 41
0.0
 42
0.0
 43
0.0
 44
0.0
 45
0.0
 46
0.0
 47
0.0
 48
0.0
 49
0.0
140
0.0
141
0.0
142
1.0
143
1.0
 70
   688
 72
     0
 73
     0
 74
     5
  7
monochrome.ctb
 75
    16
 76
     0
 77
     2
 78
   300
147
1.0
148
0.0
149
0.0
100
AcDbLayout
  1
Sheet1
 70
     1
 71
     1
 10
0.0
 20
0.0
 11
420.0
 21
297.0
 12
0.0
 22
0.0
 32
0.0
 14
1.000000000000000E+20
 24
1.000000000000000E+20
 34
1.000000000000000E+20
 15
-1.000000000000000E+20
 25
-1.000000000000000E+20
 35
-1.000000000000000E+20
146
0.0
 13
0.0
 23
0.0
 33
0.0
 16
1.0
 26
0.0
 36
0.0
 17
0.0
 27
1.0
 37
0.0
 76
     0
330
33
  0
LAYOUT
  5
3E
102
{ACAD_REACTORS
330
2F
102
}
330
2F
100
AcDbPlotSettings
  1

  2
发送至 OneNote 2007
  4

  6

 40
0.0
 41
0.0
 42
0.0
 43
0.0
 44
0.0
 45
0.0
 46
0.0
 47
0.0
 48
0.0
 49
0.0
140
0.0
141
0.0
142
1.0
143
1.0
 70
   688
 72
     0
 73
     0
 74
     5
  7
monochrome.ctb
 75
    16
 76
     0
 77
     2
 78
   300
147
1.0
148
0.0
149
0.0
100
AcDbLayout
  1
Sheet2
 70
     1
 71
     2
 10
0.0
 20
0.0
 11
12.0
 21
9.0
 12
0.0
 22
0.0
 32
0.0
 14
0.0
 24
0.0
 34
0.0
 15
0.0
 25
0.0
 35
0.0
146
0.0
 13
0.0
 23
0.0
 33
0.0
 16
1.0
 26
0.0
 36
0.0
 17
0.0
 27
1.0
 37
0.0
 76
     0
330
3B
  0
MATERIAL
  5
12
102
{ACAD_REACTORS
330
10
102
}
102
{ACAD_XDICTIONARY
360
667ED
102
}
330
10
100
AcDbMaterial
  1
ByBlock
 72
     1
 94
      127
  0
MATERIAL
  5
11
102
{ACAD_REACTORS
330
10
102
}
102
{ACAD_XDICTIONARY
360
667EB
102
}
330
10
100
AcDbMaterial
  1
ByLayer
 72
     1
 94
      127
  0
MATERIAL
  5
13
102
{ACAD_REACTORS
330
10
102
}
102
{ACAD_XDICTIONARY
360
667EF
102
}
330
10
100
AcDbMaterial
  1
Global
 72
     1
 94
      127
  0
MLEADERSTYLE
  5
40CE1
102
{ACAD_REACTORS
330
40CE0
102
}
330
40CE0
100
AcDbMLeaderStyle
179
     2
170
     2
171
     1
172
     0
 90
        2
 40
0.0
 41
0.0
173
     1
 91
-1056964608
340
29
 92
       -2
290
     1
 42
2.0
291
     1
 43
0.36
  3
Standard
341
0
 44
4.0
300

342
26
174
     1
178
     6
175
     1
176
     0
 93
-1056964608
 45
4.0
292
     0
297
     0
 46
4.0
343
0
 94
-1056964608
 47
1.0
 49
1.0
140
1.0
293
     1
141
0.0
294
     1
177
     0
142
1.0
295
     0
296
     0
143
0.125
271
     0
272
     9
273
     9
298
     0
  0
MLINESTYLE
  5
2D
102
{ACAD_REACTORS
330
2C
102
}
330
2C
100
AcDbMlineStyle
  2
STANDARD
 70
     0
  3

 62
   256
 51
90.0
 52
90.0
 71
     2
 49
0.5
 62
   256
  6
BYLAYER
 49
-0.5
 62
   256
  6
BYLAYER
  0
ACDBPLACEHOLDER
  5
F
102
{ACAD_REACTORS
330
E
102
}
330
E
  0
SCALE
  5
40CBF
102
{ACAD_REACTORS
330
40CBE
102
}
330
40CBE
100
AcDbScale
 70
     0
300
1:1
140
1.0
141
1.0
290
     1
  0
SCALE
  5
40CC0
102
{ACAD_REACTORS
330
40CBE
102
}
330
40CBE
100
AcDbScale
 70
     0
300
1:2
140
1.0
141
2.0
290
     0
  0
SCALE
  5
40CC1
102
{ACAD_REACTORS
330
40CBE
102
}
330
40CBE
100
AcDbScale
 70
     0
300
1:4
140
1.0
141
4.0
290
     0
  0
SCALE
  5
40CC2
102
{ACAD_REACTORS
330
40CBE
102
}
330
40CBE
100
AcDbScale
 70
     0
300
1:5
140
1.0
141
5.0
290
     0
  0
SCALE
  5
40CC3
102
{ACAD_REACTORS
330
40CBE
102
}
330
40CBE
100
AcDbScale
 70
     0
300
1:8
140
1.0
141
8.0
290
     0
  0
SCALE
  5
40CC4
102
{ACAD_REACTORS
330
40CBE
102
}
330
40CBE
100
AcDbScale
 70
     0
300
1:10
140
1.0
141
10.0
290
     0
  0
SCALE
  5
40CC5
102
{ACAD_REACTORS
330
40CBE
102
}
330
40CBE
100
AcDbScale
 70
     0
300
1:16
140
1.0
141
16.0
290
     0
  0
SCALE
  5
40CC6
102
{ACAD_REACTORS
330
40CBE
102
}
330
40CBE
100
AcDbScale
 70
     0
300
1:20
140
1.0
141
20.0
290
     0
  0
SCALE
  5
40CC7
102
{ACAD_REACTORS
330
40CBE
102
}
330
40CBE
100
AcDbScale
 70
     0
300
1:30
140
1.0
141
30.0
290
     0
  0
SCALE
  5
40CC8
102
{ACAD_REACTORS
330
40CBE
102
}
330
40CBE
100
AcDbScale
 70
     0
300
1:40
140
1.0
141
40.0
290
     0
  0
SCALE
  5
40CC9
102
{ACAD_REACTORS
330
40CBE
102
}
330
40CBE
100
AcDbScale
 70
     0
300
1:50
140
1.0
141
50.0
290
     0
  0
SCALE
  5
40CCA
102
{ACAD_REACTORS
330
40CBE
102
}
330
40CBE
100
AcDbScale
 70
     0
300
1:100
140
1.0
141
100.0
290
     0
  0
SCALE
  5
40CCB
102
{ACAD_REACTORS
330
40CBE
102
}
330
40CBE
100
AcDbScale
 70
     0
300
2:1
140
2.0
141
1.0
290
     0
  0
SCALE
  5
40CCC
102
{ACAD_REACTORS
330
40CBE
102
}
330
40CBE
100
AcDbScale
 70
     0
300
4:1
140
4.0
141
1.0
290
     0
  0
SCALE
  5
40CCD
102
{ACAD_REACTORS
330
40CBE
102
}
330
40CBE
100
AcDbScale
 70
     0
300
8:1
140
8.0
141
1.0
290
     0
  0
SCALE
  5
40CCE
102
{ACAD_REACTORS
330
40CBE
102
}
330
40CBE
100
AcDbScale
 70
     0
300
10:1
140
10.0
141
1.0
290
     0
  0
SCALE
  5
40CCF
102
{ACAD_REACTORS
330
40CBE
102
}
330
40CBE
100
AcDbScale
 70
     0
300
100:1
140
100.0
141
1.0
290
     0
  0
SCALE
  5
40CD0
102
{ACAD_REACTORS
330
40CBE
102
}
330
40CBE
100
AcDbScale
 70
     0
300
1/128" = 1'-0"
140
0.0078125
141
12.0
290
     0
  0
SCALE
  5
40CD1
102
{ACAD_REACTORS
330
40CBE
102
}
330
40CBE
100
AcDbScale
 70
     0
300
1/64" = 1'-0"
140
0.015625
141
12.0
290
     0
  0
SCALE
  5
40CD2
102
{ACAD_REACTORS
330
40CBE
102
}
330
40CBE
100
AcDbScale
 70
     0
300
1/32" = 1'-0"
140
0.03125
141
12.0
290
     0
  0
SCALE
  5
40CD3
102
{ACAD_REACTORS
330
40CBE
102
}
330
40CBE
100
AcDbScale
 70
     0
300
1/16" = 1'-0"
140
0.0625
141
12.0
290
     0
  0
SCALE
  5
40CD4
102
{ACAD_REACTORS
330
40CBE
102
}
330
40CBE
100
AcDbScale
 70
     0
300
3/32" = 1'-0"
140
0.09375
141
12.0
290
     0
  0
SCALE
  5
40CD5
102
{ACAD_REACTORS
330
40CBE
102
}
330
40CBE
100
AcDbScale
 70
     0
300
1/8" = 1'-0"
140
0.125
141
12.0
290
     0
  0
SCALE
  5
40CD6
102
{ACAD_REACTORS
330
40CBE
102
}
330
40CBE
100
AcDbScale
 70
     0
300
3/16" = 1'-0"
140
0.1875
141
12.0
290
     0
  0
SCALE
  5
40CD7
102
{ACAD_REACTORS
330
40CBE
102
}
330
40CBE
100
AcDbScale
 70
     0
300
1/4" = 1'-0"
140
0.25
141
12.0
290
     0
  0
SCALE
  5
40CD8
102
{ACAD_REACTORS
330
40CBE
102
}
330
40CBE
100
AcDbScale
 70
     0
300
3/8" = 1'-0"
140
0.375
141
12.0
290
     0
  0
SCALE
  5
40CD9
102
{ACAD_REACTORS
330
40CBE
102
}
330
40CBE
100
AcDbScale
 70
     0
300
1/2" = 1'-0"
140
0.5
141
12.0
290
     0
  0
SCALE
  5
40CDA
102
{ACAD_REACTORS
330
40CBE
102
}
330
40CBE
100
AcDbScale
 70
     0
300
3/4" = 1'-0"
140
0.75
141
12.0
290
     0
  0
SCALE
  5
40CDB
102
{ACAD_REACTORS
330
40CBE
102
}
330
40CBE
100
AcDbScale
 70
     0
300
1" = 1'-0"
140
1.0
141
12.0
290
     0
  0
SCALE
  5
40CDC
102
{ACAD_REACTORS
330
40CBE
102
}
330
40CBE
100
AcDbScale
 70
     0
300
1-1/2" = 1'-0"
140
1.5
141
12.0
290
     0
  0
SCALE
  5
40CDD
102
{ACAD_REACTORS
330
40CBE
102
}
330
40CBE
100
AcDbScale
 70
     0
300
3" = 1'-0"
140
3.0
141
12.0
290
     0
  0
SCALE
  5
40CDE
102
{ACAD_REACTORS
330
40CBE
102
}
330
40CBE
100
AcDbScale
 70
     0
300
6" = 1'-0"
140
6.0
141
12.0
290
     0
  0
SCALE
  5
40CDF
102
{ACAD_REACTORS
330
40CBE
102
}
330
40CBE
100
AcDbScale
 70
     0
300
1'-0" = 1'-0"
140
12.0
141
12.0
290
     0
  0
TABLESTYLE
  5
32
102
{ACAD_REACTORS
330
31
102
}
102
{ACAD_XDICTIONARY
360
6696B
102
}
330
31
100
AcDbTableStyle
  3
Standard
 70
     0
 71
     0
 40
1.5
 41
1.5
280
     0
281
     0
  7
Standard
140
4.5
170
     2
 62
     0
 63
   257
283
     0
 90
      512
 91
        0
  1

274
    -2
284
     1
 64
     0
275
    -2
285
     1
 65
     0
276
    -2
286
     1
 66
     0
277
    -2
287
     1
 67
     0
278
    -2
288
     1
 68
     0
279
    -2
289
     1
 69
     0
  7
Standard
140
6.0
170
     5
 62
     0
 63
   257
283
     0
 90
      512
 91
        0
  1

274
    -2
284
     1
 64
     0
275
    -2
285
     1
 65
     0
276
    -2
286
     1
 66
     0
277
    -2
287
     1
 67
     0
278
    -2
288
     1
 68
     0
279
    -2
289
     1
 69
     0
  7
Standard
140
4.5
170
     5
 62
     0
 63
   257
283
     0
 90
      512
 91
        0
  1

274
    -2
284
     1
 64
     0
275
    -2
285
     1
 65
     0
276
    -2
286
     1
 66
     0
277
    -2
287
     1
 67
     0
278
    -2
288
     1
 68
     0
279
    -2
289
     1
 69
     0
  0
VISUALSTYLE
  5
1A
102
{ACAD_REACTORS
330
14
102
}
330
14
100
AcDbVisualStyle
  2
2dWireframe
 70
     4
177
     3
291
     0
 70
    58
 90
        0
176
     1
 90
        2
176
     1
 90
        0
176
     1
 90
        0
176
     1
 40
-0.6
176
     1
 40
-30.0
176
     1
 62
     7
420
 16777215
176
     1
 90
        1
176
     1
 90
        4
176
     1
 62
     7
176
     1
 62
   257
176
     1
 90
        1
176
     1
 90
        1
176
     1
 40
1.0
176
     1
 90
        0
176
     1
 62
   257
176
     1
 40
1.0
176
     1
 90
        1
176
     1
 90
        6
176
     1
 90
        2
176
     1
 62
     7
176
     1
 90
        5
176
     1
 90
        0
176
     1
 90
        0
176
     1
290
     0
176
     1
 90
        1
176
     1
 40
0.0
176
     1
 90
        0
176
     1
290
     1
176
     1
290
     1
176
     1
290
     0
176
     1
290
     0
176
     1
290
     0
176
     1
290
     0
176
     1
290
     0
176
     1
290
     0
176
     1
290
     0
176
     1
 90
       50
176
     1
 40
0.0
176
     1
 40
1.0
176
     1
 90
        0
176
     1
 62
    18
420
        0
176
     1
 90
       50
176
     1
 90
        3
176
     1
 62
     5
420
      255
176
     1
290
     0
176
     1
 90
       50
176
     1
 90
       50
176
     1
 90
       50
176
     1
290
     0
176
     1
 90
       50
176
     1
 62
   256
176
     0
 40
1.0
176
     0
 90
        2
176
     1
  1
strokes_ogs.tif
176
     1
290
     0
176
     1
 40
1.0
176
     1
 40
1.0
176
     1
  0
VISUALSTYLE
  5
1C
102
{ACAD_REACTORS
330
14
102
}
330
14
100
AcDbVisualStyle
  2
3D Hidden
 70
     6
177
     3
291
     0
 70
    58
 90
        1
176
     1
 90
        2
176
     1
 90
        2
176
     1
 90
        0
176
     1
 40
-0.6
176
     1
 40
-30.0
176
     1
 62
     7
420
 16777215
176
     1
 90
        2
176
     1
 90
        2
176
     1
 62
     7
176
     1
 62
   257
176
     1
 90
        2
176
     1
 90
        1
176
     1
 40
40.0
176
     1
 90
        0
176
     1
 62
   257
176
     1
 40
1.0
176
     1
 90
        1
176
     1
 90
        6
176
     1
 90
        2
176
     1
 62
     7
176
     1
 90
        3
176
     1
 90
        0
176
     1
 90
        0
176
     1
290
     0
176
     1
 90
        1
176
     1
 40
0.0
176
     1
 90
        0
176
     1
290
     0
176
     1
290
     1
176
     1
290
     1
176
     1
290
     0
176
     1
290
     0
176
     1
290
     0
176
     1
290
     0
176
     1
290
     0
176
     1
290
     0
176
     1
 90
       50
176
     1
 40
0.0
176
     1
 40
1.0
176
     1
 90
        0
176
     1
 62
    18
420
        0
176
     1
 90
       50
176
     1
 90
        3
176
     1
 62
     5
420
      255
176
     1
290
     0
176
     1
 90
       50
176
     1
 90
       50
176
     1
 90
       50
176
     1
290
     0
176
     1
 90
       50
176
     1
 62
   256
176
     0
 40
1.0
176
     0
 90
        2
176
     1
  1
strokes_ogs.tif
176
     1
290
     0
176
     1
 40
1.0
176
     1
 40
1.0
176
     1
  0
VISUALSTYLE
  5
1B
102
{ACAD_REACTORS
330
14
102
}
330
14
100
AcDbVisualStyle
  2
3dWireframe
 70
     5
177
     3
291
     0
 70
    58
 90
        0
176
     1
 90
        2
176
     1
 90
        0
176
     1
 90
        0
176
     1
 40
-0.6
176
     1
 40
-30.0
176
     1
 62
     7
420
 16777215
176
     1
 90
        1
176
     1
 90
        4
176
     1
 62
     7
176
     1
 62
   257
176
     1
 90
        1
176
     1
 90
        1
176
     1
 40
1.0
176
     1
 90
        0
176
     1
 62
   257
176
     1
 40
1.0
176
     1
 90
        1
176
     1
 90
        6
176
     1
 90
        2
176
     1
 62
     7
176
     1
 90
        5
176
     1
 90
        0
176
     1
 90
        0
176
     1
290
     0
176
     1
 90
        1
176
     1
 40
0.0
176
     1
 90
        0
176
     1
290
     0
176
     1
290
     1
176
     1
290
     1
176
     1
290
     0
176
     1
290
     0
176
     1
290
     0
176
     1
290
     0
176
     1
290
     0
176
     1
290
     0
176
     1
 90
       50
176
     1
 40
0.0
176
     1
 40
1.0
176
     1
 90
        0
176
     1
 62
    18
420
        0
176
     1
 90
       50
176
     1
 90
        3
176
     1
 62
     5
420
      255
176
     1
290
     0
176
     1
 90
       50
176
     1
 90
       50
176
     1
 90
       50
176
     1
290
     0
176
     1
 90
       50
176
     1
 62
   256
176
     0
 40
1.0
176
     0
 90
        2
176
     1
  1
strokes_ogs.tif
176
     1
290
     0
176
     1
 40
1.0
176
     1
 40
1.0
176
     1
  0
VISUALSTYLE
  5
19
102
{ACAD_REACTORS
330
14
102
}
330
14
100
AcDbVisualStyle
  2
Basic
 70
     7
177
     3
291
     1
 70
    58
 90
        1
176
     1
 90
        0
176
     1
 90
        1
176
     1
 90
        0
176
     1
 40
-0.6
176
     1
 40
-30.0
176
     1
 62
     7
420
 16777215
176
     1
 90
        0
176
     1
 90
        4
176
     1
 62
     7
176
     1
 62
   257
176
     1
 90
        1
176
     1
 90
        1
176
     1
 40
1.0
176
     1
 90
        8
176
     1
 62
     7
176
     1
 40
1.0
176
     1
 90
        1
176
     1
 90
        6
176
     1
 90
        2
176
     1
 62
     7
176
     1
 90
        5
176
     1
 90
        0
176
     1
 90
        0
176
     1
290
     0
176
     1
 90
        1
176
     1
 40
0.0
176
     1
 90
        0
176
     1
290
     0
176
     1
290
     1
176
     1
290
     1
176
     1
290
     0
176
     1
290
     0
176
     1
290
     0
176
     1
290
     0
176
     1
290
     0
176
     1
290
     0
176
     1
 90
       50
176
     1
 40
0.0
176
     1
 40
1.0
176
     1
 90
        0
176
     1
 62
    18
420
        0
176
     1
 90
       50
176
     1
 90
        3
176
     1
 62
     5
420
      255
176
     1
290
     0
176
     1
 90
       50
176
     1
 90
       50
176
     1
 90
       50
176
     1
290
     0
176
     1
 90
       50
176
     1
 62
   256
176
     0
 40
1.0
176
     0
 90
        2
176
     1
  1
strokes_ogs.tif
176
     1
290
     0
176
     1
 40
1.0
176
     1
 40
1.0
176
     1
  0
VISUALSTYLE
  5
20
102
{ACAD_REACTORS
330
14
102
}
330
14
100
AcDbVisualStyle
  2
Brighten
 70
    12
177
     3
291
     1
 70
    58
 90
        2
176
     1
 90
        2
176
     1
 90
        0
176
     1
 90
        0
176
     1
 40
-0.6
176
     1
 40
-30.0
176
     1
 62
     7
420
 16777215
176
     1
 90
        1
176
     1
 90
        4
176
     1
 62
     7
176
     1
 62
   257
176
     1
 90
        1
176
     1
 90
        1
176
     1
 40
1.0
176
     1
 90
        8
176
     1
 62
     7
176
     1
 40
1.0
176
     1
 90
        1
176
     1
 90
        6
176
     1
 90
        2
176
     1
 62
     7
176
     1
 90
        5
176
     1
 90
        0
176
     1
 90
        0
176
     1
290
     0
176
     1
 90
        1
176
     1
 40
50.0
176
     1
 90
        0
176
     1
290
     0
176
     1
290
     1
176
     1
290
     1
176
     1
290
     0
176
     1
290
     0
176
     1
290
     0
176
     1
290
     0
176
     1
290
     0
176
     1
290
     0
176
     1
 90
       50
176
     1
 40
0.0
176
     1
 40
1.0
176
     1
 90
        0
176
     1
 62
    18
420
        0
176
     1
 90
       50
176
     1
 90
        3
176
     1
 62
     5
420
      255
176
     1
290
     0
176
     1
 90
       50
176
     1
 90
       50
176
     1
 90
       50
176
     1
290
     0
176
     1
 90
       50
176
     1
 62
   256
176
     0
 40
1.0
176
     0
 90
        2
176
     1
  1
strokes_ogs.tif
176
     1
290
     0
176
     1
 40
1.0
176
     1
 40
1.0
176
     1
  0
VISUALSTYLE
  5
24
102
{ACAD_REACTORS
330
14
102
}
330
14
100
AcDbVisualStyle
  2
ColorChange
 70
    16
177
     3
291
     1
 70
    58
 90
        2
176
     1
 90
        2
176
     1
 90
        3
176
     1
 90
        0
176
     1
 40
-0.6
176
     1
 40
-30.0
176
     1
 62
     8
420
  8421504
176
     1
 90
        1
176
     1
 90
        4
176
     1
 62
     7
176
     1
 62
   257
176
     1
 90
        1
176
     1
 90
        1
176
     1
 40
1.0
176
     1
 90
        8
176
     1
 62
     8
420
  8421504
176
     1
 40
1.0
176
     1
 90
        1
176
     1
 90
        6
176
     1
 90
        2
176
     1
 62
     7
176
     1
 90
        5
176
     1
 90
        0
176
     1
 90
        0
176
     1
290
     0
176
     1
 90
        1
176
     1
 40
0.0
176
     1
 90
        0
176
     1
290
     0
176
     1
290
     1
176
     1
290
     1
176
     1
290
     0
176
     1
290
     0
176
     1
290
     0
176
     1
290
     0
176
     1
290
     0
176
     1
290
     0
176
     1
 90
       50
176
     1
 40
0.0
176
     1
 40
1.0
176
     1
 90
        0
176
     1
 62
    18
420
        0
176
     1
 90
       50
176
     1
 90
        3
176
     1
 62
     5
420
      255
176
     1
290
     0
176
     1
 90
       50
176
     1
 90
       50
176
     1
 90
       50
176
     1
290
     0
176
     1
 90
       50
176
     1
 62
   256
176
     0
 40
1.0
176
     0
 90
        2
176
     1
  1
strokes_ogs.tif
176
     1
290
     0
176
     1
 40
1.0
176
     1
 40
1.0
176
     1
  0
VISUALSTYLE
  5
1D
102
{ACAD_REACTORS
330
14
102
}
330
14
100
AcDbVisualStyle
  2
Conceptual
 70
     9
177
     3
291
     0
 70
    58
 90
        3
176
     1
 90
        2
176
     1
 90
        0
176
     1
 90
        0
176
     1
 40
-0.6
176
     1
 40
-30.0
176
     1
 62
     7
420
 16777215
176
     1
 90
        2
176
     1
 90
        2
176
     1
 62
     7
176
     1
 62
   257
176
     1
 90
        1
176
     1
 90
        1
176
     1
 40
40.0
176
     1
 90
        8
176
     1
 62
     7
176
     1
 40
1.0
176
     1
 90
        1
176
     1
 90
        6
176
     1
 90
        2
176
     1
 62
     7
176
     1
 90
        3
176
     1
 90
        0
176
     1
 90
        0
176
     1
290
     0
176
     1
 90
        1
176
     1
 40
0.0
176
     1
 90
        0
176
     1
290
     0
176
     1
290
     1
176
     1
290
     1
176
     1
290
     0
176
     1
290
     0
176
     1
290
     0
176
     1
290
     0
176
     1
290
     0
176
     1
290
     0
176
     1
 90
       50
176
     1
 40
0.0
176
     1
 40
1.0
176
     1
 90
        0
176
     1
 62
    18
420
        0
176
     1
 90
       50
176
     1
 90
        3
176
     1
 62
     5
420
      255
176
     1
290
     0
176
     1
 90
       50
176
     1
 90
       50
176
     1
 90
       50
176
     1
290
     0
176
     1
 90
       50
176
     1
 62
   256
176
     0
 40
1.0
176
     0
 90
        2
176
     1
  1
strokes_ogs.tif
176
     1
290
     0
176
     1
 40
1.0
176
     1
 40
1.0
176
     1
  0
VISUALSTYLE
  5
1F
102
{ACAD_REACTORS
330
14
102
}
330
14
100
AcDbVisualStyle
  2
Dim
 70
    11
177
     3
291
     1
 70
    58
 90
        2
176
     1
 90
        2
176
     1
 90
        0
176
     1
 90
        0
176
     1
 40
-0.6
176
     1
 40
-30.0
176
     1
 62
     7
420
 16777215
176
     1
 90
        1
176
     1
 90
        4
176
     1
 62
     7
176
     1
 62
   257
176
     1
 90
        1
176
     1
 90
        1
176
     1
 40
1.0
176
     1
 90
        8
176
     1
 62
     7
176
     1
 40
1.0
176
     1
 90
        1
176
     1
 90
        6
176
     1
 90
        2
176
     1
 62
     7
176
     1
 90
        5
176
     1
 90
        0
176
     1
 90
        0
176
     1
290
     0
176
     1
 90
        1
176
     1
 40
-50.0
176
     1
 90
        0
176
     1
290
     0
176
     1
290
     1
176
     1
290
     1
176
     1
290
     0
176
     1
290
     0
176
     1
290
     0
176
     1
290
     0
176
     1
290
     0
176
     1
290
     0
176
     1
 90
       50
176
     1
 40
0.0
176
     1
 40
1.0
176
     1
 90
        0
176
     1
 62
    18
420
        0
176
     1
 90
       50
176
     1
 90
        3
176
     1
 62
     5
420
      255
176
     1
290
     0
176
     1
 90
       50
176
     1
 90
       50
176
     1
 90
       50
176
     1
290
     0
176
     1
 90
       50
176
     1
 62
   256
176
     0
 40
1.0
176
     0
 90
        2
176
     1
  1
strokes_ogs.tif
176
     1
290
     0
176
     1
 40
1.0
176
     1
 40
1.0
176
     1
  0
VISUALSTYLE
  5
66927
102
{ACAD_REACTORS
330
14
102
}
330
14
100
AcDbVisualStyle
  2
EdgeColorOff
 70
    22
177
     3
291
     1
 70
    58
 90
        2
176
     0
 90
        2
176
     0
 90
        0
176
     0
 90
        0
176
     0
 40
0.6
176
     0
 40
30.0
176
     0
 62
     7
420
 16777215
176
     0
 90
        1
176
     0
 90
        4
176
     0
 62
     7
176
     0
 62
   257
176
     0
 90
        1
176
     0
 90
        1
176
     0
 40
1.0
176
     0
 90
        8
176
     2
 62
     7
176
     0
 40
1.0
176
     0
 90
        1
176
     0
 90
        6
176
     0
 90
        2
176
     0
 62
     7
176
     0
 90
        5
176
     0
 90
        0
176
     0
 90
        0
176
     0
290
     0
176
     0
 90
        1
176
     0
 40
0.0
176
     0
 90
        0
176
     0
290
     0
176
     0
290
     1
176
     0
290
     1
176
     0
290
     0
176
     0
290
     0
176
     0
290
     0
176
     0
290
     0
176
     0
290
     0
176
     0
290
     0
176
     0
 90
       50
176
     0
 40
0.0
176
     0
 40
1.0
176
     0
 90
        0
176
     0
 62
    18
420
        0
176
     0
 90
       50
176
     0
 90
        3
176
     0
 62
     5
420
      255
176
     0
290
     0
176
     0
 90
       50
176
     0
 90
       50
176
     0
 90
       50
176
     0
290
     0
176
     0
 90
       50
176
     0
 62
   256
176
     0
 40
1.0
176
     0
 90
        2
176
     0
  1
strokes_ogs.tif
176
     0
290
     0
176
     0
 40
1.0
176
     0
 40
1.0
176
     0
  0
VISUALSTYLE
  5
23
102
{ACAD_REACTORS
330
14
102
}
330
14
100
AcDbVisualStyle
  2
Facepattern
 70
    15
177
     3
291
     1
 70
    58
 90
        2
176
     1
 90
        2
176
     1
 90
        0
176
     1
 90
        0
176
     1
 40
-0.6
176
     1
 40
-30.0
176
     1
 62
     7
420
 16777215
176
     1
 90
        1
176
     1
 90
        4
176
     1
 62
     7
176
     1
 62
   257
176
     1
 90
        1
176
     1
 90
        1
176
     1
 40
1.0
176
     1
 90
        8
176
     1
 62
     7
176
     1
 40
1.0
176
     1
 90
        1
176
     1
 90
        6
176
     1
 90
        2
176
     1
 62
     7
176
     1
 90
        5
176
     1
 90
        0
176
     1
 90
        0
176
     1
290
     0
176
     1
 90
        1
176
     1
 40
0.0
176
     1
 90
        0
176
     1
290
     0
176
     1
290
     1
176
     1
290
     1
176
     1
290
     0
176
     1
290
     0
176
     1
290
     0
176
     1
290
     0
176
     1
290
     0
176
     1
290
     0
176
     1
 90
       50
176
     1
 40
0.0
176
     1
 40
1.0
176
     1
 90
        0
176
     1
 62
    18
420
        0
176
     1
 90
       50
176
     1
 90
        3
176
     1
 62
     5
420
      255
176
     1
290
     0
176
     1
 90
       50
176
     1
 90
       50
176
     1
 90
       50
176
     1
290
     0
176
     1
 90
       50
176
     1
 62
   256
176
     0
 40
1.0
176
     0
 90
        2
176
     1
  1
strokes_ogs.tif
176
     1
290
     0
176
     1
 40
1.0
176
     1
 40
1.0
176
     1
  0
VISUALSTYLE
  5
15
102
{ACAD_REACTORS
330
14
102
}
330
14
100
AcDbVisualStyle
  2
Flat
 70
     0
177
     3
291
     1
 70
    58
 90
        2
176
     1
 90
        1
176
     1
 90
        1
176
     1
 90
        2
176
     1
 40
-0.6
176
     1
 40
30.0
176
     1
 62
     7
420
 16777215
176
     1
 90
        0
176
     1
 90
        4
176
     1
 62
     7
176
     1
 62
   257
176
     1
 90
        1
176
     1
 90
        1
176
     1
 40
1.0
176
     1
 90
        8
176
     1
 62
     7
176
     1
 40
1.0
176
     1
 90
        1
176
     1
 90
        6
176
     1
 90
        2
176
     1
 62
     7
176
     1
 90
        5
176
     1
 90
        0
176
     1
 90
        0
176
     1
290
     0
176
     1
 90
       13
176
     1
 40
0.0
176
     1
 90
        0
176
     1
290
     0
176
     1
290
     1
176
     1
290
     1
176
     1
290
     0
176
     1
290
     0
176
     1
290
     0
176
     1
290
     0
176
     1
290
     0
176
     1
290
     0
176
     1
 90
       50
176
     1
 40
0.0
176
     1
 40
1.0
176
     1
 90
        0
176
     1
 62
    18
420
        0
176
     1
 90
       50
176
     1
 90
        3
176
     1
 62
     5
420
      255
176
     1
290
     0
176
     1
 90
       50
176
     1
 90
       50
176
     1
 90
       50
176
     1
290
     0
176
     1
 90
       50
176
     1
 62
   256
176
     0
 40
1.0
176
     0
 90
        2
176
     1
  1
strokes_ogs.tif
176
     1
290
     0
176
     1
 40
1.0
176
     1
 40
1.0
176
     1
  0
VISUALSTYLE
  5
16
102
{ACAD_REACTORS
330
14
102
}
330
14
100
AcDbVisualStyle
  2
FlatWithEdges
 70
     1
177
     3
291
     1
 70
    58
 90
        2
176
     1
 90
        1
176
     1
 90
        1
176
     1
 90
        2
176
     1
 40
-0.6
176
     1
 40
30.0
176
     1
 62
     7
420
 16777215
176
     1
 90
        1
176
     1
 90
        4
176
     1
 62
     7
176
     1
 62
   257
176
     1
 90
        1
176
     1
 90
        1
176
     1
 40
1.0
176
     1
 90
        0
176
     1
 62
   257
176
     1
 40
1.0
176
     1
 90
        1
176
     1
 90
        6
176
     1
 90
        2
176
     1
 62
     7
176
     1
 90
        5
176
     1
 90
        0
176
     1
 90
        0
176
     1
290
     0
176
     1
 90
       13
176
     1
 40
0.0
176
     1
 90
        0
176
     1
290
     0
176
     1
290
     1
176
     1
290
     1
176
     1
290
     0
176
     1
290
     0
176
     1
290
     0
176
     1
290
     0
176
     1
290
     0
176
     1
290
     0
176
     1
 90
       50
176
     1
 40
0.0
176
     1
 40
1.0
176
     1
 90
        0
176
     1
 62
    18
420
        0
176
     1
 90
       50
176
     1
 90
        3
176
     1
 62
     5
420
      255
176
     1
290
     0
176
     1
 90
       50
176
     1
 90
       50
176
     1
 90
       50
176
     1
290
     0
176
     1
 90
       50
176
     1
 62
   256
176
     0
 40
1.0
176
     0
 90
        2
176
     1
  1
strokes_ogs.tif
176
     1
290
     0
176
     1
 40
1.0
176
     1
 40
1.0
176
     1
  0
VISUALSTYLE
  5
17
102
{ACAD_REACTORS
330
14
102
}
330
14
100
AcDbVisualStyle
  2
Gouraud
 70
     2
177
     3
291
     1
 70
    58
 90
        2
176
     1
 90
        2
176
     1
 90
        1
176
     1
 90
        2
176
     1
 40
-0.6
176
     1
 40
30.0
176
     1
 62
     7
420
 16777215
176
     1
 90
        0
176
     1
 90
        4
176
     1
 62
     7
176
     1
 62
   257
176
     1
 90
        1
176
     1
 90
        1
176
     1
 40
1.0
176
     1
 90
        0
176
     1
 62
     7
176
     1
 40
1.0
176
     1
 90
        1
176
     1
 90
        6
176
     1
 90
        2
176
     1
 62
     7
176
     1
 90
        5
176
     1
 90
        0
176
     1
 90
        0
176
     1
290
     0
176
     1
 90
       13
176
     1
 40
0.0
176
     1
 90
        0
176
     1
290
     0
176
     1
290
     1
176
     1
290
     1
176
     1
290
     0
176
     1
290
     0
176
     1
290
     0
176
     1
290
     0
176
     1
290
     0
176
     1
290
     0
176
     1
 90
       50
176
     1
 40
0.0
176
     1
 40
1.0
176
     1
 90
        0
176
     1
 62
    18
420
        0
176
     1
 90
       50
176
     1
 90
        3
176
     1
 62
     5
420
      255
176
     1
290
     0
176
     1
 90
       50
176
     1
 90
       50
176
     1
 90
       50
176
     1
290
     0
176
     1
 90
       50
176
     1
 62
   256
176
     0
 40
1.0
176
     0
 90
        2
176
     1
  1
strokes_ogs.tif
176
     1
290
     0
176
     1
 40
1.0
176
     1
 40
1.0
176
     1
  0
VISUALSTYLE
  5
18
102
{ACAD_REACTORS
330
14
102
}
330
14
100
AcDbVisualStyle
  2
GouraudWithEdges
 70
     3
177
     3
291
     1
 70
    58
 90
        2
176
     1
 90
        2
176
     1
 90
        1
176
     1
 90
        2
176
     1
 40
-0.6
176
     1
 40
30.0
176
     1
 62
     7
420
 16777215
176
     1
 90
        1
176
     1
 90
        4
176
     1
 62
     7
176
     1
 62
   257
176
     1
 90
        1
176
     1
 90
        1
176
     1
 40
1.0
176
     1
 90
        0
176
     1
 62
   257
176
     1
 40
1.0
176
     1
 90
        1
176
     1
 90
        6
176
     1
 90
        2
176
     1
 62
     7
176
     1
 90
        5
176
     1
 90
        0
176
     1
 90
        0
176
     1
290
     0
176
     1
 90
       13
176
     1
 40
0.0
176
     1
 90
        0
176
     1
290
     0
176
     1
290
     1
176
     1
290
     1
176
     1
290
     0
176
     1
290
     0
176
     1
290
     0
176
     1
290
     0
176
     1
290
     0
176
     1
290
     0
176
     1
 90
       50
176
     1
 40
0.0
176
     1
 40
1.0
176
     1
 90
        0
176
     1
 62
    18
420
        0
176
     1
 90
       50
176
     1
 90
        3
176
     1
 62
     5
420
      255
176
     1
290
     0
176
     1
 90
       50
176
     1
 90
       50
176
     1
 90
       50
176
     1
290
     0
176
     1
 90
       50
176
     1
 62
   256
176
     0
 40
1.0
176
     0
 90
        2
176
     1
  1
strokes_ogs.tif
176
     1
290
     0
176
     1
 40
1.0
176
     1
 40
1.0
176
     1
  0
VISUALSTYLE
  5
66924
102
{ACAD_REACTORS
330
14
102
}
330
14
100
AcDbVisualStyle
  2
Hidden
 70
     6
177
     3
291
     0
 70
    58
 90
        1
176
     1
 90
        2
176
     1
 90
        2
176
     1
 90
        0
176
     1
 40
0.6
176
     1
 40
30.0
176
     1
 62
     7
420
 16777215
176
     1
 90
        2
176
     1
 90
        2
176
     1
 62
     7
176
     1
 62
   257
176
     1
 90
        2
176
     1
 90
        1
176
     1
 40
40.0
176
     1
 90
        0
176
     1
 62
   257
176
     1
 40
1.0
176
     1
 90
        1
176
     1
 90
        6
176
     1
 90
        2
176
     1
 62
     7
176
     1
 90
        3
176
     1
 90
        0
176
     1
 90
        0
176
     1
290
     0
176
     1
 90
        1
176
     1
 40
0.0
176
     1
 90
        0
176
     1
290
     0
176
     1
290
     1
176
     1
290
     1
176
     1
290
     0
176
     1
290
     0
176
     1
290
     0
176
     1
290
     0
176
     1
290
     0
176
     1
290
     0
176
     1
 90
       50
176
     1
 40
0.0
176
     1
 40
1.0
176
     1
 90
        0
176
     1
 62
    18
420
        0
176
     1
 90
       50
176
     1
 90
        3
176
     1
 62
     5
420
      255
176
     1
290
     0
176
     1
 90
       50
176
     1
 90
       50
176
     1
 90
       50
176
     1
290
     0
176
     1
 90
       50
176
     1
 62
   256
176
     0
 40
1.0
176
     0
 90
        2
176
     1
  1
strokes_ogs.tif
176
     1
290
     0
176
     1
 40
1.0
176
     1
 40
1.0
176
     1
  0
VISUALSTYLE
  5
66925
102
{ACAD_REACTORS
330
14
102
}
330
14
100
AcDbVisualStyle
  2
JitterOff
 70
    20
177
     3
291
     1
 70
    58
 90
        2
176
     0
 90
        2
176
     0
 90
        0
176
     0
 90
        0
176
     0
 40
0.6
176
     0
 40
30.0
176
     0
 62
     7
420
 16777215
176
     0
 90
        1
176
     0
 90
        4
176
     0
 62
     7
176
     0
 62
   257
176
     0
 90
        1
176
     0
 90
        1
176
     0
 40
1.0
176
     0
 90
       10
176
     2
 62
     7
176
     0
 40
1.0
176
     0
 90
        1
176
     0
 90
        6
176
     0
 90
        2
176
     0
 62
     7
176
     0
 90
        5
176
     0
 90
        0
176
     0
 90
        0
176
     0
290
     0
176
     0
 90
        1
176
     0
 40
0.0
176
     0
 90
        0
176
     0
290
     0
176
     0
290
     1
176
     0
290
     1
176
     0
290
     0
176
     0
290
     0
176
     0
290
     0
176
     0
290
     0
176
     0
290
     0
176
     0
290
     0
176
     0
 90
       50
176
     0
 40
0.0
176
     0
 40
1.0
176
     0
 90
        0
176
     0
 62
    18
420
        0
176
     0
 90
       50
176
     0
 90
        3
176
     0
 62
     5
420
      255
176
     0
290
     0
176
     0
 90
       50
176
     0
 90
       50
176
     0
 90
       50
176
     0
290
     0
176
     0
 90
       50
176
     0
 62
   256
176
     0
 40
1.0
176
     0
 90
        2
176
     0
  1
strokes_ogs.tif
176
     0
290
     0
176
     0
 40
1.0
176
     0
 40
1.0
176
     0
  0
VISUALSTYLE
  5
22
102
{ACAD_REACTORS
330
14
102
}
330
14
100
AcDbVisualStyle
  2
Linepattern
 70
    14
177
     3
291
     1
 70
    58
 90
        2
176
     1
 90
        2
176
     1
 90
        0
176
     1
 90
        0
176
     1
 40
-0.6
176
     1
 40
-30.0
176
     1
 62
     7
420
 16777215
176
     1
 90
        1
176
     1
 90
        4
176
     1
 62
     7
176
     1
 62
   257
176
     1
 90
        7
176
     1
 90
        7
176
     1
 40
1.0
176
     1
 90
        8
176
     1
 62
     7
176
     1
 40
1.0
176
     1
 90
        1
176
     1
 90
        6
176
     1
 90
        2
176
     1
 62
     7
176
     1
 90
        5
176
     1
 90
        0
176
     1
 90
        0
176
     1
290
     0
176
     1
 90
        1
176
     1
 40
0.0
176
     1
 90
        0
176
     1
290
     0
176
     1
290
     1
176
     1
290
     1
176
     1
290
     0
176
     1
290
     0
176
     1
290
     0
176
     1
290
     0
176
     1
290
     0
176
     1
290
     0
176
     1
 90
       50
176
     1
 40
0.0
176
     1
 40
1.0
176
     1
 90
        0
176
     1
 62
    18
420
        0
176
     1
 90
       50
176
     1
 90
        3
176
     1
 62
     5
420
      255
176
     1
290
     0
176
     1
 90
       50
176
     1
 90
       50
176
     1
 90
       50
176
     1
290
     0
176
     1
 90
       50
176
     1
 62
   256
176
     0
 40
1.0
176
     0
 90
        2
176
     1
  1
strokes_ogs.tif
176
     1
290
     0
176
     1
 40
1.0
176
     1
 40
1.0
176
     1
  0
VISUALSTYLE
  5
66926
102
{ACAD_REACTORS
330
14
102
}
330
14
100
AcDbVisualStyle
  2
OverhangOff
 70
    21
177
     3
291
     1
 70
    58
 90
        2
176
     0
 90
        2
176
     0
 90
        0
176
     0
 90
        0
176
     0
 40
0.6
176
     0
 40
30.0
176
     0
 62
     7
420
 16777215
176
     0
 90
        1
176
     0
 90
        4
176
     0
 62
     7
176
     0
 62
   257
176
     0
 90
        1
176
     0
 90
        1
176
     0
 40
1.0
176
     0
 90
        9
176
     2
 62
     7
176
     0
 40
1.0
176
     0
 90
        1
176
     0
 90
        6
176
     0
 90
        2
176
     0
 62
     7
176
     0
 90
        5
176
     0
 90
        0
176
     0
 90
        0
176
     0
290
     0
176
     0
 90
        1
176
     0
 40
0.0
176
     0
 90
        0
176
     0
290
     0
176
     0
290
     1
176
     0
290
     1
176
     0
290
     0
176
     0
290
     0
176
     0
290
     0
176
     0
290
     0
176
     0
290
     0
176
     0
290
     0
176
     0
 90
       50
176
     0
 40
0.0
176
     0
 40
1.0
176
     0
 90
        0
176
     0
 62
    18
420
        0
176
     0
 90
       50
176
     0
 90
        3
176
     0
 62
     5
420
      255
176
     0
290
     0
176
     0
 90
       50
176
     0
 90
       50
176
     0
 90
       50
176
     0
290
     0
176
     0
 90
       50
176
     0
 62
   256
176
     0
 40
1.0
176
     0
 90
        2
176
     0
  1
strokes_ogs.tif
176
     0
290
     0
176
     0
 40
1.0
176
     0
 40
1.0
176
     0
  0
VISUALSTYLE
  5
1E
102
{ACAD_REACTORS
330
14
102
}
330
14
100
AcDbVisualStyle
  2
Realistic
 70
     8
177
     3
291
     0
 70
    58
 90
        2
176
     1
 90
        2
176
     1
 90
        0
176
     1
 90
        0
176
     1
 40
-0.6
176
     1
 40
-30.0
176
     1
 62
     7
420
 16777215
176
     1
 90
        1
176
     1
 90
        0
176
     1
 62
     7
176
     1
 62
   257
176
     1
 90
        1
176
     1
 90
        1
176
     1
 40
1.0
176
     1
 90
        8
176
     1
 62
     8
420
  7895160
176
     1
 40
1.0
176
     1
 90
        1
176
     1
 90
        6
176
     1
 90
        2
176
     1
 62
     7
176
     1
 90
        5
176
     1
 90
        0
176
     1
 90
        0
176
     1
290
     0
176
     1
 90
       13
176
     1
 40
0.0
176
     1
 90
        0
176
     1
290
     0
176
     1
290
     1
176
     1
290
     1
176
     1
290
     0
176
     1
290
     0
176
     1
290
     0
176
     1
290
     0
176
     1
290
     0
176
     1
290
     0
176
     1
 90
       50
176
     1
 40
0.0
176
     1
 40
1.0
176
     1
 90
        0
176
     1
 62
    18
420
        0
176
     1
 90
       50
176
     1
 90
        3
176
     1
 62
     5
420
      255
176
     1
290
     0
176
     1
 90
       50
176
     1
 90
       50
176
     1
 90
       50
176
     1
290
     0
176
     1
 90
       50
176
     1
 62
   256
176
     0
 40
1.0
176
     0
 90
        2
176
     1
  1
strokes_ogs.tif
176
     1
290
     0
176
     1
 40
1.0
176
     1
 40
1.0
176
     1
  0
VISUALSTYLE
  5
6692C
102
{ACAD_REACTORS
330
14
102
}
330
14
100
AcDbVisualStyle
  2
Shaded
 70
    27
177
     3
291
     0
 70
    58
 90
        2
176
     1
 90
        2
176
     1
 90
        1
176
     1
 90
        2
176
     1
 40
0.6
176
     1
 40
30.0
176
     1
 62
     7
420
 16777215
176
     1
 90
        0
176
     1
 90
        4
176
     1
 62
     7
176
     1
 62
   257
176
     1
 90
        1
176
     1
 90
        1
176
     1
 40
1.0
176
     1
 90
        8
176
     1
 62
   257
176
     1
 40
1.0
176
     1
 90
        1
176
     1
 90
        6
176
     1
 90
        2
176
     1
 62
     8
420
  7895160
176
     1
 90
        3
176
     1
 90
        0
176
     1
 90
        0
176
     1
290
     0
176
     1
 90
        5
176
     1
 40
0.0
176
     1
 90
        0
176
     1
290
     0
176
     1
290
     1
176
     1
290
     1
176
     1
290
     0
176
     1
290
     0
176
     1
290
     0
176
     1
290
     0
176
     1
290
     0
176
     1
290
     0
176
     1
 90
       50
176
     1
 40
0.0
176
     1
 40
1.0
176
     1
 90
        0
176
     1
 62
    18
420
        0
176
     1
 90
       50
176
     1
 90
        3
176
     1
 62
     5
420
      255
176
     1
290
     0
176
     1
 90
       50
176
     1
 90
       50
176
     1
 90
       50
176
     1
290
     0
176
     1
 90
       50
176
     1
 62
   256
176
     0
 40
1.0
176
     0
 90
        2
176
     1
  1
strokes_ogs.tif
176
     1
290
     0
176
     1
 40
1.0
176
     1
 40
1.0
176
     1
  0
VISUALSTYLE
  5
6692B
102
{ACAD_REACTORS
330
14
102
}
330
14
100
AcDbVisualStyle
  2
Shaded with edges
 70
    26
177
     3
291
     0
 70
    58
 90
        2
176
     1
 90
        2
176
     1
 90
        1
176
     1
 90
        2
176
     1
 40
0.6
176
     1
 40
30.0
176
     1
 62
     7
420
 16777215
176
     1
 90
        1
176
     1
 90
       10
176
     1
 62
     7
176
     1
 62
   257
176
     1
 90
        2
176
     1
 90
        1
176
     1
 40
1.0
176
     1
 90
        8
176
     1
 62
   257
176
     1
 40
1.0
176
     1
 90
        1
176
     1
 90
        6
176
     1
 90
        2
176
     1
 62
     7
176
     1
 90
        3
176
     1
 90
        0
176
     1
 90
        0
176
     1
290
     0
176
     1
 90
        5
176
     1
 40
0.0
176
     1
 90
        0
176
     1
290
     0
176
     1
290
     1
176
     1
290
     1
176
     1
290
     0
176
     1
290
     0
176
     1
290
     0
176
     1
290
     0
176
     1
290
     0
176
     1
290
     0
176
     1
 90
       50
176
     1
 40
0.0
176
     1
 40
1.0
176
     1
 90
        0
176
     1
 62
    18
420
        0
176
     1
 90
       50
176
     1
 90
        3
176
     1
 62
     5
420
      255
176
     1
290
     0
176
     1
 90
       50
176
     1
 90
       50
176
     1
 90
       50
176
     1
290
     0
176
     1
 90
       50
176
     1
 62
   256
176
     0
 40
1.0
176
     0
 90
        2
176
     1
  1
strokes_ogs.tif
176
     1
290
     0
176
     1
 40
1.0
176
     1
 40
1.0
176
     1
  0
VISUALSTYLE
  5
66928
102
{ACAD_REACTORS
330
14
102
}
330
14
100
AcDbVisualStyle
  2
Shades of Gray
 70
    23
177
     3
291
     0
 70
    58
 90
        2
176
     1
 90
        2
176
     1
 90
        3
176
     1
 90
        0
176
     1
 40
0.6
176
     1
 40
30.0
176
     1
 62
     7
420
 16777215
176
     1
 90
        2
176
     1
 90
        2
176
     1
 62
     7
176
     1
 62
     7
176
     1
 90
        1
176
     1
 90
        1
176
     1
 40
40.0
176
     1
 90
        8
176
     1
 62
     7
176
     1
 40
1.0
176
     1
 90
        1
176
     1
 90
        6
176
     1
 90
        2
176
     1
 62
     7
176
     1
 90
        3
176
     1
 90
        0
176
     1
 90
        0
176
     1
290
     0
176
     1
 90
        1
176
     1
 40
0.0
176
     1
 90
        0
176
     1
290
     0
176
     1
290
     1
176
     1
290
     1
176
     1
290
     0
176
     1
290
     0
176
     1
290
     0
176
     1
290
     0
176
     1
290
     0
176
     1
290
     0
176
     1
 90
       50
176
     1
 40
0.0
176
     1
 40
1.0
176
     1
 90
        0
176
     1
 62
    18
420
        0
176
     1
 90
       50
176
     1
 90
        3
176
     1
 62
     5
420
      255
176
     1
290
     0
176
     1
 90
       50
176
     1
 90
       50
176
     1
 90
       50
176
     1
290
     0
176
     1
 90
       50
176
     1
 62
   256
176
     0
 40
1.0
176
     0
 90
        2
176
     1
  1
strokes_ogs.tif
176
     1
290
     0
176
     1
 40
1.0
176
     1
 40
1.0
176
     1
  0
VISUALSTYLE
  5
66929
102
{ACAD_REACTORS
330
14
102
}
330
14
100
AcDbVisualStyle
  2
Sketchy
 70
    24
177
     3
291
     0
 70
    58
 90
        1
176
     1
 90
        2
176
     1
 90
        2
176
     1
 90
        0
176
     1
 40
0.6
176
     1
 40
30.0
176
     1
 62
     7
420
 16777215
176
     1
 90
        2
176
     1
 90
        2
176
     1
 62
     7
176
     1
 62
     7
176
     1
 90
        1
176
     1
 90
        1
176
     1
 40
40.0
176
     1
 90
       11
176
     1
 62
     7
176
     1
 40
1.0
176
     1
 90
        1
176
     1
 90
        6
176
     1
 90
        2
176
     1
 62
     7
176
     1
 90
        6
176
     1
 90
        0
176
     1
 90
        0
176
     1
290
     0
176
     1
 90
        1
176
     1
 40
0.0
176
     1
 90
        0
176
     1
290
     0
176
     1
290
     1
176
     1
290
     1
176
     1
290
     0
176
     1
290
     0
176
     1
290
     0
176
     1
290
     0
176
     1
290
     0
176
     1
290
     0
176
     1
 90
       50
176
     1
 40
0.0
176
     1
 40
1.0
176
     1
 90
        0
176
     1
 62
    18
420
        0
176
     1
 90
       50
176
     1
 90
        3
176
     1
 62
     5
420
      255
176
     1
290
     0
176
     1
 90
       50
176
     1
 90
       50
176
     1
 90
       50
176
     1
290
     0
176
     1
 90
       50
176
     1
 62
   256
176
     0
 40
1.0
176
     0
 90
        2
176
     1
  1
strokes_ogs.tif
176
     1
290
     0
176
     1
 40
1.0
176
     1
 40
1.0
176
     1
  0
VISUALSTYLE
  5
21
102
{ACAD_REACTORS
330
14
102
}
330
14
100
AcDbVisualStyle
  2
Thicken
 70
    13
177
     3
291
     1
 70
    58
 90
        2
176
     1
 90
        2
176
     1
 90
        0
176
     1
 90
        0
176
     1
 40
-0.6
176
     1
 40
-30.0
176
     1
 62
     7
420
 16777215
176
     1
 90
        1
176
     1
 90
        4
176
     1
 62
     7
176
     1
 62
   257
176
     1
 90
        1
176
     1
 90
        1
176
     1
 40
1.0
176
     1
 90
       12
176
     1
 62
     7
176
     1
 40
1.0
176
     1
 90
        1
176
     1
 90
        6
176
     1
 90
        2
176
     1
 62
     7
176
     1
 90
        5
176
     1
 90
        0
176
     1
 90
        0
176
     1
290
     0
176
     1
 90
        1
176
     1
 40
0.0
176
     1
 90
        0
176
     1
290
     0
176
     1
290
     1
176
     1
290
     1
176
     1
290
     0
176
     1
290
     0
176
     1
290
     0
176
     1
290
     0
176
     1
290
     0
176
     1
290
     0
176
     1
 90
       50
176
     1
 40
0.0
176
     1
 40
1.0
176
     1
 90
        0
176
     1
 62
    18
420
        0
176
     1
 90
       50
176
     1
 90
        3
176
     1
 62
     5
420
      255
176
     1
290
     0
176
     1
 90
       50
176
     1
 90
       50
176
     1
 90
       50
176
     1
290
     0
176
     1
 90
       50
176
     1
 62
   256
176
     0
 40
1.0
176
     0
 90
        2
176
     1
  1
strokes_ogs.tif
176
     1
290
     0
176
     1
 40
1.0
176
     1
 40
1.0
176
     1
  0
VISUALSTYLE
  5
66923
102
{ACAD_REACTORS
330
14
102
}
330
14
100
AcDbVisualStyle
  2
Wireframe
 70
     5
177
     3
291
     0
 70
    58
 90
        0
176
     1
 90
        2
176
     1
 90
        0
176
     1
 90
        0
176
     1
 40
0.6
176
     1
 40
30.0
176
     1
 62
     7
420
 16777215
176
     1
 90
        1
176
     1
 90
        4
176
     1
 62
     7
176
     1
 62
   257
176
     1
 90
        1
176
     1
 90
        1
176
     1
 40
1.0
176
     1
 90
        0
176
     1
 62
   257
176
     1
 40
1.0
176
     1
 90
        1
176
     1
 90
        6
176
     1
 90
        2
176
     1
 62
     7
176
     1
 90
        3
176
     1
 90
        0
176
     1
 90
        0
176
     1
290
     0
176
     1
 90
        1
176
     1
 40
0.0
176
     1
 90
        0
176
     1
290
     0
176
     1
290
     1
176
     1
290
     1
176
     1
290
     0
176
     1
290
     0
176
     1
290
     0
176
     1
290
     0
176
     1
290
     0
176
     1
290
     0
176
     1
 90
       50
176
     1
 40
0.0
176
     1
 40
1.0
176
     1
 90
        0
176
     1
 62
    18
420
        0
176
     1
 90
       50
176
     1
 90
        3
176
     1
 62
     5
420
      255
176
     1
290
     0
176
     1
 90
       50
176
     1
 90
       50
176
     1
 90
       50
176
     1
290
     0
176
     1
 90
       50
176
     1
 62
   256
176
     0
 40
1.0
176
     0
 90
        2
176
     1
  1
strokes_ogs.tif
176
     1
290
     0
176
     1
 40
1.0
176
     1
 40
1.0
176
     1
  0
VISUALSTYLE
  5
6692A
102
{ACAD_REACTORS
330
14
102
}
330
14
100
AcDbVisualStyle
  2
X-Ray
 70
    25
177
     3
291
     0
 70
    58
 90
        2
176
     1
 90
        2
176
     1
 90
        1
176
     1
 90
        1
176
     1
 40
0.5
176
     1
 40
30.0
176
     1
 62
     7
420
 16777215
176
     1
 90
        1
176
     1
 90
        0
176
     1
 62
     7
176
     1
 62
   257
176
     1
 90
        1
176
     1
 90
        1
176
     1
 40
1.0
176
     1
 90
        8
176
     1
 62
     7
176
     1
 40
1.0
176
     1
 90
        1
176
     1
 90
        6
176
     1
 90
        2
176
     1
 62
     7
176
     1
 90
        3
176
     1
 90
        0
176
     1
 90
        0
176
     1
290
     0
176
     1
 90
       13
176
     1
 40
0.0
176
     1
 90
        0
176
     1
290
     0
176
     1
290
     1
176
     1
290
     1
176
     1
290
     0
176
     1
290
     0
176
     1
290
     0
176
     1
290
     0
176
     1
290
     0
176
     1
290
     0
176
     1
 90
       50
176
     1
 40
0.0
176
     1
 40
1.0
176
     1
 90
        0
176
     1
 62
    18
420
        0
176
     1
 90
       50
176
     1
 90
        3
176
     1
 62
     5
420
      255
176
     1
290
     0
176
     1
 90
       50
176
     1
 90
       50
176
     1
 90
       50
176
     1
290
     0
176
     1
 90
       50
176
     1
 62
   256
176
     0
 40
1.0
176
     0
 90
        2
176
     1
  1
strokes_ogs.tif
176
     1
290
     0
176
     1
 40
1.0
176
     1
 40
1.0
176
     1
  0
DICTIONARYVAR
  5
418C4
102
{ACAD_REACTORS
330
25CB
102
}
330
25CB
100
DictionaryVariables
280
     0
  1
1:1
  0
DICTIONARYVAR
  5
418C2
102
{ACAD_REACTORS
330
25CB
102
}
330
25CB
100
DictionaryVariables
280
     0
  1
Standard
  0
DICTIONARYVAR
  5
25CC
102
{ACAD_REACTORS
330
25CB
102
}
330
25CB
100
DictionaryVariables
280
     0
  1
Standard
  0
DICTIONARYVAR
  5
418C5
102
{ACAD_REACTORS
330
25CB
102
}
330
25CB
100
DictionaryVariables
280
     0
  1
0
  0
DICTIONARYVAR
  5
418C3
102
{ACAD_REACTORS
330
25CB
102
}
330
25CB
100
DictionaryVariables
280
     0
  1
0
  0
DICTIONARYVAR
  5
66968
102
{ACAD_REACTORS
330
25CB
102
}
330
25CB
100
DictionaryVariables
280
     0
  1
0
  0
DICTIONARY
  5
667ED
330
12
100
AcDbDictionary
280
     1
281
     1
  3
ACAD_XREC_ROUNDTRIP
360
667EE
  0
DICTIONARY
  5
667EB
330
11
100
AcDbDictionary
280
     1
281
     1
  3
ACAD_XREC_ROUNDTRIP
360
667EC
  0
DICTIONARY
  5
667EF
330
13
100
AcDbDictionary
280
     1
281
     1
  3
ACAD_XREC_ROUNDTRIP
360
667F0
  0
DICTIONARY
  5
6696B
330
32
100
AcDbDictionary
280
     1
281
     1
  3
ACAD_ROUNDTRIP_2008_TABLESTYLE_CELLSTYLEMAP
360
6696C
  0
XRECORD
  5
667EE
102
{ACAD_REACTORS
330
667ED
102
}
330
667ED
100
AcDbXrecord
280
     1
102
MATERIAL
148
0.0
149
0.0
149
0.0
 93
        0
 94
      127
282
     0
 72
     1
 77
     1
171
     1
175
     1
179
     1
273
     0
  0
XRECORD
  5
667EC
102
{ACAD_REACTORS
330
667EB
102
}
330
667EB
100
AcDbXrecord
280
     1
102
MATERIAL
148
0.0
149
0.0
149
0.0
 93
        0
 94
      127
282
     0
 72
     1
 77
     1
171
     1
175
     1
179
     1
273
     0
  0
XRECORD
  5
667F0
102
{ACAD_REACTORS
330
667EF
102
}
330
667EF
100
AcDbXrecord
280
     1
102
MATERIAL
148
0.0
149
0.0
149
0.0
 93
        0
 94
      127
282
     0
 72
     1
 77
     1
171
     1
175
     1
179
     1
273
     0
  0
CELLSTYLEMAP
  5
6696C
102
{ACAD_REACTORS
330
6696B
102
}
330
6696B
100
AcDbCellStyleMap
 90
        3
300
CELLSTYLE
  1
TABLEFORMAT_BEGIN
 90
        5
170
     1
 91
        0
 92
    32768
 62
   257
 93
        1
300
CONTENTFORMAT
  1
CONTENTFORMAT_BEGIN
 90
        0
 91
        0
 92
      512
 93
        0
300

 40
0.0
140
1.0
 94
        5
 62
     0
340
26
144
6.0
309
CONTENTFORMAT_END
171
     1
301
MARGIN
  1
CELLMARGIN_BEGIN
 40
1.5
 40
1.5
 40
1.5
 40
1.5
 40
0.18
 40
0.18
309
CELLMARGIN_END
 94
        6
 95
        1
302
GRIDFORMAT
  1
GRIDFORMAT_BEGIN
 90
        0
 91
        1
 62
     0
 92
       -2
340
0
 93
        0
 40
0.045
309
GRIDFORMAT_END
 95
        2
302
GRIDFORMAT
  1
GRIDFORMAT_BEGIN
 90
        0
 91
        1
 62
     0
 92
       -2
340
0
 93
        0
 40
0.045
309
GRIDFORMAT_END
 95
        4
302
GRIDFORMAT
  1
GRIDFORMAT_BEGIN
 90
        0
 91
        1
 62
     0
 92
       -2
340
0
 93
        0
 40
0.045
309
GRIDFORMAT_END
 95
        8
302
GRIDFORMAT
  1
GRIDFORMAT_BEGIN
 90
        0
 91
        1
 62
     0
 92
       -2
340
0
 93
        0
 40
0.045
309
GRIDFORMAT_END
 95
       16
302
GRIDFORMAT
  1
GRIDFORMAT_BEGIN
 90
        0
 91
        1
 62
     0
 92
       -2
340
0
 93
        0
 40
0.045
309
GRIDFORMAT_END
 95
       32
302
GRIDFORMAT
  1
GRIDFORMAT_BEGIN
 90
        0
 91
        1
 62
     0
 92
       -2
340
0
 93
        0
 40
0.045
309
GRIDFORMAT_END
309
TABLEFORMAT_END
  1
CELLSTYLE_BEGIN
 90
        1
 91
        1
300
_TITLE
309
CELLSTYLE_END
300
CELLSTYLE
  1
TABLEFORMAT_BEGIN
 90
        5
170
     1
 91
        0
 92
        0
 62
   257
 93
        1
300
CONTENTFORMAT
  1
CONTENTFORMAT_BEGIN
 90
        0
 91
        0
 92
      512
 93
        0
300

 40
0.0
140
1.0
 94
        5
 62
     0
340
26
144
4.5
309
CONTENTFORMAT_END
171
     1
301
MARGIN
  1
CELLMARGIN_BEGIN
 40
1.5
 40
1.5
 40
1.5
 40
1.5
 40
0.18
 40
0.18
309
CELLMARGIN_END
 94
        6
 95
        1
302
GRIDFORMAT
  1
GRIDFORMAT_BEGIN
 90
        0
 91
        1
 62
     0
 92
       -2
340
0
 93
        0
 40
0.045
309
GRIDFORMAT_END
 95
        2
302
GRIDFORMAT
  1
GRIDFORMAT_BEGIN
 90
        0
 91
        1
 62
     0
 92
       -2
340
0
 93
        0
 40
0.045
309
GRIDFORMAT_END
 95
        4
302
GRIDFORMAT
  1
GRIDFORMAT_BEGIN
 90
        0
 91
        1
 62
     0
 92
       -2
340
0
 93
        0
 40
0.045
309
GRIDFORMAT_END
 95
        8
302
GRIDFORMAT
  1
GRIDFORMAT_BEGIN
 90
        0
 91
        1
 62
     0
 92
       -2
340
0
 93
        0
 40
0.045
309
GRIDFORMAT_END
 95
       16
302
GRIDFORMAT
  1
GRIDFORMAT_BEGIN
 90
        0
 91
        1
 62
     0
 92
       -2
340
0
 93
        0
 40
0.045
309
GRIDFORMAT_END
 95
       32
302
GRIDFORMAT
  1
GRIDFORMAT_BEGIN
 90
        0
 91
        1
 62
     0
 92
       -2
340
0
 93
        0
 40
0.045
309
GRIDFORMAT_END
309
TABLEFORMAT_END
  1
CELLSTYLE_BEGIN
 90
        2
 91
        1
300
_HEADER
309
CELLSTYLE_END
300
CELLSTYLE
  1
TABLEFORMAT_BEGIN
 90
        5
170
     1
 91
        0
 92
        0
 62
   257
 93
        1
300
CONTENTFORMAT
  1
CONTENTFORMAT_BEGIN
 90
        0
 91
        0
 92
      512
 93
        0
300

 40
0.0
140
1.0
 94
        2
 62
     0
340
26
144
4.5
309
CONTENTFORMAT_END
171
     1
301
MARGIN
  1
CELLMARGIN_BEGIN
 40
1.5
 40
1.5
 40
1.5
 40
1.5
 40
0.18
 40
0.18
309
CELLMARGIN_END
 94
        6
 95
        1
302
GRIDFORMAT
  1
GRIDFORMAT_BEGIN
 90
        0
 91
        1
 62
     0
 92
       -2
340
0
 93
        0
 40
0.045
309
GRIDFORMAT_END
 95
        2
302
GRIDFORMAT
  1
GRIDFORMAT_BEGIN
 90
        0
 91
        1
 62
     0
 92
       -2
340
0
 93
        0
 40
0.045
309
GRIDFORMAT_END
 95
        4
302
GRIDFORMAT
  1
GRIDFORMAT_BEGIN
 90
        0
 91
        1
 62
     0
 92
       -2
340
0
 93
        0
 40
0.045
309
GRIDFORMAT_END
 95
        8
302
GRIDFORMAT
  1
GRIDFORMAT_BEGIN
 90
        0
 91
        1
 62
     0
 92
       -2
340
0
 93
        0
 40
0.045
309
GRIDFORMAT_END
 95
       16
302
GRIDFORMAT
  1
GRIDFORMAT_BEGIN
 90
        0
 91
        1
 62
     0
 92
       -2
340
0
 93
        0
 40
0.045
309
GRIDFORMAT_END
 95
       32
302
GRIDFORMAT
  1
GRIDFORMAT_BEGIN
 90
        0
 91
        1
 62
     0
 92
       -2
340
0
 93
        0
 40
0.045
309
GRIDFORMAT_END
309
TABLEFORMAT_END
  1
CELLSTYLE_BEGIN
 90
        3
 91
        2
300
_DATA
309
CELLSTYLE_END
  0
ENDSEC
  0
EOF
