  0
SECTION
  2
HEADER
  9
$ACADVER
  1
AC1032
  9
$ACADMAINTVER
 90
       73
  9
$DWGCODEPAGE
  3
ANSI_1250
  9
$LASTSAVEDBY
  1
hm1535
  9
$REQUIREDVERSIONS
160
                 0
  9
$INSBASE
 10
0.0
 20
0.0
 30
0.0
  9
$EXTMIN
 10
-2.0
 20
-32.50000000000002
 30
0.0
  9
$EXTMAX
 10
39.46340870958975
 20
27.26815191103228
 30
0.0
  9
$LIMMIN
 10
-0.5
 20
-0.5
  9
$LIMMAX
 10
5.0
 20
5.0
  9
$ORTHOMODE
 70
     1
  9
$REGENMODE
 70
     1
  9
$FILLMODE
 70
     1
  9
$QTEXTMODE
 70
     0
  9
$MIRRTEXT
 70
     1
  9
$LTSCALE
 40
1.0
  9
$ATTMODE
 70
     1
  9
$TEXTSIZE
 40
2.5
  9
$TRACEWID
 40
0.05
  9
$TEXTSTYLE
  7
Standard
  9
$CLAYER
  8
SK6
  9
$CELTYPE
  6
ByLayer
  9
$CECOLOR
 62
   256
  9
$CELTSCALE
 40
1.0
  9
$DISPSILH
 70
     0
  9
$DIMSCALE
 40
1.0
  9
$DIMASZ
 40
0.18
  9
$DIMEXO
 40
0.0625
  9
$DIMDLI
 40
0.38
  9
$DIMRND
 40
0.0
  9
$DIMDLE
 40
0.0
  9
$DIMEXE
 40
0.18
  9
$DIMTP
 40
0.0
  9
$DIMTM
 40
0.0
  9
$DIMTXT
 40
0.18
  9
$DIMCEN
 40
0.09
  9
$DIMTSZ
 40
0.0
  9
$DIMTOL
 70
     0
  9
$DIMLIM
 70
     0
  9
$DIMTIH
 70
     1
  9
$DIMTOH
 70
     1
  9
$DIMSE1
 70
     0
  9
$DIMSE2
 70
     0
  9
$DIMTAD
 70
     0
  9
$DIMZIN
 70
     0
  9
$DIMBLK
  1

  9
$DIMASO
 70
     1
  9
$DIMSHO
 70
     1
  9
$DIMPOST
  1

  9
$DIMAPOST
  1

  9
$DIMALT
 70
     0
  9
$DIMALTD
 70
     2
  9
$DIMALTF
 40
25.4
  9
$DIMLFAC
 40
1.0
  9
$DIMTOFL
 70
     0
  9
$DIMTVP
 40
0.0
  9
$DIMTIX
 70
     0
  9
$DIMSOXD
 70
     0
  9
$DIMSAH
 70
     0
  9
$DIMBLK1
  1

  9
$DIMBLK2
  1

  9
$DIMSTYLE
  2
Standard
  9
$DIMCLRD
 70
     0
  9
$DIMCLRE
 70
     0
  9
$DIMCLRT
 70
     0
  9
$DIMTFAC
 40
1.0
  9
$DIMGAP
 40
0.09
  9
$DIMJUST
 70
     0
  9
$DIMSD1
 70
     0
  9
$DIMSD2
 70
     0
  9
$DIMTOLJ
 70
     1
  9
$DIMTZIN
 70
     0
  9
$DIMALTZ
 70
     0
  9
$DIMALTTZ
 70
     0
  9
$DIMUPT
 70
     0
  9
$DIMDEC
 70
     4
  9
$DIMTDEC
 70
     4
  9
$DIMALTU
 70
     2
  9
$DIMALTTD
 70
     2
  9
$DIMTXSTY
  7
Standard
  9
$DIMAUNIT
 70
     0
  9
$DIMADEC
 70
     0
  9
$DIMALTRND
 40
0.0
  9
$DIMAZIN
 70
     0
  9
$DIMDSEP
 70
    46
  9
$DIMATFIT
 70
     3
  9
$DIMFRAC
 70
     0
  9
$DIMLDRBLK
  1

  9
$DIMLUNIT
 70
     2
  9
$DIMLWD
 70
    -2
  9
$DIMLWE
 70
    -2
  9
$DIMTMOVE
 70
     0
  9
$DIMFXL
 40
1.0
  9
$DIMFXLON
 70
     0
  9
$DIMJOGANG
 40
0.7853981633974483
  9
$DIMTFILL
 70
     0
  9
$DIMTFILLCLR
 70
     0
  9
$DIMARCSYM
 70
     0
  9
$DIMLTYPE
  6

  9
$DIMLTEX1
  6

  9
$DIMLTEX2
  6

  9
$DIMTXTDIRECTION
 70
     0
  9
$LUNITS
 70
     2
  9
$LUPREC
 70
     4
  9
$SKETCHINC
 40
0.1
  9
$FILLETRAD
 40
0.5
  9
$AUNITS
 70
     0
  9
$AUPREC
 70
     0
  9
$MENU
  1
.
  9
$ELEVATION
 40
0.0
  9
$PELEVATION
 40
0.0
  9
$THICKNESS
 40
0.0
  9
$LIMCHECK
 70
     0
  9
$CHAMFERA
 40
0.0
  9
$CHAMFERB
 40
0.0
  9
$CHAMFERC
 40
0.0
  9
$CHAMFERD
 40
0.0
  9
$SKPOLY
 70
     0
  9
$TDCREATE
 40
2459587.528564815
  9
$TDUCREATE
 40
2459587.486900915
  9
$TDUPDATE
 40
2459830.573321760
  9
$TDUUPDATE
 40
2459830.489988426
  9
$TDINDWG
 40
0.1708101968
  9
$TDUSRTIMER
 40
0.1708101968
  9
$USRTIMER
 70
     1
  9
$ANGBASE
 50
0.0
  9
$ANGDIR
 70
     0
  9
$PDMODE
 70
     0
  9
$PDSIZE
 40
0.0
  9
$PLINEWID
 40
0.0
  9
$SPLFRAME
 70
     0
  9
$SPLINETYPE
 70
     6
  9
$SPLINESEGS
 70
     8
  9
$HANDSEED
  5
3D61
  9
$SURFTAB1
 70
     6
  9
$SURFTAB2
 70
     6
  9
$SURFTYPE
 70
     6
  9
$SURFU
 70
     6
  9
$SURFV
 70
     6
  9
$UCSBASE
  2

  9
$UCSNAME
  2

  9
$UCSORG
 10
0.0
 20
0.0
 30
0.0
  9
$UCSXDIR
 10
1.0
 20
0.0
 30
0.0
  9
$UCSYDIR
 10
0.0
 20
1.0
 30
0.0
  9
$UCSORTHOREF
  2

  9
$UCSORTHOVIEW
 70
     0
  9
$UCSORGTOP
 10
0.0
 20
0.0
 30
0.0
  9
$UCSORGBOTTOM
 10
0.0
 20
0.0
 30
0.0
  9
$UCSORGLEFT
 10
0.0
 20
0.0
 30
0.0
  9
$UCSORGRIGHT
 10
0.0
 20
0.0
 30
0.0
  9
$UCSORGFRONT
 10
0.0
 20
0.0
 30
0.0
  9
$UCSORGBACK
 10
0.0
 20
0.0
 30
0.0
  9
$PUCSBASE
  2

  9
$PUCSNAME
  2

  9
$PUCSORG
 10
0.0
 20
0.0
 30
0.0
  9
$PUCSXDIR
 10
1.0
 20
0.0
 30
0.0
  9
$PUCSYDIR
 10
0.0
 20
1.0
 30
0.0
  9
$PUCSORTHOREF
  2

  9
$PUCSORTHOVIEW
 70
     0
  9
$PUCSORGTOP
 10
0.0
 20
0.0
 30
0.0
  9
$PUCSORGBOTTOM
 10
0.0
 20
0.0
 30
0.0
  9
$PUCSORGLEFT
 10
0.0
 20
0.0
 30
0.0
  9
$PUCSORGRIGHT
 10
0.0
 20
0.0
 30
0.0
  9
$PUCSORGFRONT
 10
0.0
 20
0.0
 30
0.0
  9
$PUCSORGBACK
 10
0.0
 20
0.0
 30
0.0
  9
$USERI1
 70
     0
  9
$USERI2
 70
     0
  9
$USERI3
 70
     0
  9
$USERI4
 70
     0
  9
$USERI5
 70
     0
  9
$USERR1
 40
0.0
  9
$USERR2
 40
0.0
  9
$USERR3
 40
0.0
  9
$USERR4
 40
0.0
  9
$USERR5
 40
0.0
  9
$WORLDVIEW
 70
     1
  9
$SHADEDGE
 70
     3
  9
$SHADEDIF
 70
    70
  9
$TILEMODE
 70
     1
  9
$MAXACTVP
 70
    64
  9
$PINSBASE
 10
0.0
 20
0.0
 30
0.0
  9
$PLIMCHECK
 70
     0
  9
$PEXTMIN
 10
-0.5
 20
-0.5
 30
-0.5
  9
$PEXTMAX
 10
5.0
 20
5.0
 30
5.0
  9
$PLIMMIN
 10
-0.5
 20
-0.5
  9
$PLIMMAX
 10
5.0
 20
5.0
  9
$UNITMODE
 70
     0
  9
$VISRETAIN
 70
     1
  9
$PLINEGEN
 70
     0
  9
$PSLTSCALE
 70
     1
  9
$TREEDEPTH
 70
  3020
  9
$CMLSTYLE
  2
Standard
  9
$CMLJUST
 70
     0
  9
$CMLSCALE
 40
1.0
  9
$PROXYGRAPHICS
 70
     1
  9
$MEASUREMENT
 70
     1
  9
$CELWEIGHT
370
    13
  9
$ENDCAPS
280
     0
  9
$JOINSTYLE
280
     0
  9
$LWDISPLAY
290
     1
  9
$INSUNITS
 70
     4
  9
$HYPERLINKBASE
  1

  9
$STYLESHEET
  1

  9
$XEDIT
290
     1
  9
$CEPSNTYPE
380
     0
  9
$PSTYLEMODE
290
     1
  9
$FINGERPRINTGUID
  2
{F29FD614-1304-4430-BC69-E25263991976}
  9
$VERSIONGUID
  2
{3B21B39C-1D24-9C4D-A262-D64547CC37E0}
  9
$EXTNAMES
290
     1
  9
$PSVPSCALE
 40
0.0
  9
$OLESTARTUP
290
     0
  9
$SORTENTS
280
   127
  9
$INDEXCTL
280
     0
  9
$HIDETEXT
280
     1
  9
$XCLIPFRAME
280
     2
  9
$HALOGAP
280
     0
  9
$OBSCOLOR
 70
   257
  9
$OBSLTYPE
280
     0
  9
$INTERSECTIONDISPLAY
280
     0
  9
$INTERSECTIONCOLOR
 70
   257
  9
$DIMASSOC
280
     2
  9
$PROJECTNAME
  1

  9
$CAMERADISPLAY
290
     0
  9
$LENSLENGTH
 40
50.0
  9
$CAMERAHEIGHT
 40
0.0
  9
$STEPSPERSEC
 40
2.0
  9
$STEPSIZE
 40
6.0
  9
$3DDWFPREC
 40
2.0
  9
$PSOLWIDTH
 40
0.25
  9
$PSOLHEIGHT
 40
4.0
  9
$LOFTANG1
 40
1.570796326794896
  9
$LOFTANG2
 40
1.570796326794896
  9
$LOFTMAG1
 40
0.0
  9
$LOFTMAG2
 40
0.0
  9
$LOFTPARAM
 70
     7
  9
$LOFTNORMALS
280
     1
  9
$LATITUDE
 40
37.795
  9
$LONGITUDE
 40
-122.394
  9
$NORTHDIRECTION
 40
0.0
  9
$TIMEZONE
 70
 -8000
  9
$LIGHTGLYPHDISPLAY
280
     1
  9
$TILEMODELIGHTSYNCH
280
     1
  9
$CMATERIAL
347
44
  9
$SOLIDHIST
280
     0
  9
$SHOWHIST
280
     1
  9
$DWFFRAME
280
     2
  9
$DGNFRAME
280
     0
  9
$REALWORLDSCALE
290
     1
  9
$INTERFERECOLOR
 62
     1
  9
$INTERFEREOBJVS
345
33
  9
$INTERFEREVPVS
346
30
  9
$CSHADOW
280
     0
  9
$SHADOWPLANELOCATION
 40
0.0
  0
ENDSEC
  0
SECTION
  2
CLASSES
  0
CLASS
  1
ACDBDICTIONARYWDFLT
  2
AcDbDictionaryWithDefault
  3
ObjectDBX Classes
 90
        0
 91
        1
280
     0
281
     0
  0
CLASS
  1
VISUALSTYLE
  2
AcDbVisualStyle
  3
ObjectDBX Classes
 90
     4095
 91
       24
280
     0
281
     0
  0
CLASS
  1
MATERIAL
  2
AcDbMaterial
  3
ObjectDBX Classes
 90
     1153
 91
        3
280
     0
281
     0
  0
CLASS
  1
SCALE
  2
AcDbScale
  3
ObjectDBX Classes
 90
     1153
 91
       33
280
     0
281
     0
  0
CLASS
  1
TABLESTYLE
  2
AcDbTableStyle
  3
ObjectDBX Classes
 90
     4095
 91
        1
280
     0
281
     0
  0
CLASS
  1
MLEADERSTYLE
  2
AcDbMLeaderStyle
  3
ACDB_MLEADERSTYLE_CLASS
 90
     4095
 91
        1
280
     0
281
     0
  0
CLASS
  1
SUN
  2
AcDbSun
  3
SCENEOE
 90
     1153
 91
        0
280
     0
281
     0
  0
CLASS
  1
DIMASSOC
  2
AcDbDimAssoc
  3
"AcDbDimAssoc|Product Desc:     AcDim ARX App For Dimension|Company:          Autodesk, Inc.|WEB Address:      www.autodesk.com"
 90
        0
 91
        3
280
     0
281
     0
  0
CLASS
  1
DICTIONARYVAR
  2
AcDbDictionaryVar
  3
ObjectDBX Classes
 90
        0
 91
        9
280
     0
281
     0
  0
CLASS
  1
CELLSTYLEMAP
  2
AcDbCellStyleMap
  3
ObjectDBX Classes
 90
     1152
 91
      240
280
     0
281
     0
  0
CLASS
  1
ACDBSECTIONVIEWSTYLE
  2
AcDbSectionViewStyle
  3
ObjectDBX Classes
 90
     1025
 91
        1
280
     0
281
     0
  0
CLASS
  1
ACDBDETAILVIEWSTYLE
  2
AcDbDetailViewStyle
  3
ObjectDBX Classes
 90
     1025
 91
        1
280
     0
281
     0
  0
CLASS
  1
SORTENTSTABLE
  2
AcDbSortentsTable
  3
ObjectDBX Classes
 90
        0
 91
        1
280
     0
281
     0
  0
CLASS
  1
ACDBASSOCNETWORK
  2
AcDbAssocNetwork
  3
ObjectDBX Classes
 90
     1025
 91
        2
280
     0
281
     0
  0
CLASS
  1
ACDBASSOC2DCONSTRAINTGROUP
  2
AcDbAssoc2dConstraintGroup
  3
ObjectDBX Classes
 90
     1025
 91
        1
280
     0
281
     0
  0
CLASS
  1
ACDBASSOCGEOMDEPENDENCY
  2
AcDbAssocGeomDependency
  3
ObjectDBX Classes
 90
     1025
 91
       12
280
     0
281
     0
  0
CLASS
  1
ACDBASSOCVARIABLE
  2
AcDbAssocVariable
  3
ObjectDBX Classes
 90
     1025
 91
        4
280
     0
281
     0
  0
CLASS
  1
ACDBASSOCVALUEDEPENDENCY
  2
AcDbAssocValueDependency
  3
ObjectDBX Classes
 90
     1025
 91
        5
280
     0
281
     0
  0
CLASS
  1
ACDBASSOCDEPENDENCY
  2
AcDbAssocDependency
  3
ObjectDBX Classes
 90
     1025
 91
        4
280
     0
281
     0
  0
CLASS
  1
ASSOCDIMDEPENDENCYBODY
  2
AcDbAssocDimDependencyBody
  3
ObjectDBX Classes
 90
     1025
 91
        4
280
     0
281
     0
  0
ENDSEC
  0
SECTION
  2
TABLES
  0
TABLE
  2
VPORT
  5
8
330
0
100
AcDbSymbolTable
 70
    16
  0
VPORT
  5
29
330
8
100
AcDbSymbolTableRecord
100
AcDbViewportTableRecord
  2
*Active
 70
     0
 10
0.0
 20
0.0
 11
1.0
 21
1.0
 12
23.03694030397821
 22
-1.07637239491283
 13
0.0
 23
0.0
 14
0.5
 24
0.5
 15
0.5
 25
0.5
 16
0.0
 26
0.0
 36
1.0
 17
0.0
 27
0.0
 37
0.0
 40
49.30293509946877
 41
2.292712066905615
 42
50.0
 43
320.84036
 44
-320.84036
 50
0.0
 51
0.0
 71
     0
 72
   100
 73
     1
 74
     3
 75
     0
 76
     0
 77
     0
 78
     0
281
     0
 65
     1
110
0.0
120
0.0
130
0.0
111
1.0
121
0.0
131
0.0
112
0.0
122
1.0
132
0.0
 79
     0
146
0.0
348
2F
 60
     3
 61
     5
292
     1
282
     1
141
0.0
142
0.0
 63
   250
421
  3355443
1001
ACAD_NAV_VCDISPLAY
1070
     3
  0
VPORT
  5
385
330
8
100
AcDbSymbolTableRecord
100
AcDbViewportTableRecord
  2
L1
 70
     0
 10
0.0
 20
0.0
 11
1.0
 21
1.0
 12
262.977318
 22
226.393018
 13
0.0
 23
0.0
 14
0.5
 24
0.5
 15
0.5
 25
0.5
 16
0.0
 26
0.0
 36
1.0
 17
0.0
 27
0.0
 37
0.0
 40
207.433333
 41
0.085602
 42
50.0
 43
320.84036
 44
-320.84036
 50
0.0
 51
0.0
 71
     0
 72
   100
 73
     1
 74
     3
 75
     0
 76
     0
 77
     0
 78
     0
281
     0
 65
     1
110
0.0
120
0.0
130
0.0
111
1.0
121
0.0
131
0.0
112
0.0
122
1.0
132
0.0
 79
     0
146
0.0
348
2F
 60
     3
 61
     5
292
     1
282
     1
141
0.0
142
0.0
 63
   250
421
  3355443
  0
VPORT
  5
386
330
8
100
AcDbSymbolTableRecord
100
AcDbViewportTableRecord
  2
L2
 70
     0
 10
0.0
 20
0.0
 11
0.5
 21
1.0
 12
0.0
 22
0.0
 13
0.0
 23
0.0
 14
0.5
 24
0.5
 15
0.5
 25
0.5
 16
0.0
 26
-1.0
 36
0.0
 17
0.0
 27
0.0
 37
0.0
 40
1490.807042
 41
0.011911
 42
50.0
 43
771.91216
 44
-771.91216
 50
0.0
 51
0.0
 71
     0
 72
   100
 73
     1
 74
     3
 75
     0
 76
     0
 77
     0
 78
     0
281
     0
 65
     1
110
0.0
120
0.0
130
0.0
111
1.0
121
0.0
131
0.0
112
0.0
122
1.0
132
0.0
 79
     0
146
0.0
348
2F
 60
     3
 61
     5
292
     1
282
     1
141
0.0
142
0.0
 63
   250
421
  3355443
  0
VPORT
  5
387
330
8
100
AcDbSymbolTableRecord
100
AcDbViewportTableRecord
  2
L2
 70
     0
 10
0.5
 20
0.0
 11
1.0
 21
1.0
 12
0.0
 22
0.0
 13
0.0
 23
0.0
 14
0.5
 24
0.5
 15
0.5
 25
0.5
 16
1.0
 26
0.0
 36
0.0
 17
0.0
 27
0.0
 37
0.0
 40
1490.807042
 41
0.011911
 42
50.0
 43
752.5845839999998
 44
-752.5845839999998
 50
0.0
 51
0.0
 71
     0
 72
   100
 73
     1
 74
     3
 75
     0
 76
     0
 77
     0
 78
     0
281
     0
 65
     1
110
0.0
120
0.0
130
0.0
111
1.0
121
0.0
131
0.0
112
0.0
122
1.0
132
0.0
 79
     0
146
0.0
348
2F
 60
     3
 61
     5
292
     1
282
     1
141
0.0
142
0.0
 63
   250
421
  3355443
  0
VPORT
  5
388
330
8
100
AcDbSymbolTableRecord
100
AcDbViewportTableRecord
  2
L3
 70
     0
 10
0.0
 20
0.5
 11
1.0
 21
1.0
 12
262.977318
 22
226.393018
 13
0.0
 23
0.0
 14
0.5
 24
0.5
 15
0.5
 25
0.5
 16
0.0
 26
0.0
 36
1.0
 17
0.0
 27
0.0
 37
0.0
 40
207.433333
 41
0.085602
 42
50.0
 43
320.84036
 44
-320.84036
 50
0.0
 51
0.0
 71
     0
 72
   100
 73
     1
 74
     3
 75
     0
 76
     0
 77
     0
 78
     0
281
     0
 65
     1
110
0.0
120
0.0
130
0.0
111
1.0
121
0.0
131
0.0
112
0.0
122
1.0
132
0.0
 79
     0
146
0.0
348
2F
 60
     3
 61
     5
292
     1
282
     1
141
0.0
142
0.0
 63
   250
421
  3355443
  0
VPORT
  5
389
330
8
100
AcDbSymbolTableRecord
100
AcDbViewportTableRecord
  2
L3
 70
     0
 10
0.0
 20
0.0
 11
1.0
 21
0.5
 12
0.0
 22
0.0
 13
0.0
 23
0.0
 14
0.5
 24
0.5
 15
0.5
 25
0.5
 16
0.0
 26
-1.0
 36
0.0
 17
0.0
 27
0.0
 37
0.0
 40
1490.807042
 41
0.011911
 42
50.0
 43
771.91216
 44
-771.91216
 50
0.0
 51
0.0
 71
     0
 72
   100
 73
     1
 74
     3
 75
     0
 76
     0
 77
     0
 78
     0
281
     0
 65
     1
110
0.0
120
0.0
130
0.0
111
1.0
121
0.0
131
0.0
112
0.0
122
1.0
132
0.0
 79
     0
146
0.0
348
2F
 60
     3
 61
     5
292
     1
282
     1
141
0.0
142
0.0
 63
   250
421
  3355443
  0
VPORT
  5
38A
330
8
100
AcDbSymbolTableRecord
100
AcDbViewportTableRecord
  2
L4
 70
     0
 10
0.0
 20
0.5
 11
0.5
 21
1.0
 12
262.977318
 22
226.393018
 13
0.0
 23
0.0
 14
0.5
 24
0.5
 15
0.5
 25
0.5
 16
0.0
 26
0.0
 36
1.0
 17
0.0
 27
0.0
 37
0.0
 40
207.433333
 41
0.085602
 42
50.0
 43
320.84036
 44
-320.84036
 50
0.0
 51
0.0
 71
     0
 72
   100
 73
     1
 74
     3
 75
     0
 76
     0
 77
     0
 78
     0
281
     0
 65
     1
110
0.0
120
0.0
130
0.0
111
1.0
121
0.0
131
0.0
112
0.0
122
1.0
132
0.0
 79
     0
146
0.0
348
2F
 60
     3
 61
     5
292
     1
282
     1
141
0.0
142
0.0
 63
   250
421
  3355443
  0
VPORT
  5
38B
330
8
100
AcDbSymbolTableRecord
100
AcDbViewportTableRecord
  2
L4
 70
     0
 10
0.0
 20
0.0
 11
0.5
 21
0.5
 12
0.0
 22
0.0
 13
0.0
 23
0.0
 14
0.5
 24
0.5
 15
0.5
 25
0.5
 16
0.0
 26
-1.0
 36
0.0
 17
0.0
 27
0.0
 37
0.0
 40
1490.807042
 41
0.011911
 42
50.0
 43
771.91216
 44
-771.91216
 50
0.0
 51
0.0
 71
     0
 72
   100
 73
     1
 74
     3
 75
     0
 76
     0
 77
     0
 78
     0
281
     0
 65
     1
110
0.0
120
0.0
130
0.0
111
1.0
121
0.0
131
0.0
112
0.0
122
1.0
132
0.0
 79
     0
146
0.0
348
2F
 60
     3
 61
     5
292
     1
282
     1
141
0.0
142
0.0
 63
   250
421
  3355443
  0
VPORT
  5
38C
330
8
100
AcDbSymbolTableRecord
100
AcDbViewportTableRecord
  2
L4
 70
     0
 10
0.5
 20
0.0
 11
1.0
 21
0.5
 12
0.0
 22
0.0
 13
0.0
 23
0.0
 14
0.5
 24
0.5
 15
0.5
 25
0.5
 16
1.0
 26
0.0
 36
0.0
 17
0.0
 27
0.0
 37
0.0
 40
1490.807042
 41
0.011911
 42
50.0
 43
752.5845839999998
 44
-752.5845839999998
 50
0.0
 51
0.0
 71
     0
 72
   100
 73
     1
 74
     3
 75
     0
 76
     0
 77
     0
 78
     0
281
     0
 65
     1
110
0.0
120
0.0
130
0.0
111
1.0
121
0.0
131
0.0
112
0.0
122
1.0
132
0.0
 79
     0
146
0.0
348
2F
 60
     3
 61
     5
292
     1
282
     1
141
0.0
142
0.0
 63
   250
421
  3355443
  0
VPORT
  5
38D
330
8
100
AcDbSymbolTableRecord
100
AcDbViewportTableRecord
  2
L4
 70
     0
 10
0.5
 20
0.5
 11
1.0
 21
1.0
 12
0.0
 22
0.0
 13
0.0
 23
0.0
 14
0.5
 24
0.5
 15
0.5
 25
0.5
 16
0.577350269189626
 26
-0.577350269189626
 36
0.577350269189626
 17
0.0
 27
0.0
 37
0.0
 40
1465.674947
 41
0.012115
 42
50.0
 43
763.7677219999998
 44
-763.7677219999998
 50
0.0
 51
0.0
 71
     0
 72
   100
 73
     1
 74
     3
 75
     0
 76
     0
 77
     0
 78
     0
281
     0
 65
     1
110
0.0
120
0.0
130
0.0
111
1.0
121
0.0
131
0.0
112
0.0
122
1.0
132
0.0
 79
     0
146
0.0
348
2F
 60
     3
 61
     5
292
     1
282
     1
141
0.0
142
0.0
 63
   250
421
  3355443
  0
VPORT
  5
38E
330
8
100
AcDbSymbolTableRecord
100
AcDbViewportTableRecord
  2
L6
 70
     0
 10
0.0
 20
0.5
 11
0.333333
 21
1.0
 12
0.0
 22
0.0
 13
0.0
 23
0.0
 14
0.5
 24
0.5
 15
0.5
 25
0.5
 16
0.7188730927569435
 26
-0.5850486126764433
 36
0.3754192287502549
 17
0.0
 27
0.0
 37
0.0
 40
1547.711449
 41
0.011473
 42
50.0
 43
801.0723389999999
 44
-801.0723389999999
 50
0.0
 51
0.0
 71
     0
 72
   100
 73
     1
 74
     3
 75
     0
 76
     0
 77
     0
 78
     0
281
     0
 65
     1
110
0.0
120
0.0
130
0.0
111
1.0
121
0.0
131
0.0
112
0.0
122
1.0
132
0.0
 79
     0
146
0.0
348
2F
 60
     3
 61
     5
292
     1
282
     1
141
0.0
142
0.0
 63
   250
421
  3355443
  0
VPORT
  5
38F
330
8
100
AcDbSymbolTableRecord
100
AcDbViewportTableRecord
  2
L6
 70
     0
 10
0.0
 20
0.0
 11
0.333333
 21
0.5
 12
0.0
 22
0.0
 13
0.0
 23
0.0
 14
0.5
 24
0.5
 15
0.5
 25
0.5
 16
-1.0
 26
0.0
 36
0.0
 17
0.0
 27
0.0
 37
0.0
 40
1490.807042
 41
0.011911
 42
50.0
 43
752.5845839999998
 44
-752.5845839999998
 50
0.0
 51
0.0
 71
     0
 72
   100
 73
     1
 74
     3
 75
     0
 76
     0
 77
     0
 78
     0
281
     0
 65
     1
110
0.0
120
0.0
130
0.0
111
1.0
121
0.0
131
0.0
112
0.0
122
1.0
132
0.0
 79
     0
146
0.0
348
2F
 60
     3
 61
     5
292
     1
282
     1
141
0.0
142
0.0
 63
   250
421
  3355443
  0
VPORT
  5
390
330
8
100
AcDbSymbolTableRecord
100
AcDbViewportTableRecord
  2
L6
 70
     0
 10
0.333333
 20
0.5
 11
0.666667
 21
1.0
 12
262.977318
 22
226.393018
 13
0.0
 23
0.0
 14
0.5
 24
0.5
 15
0.5
 25
0.5
 16
0.0
 26
0.0
 36
1.0
 17
0.0
 27
0.0
 37
0.0
 40
207.433333
 41
0.085602
 42
50.0
 43
320.84036
 44
-320.84036
 50
0.0
 51
0.0
 71
     0
 72
   100
 73
     1
 74
     3
 75
     0
 76
     0
 77
     0
 78
     0
281
     0
 65
     1
110
0.0
120
0.0
130
0.0
111
1.0
121
0.0
131
0.0
112
0.0
122
1.0
132
0.0
 79
     0
146
0.0
348
2F
 60
     3
 61
     5
292
     1
282
     1
141
0.0
142
0.0
 63
   250
421
  3355443
  0
VPORT
  5
391
330
8
100
AcDbSymbolTableRecord
100
AcDbViewportTableRecord
  2
L6
 70
     0
 10
0.333333
 20
0.0
 11
0.666667
 21
0.5
 12
0.0
 22
0.0
 13
0.0
 23
0.0
 14
0.5
 24
0.5
 15
0.5
 25
0.5
 16
0.0
 26
-1.0
 36
0.0
 17
0.0
 27
0.0
 37
0.0
 40
1490.807042
 41
0.011911
 42
50.0
 43
771.91216
 44
-771.91216
 50
0.0
 51
0.0
 71
     0
 72
   100
 73
     1
 74
     3
 75
     0
 76
     0
 77
     0
 78
     0
281
     0
 65
     1
110
0.0
120
0.0
130
0.0
111
1.0
121
0.0
131
0.0
112
0.0
122
1.0
132
0.0
 79
     0
146
0.0
348
2F
 60
     3
 61
     5
292
     1
282
     1
141
0.0
142
0.0
 63
   250
421
  3355443
  0
VPORT
  5
392
330
8
100
AcDbSymbolTableRecord
100
AcDbViewportTableRecord
  2
L6
 70
     0
 10
0.666667
 20
0.5
 11
1.0
 21
1.0
 12
0.0
 22
0.0
 13
0.0
 23
0.0
 14
0.5
 24
0.5
 15
0.5
 25
0.5
 16
0.577350269189626
 26
-0.577350269189626
 36
0.577350269189626
 17
0.0
 27
0.0
 37
0.0
 40
1465.674947
 41
0.012115
 42
50.0
 43
763.7677219999998
 44
-763.7677219999998
 50
0.0
 51
0.0
 71
     0
 72
   100
 73
     1
 74
     3
 75
     0
 76
     0
 77
     0
 78
     0
281
     0
 65
     1
110
0.0
120
0.0
130
0.0
111
1.0
121
0.0
131
0.0
112
0.0
122
1.0
132
0.0
 79
     0
146
0.0
348
2F
 60
     3
 61
     5
292
     1
282
     1
141
0.0
142
0.0
 63
   250
421
  3355443
  0
VPORT
  5
393
330
8
100
AcDbSymbolTableRecord
100
AcDbViewportTableRecord
  2
L6
 70
     0
 10
0.666667
 20
0.0
 11
1.0
 21
0.5
 12
0.0
 22
0.0
 13
0.0
 23
0.0
 14
0.5
 24
0.5
 15
0.5
 25
0.5
 16
1.0
 26
0.0
 36
0.0
 17
0.0
 27
0.0
 37
0.0
 40
1490.807042
 41
0.011911
 42
50.0
 43
752.5845839999998
 44
-752.5845839999998
 50
0.0
 51
0.0
 71
     0
 72
   100
 73
     1
 74
     3
 75
     0
 76
     0
 77
     0
 78
     0
281
     0
 65
     1
110
0.0
120
0.0
130
0.0
111
1.0
121
0.0
131
0.0
112
0.0
122
1.0
132
0.0
 79
     0
146
0.0
348
2F
 60
     3
 61
     5
292
     1
282
     1
141
0.0
142
0.0
 63
   250
421
  3355443
  0
ENDTAB
  0
TABLE
  2
LTYPE
  5
5
330
0
100
AcDbSymbolTable
 70
     7
  0
LTYPE
  5
14
330
5
100
AcDbSymbolTableRecord
100
AcDbLinetypeTableRecord
  2
ByBlock
 70
     0
  3

 72
    65
 73
     0
 40
0.0
  0
LTYPE
  5
15
330
5
100
AcDbSymbolTableRecord
100
AcDbLinetypeTableRecord
  2
ByLayer
 70
     0
  3

 72
    65
 73
     0
 40
0.0
  0
LTYPE
  5
16
330
5
100
AcDbSymbolTableRecord
100
AcDbLinetypeTableRecord
  2
Continuous
 70
     0
  3
Solid line
 72
    65
 73
     0
 40
0.0
  0
LTYPE
  5
6E
330
5
100
AcDbSymbolTableRecord
100
AcDbLinetypeTableRecord
  2
CENTER
 70
     0
  3
____ _ ____ _ ____ _ ____
 72
    65
 73
     4
 40
47.4
 49
22.0
 74
     4
 75
     0
340
0
 46
0.0
 50
0.0
 44
0.0
 45
0.0
 49
-8.5
 74
     4
 75
     0
340
0
 46
0.0
 50
0.0
 44
0.0
 45
0.0
 49
8.5
 74
     4
 75
     0
340
0
 46
0.0
 50
0.0
 44
0.0
 45
0.0
 49
-8.5
 74
     4
 75
     0
340
0
 46
0.0
 50
0.0
 44
0.0
 45
0.0
  0
LTYPE
  5
6F
330
5
100
AcDbSymbolTableRecord
100
AcDbLinetypeTableRecord
  2
DASHDOT
 70
     0
  3
_._._._._._._._._._._._._._._._.
 72
    65
 73
     4
 40
70.0
 49
31.0
 74
     4
 75
     0
340
0
 46
0.0
 50
0.0
 44
0.0
 45
0.0
 49
-13.0
 74
     4
 75
     0
340
0
 46
0.0
 50
0.0
 44
0.0
 45
0.0
 49
13.0
 74
     4
 75
     0
340
0
 46
0.0
 50
0.0
 44
0.0
 45
0.0
 49
-13.0
 74
     4
 75
     0
340
0
 46
0.0
 50
0.0
 44
0.0
 45
0.0
  0
LTYPE
  5
70
330
5
100
AcDbSymbolTableRecord
100
AcDbLinetypeTableRecord
  2
DASHED
 70
     0
  3
__ __ __ __ __ __ __ __ __
 72
    65
 73
     2
 40
25.72
 49
12.86
 74
     4
 75
     0
340
0
 46
0.0
 50
0.0
 44
0.0
 45
0.0
 49
-12.86
 74
     4
 75
     0
340
0
 46
0.0
 50
0.0
 44
0.0
 45
0.0
  0
LTYPE
  5
71
330
5
100
AcDbSymbolTableRecord
100
AcDbLinetypeTableRecord
  2
DOT
 70
     0
  3
.........................
 72
    65
 73
     2
 40
10.0
 49
0.0
 74
     4
 75
     0
340
0
 46
0.0
 50
0.0
 44
0.0
 45
0.0
 49
-10.0
 74
     4
 75
     0
340
0
 46
0.0
 50
0.0
 44
0.0
 45
0.0
  0
LTYPE
  5
72
330
5
100
AcDbSymbolTableRecord
100
AcDbLinetypeTableRecord
  2
PHANTOM
 70
     0
  3
____ _ _ ____ _ _ _____ _ _ ____
 72
    65
 73
     6
 40
50.5
 49
18.0
 74
     4
 75
     0
340
0
 46
0.0
 50
0.0
 44
0.0
 45
0.0
 49
-6.5
 74
     4
 75
     0
340
0
 46
0.0
 50
0.0
 44
0.0
 45
0.0
 49
6.5
 74
     4
 75
     0
340
0
 46
0.0
 50
0.0
 44
0.0
 45
0.0
 49
-6.5
 74
     4
 75
     0
340
0
 46
0.0
 50
0.0
 44
0.0
 45
0.0
 49
6.5
 74
     4
 75
     0
340
0
 46
0.0
 50
0.0
 44
0.0
 45
0.0
 49
-6.5
 74
     4
 75
     0
340
0
 46
0.0
 50
0.0
 44
0.0
 45
0.0
  0
LTYPE
  5
410
330
5
100
AcDbSymbolTableRecord
100
AcDbLinetypeTableRecord
  2
CENTER2
 70
     0
  3
Center (.5x) ___ _ ___ _ ___ _ ___ _ ___ _ ___
 72
    65
 73
     4
 40
1.125
 49
0.75
 74
     0
 49
-0.125
 74
     0
 49
0.125
 74
     0
 49
-0.125
 74
     0
  0
ENDTAB
  0
TABLE
  2
LAYER
  5
2
102
{ACAD_XDICTIONARY
360
654
102
}
330
0
100
AcDbSymbolTable
 70
    16
  0
LAYER
  5
10
102
{ACAD_XDICTIONARY
360
41A
102
}
330
2
100
AcDbSymbolTableRecord
100
AcDbLayerTableRecord
  2
0
 70
     0
 62
     7
  6
Continuous
370
    -3
390
F
347
46
348
0
  0
LAYER
  5
79
102
{ACAD_XDICTIONARY
360
41C
102
}
330
2
100
AcDbSymbolTableRecord
100
AcDbLayerTableRecord
  2
41
 70
     0
 62
     7
420
 16777215
  6
Continuous
370
    -3
390
F
347
46
348
0
  0
LAYER
  5
2F6
330
2
100
AcDbSymbolTableRecord
100
AcDbLayerTableRecord
  2
Defpoints
 70
     0
 62
     7
  6
Continuous
290
     0
370
    -3
390
F
347
46
348
0
  0
LAYER
  5
40D
102
{ACAD_XDICTIONARY
360
41E
102
}
330
2
100
AcDbSymbolTableRecord
100
AcDbLayerTableRecord
  2
1
 70
     0
 62
     4
  6
Continuous
370
    -3
390
F
347
46
348
0
  0
LAYER
  5
40E
102
{ACAD_XDICTIONARY
360
420
102
}
330
2
100
AcDbSymbolTableRecord
100
AcDbLayerTableRecord
  2
2
 70
     0
 62
     7
  6
Continuous
370
    -3
390
F
347
46
348
0
  0
LAYER
  5
40F
102
{ACAD_XDICTIONARY
360
422
102
}
330
2
100
AcDbSymbolTableRecord
100
AcDbLayerTableRecord
  2
4
 70
     0
 62
     2
  6
CENTER2
370
    -3
390
F
347
46
348
0
  0
LAYER
  5
411
102
{ACAD_XDICTIONARY
360
424
102
}
330
2
100
AcDbSymbolTableRecord
100
AcDbLayerTableRecord
  2
SK1
 70
     0
 62
     4
  6
Continuous
370
    -3
390
F
347
46
348
0
  0
LAYER
  5
412
102
{ACAD_XDICTIONARY
360
426
102
}
330
2
100
AcDbSymbolTableRecord
100
AcDbLayerTableRecord
  2
SK2
 70
     0
 62
     7
  6
Continuous
370
    -3
390
F
347
46
348
0
  0
LAYER
  5
413
102
{ACAD_XDICTIONARY
360
428
102
}
330
2
100
AcDbSymbolTableRecord
100
AcDbLayerTableRecord
  2
SK3
 70
     0
 62
     1
  6
DASHED
370
    -3
390
F
347
46
348
0
  0
LAYER
  5
414
102
{ACAD_XDICTIONARY
360
42A
102
}
330
2
100
AcDbSymbolTableRecord
100
AcDbLayerTableRecord
  2
SK4
 70
     0
 62
     2
  6
CENTER2
370
    -3
390
F
347
46
348
0
  0
LAYER
  5
415
102
{ACAD_XDICTIONARY
360
42C
102
}
330
2
100
AcDbSymbolTableRecord
100
AcDbLayerTableRecord
  2
SK6
 70
     0
 62
     5
  6
Continuous
370
    -3
390
F
347
46
348
0
  0
LAYER
  5
416
102
{ACAD_XDICTIONARY
360
42E
102
}
330
2
100
AcDbSymbolTableRecord
100
AcDbLayerTableRecord
  2
CUT
 70
     0
 62
     1
  6
Continuous
370
    -3
390
F
347
46
348
0
  0
LAYER
  5
417
102
{ACAD_XDICTIONARY
360
430
102
}
330
2
100
AcDbSymbolTableRecord
100
AcDbLayerTableRecord
  2
NOCUT
 70
     0
 62
     7
  6
Continuous
370
    -3
390
F
347
46
348
0
  0
LAYER
  5
418
102
{ACAD_XDICTIONARY
360
432
102
}
330
2
100
AcDbSymbolTableRecord
100
AcDbLayerTableRecord
  2
80
 70
     0
 62
     6
  6
Continuous
370
    -3
390
F
347
46
348
0
  0
LAYER
  5
419
102
{ACAD_XDICTIONARY
360
434
102
}
330
2
100
AcDbSymbolTableRecord
100
AcDbLayerTableRecord
  2
81
 70
     0
 62
     3
  6
Continuous
370
    -3
390
F
347
46
348
0
  0
LAYER
  5
49C
330
2
100
AcDbSymbolTableRecord
100
AcDbLayerTableRecord
  2
*ADSK_CONSTRAINTS
 70
     0
 62
     7
  6
Continuous
370
    -3
390
F
347
46
348
0
  0
ENDTAB
  0
TABLE
  2
STYLE
  5
3
330
0
100
AcDbSymbolTable
 70
     5
  0
STYLE
  5
11
330
3
100
AcDbSymbolTableRecord
100
AcDbTextStyleTableRecord
  2
Standard
 70
     0
 40
0.0
 41
1.0
 50
0.0
 71
     0
 42
2.5
  3
txt
  4

  0
STYLE
  5
2F0
330
3
100
AcDbSymbolTableRecord
100
AcDbTextStyleTableRecord
  2
cesky
 70
     0
 40
0.0
 41
1.0
 50
0.0
 71
     0
 42
0.2
  3
simplex.shx
  4

  0
STYLE
  5
2F1
330
3
100
AcDbSymbolTableRecord
100
AcDbTextStyleTableRecord
  2
DWGDirectTextStyle
 70
     0
 40
0.0
 41
1.0
 50
0.0
 71
     0
 42
0.2
  3
simplex
  4

  0
ENDTAB
  0
TABLE
  2
VIEW
  5
6
330
0
100
AcDbSymbolTable
 70
     0
  0
ENDTAB
  0
TABLE
  2
UCS
  5
7
330
0
100
AcDbSymbolTable
 70
     0
  0
ENDTAB
  0
TABLE
  2
APPID
  5
9
330
0
100
AcDbSymbolTable
 70
    11
  0
APPID
  5
12
330
9
100
AcDbSymbolTableRecord
100
AcDbRegAppTableRecord
  2
ACAD
 70
     0
  0
APPID
  5
2F2
330
9
100
AcDbSymbolTableRecord
100
AcDbRegAppTableRecord
  2
ACAD_DSTYLE_DIMBREAK
 70
     0
  0
APPID
  5
394
330
9
100
AcDbSymbolTableRecord
100
AcDbRegAppTableRecord
  2
ACAD_DSTYLE_DIM_LINETYPE
 70
     0
  0
APPID
  5
395
330
9
100
AcDbSymbolTableRecord
100
AcDbRegAppTableRecord
  2
ACAD_DSTYLE_DIM_EXT1_LINETYPE
 70
     0
  0
APPID
  5
396
330
9
100
AcDbSymbolTableRecord
100
AcDbRegAppTableRecord
  2
ACAD_DSTYLE_DIM_EXT2_LINETYPE
 70
     0
  0
APPID
  5
3D6
330
9
100
AcDbSymbolTableRecord
100
AcDbRegAppTableRecord
  2
ACAD_MLEADERVER
 70
     0
  0
APPID
  5
439
330
9
100
AcDbSymbolTableRecord
100
AcDbRegAppTableRecord
  2
ACAD_NAV_VCDISPLAY
 70
     0
  0
APPID
  5
479
330
9
100
AcDbSymbolTableRecord
100
AcDbRegAppTableRecord
  2
ACAD_EXEMPT_FROM_CAD_STANDARDS
 70
     0
  0
APPID
  5
4A3
330
9
100
AcDbSymbolTableRecord
100
AcDbRegAppTableRecord
  2
ACAD_DSTYLE_DIMINSPECT
 70
     0
  0
APPID
  5
4A4
330
9
100
AcDbSymbolTableRecord
100
AcDbRegAppTableRecord
  2
ACAD_DSTYLE_DIMJAG_POSITION
 70
     0
  0
APPID
  5
4A6
330
9
100
AcDbSymbolTableRecord
100
AcDbRegAppTableRecord
  2
AcadAnnoMonitorAlertIconDisabled
 70
     0
  0
ENDTAB
  0
TABLE
  2
DIMSTYLE
  5
A
330
0
100
AcDbSymbolTable
 70
     3
100
AcDbDimStyleTable
 71
     1
340
27
  0
DIMSTYLE
105
27
102
{ACAD_REACTORS
330
4D3
330
4D8
330
4E1
330
4E7
330
4FA
330
56B
330
5C6
102
}
330
A
100
AcDbSymbolTableRecord
100
AcDbDimStyleTableRecord
  2
Standard
 70
     0
340
11
1001
ACAD_DSTYLE_DIMBREAK
1070
   391
1040
6.349999999999998
  0
ENDTAB
  0
TABLE
  2
BLOCK_RECORD
  5
1
330
0
100
AcDbSymbolTable
 70
    11
  0
BLOCK_RECORD
  5
1F
102
{ACAD_XDICTIONARY
360
3E6
102
}
330
1
100
AcDbSymbolTableRecord
100
AcDbBlockTableRecord
  2
*Model_Space
340
22
 70
     0
280
     1
281
     0
  0
BLOCK_RECORD
  5
1B
330
1
100
AcDbSymbolTableRecord
100
AcDbBlockTableRecord
  2
*Paper_Space
340
1E
 70
     0
280
     1
281
     0
  0
BLOCK_RECORD
  5
23
330
1
100
AcDbSymbolTableRecord
100
AcDbBlockTableRecord
  2
*Paper_Space0
340
26
 70
     0
280
     1
281
     0
  0
BLOCK_RECORD
  5
302
330
1
100
AcDbSymbolTableRecord
100
AcDbBlockTableRecord
  2
_U0
340
0
 70
     0
280
     1
281
     0
  0
BLOCK_RECORD
  5
319
330
1
100
AcDbSymbolTableRecord
100
AcDbBlockTableRecord
  2
_U1
340
0
 70
     0
280
     1
281
     0
  0
BLOCK_RECORD
  5
334
330
1
100
AcDbSymbolTableRecord
100
AcDbBlockTableRecord
  2
_U2
340
0
 70
     0
280
     1
281
     0
  0
BLOCK_RECORD
  5
34C
330
1
100
AcDbSymbolTableRecord
100
AcDbBlockTableRecord
  2
_U3
340
0
 70
     0
280
     1
281
     0
  0
BLOCK_RECORD
  5
364
330
1
100
AcDbSymbolTableRecord
100
AcDbBlockTableRecord
  2
_U4
340
0
 70
     0
280
     1
281
     0
  0
BLOCK_RECORD
  5
37C
330
1
100
AcDbSymbolTableRecord
100
AcDbBlockTableRecord
  2
_U5
340
0
 70
     0
280
     1
281
     0
  0
BLOCK_RECORD
  5
49D
330
1
100
AcDbSymbolTableRecord
100
AcDbBlockTableRecord
  2
_ClosedBlank
340
0
 70
     0
280
     1
281
     0
  0
BLOCK_RECORD
  5
4FB
330
1
100
AcDbSymbolTableRecord
100
AcDbBlockTableRecord
  2
*D8
340
0
 70
     0
280
     1
281
     0
  0
BLOCK_RECORD
  5
56C
330
1
100
AcDbSymbolTableRecord
100
AcDbBlockTableRecord
  2
*D9
340
0
 70
     0
280
     1
281
     0
  0
BLOCK_RECORD
  5
5C7
330
1
100
AcDbSymbolTableRecord
100
AcDbBlockTableRecord
  2
*D10
340
0
 70
     0
280
     1
281
     0
  0
ENDTAB
  0
ENDSEC
  0
SECTION
  2
BLOCKS
  0
BLOCK
  5
20
330
1F
100
AcDbEntity
  8
0
100
AcDbBlockBegin
  2
*Model_Space
 70
     0
 10
0.0
 20
0.0
 30
0.0
  3
*Model_Space
  1

  0
ENDBLK
  5
21
330
1F
100
AcDbEntity
  8
0
100
AcDbBlockEnd
  0
BLOCK
  5
1C
330
1B
100
AcDbEntity
 67
     1
  8
0
100
AcDbBlockBegin
  2
*Paper_Space
 70
     0
 10
0.0
 20
0.0
 30
0.0
  3
*Paper_Space
  1

  0
ENDBLK
  5
1D
330
1B
100
AcDbEntity
 67
     1
  8
0
100
AcDbBlockEnd
  0
BLOCK
  5
24
330
23
100
AcDbEntity
 67
     1
  8
0
100
AcDbBlockBegin
  2
*Paper_Space0
 70
     0
 10
0.0
 20
0.0
 30
0.0
  3
*Paper_Space0
  1

  0
ENDBLK
  5
25
330
23
100
AcDbEntity
 67
     1
  8
0
100
AcDbBlockEnd
  0
BLOCK
  5
308
330
302
100
AcDbEntity
  8
0
100
AcDbBlockBegin
  2
_U0
 70
     0
 10
0.0
 20
0.0
 30
0.0
  3
_U0
  1

  0
MTEXT
  5
303
330
302
100
AcDbEntity
  8
41
  6
Continuous
 62
   254
440
 16777216
370
    13
100
AcDbMText
 10
349.346964
 20
219.97965
 30
0.0
 40
3.5
 41
0.0
 46
0.0
 71
     7
 72
     5
  1
\W0.8654;19,05
  7
cesky
 11
0.0000000000000001
 21
1.0
 31
0.0
 73
     2
 44
0.8433729999999998
  0
MTEXT
  5
304
330
302
100
AcDbEntity
  8
41
  6
Continuous
 62
   254
440
 16777216
370
    13
100
AcDbMText
 10
349.346964
 20
211.22965
 30
0.0
 40
3.5
 41
0.0
 46
0.0
 71
     7
 72
     5
  1
\W3.2308;%%c
  7
cesky
 11
0.0000000000000001
 21
1.0
 31
0.0
 73
     2
 44
0.8433729999999998
  0
LINE
  5
305
330
302
100
AcDbEntity
  8
41
 62
   254
440
 16777216
370
    13
100
AcDbLine
 10
334.886675
 20
235.742943
 30
0.0
 11
352.45313
 21
235.742943
 31
0.0
  0
LINE
  5
306
330
302
100
AcDbEntity
  8
41
 62
   254
440
 16777216
370
    13
100
AcDbLine
 10
350.45313
 20
235.742943
 30
0.0
 11
350.45313
 21
211.07215
 31
0.0
  0
SOLID
  5
307
330
302
100
AcDbEntity
  8
41
 62
   254
440
 16777216
370
    13
100
AcDbTrace
 10
350.45313
 20
235.742943
 30
0.0
 11
350.893948
 21
233.242944
 31
0.0
 12
350.012313
 22
233.242941
 32
0.0
 13
350.012313
 23
233.242941
 33
0.0
  0
ENDBLK
  5
309
330
302
100
AcDbEntity
  8
0
100
AcDbBlockEnd
  0
BLOCK
  5
321
330
319
100
AcDbEntity
  8
0
100
AcDbBlockBegin
  2
_U1
 70
     0
 10
0.0
 20
0.0
 30
0.0
  3
_U1
  1

  0
MTEXT
  5
31A
330
319
100
AcDbEntity
  8
41
  6
Continuous
 62
    95
440
 16777216
370
    13
100
AcDbMText
 10
179.3953389999999
 20
226.225443
 30
0.0
 40
3.5
 41
0.0
 46
0.0
 71
     7
 72
     5
  1
\W0.8329;25,4
  7
cesky
 11
0.0000000000000001
 21
1.0
 31
0.0
 73
     2
 44
0.8433729999999998
  0
MTEXT
  5
31B
330
319
100
AcDbEntity
  8
41
  6
Continuous
 62
    95
440
 16777216
370
    13
100
AcDbMText
 10
179.3953389999999
 20
217.475443
 30
0.0
 40
3.5
 41
0.0
 46
0.0
 71
     7
 72
     5
  1
\W3.2308;%%c
  7
cesky
 11
0.0000000000000001
 21
1.0
 31
0.0
 73
     2
 44
0.8433729999999998
  0
LINE
  5
31C
330
319
100
AcDbEntity
  8
41
 62
    95
440
 16777216
370
    13
100
AcDbLine
 10
192.386675
 20
238.917943
 30
0.0
 11
178.501506
 21
238.917943
 31
0.0
  0
LINE
  5
31D
330
319
100
AcDbEntity
  8
41
 62
    95
440
 16777216
370
    13
100
AcDbLine
 10
192.386675
 20
213.517943
 30
0.0
 11
178.501506
 21
213.517943
 31
0.0
  0
LINE
  5
31E
330
319
100
AcDbEntity
  8
41
 62
    95
440
 16777216
370
    13
100
AcDbLine
 10
180.501506
 20
238.917943
 30
0.0
 11
180.501506
 21
213.517943
 31
0.0
  0
SOLID
  5
31F
330
319
100
AcDbEntity
  8
41
 62
    95
440
 16777216
370
    13
100
AcDbTrace
 10
180.501506
 20
238.917943
 30
0.0
 11
180.942323
 21
236.417944
 31
0.0
 12
180.060689
 22
236.417941
 32
0.0
 13
180.060689
 23
236.417941
 33
0.0
  0
SOLID
  5
320
330
319
100
AcDbEntity
  8
41
 62
    95
440
 16777216
370
    13
100
AcDbTrace
 10
180.501506
 20
213.517943
 30
0.0
 11
180.060689
 21
216.017941
 31
0.0
 12
180.942323
 22
216.017944
 32
0.0
 13
180.942323
 23
216.017944
 33
0.0
  0
ENDBLK
  5
322
330
319
100
AcDbEntity
  8
0
100
AcDbBlockEnd
  0
BLOCK
  5
33B
330
334
100
AcDbEntity
  8
0
100
AcDbBlockBegin
  2
_U2
 70
     0
 10
0.0
 20
0.0
 30
0.0
  3
_U2
  1

  0
MTEXT
  5
335
330
334
100
AcDbEntity
  8
41
  6
Continuous
 62
   254
440
 16777216
370
    13
100
AcDbMText
 10
315.547175
 20
247.542596
 30
0.0
 40
3.5
 41
0.0
 46
0.0
 71
     7
 72
     5
  1
\W0.8874;2,5
  7
cesky
 73
     2
 44
0.8433729999999998
  0
LINE
  5
336
330
334
100
AcDbEntity
  8
41
 62
   254
440
 16777216
370
    13
100
AcDbLine
 10
332.886675
 20
236.742943
 30
0.0
 11
332.886675
 21
248.968429
 31
0.0
  0
LINE
  5
337
330
334
100
AcDbEntity
  8
41
 62
   254
440
 16777216
370
    13
100
AcDbLine
 10
330.386675
 20
236.742943
 30
0.0
 11
330.386675
 21
248.968429
 31
0.0
  0
LINE
  5
338
330
334
100
AcDbEntity
  8
41
 62
   254
440
 16777216
370
    13
100
AcDbLine
 10
315.361675
 20
246.968429
 30
0.0
 11
341.636675
 21
246.968429
 31
0.0
  0
SOLID
  5
339
330
334
100
AcDbEntity
  8
41
 62
   254
440
 16777216
370
    13
100
AcDbTrace
 10
332.886675
 20
246.968429
 30
0.0
 11
335.386673
 21
247.409246
 31
0.0
 12
335.386677
 22
246.527611
 32
0.0
 13
335.386677
 23
246.527611
 33
0.0
  0
SOLID
  5
33A
330
334
100
AcDbEntity
  8
41
 62
   254
440
 16777216
370
    13
100
AcDbTrace
 10
330.386675
 20
246.968429
 30
0.0
 11
327.886677
 21
246.527611
 31
0.0
 12
327.886673
 22
247.409246
 32
0.0
 13
327.886673
 23
247.409246
 33
0.0
  0
ENDBLK
  5
33C
330
334
100
AcDbEntity
  8
0
100
AcDbBlockEnd
  0
BLOCK
  5
353
330
34C
100
AcDbEntity
  8
0
100
AcDbBlockBegin
  2
_U3
 70
     0
 10
0.0
 20
0.0
 30
0.0
  3
_U3
  1

  0
MTEXT
  5
34D
330
34C
100
AcDbEntity
  8
41
  6
Continuous
 62
    95
440
 16777216
370
    13
100
AcDbMText
 10
283.259675
 20
266.110922
 30
0.0
 40
3.5
 41
0.0
 46
0.0
 71
     7
 72
     5
  1
\W0.8242;88,05
  7
cesky
 73
     2
 44
0.8433729999999998
  0
LINE
  5
34E
330
34C
100
AcDbEntity
  8
41
 62
    95
440
 16777216
370
    13
100
AcDbLine
 10
332.886675
 20
237.742943
 30
0.0
 11
332.886675
 21
267.536756
 31
0.0
  0
LINE
  5
34F
330
34C
100
AcDbEntity
  8
41
 62
    95
440
 16777216
370
    13
100
AcDbLine
 10
244.836675
 20
228.217943
 30
0.0
 11
244.836675
 21
267.536756
 31
0.0
  0
LINE
  5
350
330
34C
100
AcDbEntity
  8
41
 62
    95
440
 16777216
370
    13
100
AcDbLine
 10
332.886675
 20
265.536756
 30
0.0
 11
244.836675
 21
265.536756
 31
0.0
  0
SOLID
  5
351
330
34C
100
AcDbEntity
  8
41
 62
    95
440
 16777216
370
    13
100
AcDbTrace
 10
332.886675
 20
265.536756
 30
0.0
 11
330.386677
 21
265.095938
 31
0.0
 12
330.386673
 22
265.977573
 32
0.0
 13
330.386673
 23
265.977573
 33
0.0
  0
SOLID
  5
352
330
34C
100
AcDbEntity
  8
41
 62
    95
440
 16777216
370
    13
100
AcDbTrace
 10
244.836675
 20
265.536756
 30
0.0
 11
247.336673
 21
265.977573
 31
0.0
 12
247.336677
 22
265.095938
 32
0.0
 13
247.336677
 23
265.095938
 33
0.0
  0
ENDBLK
  5
354
330
34C
100
AcDbEntity
  8
0
100
AcDbBlockEnd
  0
BLOCK
  5
36B
330
364
100
AcDbEntity
  8
0
100
AcDbBlockBegin
  2
_U4
 70
     0
 10
0.0
 20
0.0
 30
0.0
  3
_U4
  1

  0
MTEXT
  5
365
330
364
100
AcDbEntity
  8
41
  6
Continuous
 62
   254
440
 16777216
370
    13
100
AcDbMText
 10
286.009675
 20
257.735333
 30
0.0
 40
3.5
 41
0.0
 46
0.0
 71
     7
 72
     5
  1
\W0.8242;82,55
  7
cesky
 73
     2
 44
0.8433729999999998
  0
LINE
  5
366
330
364
100
AcDbEntity
  8
41
 62
   254
440
 16777216
370
    13
100
AcDbLine
 10
332.886675
 20
237.742943
 30
0.0
 11
332.886675
 21
259.161166
 31
0.0
  0
LINE
  5
367
330
364
100
AcDbEntity
  8
41
 62
   254
440
 16777216
370
    13
100
AcDbLine
 10
250.336675
 20
239.917943
 30
0.0
 11
250.336675
 21
259.161166
 31
0.0
  0
LINE
  5
368
330
364
100
AcDbEntity
  8
41
 62
   254
440
 16777216
370
    13
100
AcDbLine
 10
332.886675
 20
257.161166
 30
0.0
 11
250.336675
 21
257.161166
 31
0.0
  0
SOLID
  5
369
330
364
100
AcDbEntity
  8
41
 62
   254
440
 16777216
370
    13
100
AcDbTrace
 10
332.886675
 20
257.161166
 30
0.0
 11
330.386677
 21
256.720349
 31
0.0
 12
330.386673
 22
257.601983
 32
0.0
 13
330.386673
 23
257.601983
 33
0.0
  0
SOLID
  5
36A
330
364
100
AcDbEntity
  8
41
 62
   254
440
 16777216
370
    13
100
AcDbTrace
 10
250.336675
 20
257.161166
 30
0.0
 11
252.836673
 21
257.601983
 31
0.0
 12
252.836677
 22
256.720349
 32
0.0
 13
252.836677
 23
256.720349
 33
0.0
  0
ENDBLK
  5
36C
330
364
100
AcDbEntity
  8
0
100
AcDbBlockEnd
  0
BLOCK
  5
383
330
37C
100
AcDbEntity
  8
0
100
AcDbBlockBegin
  2
_U5
 70
     0
 10
0.0
 20
0.0
 30
0.0
  3
_U5
  1

  0
MTEXT
  5
37D
330
37C
100
AcDbEntity
  8
41
  6
Continuous
 62
   254
440
 16777216
370
    13
100
AcDbMText
 10
257.034675
 20
276.086321
 30
0.0
 40
3.5
 41
0.0
 46
0.0
 71
     7
 72
     5
  1
\W0.8654;140,5
  7
cesky
 73
     2
 44
0.8433729999999998
  0
LINE
  5
37E
330
37C
100
AcDbEntity
  8
41
 62
   254
440
 16777216
370
    13
100
AcDbLine
 10
332.886675
 20
236.742943
 30
0.0
 11
332.886675
 21
277.512154
 31
0.0
  0
LINE
  5
37F
330
37C
100
AcDbEntity
  8
41
 62
   254
440
 16777216
370
    13
100
AcDbLine
 10
192.386675
 20
227.217943
 30
0.0
 11
192.386675
 21
277.512154
 31
0.0
  0
LINE
  5
380
330
37C
100
AcDbEntity
  8
41
 62
   254
440
 16777216
370
    13
100
AcDbLine
 10
332.886675
 20
275.512154
 30
0.0
 11
192.386675
 21
275.512154
 31
0.0
  0
SOLID
  5
381
330
37C
100
AcDbEntity
  8
41
 62
   254
440
 16777216
370
    13
100
AcDbTrace
 10
332.886675
 20
275.512154
 30
0.0
 11
330.386677
 21
275.071337
 31
0.0
 12
330.386673
 22
275.952971
 32
0.0
 13
330.386673
 23
275.952971
 33
0.0
  0
SOLID
  5
382
330
37C
100
AcDbEntity
  8
41
 62
   254
440
 16777216
370
    13
100
AcDbTrace
 10
192.386675
 20
275.512154
 30
0.0
 11
194.886673
 21
275.952971
 31
0.0
 12
194.886677
 22
275.071337
 32
0.0
 13
194.886677
 23
275.071337
 33
0.0
  0
ENDBLK
  5
384
330
37C
100
AcDbEntity
  8
0
100
AcDbBlockEnd
  0
BLOCK
  5
4A1
330
49D
100
AcDbEntity
  8
0
370
    13
100
AcDbBlockBegin
  2
_ClosedBlank
 70
     0
 10
0.0
 20
0.0
 30
0.0
  3
_ClosedBlank
  1

  0
LINE
  5
49E
330
49D
100
AcDbEntity
  8
0
  6
ByBlock
 62
     0
370
    -2
100
AcDbLine
 10
-1.0
 20
0.1666666666666666
 30
0.0
 11
0.0
 21
0.0
 31
0.0
  0
LINE
  5
49F
330
49D
100
AcDbEntity
  8
0
  6
ByBlock
 62
     0
370
    -2
100
AcDbLine
 10
0.0
 20
0.0
 30
0.0
 11
-1.0
 21
-0.1666666666666666
 31
0.0
  0
LINE
  5
4A0
330
49D
100
AcDbEntity
  8
0
  6
ByBlock
 62
     0
370
    -2
100
AcDbLine
 10
-1.0
 20
0.1666666666666666
 30
0.0
 11
-1.0
 21
-0.1666666666666666
 31
0.0
  0
ENDBLK
  5
4A2
330
49D
100
AcDbEntity
  8
0
370
    13
100
AcDbBlockEnd
  0
BLOCK
  5
4FC
330
4FB
100
AcDbEntity
  8
0
370
    13
100
AcDbBlockBegin
  2
*D8
 70
     1
 10
0.0
 20
0.0
 30
0.0
  3
*D8
  1

  0
LINE
  5
3D55
330
4FB
100
AcDbEntity
  8
2
 62
     0
440
 16777216
370
    -2
100
AcDbLine
 10
-0.0000000000000048
 20
10.8125
 30
0.0
 11
-0.0000000000000045
 21
16.31815191103222
 31
0.0
  0
LINE
  5
3D56
330
4FB
100
AcDbEntity
  8
2
 62
     0
440
 16777216
370
    -2
100
AcDbLine
 10
14.8
 20
0.0625
 30
0.0
 11
14.8
 21
16.31815191103222
 31
0.0
  0
LINE
  5
3D57
330
4FB
100
AcDbEntity
  8
2
 62
     0
440
 16777216
370
    -2
100
AcDbLine
 10
0.4999999999999955
 20
16.13815191103222
 30
0.0
 11
14.3
 21
16.13815191103222
 31
0.0
  0
SOLID
  5
3D58
330
4FB
100
AcDbEntity
  8
2
 62
     0
440
 16777216
370
    13
100
AcDbTrace
 10
0.4999999999999955
 20
16.22148524436555
 30
0.0
 11
0.4999999999999955
 21
16.05481857769889
 31
0.0
 12
-0.0000000000000045
 22
16.13815191103222
 32
0.0
 13
-0.0000000000000045
 23
16.13815191103222
 33
0.0
  0
SOLID
  5
3D59
330
4FB
100
AcDbEntity
  8
2
 62
     0
440
 16777216
370
    13
100
AcDbTrace
 10
14.3
 20
16.22148524436555
 30
0.0
 11
14.3
 21
16.05481857769889
 31
0.0
 12
14.8
 22
16.13815191103222
 32
0.0
 13
14.8
 23
16.13815191103222
 33
0.0
  0
MTEXT
  5
3D5A
330
4FB
100
AcDbEntity
  8
2
 62
     0
440
 16777216
370
    13
100
AcDbMText
 10
7.399999999999998
 20
16.61815191103222
 30
0.0
 40
0.8
 41
0.0
 46
0.0
 71
     5
 72
     1
  1
\A1;14.8
 73
     1
 44
1.0
  0
POINT
  5
3D5B
330
4FB
100
AcDbEntity
  8
Defpoints
 62
     0
440
 16777216
370
    13
100
AcDbPoint
 10
-0.0000000000000048
 20
10.75
 30
0.0
  0
POINT
  5
3D5C
330
4FB
100
AcDbEntity
  8
Defpoints
 62
     0
440
 16777216
370
    13
100
AcDbPoint
 10
14.8
 20
0.0
 30
0.0
  0
POINT
  5
3D5D
330
4FB
100
AcDbEntity
  8
Defpoints
 62
     0
440
 16777216
370
    13
100
AcDbPoint
 10
14.8
 20
16.13815191103222
 30
0.0
  0
ENDBLK
  5
4FD
330
4FB
100
AcDbEntity
  8
0
370
    13
100
AcDbBlockEnd
  0
BLOCK
  5
56D
330
56C
100
AcDbEntity
  8
0
370
    13
100
AcDbBlockBegin
  2
*D9
 70
     1
 10
0.0
 20
0.0
 30
0.0
  3
*D9
  1

  0
LINE
  5
3D40
330
56C
100
AcDbEntity
  8
2
 62
     0
440
 16777216
370
    -2
100
AcDbLine
 10
10.94981998163833
 20
10.75
 30
0.0
 11
26.31162654698361
 21
10.75
 31
0.0
  0
LINE
  5
3D41
330
56C
100
AcDbEntity
  8
2
 62
     0
440
 16777216
370
    -2
100
AcDbLine
 10
10.94981998163833
 20
-10.75
 30
0.0
 11
26.31162654698361
 21
-10.75
 31
0.0
  0
LINE
  5
3D42
330
56C
100
AcDbEntity
  8
2
 62
     0
440
 16777216
370
    -2
100
AcDbLine
 10
26.13162654698361
 20
10.25
 30
0.0
 11
26.13162654698362
 21
-10.25
 31
0.0
  0
SOLID
  5
3D43
330
56C
100
AcDbEntity
  8
2
 62
     0
440
 16777216
370
    13
100
AcDbTrace
 10
26.04829321365027
 20
10.25
 30
0.0
 11
26.21495988031694
 21
10.25
 31
0.0
 12
26.13162654698361
 22
10.75
 32
0.0
 13
26.13162654698361
 23
10.75
 33
0.0
  0
SOLID
  5
3D44
330
56C
100
AcDbEntity
  8
2
 62
     0
440
 16777216
370
    13
100
AcDbTrace
 10
26.04829321365028
 20
-10.25
 30
0.0
 11
26.21495988031695
 21
-10.25
 31
0.0
 12
26.13162654698362
 22
-10.75
 32
0.0
 13
26.13162654698362
 23
-10.75
 33
0.0
  0
MTEXT
  5
3D45
330
56C
100
AcDbEntity
  8
2
 62
     0
440
 16777216
370
    13
100
AcDbMText
 10
25.6516265469836
 20
0.0747091765835482
 30
0.0
 40
0.8
 41
0.0
 46
0.0
 71
     5
 72
     1
  1
\A1;21.50
 11
0.0000000000000001
 21
1.0
 31
0.0
 73
     1
 44
1.0
  0
POINT
  5
3D46
330
56C
100
AcDbEntity
  8
Defpoints
 62
     0
440
 16777216
370
    13
100
AcDbPoint
 10
10.88731998163833
 20
10.75
 30
0.0
  0
POINT
  5
3D47
330
56C
100
AcDbEntity
  8
Defpoints
 62
     0
440
 16777216
370
    13
100
AcDbPoint
 10
10.88731998163833
 20
-10.75
 30
0.0
  0
POINT
  5
3D48
330
56C
100
AcDbEntity
  8
Defpoints
 62
     0
440
 16777216
370
    13
100
AcDbPoint
 10
26.13162654698362
 20
-10.75
 30
0.0
  0
ENDBLK
  5
56E
330
56C
100
AcDbEntity
  8
0
370
    13
100
AcDbBlockEnd
  0
BLOCK
  5
5C8
330
5C7
100
AcDbEntity
  8
0
370
    13
100
AcDbBlockBegin
  2
*D10
 70
     1
 10
0.0
 20
0.0
 30
0.0
  3
*D10
  1

  0
LINE
  5
3D49
330
5C7
100
AcDbEntity
  8
2
 62
     0
440
 16777216
370
    -2
100
AcDbLine
 10
14.82137625895785
 20
-0.05873078879912
 30
0.0
 11
16.25848191385283
 21
-4.007146124993629
 31
0.0
  0
LINE
  5
3D4A
330
5C7
100
AcDbEntity
  8
2
 62
     0
440
 16777216
370
    -2
100
AcDbLine
 10
14.82137625895785
 20
0.0587307887991193
 30
0.0
 11
16.25848191385283
 21
4.007146124993627
 31
0.0
  0
ARC
  5
3D4B
330
5C7
100
AcDbEntity
  8
2
 62
     0
440
 16777216
370
    -2
100
AcDbCircle
 10
14.79999999999999
 20
-0.0000000000000007
 30
0.0
 40
4.0843158372812
100
AcDbArc
 50
297.0185093392811
 51
353.3872451993878
  0
ARC
  5
3D4C
330
5C7
100
AcDbEntity
  8
2
 62
     0
440
 16777216
370
    -2
100
AcDbCircle
 10
14.79999999999999
 20
-0.0000000000000007
 30
0.0
 40
4.0843158372812
100
AcDbArc
 50
6.885592627804374
 51
62.98149066071887
  0
SOLID
  5
3D4D
330
5C7
100
AcDbEntity
  8
2
 62
     0
440
 16777216
370
    13
100
AcDbTrace
 10
16.6886575480148
 20
-3.714969162133688
 30
0.0
 11
16.62217468278931
 21
-3.56213655301774
 31
0.0
 12
16.19691828805421
 22
-3.838001453252165
 32
0.0
 13
16.19691828805421
 23
-3.838001453252165
 33
0.0
  0
SOLID
  5
3D4E
330
5C7
100
AcDbEntity
  8
2
 62
     0
440
 16777216
370
    13
100
AcDbTrace
 10
16.62217468278931
 20
3.562136553017738
 30
0.0
 11
16.68865754801479
 21
3.714969162133685
 31
0.0
 12
16.19691828805421
 22
3.838001453252164
 32
0.0
 13
16.19691828805421
 23
3.838001453252164
 33
0.0
  0
MTEXT
  5
3D4F
330
5C7
100
AcDbEntity
  8
2
 62
     0
440
 16777216
370
    13
100
AcDbMText
 10
18.88430442025822
 20
0.009657190334216
 30
0.0
 40
0.8
 41
0.0
 46
0.0
 71
     5
 72
     1
  1
\A1;140\U+00B0
 73
     1
 44
1.0
  0
POINT
  5
3D50
330
5C7
100
AcDbEntity
  8
Defpoints
 62
     0
440
 16777216
370
    13
100
AcDbPoint
 10
18.55028458737779
 20
-1.617714861260362
 30
0.0
  0
POINT
  5
3D51
330
5C7
100
AcDbEntity
  8
Defpoints
 62
     0
440
 16777216
370
    13
100
AcDbPoint
 10
10.88731998163833
 20
10.75
 30
0.0
  0
POINT
  5
3D52
330
5C7
100
AcDbEntity
  8
Defpoints
 62
     0
440
 16777216
370
    13
100
AcDbPoint
 10
14.8
 20
0.0
 30
0.0
  0
POINT
  5
3D53
330
5C7
100
AcDbEntity
  8
Defpoints
 62
     0
440
 16777216
370
    13
100
AcDbPoint
 10
10.88731998163833
 20
-10.75
 30
0.0
  0
POINT
  5
3D54
330
5C7
100
AcDbEntity
  8
Defpoints
 62
     0
440
 16777216
370
    13
100
AcDbPoint
 10
14.8
 20
0.0000000000000002
 30
0.0
  0
ENDBLK
  5
5C9
330
5C7
100
AcDbEntity
  8
0
370
    13
100
AcDbBlockEnd
  0
ENDSEC
  0
SECTION
  2
ENTITIES
  0
POINT
  5
78
330
1F
100
AcDbEntity
  8
4
 60
     1
100
AcDbPoint
 10
282.361493
 20
226.217943
 30
0.0
  0
POINT
  5
7A
330
1F
100
AcDbEntity
  8
4
 60
     1
100
AcDbPoint
 10
190.886675
 20
226.217943
 30
0.0
  0
LINE
  5
4BA
102
{ACAD_REACTORS
330
4C0
102
}
330
1F
100
AcDbEntity
  8
4
370
    13
100
AcDbLine
 10
-2.0
 20
0.0
 30
0.0
 11
16.8
 21
0.0
 31
0.0
  0
LINE
  5
4C1
102
{ACAD_REACTORS
330
4CA
102
}
330
1F
100
AcDbEntity
  8
1
370
    13
100
AcDbLine
 10
-0.0000000000000048
 20
10.75
 30
0.0
 11
0.0000000000000018
 21
-10.75
 31
0.0
  0
POINT
  5
4C7
330
1F
100
AcDbEntity
  8
1
370
    13
100
AcDbPoint
 10
0.0
 20
0.0
 30
0.0
  0
POINT
  5
4C8
102
{ACAD_REACTORS
330
4C9
102
}
330
1F
100
AcDbEntity
  8
1
370
    13
100
AcDbPoint
 10
0.0
 20
0.0
 30
0.0
  0
LINE
  5
4CB
102
{ACAD_REACTORS
330
4CD
102
}
330
1F
100
AcDbEntity
  8
1
370
    13
100
AcDbLine
 10
-0.0000000000000048
 20
10.75
 30
0.0
 11
10.88731998163833
 21
10.75
 31
0.0
  0
LINE
  5
4CC
102
{ACAD_REACTORS
330
4CE
102
}
330
1F
100
AcDbEntity
  8
1
370
    13
100
AcDbLine
 10
0.0000000000000018
 20
-10.75
 30
0.0
 11
10.88731998163833
 21
-10.75
 31
0.0
  0
LINE
  5
4CF
102
{ACAD_REACTORS
330
4D1
102
}
330
1F
100
AcDbEntity
  8
1
370
    13
100
AcDbLine
 10
10.88731998163833
 20
10.75
 30
0.0
 11
14.8
 21
0.0
 31
0.0
  0
LINE
  5
4D0
102
{ACAD_REACTORS
330
4D2
330
584
330
5E3
102
}
330
1F
100
AcDbEntity
  8
1
370
    13
100
AcDbLine
 10
14.8
 20
0.0
 30
0.0
 11
10.88731998163833
 21
-10.75
 31
0.0
  0
DIMENSION
  5
4D3
102
{ACAD_REACTORS
330
4D6
102
}
330
1F
100
AcDbEntity
  8
*ADSK_CONSTRAINTS
 60
     1
370
    13
100
AcDbDimension
280
     0
 10
14.8
 20
0.0
 30
0.0
 11
24.66459157923837
 21
-0.3607814382895276
 31
0.0
 70
   130
  1
SIG=140
 71
     5
 42
2.037001235191662
 73
     0
 74
     0
 75
     0
  3
Standard
100
AcDb2LineAngularDimension
 13
14.8
 23
0.0
 33
0.0
 14
10.88731998163833
 24
-10.75
 34
0.0
 15
10.88731998163833
 25
10.75
 35
0.0
 16
24.66459157923837
 26
-0.3607814382895276
 36
0.0
  0
DIMENSION
  5
4D8
102
{ACAD_REACTORS
330
4DB
102
}
330
1F
100
AcDbEntity
  8
*ADSK_CONSTRAINTS
 60
     1
370
    13
100
AcDbDimension
280
     0
 10
14.8
 20
16.96799994431028
 30
0.0
 11
14.8
 21
16.96799994431028
 31
0.0
 70
   128
  1
OAL=14.8000
 71
     5
 42
24.59732093714321
 73
     0
 74
     0
 75
     0
  3
Standard
100
AcDbAlignedDimension
 13
-0.0000000000000048
 23
10.75
 33
0.0
 14
14.8
 24
0.0
 34
0.0
100
AcDbRotatedDimension
  0
DIMENSION
  5
4E1
102
{ACAD_REACTORS
330
4E5
102
}
330
1F
100
AcDbEntity
  8
*ADSK_CONSTRAINTS
 60
     1
370
    13
100
AcDbDimension
280
     0
 10
16.80000000000001
 20
18.62954196763492
 30
0.0
 11
16.80000000000001
 21
18.62954196763492
 31
0.0
 70
   128
  1
d1=OAL+2
 71
     5
 42
26.0
 73
     0
 74
     0
 75
     0
  3
Standard
100
AcDbAlignedDimension
 13
-0.0000000000000013
 23
0.0
 33
0.0
 14
16.8
 24
0.0
 34
0.0
100
AcDbRotatedDimension
  0
DIMENSION
  5
4E7
102
{ACAD_REACTORS
330
4EA
102
}
330
1F
100
AcDbEntity
  8
*ADSK_CONSTRAINTS
 60
     1
370
    13
100
AcDbDimension
280
     0
 10
-9.120821455324858
 20
-10.75
 30
0.0
 11
-9.120821455324858
 21
-10.75
 31
0.0
 70
   128
  1
DC=21.5000
 71
     5
 42
20.38476285812584
 73
     0
 74
     0
 75
     0
  3
Standard
100
AcDbAlignedDimension
 13
-0.0000000000000048
 23
10.75
 33
0.0
 14
0.0000000000000018
 24
-10.75
 34
0.0
 50
90.0
100
AcDbRotatedDimension
  0
LINE
  5
4EC
102
{ACAD_REACTORS
330
4ED
102
}
330
1F
100
AcDbEntity
  8
1
370
    13
100
AcDbLine
 10
10.88731998163833
 20
10.75
 30
0.0
 11
10.88731998163833
 21
-10.75
 31
0.0
  0
LINE
  5
4F2
102
{ACAD_REACTORS
330
4F9
330
5E3
102
}
330
1F
100
AcDbEntity
  8
CUT
370
    13
100
AcDbLine
 10
10.88731998163833
 20
10.75
 30
0.0
 11
14.8
 21
0.0
 31
0.0
  0
LINE
  5
4F3
102
{ACAD_REACTORS
330
4F6
330
584
102
}
330
1F
100
AcDbEntity
  8
CUT
370
    13
100
AcDbLine
 10
-0.0000000000000048
 20
10.75
 30
0.0
 11
10.88731998163833
 21
10.75
 31
0.0
  0
LINE
  5
4F4
102
{ACAD_REACTORS
330
4F7
330
513
102
}
330
1F
100
AcDbEntity
  8
CUT
370
    13
100
AcDbLine
 10
-0.0000000000000048
 20
10.75
 30
0.0
 11
0.0
 21
0.0
 31
0.0
  0
LINE
  5
4F5
102
{ACAD_REACTORS
330
4F8
330
513
102
}
330
1F
100
AcDbEntity
  8
CUT
370
    13
100
AcDbLine
 10
0.0
 20
0.0
 30
0.0
 11
14.8
 21
0.0
 31
0.0
  0
DIMENSION
  5
4FA
102
{ACAD_XDICTIONARY
360
508
102
}
102
{ACAD_REACTORS
330
513
102
}
330
1F
100
AcDbEntity
  8
2
370
    13
100
AcDbDimension
280
     0
  2
*D8
 10
14.8
 20
16.13815191103222
 30
0.0
 11
7.399999999999998
 21
16.61815191103222
 31
0.0
 70
    32
 71
     5
 42
14.8
 73
     0
 74
     0
 75
     0
  3
Standard
100
AcDbAlignedDimension
 13
-0.0000000000000048
 23
10.75
 33
0.0
 14
14.8
 24
0.0
 34
0.0
100
AcDbRotatedDimension
1001
ACAD
1000
DSTYLE
1002
{
1070
    41
1040
0.5
1070
    77
1070
     1
1070
   271
1070
     1
1070
   147
1040
0.08
1070
   140
1040
0.8
1002
}
  0
DIMENSION
  5
56B
102
{ACAD_XDICTIONARY
360
579
102
}
102
{ACAD_REACTORS
330
584
102
}
330
1F
100
AcDbEntity
  8
2
370
    13
100
AcDbDimension
280
     0
  2
*D9
 10
26.13162654698362
 20
-10.75
 30
0.0
 11
26.1316265469836
 21
0.0747091765835482
 31
0.0
 70
   161
 71
     5
 42
21.5
 73
     0
 74
     0
 75
     0
  3
Standard
100
AcDbAlignedDimension
 13
10.88731998163833
 23
10.75
 33
0.0
 14
10.88731998163833
 24
-10.75
 34
0.0
1001
ACAD
1000
DSTYLE
1002
{
1070
    41
1040
0.5
1070
    73
1070
     0
1070
    77
1070
     1
1070
   140
1040
0.8
1070
   147
1040
0.08
1070
   271
1070
     2
1002
}
  0
DIMENSION
  5
5C6
102
{ACAD_XDICTIONARY
360
5D6
102
}
102
{ACAD_REACTORS
330
5E3
102
}
330
1F
100
AcDbEntity
  8
2
370
    13
100
AcDbDimension
280
     0
  2
*D10
 10
14.8
 20
0.0000000000000002
 30
0.0
 11
18.88430442025822
 21
0.0096571903342166
 31
0.0
 70
   162
 71
     5
 42
2.443460952792062
 73
     0
 74
     0
 75
     0
  3
Standard
100
AcDb2LineAngularDimension
 13
14.8
 23
0.0
 33
0.0
 14
10.88731998163833
 24
-10.75
 34
0.0
 15
10.88731998163833
 25
10.75
 35
0.0
 16
18.55028458737779
 26
-1.617714861260362
 36
0.0
1001
ACAD
1000
DSTYLE
1002
{
1070
    41
1040
0.5
1070
    77
1070
     1
1070
   140
1040
0.8
1070
   147
1040
0.08
1070
   271
1070
     1
1002
}
  0
MTEXT
  5
3D5E
330
1F
100
AcDbEntity
  8
SK6
370
    13
100
AcDbMText
 10
1.0
 20
-30.0
 30
0.0
 40
2.5
 41
14.0
 46
0.0
 71
     1
 72
     5
  1
R96021.5
 73
     1
 44
1.0
101
Embedded Object
 70
     1
 10
1.0
 20
0.0
 30
0.0
 11
1.0
 21
-30.0
 31
0.0
 40
14.0
 41
0.0
 42
16.25
 43
2.5
 71
     2
 72
     1
 44
14.0
 45
12.5
 73
     0
 74
     0
 46
0.0
  0
ENDSEC
  0
SECTION
  2
OBJECTS
  0
DICTIONARY
  5
C
330
0
100
AcDbDictionary
281
     1
  3
ACAD_ASSOCNETWORK
350
4BD
  3
ACAD_CIP_PREVIOUS_PRODUCT_INFO
350
3E5
  3
ACAD_COLOR
350
3E0
  3
ACAD_DETAILVIEWSTYLE
350
3DC
  3
ACAD_GROUP
350
D
  3
ACAD_LAYOUT
350
1A
  3
ACAD_MATERIAL
350
43
  3
ACAD_MLEADERSTYLE
350
6B
  3
ACAD_MLINESTYLE
350
17
  3
ACAD_PLOTSETTINGS
350
19
  3
ACAD_PLOTSTYLENAME
350
E
  3
ACAD_SCALELIST
350
47
  3
ACAD_SECTIONVIEWSTYLE
350
3DD
  3
ACAD_TABLESTYLE
350
69
  3
ACAD_VISUALSTYLE
350
2A
  3
ACDB_RECOMPOSE_DATA
350
3D60
  3
AcDbVariableDictionary
350
399
  0
DICTIONARY
  5
654
330
2
100
AcDbDictionary
280
     1
281
     1
  3
ACAD_LAYERSTATES
360
655
  0
DICTIONARY
  5
41A
330
10
100
AcDbDictionary
280
     1
281
     1
  3
ADSK_XREC_LAYER_RECONCILED
360
41B
  0
DICTIONARY
  5
41C
330
79
100
AcDbDictionary
280
     1
281
     1
  3
ADSK_XREC_LAYER_RECONCILED
360
41D
  0
DICTIONARY
  5
41E
330
40D
100
AcDbDictionary
280
     1
281
     1
  3
ADSK_XREC_LAYER_RECONCILED
360
41F
  0
DICTIONARY
  5
420
330
40E
100
AcDbDictionary
280
     1
281
     1
  3
ADSK_XREC_LAYER_RECONCILED
360
421
  0
DICTIONARY
  5
422
330
40F
100
AcDbDictionary
280
     1
281
     1
  3
ADSK_XREC_LAYER_RECONCILED
360
423
  0
DICTIONARY
  5
424
330
411
100
AcDbDictionary
280
     1
281
     1
  3
ADSK_XREC_LAYER_RECONCILED
360
425
  0
DICTIONARY
  5
426
330
412
100
AcDbDictionary
280
     1
281
     1
  3
ADSK_XREC_LAYER_RECONCILED
360
427
  0
DICTIONARY
  5
428
330
413
100
AcDbDictionary
280
     1
281
     1
  3
ADSK_XREC_LAYER_RECONCILED
360
429
  0
DICTIONARY
  5
42A
330
414
100
AcDbDictionary
280
     1
281
     1
  3
ADSK_XREC_LAYER_RECONCILED
360
42B
  0
DICTIONARY
  5
42C
330
415
100
AcDbDictionary
280
     1
281
     1
  3
ADSK_XREC_LAYER_RECONCILED
360
42D
  0
DICTIONARY
  5
42E
330
416
100
AcDbDictionary
280
     1
281
     1
  3
ADSK_XREC_LAYER_RECONCILED
360
42F
  0
DICTIONARY
  5
430
330
417
100
AcDbDictionary
280
     1
281
     1
  3
ADSK_XREC_LAYER_RECONCILED
360
431
  0
DICTIONARY
  5
432
330
418
100
AcDbDictionary
280
     1
281
     1
  3
ADSK_XREC_LAYER_RECONCILED
360
433
  0
DICTIONARY
  5
434
330
419
100
AcDbDictionary
280
     1
281
     1
  3
ADSK_XREC_LAYER_RECONCILED
360
435
  0
DICTIONARY
  5
3E6
330
1F
100
AcDbDictionary
280
     1
281
     1
  3
ACAD_ASSOCNETWORK
360
4BB
  3
ACAD_SORTENTS
360
3E7
  0
DICTIONARY
  5
508
330
4FA
100
AcDbDictionary
280
     1
281
     1
  3
ACAD_DIMASSOC
360
513
  0
DICTIONARY
  5
579
330
56B
100
AcDbDictionary
280
     1
281
     1
  3
ACAD_DIMASSOC
360
584
  0
DICTIONARY
  5
5D6
330
5C6
100
AcDbDictionary
280
     1
281
     1
  3
ACAD_DIMASSOC
360
5E3
  0
DICTIONARY
  5
4BD
102
{ACAD_REACTORS
330
C
102
}
330
C
100
AcDbDictionary
281
     1
  3
ACAD_ASSOCNETWORK
350
4BE
  0
XRECORD
  5
3E5
102
{ACAD_REACTORS
330
C
102
}
330
C
100
AcDbXrecord
280
     1
300
ACD
300
2019
300
87084ACD_2019_0F
  0
DICTIONARY
  5
3E0
102
{ACAD_REACTORS
330
C
102
}
330
C
100
AcDbDictionary
281
     1
  0
DICTIONARY
  5
3DC
102
{ACAD_REACTORS
330
C
102
}
330
C
100
AcDbDictionary
281
     1
  3
Metric50
350
3E2
  0
DICTIONARY
  5
D
102
{ACAD_REACTORS
330
C
102
}
330
C
100
AcDbDictionary
281
     1
  0
DICTIONARY
  5
1A
102
{ACAD_REACTORS
330
C
102
}
330
C
100
AcDbDictionary
281
     1
  3
Layout1
350
1E
  3
Layout2
350
26
  3
Model
350
22
  0
DICTIONARY
  5
43
102
{ACAD_REACTORS
330
C
102
}
330
C
100
AcDbDictionary
281
     1
  3
ByBlock
350
45
  3
ByLayer
350
44
  3
Global
350
46
  0
DICTIONARY
  5
6B
102
{ACAD_REACTORS
330
C
102
}
330
C
100
AcDbDictionary
281
     1
  3
Standard
350
6C
  0
DICTIONARY
  5
17
102
{ACAD_REACTORS
330
C
102
}
330
C
100
AcDbDictionary
281
     1
  3
Standard
350
18
  0
DICTIONARY
  5
19
102
{ACAD_REACTORS
330
C
102
}
330
C
100
AcDbDictionary
281
     1
  0
ACDBDICTIONARYWDFLT
  5
E
102
{ACAD_REACTORS
330
C
102
}
330
C
100
AcDbDictionary
281
     1
  3
Normal
350
F
100
AcDbDictionaryWithDefault
340
F
  0
DICTIONARY
  5
47
102
{ACAD_REACTORS
330
C
102
}
330
C
100
AcDbDictionary
281
     1
  3
A0
350
48
  3
A1
350
49
  3
A2
350
4A
  3
A3
350
4B
  3
A4
350
4C
  3
A5
350
4D
  3
A6
350
4E
  3
A7
350
4F
  3
A8
350
50
  3
A9
350
51
  3
B0
350
52
  3
B1
350
53
  3
B2
350
54
  3
B3
350
55
  3
B4
350
56
  3
B5
350
57
  3
B6
350
58
  3
B7
350
59
  3
B8
350
5A
  3
B9
350
5B
  3
C0
350
5C
  3
C1
350
5D
  3
C2
350
5E
  3
C3
350
5F
  3
C4
350
60
  3
C5
350
61
  3
C6
350
62
  3
C7
350
63
  3
C8
350
64
  3
C9
350
65
  3
D0
350
66
  3
D1
350
67
  3
D2
350
68
  0
DICTIONARY
  5
3DD
102
{ACAD_REACTORS
330
C
102
}
330
C
100
AcDbDictionary
281
     1
  3
Metric50
350
3E1
  0
DICTIONARY
  5
69
102
{ACAD_REACTORS
330
C
102
}
330
C
100
AcDbDictionary
281
     1
  3
Standard
350
6A
  0
DICTIONARY
  5
2A
102
{ACAD_REACTORS
330
C
102
}
330
C
100
AcDbDictionary
281
     1
  3
2dWireframe
350
2F
  3
Basic
350
32
  3
Brighten
350
36
  3
ColorChange
350
3A
  3
Conceptual
350
34
  3
Dim
350
35
  3
EdgeColorOff
350
3D
  3
Facepattern
350
39
  3
Flat
350
2B
  3
FlatWithEdges
350
2C
  3
Gouraud
350
2D
  3
GouraudWithEdges
350
2E
  3
Hidden
350
31
  3
JitterOff
350
3B
  3
Linepattern
350
38
  3
OverhangOff
350
3C
  3
Realistic
350
33
  3
Shaded
350
42
  3
Shaded with edges
350
41
  3
Shades of Gray
350
3E
  3
Sketchy
350
3F
  3
Thicken
350
37
  3
Wireframe
350
30
  3
X-Ray
350
40
  0
XRECORD
  5
3D60
102
{ACAD_REACTORS
330
C
102
}
330
C
100
AcDbXrecord
280
     1
 90
        1
330
6A
330
4BF
  0
DICTIONARY
  5
399
102
{ACAD_REACTORS
330
C
102
}
330
C
100
AcDbDictionary
281
     1
  3
CANNOSCALE
350
39A
  3
CMLEADERSTYLE
350
3DB
  3
CTABLESTYLE
350
3DA
  3
CVIEWDETAILSTYLE
350
436
  3
CVIEWSECTIONSTYLE
350
437
  3
LAYEREVAL
350
76F
  3
LAYERNOTIFY
350
770
  3
LIGHTINGUNITS
350
76E
  3
MSLTSCALE
350
39B
  0
DICTIONARY
  5
655
102
{ACAD_REACTORS
330
654
102
}
330
654
100
AcDbDictionary
281
     1
  0
XRECORD
  5
41B
102
{ACAD_REACTORS
330
41A
102
}
330
41A
100
AcDbXrecord
280
     1
290
     1
  0
XRECORD
  5
41D
102
{ACAD_REACTORS
330
41C
102
}
330
41C
100
AcDbXrecord
280
     1
290
     1
  0
XRECORD
  5
41F
102
{ACAD_REACTORS
330
41E
102
}
330
41E
100
AcDbXrecord
280
     1
290
     1
  0
XRECORD
  5
421
102
{ACAD_REACTORS
330
420
102
}
330
420
100
AcDbXrecord
280
     1
290
     1
  0
XRECORD
  5
423
102
{ACAD_REACTORS
330
422
102
}
330
422
100
AcDbXrecord
280
     1
290
     1
  0
XRECORD
  5
425
102
{ACAD_REACTORS
330
424
102
}
330
424
100
AcDbXrecord
280
     1
290
     1
  0
XRECORD
  5
427
102
{ACAD_REACTORS
330
426
102
}
330
426
100
AcDbXrecord
280
     1
290
     1
  0
XRECORD
  5
429
102
{ACAD_REACTORS
330
428
102
}
330
428
100
AcDbXrecord
280
     1
290
     1
  0
XRECORD
  5
42B
102
{ACAD_REACTORS
330
42A
102
}
330
42A
100
AcDbXrecord
280
     1
290
     1
  0
XRECORD
  5
42D
102
{ACAD_REACTORS
330
42C
102
}
330
42C
100
AcDbXrecord
280
     1
290
     1
  0
XRECORD
  5
42F
102
{ACAD_REACTORS
330
42E
102
}
330
42E
100
AcDbXrecord
280
     1
290
     1
  0
XRECORD
  5
431
102
{ACAD_REACTORS
330
430
102
}
330
430
100
AcDbXrecord
280
     1
290
     1
  0
XRECORD
  5
433
102
{ACAD_REACTORS
330
432
102
}
330
432
100
AcDbXrecord
280
     1
290
     1
  0
XRECORD
  5
435
102
{ACAD_REACTORS
330
434
102
}
330
434
100
AcDbXrecord
280
     1
290
     1
  0
DICTIONARY
  5
4BB
102
{ACAD_REACTORS
330
3E6
102
}
330
3E6
100
AcDbDictionary
281
     1
  3
ACAD_ASSOCNETWORK
350
4BC
  0
SORTENTSTABLE
  5
3E7
102
{ACAD_REACTORS
330
3E6
102
}
330
3E6
100
AcDbSortentsTable
330
1F
  0
DIMASSOC
  5
513
102
{ACAD_REACTORS
330
508
102
}
330
508
100
AcDbDimAssoc
330
4FA
 90
        3
 70
     0
 71
     0
  1
AcDbOsnapPointRef
 72
    13
331
4F4
 73
     2
 91
        0
 40
0.0
 10
-0.0000000000000036
 20
7.349999999999999
 30
0.0
 75
     0
  1
AcDbOsnapPointRef
 72
     1
331
4F5
 73
     2
 91
        0
 40
1.0
 10
11.0
 20
0.0
 30
0.0
 75
     0
  0
DIMASSOC
  5
584
102
{ACAD_REACTORS
330
579
102
}
330
579
100
AcDbDimAssoc
330
56B
 90
        3
 70
     0
 71
     0
  1
AcDbOsnapPointRef
 72
     1
331
4F3
 73
     2
 91
        0
 40
1.0
 10
8.324818778143416
 20
7.35
 30
0.0
 75
     0
  1
AcDbOsnapPointRef
 72
     1
331
4D0
 73
     2
 91
        0
 40
1.0
 10
8.324818778143416
 20
-7.35
 30
0.0
 75
     0
  0
DIMASSOC
  5
5E3
102
{ACAD_REACTORS
330
5D6
102
}
330
5D6
100
AcDbDimAssoc
330
5C6
 90
       15
 70
     0
 71
     0
  1
AcDbOsnapPointRef
 72
    13
331
4D0
 73
     2
 91
        0
 40
0.0
 10
0.0
 20
0.0
 30
2.000000000000000E+50
 75
     0
  1
AcDbOsnapPointRef
 72
     1
331
4D0
 73
     2
 91
        0
 40
1.0
 10
0.0
 20
0.0
 30
2.000000000000000E+50
 75
     0
  1
AcDbOsnapPointRef
 72
    13
331
4F2
 73
     2
 91
        0
 40
0.0
 10
0.0
 20
0.0
 30
2.000000000000000E+50
 75
     0
  1
AcDbOsnapPointRef
 72
     1
331
4F2
 73
     2
 91
        0
 40
1.0
 10
0.0
 20
0.0
 30
2.000000000000000E+50
 75
     0
  0
ACDBASSOCNETWORK
  5
4BE
102
{ACAD_REACTORS
330
4BD
102
}
330
4BD
100
AcDbAssocAction
 90
        2
 90
        0
330
0
360
0
 90
        0
 90
        0
 90
        0
 90
        0
 90
        0
 90
        0
 90
        0
100
AcDbAssocNetwork
 90
        0
 90
        1
 90
        1
330
4BC
 90
        0
  0
ACDBDETAILVIEWSTYLE
  5
3E2
102
{ACAD_REACTORS
330
3DC
102
}
330
3DC
100
AcDbModelDocViewStyle
 70
     0
  3
Metric50
290
     0
300
Metric50
 90
        0
100
AcDbDetailViewStyle
 70
     0
 71
     0
 90
        3
 71
     1
340
11
 62
   256
 40
5.0
340
0
 62
   256
 40
5.0
300

 40
0.0
280
     1
 71
     2
340
16
 90
       25
 62
   256
 71
     3
340
11
 62
   256
 40
5.0
 90
        0
 40
15.0
 90
        1
300
%<\AcVar ViewDetailId>% (%<\AcVar ViewScale \f "%sn">%)
 71
     4
340
16
 90
       25
 62
   256
340
16
 90
       25
 62
   256
280
     0
  0
LAYOUT
  5
1E
102
{ACAD_REACTORS
330
1A
102
}
330
1A
100
AcDbPlotSettings
  1

  2
none_device
  4

  6

 40
0.0
 41
0.0
 42
0.0
 43
0.0
 44
0.0
 45
0.0
 46
0.0
 47
0.0
 48
0.0
 49
0.0
140
0.0
141
0.0
142
1.0
143
1.0
 70
   688
 72
     0
 73
     0
 74
     5
  7

 75
    16
147
1.0
 76
     0
 77
     2
 78
   300
148
0.0
149
0.0
100
AcDbLayout
  1
Layout1
 70
     1
 71
     1
 10
-0.5
 20
-0.5
 11
5.0
 21
5.0
 12
0.0
 22
0.0
 32
0.0
 14
-0.5
 24
-0.5
 34
-0.5
 15
5.0
 25
5.0
 35
5.0
146
0.0
 13
0.0
 23
0.0
 33
0.0
 16
1.0
 26
0.0
 36
0.0
 17
0.0
 27
1.0
 37
0.0
 76
     0
330
1B
  0
LAYOUT
  5
26
102
{ACAD_REACTORS
330
1A
102
}
330
1A
100
AcDbPlotSettings
  1

  2
none_device
  4

  6

 40
0.0
 41
0.0
 42
0.0
 43
0.0
 44
0.0
 45
0.0
 46
0.0
 47
0.0
 48
0.0
 49
0.0
140
0.0
141
0.0
142
1.0
143
1.0
 70
   688
 72
     0
 73
     0
 74
     5
  7

 75
    16
147
1.0
 76
     0
 77
     2
 78
   300
148
0.0
149
0.0
100
AcDbLayout
  1
Layout2
 70
     1
 71
     2
 10
0.0
 20
0.0
 11
0.0
 21
0.0
 12
0.0
 22
0.0
 32
0.0
 14
0.0
 24
0.0
 34
0.0
 15
0.0
 25
0.0
 35
0.0
146
0.0
 13
0.0
 23
0.0
 33
0.0
 16
1.0
 26
0.0
 36
0.0
 17
0.0
 27
1.0
 37
0.0
 76
     0
330
23
  0
LAYOUT
  5
22
102
{ACAD_REACTORS
330
1A
102
}
330
1A
100
AcDbPlotSettings
  1

  2
none_device
  4
Letter_(8.50_x_11.00_Inches)
  6

 40
6.349999999999998
 41
6.349999999999998
 42
6.350005
 43
6.350005
 44
215.9
 45
279.4
 46
0.0
 47
0.0
 48
0.0
 49
0.0
140
0.0
141
0.0
142
1.0
143
1.0
 70
  1712
 72
     0
 73
     0
 74
     0
  7

 75
     0
147
1.0
 76
     0
 77
     2
 78
   300
148
0.0
149
0.0
100
AcDbLayout
  1
Model
 70
     1
 71
     0
 10
-0.5
 20
-0.5
 11
5.0
 21
5.0
 12
0.0
 22
0.0
 32
0.0
 14
-0.5
 24
-0.5
 34
-0.5
 15
5.0
 25
5.0
 35
5.0
146
0.0
 13
0.0
 23
0.0
 33
0.0
 16
1.0
 26
0.0
 36
0.0
 17
0.0
 27
1.0
 37
0.0
 76
     0
330
1F
331
29
  0
MATERIAL
  5
45
102
{ACAD_XDICTIONARY
360
3CF
102
}
102
{ACAD_REACTORS
330
43
102
}
330
43
100
AcDbMaterial
  1
ByBlock
  0
MATERIAL
  5
44
102
{ACAD_XDICTIONARY
360
3CD
102
}
102
{ACAD_REACTORS
330
43
102
}
330
43
100
AcDbMaterial
  1
ByLayer
  0
MATERIAL
  5
46
102
{ACAD_XDICTIONARY
360
3D1
102
}
102
{ACAD_REACTORS
330
43
102
}
330
43
100
AcDbMaterial
  1
Global
  0
MLEADERSTYLE
  5
6C
102
{ACAD_REACTORS
330
6B
102
}
330
6B
100
AcDbMLeaderStyle
179
     2
170
     2
171
     1
172
     0
 90
        2
 40
0.0
 41
0.0
173
     1
 91
-1056964608
340
14
 92
       -2
290
     1
 42
0.09
291
     1
 43
0.36
  3
Standard
 44
0.18
300

342
11
174
     1
178
     6
175
     1
176
     0
 93
-1056964608
 45
0.18
292
     0
297
     0
 46
0.18
 94
-1056964608
 47
1.0
 49
1.0
140
1.0
293
     1
141
0.0
294
     1
177
     0
142
1.0
295
     0
296
     0
143
0.125
271
     0
272
     9
273
     9
298
     0
1001
ACAD_MLEADERVER
1070
     2
  0
MLINESTYLE
  5
18
102
{ACAD_REACTORS
330
17
102
}
330
17
100
AcDbMlineStyle
  2
STANDARD
 70
     0
  3

 62
   256
 51
90.0
 52
90.0
 71
     2
 49
0.5
 62
   256
  6
BYLAYER
 49
-0.5
 62
   256
  6
BYLAYER
  0
ACDBPLACEHOLDER
  5
F
102
{ACAD_REACTORS
330
E
102
}
330
E
  0
SCALE
  5
48
102
{ACAD_REACTORS
330
47
102
}
330
47
100
AcDbScale
 70
     0
300
1:1
140
1.0
141
1.0
290
     1
  0
SCALE
  5
49
102
{ACAD_REACTORS
330
47
102
}
330
47
100
AcDbScale
 70
     0
300
1:2
140
1.0
141
2.0
290
     0
  0
SCALE
  5
4A
102
{ACAD_REACTORS
330
47
102
}
330
47
100
AcDbScale
 70
     0
300
1:4
140
1.0
141
4.0
290
     0
  0
SCALE
  5
4B
102
{ACAD_REACTORS
330
47
102
}
330
47
100
AcDbScale
 70
     0
300
1:5
140
1.0
141
5.0
290
     0
  0
SCALE
  5
4C
102
{ACAD_REACTORS
330
47
102
}
330
47
100
AcDbScale
 70
     0
300
1:8
140
1.0
141
8.0
290
     0
  0
SCALE
  5
4D
102
{ACAD_REACTORS
330
47
102
}
330
47
100
AcDbScale
 70
     0
300
1:10
140
1.0
141
10.0
290
     0
  0
SCALE
  5
4E
102
{ACAD_REACTORS
330
47
102
}
330
47
100
AcDbScale
 70
     0
300
1:16
140
1.0
141
16.0
290
     0
  0
SCALE
  5
4F
102
{ACAD_REACTORS
330
47
102
}
330
47
100
AcDbScale
 70
     0
300
1:20
140
1.0
141
20.0
290
     0
  0
SCALE
  5
50
102
{ACAD_REACTORS
330
47
102
}
330
47
100
AcDbScale
 70
     0
300
1:30
140
1.0
141
30.0
290
     0
  0
SCALE
  5
51
102
{ACAD_REACTORS
330
47
102
}
330
47
100
AcDbScale
 70
     0
300
1:40
140
1.0
141
40.0
290
     0
  0
SCALE
  5
52
102
{ACAD_REACTORS
330
47
102
}
330
47
100
AcDbScale
 70
     0
300
1:50
140
1.0
141
50.0
290
     0
  0
SCALE
  5
53
102
{ACAD_REACTORS
330
47
102
}
330
47
100
AcDbScale
 70
     0
300
1:100
140
1.0
141
100.0
290
     0
  0
SCALE
  5
54
102
{ACAD_REACTORS
330
47
102
}
330
47
100
AcDbScale
 70
     0
300
2:1
140
2.0
141
1.0
290
     0
  0
SCALE
  5
55
102
{ACAD_REACTORS
330
47
102
}
330
47
100
AcDbScale
 70
     0
300
4:1
140
4.0
141
1.0
290
     0
  0
SCALE
  5
56
102
{ACAD_REACTORS
330
47
102
}
330
47
100
AcDbScale
 70
     0
300
8:1
140
8.0
141
1.0
290
     0
  0
SCALE
  5
57
102
{ACAD_REACTORS
330
47
102
}
330
47
100
AcDbScale
 70
     0
300
10:1
140
10.0
141
1.0
290
     0
  0
SCALE
  5
58
102
{ACAD_REACTORS
330
47
102
}
330
47
100
AcDbScale
 70
     0
300
100:1
140
100.0
141
1.0
290
     0
  0
SCALE
  5
59
102
{ACAD_REACTORS
330
47
102
}
330
47
100
AcDbScale
 70
     0
300
1/128" = 1'-0"
140
0.007812
141
12.0
290
     0
  0
SCALE
  5
5A
102
{ACAD_REACTORS
330
47
102
}
330
47
100
AcDbScale
 70
     0
300
1/64" = 1'-0"
140
0.015625
141
12.0
290
     0
  0
SCALE
  5
5B
102
{ACAD_REACTORS
330
47
102
}
330
47
100
AcDbScale
 70
     0
300
1/32" = 1'-0"
140
0.03125
141
12.0
290
     0
  0
SCALE
  5
5C
102
{ACAD_REACTORS
330
47
102
}
330
47
100
AcDbScale
 70
     0
300
1/16" = 1'-0"
140
0.0625
141
12.0
290
     0
  0
SCALE
  5
5D
102
{ACAD_REACTORS
330
47
102
}
330
47
100
AcDbScale
 70
     0
300
3/32" = 1'-0"
140
0.09375
141
12.0
290
     0
  0
SCALE
  5
5E
102
{ACAD_REACTORS
330
47
102
}
330
47
100
AcDbScale
 70
     0
300
1/8" = 1'-0"
140
0.125
141
12.0
290
     0
  0
SCALE
  5
5F
102
{ACAD_REACTORS
330
47
102
}
330
47
100
AcDbScale
 70
     0
300
3/16" = 1'-0"
140
0.1875
141
12.0
290
     0
  0
SCALE
  5
60
102
{ACAD_REACTORS
330
47
102
}
330
47
100
AcDbScale
 70
     0
300
1/4" = 1'-0"
140
0.25
141
12.0
290
     0
  0
SCALE
  5
61
102
{ACAD_REACTORS
330
47
102
}
330
47
100
AcDbScale
 70
     0
300
3/8" = 1'-0"
140
0.375
141
12.0
290
     0
  0
SCALE
  5
62
102
{ACAD_REACTORS
330
47
102
}
330
47
100
AcDbScale
 70
     0
300
1/2" = 1'-0"
140
0.5
141
12.0
290
     0
  0
SCALE
  5
63
102
{ACAD_REACTORS
330
47
102
}
330
47
100
AcDbScale
 70
     0
300
3/4" = 1'-0"
140
0.75
141
12.0
290
     0
  0
SCALE
  5
64
102
{ACAD_REACTORS
330
47
102
}
330
47
100
AcDbScale
 70
     0
300
1" = 1'-0"
140
1.0
141
12.0
290
     0
  0
SCALE
  5
65
102
{ACAD_REACTORS
330
47
102
}
330
47
100
AcDbScale
 70
     0
300
1-1/2" = 1'-0"
140
1.5
141
12.0
290
     0
  0
SCALE
  5
66
102
{ACAD_REACTORS
330
47
102
}
330
47
100
AcDbScale
 70
     0
300
3" = 1'-0"
140
3.0
141
12.0
290
     0
  0
SCALE
  5
67
102
{ACAD_REACTORS
330
47
102
}
330
47
100
AcDbScale
 70
     0
300
6" = 1'-0"
140
6.0
141
12.0
290
     0
  0
SCALE
  5
68
102
{ACAD_REACTORS
330
47
102
}
330
47
100
AcDbScale
 70
     0
300
1'-0" = 1'-0"
140
12.0
141
12.0
290
     0
  0
ACDBSECTIONVIEWSTYLE
  5
3E1
102
{ACAD_REACTORS
330
3DD
102
}
330
3DD
100
AcDbModelDocViewStyle
 70
     0
  3
Metric50
290
     0
300
Metric50
 90
        0
100
AcDbSectionViewStyle
 70
     0
 71
     0
 90
      102
 71
     1
340
11
 62
   256
 40
5.0
340
0
340
0
 62
   256
 40
5.0
300
I, O, Q, S, X, Z
 40
10.0
 90
        0
 40
2.5
 90
        0
 71
     2
340
16
 90
       25
 62
   256
340
16
 90
       50
 62
   256
 40
5.0
 40
2.5
 40
5.0
 71
     3
340
11
 62
   256
 40
5.0
 90
        0
 40
15.0
 90
        1
300
%<\AcVar ViewSectionStartId>%-%<\AcVar ViewSectionEndId>% (%<\AcVar ViewScale \f "%sn">%)
 71
     4
 62
   256
 62
   257
300
ANSI31
 40
1.0
 90
        0
290
     0
290
     0
 90
        6
 40
0.0
 40
1.570796326794896
 40
0.2617993877991494
 40
1.308996938995747
 40
-0.2617993877991494
 40
1.832595714594045
  0
TABLESTYLE
  5
6A
102
{ACAD_XDICTIONARY
360
3D3
102
}
102
{ACAD_REACTORS
330
69
102
}
330
69
100
AcDbTableStyle
280
     0
  3
Standard
 70
     0
 71
     0
 40
0.06
 41
0.06
280
     0
281
     0
  7
Standard
140
0.18
170
     2
 62
     0
 63
     7
283
     0
 90
        4
 91
        0
  1

274
    -2
284
     1
 64
     0
275
    -2
285
     1
 65
     0
276
    -2
286
     1
 66
     0
277
    -2
287
     1
 67
     0
278
    -2
288
     1
 68
     0
279
    -2
289
     1
 69
     0
  7
Standard
140
0.25
170
     5
 62
     0
 63
     7
283
     0
 90
        4
 91
        0
  1

274
    -2
284
     1
 64
     0
275
    -2
285
     1
 65
     0
276
    -2
286
     1
 66
     0
277
    -2
287
     1
 67
     0
278
    -2
288
     1
 68
     0
279
    -2
289
     1
 69
     0
  7
Standard
140
0.18
170
     5
 62
     0
 63
     7
283
     0
 90
        4
 91
        0
  1

274
    -2
284
     1
 64
     0
275
    -2
285
     1
 65
     0
276
    -2
286
     1
 66
     0
277
    -2
287
     1
 67
     0
278
    -2
288
     1
 68
     0
279
    -2
289
     1
 69
     0
  0
VISUALSTYLE
  5
2F
102
{ACAD_REACTORS
330
2A
102
}
330
2A
100
AcDbVisualStyle
  2

 70
     4
177
     3
291
     0
 70
    58
 90
        0
176
     1
 90
        2
176
     1
 90
        0
176
     1
 90
        0
176
     1
 40
0.6
176
     1
 40
30.0
176
     1
 62
     7
420
 16777215
176
     1
 90
        1
176
     1
 90
        4
176
     1
 62
     7
176
     1
 62
   257
176
     1
 90
        1
176
     1
 90
        1
176
     1
 40
1.0
176
     1
 90
        0
176
     1
 62
   257
176
     1
 40
1.0
176
     1
 90
        1
176
     1
 90
        6
176
     1
 90
        2
176
     1
 62
     7
176
     1
 90
        5
176
     1
 90
        0
176
     1
 90
        0
176
     1
290
     0
176
     1
 90
        1
176
     1
 40
0.0
176
     1
 90
        0
176
     1
290
     1
176
     1
290
     1
176
     1
290
     0
176
     1
290
     0
176
     1
290
     0
176
     1
290
     0
176
     1
290
     0
176
     1
290
     0
176
     1
290
     0
176
     1
 90
       50
176
     1
 40
0.0
176
     1
 40
1.0
176
     1
 90
        0
176
     1
 62
    18
420
        0
176
     1
 90
       50
176
     1
 90
        3
176
     1
 62
     5
420
      255
176
     1
290
     0
176
     1
 90
       50
176
     1
 90
       50
176
     1
 90
       50
176
     1
290
     0
176
     1
 90
       50
176
     1
 62
   256
176
     0
 40
1.0
176
     0
 90
        2
176
     1
  1
strokes_ogs.tif
176
     1
290
     0
176
     1
 40
1.0
176
     1
 40
1.0
176
     1
  0
VISUALSTYLE
  5
32
102
{ACAD_REACTORS
330
2A
102
}
330
2A
100
AcDbVisualStyle
  2

 70
     7
177
     3
291
     1
 70
    58
 90
        1
176
     1
 90
        0
176
     1
 90
        1
176
     1
 90
        0
176
     1
 40
0.6
176
     1
 40
30.0
176
     1
 62
     7
420
 16777215
176
     1
 90
        0
176
     1
 90
        4
176
     1
 62
     7
176
     1
 62
   257
176
     1
 90
        1
176
     1
 90
        1
176
     1
 40
1.0
176
     1
 90
        8
176
     1
 62
     7
176
     1
 40
1.0
176
     1
 90
        1
176
     1
 90
        6
176
     1
 90
        2
176
     1
 62
     7
176
     1
 90
        5
176
     1
 90
        0
176
     1
 90
        0
176
     1
290
     0
176
     1
 90
        1
176
     1
 40
0.0
176
     1
 90
        0
176
     1
290
     0
176
     1
290
     1
176
     1
290
     1
176
     1
290
     0
176
     1
290
     0
176
     1
290
     0
176
     1
290
     0
176
     1
290
     0
176
     1
290
     0
176
     1
 90
       50
176
     1
 40
0.0
176
     1
 40
1.0
176
     1
 90
        0
176
     1
 62
    18
420
        0
176
     1
 90
       50
176
     1
 90
        3
176
     1
 62
     5
420
      255
176
     1
290
     0
176
     1
 90
       50
176
     1
 90
       50
176
     1
 90
       50
176
     1
290
     0
176
     1
 90
       50
176
     1
 62
   256
176
     0
 40
1.0
176
     0
 90
        2
176
     1
  1
strokes_ogs.tif
176
     1
290
     0
176
     1
 40
1.0
176
     1
 40
1.0
176
     1
  0
VISUALSTYLE
  5
36
102
{ACAD_REACTORS
330
2A
102
}
330
2A
100
AcDbVisualStyle
  2

 70
    12
177
     3
291
     1
 70
    58
 90
        2
176
     1
 90
        2
176
     1
 90
        0
176
     1
 90
        0
176
     1
 40
0.6
176
     1
 40
30.0
176
     1
 62
     7
420
 16777215
176
     1
 90
        1
176
     1
 90
        4
176
     1
 62
     7
176
     1
 62
   257
176
     1
 90
        1
176
     1
 90
        1
176
     1
 40
1.0
176
     1
 90
        8
176
     1
 62
     7
176
     1
 40
1.0
176
     1
 90
        1
176
     1
 90
        6
176
     1
 90
        2
176
     1
 62
     7
176
     1
 90
        5
176
     1
 90
        0
176
     1
 90
        0
176
     1
290
     0
176
     1
 90
        1
176
     1
 40
50.0
176
     1
 90
        0
176
     1
290
     0
176
     1
290
     1
176
     1
290
     1
176
     1
290
     0
176
     1
290
     0
176
     1
290
     0
176
     1
290
     0
176
     1
290
     0
176
     1
290
     0
176
     1
 90
       50
176
     1
 40
0.0
176
     1
 40
1.0
176
     1
 90
        0
176
     1
 62
    18
420
        0
176
     1
 90
       50
176
     1
 90
        3
176
     1
 62
     5
420
      255
176
     1
290
     0
176
     1
 90
       50
176
     1
 90
       50
176
     1
 90
       50
176
     1
290
     0
176
     1
 90
       50
176
     1
 62
   256
176
     0
 40
1.0
176
     0
 90
        2
176
     1
  1
strokes_ogs.tif
176
     1
290
     0
176
     1
 40
1.0
176
     1
 40
1.0
176
     1
  0
VISUALSTYLE
  5
3A
102
{ACAD_REACTORS
330
2A
102
}
330
2A
100
AcDbVisualStyle
  2

 70
    16
177
     3
291
     1
 70
    58
 90
        2
176
     1
 90
        2
176
     1
 90
        3
176
     1
 90
        0
176
     1
 40
0.6
176
     1
 40
30.0
176
     1
 62
     8
420
  8421504
176
     1
 90
        1
176
     1
 90
        4
176
     1
 62
     7
176
     1
 62
   257
176
     1
 90
        1
176
     1
 90
        1
176
     1
 40
1.0
176
     1
 90
        8
176
     1
 62
     8
420
  8421504
176
     1
 40
1.0
176
     1
 90
        1
176
     1
 90
        6
176
     1
 90
        2
176
     1
 62
     7
176
     1
 90
        5
176
     1
 90
        0
176
     1
 90
        0
176
     1
290
     0
176
     1
 90
        1
176
     1
 40
0.0
176
     1
 90
        0
176
     1
290
     0
176
     1
290
     1
176
     1
290
     1
176
     1
290
     0
176
     1
290
     0
176
     1
290
     0
176
     1
290
     0
176
     1
290
     0
176
     1
290
     0
176
     1
 90
       50
176
     1
 40
0.0
176
     1
 40
1.0
176
     1
 90
        0
176
     1
 62
    18
420
        0
176
     1
 90
       50
176
     1
 90
        3
176
     1
 62
     5
420
      255
176
     1
290
     0
176
     1
 90
       50
176
     1
 90
       50
176
     1
 90
       50
176
     1
290
     0
176
     1
 90
       50
176
     1
 62
   256
176
     0
 40
1.0
176
     0
 90
        2
176
     1
  1
strokes_ogs.tif
176
     1
290
     0
176
     1
 40
1.0
176
     1
 40
1.0
176
     1
  0
VISUALSTYLE
  5
34
102
{ACAD_REACTORS
330
2A
102
}
330
2A
100
AcDbVisualStyle
  2

 70
     9
177
     3
291
     0
 70
    58
 90
        3
176
     1
 90
        2
176
     1
 90
        0
176
     1
 90
        0
176
     1
 40
0.6
176
     1
 40
30.0
176
     1
 62
     7
420
 16777215
176
     1
 90
        2
176
     1
 90
        2
176
     1
 62
     7
176
     1
 62
   257
176
     1
 90
        1
176
     1
 90
        1
176
     1
 40
179.0
176
     1
 90
        8
176
     1
 62
     7
176
     1
 40
1.0
176
     1
 90
        1
176
     1
 90
        6
176
     1
 90
        2
176
     1
 62
     7
176
     1
 90
        3
176
     1
 90
        0
176
     1
 90
        0
176
     1
290
     0
176
     1
 90
        1
176
     1
 40
0.0
176
     1
 90
        0
176
     1
290
     0
176
     1
290
     1
176
     1
290
     1
176
     1
290
     0
176
     1
290
     0
176
     1
290
     0
176
     1
290
     0
176
     1
290
     0
176
     1
290
     0
176
     1
 90
       50
176
     1
 40
0.0
176
     1
 40
1.0
176
     1
 90
        0
176
     1
 62
    18
420
        0
176
     1
 90
       50
176
     1
 90
        3
176
     1
 62
     5
420
      255
176
     1
290
     0
176
     1
 90
       50
176
     1
 90
       50
176
     1
 90
       50
176
     1
290
     0
176
     1
 90
       50
176
     1
 62
   256
176
     0
 40
1.0
176
     0
 90
        2
176
     1
  1
strokes_ogs.tif
176
     1
290
     0
176
     1
 40
1.0
176
     1
 40
1.0
176
     1
  0
VISUALSTYLE
  5
35
102
{ACAD_REACTORS
330
2A
102
}
330
2A
100
AcDbVisualStyle
  2

 70
    11
177
     3
291
     1
 70
    58
 90
        2
176
     1
 90
        2
176
     1
 90
        0
176
     1
 90
        0
176
     1
 40
0.6
176
     1
 40
30.0
176
     1
 62
     7
420
 16777215
176
     1
 90
        1
176
     1
 90
        4
176
     1
 62
     7
176
     1
 62
   257
176
     1
 90
        1
176
     1
 90
        1
176
     1
 40
1.0
176
     1
 90
        8
176
     1
 62
     7
176
     1
 40
1.0
176
     1
 90
        1
176
     1
 90
        6
176
     1
 90
        2
176
     1
 62
     7
176
     1
 90
        5
176
     1
 90
        0
176
     1
 90
        0
176
     1
290
     0
176
     1
 90
        1
176
     1
 40
-50.0
176
     1
 90
        0
176
     1
290
     0
176
     1
290
     1
176
     1
290
     1
176
     1
290
     0
176
     1
290
     0
176
     1
290
     0
176
     1
290
     0
176
     1
290
     0
176
     1
290
     0
176
     1
 90
       50
176
     1
 40
0.0
176
     1
 40
1.0
176
     1
 90
        0
176
     1
 62
    18
420
        0
176
     1
 90
       50
176
     1
 90
        3
176
     1
 62
     5
420
      255
176
     1
290
     0
176
     1
 90
       50
176
     1
 90
       50
176
     1
 90
       50
176
     1
290
     0
176
     1
 90
       50
176
     1
 62
   256
176
     0
 40
1.0
176
     0
 90
        2
176
     1
  1
strokes_ogs.tif
176
     1
290
     0
176
     1
 40
1.0
176
     1
 40
1.0
176
     1
  0
VISUALSTYLE
  5
3D
102
{ACAD_REACTORS
330
2A
102
}
330
2A
100
AcDbVisualStyle
  2

 70
    22
177
     3
291
     1
 70
    58
 90
        2
176
     0
 90
        2
176
     0
 90
        0
176
     0
 90
        0
176
     0
 40
0.6
176
     0
 40
30.0
176
     0
 62
     7
420
 16777215
176
     0
 90
        1
176
     0
 90
        4
176
     0
 62
     7
176
     0
 62
   257
176
     0
 90
        1
176
     0
 90
        1
176
     0
 40
1.0
176
     0
 90
        8
176
     2
 62
     7
176
     0
 40
1.0
176
     0
 90
        1
176
     0
 90
        6
176
     0
 90
        2
176
     0
 62
     7
176
     0
 90
        5
176
     0
 90
        0
176
     0
 90
        0
176
     0
290
     0
176
     0
 90
        1
176
     0
 40
0.0
176
     0
 90
        0
176
     0
290
     0
176
     0
290
     1
176
     0
290
     1
176
     0
290
     0
176
     0
290
     0
176
     0
290
     0
176
     0
290
     0
176
     0
290
     0
176
     0
290
     0
176
     0
 90
       50
176
     0
 40
0.0
176
     0
 40
1.0
176
     0
 90
        0
176
     0
 62
    18
420
        0
176
     0
 90
       50
176
     0
 90
        3
176
     0
 62
     5
420
      255
176
     0
290
     0
176
     0
 90
       50
176
     0
 90
       50
176
     0
 90
       50
176
     0
290
     0
176
     0
 90
       50
176
     0
 62
   256
176
     0
 40
1.0
176
     0
 90
        2
176
     0
  1
strokes_ogs.tif
176
     0
290
     0
176
     0
 40
1.0
176
     0
 40
1.0
176
     0
  0
VISUALSTYLE
  5
39
102
{ACAD_REACTORS
330
2A
102
}
330
2A
100
AcDbVisualStyle
  2

 70
    15
177
     3
291
     1
 70
    58
 90
        2
176
     1
 90
        2
176
     1
 90
        0
176
     1
 90
        0
176
     1
 40
0.6
176
     1
 40
30.0
176
     1
 62
     7
420
 16777215
176
     1
 90
        1
176
     1
 90
        4
176
     1
 62
     7
176
     1
 62
   257
176
     1
 90
        1
176
     1
 90
        1
176
     1
 40
1.0
176
     1
 90
        8
176
     1
 62
     7
176
     1
 40
1.0
176
     1
 90
        1
176
     1
 90
        6
176
     1
 90
        2
176
     1
 62
     7
176
     1
 90
        5
176
     1
 90
        0
176
     1
 90
        0
176
     1
290
     0
176
     1
 90
        1
176
     1
 40
0.0
176
     1
 90
        0
176
     1
290
     0
176
     1
290
     1
176
     1
290
     1
176
     1
290
     0
176
     1
290
     0
176
     1
290
     0
176
     1
290
     0
176
     1
290
     0
176
     1
290
     0
176
     1
 90
       50
176
     1
 40
0.0
176
     1
 40
1.0
176
     1
 90
        0
176
     1
 62
    18
420
        0
176
     1
 90
       50
176
     1
 90
        3
176
     1
 62
     5
420
      255
176
     1
290
     0
176
     1
 90
       50
176
     1
 90
       50
176
     1
 90
       50
176
     1
290
     0
176
     1
 90
       50
176
     1
 62
   256
176
     0
 40
1.0
176
     0
 90
        2
176
     1
  1
strokes_ogs.tif
176
     1
290
     0
176
     1
 40
1.0
176
     1
 40
1.0
176
     1
  0
VISUALSTYLE
  5
2B
102
{ACAD_REACTORS
330
2A
102
}
330
2A
100
AcDbVisualStyle
  2

 70
     0
177
     3
291
     1
 70
    58
 90
        2
176
     1
 90
        1
176
     1
 90
        1
176
     1
 90
        2
176
     1
 40
0.6
176
     1
 40
30.0
176
     1
 62
     7
420
 16777215
176
     1
 90
        0
176
     1
 90
        0
176
     1
 62
     7
176
     1
 62
   257
176
     1
 90
        1
176
     1
 90
        1
176
     1
 40
1.0
176
     1
 90
        8
176
     1
 62
     7
176
     1
 40
1.0
176
     1
 90
        1
176
     1
 90
        6
176
     1
 90
        2
176
     1
 62
     7
176
     1
 90
        5
176
     1
 90
        0
176
     1
 90
        0
176
     1
290
     0
176
     1
 90
       13
176
     1
 40
0.0
176
     1
 90
        0
176
     1
290
     0
176
     1
290
     1
176
     1
290
     1
176
     1
290
     0
176
     1
290
     0
176
     1
290
     0
176
     1
290
     0
176
     1
290
     0
176
     1
290
     0
176
     1
 90
       50
176
     1
 40
0.0
176
     1
 40
1.0
176
     1
 90
        0
176
     1
 62
    18
420
        0
176
     1
 90
       50
176
     1
 90
        3
176
     1
 62
     5
420
      255
176
     1
290
     0
176
     1
 90
       50
176
     1
 90
       50
176
     1
 90
       50
176
     1
290
     0
176
     1
 90
       50
176
     1
 62
   256
176
     0
 40
1.0
176
     0
 90
        2
176
     1
  1
strokes_ogs.tif
176
     1
290
     0
176
     1
 40
1.0
176
     1
 40
1.0
176
     1
  0
VISUALSTYLE
  5
2C
102
{ACAD_REACTORS
330
2A
102
}
330
2A
100
AcDbVisualStyle
  2

 70
     1
177
     3
291
     1
 70
    58
 90
        2
176
     1
 90
        1
176
     1
 90
        1
176
     1
 90
        2
176
     1
 40
0.6
176
     1
 40
30.0
176
     1
 62
     7
420
 16777215
176
     1
 90
        1
176
     1
 90
        0
176
     1
 62
     7
176
     1
 62
   257
176
     1
 90
        1
176
     1
 90
        1
176
     1
 40
1.0
176
     1
 90
        0
176
     1
 62
   257
176
     1
 40
1.0
176
     1
 90
        1
176
     1
 90
        6
176
     1
 90
        2
176
     1
 62
     7
176
     1
 90
        5
176
     1
 90
        0
176
     1
 90
        0
176
     1
290
     0
176
     1
 90
       13
176
     1
 40
0.0
176
     1
 90
        0
176
     1
290
     0
176
     1
290
     1
176
     1
290
     1
176
     1
290
     0
176
     1
290
     0
176
     1
290
     0
176
     1
290
     0
176
     1
290
     0
176
     1
290
     0
176
     1
 90
       50
176
     1
 40
0.0
176
     1
 40
1.0
176
     1
 90
        0
176
     1
 62
    18
420
        0
176
     1
 90
       50
176
     1
 90
        3
176
     1
 62
     5
420
      255
176
     1
290
     0
176
     1
 90
       50
176
     1
 90
       50
176
     1
 90
       50
176
     1
290
     0
176
     1
 90
       50
176
     1
 62
   256
176
     0
 40
1.0
176
     0
 90
        2
176
     1
  1
strokes_ogs.tif
176
     1
290
     0
176
     1
 40
1.0
176
     1
 40
1.0
176
     1
  0
VISUALSTYLE
  5
2D
102
{ACAD_REACTORS
330
2A
102
}
330
2A
100
AcDbVisualStyle
  2

 70
     2
177
     3
291
     1
 70
    58
 90
        2
176
     1
 90
        2
176
     1
 90
        1
176
     1
 90
        2
176
     1
 40
0.6
176
     1
 40
30.0
176
     1
 62
     7
420
 16777215
176
     1
 90
        0
176
     1
 90
        0
176
     1
 62
     7
176
     1
 62
   257
176
     1
 90
        1
176
     1
 90
        1
176
     1
 40
1.0
176
     1
 90
        0
176
     1
 62
     7
176
     1
 40
1.0
176
     1
 90
        1
176
     1
 90
        6
176
     1
 90
        2
176
     1
 62
     7
176
     1
 90
        5
176
     1
 90
        0
176
     1
 90
        0
176
     1
290
     0
176
     1
 90
       13
176
     1
 40
0.0
176
     1
 90
        0
176
     1
290
     0
176
     1
290
     1
176
     1
290
     1
176
     1
290
     0
176
     1
290
     0
176
     1
290
     0
176
     1
290
     0
176
     1
290
     0
176
     1
290
     0
176
     1
 90
       50
176
     1
 40
0.0
176
     1
 40
1.0
176
     1
 90
        0
176
     1
 62
    18
420
        0
176
     1
 90
       50
176
     1
 90
        3
176
     1
 62
     5
420
      255
176
     1
290
     0
176
     1
 90
       50
176
     1
 90
       50
176
     1
 90
       50
176
     1
290
     0
176
     1
 90
       50
176
     1
 62
   256
176
     0
 40
1.0
176
     0
 90
        2
176
     1
  1
strokes_ogs.tif
176
     1
290
     0
176
     1
 40
1.0
176
     1
 40
1.0
176
     1
  0
VISUALSTYLE
  5
2E
102
{ACAD_REACTORS
330
2A
102
}
330
2A
100
AcDbVisualStyle
  2

 70
     3
177
     3
291
     1
 70
    58
 90
        2
176
     1
 90
        2
176
     1
 90
        1
176
     1
 90
        2
176
     1
 40
0.6
176
     1
 40
30.0
176
     1
 62
     7
420
 16777215
176
     1
 90
        1
176
     1
 90
        0
176
     1
 62
     7
176
     1
 62
   257
176
     1
 90
        1
176
     1
 90
        1
176
     1
 40
1.0
176
     1
 90
        0
176
     1
 62
   257
176
     1
 40
1.0
176
     1
 90
        1
176
     1
 90
        6
176
     1
 90
        2
176
     1
 62
     7
176
     1
 90
        5
176
     1
 90
        0
176
     1
 90
        0
176
     1
290
     0
176
     1
 90
       13
176
     1
 40
0.0
176
     1
 90
        0
176
     1
290
     0
176
     1
290
     1
176
     1
290
     1
176
     1
290
     0
176
     1
290
     0
176
     1
290
     0
176
     1
290
     0
176
     1
290
     0
176
     1
290
     0
176
     1
 90
       50
176
     1
 40
0.0
176
     1
 40
1.0
176
     1
 90
        0
176
     1
 62
    18
420
        0
176
     1
 90
       50
176
     1
 90
        3
176
     1
 62
     5
420
      255
176
     1
290
     0
176
     1
 90
       50
176
     1
 90
       50
176
     1
 90
       50
176
     1
290
     0
176
     1
 90
       50
176
     1
 62
   256
176
     0
 40
1.0
176
     0
 90
        2
176
     1
  1
strokes_ogs.tif
176
     1
290
     0
176
     1
 40
1.0
176
     1
 40
1.0
176
     1
  0
VISUALSTYLE
  5
31
102
{ACAD_REACTORS
330
2A
102
}
330
2A
100
AcDbVisualStyle
  2

 70
     6
177
     3
291
     0
 70
    58
 90
        1
176
     1
 90
        2
176
     1
 90
        2
176
     1
 90
        0
176
     1
 40
0.6
176
     1
 40
30.0
176
     1
 62
     7
420
 16777215
176
     1
 90
        2
176
     1
 90
        2
176
     1
 62
     7
176
     1
 62
   257
176
     1
 90
        2
176
     1
 90
        1
176
     1
 40
40.0
176
     1
 90
        0
176
     1
 62
   257
176
     1
 40
1.0
176
     1
 90
        1
176
     1
 90
        6
176
     1
 90
        2
176
     1
 62
     7
176
     1
 90
        3
176
     1
 90
        0
176
     1
 90
        0
176
     1
290
     0
176
     1
 90
        1
176
     1
 40
0.0
176
     1
 90
        0
176
     1
290
     0
176
     1
290
     1
176
     1
290
     1
176
     1
290
     0
176
     1
290
     0
176
     1
290
     0
176
     1
290
     0
176
     1
290
     0
176
     1
290
     0
176
     1
 90
       50
176
     1
 40
0.0
176
     1
 40
1.0
176
     1
 90
        0
176
     1
 62
    18
420
        0
176
     1
 90
       50
176
     1
 90
        3
176
     1
 62
     5
420
      255
176
     1
290
     0
176
     1
 90
       50
176
     1
 90
       50
176
     1
 90
       50
176
     1
290
     0
176
     1
 90
       50
176
     1
 62
   256
176
     0
 40
1.0
176
     0
 90
        2
176
     1
  1
strokes_ogs.tif
176
     1
290
     0
176
     1
 40
1.0
176
     1
 40
1.0
176
     1
  0
VISUALSTYLE
  5
3B
102
{ACAD_REACTORS
330
2A
102
}
330
2A
100
AcDbVisualStyle
  2

 70
    20
177
     3
291
     1
 70
    58
 90
        2
176
     0
 90
        2
176
     0
 90
        0
176
     0
 90
        0
176
     0
 40
0.6
176
     0
 40
30.0
176
     0
 62
     7
420
 16777215
176
     0
 90
        1
176
     0
 90
        4
176
     0
 62
     7
176
     0
 62
   257
176
     0
 90
        1
176
     0
 90
        1
176
     0
 40
1.0
176
     0
 90
       10
176
     2
 62
     7
176
     0
 40
1.0
176
     0
 90
        1
176
     0
 90
        6
176
     0
 90
        2
176
     0
 62
     7
176
     0
 90
        5
176
     0
 90
        0
176
     0
 90
        0
176
     0
290
     0
176
     0
 90
        1
176
     0
 40
0.0
176
     0
 90
        0
176
     0
290
     0
176
     0
290
     1
176
     0
290
     1
176
     0
290
     0
176
     0
290
     0
176
     0
290
     0
176
     0
290
     0
176
     0
290
     0
176
     0
290
     0
176
     0
 90
       50
176
     0
 40
0.0
176
     0
 40
1.0
176
     0
 90
        0
176
     0
 62
    18
420
        0
176
     0
 90
       50
176
     0
 90
        3
176
     0
 62
     5
420
      255
176
     0
290
     0
176
     0
 90
       50
176
     0
 90
       50
176
     0
 90
       50
176
     0
290
     0
176
     0
 90
       50
176
     0
 62
   256
176
     0
 40
1.0
176
     0
 90
        2
176
     0
  1
strokes_ogs.tif
176
     0
290
     0
176
     0
 40
1.0
176
     0
 40
1.0
176
     0
  0
VISUALSTYLE
  5
38
102
{ACAD_REACTORS
330
2A
102
}
330
2A
100
AcDbVisualStyle
  2

 70
    14
177
     3
291
     1
 70
    58
 90
        2
176
     1
 90
        2
176
     1
 90
        0
176
     1
 90
        0
176
     1
 40
0.6
176
     1
 40
30.0
176
     1
 62
     7
420
 16777215
176
     1
 90
        1
176
     1
 90
        4
176
     1
 62
     7
176
     1
 62
   257
176
     1
 90
        7
176
     1
 90
        7
176
     1
 40
1.0
176
     1
 90
        8
176
     1
 62
     7
176
     1
 40
1.0
176
     1
 90
        1
176
     1
 90
        6
176
     1
 90
        2
176
     1
 62
     7
176
     1
 90
        5
176
     1
 90
        0
176
     1
 90
        0
176
     1
290
     0
176
     1
 90
        1
176
     1
 40
0.0
176
     1
 90
        0
176
     1
290
     0
176
     1
290
     1
176
     1
290
     1
176
     1
290
     0
176
     1
290
     0
176
     1
290
     0
176
     1
290
     0
176
     1
290
     0
176
     1
290
     0
176
     1
 90
       50
176
     1
 40
0.0
176
     1
 40
1.0
176
     1
 90
        0
176
     1
 62
    18
420
        0
176
     1
 90
       50
176
     1
 90
        3
176
     1
 62
     5
420
      255
176
     1
290
     0
176
     1
 90
       50
176
     1
 90
       50
176
     1
 90
       50
176
     1
290
     0
176
     1
 90
       50
176
     1
 62
   256
176
     0
 40
1.0
176
     0
 90
        2
176
     1
  1
strokes_ogs.tif
176
     1
290
     0
176
     1
 40
1.0
176
     1
 40
1.0
176
     1
  0
VISUALSTYLE
  5
3C
102
{ACAD_REACTORS
330
2A
102
}
330
2A
100
AcDbVisualStyle
  2

 70
    21
177
     3
291
     1
 70
    58
 90
        2
176
     0
 90
        2
176
     0
 90
        0
176
     0
 90
        0
176
     0
 40
0.6
176
     0
 40
30.0
176
     0
 62
     7
420
 16777215
176
     0
 90
        1
176
     0
 90
        4
176
     0
 62
     7
176
     0
 62
   257
176
     0
 90
        1
176
     0
 90
        1
176
     0
 40
1.0
176
     0
 90
        9
176
     2
 62
     7
176
     0
 40
1.0
176
     0
 90
        1
176
     0
 90
        6
176
     0
 90
        2
176
     0
 62
     7
176
     0
 90
        5
176
     0
 90
        0
176
     0
 90
        0
176
     0
290
     0
176
     0
 90
        1
176
     0
 40
0.0
176
     0
 90
        0
176
     0
290
     0
176
     0
290
     1
176
     0
290
     1
176
     0
290
     0
176
     0
290
     0
176
     0
290
     0
176
     0
290
     0
176
     0
290
     0
176
     0
290
     0
176
     0
 90
       50
176
     0
 40
0.0
176
     0
 40
1.0
176
     0
 90
        0
176
     0
 62
    18
420
        0
176
     0
 90
       50
176
     0
 90
        3
176
     0
 62
     5
420
      255
176
     0
290
     0
176
     0
 90
       50
176
     0
 90
       50
176
     0
 90
       50
176
     0
290
     0
176
     0
 90
       50
176
     0
 62
   256
176
     0
 40
1.0
176
     0
 90
        2
176
     0
  1
strokes_ogs.tif
176
     0
290
     0
176
     0
 40
1.0
176
     0
 40
1.0
176
     0
  0
VISUALSTYLE
  5
33
102
{ACAD_REACTORS
330
2A
102
}
330
2A
100
AcDbVisualStyle
  2

 70
     8
177
     3
291
     0
 70
    58
 90
        2
176
     1
 90
        3
176
     1
 90
        0
176
     1
 90
        2
176
     1
 40
0.6
176
     1
 40
30.0
176
     1
 62
     7
420
 16777215
176
     1
 90
        0
176
     1
 90
        0
176
     1
 62
     7
176
     1
 62
   257
176
     1
 90
        1
176
     1
 90
        1
176
     1
 40
1.0
176
     1
 90
        8
176
     1
 62
   257
176
     1
 40
1.0
176
     1
 90
        1
176
     1
 90
        6
176
     1
 90
        2
176
     1
 62
     7
176
     1
 90
        3
176
     1
 90
        0
176
     1
 90
        0
176
     1
290
     0
176
     1
 90
       13
176
     1
 40
0.0
176
     1
 90
        0
176
     1
290
     0
176
     1
290
     1
176
     1
290
     1
176
     1
290
     0
176
     1
290
     0
176
     1
290
     0
176
     1
290
     0
176
     1
290
     0
176
     1
290
     0
176
     1
 90
       50
176
     1
 40
0.0
176
     1
 40
1.0
176
     1
 90
        0
176
     1
 62
    18
420
        0
176
     1
 90
       50
176
     1
 90
        3
176
     1
 62
     5
420
      255
176
     1
290
     0
176
     1
 90
       50
176
     1
 90
       50
176
     1
 90
       50
176
     1
290
     0
176
     1
 90
       50
176
     1
 62
   256
176
     0
 40
1.0
176
     0
 90
        2
176
     1
  1
strokes_ogs.tif
176
     1
290
     0
176
     1
 40
1.0
176
     1
 40
1.0
176
     1
  0
VISUALSTYLE
  5
42
102
{ACAD_REACTORS
330
2A
102
}
330
2A
100
AcDbVisualStyle
  2

 70
    27
177
     3
291
     0
 70
    58
 90
        2
176
     1
 90
        2
176
     1
 90
        1
176
     1
 90
        2
176
     1
 40
0.6
176
     1
 40
30.0
176
     1
 62
     7
420
 16777215
176
     1
 90
        0
176
     1
 90
        4
176
     1
 62
     7
176
     1
 62
   257
176
     1
 90
        1
176
     1
 90
        1
176
     1
 40
1.0
176
     1
 90
        8
176
     1
 62
   257
176
     1
 40
1.0
176
     1
 90
        1
176
     1
 90
        6
176
     1
 90
        2
176
     1
 62
     8
420
  7895160
176
     1
 90
        3
176
     1
 90
        0
176
     1
 90
        0
176
     1
290
     0
176
     1
 90
        5
176
     1
 40
0.0
176
     1
 90
        0
176
     1
290
     0
176
     1
290
     1
176
     1
290
     1
176
     1
290
     0
176
     1
290
     0
176
     1
290
     0
176
     1
290
     0
176
     1
290
     0
176
     1
290
     0
176
     1
 90
       50
176
     1
 40
0.0
176
     1
 40
1.0
176
     1
 90
        0
176
     1
 62
    18
420
        0
176
     1
 90
       50
176
     1
 90
        3
176
     1
 62
     5
420
      255
176
     1
290
     0
176
     1
 90
       50
176
     1
 90
       50
176
     1
 90
       50
176
     1
290
     0
176
     1
 90
       50
176
     1
 62
   256
176
     0
 40
1.0
176
     0
 90
        2
176
     1
  1
strokes_ogs.tif
176
     1
290
     0
176
     1
 40
1.0
176
     1
 40
1.0
176
     1
  0
VISUALSTYLE
  5
41
102
{ACAD_REACTORS
330
2A
102
}
330
2A
100
AcDbVisualStyle
  2

 70
    26
177
     3
291
     0
 70
    58
 90
        2
176
     1
 90
        2
176
     1
 90
        1
176
     1
 90
        2
176
     1
 40
0.6
176
     1
 40
30.0
176
     1
 62
     7
420
 16777215
176
     1
 90
        1
176
     1
 90
        2
176
     1
 62
     7
176
     1
 62
   257
176
     1
 90
        2
176
     1
 90
        1
176
     1
 40
1.0
176
     1
 90
        8
176
     1
 62
   257
176
     1
 40
1.0
176
     1
 90
        1
176
     1
 90
        6
176
     1
 90
        2
176
     1
 62
     7
176
     1
 90
        3
176
     1
 90
        0
176
     1
 90
        0
176
     1
290
     0
176
     1
 90
        5
176
     1
 40
0.0
176
     1
 90
        0
176
     1
290
     0
176
     1
290
     1
176
     1
290
     1
176
     1
290
     0
176
     1
290
     0
176
     1
290
     0
176
     1
290
     0
176
     1
290
     0
176
     1
290
     0
176
     1
 90
       50
176
     1
 40
0.0
176
     1
 40
1.0
176
     1
 90
        0
176
     1
 62
    18
420
        0
176
     1
 90
       50
176
     1
 90
        3
176
     1
 62
     5
420
      255
176
     1
290
     0
176
     1
 90
       50
176
     1
 90
       50
176
     1
 90
       50
176
     1
290
     0
176
     1
 90
       50
176
     1
 62
   256
176
     0
 40
1.0
176
     0
 90
        2
176
     1
  1
strokes_ogs.tif
176
     1
290
     0
176
     1
 40
1.0
176
     1
 40
1.0
176
     1
  0
VISUALSTYLE
  5
3E
102
{ACAD_REACTORS
330
2A
102
}
330
2A
100
AcDbVisualStyle
  2

 70
    23
177
     3
291
     0
 70
    58
 90
        2
176
     1
 90
        2
176
     1
 90
        3
176
     1
 90
        0
176
     1
 40
0.6
176
     1
 40
30.0
176
     1
 62
     7
420
 16777215
176
     1
 90
        2
176
     1
 90
        2
176
     1
 62
     7
176
     1
 62
     7
176
     1
 90
        1
176
     1
 90
        1
176
     1
 40
40.0
176
     1
 90
        8
176
     1
 62
     7
176
     1
 40
1.0
176
     1
 90
        1
176
     1
 90
        6
176
     1
 90
        2
176
     1
 62
     7
176
     1
 90
        3
176
     1
 90
        0
176
     1
 90
        0
176
     1
290
     0
176
     1
 90
        1
176
     1
 40
0.0
176
     1
 90
        0
176
     1
290
     0
176
     1
290
     1
176
     1
290
     1
176
     1
290
     0
176
     1
290
     0
176
     1
290
     0
176
     1
290
     0
176
     1
290
     0
176
     1
290
     0
176
     1
 90
       50
176
     1
 40
0.0
176
     1
 40
1.0
176
     1
 90
        0
176
     1
 62
    18
420
        0
176
     1
 90
       50
176
     1
 90
        3
176
     1
 62
     5
420
      255
176
     1
290
     0
176
     1
 90
       50
176
     1
 90
       50
176
     1
 90
       50
176
     1
290
     0
176
     1
 90
       50
176
     1
 62
   256
176
     0
 40
1.0
176
     0
 90
        2
176
     1
  1
strokes_ogs.tif
176
     1
290
     0
176
     1
 40
1.0
176
     1
 40
1.0
176
     1
  0
VISUALSTYLE
  5
3F
102
{ACAD_REACTORS
330
2A
102
}
330
2A
100
AcDbVisualStyle
  2

 70
    24
177
     3
291
     0
 70
    58
 90
        1
176
     1
 90
        2
176
     1
 90
        2
176
     1
 90
        0
176
     1
 40
0.6
176
     1
 40
30.0
176
     1
 62
     7
420
 16777215
176
     1
 90
        2
176
     1
 90
        2
176
     1
 62
     7
176
     1
 62
     7
176
     1
 90
        1
176
     1
 90
        1
176
     1
 40
40.0
176
     1
 90
       11
176
     1
 62
     7
176
     1
 40
1.0
176
     1
 90
        1
176
     1
 90
        6
176
     1
 90
        2
176
     1
 62
     7
176
     1
 90
        6
176
     1
 90
        0
176
     1
 90
        0
176
     1
290
     0
176
     1
 90
        1
176
     1
 40
0.0
176
     1
 90
        0
176
     1
290
     0
176
     1
290
     1
176
     1
290
     1
176
     1
290
     0
176
     1
290
     0
176
     1
290
     0
176
     1
290
     0
176
     1
290
     0
176
     1
290
     0
176
     1
 90
       50
176
     1
 40
0.0
176
     1
 40
1.0
176
     1
 90
        0
176
     1
 62
    18
420
        0
176
     1
 90
       50
176
     1
 90
        3
176
     1
 62
     5
420
      255
176
     1
290
     0
176
     1
 90
       50
176
     1
 90
       50
176
     1
 90
       50
176
     1
290
     0
176
     1
 90
       50
176
     1
 62
   256
176
     0
 40
1.0
176
     0
 90
        2
176
     1
  1
strokes_ogs.tif
176
     1
290
     0
176
     1
 40
1.0
176
     1
 40
1.0
176
     1
  0
VISUALSTYLE
  5
37
102
{ACAD_REACTORS
330
2A
102
}
330
2A
100
AcDbVisualStyle
  2

 70
    13
177
     3
291
     1
 70
    58
 90
        2
176
     1
 90
        2
176
     1
 90
        0
176
     1
 90
        0
176
     1
 40
0.6
176
     1
 40
30.0
176
     1
 62
     7
420
 16777215
176
     1
 90
        1
176
     1
 90
        4
176
     1
 62
     7
176
     1
 62
   257
176
     1
 90
        1
176
     1
 90
        1
176
     1
 40
1.0
176
     1
 90
       12
176
     1
 62
     7
176
     1
 40
1.0
176
     1
 90
        1
176
     1
 90
        6
176
     1
 90
        2
176
     1
 62
     7
176
     1
 90
        5
176
     1
 90
        0
176
     1
 90
        0
176
     1
290
     0
176
     1
 90
        1
176
     1
 40
0.0
176
     1
 90
        0
176
     1
290
     0
176
     1
290
     1
176
     1
290
     1
176
     1
290
     0
176
     1
290
     0
176
     1
290
     0
176
     1
290
     0
176
     1
290
     0
176
     1
290
     0
176
     1
 90
       50
176
     1
 40
0.0
176
     1
 40
1.0
176
     1
 90
        0
176
     1
 62
    18
420
        0
176
     1
 90
       50
176
     1
 90
        3
176
     1
 62
     5
420
      255
176
     1
290
     0
176
     1
 90
       50
176
     1
 90
       50
176
     1
 90
       50
176
     1
290
     0
176
     1
 90
       50
176
     1
 62
   256
176
     0
 40
1.0
176
     0
 90
        2
176
     1
  1
strokes_ogs.tif
176
     1
290
     0
176
     1
 40
1.0
176
     1
 40
1.0
176
     1
  0
VISUALSTYLE
  5
30
102
{ACAD_REACTORS
330
2A
102
}
330
2A
100
AcDbVisualStyle
  2

 70
     5
177
     3
291
     0
 70
    58
 90
        0
176
     1
 90
        2
176
     1
 90
        0
176
     1
 90
        0
176
     1
 40
0.6
176
     1
 40
30.0
176
     1
 62
     7
420
 16777215
176
     1
 90
        1
176
     1
 90
        4
176
     1
 62
     7
176
     1
 62
   257
176
     1
 90
        1
176
     1
 90
        1
176
     1
 40
1.0
176
     1
 90
        0
176
     1
 62
   257
176
     1
 40
1.0
176
     1
 90
        1
176
     1
 90
        6
176
     1
 90
        2
176
     1
 62
     7
176
     1
 90
        3
176
     1
 90
        0
176
     1
 90
        0
176
     1
290
     0
176
     1
 90
        1
176
     1
 40
0.0
176
     1
 90
        0
176
     1
290
     0
176
     1
290
     1
176
     1
290
     1
176
     1
290
     0
176
     1
290
     0
176
     1
290
     0
176
     1
290
     0
176
     1
290
     0
176
     1
290
     0
176
     1
 90
       50
176
     1
 40
0.0
176
     1
 40
1.0
176
     1
 90
        0
176
     1
 62
    18
420
        0
176
     1
 90
       50
176
     1
 90
        3
176
     1
 62
     5
420
      255
176
     1
290
     0
176
     1
 90
       50
176
     1
 90
       50
176
     1
 90
       50
176
     1
290
     0
176
     1
 90
       50
176
     1
 62
   256
176
     0
 40
1.0
176
     0
 90
        2
176
     1
  1
strokes_ogs.tif
176
     1
290
     0
176
     1
 40
1.0
176
     1
 40
1.0
176
     1
  0
VISUALSTYLE
  5
40
102
{ACAD_REACTORS
330
2A
102
}
330
2A
100
AcDbVisualStyle
  2

 70
    25
177
     3
291
     0
 70
    58
 90
        2
176
     1
 90
        2
176
     1
 90
        1
176
     1
 90
        1
176
     1
 40
0.5
176
     1
 40
30.0
176
     1
 62
     7
420
 16777215
176
     1
 90
        1
176
     1
 90
        0
176
     1
 62
     7
176
     1
 62
   257
176
     1
 90
        1
176
     1
 90
        1
176
     1
 40
1.0
176
     1
 90
        8
176
     1
 62
     7
176
     1
 40
1.0
176
     1
 90
        1
176
     1
 90
        6
176
     1
 90
        2
176
     1
 62
     7
176
     1
 90
        3
176
     1
 90
        0
176
     1
 90
        0
176
     1
290
     0
176
     1
 90
       13
176
     1
 40
0.0
176
     1
 90
        0
176
     1
290
     0
176
     1
290
     1
176
     1
290
     1
176
     1
290
     0
176
     1
290
     0
176
     1
290
     0
176
     1
290
     0
176
     1
290
     0
176
     1
290
     0
176
     1
 90
       50
176
     1
 40
0.0
176
     1
 40
1.0
176
     1
 90
        0
176
     1
 62
    18
420
        0
176
     1
 90
       50
176
     1
 90
        3
176
     1
 62
     5
420
      255
176
     1
290
     0
176
     1
 90
       50
176
     1
 90
       50
176
     1
 90
       50
176
     1
290
     0
176
     1
 90
       50
176
     1
 62
   256
176
     0
 40
1.0
176
     0
 90
        2
176
     1
  1
strokes_ogs.tif
176
     1
290
     0
176
     1
 40
1.0
176
     1
 40
1.0
176
     1
  0
DICTIONARYVAR
  5
39A
102
{ACAD_REACTORS
330
399
102
}
330
399
100
DictionaryVariables
280
     0
  1
1:1
  0
DICTIONARYVAR
  5
3DB
102
{ACAD_REACTORS
330
399
102
}
330
399
100
DictionaryVariables
280
     0
  1
STANDARD
  0
DICTIONARYVAR
  5
3DA
102
{ACAD_REACTORS
330
399
102
}
330
399
100
DictionaryVariables
280
     0
  1
STANDARD
  0
DICTIONARYVAR
  5
436
102
{ACAD_REACTORS
330
399
102
}
330
399
100
DictionaryVariables
280
     0
  1
Metric50
  0
DICTIONARYVAR
  5
437
102
{ACAD_REACTORS
330
399
102
}
330
399
100
DictionaryVariables
280
     0
  1
Metric50
  0
DICTIONARYVAR
  5
76F
102
{ACAD_REACTORS
330
399
102
}
330
399
100
DictionaryVariables
280
     0
  1
1
  0
DICTIONARYVAR
  5
770
102
{ACAD_REACTORS
330
399
102
}
330
399
100
DictionaryVariables
280
     0
  1
15
  0
DICTIONARYVAR
  5
76E
102
{ACAD_REACTORS
330
399
102
}
330
399
100
DictionaryVariables
280
     0
  1
0
  0
DICTIONARYVAR
  5
39B
102
{ACAD_REACTORS
330
399
102
}
330
399
100
DictionaryVariables
280
     0
  1
1
  0
ACDBASSOCNETWORK
  5
4BC
102
{ACAD_REACTORS
330
4BB
102
}
330
4BB
100
AcDbAssocAction
 90
        2
 90
        0
330
4BE
360
0
 90
        1
 90
        0
 90
        0
 90
        0
 90
        0
 90
        0
 90
        0
100
AcDbAssocNetwork
 90
        0
 90
        6
 90
        5
360
4BF
360
4D4
360
4D9
360
4E2
360
4E8
 90
        0
  0
DICTIONARY
  5
3CF
330
45
100
AcDbDictionary
280
     1
281
     1
  3
ACAD_XREC_ROUNDTRIP
360
3D0
  0
DICTIONARY
  5
3CD
330
44
100
AcDbDictionary
280
     1
281
     1
  3
ACAD_XREC_ROUNDTRIP
360
3CE
  0
DICTIONARY
  5
3D1
330
46
100
AcDbDictionary
280
     1
281
     1
  3
ACAD_XREC_ROUNDTRIP
360
3D2
  0
DICTIONARY
  5
3D3
330
6A
100
AcDbDictionary
280
     1
281
     1
  3
ACAD_ROUNDTRIP_2008_TABLESTYLE_CELLSTYLEMAP
360
3D5F
  0
ACDBASSOC2DCONSTRAINTGROUP
  5
4BF
330
4BC
100
AcDbAssocAction
 90
        2
 90
        0
330
4BC
360
0
 90
        1
 90
       20
 90
        0
 90
        0
 90
        0
 90
        0
 90
        0
 90
        2
 70
     0
 10
0.0
 20
0.0
 30
0.0
 10
1.0
 20
0.0
 30
0.0
 10
0.0
 20
1.0
 30
0.0
360
0
 90
       20
360
4C0
360
4CA
360
4CE
360
4C9
360
4CD
360
4D6
360
4DA
360
4D2
360
4D1
360
4D5
360
4DB
360
4E4
360
4ED
360
4E9
360
4E5
360
4EA
360
4F6
360
4F7
360
4F8
360
4F9
 90
       89
 90
        0
 90
        0
290
     0
 90
       88
  1
AcConstrainedBoundedLine
 90
        1
  1
AcConstrainedImplicitPoint
 90
        2
  1
AcPointCurveConstraint
 90
        3
  1
AcConstrainedImplicitPoint
 90
        4
  1
AcPointCurveConstraint
 90
        5
  1
AcFixedConstraint
 90
        6
  1
AcConstrainedDatumLine
 90
        7
  1
AcHorizontalConstraint
 90
        9
  1
AcConstrainedPoint
 90
       10
  1
AcFixedConstraint
 90
       11
  1
AcConstrainedBoundedLine
 90
       12
  1
AcConstrainedImplicitPoint
 90
       13
  1
AcPointCurveConstraint
 90
       14
  1
AcConstrainedImplicitPoint
 90
       15
  1
AcPointCurveConstraint
 90
       16
  1
AcConstrainedImplicitPoint
 90
       17
  1
AcPointCurveConstraint
 90
       18
  1
AcMidPointConstraint
 90
       19
  1
AcPointCoincidenceConstraint
 90
       20
  1
AcConstrainedBoundedLine
 90
       21
  1
AcConstrainedImplicitPoint
 90
       22
  1
AcPointCurveConstraint
 90
       23
  1
AcConstrainedImplicitPoint
 90
       24
  1
AcPointCurveConstraint
 90
       25
  1
AcPointCoincidenceConstraint
 90
       26
  1
AcConstrainedDatumLine
 90
       27
  1
AcVerticalConstraint
 90
       28
  1
AcConstrainedBoundedLine
 90
       29
  1
AcConstrainedImplicitPoint
 90
       30
  1
AcPointCurveConstraint
 90
       31
  1
AcConstrainedImplicitPoint
 90
       32
  1
AcPointCurveConstraint
 90
       33
  1
AcSymmetricConstraint
 90
       34
  1
AcPointCoincidenceConstraint
 90
       35
  1
AcConstrainedBoundedLine
 90
       36
  1
AcConstrainedImplicitPoint
 90
       37
  1
AcPointCurveConstraint
 90
       38
  1
AcConstrainedImplicitPoint
 90
       39
  1
AcPointCurveConstraint
 90
       40
  1
AcPointCoincidenceConstraint
 90
       41
  1
AcConstrainedBoundedLine
 90
       42
  1
AcConstrainedImplicitPoint
 90
       43
  1
AcPointCurveConstraint
 90
       44
  1
AcConstrainedImplicitPoint
 90
       45
  1
AcPointCurveConstraint
 90
       46
  1
AcPointCoincidenceConstraint
 90
       47
  1
AcPointCoincidenceConstraint
 90
       48
  1
AcSymmetricConstraint
 90
       49
  1
AcAngleConstraint
 90
       50
  1
AcDistanceConstraint
 90
       51
  1
AcDistanceConstraint
 90
       52
  1
AcDistanceConstraint
 90
       53
  1
AcHorizontalConstraint
 90
       54
  1
AcConstrainedBoundedLine
 90
       55
  1
AcConstrainedImplicitPoint
 90
       56
  1
AcPointCurveConstraint
 90
       57
  1
AcConstrainedImplicitPoint
 90
       58
  1
AcPointCurveConstraint
 90
       59
  1
AcPointCoincidenceConstraint
 90
       60
  1
AcPointCoincidenceConstraint
 90
       61
  1
AcConstrainedBoundedLine
 90
       62
  1
AcConstrainedImplicitPoint
 90
       63
  1
AcPointCurveConstraint
 90
       64
  1
AcConstrainedImplicitPoint
 90
       65
  1
AcPointCurveConstraint
 90
       66
  1
AcPointCoincidenceConstraint
 90
       67
  1
AcPointCoincidenceConstraint
 90
       68
  1
AcConstrainedBoundedLine
 90
       69
  1
AcConstrainedImplicitPoint
 90
       70
  1
AcPointCurveConstraint
 90
       71
  1
AcConstrainedImplicitPoint
 90
       72
  1
AcPointCurveConstraint
 90
       73
  1
AcPointCoincidenceConstraint
 90
       74
  1
AcPointCoincidenceConstraint
 90
       75
  1
AcConstrainedBoundedLine
 90
       76
  1
AcConstrainedImplicitPoint
 90
       77
  1
AcPointCurveConstraint
 90
       78
  1
AcConstrainedImplicitPoint
 90
       79
  1
AcPointCurveConstraint
 90
       80
  1
AcPointCoincidenceConstraint
 90
       81
  1
AcPointCoincidenceConstraint
 90
       82
  1
AcConstrainedBoundedLine
 90
       83
  1
AcConstrainedImplicitPoint
 90
       84
  1
AcPointCurveConstraint
 90
       85
  1
AcConstrainedImplicitPoint
 90
       86
  1
AcPointCurveConstraint
 90
       87
  1
AcPointCoincidenceConstraint
 90
       88
  1
AcPointCoincidenceConstraint
 90
       89
 90
        1
 90
        5
 90
        3
 90
        5
 90
        9
 90
       34
 90
       49
 70
     0
330
4C0
 90
        0
 10
-2.0
 20
0.0
 30
0.0
 10
1.0
 20
0.0
 30
0.0
290
     0
 10
-2.0
 20
0.0
 30
0.0
 11
16.8
 21
0.0
 31
0.0
 90
        2
 90
        2
 90
        3
 90
        6
 70
     0
330
0
 90
        0
280
     0
 90
       -1
 90
        1
 90
        3
 90
        2
 90
        2
 90
        1
 70
     0
 90
        0
290
     1
290
     1
 90
        4
 90
        2
 90
        5
 90
       52
 70
     0
330
0
 90
        0
280
     1
 90
       -1
 90
        1
 90
        5
 90
        2
 90
        4
 90
        1
 70
     0
 90
        0
290
     1
290
     1
 90
        6
 90
        1
 90
        2
 70
     0
 90
        0
290
     0
290
     1
 90
        7
 90
        0
 70
     0
330
0
 90
        0
 10
0.0
 20
0.0
 30
0.0
 10
1.0
 20
0.0
 30
0.0
 90
        9
 90
        1
 90
        1
 70
     0
 90
        0
290
     0
290
     1
 90
        7
 90
       10
 90
        2
 90
       11
 90
       20
 70
     0
330
4C9
 90
        0
 10
0.0
 20
0.0
 30
0.0
 90
       11
 90
        1
 90
       10
 70
     0
 90
        0
290
     0
290
     1
 90
       12
 90
        5
 90
       14
 90
       16
 90
       18
 90
       19
 90
       28
 70
     0
330
4CA
 90
        0
 10
0.0
 20
6.122449694698433
 30
0.0
 10
0.0000000000000001
 20
-1.0
 30
0.0
290
     0
 10
-0.0000000000000048
 20
10.75
 30
0.0
 11
0.0000000000000018
 21
-10.75
 31
0.0
 90
       13
 90
        3
 90
       14
 90
       26
 90
       51
 70
     0
330
0
 90
        0
280
     0
 90
       -1
 90
       12
 90
       14
 90
        2
 90
       13
 90
       12
 70
     0
 90
        0
290
     1
290
     1
 90
       15
 90
        2
 90
       16
 90
       35
 70
     0
330
0
 90
        0
280
     1
 90
       -1
 90
       12
 90
       16
 90
        2
 90
       15
 90
       12
 70
     0
 90
        0
290
     1
290
     1
 90
       17
 90
        6
 90
       18
 90
       19
 90
       20
 90
       52
 90
       75
 90
       81
 70
     0
330
0
 90
        0
280
     2
 90
       -1
 90
       12
 90
       18
 90
        2
 90
       17
 90
       12
 70
     0
 90
        0
290
     1
290
     1
 90
       19
 90
        2
 90
       17
 90
       12
 70
     0
 90
        0
290
     1
290
     1
 90
       20
 90
        2
 90
       17
 90
       10
 70
     0
 90
        0
290
     0
290
     1
 90
       21
 90
        4
 90
       23
 90
       25
 90
       34
 90
       54
 70
     0
330
4CD
 90
        0
 10
1.057440741486225
 20
10.75
 30
0.0
 10
1.0
 20
0.0
 30
0.0
290
     0
 10
-0.0000000000000048
 20
10.75
 30
0.0
 11
10.88731998163833
 21
10.75
 31
0.0
 90
       22
 90
        4
 90
       23
 90
       26
 90
       53
 90
       67
 70
     0
330
0
 90
        0
280
     0
 90
       -1
 90
       21
 90
       23
 90
        2
 90
       22
 90
       21
 70
     0
 90
        0
290
     1
290
     1
 90
       24
 90
        2
 90
       25
 90
       41
 70
     0
330
0
 90
        0
280
     1
 90
       -1
 90
       21
 90
       25
 90
        2
 90
       24
 90
       21
 70
     0
 90
        0
290
     1
290
     1
 90
       26
 90
        2
 90
       22
 90
       13
 70
     0
 90
        0
290
     0
290
     1
 90
       27
 90
        0
 70
     0
330
0
 90
        0
 10
0.0
 20
0.0
 30
0.0
 10
0.0
 20
1.0
 30
0.0
 90
       28
 90
        1
 90
       12
 70
     0
 90
        0
290
     0
290
     1
 90
       27
 90
       29
 90
        3
 90
       31
 90
       33
 90
       34
 70
     0
330
4CE
 90
        0
 10
-5.353750696236091
 20
-10.75
 30
0.0
 10
1.0
 20
0.0
 30
0.0
290
     0
 10
0.0000000000000018
 20
-10.75
 30
0.0
 11
10.88731998163833
 21
-10.75
 31
0.0
 90
       30
 90
        3
 90
       31
 90
       35
 90
       53
 70
     0
330
0
 90
        0
280
     0
 90
       -1
 90
       29
 90
       31
 90
        2
 90
       30
 90
       29
 70
     0
 90
        0
290
     1
290
     1
 90
       32
 90
        2
 90
       33
 90
       47
 70
     0
330
0
 90
        0
280
     1
 90
       -1
 90
       29
 90
       33
 90
        2
 90
       32
 90
       29
 70
     0
 90
        0
290
     1
290
     1
 90
       34
 90
        3
 90
       21
 90
       29
 90
        1
 70
     0
 90
        0
290
     0
290
     1
 90
       35
 90
        2
 90
       30
 90
       15
 70
     0
 90
        0
290
     0
290
     1
 90
       36
 90
        4
 90
       38
 90
       40
 90
       49
 90
       50
 70
     0
330
4D1
 90
        0
 10
12.31248446337877
 20
6.834392767409402
 30
0.0
 10
0.3420201433256675
 20
-0.9396926207859088
 30
0.0
290
     0
 10
10.88731998163833
 20
10.75
 30
0.0
 11
14.8
 21
0.0
 31
0.0
 90
       37
 90
        3
 90
       38
 90
       41
 90
       60
 70
     0
330
0
 90
        0
280
     0
 90
       -1
 90
       36
 90
       38
 90
        2
 90
       37
 90
       36
 70
     0
 90
        0
290
     1
290
     1
 90
       39
 90
        3
 90
       40
 90
       48
 90
       51
 70
     0
330
0
 90
        0
280
     1
 90
       -1
 90
       36
 90
       40
 90
        2
 90
       39
 90
       36
 70
     0
 90
        0
290
     1
290
     1
 90
       41
 90
        2
 90
       37
 90
       24
 70
     0
 90
        0
290
     0
290
     1
 90
       42
 90
        4
 90
       44
 90
       46
 90
       49
 90
       50
 70
     0
330
4D2
 90
        0
 10
15.93597202489315
 20
3.121057487526069
 30
0.0
 10
-0.3420201433256675
 20
-0.9396926207859085
 30
0.0
290
     0
 10
14.8
 20
0.0
 30
0.0
 11
10.88731998163833
 21
-10.75
 31
0.0
 90
       43
 90
        3
 90
       44
 90
       48
 90
       82
 70
     0
330
0
 90
        0
280
     0
 90
       -1
 90
       42
 90
       44
 90
        2
 90
       43
 90
       42
 70
     0
 90
        0
290
     1
290
     1
 90
       45
 90
        3
 90
       46
 90
       47
 90
       61
 70
     0
330
0
 90
        0
280
     1
 90
       -1
 90
       42
 90
       46
 90
        2
 90
       45
 90
       42
 70
     0
 90
        0
290
     1
290
     1
 90
       47
 90
        2
 90
       45
 90
       32
 70
     0
 90
        0
290
     0
290
     1
 90
       48
 90
        2
 90
       43
 90
       39
 70
     0
 90
        0
290
     0
290
     1
 90
       49
 90
        3
 90
       36
 90
       42
 90
        1
 70
     0
 90
        0
290
     0
290
     1
 90
       50
 90
        2
 90
       36
 90
       42
 70
     0
 90
        0
290
     0
290
     1
340
4D5
340
4D6
280
     3
 90
       51
 90
        2
 90
       13
 90
       39
 70
     0
 90
        0
290
     0
290
     1
340
4DA
340
4DB
280
     1
 10
-1.0
 20
0.0
 30
0.0
 90
       52
 90
        2
 90
       17
 90
        4
 70
     0
 90
        0
290
     0
290
     1
340
4E4
340
4E5
280
     1
 10
-1.0
 20
0.0
 30
0.0
 90
       53
 90
        2
 90
       22
 90
       30
 70
     0
 90
        0
290
     0
290
     1
340
4E9
340
4EA
280
     1
 10
0.0
 20
1.0
 30
0.0
 90
       54
 90
        1
 90
       21
 70
     0
 90
        0
290
     0
290
     1
 90
        7
 90
       55
 90
        2
 90
       57
 90
       59
 70
     0
330
4ED
 90
        0
 10
10.88731998163833
 20
-0.368969267529696
 30
0.0
 10
0.0
 20
-1.0
 30
0.0
290
     0
 10
10.88731998163833
 20
10.75
 30
0.0
 11
10.88731998163833
 21
-10.75
 31
0.0
 90
       56
 90
        3
 90
       57
 90
       60
 90
       68
 70
     0
330
0
 90
        0
280
     0
 90
       -1
 90
       55
 90
       57
 90
        2
 90
       56
 90
       55
 70
     0
 90
        0
290
     1
290
     1
 90
       58
 90
        2
 90
       59
 90
       61
 70
     0
330
0
 90
        0
280
     1
 90
       -1
 90
       55
 90
       59
 90
        2
 90
       58
 90
       55
 70
     0
 90
        0
290
     1
290
     1
 90
       60
 90
        2
 90
       56
 90
       37
 70
     0
 90
        0
290
     0
290
     1
 90
       61
 90
        2
 90
       58
 90
       45
 70
     0
 90
        0
290
     0
290
     1
 90
       62
 90
        2
 90
       64
 90
       66
 70
     0
330
4F6
 90
        0
 10
-0.0000000000000036
 20
10.75
 30
0.0
 10
1.0
 20
0.0
 30
0.0
290
     0
 10
-0.0000000000000048
 20
10.75
 30
0.0
 11
10.88731998163833
 21
10.75
 31
0.0
 90
       63
 90
        3
 90
       64
 90
       67
 90
       74
 70
     0
330
0
 90
        0
280
     0
 90
       -1
 90
       62
 90
       64
 90
        2
 90
       63
 90
       62
 70
     0
 90
        0
290
     1
290
     1
 90
       65
 90
        3
 90
       66
 90
       68
 90
       89
 70
     0
330
0
 90
        0
280
     1
 90
       -1
 90
       62
 90
       66
 90
        2
 90
       65
 90
       62
 70
     0
 90
        0
290
     1
290
     1
 90
       67
 90
        2
 90
       63
 90
       22
 70
     0
 90
        0
290
     0
290
     1
 90
       68
 90
        2
 90
       65
 90
       56
 70
     0
 90
        0
290
     0
290
     1
 90
       69
 90
        2
 90
       71
 90
       73
 70
     0
330
4F7
 90
        0
 10
-0.0000000000000001
 20
7.349999999999999
 30
0.0
 10
0.0000000000000001
 20
-1.0
 30
0.0
290
     0
 10
-0.0000000000000048
 20
10.75
 30
0.0
 11
0.0
 21
0.0
 31
0.0
 90
       70
 90
        2
 90
       71
 90
       74
 70
     0
330
0
 90
        0
280
     0
 90
       -1
 90
       69
 90
       71
 90
        2
 90
       70
 90
       69
 70
     0
 90
        0
290
     1
290
     1
 90
       72
 90
        2
 90
       73
 90
       75
 70
     0
330
0
 90
        0
280
     1
 90
       -1
 90
       69
 90
       73
 90
        2
 90
       72
 90
       69
 70
     0
 90
        0
290
     1
290
     1
 90
       74
 90
        2
 90
       70
 90
       63
 70
     0
 90
        0
290
     0
290
     1
 90
       75
 90
        2
 90
       72
 90
       17
 70
     0
 90
        0
290
     0
290
     1
 90
       76
 90
        2
 90
       78
 90
       80
 70
     0
330
4F8
 90
        0
 10
0.0
 20
0.0
 30
0.0
 10
1.0
 20
0.0
 30
0.0
290
     0
 10
0.0
 20
0.0
 30
0.0
 11
14.8
 21
0.0
 31
0.0
 90
       77
 90
        2
 90
       78
 90
       81
 70
     0
330
0
 90
        0
280
     0
 90
       -1
 90
       76
 90
       78
 90
        2
 90
       77
 90
       76
 70
     0
 90
        0
290
     1
290
     1
 90
       79
 90
        3
 90
       80
 90
       82
 90
       88
 70
     0
330
0
 90
        0
280
     1
 90
       -1
 90
       76
 90
       80
 90
        2
 90
       79
 90
       76
 70
     0
 90
        0
290
     1
290
     1
 90
       81
 90
        2
 90
       77
 90
       17
 70
     0
 90
        0
290
     0
290
     1
 90
       82
 90
        2
 90
       79
 90
       43
 70
     0
 90
        0
290
     0
290
     1
 90
       83
 90
        2
 90
       85
 90
       87
 70
     0
330
4F9
 90
        0
 10
11.1657853406836
 20
9.984922713922806
 30
0.0
 10
0.3420201433256675
 20
-0.9396926207859088
 30
0.0
290
     0
 10
10.88731998163833
 20
10.75
 30
0.0
 11
14.8
 21
0.0
 31
0.0
 90
       84
 90
        2
 90
       85
 90
       89
 70
     0
330
0
 90
        0
280
     0
 90
       -1
 90
       83
 90
       85
 90
        2
 90
       84
 90
       83
 70
     0
 90
        0
290
     1
290
     1
 90
       86
 90
        2
 90
       87
 90
       88
 70
     0
330
0
 90
        0
280
     1
 90
       -1
 90
       83
 90
       87
 90
        2
 90
       86
 90
       83
 70
     0
 90
        0
290
     1
290
     1
 90
       88
 90
        2
 90
       86
 90
       79
 70
     0
 90
        0
290
     0
290
     1
 90
       89
 90
        2
 90
       84
 90
       65
 70
     0
 90
        0
290
     0
290
     1
  0
ACDBASSOCVARIABLE
  5
4D4
102
{ACAD_REACTORS
330
4D5
102
}
330
4BC
100
AcDbAssocAction
 90
        2
 90
        0
330
4BC
360
0
 90
        2
 90
        0
 90
        0
 90
        0
 90
        0
 90
        0
 90
        0
100
AcDbAssocVariable
 90
        2
  1
SIG
  1
140
  1
AcDbCalc:1.0
  1

 90
      140
290
     0
290
     0
 90
        0
  0
ACDBASSOCVARIABLE
  5
4D9
102
{ACAD_REACTORS
330
4DA
330
4E3
102
}
330
4BC
100
AcDbAssocAction
 90
        2
 90
        0
330
4BC
360
0
 90
        3
 90
        0
 90
        0
 90
        0
 90
        0
 90
        0
 90
        0
100
AcDbAssocVariable
 90
        2
  1
OAL
  1
14.8
  1
AcDbCalc:1.0
  1

 40
14.8
290
     0
290
     0
 90
        0
  0
ACDBASSOCVARIABLE
  5
4E2
102
{ACAD_REACTORS
330
4E4
102
}
330
4BC
100
AcDbAssocAction
 90
        2
 90
        0
330
4BC
360
0
 90
        4
 90
        1
 90
        0
 90
        0
 90
        0
 90
        0
 90
        0
100
AcDbAssocVariable
 90
        2
  1
d1
  1
OAL+2
  1
AcDbCalc:1.0
  1

 40
16.8
290
     0
290
     0
 90
        1
360
4E3
 90
        0
  0
ACDBASSOCVARIABLE
  5
4E8
102
{ACAD_REACTORS
330
4E9
102
}
330
4BC
100
AcDbAssocAction
 90
        2
 90
        0
330
4BC
360
0
 90
        5
 90
        0
 90
        0
 90
        0
 90
        0
 90
        0
 90
        0
100
AcDbAssocVariable
 90
        2
  1
DC
  1
21.50
  1
AcDbCalc:1.0
  1

 40
21.5
290
     0
290
     0
 90
        0
  0
XRECORD
  5
3D0
102
{ACAD_REACTORS
330
3CF
102
}
330
3CF
100
AcDbXrecord
280
     1
102
MATERIAL
148
0.0
149
0.0
149
0.0
 93
        0
 94
      127
282
     0
 72
     1
 77
     1
171
     1
175
     1
179
     1
273
     0
  0
XRECORD
  5
3CE
102
{ACAD_REACTORS
330
3CD
102
}
330
3CD
100
AcDbXrecord
280
     1
102
MATERIAL
148
0.0
149
0.0
149
0.0
 93
        0
 94
      127
282
     0
 72
     1
 77
     1
171
     1
175
     1
179
     1
273
     0
  0
XRECORD
  5
3D2
102
{ACAD_REACTORS
330
3D1
102
}
330
3D1
100
AcDbXrecord
280
     1
102
MATERIAL
148
0.0
149
0.0
149
0.0
 93
        0
 94
      127
282
     0
 72
     1
 77
     1
171
     1
175
     1
179
     1
273
     0
  0
CELLSTYLEMAP
  5
3D5F
102
{ACAD_REACTORS
330
3D3
102
}
330
3D3
100
AcDbCellStyleMap
 90
        3
300
CELLSTYLE
  1
TABLEFORMAT_BEGIN
 90
        5
170
     1
 91
        0
 92
    32768
 62
   257
 93
        1
300
CONTENTFORMAT
  1
CONTENTFORMAT_BEGIN
 90
        0
 91
        0
 92
        4
 93
        0
300

 40
0.0
140
1.0
 94
        5
 62
     0
340
11
144
0.25
309
CONTENTFORMAT_END
171
     1
301
MARGIN
  1
CELLMARGIN_BEGIN
 40
0.06
 40
0.06
 40
0.06
 40
0.06
 40
0.18
 40
0.18
309
CELLMARGIN_END
 94
        6
 95
        1
302
GRIDFORMAT
  1
GRIDFORMAT_BEGIN
 90
        0
 91
        1
 62
     0
 92
       -2
340
14
 93
        0
 40
0.045
309
GRIDFORMAT_END
 95
        2
302
GRIDFORMAT
  1
GRIDFORMAT_BEGIN
 90
        0
 91
        1
 62
     0
 92
       -2
340
14
 93
        0
 40
0.045
309
GRIDFORMAT_END
 95
        4
302
GRIDFORMAT
  1
GRIDFORMAT_BEGIN
 90
        0
 91
        1
 62
     0
 92
       -2
340
14
 93
        0
 40
0.045
309
GRIDFORMAT_END
 95
        8
302
GRIDFORMAT
  1
GRIDFORMAT_BEGIN
 90
        0
 91
        1
 62
     0
 92
       -2
340
14
 93
        0
 40
0.045
309
GRIDFORMAT_END
 95
       16
302
GRIDFORMAT
  1
GRIDFORMAT_BEGIN
 90
        0
 91
        1
 62
     0
 92
       -2
340
14
 93
        0
 40
0.045
309
GRIDFORMAT_END
 95
       32
302
GRIDFORMAT
  1
GRIDFORMAT_BEGIN
 90
        0
 91
        1
 62
     0
 92
       -2
340
14
 93
        0
 40
0.045
309
GRIDFORMAT_END
309
TABLEFORMAT_END
  1
CELLSTYLE_BEGIN
 90
        1
 91
        1
300
_TITLE
309
CELLSTYLE_END
300
CELLSTYLE
  1
TABLEFORMAT_BEGIN
 90
        5
170
     1
 91
        0
 92
        0
 62
   257
 93
        1
300
CONTENTFORMAT
  1
CONTENTFORMAT_BEGIN
 90
        0
 91
        0
 92
        4
 93
        0
300

 40
0.0
140
1.0
 94
        5
 62
     0
340
11
144
0.18
309
CONTENTFORMAT_END
171
     1
301
MARGIN
  1
CELLMARGIN_BEGIN
 40
0.06
 40
0.06
 40
0.06
 40
0.06
 40
0.18
 40
0.18
309
CELLMARGIN_END
 94
        6
 95
        1
302
GRIDFORMAT
  1
GRIDFORMAT_BEGIN
 90
        0
 91
        1
 62
     0
 92
       -2
340
14
 93
        0
 40
0.045
309
GRIDFORMAT_END
 95
        2
302
GRIDFORMAT
  1
GRIDFORMAT_BEGIN
 90
        0
 91
        1
 62
     0
 92
       -2
340
14
 93
        0
 40
0.045
309
GRIDFORMAT_END
 95
        4
302
GRIDFORMAT
  1
GRIDFORMAT_BEGIN
 90
        0
 91
        1
 62
     0
 92
       -2
340
14
 93
        0
 40
0.045
309
GRIDFORMAT_END
 95
        8
302
GRIDFORMAT
  1
GRIDFORMAT_BEGIN
 90
        0
 91
        1
 62
     0
 92
       -2
340
14
 93
        0
 40
0.045
309
GRIDFORMAT_END
 95
       16
302
GRIDFORMAT
  1
GRIDFORMAT_BEGIN
 90
        0
 91
        1
 62
     0
 92
       -2
340
14
 93
        0
 40
0.045
309
GRIDFORMAT_END
 95
       32
302
GRIDFORMAT
  1
GRIDFORMAT_BEGIN
 90
        0
 91
        1
 62
     0
 92
       -2
340
14
 93
        0
 40
0.045
309
GRIDFORMAT_END
309
TABLEFORMAT_END
  1
CELLSTYLE_BEGIN
 90
        2
 91
        1
300
_HEADER
309
CELLSTYLE_END
300
CELLSTYLE
  1
TABLEFORMAT_BEGIN
 90
        5
170
     1
 91
        0
 92
        0
 62
   257
 93
        1
300
CONTENTFORMAT
  1
CONTENTFORMAT_BEGIN
 90
        0
 91
        0
 92
        4
 93
        0
300

 40
0.0
140
1.0
 94
        2
 62
     0
340
11
144
0.18
309
CONTENTFORMAT_END
171
     1
301
MARGIN
  1
CELLMARGIN_BEGIN
 40
0.06
 40
0.06
 40
0.06
 40
0.06
 40
0.18
 40
0.18
309
CELLMARGIN_END
 94
        6
 95
        1
302
GRIDFORMAT
  1
GRIDFORMAT_BEGIN
 90
        0
 91
        1
 62
     0
 92
       -2
340
14
 93
        0
 40
0.045
309
GRIDFORMAT_END
 95
        2
302
GRIDFORMAT
  1
GRIDFORMAT_BEGIN
 90
        0
 91
        1
 62
     0
 92
       -2
340
14
 93
        0
 40
0.045
309
GRIDFORMAT_END
 95
        4
302
GRIDFORMAT
  1
GRIDFORMAT_BEGIN
 90
        0
 91
        1
 62
     0
 92
       -2
340
14
 93
        0
 40
0.045
309
GRIDFORMAT_END
 95
        8
302
GRIDFORMAT
  1
GRIDFORMAT_BEGIN
 90
        0
 91
        1
 62
     0
 92
       -2
340
14
 93
        0
 40
0.045
309
GRIDFORMAT_END
 95
       16
302
GRIDFORMAT
  1
GRIDFORMAT_BEGIN
 90
        0
 91
        1
 62
     0
 92
       -2
340
14
 93
        0
 40
0.045
309
GRIDFORMAT_END
 95
       32
302
GRIDFORMAT
  1
GRIDFORMAT_BEGIN
 90
        0
 91
        1
 62
     0
 92
       -2
340
14
 93
        0
 40
0.045
309
GRIDFORMAT_END
309
TABLEFORMAT_END
  1
CELLSTYLE_BEGIN
 90
        3
 91
        2
300
_DATA
309
CELLSTYLE_END
  0
ACDBASSOCGEOMDEPENDENCY
  5
4C0
330
4BF
100
AcDbAssocDependency
 90
        2
 90
        0
290
     1
290
     1
290
     1
290
     1
 90
   -10000
330
4BA
290
     0
330
0
330
0
360
0
 90
        1
100
AcDbAssocGeomDependency
 90
        0
290
     1
  1
AcDbAssocSingleEdgePersSubentId
290
     0
  0
ACDBASSOCGEOMDEPENDENCY
  5
4CA
330
4BF
100
AcDbAssocDependency
 90
        2
 90
        0
290
     1
290
     1
290
     1
290
     1
 90
   -10000
330
4C1
290
     0
330
0
330
0
360
0
 90
        3
100
AcDbAssocGeomDependency
 90
        0
290
     1
  1
AcDbAssocSingleEdgePersSubentId
290
     0
  0
ACDBASSOCGEOMDEPENDENCY
  5
4CE
330
4BF
100
AcDbAssocDependency
 90
        2
 90
        0
290
     1
290
     1
290
     1
290
     1
 90
   -10000
330
4CC
290
     0
330
0
330
0
360
0
 90
        5
100
AcDbAssocGeomDependency
 90
        0
290
     1
  1
AcDbAssocSingleEdgePersSubentId
290
     0
  0
ACDBASSOCGEOMDEPENDENCY
  5
4C9
330
4BF
100
AcDbAssocDependency
 90
        2
 90
        0
290
     1
290
     1
290
     1
290
     1
 90
   -10000
330
4C8
290
     0
330
0
330
0
360
0
 90
        2
100
AcDbAssocGeomDependency
 90
        0
290
     1
  1
AcDbAssocSimplePersSubentId
 90
        1
 90
        3
 90
       -1
290
     0
290
     0
  0
ACDBASSOCGEOMDEPENDENCY
  5
4CD
330
4BF
100
AcDbAssocDependency
 90
        2
 90
        0
290
     1
290
     1
290
     1
290
     1
 90
   -10000
330
4CB
290
     0
330
0
330
0
360
0
 90
        4
100
AcDbAssocGeomDependency
 90
        0
290
     1
  1
AcDbAssocSingleEdgePersSubentId
290
     0
  0
ACDBASSOCDEPENDENCY
  5
4D6
330
4BF
100
AcDbAssocDependency
 90
        2
 90
        0
290
     0
290
     1
290
     1
290
     1
 90
        0
330
4D3
290
     0
330
0
330
0
360
4D7
 90
        9
  0
ACDBASSOCVALUEDEPENDENCY
  5
4DA
330
4BF
100
AcDbAssocDependency
 90
        2
 90
        0
290
     1
290
     0
290
     1
290
     1
 90
        0
330
4D9
290
     0
330
0
330
4E3
360
0
 90
       10
100
AcDbAssocValueDependency
 90
        0
  1

 40
14.8
  0
ACDBASSOCGEOMDEPENDENCY
  5
4D2
330
4BF
100
AcDbAssocDependency
 90
        2
 90
        0
290
     1
290
     1
290
     1
290
     1
 90
   -10000
330
4D0
290
     0
330
0
330
0
360
0
 90
        7
100
AcDbAssocGeomDependency
 90
        0
290
     1
  1
AcDbAssocSingleEdgePersSubentId
290
     0
  0
ACDBASSOCGEOMDEPENDENCY
  5
4D1
330
4BF
100
AcDbAssocDependency
 90
        2
 90
        0
290
     1
290
     1
290
     1
290
     1
 90
   -10000
330
4CF
290
     0
330
0
330
0
360
0
 90
        6
100
AcDbAssocGeomDependency
 90
        0
290
     1
  1
AcDbAssocSingleEdgePersSubentId
290
     0
  0
ACDBASSOCVALUEDEPENDENCY
  5
4D5
330
4BF
100
AcDbAssocDependency
 90
        2
 90
        0
290
     1
290
     0
290
     1
290
     1
 90
        0
330
4D4
290
     0
330
0
330
0
360
0
 90
        8
100
AcDbAssocValueDependency
 90
        0
  1

 90
      140
  0
ACDBASSOCDEPENDENCY
  5
4DB
330
4BF
100
AcDbAssocDependency
 90
        2
 90
        0
290
     0
290
     1
290
     1
290
     1
 90
        0
330
4D8
290
     0
330
0
330
0
360
4DC
 90
       11
  0
ACDBASSOCVALUEDEPENDENCY
  5
4E4
330
4BF
100
AcDbAssocDependency
 90
        2
 90
        0
290
     1
290
     0
290
     1
290
     1
 90
        0
330
4E2
290
     0
330
0
330
0
360
0
 90
       12
100
AcDbAssocValueDependency
 90
        0
  1

 40
16.8
  0
ACDBASSOCGEOMDEPENDENCY
  5
4ED
330
4BF
100
AcDbAssocDependency
 90
        2
 90
        0
290
     1
290
     1
290
     1
290
     1
 90
   -10000
330
4EC
290
     0
330
0
330
0
360
0
 90
       16
100
AcDbAssocGeomDependency
 90
        0
290
     1
  1
AcDbAssocSingleEdgePersSubentId
290
     0
  0
ACDBASSOCVALUEDEPENDENCY
  5
4E9
330
4BF
100
AcDbAssocDependency
 90
        2
 90
        0
290
     1
290
     0
290
     1
290
     1
 90
        0
330
4E8
290
     0
330
0
330
0
360
0
 90
       14
100
AcDbAssocValueDependency
 90
        0
  1

 40
21.5
  0
ACDBASSOCDEPENDENCY
  5
4E5
330
4BF
100
AcDbAssocDependency
 90
        2
 90
        0
290
     0
290
     1
290
     1
290
     1
 90
        0
330
4E1
290
     0
330
0
330
0
360
4E6
 90
       13
  0
ACDBASSOCDEPENDENCY
  5
4EA
330
4BF
100
AcDbAssocDependency
 90
        2
 90
        0
290
     0
290
     1
290
     1
290
     1
 90
        0
330
4E7
290
     0
330
0
330
0
360
4EB
 90
       15
  0
ACDBASSOCGEOMDEPENDENCY
  5
4F6
330
4BF
100
AcDbAssocDependency
 90
        2
 90
        0
290
     1
290
     1
290
     1
290
     1
 90
   -10000
330
4F3
290
     0
330
0
330
0
360
0
 90
       17
100
AcDbAssocGeomDependency
 90
        0
290
     1
  1
AcDbAssocSingleEdgePersSubentId
290
     0
  0
ACDBASSOCGEOMDEPENDENCY
  5
4F7
330
4BF
100
AcDbAssocDependency
 90
        2
 90
        0
290
     1
290
     1
290
     1
290
     1
 90
   -10000
330
4F4
290
     0
330
0
330
0
360
0
 90
       18
100
AcDbAssocGeomDependency
 90
        0
290
     1
  1
AcDbAssocSingleEdgePersSubentId
290
     0
  0
ACDBASSOCGEOMDEPENDENCY
  5
4F8
330
4BF
100
AcDbAssocDependency
 90
        2
 90
        0
290
     1
290
     1
290
     1
290
     1
 90
   -10000
330
4F5
290
     0
330
0
330
0
360
0
 90
       19
100
AcDbAssocGeomDependency
 90
        0
290
     1
  1
AcDbAssocSingleEdgePersSubentId
290
     0
  0
ACDBASSOCGEOMDEPENDENCY
  5
4F9
330
4BF
100
AcDbAssocDependency
 90
        2
 90
        0
290
     1
290
     1
290
     1
290
     1
 90
   -10000
330
4F2
290
     0
330
0
330
0
360
0
 90
       20
100
AcDbAssocGeomDependency
 90
        0
290
     1
  1
AcDbAssocSingleEdgePersSubentId
290
     0
  0
ACDBASSOCVALUEDEPENDENCY
  5
4E3
330
4E2
100
AcDbAssocDependency
 90
        2
 90
        0
290
     1
290
     0
290
     1
290
     1
 90
        0
330
4D9
290
     0
330
4DA
330
0
360
0
 90
        1
100
AcDbAssocValueDependency
 90
        0
  1

 40
14.8
  0
ASSOCDIMDEPENDENCYBODY
  5
4D7
330
4D6
100
AcDbAssocDependencyBody
 90
        1
100
AcDbImpAssocDimDependencyBodyBase
 90
        1
  1
SIG=140
100
AcDbAssocDimDependencyBody
 90
        1
  0
ASSOCDIMDEPENDENCYBODY
  5
4DC
330
4DB
100
AcDbAssocDependencyBody
 90
        1
100
AcDbImpAssocDimDependencyBodyBase
 90
        1
  1
OAL=14.8000
100
AcDbAssocDimDependencyBody
 90
        1
  0
ASSOCDIMDEPENDENCYBODY
  5
4E6
330
4E5
100
AcDbAssocDependencyBody
 90
        1
100
AcDbImpAssocDimDependencyBodyBase
 90
        1
  1
d1=OAL+2
100
AcDbAssocDimDependencyBody
 90
        1
  0
ASSOCDIMDEPENDENCYBODY
  5
4EB
330
4EA
100
AcDbAssocDependencyBody
 90
        1
100
AcDbImpAssocDimDependencyBodyBase
 90
        1
  1
DC=21.5000
100
AcDbAssocDimDependencyBody
 90
        1
  0
ENDSEC
  0
SECTION
  2
ACDSDATA
 70
     2
 71
     8
  0
ACDSSCHEMA
 90
        0
  1
AcDb_Thumbnail_Schema
  2
AcDbDs::ID
280
    10
 91
        8
  2
Thumbnail_Data
280
    15
 91
        0
101
ACDSRECORD
 95
        0
 90
        1
  2
AcDbDs::TreatedAsObjectData
280
     1
291
     1
101
ACDSRECORD
 95
        0
 90
        2
  2
AcDbDs::Legacy
280
     1
291
     1
101
ACDSRECORD
  1
AcDbDs::ID
 90
        3
  2
AcDs:Indexable
280
     1
291
     1
101
ACDSRECORD
  1
AcDbDs::ID
 90
        4
  2
AcDbDs::HandleAttribute
280
     7
282
     1
  0
ACDSSCHEMA
 90
        1
  1
AcDbDs::TreatedAsObjectDataSchema
  2
AcDbDs::TreatedAsObjectData
280
     1
 91
        0
  0
ACDSSCHEMA
 90
        2
  1
AcDbDs::LegacySchema
  2
AcDbDs::Legacy
280
     1
 91
        0
  0
ACDSSCHEMA
 90
        3
  1
AcDbDs::IndexedPropertySchema
  2
AcDs:Indexable
280
     1
 91
        0
  0
ACDSSCHEMA
 90
        4
  1
AcDbDs::HandleAttributeSchema
  2
AcDbDs::HandleAttribute
280
     7
 91
        1
284
     1
  0
ACDSRECORD
 90
        0
  2
AcDbDs::ID
280
    10
320
22
  2
Thumbnail_Data
280
    15
 94
     1133
310
89504E470D0A1A0A0000000D49484452000001000000006F08030000003479EE6F00000300504C5445212830FFFFFF2128300000000000000000000000000000000000000000000000000000330000660000990000CC0000FF0033000033330033660033990033CC0033FF0066000066330066660066990066CC0066FF0099
310
000099330099660099990099CC0099FF00CC0000CC3300CC6600CC9900CCCC00CCFF00FF0000FF3300FF6600FF9900FFCC00FFFF3300003300333300663300993300CC3300FF3333003333333333663333993333CC3333FF3366003366333366663366993366CC3366FF3399003399333399663399993399CC3399FF33CC00
310
33CC3333CC6633CC9933CCCC33CCFF33FF0033FF3333FF6633FF9933FFCC33FFFF6600006600336600666600996600CC6600FF6633006633336633666633996633CC6633FF6666006666336666666666996666CC6666FF6699006699336699666699996699CC6699FF66CC0066CC3366CC6666CC9966CCCC66CCFF66FF0066
310
FF3366FF6666FF9966FFCC66FFFF9900009900339900669900999900CC9900FF9933009933339933669933999933CC9933FF9966009966339966669966999966CC9966FF9999009999339999669999999999CC9999FF99CC0099CC3399CC6699CC9999CCCC99CCFF99FF0099FF3399FF6699FF9999FFCC99FFFFCC0000CC00
310
33CC0066CC0099CC00CCCC00FFCC3300CC3333CC3366CC3399CC33CCCC33FFCC6600CC6633CC6666CC6699CC66CCCC66FFCC9900CC9933CC9966CC9999CC99CCCC99FFCCCC00CCCC33CCCC66CCCC99CCCCCCCCCCFFCCFF00CCFF33CCFF66CCFF99CCFFCCCCFFFFFF0000FF0033FF0066FF0099FF00CCFF00FFFF3300FF3333
310
FF3366FF3399FF33CCFF33FFFF6600FF6633FF6666FF6699FF66CCFF66FFFF9900FF9933FF9966FF9999FF99CCFF99FFFFCC00FFCC33FFCC66FFCC99FFCCCCFFCCFFFFFF00FFFF33FFFF66FFFF99FFFFCCFFFFFF0000000D0D0D1A1A1A2828283535354343435050505D5D5D6B6B6B787878868686939393A1A1A1AEAEAEBB
310
BBBBC9C9C9D6D6D6E4E4E4F1F1F1FFFFFF0000000000000000000000000000000000000000000000000000000000002E4550F1000001284944415478DAEDDB4B7283301045D1DE90F63F6325DE86E609C44E629B00F90C82DE39E39EE856DB5854B90A00000000007EAD2FA2035452807ED8A801FE7C500001041040000104
310
104000010410E00C01A61DA35F13A7A3037DD0D5D80DD0A6ED73F6F40025C0E801AE2302E406789B114080DC00CB90005FFDE649DA80D5020901E6A979032A3EC0DA697302F4CA0DF03A76DDFF9E1EE0F9BC19016ABA3D01FAC3DB809E16E0BE405280CA0E501F0B70F726F4CC012EB3E9A8BE8C573DBE083EFB06B41F6CC0
310
A74FC1F93F024703B45AFD12ACF400311BD0DE4FFE7423CA0B50D10186BB0B1C0BD06E471DEF3628C037020CF94AEC5080B6F5CC0F0AB02E20C0F68C00028C1E6067440001060FB0372140C46D70E3FC670FB027F61F9500000000000000FFC20B703C8467335605900000000049454E44AE426082
  0
ENDSEC
  0
EOF
