  0
SECTION
  2
HEADER
  9
$ACADVER
  1
AC1015
  9
$DWGCODEPAGE
  3
ANSI_932
  9
$HANDSEED
  5
106AB90
  9
$INSUNITS
  70
4
  0
ENDSEC
  0
SECTION
  2
TABLES
  0
TABLE
  2
VPORT
  5
2
  330
0
  100
AcDbSymbolTable
  70
    0
  0
ENDTAB
  0
TABLE
  2
LTYPE
  5
3
  330
0
  100
AcDbSymbolTable
  70
    4
  0
LTYPE
  5
4
  330
3
  100
AcDbSymbolTableRecord
  100
AcDbLinetypeTableRecord
  2
ByBlock
  70
    0
  3

  72
65
  73
    0
  40
0
  0
LTYPE
  5
5
  330
3
  100
AcDbSymbolTableRecord
  100
AcDbLinetypeTableRecord
  2
ByLayer
  70
    0
  3

  72
65
  73
    0
  40
0
  0
LTYPE
  5
6
  330
3
  100
AcDbSymbolTableRecord
  100
AcDbLinetypeTableRecord
  2
CONTINUOUS
  70
    0
  3
Solid Line
  72
65
  73
    0
  40
0
  0
LTYPE
  5
7
  330
3
  100
AcDbSymbolTableRecord
  100
AcDbLinetypeTableRecord
  2
DASH
  70
    0
  3
Hidden
  72
65
  73
2
  40
2.5
  49
1.5
  74
0
  49
-1
  74
0
  0
LTYPE
  5
8
  330
3
  100
AcDbSymbolTableRecord
  100
AcDbLinetypeTableRecord
  2
LONGDASHDASH
  70
    0
  3
__ . __
  72
65
  73
    4
  40
7
  49
4
  74
    0
  49
-1
  74
    0
  49
1
  74
    0
  49
-1
  74
    0
  0
ENDTAB
  0
TABLE
  2
LAYER
  5
9
  330
0
  100
AcDbSymbolTable
  70
    40
  0
LAYER
  5
a
  330
9
  100
AcDbSymbolTableRecord
  100
AcDbLayerTableRecord
  2
0
  70
    0
  62
    0
  6
CONTINUOUS
  390
0
  0
LAYER
  5
c
  330
9
  100
AcDbSymbolTableRecord
  100
AcDbLayerTableRecord
  2
1
  70
    0
  62
    4
  6
CONTINUOUS
  370
50
  390
0
  0
LAYER
  5
d
  330
9
  100
AcDbSymbolTableRecord
  100
AcDbLayerTableRecord
  2
2
  70
    0
  62
    7
  6
CONTINUOUS
  370
25
  390
0
  0
LAYER
  5
f
  330
9
  100
AcDbSymbolTableRecord
  100
AcDbLayerTableRecord
  2
4
  70
    0
  62
    2
  6
LONGDASHDASH
  370
25
  390
0
  0
LAYER
  5
13
  330
9
  100
AcDbSymbolTableRecord
  100
AcDbLayerTableRecord
  2
SK1
  70
    0
  62
    4
  6
CONTINUOUS
  370
50
  390
0
  0
LAYER
  5
14
  330
9
  100
AcDbSymbolTableRecord
  100
AcDbLayerTableRecord
  2
SK2
  70
    0
  62
    7
  6
CONTINUOUS
  370
25
  390
0
  0
LAYER
  5
16
  330
9
  100
AcDbSymbolTableRecord
  100
AcDbLayerTableRecord
  2
SK4
  70
    0
  62
    2
  6
LONGDASHDASH
  370
25
  390
0
  0
LAYER
  5
21
  330
9
  100
AcDbSymbolTableRecord
  100
AcDbLayerTableRecord
  2
NOCUT
  70
    0
  62
    7
  6
CONTINUOUS
  370
25
  390
0
  0
LAYER
  5
22
  330
9
  100
AcDbSymbolTableRecord
  100
AcDbLayerTableRecord
  2
CUT
  70
    0
  62
    1
  6
CONTINUOUS
  370
25
  390
0
  0
LAYER
  5
26
  330
9
  100
AcDbSymbolTableRecord
  100
AcDbLayerTableRecord
  2
INFTOTAL
  70
    0
  62
    9
  6
CONTINUOUS
  370
18
  390
0
  0
ENDTAB
  0
TABLE
  2
STYLE
  5
27
  330
0
  100
AcDbSymbolTable
  70
    1
  0
STYLE
  5
28
  330
27
  100
AcDbSymbolTableRecord
  100
AcDbTextStyleTableRecord
  2
Monospac821 BT
  70
    0
  40
    3.5
  41
1
  50
0
  71
0
  42
3
  3

  4

  1001
ACAD
  1000
Monospac821 BT
  1071
256
  0
ENDTAB
  0
TABLE
  2
VIEW
  5
29
  330
0
  100
AcDbSymbolTable
  70
    0
  0
ENDTAB
  0
TABLE
  2
UCS
  5
2a
  330
0
  100
AcDbSymbolTable
  70
    0
  0
ENDTAB
  0
TABLE
  2
APPID
  5
2b
  330
0
  100
AcDbSymbolTable
  70
    1
  0
APPID
  5
2c
  330
2b
  100
AcDbSymbolTableRecord
  100
AcDbRegAppTableRecord
  2
ACAD
  70
    0
  0
ENDTAB
  0
TABLE
  2
DIMSTYLE
  5
2d
  330
0
  100
AcDbSymbolTable
  70
    1
  100
AcDbDimStyleTable
  0
DIMSTYLE
  105
2e
  330
2d
  100
AcDbSymbolTableRecord
  100
AcDbDimStyleTableRecord
  2
STANDARD
  70
    0
  41
    3
  42
0.5
  44
1
  73
0
  77
1
  78
1
  140
3.5
  141
2.5
  143
0.03937
  147
0.8
  172
1
  174
1
  178
0
  179
1
  271
2
  279
1
  284
1
  340
28
  0
ENDTAB
  0
TABLE
  2
BLOCK_RECORD
  5
2f
  330
0
  100
AcDbSymbolTable
  70
    2
  0
BLOCK_RECORD
  5
30
  330
2f
  100
AcDbSymbolTableRecord
  100
AcDbBlockTableRecord
  2
*Model_Space
  0
BLOCK_RECORD
  5
31
  330
2f
  100
AcDbSymbolTableRecord
  100
AcDbBlockTableRecord
  2
*Paper_Space
  0
BLOCK_RECORD
  5
79e
  330
2f
  100
AcDbSymbolTableRecord
  100
AcDbBlockTableRecord
  2
*D79d
  340
0
  0
BLOCK_RECORD
  5
7ac
  330
2f
  100
AcDbSymbolTableRecord
  100
AcDbBlockTableRecord
  2
*D7ab
  340
0
  0
BLOCK_RECORD
  5
7ba
  330
2f
  100
AcDbSymbolTableRecord
  100
AcDbBlockTableRecord
  2
*D7b9
  340
0
  0
BLOCK_RECORD
  5
7c8
  330
2f
  100
AcDbSymbolTableRecord
  100
AcDbBlockTableRecord
  2
*D7c7
  340
0
  0
BLOCK_RECORD
  5
7d6
  330
2f
  100
AcDbSymbolTableRecord
  100
AcDbBlockTableRecord
  2
*D7d5
  340
0
  0
BLOCK_RECORD
  5
7e0
  330
2f
  100
AcDbSymbolTableRecord
  100
AcDbBlockTableRecord
  2
*D7df
  340
0
  0
BLOCK_RECORD
  5
7ee
  330
2f
  100
AcDbSymbolTableRecord
  100
AcDbBlockTableRecord
  2
*D7ed
  340
0
  0
BLOCK_RECORD
  5
7fc
  330
2f
  100
AcDbSymbolTableRecord
  100
AcDbBlockTableRecord
  2
*D7fb
  340
0
  0
BLOCK_RECORD
  5
80a
  330
2f
  100
AcDbSymbolTableRecord
  100
AcDbBlockTableRecord
  2
*D809
  340
0
  0
ENDTAB
  0
ENDSEC
  0
SECTION
  2
BLOCKS
  0
BLOCK
  5
32
  330
30
  100
AcDbEntity
  8
0
  100
AcDbBlockBegin
  2
*Model_Space
  70
    0
  10
0
  20
0
  30
0
  3
*Model_Space
  1

  0
ENDBLK
  5
33
  330
30
  100
AcDbEntity
  8
0
  100
AcDbBlockEnd
  0
BLOCK
  5
34
  330
31
  100
AcDbEntity
  8
0
  100
AcDbBlockBegin
  2
*Paper_Space
  70
    0
  10
0
  20
0
  30
0
  3
*Paper_Space
  1

  0
ENDBLK
  5
35
  330
31
  100
AcDbEntity
  8
0
  100
AcDbBlockEnd
  0
BLOCK
  5
79c
  330
79e
  100
AcDbEntity
  8
SK2
  100
AcDbBlockBegin
  2
*D79d
  70
1
  10
0
  20
0
  30
0
  3
*D79d
  1

  0
LINE
  5
79f
  330
79e
  100
AcDbEntity
  8
SK2
  100
AcDbLine
  10
0
  20
1.3
  30
0
  11
0
  21
30
  31
0
  0
LINE
  5
7a0
  330
79e
  100
AcDbEntity
  8
SK2
  100
AcDbLine
  10
45
  20
0.08
  30
0
  11
45
  21
30
  31
0
  0
LINE
  5
7a1
  330
79e
  100
AcDbEntity
  8
SK2
  100
AcDbLine
  10
0
  20
28
  30
0
  11
45
  21
28
  31
0
  0
SOLID
  5
7a2
  330
79e
  100
AcDbEntity
  8
SK2
  100
AcDbTrace
  10
0
  20
28
  30
0
  11
2.478612
  21
28.326315
  31
0
  12
2.478612
  22
27.673685
  32
0
  13
2.478612
  23
27.673685
  33
0
  0
SOLID
  5
7a3
  330
79e
  100
AcDbEntity
  8
SK2
  100
AcDbTrace
  10
45
  20
28
  30
0
  11
42.521388
  21
27.673685
  31
0
  12
42.521388
  22
28.326315
  32
0
  13
42.521388
  23
28.326315
  33
0
  0
MTEXT
  5
7a4
  330
79e
  100
AcDbEntity
  8
SK2
  100
AcDbMText
  10
27.521436
  20
28
  30
0
  11
1
  21
0
  31
0
  40
2
  41
0
  71
8
  72
1
  1
45
  0
POINT
  5
7a5
  330
79e
  100
AcDbEntity
  8
SK2
  62
0
  100
AcDbPoint
  10
0
  20
1.3
  30
0
  0
POINT
  5
7a6
  330
79e
  100
AcDbEntity
  8
SK2
  62
0
  100
AcDbPoint
  10
45
  20
0.08
  30
0
  0
POINT
  5
7a7
  330
79e
  100
AcDbEntity
  8
SK2
  62
0
  100
AcDbPoint
  10
45
  20
28
  30
0
  0
ENDBLK
  5
7a8
  330
79e
  100
AcDbEntity
  8
SK2
  100
AcDbBlockEnd
  0
BLOCK
  5
7aa
  330
7ac
  100
AcDbEntity
  8
SK2
  100
AcDbBlockBegin
  2
*D7ab
  70
1
  10
0
  20
0
  30
0
  3
*D7ab
  1

  0
LINE
  5
7ad
  330
7ac
  100
AcDbEntity
  8
SK2
  100
AcDbLine
  10
37.315688
  20
2
  30
0
  11
37.315688
  21
15
  31
0
  0
LINE
  5
7ae
  330
7ac
  100
AcDbEntity
  8
SK2
  100
AcDbLine
  10
0
  20
1.3
  30
0
  11
0
  21
15
  31
0
  0
LINE
  5
7af
  330
7ac
  100
AcDbEntity
  8
SK2
  100
AcDbLine
  10
37.315688
  20
13
  30
0
  11
0
  21
13
  31
0
  0
SOLID
  5
7b0
  330
7ac
  100
AcDbEntity
  8
SK2
  100
AcDbTrace
  10
37.315688
  20
13
  30
0
  11
34.837076
  21
12.673685
  31
0
  12
34.837076
  22
13.326315
  32
0
  13
34.837076
  23
13.326315
  33
0
  0
SOLID
  5
7b1
  330
7ac
  100
AcDbEntity
  8
SK2
  100
AcDbTrace
  10
0
  20
13
  30
0
  11
2.478612
  21
13.326315
  31
0
  12
2.478612
  22
12.673685
  32
0
  13
2.478612
  23
12.673685
  33
0
  0
MTEXT
  5
7b2
  330
7ac
  100
AcDbEntity
  8
SK2
  100
AcDbMText
  10
17.246969
  20
13
  30
0
  11
1
  21
-0
  31
0
  40
2
  41
0
  71
8
  72
1
  1
37.3
  0
POINT
  5
7b3
  330
7ac
  100
AcDbEntity
  8
SK2
  62
0
  100
AcDbPoint
  10
37.315688
  20
2
  30
0
  0
POINT
  5
7b4
  330
7ac
  100
AcDbEntity
  8
SK2
  62
0
  100
AcDbPoint
  10
0
  20
1.3
  30
0
  0
POINT
  5
7b5
  330
7ac
  100
AcDbEntity
  8
SK2
  62
0
  100
AcDbPoint
  10
0
  20
13
  30
0
  0
ENDBLK
  5
7b6
  330
7ac
  100
AcDbEntity
  8
SK2
  100
AcDbBlockEnd
  0
BLOCK
  5
7b8
  330
7ba
  100
AcDbEntity
  8
SK2
  100
AcDbBlockBegin
  2
*D7b9
  70
1
  10
0
  20
0
  30
0
  3
*D7b9
  1

  0
LINE
  5
7bb
  330
7ba
  100
AcDbEntity
  8
SK2
  100
AcDbLine
  10
0.7
  20
-2
  30
0
  11
-12
  21
-2
  31
0
  0
LINE
  5
7bc
  330
7ba
  100
AcDbEntity
  8
SK2
  100
AcDbLine
  10
0.7
  20
2
  30
0
  11
-12
  21
2
  31
0
  0
LINE
  5
7bd
  330
7ba
  100
AcDbEntity
  8
SK2
  100
AcDbLine
  10
-10
  20
-2.42432
  30
0
  11
-10
  21
2.316573
  31
0
  0
SOLID
  5
7be
  330
7ba
  100
AcDbEntity
  8
SK2
  100
AcDbTrace
  10
-10
  20
-2
  30
0
  11
-10.326315
  21
0.478612
  31
0
  12
-9.673685
  22
0.478612
  32
0
  13
-9.673685
  23
0.478612
  33
0
  0
SOLID
  5
7bf
  330
7ba
  100
AcDbEntity
  8
SK2
  100
AcDbTrace
  10
-10
  20
2
  30
0
  11
-9.673685
  21
-0.478612
  31
0
  12
-10.326315
  22
-0.478612
  32
0
  13
-10.326315
  23
-0.478612
  33
0
  0
MTEXT
  5
7c0
  330
7ba
  100
AcDbEntity
  8
SK2
  100
AcDbMText
  10
-10
  20
0
  30
0
  11
0
  21
1
  31
0
  40
2
  41
0
  71
8
  72
1
  1
Ø4
  0
POINT
  5
7c1
  330
7ba
  100
AcDbEntity
  8
SK2
  62
0
  100
AcDbPoint
  10
0.7
  20
-2
  30
0
  0
POINT
  5
7c2
  330
7ba
  100
AcDbEntity
  8
SK2
  62
0
  100
AcDbPoint
  10
0.7
  20
2
  30
0
  0
POINT
  5
7c3
  330
7ba
  100
AcDbEntity
  8
SK2
  62
0
  100
AcDbPoint
  10
-10
  20
2.316573
  30
0
  0
ENDBLK
  5
7c4
  330
7ba
  100
AcDbEntity
  8
SK2
  100
AcDbBlockEnd
  0
BLOCK
  5
7c6
  330
7c8
  100
AcDbEntity
  8
2
  100
AcDbBlockBegin
  2
*D7c7
  70
1
  10
0
  20
0
  30
0
  3
*D7c7
  1

  0
LINE
  5
7c9
  330
7c8
  100
AcDbEntity
  8
2
  100
AcDbLine
  10
44.98
  20
-0.1
  30
0
  11
57
  21
-0.1
  31
0
  0
LINE
  5
7ca
  330
7c8
  100
AcDbEntity
  8
2
  100
AcDbLine
  10
44.98
  20
0.1
  30
0
  11
57
  21
0.1
  31
0
  0
LINE
  5
7cb
  330
7c8
  100
AcDbEntity
  8
2
  100
AcDbLine
  10
55
  20
-7.703951
  30
0
  11
55
  21
0.1
  31
0
  0
SOLID
  5
7cc
  330
7c8
  100
AcDbEntity
  8
2
  100
AcDbTrace
  10
55
  20
-0.1
  30
0
  11
55.326315
  21
-2.578612
  31
0
  12
54.673685
  22
-2.578612
  32
0
  13
54.673685
  23
-2.578612
  33
0
  0
SOLID
  5
7cd
  330
7c8
  100
AcDbEntity
  8
2
  100
AcDbTrace
  10
55
  20
0.1
  30
0
  11
54.673685
  21
2.578612
  31
0
  12
55.326315
  22
2.578612
  32
0
  13
55.326315
  23
2.578612
  33
0
  0
MTEXT
  5
7ce
  330
7c8
  100
AcDbEntity
  8
2
  100
AcDbMText
  10
55
  20
0
  30
0
  11
0
  21
1
  31
0
  40
2
  41
0
  71
9
  72
1
  1
Ø0.2
  0
POINT
  5
7cf
  330
7c8
  100
AcDbEntity
  8
2
  62
0
  100
AcDbPoint
  10
44.98
  20
-0.1
  30
0
  0
POINT
  5
7d0
  330
7c8
  100
AcDbEntity
  8
2
  62
0
  100
AcDbPoint
  10
44.98
  20
0.1
  30
0
  0
POINT
  5
7d1
  330
7c8
  100
AcDbEntity
  8
2
  62
0
  100
AcDbPoint
  10
55
  20
0.1
  30
0
  0
ENDBLK
  5
7d2
  330
7c8
  100
AcDbEntity
  8
2
  100
AcDbBlockEnd
  0
BLOCK
  5
7d4
  330
7d6
  100
AcDbEntity
  8
2
  100
AcDbBlockBegin
  2
*D7d5
  70
1
  10
0
  20
0
  30
0
  3
*D7d5
  1

  0
LINE
  5
7d7
  330
7d6
  100
AcDbEntity
  8
2
  100
AcDbLine
  10
44.994142
  20
0.094142
  30
0
  11
37.923074
  21
7.16521
  31
0
  0
MTEXT
  5
7d8
  330
7d6
  100
AcDbEntity
  8
2
  100
AcDbMText
  10
41.458608
  20
3.629676
  30
0
  11
0.707107
  21
-0.707107
  31
0
  40
2
  41
0
  71
8
  72
1
  1
R0.02
  0
SOLID
  5
7d9
  330
7d6
  100
AcDbEntity
  8
2
  100
AcDbTrace
  10
44.994142
  20
0.094142
  30
0
  11
43.010759
  21
1.616046
  31
0
  12
43.472239
  22
2.077525
  32
0
  13
43.472239
  23
2.077525
  33
0
  0
POINT
  5
7da
  330
7d6
  100
AcDbEntity
  8
2
  62
0
  100
AcDbPoint
  10
44.994142
  20
0.094142
  30
0
  0
POINT
  5
7db
  330
7d6
  100
AcDbEntity
  8
2
  62
0
  100
AcDbPoint
  10
44.98
  20
0.08
  30
0
  0
ENDBLK
  5
7dc
  330
7d6
  100
AcDbEntity
  8
2
  100
AcDbBlockEnd
  0
BLOCK
  5
7de
  330
7e0
  100
AcDbEntity
  8
2
  100
AcDbBlockBegin
  2
*D7df
  70
1
  10
0
  20
0
  30
0
  3
*D7df
  1

  0
LINE
  5
7e1
  330
7e0
  100
AcDbEntity
  8
2
  100
AcDbLine
  10
51.25
  20
-0.09
  30
0
  11
44.85
  21
-0.09
  31
0
  0
LINE
  5
7e2
  330
7e0
  100
AcDbEntity
  8
2
  100
AcDbLine
  10
51.25
  20
0.09
  30
0
  11
44.85
  21
0.09
  31
0
  0
LINE
  5
7e3
  330
7e0
  100
AcDbEntity
  8
2
  100
AcDbLine
  10
50.75
  20
-0.269369
  30
0
  11
50.75
  21
9.427912
  31
0
  0
SOLID
  5
7e4
  330
7e0
  100
AcDbEntity
  8
2
  100
AcDbTrace
  10
50.75
  20
-0.09
  30
0
  11
51.076315
  21
-2.568612
  31
0
  12
50.423685
  22
-2.568612
  32
0
  13
50.423685
  23
-2.568612
  33
0
  0
SOLID
  5
7e5
  330
7e0
  100
AcDbEntity
  8
2
  100
AcDbTrace
  10
50.75
  20
0.09
  30
0
  11
50.423685
  21
2.568612
  31
0
  12
51.076315
  22
2.568612
  32
0
  13
51.076315
  23
2.568612
  33
0
  0
MTEXT
  5
7e6
  330
7e0
  100
AcDbEntity
  8
2
  100
AcDbMText
  10
50.75
  20
9.523549
  30
0
  11
0
  21
1
  31
0
  40
2
  41
0
  71
9
  72
1
  1
Ø0.18
  0
POINT
  5
7e7
  330
7e0
  100
AcDbEntity
  8
2
  62
0
  100
AcDbPoint
  10
44.85
  20
-0.09
  30
0
  0
POINT
  5
7e8
  330
7e0
  100
AcDbEntity
  8
2
  62
0
  100
AcDbPoint
  10
44.85
  20
0.09
  30
0
  0
POINT
  5
7e9
  330
7e0
  100
AcDbEntity
  8
2
  62
0
  100
AcDbPoint
  10
50.75
  20
9.427912
  30
0
  0
ENDBLK
  5
7ea
  330
7e0
  100
AcDbEntity
  8
2
  100
AcDbBlockEnd
  0
BLOCK
  5
7ec
  330
7ee
  100
AcDbEntity
  8
2
  100
AcDbBlockBegin
  2
*D7ed
  70
1
  10
0
  20
0
  30
0
  3
*D7ed
  1

  0
LINE
  5
7ef
  330
7ee
  100
AcDbEntity
  8
2
  100
AcDbLine
  10
44.85
  20
-19.185525
  30
0
  11
44.85
  21
0.09
  31
0
  0
LINE
  5
7f0
  330
7ee
  100
AcDbEntity
  8
2
  100
AcDbLine
  10
44.62
  20
-19.185525
  30
0
  11
44.62
  21
0.09
  31
0
  0
LINE
  5
7f1
  330
7ee
  100
AcDbEntity
  8
2
  100
AcDbLine
  10
44.85
  20
-17.185525
  30
0
  11
35.772191
  21
-17.185525
  31
0
  0
SOLID
  5
7f2
  330
7ee
  100
AcDbEntity
  8
2
  100
AcDbTrace
  10
44.85
  20
-17.185525
  30
0
  11
47.328612
  21
-16.859209
  31
0
  12
47.328612
  22
-17.51184
  32
0
  13
47.328612
  23
-17.51184
  33
0
  0
SOLID
  5
7f3
  330
7ee
  100
AcDbEntity
  8
2
  100
AcDbTrace
  10
44.62
  20
-17.185525
  30
0
  11
42.141388
  21
-17.51184
  31
0
  12
42.141388
  22
-16.859209
  32
0
  13
42.141388
  23
-16.859209
  33
0
  0
MTEXT
  5
7f4
  330
7ee
  100
AcDbEntity
  8
2
  100
AcDbMText
  10
42.875835
  20
-17.185525
  30
0
  11
1
  21
-0
  31
0
  40
2
  41
0
  71
9
  72
1
  1
0.23
  0
POINT
  5
7f5
  330
7ee
  100
AcDbEntity
  8
2
  62
0
  100
AcDbPoint
  10
44.85
  20
0.09
  30
0
  0
POINT
  5
7f6
  330
7ee
  100
AcDbEntity
  8
2
  62
0
  100
AcDbPoint
  10
44.62
  20
0.09
  30
0
  0
POINT
  5
7f7
  330
7ee
  100
AcDbEntity
  8
2
  62
0
  100
AcDbPoint
  10
35.772191
  20
-17.185525
  30
0
  0
ENDBLK
  5
7f8
  330
7ee
  100
AcDbEntity
  8
2
  100
AcDbBlockEnd
  0
BLOCK
  5
7fa
  330
7fc
  100
AcDbEntity
  8
2
  100
AcDbBlockBegin
  2
*D7fb
  70
1
  10
0
  20
0
  30
0
  3
*D7fb
  1

  0
LINE
  5
7fd
  330
7fc
  100
AcDbEntity
  8
2
  100
AcDbLine
  10
44.85
  20
-0.09
  30
0
  11
44.85
  21
-19.173487
  31
0
  0
LINE
  5
7fe
  330
7fc
  100
AcDbEntity
  8
2
  100
AcDbLine
  10
45
  20
-19.173487
  30
0
  11
45
  21
0.08
  31
0
  0
LINE
  5
7ff
  330
7fc
  100
AcDbEntity
  8
2
  100
AcDbLine
  10
39.866598
  20
-17.173487
  30
0
  11
46.87019
  21
-17.173487
  31
0
  0
SOLID
  5
800
  330
7fc
  100
AcDbEntity
  8
2
  100
AcDbTrace
  10
44.85
  20
-17.173487
  30
0
  11
42.371388
  21
-17.499802
  31
0
  12
42.371388
  22
-16.847171
  32
0
  13
42.371388
  23
-16.847171
  33
0
  0
SOLID
  5
801
  330
7fc
  100
AcDbEntity
  8
2
  100
AcDbTrace
  10
45
  20
-17.173487
  30
0
  11
47.478612
  21
-16.847171
  31
0
  12
47.478612
  22
-17.499802
  32
0
  13
47.478612
  23
-17.499802
  33
0
  0
MTEXT
  5
802
  330
7fc
  100
AcDbEntity
  8
2
  100
AcDbMText
  10
46.903528
  20
-17.173487
  30
0
  11
1
  21
0
  31
0
  40
2
  41
0
  71
9
  72
1
  1
0.15
  0
POINT
  5
803
  330
7fc
  100
AcDbEntity
  8
2
  62
0
  100
AcDbPoint
  10
44.85
  20
-0.09
  30
0
  0
POINT
  5
804
  330
7fc
  100
AcDbEntity
  8
2
  62
0
  100
AcDbPoint
  10
45
  20
0.08
  30
0
  0
POINT
  5
805
  330
7fc
  100
AcDbEntity
  8
2
  62
0
  100
AcDbPoint
  10
46.87019
  20
-17.173487
  30
0
  0
ENDBLK
  5
806
  330
7fc
  100
AcDbEntity
  8
2
  100
AcDbBlockEnd
  0
BLOCK
  5
808
  330
80a
  100
AcDbEntity
  8
2
  100
AcDbBlockBegin
  2
*D809
  70
1
  10
0
  20
0
  30
0
  3
*D809
  1

  0
LINE
  5
80b
  330
80a
  100
AcDbEntity
  8
2
  100
AcDbLine
  10
37.316
  20
-1.999916
  30
0
  11
37.316
  21
-35
  31
0
  0
LINE
  5
80c
  330
80a
  100
AcDbEntity
  8
2
  100
AcDbLine
  10
45
  20
-35
  30
0
  11
45
  21
0.08
  31
0
  0
LINE
  5
80d
  330
80a
  100
AcDbEntity
  8
2
  100
AcDbLine
  10
35.448948
  20
-33
  30
0
  11
45
  21
-33
  31
0
  0
SOLID
  5
80e
  330
80a
  100
AcDbEntity
  8
2
  100
AcDbTrace
  10
37.316
  20
-33
  30
0
  11
39.794612
  21
-32.673685
  31
0
  12
39.794612
  22
-33.326315
  32
0
  13
39.794612
  23
-33.326315
  33
0
  0
SOLID
  5
80f
  330
80a
  100
AcDbEntity
  8
2
  100
AcDbTrace
  10
45
  20
-33
  30
0
  11
42.521388
  21
-33.326315
  31
0
  12
42.521388
  22
-32.673685
  32
0
  13
42.521388
  23
-32.673685
  33
0
  0
MTEXT
  5
810
  330
80a
  100
AcDbEntity
  8
2
  100
AcDbMText
  10
44.594729
  20
-33
  30
0
  11
1
  21
0
  31
0
  40
2
  41
0
  71
9
  72
1
  1
7.684
  0
POINT
  5
811
  330
80a
  100
AcDbEntity
  8
2
  62
0
  100
AcDbPoint
  10
37.316
  20
-1.999916
  30
0
  0
POINT
  5
812
  330
80a
  100
AcDbEntity
  8
2
  62
0
  100
AcDbPoint
  10
45
  20
0.08
  30
0
  0
POINT
  5
813
  330
80a
  100
AcDbEntity
  8
2
  62
0
  100
AcDbPoint
  10
45
  20
-33
  30
0
  0
ENDBLK
  5
814
  330
80a
  100
AcDbEntity
  8
2
  100
AcDbBlockEnd
  0
ENDSEC
  0
SECTION
  2
ENTITIES
  0
DIMENSION
  5
7a9
  100
AcDbEntity
  8
SK2
  100
AcDbDimension
  2
*D79d
  10
45
  20
28
  30
0
  11
27.521436
  21
28
  31
0
  70
160
  1
<>
  71
5
  3
STANDARD
  42
45
  100
AcDbAlignedDimension
  13
0
  23
1.3
  33
0
  14
45
  24
0.08
  34
0
  50
0
  100
AcDbRotatedDimension
  0
DIMENSION
  5
7b7
  100
AcDbEntity
  8
SK2
  100
AcDbDimension
  2
*D7ab
  10
0
  20
13
  30
0
  11
17.246969
  21
13
  31
0
  70
160
  1
<>
  71
5
  3
STANDARD
  42
37.315688
  100
AcDbAlignedDimension
  13
37.315688
  23
2
  33
0
  14
0
  24
1.3
  34
0
  50
0
  100
AcDbRotatedDimension
  0
DIMENSION
  5
7c5
  100
AcDbEntity
  8
SK2
  100
AcDbDimension
  2
*D7b9
  10
-10
  20
2.316573
  30
0
  11
-10
  21
0
  31
0
  70
160
  1
%%c<>
  71
5
  3
STANDARD
  42
4
  100
AcDbAlignedDimension
  13
0.7
  23
-2
  33
0
  14
0.7
  24
2
  34
0
  50
-90
  100
AcDbRotatedDimension
  0
DIMENSION
  5
7d3
  100
AcDbEntity
  8
2
  100
AcDbDimension
  2
*D7c7
  10
55
  20
0.1
  30
0
  11
55
  21
0
  31
0
  70
160
  1
%%c<>
  71
5
  3
STANDARD
  42
0.2
  100
AcDbAlignedDimension
  13
44.98
  23
-0.1
  33
0
  14
44.98
  24
0.1
  34
0
  50
-90
  100
AcDbRotatedDimension
  0
DIMENSION
  5
7dd
  100
AcDbEntity
  8
2
  100
AcDbDimension
  2
*D7d5
  10
44.98
  20
0.08
  30
0
  11
41.458608
  21
3.629676
  31
0
  70
164
  1
R0.02
  71
5
  3
STANDARD
  100
AcDbRadialDimension
  15
44.994142
  25
0.094142
  35
0
  50
-45
  0
DIMENSION
  5
7eb
  100
AcDbEntity
  8
2
  100
AcDbDimension
  2
*D7df
  10
50.75
  20
9.427912
  30
0
  11
50.75
  21
9.523549
  31
0
  70
160
  1
%%c<>
  71
5
  3
STANDARD
  42
0.18
  100
AcDbAlignedDimension
  13
44.85
  23
-0.09
  33
0
  14
44.85
  24
0.09
  34
0
  50
-90
  100
AcDbRotatedDimension
  0
DIMENSION
  5
7f9
  100
AcDbEntity
  8
2
  100
AcDbDimension
  2
*D7ed
  10
35.772191
  20
-17.185525
  30
0
  11
42.875835
  21
-17.185525
  31
0
  70
160
  1
<>
  71
5
  3
STANDARD
  42
0.23
  100
AcDbAlignedDimension
  13
44.85
  23
0.09
  33
0
  14
44.62
  24
0.09
  34
0
  50
0
  100
AcDbRotatedDimension
  0
DIMENSION
  5
807
  100
AcDbEntity
  8
2
  100
AcDbDimension
  2
*D7fb
  10
46.87019
  20
-17.173487
  30
0
  11
46.903528
  21
-17.173487
  31
0
  70
160
  1
<>
  71
5
  3
STANDARD
  42
0.15
  100
AcDbAlignedDimension
  13
44.85
  23
-0.09
  33
0
  14
45
  24
0.08
  34
0
  50
0
  100
AcDbRotatedDimension
  0
DIMENSION
  5
815
  100
AcDbEntity
  8
2
  100
AcDbDimension
  2
*D809
  10
45
  20
-33
  30
0
  11
44.594729
  21
-33
  31
0
  70
160
  1
<>
  71
5
  3
STANDARD
  42
7.684
  100
AcDbAlignedDimension
  13
37.316
  23
-1.999916
  33
0
  14
45
  24
0.08
  34
0
  50
0
  100
AcDbRotatedDimension
  0
LINE
  5
36
  100
AcDbEntity
  8
1
  100
AcDbLine
  10
37.316
  20
1.999916
  30
0
  11
37.316
  21
-1.999916
  31
0
  0
LINE
  5
37
  100
AcDbEntity
  8
1
  100
AcDbLine
  10
37.316
  20
-1.999916
  30
0
  11
44.10501
  21
-0.180807
  31
0
  0
ARC
  5
38
  100
AcDbEntity
  8
1
  100
AcDbCircle
  10
44.881467
  20
-3.078584
  30
0
  40
3
  100
AcDbArc
  50
95
  51
105
  0
LINE
  5
39
  100
AcDbEntity
  8
1
  100
AcDbLine
  10
44.62
  20
-0.09
  30
0
  11
44.85
  21
-0.09
  31
0
  0
LINE
  5
3a
  100
AcDbEntity
  8
1
  100
AcDbLine
  10
44.85
  20
-0.09
  30
0
  11
44.85
  21
-0.1
  31
0
  0
LINE
  5
3b
  100
AcDbEntity
  8
1
  100
AcDbLine
  10
44.85
  20
-0.1
  30
0
  11
44.98
  21
-0.1
  31
0
  0
ARC
  5
3c
  100
AcDbEntity
  8
1
  100
AcDbCircle
  10
44.98
  20
-0.08
  30
0
  40
0.02
  100
AcDbArc
  50
270
  51
0
  0
LINE
  5
3d
  100
AcDbEntity
  8
1
  100
AcDbLine
  10
45
  20
-0.08
  30
0
  11
45
  21
0
  31
0
  0
LINE
  5
3e
  100
AcDbEntity
  8
1
  100
AcDbLine
  10
45
  20
0
  30
0
  11
45
  21
0.08
  31
0
  0
ARC
  5
3f
  100
AcDbEntity
  8
1
  100
AcDbCircle
  10
44.98
  20
0.08
  30
0
  40
0.02
  100
AcDbArc
  50
0
  51
90
  0
LINE
  5
40
  100
AcDbEntity
  8
1
  100
AcDbLine
  10
44.98
  20
0.1
  30
0
  11
44.85
  21
0.1
  31
0
  0
LINE
  5
41
  100
AcDbEntity
  8
1
  100
AcDbLine
  10
44.85
  20
0.1
  30
0
  11
44.85
  21
0.09
  31
0
  0
LINE
  5
42
  100
AcDbEntity
  8
1
  100
AcDbLine
  10
44.85
  20
0.09
  30
0
  11
44.62
  21
0.09
  31
0
  0
ARC
  5
43
  100
AcDbEntity
  8
1
  100
AcDbCircle
  10
44.881467
  20
3.078584
  30
0
  40
3
  100
AcDbArc
  50
255
  51
265
  0
LINE
  5
44
  100
AcDbEntity
  8
1
  100
AcDbLine
  10
44.10501
  20
0.180807
  30
0
  11
37.316
  21
1.999916
  31
0
  0
LINE
  5
45
  100
AcDbEntity
  8
1
  100
AcDbLine
  10
44.10501
  20
-0.180807
  30
0
  11
44.10501
  21
0.180807
  31
0
  0
LINE
  5
46
  100
AcDbEntity
  8
1
  100
AcDbLine
  10
44.62
  20
0.09
  30
0
  11
44.62
  21
-0.09
  31
0
  0
LINE
  5
47
  100
AcDbEntity
  8
1
  100
AcDbLine
  10
44.85
  20
-0.1
  30
0
  11
44.85
  21
0.1
  31
0
  0
LINE
  5
48
  100
AcDbEntity
  8
1
  100
AcDbLine
  10
44.98
  20
0.1
  30
0
  11
44.98
  21
-0.1
  31
0
  0
LINE
  5
49
  100
AcDbEntity
  8
1
  100
AcDbLine
  10
45
  20
-0.07995
  30
0
  11
45
  21
-0.079951
  31
0
  0
LINE
  5
4a
  100
AcDbEntity
  8
1
  100
AcDbLine
  10
45
  20
-0.079951
  30
0
  11
44.9995
  21
-0.084409
  31
0
  0
LINE
  5
4b
  100
AcDbEntity
  8
1
  100
AcDbLine
  10
44.9995
  20
-0.084409
  30
0
  11
44.999
  21
-0.086211
  31
0
  0
LINE
  5
4c
  100
AcDbEntity
  8
1
  100
AcDbLine
  10
44.999
  20
-0.086211
  30
0
  11
44.9985
  21
-0.087564
  31
0
  0
LINE
  5
4d
  100
AcDbEntity
  8
1
  100
AcDbLine
  10
44.9985
  20
-0.087564
  30
0
  11
44.998
  21
-0.088679
  31
0
  0
LINE
  5
4e
  100
AcDbEntity
  8
1
  100
AcDbLine
  10
44.998
  20
-0.088679
  30
0
  11
44.9975
  21
-0.08964
  31
0
  0
LINE
  5
4f
  100
AcDbEntity
  8
1
  100
AcDbLine
  10
44.9975
  20
-0.08964
  30
0
  11
44.997
  21
-0.090489
  31
0
  0
LINE
  5
50
  100
AcDbEntity
  8
1
  100
AcDbLine
  10
44.997
  20
-0.090489
  30
0
  11
44.9965
  21
-0.091251
  31
0
  0
LINE
  5
51
  100
AcDbEntity
  8
1
  100
AcDbLine
  10
44.9965
  20
-0.091251
  30
0
  11
44.996
  21
-0.091943
  31
0
  0
LINE
  5
52
  100
AcDbEntity
  8
1
  100
AcDbLine
  10
44.996
  20
-0.091943
  30
0
  11
44.9955
  21
-0.092575
  31
0
  0
LINE
  5
53
  100
AcDbEntity
  8
1
  100
AcDbLine
  10
44.9955
  20
-0.092575
  30
0
  11
44.995
  21
-0.093158
  31
0
  0
LINE
  5
54
  100
AcDbEntity
  8
1
  100
AcDbLine
  10
44.995
  20
-0.093158
  30
0
  11
44.9945
  21
-0.093696
  31
0
  0
LINE
  5
55
  100
AcDbEntity
  8
1
  100
AcDbLine
  10
44.9945
  20
-0.093696
  30
0
  11
44.994
  21
-0.094195
  31
0
  0
LINE
  5
56
  100
AcDbEntity
  8
1
  100
AcDbLine
  10
44.994
  20
-0.094195
  30
0
  11
44.9935
  21
-0.094659
  31
0
  0
LINE
  5
57
  100
AcDbEntity
  8
1
  100
AcDbLine
  10
44.9935
  20
-0.094659
  30
0
  11
44.993
  21
-0.095091
  31
0
  0
LINE
  5
58
  100
AcDbEntity
  8
1
  100
AcDbLine
  10
44.993
  20
-0.095091
  30
0
  11
44.9925
  21
-0.095494
  31
0
  0
LINE
  5
59
  100
AcDbEntity
  8
1
  100
AcDbLine
  10
44.9925
  20
-0.095494
  30
0
  11
44.992
  21
-0.09587
  31
0
  0
LINE
  5
5a
  100
AcDbEntity
  8
1
  100
AcDbLine
  10
44.992
  20
-0.09587
  30
0
  11
44.9915
  21
-0.096221
  31
0
  0
LINE
  5
5b
  100
AcDbEntity
  8
1
  100
AcDbLine
  10
44.9915
  20
-0.096221
  30
0
  11
44.991
  21
-0.096548
  31
0
  0
LINE
  5
5c
  100
AcDbEntity
  8
1
  100
AcDbLine
  10
44.991
  20
-0.096548
  30
0
  11
44.9905
  21
-0.096852
  31
0
  0
LINE
  5
5d
  100
AcDbEntity
  8
1
  100
AcDbLine
  10
44.9905
  20
-0.096852
  30
0
  11
44.99
  21
-0.097136
  31
0
  0
LINE
  5
5e
  100
AcDbEntity
  8
1
  100
AcDbLine
  10
44.99
  20
-0.097136
  30
0
  11
44.9895
  21
-0.097399
  31
0
  0
LINE
  5
5f
  100
AcDbEntity
  8
1
  100
AcDbLine
  10
44.9895
  20
-0.097399
  30
0
  11
44.989
  21
-0.097644
  31
0
  0
LINE
  5
60
  100
AcDbEntity
  8
1
  100
AcDbLine
  10
44.989
  20
-0.097644
  30
0
  11
44.9885
  21
-0.09787
  31
0
  0
LINE
  5
61
  100
AcDbEntity
  8
1
  100
AcDbLine
  10
44.9885
  20
-0.09787
  30
0
  11
44.988
  21
-0.098078
  31
0
  0
LINE
  5
62
  100
AcDbEntity
  8
1
  100
AcDbLine
  10
44.988
  20
-0.098078
  30
0
  11
44.9875
  21
-0.098269
  31
0
  0
LINE
  5
63
  100
AcDbEntity
  8
1
  100
AcDbLine
  10
44.9875
  20
-0.098269
  30
0
  11
44.987
  21
-0.098444
  31
0
  0
LINE
  5
64
  100
AcDbEntity
  8
1
  100
AcDbLine
  10
44.987
  20
-0.098444
  30
0
  11
44.9865
  21
-0.098602
  31
0
  0
LINE
  5
65
  100
AcDbEntity
  8
1
  100
AcDbLine
  10
44.9865
  20
-0.098602
  30
0
  11
44.986
  21
-0.098745
  31
0
  0
LINE
  5
66
  100
AcDbEntity
  8
1
  100
AcDbLine
  10
44.986
  20
-0.098745
  30
0
  11
44.9855
  21
-0.098872
  31
0
  0
LINE
  5
67
  100
AcDbEntity
  8
1
  100
AcDbLine
  10
44.9855
  20
-0.098872
  30
0
  11
44.985
  21
-0.098985
  31
0
  0
LINE
  5
68
  100
AcDbEntity
  8
1
  100
AcDbLine
  10
44.985
  20
-0.098985
  30
0
  11
44.9845
  21
-0.099083
  31
0
  0
LINE
  5
69
  100
AcDbEntity
  8
1
  100
AcDbLine
  10
44.9845
  20
-0.099083
  30
0
  11
44.984
  21
-0.099166
  31
0
  0
LINE
  5
6a
  100
AcDbEntity
  8
1
  100
AcDbLine
  10
44.984
  20
-0.099166
  30
0
  11
44.9835
  21
-0.099235
  31
0
  0
LINE
  5
6b
  100
AcDbEntity
  8
1
  100
AcDbLine
  10
44.9835
  20
-0.099235
  30
0
  11
44.983
  21
-0.09929
  31
0
  0
LINE
  5
6c
  100
AcDbEntity
  8
1
  100
AcDbLine
  10
44.983
  20
-0.09929
  30
0
  11
44.9825
  21
-0.099332
  31
0
  0
LINE
  5
6d
  100
AcDbEntity
  8
1
  100
AcDbLine
  10
44.9825
  20
-0.099332
  30
0
  11
44.982
  21
-0.099359
  31
0
  0
LINE
  5
6e
  100
AcDbEntity
  8
1
  100
AcDbLine
  10
44.982
  20
-0.099359
  30
0
  11
44.9815
  21
-0.099373
  31
0
  0
LINE
  5
6f
  100
AcDbEntity
  8
1
  100
AcDbLine
  10
44.9815
  20
-0.099373
  30
0
  11
44.981
  21
-0.099374
  31
0
  0
LINE
  5
70
  100
AcDbEntity
  8
1
  100
AcDbLine
  10
44.981
  20
-0.099374
  30
0
  11
44.9805
  21
-0.099361
  31
0
  0
LINE
  5
71
  100
AcDbEntity
  8
1
  100
AcDbLine
  10
44.9805
  20
-0.099361
  30
0
  11
44.98
  21
-0.099334
  31
0
  0
LINE
  5
72
  100
AcDbEntity
  8
1
  100
AcDbLine
  10
44.98
  20
-0.099334
  30
0
  11
44.9795
  21
-0.0993
  31
0
  0
LINE
  5
73
  100
AcDbEntity
  8
1
  100
AcDbLine
  10
44.9795
  20
-0.0993
  30
0
  11
44.979
  21
-0.099266
  31
0
  0
LINE
  5
74
  100
AcDbEntity
  8
1
  100
AcDbLine
  10
44.979
  20
-0.099266
  30
0
  11
44.9785
  21
-0.099231
  31
0
  0
LINE
  5
75
  100
AcDbEntity
  8
1
  100
AcDbLine
  10
44.9785
  20
-0.099231
  30
0
  11
44.978
  21
-0.099194
  31
0
  0
LINE
  5
76
  100
AcDbEntity
  8
1
  100
AcDbLine
  10
44.978
  20
-0.099194
  30
0
  11
44.9775
  21
-0.099157
  31
0
  0
LINE
  5
77
  100
AcDbEntity
  8
1
  100
AcDbLine
  10
44.9775
  20
-0.099157
  30
0
  11
44.977
  21
-0.09912
  31
0
  0
LINE
  5
78
  100
AcDbEntity
  8
1
  100
AcDbLine
  10
44.977
  20
-0.09912
  30
0
  11
44.9765
  21
-0.099081
  31
0
  0
LINE
  5
79
  100
AcDbEntity
  8
1
  100
AcDbLine
  10
44.9765
  20
-0.099081
  30
0
  11
44.976
  21
-0.099042
  31
0
  0
LINE
  5
7a
  100
AcDbEntity
  8
1
  100
AcDbLine
  10
44.976
  20
-0.099042
  30
0
  11
44.9755
  21
-0.099001
  31
0
  0
LINE
  5
7b
  100
AcDbEntity
  8
1
  100
AcDbLine
  10
44.9755
  20
-0.099001
  30
0
  11
44.975
  21
-0.09896
  31
0
  0
LINE
  5
7c
  100
AcDbEntity
  8
1
  100
AcDbLine
  10
44.975
  20
-0.09896
  30
0
  11
44.9745
  21
-0.098918
  31
0
  0
LINE
  5
7d
  100
AcDbEntity
  8
1
  100
AcDbLine
  10
44.9745
  20
-0.098918
  30
0
  11
44.974
  21
-0.098875
  31
0
  0
LINE
  5
7e
  100
AcDbEntity
  8
1
  100
AcDbLine
  10
44.974
  20
-0.098875
  30
0
  11
44.9735
  21
-0.098832
  31
0
  0
LINE
  5
7f
  100
AcDbEntity
  8
1
  100
AcDbLine
  10
44.9735
  20
-0.098832
  30
0
  11
44.973
  21
-0.098787
  31
0
  0
LINE
  5
80
  100
AcDbEntity
  8
1
  100
AcDbLine
  10
44.973
  20
-0.098787
  30
0
  11
44.9725
  21
-0.098742
  31
0
  0
LINE
  5
81
  100
AcDbEntity
  8
1
  100
AcDbLine
  10
44.9725
  20
-0.098742
  30
0
  11
44.972
  21
-0.098696
  31
0
  0
LINE
  5
82
  100
AcDbEntity
  8
1
  100
AcDbLine
  10
44.972
  20
-0.098696
  30
0
  11
44.9715
  21
-0.098649
  31
0
  0
LINE
  5
83
  100
AcDbEntity
  8
1
  100
AcDbLine
  10
44.9715
  20
-0.098649
  30
0
  11
44.971
  21
-0.098602
  31
0
  0
LINE
  5
84
  100
AcDbEntity
  8
1
  100
AcDbLine
  10
44.971
  20
-0.098602
  30
0
  11
44.9705
  21
-0.098553
  31
0
  0
LINE
  5
85
  100
AcDbEntity
  8
1
  100
AcDbLine
  10
44.9705
  20
-0.098553
  30
0
  11
44.97
  21
-0.098504
  31
0
  0
LINE
  5
86
  100
AcDbEntity
  8
1
  100
AcDbLine
  10
44.97
  20
-0.098504
  30
0
  11
44.9695
  21
-0.098454
  31
0
  0
LINE
  5
87
  100
AcDbEntity
  8
1
  100
AcDbLine
  10
44.9695
  20
-0.098454
  30
0
  11
44.969
  21
-0.098403
  31
0
  0
LINE
  5
88
  100
AcDbEntity
  8
1
  100
AcDbLine
  10
44.969
  20
-0.098403
  30
0
  11
44.9685
  21
-0.098351
  31
0
  0
LINE
  5
89
  100
AcDbEntity
  8
1
  100
AcDbLine
  10
44.9685
  20
-0.098351
  30
0
  11
44.968
  21
-0.098298
  31
0
  0
LINE
  5
8a
  100
AcDbEntity
  8
1
  100
AcDbLine
  10
44.968
  20
-0.098298
  30
0
  11
44.9675
  21
-0.098245
  31
0
  0
LINE
  5
8b
  100
AcDbEntity
  8
1
  100
AcDbLine
  10
44.9675
  20
-0.098245
  30
0
  11
44.967
  21
-0.09819
  31
0
  0
LINE
  5
8c
  100
AcDbEntity
  8
1
  100
AcDbLine
  10
44.967
  20
-0.09819
  30
0
  11
44.9665
  21
-0.098135
  31
0
  0
LINE
  5
8d
  100
AcDbEntity
  8
1
  100
AcDbLine
  10
44.9665
  20
-0.098135
  30
0
  11
44.966
  21
-0.09808
  31
0
  0
LINE
  5
8e
  100
AcDbEntity
  8
1
  100
AcDbLine
  10
44.966
  20
-0.09808
  30
0
  11
44.9655
  21
-0.098023
  31
0
  0
LINE
  5
8f
  100
AcDbEntity
  8
1
  100
AcDbLine
  10
44.9655
  20
-0.098023
  30
0
  11
44.965
  21
-0.097965
  31
0
  0
LINE
  5
90
  100
AcDbEntity
  8
1
  100
AcDbLine
  10
44.965
  20
-0.097965
  30
0
  11
44.9645
  21
-0.097907
  31
0
  0
LINE
  5
91
  100
AcDbEntity
  8
1
  100
AcDbLine
  10
44.9645
  20
-0.097907
  30
0
  11
44.964
  21
-0.097848
  31
0
  0
LINE
  5
92
  100
AcDbEntity
  8
1
  100
AcDbLine
  10
44.964
  20
-0.097848
  30
0
  11
44.9635
  21
-0.097788
  31
0
  0
LINE
  5
93
  100
AcDbEntity
  8
1
  100
AcDbLine
  10
44.9635
  20
-0.097788
  30
0
  11
44.963
  21
-0.097727
  31
0
  0
LINE
  5
94
  100
AcDbEntity
  8
1
  100
AcDbLine
  10
44.963
  20
-0.097727
  30
0
  11
44.9625
  21
-0.097665
  31
0
  0
LINE
  5
95
  100
AcDbEntity
  8
1
  100
AcDbLine
  10
44.9625
  20
-0.097665
  30
0
  11
44.962
  21
-0.097603
  31
0
  0
LINE
  5
96
  100
AcDbEntity
  8
1
  100
AcDbLine
  10
44.962
  20
-0.097603
  30
0
  11
44.9615
  21
-0.09754
  31
0
  0
LINE
  5
97
  100
AcDbEntity
  8
1
  100
AcDbLine
  10
44.9615
  20
-0.09754
  30
0
  11
44.961
  21
-0.097476
  31
0
  0
LINE
  5
98
  100
AcDbEntity
  8
1
  100
AcDbLine
  10
44.961
  20
-0.097476
  30
0
  11
44.9605
  21
-0.097411
  31
0
  0
LINE
  5
99
  100
AcDbEntity
  8
1
  100
AcDbLine
  10
44.9605
  20
-0.097411
  30
0
  11
44.96
  21
-0.097345
  31
0
  0
LINE
  5
9a
  100
AcDbEntity
  8
1
  100
AcDbLine
  10
44.96
  20
-0.097345
  30
0
  11
44.9595
  21
-0.097279
  31
0
  0
LINE
  5
9b
  100
AcDbEntity
  8
1
  100
AcDbLine
  10
44.9595
  20
-0.097279
  30
0
  11
44.959
  21
-0.097211
  31
0
  0
LINE
  5
9c
  100
AcDbEntity
  8
1
  100
AcDbLine
  10
44.959
  20
-0.097211
  30
0
  11
44.9585
  21
-0.097143
  31
0
  0
LINE
  5
9d
  100
AcDbEntity
  8
1
  100
AcDbLine
  10
44.9585
  20
-0.097143
  30
0
  11
44.958
  21
-0.097074
  31
0
  0
LINE
  5
9e
  100
AcDbEntity
  8
1
  100
AcDbLine
  10
44.958
  20
-0.097074
  30
0
  11
44.9575
  21
-0.097005
  31
0
  0
LINE
  5
9f
  100
AcDbEntity
  8
1
  100
AcDbLine
  10
44.9575
  20
-0.097005
  30
0
  11
44.957
  21
-0.096934
  31
0
  0
LINE
  5
a0
  100
AcDbEntity
  8
1
  100
AcDbLine
  10
44.957
  20
-0.096934
  30
0
  11
44.9565
  21
-0.096863
  31
0
  0
LINE
  5
a1
  100
AcDbEntity
  8
1
  100
AcDbLine
  10
44.9565
  20
-0.096863
  30
0
  11
44.956
  21
-0.096791
  31
0
  0
LINE
  5
a2
  100
AcDbEntity
  8
1
  100
AcDbLine
  10
44.956
  20
-0.096791
  30
0
  11
44.9555
  21
-0.096718
  31
0
  0
LINE
  5
a3
  100
AcDbEntity
  8
1
  100
AcDbLine
  10
44.9555
  20
-0.096718
  30
0
  11
44.955
  21
-0.096644
  31
0
  0
LINE
  5
a4
  100
AcDbEntity
  8
1
  100
AcDbLine
  10
44.955
  20
-0.096644
  30
0
  11
44.9545
  21
-0.096569
  31
0
  0
LINE
  5
a5
  100
AcDbEntity
  8
1
  100
AcDbLine
  10
44.9545
  20
-0.096569
  30
0
  11
44.954
  21
-0.096494
  31
0
  0
LINE
  5
a6
  100
AcDbEntity
  8
1
  100
AcDbLine
  10
44.954
  20
-0.096494
  30
0
  11
44.9535
  21
-0.096418
  31
0
  0
LINE
  5
a7
  100
AcDbEntity
  8
1
  100
AcDbLine
  10
44.9535
  20
-0.096418
  30
0
  11
44.953
  21
-0.096341
  31
0
  0
LINE
  5
a8
  100
AcDbEntity
  8
1
  100
AcDbLine
  10
44.953
  20
-0.096341
  30
0
  11
44.9525
  21
-0.096263
  31
0
  0
LINE
  5
a9
  100
AcDbEntity
  8
1
  100
AcDbLine
  10
44.9525
  20
-0.096263
  30
0
  11
44.952
  21
-0.096185
  31
0
  0
LINE
  5
aa
  100
AcDbEntity
  8
1
  100
AcDbLine
  10
44.952
  20
-0.096185
  30
0
  11
44.9515
  21
-0.096105
  31
0
  0
LINE
  5
ab
  100
AcDbEntity
  8
1
  100
AcDbLine
  10
44.9515
  20
-0.096105
  30
0
  11
44.951
  21
-0.096025
  31
0
  0
LINE
  5
ac
  100
AcDbEntity
  8
1
  100
AcDbLine
  10
44.951
  20
-0.096025
  30
0
  11
44.9505
  21
-0.095944
  31
0
  0
LINE
  5
ad
  100
AcDbEntity
  8
1
  100
AcDbLine
  10
44.9505
  20
-0.095944
  30
0
  11
44.95
  21
-0.095862
  31
0
  0
LINE
  5
ae
  100
AcDbEntity
  8
1
  100
AcDbLine
  10
44.95
  20
-0.095862
  30
0
  11
44.9495
  21
-0.09578
  31
0
  0
LINE
  5
af
  100
AcDbEntity
  8
1
  100
AcDbLine
  10
44.9495
  20
-0.09578
  30
0
  11
44.949
  21
-0.095696
  31
0
  0
LINE
  5
b0
  100
AcDbEntity
  8
1
  100
AcDbLine
  10
44.949
  20
-0.095696
  30
0
  11
44.9485
  21
-0.095612
  31
0
  0
LINE
  5
b1
  100
AcDbEntity
  8
1
  100
AcDbLine
  10
44.9485
  20
-0.095612
  30
0
  11
44.948
  21
-0.095527
  31
0
  0
LINE
  5
b2
  100
AcDbEntity
  8
1
  100
AcDbLine
  10
44.948
  20
-0.095527
  30
0
  11
44.9475
  21
-0.095441
  31
0
  0
LINE
  5
b3
  100
AcDbEntity
  8
1
  100
AcDbLine
  10
44.9475
  20
-0.095441
  30
0
  11
44.947
  21
-0.095355
  31
0
  0
LINE
  5
b4
  100
AcDbEntity
  8
1
  100
AcDbLine
  10
44.947
  20
-0.095355
  30
0
  11
44.9465
  21
-0.095267
  31
0
  0
LINE
  5
b5
  100
AcDbEntity
  8
1
  100
AcDbLine
  10
44.9465
  20
-0.095267
  30
0
  11
44.946
  21
-0.095179
  31
0
  0
LINE
  5
b6
  100
AcDbEntity
  8
1
  100
AcDbLine
  10
44.946
  20
-0.095179
  30
0
  11
44.9455
  21
-0.09509
  31
0
  0
LINE
  5
b7
  100
AcDbEntity
  8
1
  100
AcDbLine
  10
44.9455
  20
-0.09509
  30
0
  11
44.945
  21
-0.095001
  31
0
  0
LINE
  5
b8
  100
AcDbEntity
  8
1
  100
AcDbLine
  10
44.945
  20
-0.095001
  30
0
  11
44.9445
  21
-0.09491
  31
0
  0
LINE
  5
b9
  100
AcDbEntity
  8
1
  100
AcDbLine
  10
44.9445
  20
-0.09491
  30
0
  11
44.944
  21
-0.094819
  31
0
  0
LINE
  5
ba
  100
AcDbEntity
  8
1
  100
AcDbLine
  10
44.944
  20
-0.094819
  30
0
  11
44.9435
  21
-0.094727
  31
0
  0
LINE
  5
bb
  100
AcDbEntity
  8
1
  100
AcDbLine
  10
44.9435
  20
-0.094727
  30
0
  11
44.943
  21
-0.094634
  31
0
  0
LINE
  5
bc
  100
AcDbEntity
  8
1
  100
AcDbLine
  10
44.943
  20
-0.094634
  30
0
  11
44.9425
  21
-0.09454
  31
0
  0
LINE
  5
bd
  100
AcDbEntity
  8
1
  100
AcDbLine
  10
44.9425
  20
-0.09454
  30
0
  11
44.942
  21
-0.094446
  31
0
  0
LINE
  5
be
  100
AcDbEntity
  8
1
  100
AcDbLine
  10
44.942
  20
-0.094446
  30
0
  11
44.9415
  21
-0.09435
  31
0
  0
LINE
  5
bf
  100
AcDbEntity
  8
1
  100
AcDbLine
  10
44.9415
  20
-0.09435
  30
0
  11
44.941
  21
-0.094254
  31
0
  0
LINE
  5
c0
  100
AcDbEntity
  8
1
  100
AcDbLine
  10
44.941
  20
-0.094254
  30
0
  11
44.9405
  21
-0.094157
  31
0
  0
LINE
  5
c1
  100
AcDbEntity
  8
1
  100
AcDbLine
  10
44.9405
  20
-0.094157
  30
0
  11
44.94
  21
-0.09406
  31
0
  0
LINE
  5
c2
  100
AcDbEntity
  8
1
  100
AcDbLine
  10
44.94
  20
-0.09406
  30
0
  11
44.9395
  21
-0.093961
  31
0
  0
LINE
  5
c3
  100
AcDbEntity
  8
1
  100
AcDbLine
  10
44.9395
  20
-0.093961
  30
0
  11
44.939
  21
-0.093862
  31
0
  0
LINE
  5
c4
  100
AcDbEntity
  8
1
  100
AcDbLine
  10
44.939
  20
-0.093862
  30
0
  11
44.9385
  21
-0.093762
  31
0
  0
LINE
  5
c5
  100
AcDbEntity
  8
1
  100
AcDbLine
  10
44.9385
  20
-0.093762
  30
0
  11
44.938
  21
-0.093661
  31
0
  0
LINE
  5
c6
  100
AcDbEntity
  8
1
  100
AcDbLine
  10
44.938
  20
-0.093661
  30
0
  11
44.9375
  21
-0.09356
  31
0
  0
LINE
  5
c7
  100
AcDbEntity
  8
1
  100
AcDbLine
  10
44.9375
  20
-0.09356
  30
0
  11
44.937
  21
-0.093458
  31
0
  0
LINE
  5
c8
  100
AcDbEntity
  8
1
  100
AcDbLine
  10
44.937
  20
-0.093458
  30
0
  11
44.9365
  21
-0.093355
  31
0
  0
LINE
  5
c9
  100
AcDbEntity
  8
1
  100
AcDbLine
  10
44.9365
  20
-0.093355
  30
0
  11
44.936
  21
-0.093251
  31
0
  0
LINE
  5
ca
  100
AcDbEntity
  8
1
  100
AcDbLine
  10
44.936
  20
-0.093251
  30
0
  11
44.9355
  21
-0.093146
  31
0
  0
LINE
  5
cb
  100
AcDbEntity
  8
1
  100
AcDbLine
  10
44.9355
  20
-0.093146
  30
0
  11
44.935
  21
-0.093041
  31
0
  0
LINE
  5
cc
  100
AcDbEntity
  8
1
  100
AcDbLine
  10
44.935
  20
-0.093041
  30
0
  11
44.9345
  21
-0.092934
  31
0
  0
LINE
  5
cd
  100
AcDbEntity
  8
1
  100
AcDbLine
  10
44.9345
  20
-0.092934
  30
0
  11
44.934
  21
-0.092827
  31
0
  0
LINE
  5
ce
  100
AcDbEntity
  8
1
  100
AcDbLine
  10
44.934
  20
-0.092827
  30
0
  11
44.9335
  21
-0.09272
  31
0
  0
LINE
  5
cf
  100
AcDbEntity
  8
1
  100
AcDbLine
  10
44.9335
  20
-0.09272
  30
0
  11
44.933
  21
-0.092611
  31
0
  0
LINE
  5
d0
  100
AcDbEntity
  8
1
  100
AcDbLine
  10
44.933
  20
-0.092611
  30
0
  11
44.9325
  21
-0.092502
  31
0
  0
LINE
  5
d1
  100
AcDbEntity
  8
1
  100
AcDbLine
  10
44.9325
  20
-0.092502
  30
0
  11
44.932
  21
-0.092392
  31
0
  0
LINE
  5
d2
  100
AcDbEntity
  8
1
  100
AcDbLine
  10
44.932
  20
-0.092392
  30
0
  11
44.9315
  21
-0.092281
  31
0
  0
LINE
  5
d3
  100
AcDbEntity
  8
1
  100
AcDbLine
  10
44.9315
  20
-0.092281
  30
0
  11
44.931
  21
-0.092169
  31
0
  0
LINE
  5
d4
  100
AcDbEntity
  8
1
  100
AcDbLine
  10
44.931
  20
-0.092169
  30
0
  11
44.9305
  21
-0.092057
  31
0
  0
LINE
  5
d5
  100
AcDbEntity
  8
1
  100
AcDbLine
  10
44.9305
  20
-0.092057
  30
0
  11
44.93
  21
-0.091944
  31
0
  0
LINE
  5
d6
  100
AcDbEntity
  8
1
  100
AcDbLine
  10
44.93
  20
-0.091944
  30
0
  11
44.9295
  21
-0.09183
  31
0
  0
LINE
  5
d7
  100
AcDbEntity
  8
1
  100
AcDbLine
  10
44.9295
  20
-0.09183
  30
0
  11
44.929
  21
-0.091715
  31
0
  0
LINE
  5
d8
  100
AcDbEntity
  8
1
  100
AcDbLine
  10
44.929
  20
-0.091715
  30
0
  11
44.9285
  21
-0.0916
  31
0
  0
LINE
  5
d9
  100
AcDbEntity
  8
1
  100
AcDbLine
  10
44.9285
  20
-0.0916
  30
0
  11
44.928
  21
-0.091484
  31
0
  0
LINE
  5
da
  100
AcDbEntity
  8
1
  100
AcDbLine
  10
44.928
  20
-0.091484
  30
0
  11
44.9275
  21
-0.091367
  31
0
  0
LINE
  5
db
  100
AcDbEntity
  8
1
  100
AcDbLine
  10
44.9275
  20
-0.091367
  30
0
  11
44.927
  21
-0.091249
  31
0
  0
LINE
  5
dc
  100
AcDbEntity
  8
1
  100
AcDbLine
  10
44.927
  20
-0.091249
  30
0
  11
44.9265
  21
-0.091131
  31
0
  0
LINE
  5
dd
  100
AcDbEntity
  8
1
  100
AcDbLine
  10
44.9265
  20
-0.091131
  30
0
  11
44.926
  21
-0.091011
  31
0
  0
LINE
  5
de
  100
AcDbEntity
  8
1
  100
AcDbLine
  10
44.926
  20
-0.091011
  30
0
  11
44.9255
  21
-0.090891
  31
0
  0
LINE
  5
df
  100
AcDbEntity
  8
1
  100
AcDbLine
  10
44.9255
  20
-0.090891
  30
0
  11
44.925
  21
-0.090771
  31
0
  0
LINE
  5
e0
  100
AcDbEntity
  8
1
  100
AcDbLine
  10
44.925
  20
-0.090771
  30
0
  11
44.9245
  21
-0.090649
  31
0
  0
LINE
  5
e1
  100
AcDbEntity
  8
1
  100
AcDbLine
  10
44.9245
  20
-0.090649
  30
0
  11
44.924
  21
-0.090527
  31
0
  0
LINE
  5
e2
  100
AcDbEntity
  8
1
  100
AcDbLine
  10
44.924
  20
-0.090527
  30
0
  11
44.9235
  21
-0.090404
  31
0
  0
LINE
  5
e3
  100
AcDbEntity
  8
1
  100
AcDbLine
  10
44.9235
  20
-0.090404
  30
0
  11
44.923
  21
-0.09028
  31
0
  0
LINE
  5
e4
  100
AcDbEntity
  8
1
  100
AcDbLine
  10
44.923
  20
-0.09028
  30
0
  11
44.9225
  21
-0.090155
  31
0
  0
LINE
  5
e5
  100
AcDbEntity
  8
1
  100
AcDbLine
  10
44.9225
  20
-0.090155
  30
0
  11
44.922
  21
-0.09003
  31
0
  0
LINE
  5
e6
  100
AcDbEntity
  8
1
  100
AcDbLine
  10
44.922
  20
-0.09003
  30
0
  11
44.9215
  21
-0.089904
  31
0
  0
LINE
  5
e7
  100
AcDbEntity
  8
1
  100
AcDbLine
  10
44.9215
  20
-0.089904
  30
0
  11
44.921
  21
-0.089777
  31
0
  0
LINE
  5
e8
  100
AcDbEntity
  8
1
  100
AcDbLine
  10
44.921
  20
-0.089777
  30
0
  11
44.9205
  21
-0.08965
  31
0
  0
LINE
  5
e9
  100
AcDbEntity
  8
1
  100
AcDbLine
  10
44.9205
  20
-0.08965
  30
0
  11
44.92
  21
-0.089522
  31
0
  0
LINE
  5
ea
  100
AcDbEntity
  8
1
  100
AcDbLine
  10
44.92
  20
-0.089522
  30
0
  11
44.9195
  21
-0.089393
  31
0
  0
LINE
  5
eb
  100
AcDbEntity
  8
1
  100
AcDbLine
  10
44.9195
  20
-0.089393
  30
0
  11
44.919
  21
-0.089263
  31
0
  0
LINE
  5
ec
  100
AcDbEntity
  8
1
  100
AcDbLine
  10
44.919
  20
-0.089263
  30
0
  11
44.9185
  21
-0.089132
  31
0
  0
LINE
  5
ed
  100
AcDbEntity
  8
1
  100
AcDbLine
  10
44.9185
  20
-0.089132
  30
0
  11
44.918
  21
-0.089001
  31
0
  0
LINE
  5
ee
  100
AcDbEntity
  8
1
  100
AcDbLine
  10
44.918
  20
-0.089001
  30
0
  11
44.9175
  21
-0.088869
  31
0
  0
LINE
  5
ef
  100
AcDbEntity
  8
1
  100
AcDbLine
  10
44.9175
  20
-0.088869
  30
0
  11
44.917
  21
-0.088736
  31
0
  0
LINE
  5
f0
  100
AcDbEntity
  8
1
  100
AcDbLine
  10
44.917
  20
-0.088736
  30
0
  11
44.9165
  21
-0.088603
  31
0
  0
LINE
  5
f1
  100
AcDbEntity
  8
1
  100
AcDbLine
  10
44.9165
  20
-0.088603
  30
0
  11
44.916
  21
-0.088469
  31
0
  0
LINE
  5
f2
  100
AcDbEntity
  8
1
  100
AcDbLine
  10
44.916
  20
-0.088469
  30
0
  11
44.9155
  21
-0.088334
  31
0
  0
LINE
  5
f3
  100
AcDbEntity
  8
1
  100
AcDbLine
  10
44.9155
  20
-0.088334
  30
0
  11
44.915
  21
-0.088198
  31
0
  0
LINE
  5
f4
  100
AcDbEntity
  8
1
  100
AcDbLine
  10
44.915
  20
-0.088198
  30
0
  11
44.9145
  21
-0.088062
  31
0
  0
LINE
  5
f5
  100
AcDbEntity
  8
1
  100
AcDbLine
  10
44.9145
  20
-0.088062
  30
0
  11
44.914
  21
-0.087925
  31
0
  0
LINE
  5
f6
  100
AcDbEntity
  8
1
  100
AcDbLine
  10
44.914
  20
-0.087925
  30
0
  11
44.9135
  21
-0.087787
  31
0
  0
LINE
  5
f7
  100
AcDbEntity
  8
1
  100
AcDbLine
  10
44.9135
  20
-0.087787
  30
0
  11
44.913
  21
-0.087648
  31
0
  0
LINE
  5
f8
  100
AcDbEntity
  8
1
  100
AcDbLine
  10
44.913
  20
-0.087648
  30
0
  11
44.9125
  21
-0.087509
  31
0
  0
LINE
  5
f9
  100
AcDbEntity
  8
1
  100
AcDbLine
  10
44.9125
  20
-0.087509
  30
0
  11
44.912
  21
-0.087369
  31
0
  0
LINE
  5
fa
  100
AcDbEntity
  8
1
  100
AcDbLine
  10
44.912
  20
-0.087369
  30
0
  11
44.9115
  21
-0.087228
  31
0
  0
LINE
  5
fb
  100
AcDbEntity
  8
1
  100
AcDbLine
  10
44.9115
  20
-0.087228
  30
0
  11
44.911
  21
-0.087086
  31
0
  0
LINE
  5
fc
  100
AcDbEntity
  8
1
  100
AcDbLine
  10
44.911
  20
-0.087086
  30
0
  11
44.9105
  21
-0.086944
  31
0
  0
LINE
  5
fd
  100
AcDbEntity
  8
1
  100
AcDbLine
  10
44.9105
  20
-0.086944
  30
0
  11
44.91
  21
-0.086801
  31
0
  0
LINE
  5
fe
  100
AcDbEntity
  8
1
  100
AcDbLine
  10
44.91
  20
-0.086801
  30
0
  11
44.9095
  21
-0.086657
  31
0
  0
LINE
  5
ff
  100
AcDbEntity
  8
1
  100
AcDbLine
  10
44.9095
  20
-0.086657
  30
0
  11
44.909
  21
-0.086513
  31
0
  0
LINE
  5
100
  100
AcDbEntity
  8
1
  100
AcDbLine
  10
44.909
  20
-0.086513
  30
0
  11
44.9085
  21
-0.086368
  31
0
  0
LINE
  5
101
  100
AcDbEntity
  8
1
  100
AcDbLine
  10
44.9085
  20
-0.086368
  30
0
  11
44.908
  21
-0.086222
  31
0
  0
LINE
  5
102
  100
AcDbEntity
  8
1
  100
AcDbLine
  10
44.908
  20
-0.086222
  30
0
  11
44.9075
  21
-0.086075
  31
0
  0
LINE
  5
103
  100
AcDbEntity
  8
1
  100
AcDbLine
  10
44.9075
  20
-0.086075
  30
0
  11
44.907
  21
-0.085928
  31
0
  0
LINE
  5
104
  100
AcDbEntity
  8
1
  100
AcDbLine
  10
44.907
  20
-0.085928
  30
0
  11
44.9065
  21
-0.08578
  31
0
  0
LINE
  5
105
  100
AcDbEntity
  8
1
  100
AcDbLine
  10
44.9065
  20
-0.08578
  30
0
  11
44.906
  21
-0.085631
  31
0
  0
LINE
  5
106
  100
AcDbEntity
  8
1
  100
AcDbLine
  10
44.906
  20
-0.085631
  30
0
  11
44.9055
  21
-0.085482
  31
0
  0
LINE
  5
107
  100
AcDbEntity
  8
1
  100
AcDbLine
  10
44.9055
  20
-0.085482
  30
0
  11
44.905
  21
-0.085332
  31
0
  0
LINE
  5
108
  100
AcDbEntity
  8
1
  100
AcDbLine
  10
44.905
  20
-0.085332
  30
0
  11
44.9045
  21
-0.085181
  31
0
  0
LINE
  5
109
  100
AcDbEntity
  8
1
  100
AcDbLine
  10
44.9045
  20
-0.085181
  30
0
  11
44.904
  21
-0.085029
  31
0
  0
LINE
  5
10a
  100
AcDbEntity
  8
1
  100
AcDbLine
  10
44.904
  20
-0.085029
  30
0
  11
44.9035
  21
-0.084877
  31
0
  0
LINE
  5
10b
  100
AcDbEntity
  8
1
  100
AcDbLine
  10
44.9035
  20
-0.084877
  30
0
  11
44.903
  21
-0.084724
  31
0
  0
LINE
  5
10c
  100
AcDbEntity
  8
1
  100
AcDbLine
  10
44.903
  20
-0.084724
  30
0
  11
44.9025
  21
-0.08457
  31
0
  0
LINE
  5
10d
  100
AcDbEntity
  8
1
  100
AcDbLine
  10
44.9025
  20
-0.08457
  30
0
  11
44.902
  21
-0.084416
  31
0
  0
LINE
  5
10e
  100
AcDbEntity
  8
1
  100
AcDbLine
  10
44.902
  20
-0.084416
  30
0
  11
44.9015
  21
-0.084261
  31
0
  0
LINE
  5
10f
  100
AcDbEntity
  8
1
  100
AcDbLine
  10
44.9015
  20
-0.084261
  30
0
  11
44.901
  21
-0.084105
  31
0
  0
LINE
  5
110
  100
AcDbEntity
  8
1
  100
AcDbLine
  10
44.901
  20
-0.084105
  30
0
  11
44.9005
  21
-0.083948
  31
0
  0
LINE
  5
111
  100
AcDbEntity
  8
1
  100
AcDbLine
  10
44.9005
  20
-0.083948
  30
0
  11
44.9
  21
-0.083791
  31
0
  0
LINE
  5
112
  100
AcDbEntity
  8
1
  100
AcDbLine
  10
44.9
  20
-0.083791
  30
0
  11
44.8995
  21
-0.083633
  31
0
  0
LINE
  5
113
  100
AcDbEntity
  8
1
  100
AcDbLine
  10
44.8995
  20
-0.083633
  30
0
  11
44.899
  21
-0.083475
  31
0
  0
LINE
  5
114
  100
AcDbEntity
  8
1
  100
AcDbLine
  10
44.899
  20
-0.083475
  30
0
  11
44.8985
  21
-0.083315
  31
0
  0
LINE
  5
115
  100
AcDbEntity
  8
1
  100
AcDbLine
  10
44.8985
  20
-0.083315
  30
0
  11
44.898
  21
-0.083155
  31
0
  0
LINE
  5
116
  100
AcDbEntity
  8
1
  100
AcDbLine
  10
44.898
  20
-0.083155
  30
0
  11
44.8975
  21
-0.082995
  31
0
  0
LINE
  5
117
  100
AcDbEntity
  8
1
  100
AcDbLine
  10
44.8975
  20
-0.082995
  30
0
  11
44.897
  21
-0.082833
  31
0
  0
LINE
  5
118
  100
AcDbEntity
  8
1
  100
AcDbLine
  10
44.897
  20
-0.082833
  30
0
  11
44.8965
  21
-0.082671
  31
0
  0
LINE
  5
119
  100
AcDbEntity
  8
1
  100
AcDbLine
  10
44.8965
  20
-0.082671
  30
0
  11
44.896
  21
-0.082508
  31
0
  0
LINE
  5
11a
  100
AcDbEntity
  8
1
  100
AcDbLine
  10
44.896
  20
-0.082508
  30
0
  11
44.8955
  21
-0.082345
  31
0
  0
LINE
  5
11b
  100
AcDbEntity
  8
1
  100
AcDbLine
  10
44.8955
  20
-0.082345
  30
0
  11
44.895
  21
-0.082181
  31
0
  0
LINE
  5
11c
  100
AcDbEntity
  8
1
  100
AcDbLine
  10
44.895
  20
-0.082181
  30
0
  11
44.8945
  21
-0.082016
  31
0
  0
LINE
  5
11d
  100
AcDbEntity
  8
1
  100
AcDbLine
  10
44.8945
  20
-0.082016
  30
0
  11
44.894
  21
-0.081851
  31
0
  0
LINE
  5
11e
  100
AcDbEntity
  8
1
  100
AcDbLine
  10
44.894
  20
-0.081851
  30
0
  11
44.8935
  21
-0.081684
  31
0
  0
LINE
  5
11f
  100
AcDbEntity
  8
1
  100
AcDbLine
  10
44.8935
  20
-0.081684
  30
0
  11
44.893
  21
-0.081518
  31
0
  0
LINE
  5
120
  100
AcDbEntity
  8
1
  100
AcDbLine
  10
44.893
  20
-0.081518
  30
0
  11
44.8925
  21
-0.08135
  31
0
  0
LINE
  5
121
  100
AcDbEntity
  8
1
  100
AcDbLine
  10
44.8925
  20
-0.08135
  30
0
  11
44.892
  21
-0.081182
  31
0
  0
LINE
  5
122
  100
AcDbEntity
  8
1
  100
AcDbLine
  10
44.892
  20
-0.081182
  30
0
  11
44.8915
  21
-0.081013
  31
0
  0
LINE
  5
123
  100
AcDbEntity
  8
1
  100
AcDbLine
  10
44.8915
  20
-0.081013
  30
0
  11
44.891
  21
-0.080843
  31
0
  0
LINE
  5
124
  100
AcDbEntity
  8
1
  100
AcDbLine
  10
44.891
  20
-0.080843
  30
0
  11
44.8905
  21
-0.080673
  31
0
  0
LINE
  5
125
  100
AcDbEntity
  8
1
  100
AcDbLine
  10
44.8905
  20
-0.080673
  30
0
  11
44.89
  21
-0.080502
  31
0
  0
LINE
  5
126
  100
AcDbEntity
  8
1
  100
AcDbLine
  10
44.89
  20
-0.080502
  30
0
  11
44.8895
  21
-0.080331
  31
0
  0
LINE
  5
127
  100
AcDbEntity
  8
1
  100
AcDbLine
  10
44.8895
  20
-0.080331
  30
0
  11
44.889
  21
-0.080158
  31
0
  0
LINE
  5
128
  100
AcDbEntity
  8
1
  100
AcDbLine
  10
44.889
  20
-0.080158
  30
0
  11
44.8885
  21
-0.079985
  31
0
  0
LINE
  5
129
  100
AcDbEntity
  8
1
  100
AcDbLine
  10
44.8885
  20
-0.079985
  30
0
  11
44.888
  21
-0.079812
  31
0
  0
LINE
  5
12a
  100
AcDbEntity
  8
1
  100
AcDbLine
  10
44.888
  20
-0.079812
  30
0
  11
44.8875
  21
-0.079637
  31
0
  0
LINE
  5
12b
  100
AcDbEntity
  8
1
  100
AcDbLine
  10
44.8875
  20
-0.079637
  30
0
  11
44.887
  21
-0.079463
  31
0
  0
LINE
  5
12c
  100
AcDbEntity
  8
1
  100
AcDbLine
  10
44.887
  20
-0.079463
  30
0
  11
44.8865
  21
-0.079287
  31
0
  0
LINE
  5
12d
  100
AcDbEntity
  8
1
  100
AcDbLine
  10
44.8865
  20
-0.079287
  30
0
  11
44.886
  21
-0.079111
  31
0
  0
LINE
  5
12e
  100
AcDbEntity
  8
1
  100
AcDbLine
  10
44.886
  20
-0.079111
  30
0
  11
44.8855
  21
-0.078934
  31
0
  0
LINE
  5
12f
  100
AcDbEntity
  8
1
  100
AcDbLine
  10
44.8855
  20
-0.078934
  30
0
  11
44.885
  21
-0.078756
  31
0
  0
LINE
  5
130
  100
AcDbEntity
  8
1
  100
AcDbLine
  10
44.885
  20
-0.078756
  30
0
  11
44.8845
  21
-0.078578
  31
0
  0
LINE
  5
131
  100
AcDbEntity
  8
1
  100
AcDbLine
  10
44.8845
  20
-0.078578
  30
0
  11
44.884
  21
-0.078399
  31
0
  0
LINE
  5
132
  100
AcDbEntity
  8
1
  100
AcDbLine
  10
44.884
  20
-0.078399
  30
0
  11
44.8835
  21
-0.07822
  31
0
  0
LINE
  5
133
  100
AcDbEntity
  8
1
  100
AcDbLine
  10
44.8835
  20
-0.07822
  30
0
  11
44.883
  21
-0.078039
  31
0
  0
LINE
  5
134
  100
AcDbEntity
  8
1
  100
AcDbLine
  10
44.883
  20
-0.078039
  30
0
  11
44.8825
  21
-0.077859
  31
0
  0
LINE
  5
135
  100
AcDbEntity
  8
1
  100
AcDbLine
  10
44.8825
  20
-0.077859
  30
0
  11
44.882
  21
-0.077677
  31
0
  0
LINE
  5
136
  100
AcDbEntity
  8
1
  100
AcDbLine
  10
44.882
  20
-0.077677
  30
0
  11
44.8815
  21
-0.077495
  31
0
  0
LINE
  5
137
  100
AcDbEntity
  8
1
  100
AcDbLine
  10
44.8815
  20
-0.077495
  30
0
  11
44.881
  21
-0.077312
  31
0
  0
LINE
  5
138
  100
AcDbEntity
  8
1
  100
AcDbLine
  10
44.881
  20
-0.077312
  30
0
  11
44.8805
  21
-0.077129
  31
0
  0
LINE
  5
139
  100
AcDbEntity
  8
1
  100
AcDbLine
  10
44.8805
  20
-0.077129
  30
0
  11
44.88
  21
-0.076945
  31
0
  0
LINE
  5
13a
  100
AcDbEntity
  8
1
  100
AcDbLine
  10
44.88
  20
-0.076945
  30
0
  11
44.8795
  21
-0.07676
  31
0
  0
LINE
  5
13b
  100
AcDbEntity
  8
1
  100
AcDbLine
  10
44.8795
  20
-0.07676
  30
0
  11
44.879
  21
-0.076575
  31
0
  0
LINE
  5
13c
  100
AcDbEntity
  8
1
  100
AcDbLine
  10
44.879
  20
-0.076575
  30
0
  11
44.8785
  21
-0.076389
  31
0
  0
LINE
  5
13d
  100
AcDbEntity
  8
1
  100
AcDbLine
  10
44.8785
  20
-0.076389
  30
0
  11
44.878
  21
-0.076202
  31
0
  0
LINE
  5
13e
  100
AcDbEntity
  8
1
  100
AcDbLine
  10
44.878
  20
-0.076202
  30
0
  11
44.8775
  21
-0.076015
  31
0
  0
LINE
  5
13f
  100
AcDbEntity
  8
1
  100
AcDbLine
  10
44.8775
  20
-0.076015
  30
0
  11
44.877
  21
-0.075827
  31
0
  0
LINE
  5
140
  100
AcDbEntity
  8
1
  100
AcDbLine
  10
44.877
  20
-0.075827
  30
0
  11
44.8765
  21
-0.075638
  31
0
  0
LINE
  5
141
  100
AcDbEntity
  8
1
  100
AcDbLine
  10
44.8765
  20
-0.075638
  30
0
  11
44.876
  21
-0.075449
  31
0
  0
LINE
  5
142
  100
AcDbEntity
  8
1
  100
AcDbLine
  10
44.876
  20
-0.075449
  30
0
  11
44.8755
  21
-0.07526
  31
0
  0
LINE
  5
143
  100
AcDbEntity
  8
1
  100
AcDbLine
  10
44.8755
  20
-0.07526
  30
0
  11
44.875
  21
-0.075069
  31
0
  0
LINE
  5
144
  100
AcDbEntity
  8
1
  100
AcDbLine
  10
44.875
  20
-0.075069
  30
0
  11
44.8745
  21
-0.074878
  31
0
  0
LINE
  5
145
  100
AcDbEntity
  8
1
  100
AcDbLine
  10
44.8745
  20
-0.074878
  30
0
  11
44.874
  21
-0.074686
  31
0
  0
LINE
  5
146
  100
AcDbEntity
  8
1
  100
AcDbLine
  10
44.874
  20
-0.074686
  30
0
  11
44.8735
  21
-0.074494
  31
0
  0
LINE
  5
147
  100
AcDbEntity
  8
1
  100
AcDbLine
  10
44.8735
  20
-0.074494
  30
0
  11
44.873
  21
-0.074301
  31
0
  0
LINE
  5
148
  100
AcDbEntity
  8
1
  100
AcDbLine
  10
44.873
  20
-0.074301
  30
0
  11
44.8725
  21
-0.074108
  31
0
  0
LINE
  5
149
  100
AcDbEntity
  8
1
  100
AcDbLine
  10
44.8725
  20
-0.074108
  30
0
  11
44.872
  21
-0.073914
  31
0
  0
LINE
  5
14a
  100
AcDbEntity
  8
1
  100
AcDbLine
  10
44.872
  20
-0.073914
  30
0
  11
44.8715
  21
-0.073719
  31
0
  0
LINE
  5
14b
  100
AcDbEntity
  8
1
  100
AcDbLine
  10
44.8715
  20
-0.073719
  30
0
  11
44.871
  21
-0.073524
  31
0
  0
LINE
  5
14c
  100
AcDbEntity
  8
1
  100
AcDbLine
  10
44.871
  20
-0.073524
  30
0
  11
44.8705
  21
-0.073328
  31
0
  0
LINE
  5
14d
  100
AcDbEntity
  8
1
  100
AcDbLine
  10
44.8705
  20
-0.073328
  30
0
  11
44.87
  21
-0.073131
  31
0
  0
LINE
  5
14e
  100
AcDbEntity
  8
1
  100
AcDbLine
  10
44.87
  20
-0.073131
  30
0
  11
44.8695
  21
-0.072934
  31
0
  0
LINE
  5
14f
  100
AcDbEntity
  8
1
  100
AcDbLine
  10
44.8695
  20
-0.072934
  30
0
  11
44.869
  21
-0.072736
  31
0
  0
LINE
  5
150
  100
AcDbEntity
  8
1
  100
AcDbLine
  10
44.869
  20
-0.072736
  30
0
  11
44.8685
  21
-0.072538
  31
0
  0
LINE
  5
151
  100
AcDbEntity
  8
1
  100
AcDbLine
  10
44.8685
  20
-0.072538
  30
0
  11
44.868
  21
-0.072339
  31
0
  0
LINE
  5
152
  100
AcDbEntity
  8
1
  100
AcDbLine
  10
44.868
  20
-0.072339
  30
0
  11
44.8675
  21
-0.072139
  31
0
  0
LINE
  5
153
  100
AcDbEntity
  8
1
  100
AcDbLine
  10
44.8675
  20
-0.072139
  30
0
  11
44.867
  21
-0.071939
  31
0
  0
LINE
  5
154
  100
AcDbEntity
  8
1
  100
AcDbLine
  10
44.867
  20
-0.071939
  30
0
  11
44.8665
  21
-0.071738
  31
0
  0
LINE
  5
155
  100
AcDbEntity
  8
1
  100
AcDbLine
  10
44.8665
  20
-0.071738
  30
0
  11
44.866
  21
-0.071537
  31
0
  0
LINE
  5
156
  100
AcDbEntity
  8
1
  100
AcDbLine
  10
44.866
  20
-0.071537
  30
0
  11
44.8655
  21
-0.071335
  31
0
  0
LINE
  5
157
  100
AcDbEntity
  8
1
  100
AcDbLine
  10
44.8655
  20
-0.071335
  30
0
  11
44.865
  21
-0.071132
  31
0
  0
LINE
  5
158
  100
AcDbEntity
  8
1
  100
AcDbLine
  10
44.865
  20
-0.071132
  30
0
  11
44.8645
  21
-0.070929
  31
0
  0
LINE
  5
159
  100
AcDbEntity
  8
1
  100
AcDbLine
  10
44.8645
  20
-0.070929
  30
0
  11
44.864
  21
-0.070725
  31
0
  0
LINE
  5
15a
  100
AcDbEntity
  8
1
  100
AcDbLine
  10
44.864
  20
-0.070725
  30
0
  11
44.8635
  21
-0.070521
  31
0
  0
LINE
  5
15b
  100
AcDbEntity
  8
1
  100
AcDbLine
  10
44.8635
  20
-0.070521
  30
0
  11
44.863
  21
-0.070316
  31
0
  0
LINE
  5
15c
  100
AcDbEntity
  8
1
  100
AcDbLine
  10
44.863
  20
-0.070316
  30
0
  11
44.8625
  21
-0.07011
  31
0
  0
LINE
  5
15d
  100
AcDbEntity
  8
1
  100
AcDbLine
  10
44.8625
  20
-0.07011
  30
0
  11
44.862
  21
-0.069904
  31
0
  0
LINE
  5
15e
  100
AcDbEntity
  8
1
  100
AcDbLine
  10
44.862
  20
-0.069904
  30
0
  11
44.8615
  21
-0.069697
  31
0
  0
LINE
  5
15f
  100
AcDbEntity
  8
1
  100
AcDbLine
  10
44.8615
  20
-0.069697
  30
0
  11
44.861
  21
-0.06949
  31
0
  0
LINE
  5
160
  100
AcDbEntity
  8
1
  100
AcDbLine
  10
44.861
  20
-0.06949
  30
0
  11
44.8605
  21
-0.069282
  31
0
  0
LINE
  5
161
  100
AcDbEntity
  8
1
  100
AcDbLine
  10
44.8605
  20
-0.069282
  30
0
  11
44.86
  21
-0.069074
  31
0
  0
LINE
  5
162
  100
AcDbEntity
  8
1
  100
AcDbLine
  10
44.86
  20
-0.069074
  30
0
  11
44.8595
  21
-0.068865
  31
0
  0
LINE
  5
163
  100
AcDbEntity
  8
1
  100
AcDbLine
  10
44.8595
  20
-0.068865
  30
0
  11
44.859
  21
-0.068655
  31
0
  0
LINE
  5
164
  100
AcDbEntity
  8
1
  100
AcDbLine
  10
44.859
  20
-0.068655
  30
0
  11
44.8585
  21
-0.068445
  31
0
  0
LINE
  5
165
  100
AcDbEntity
  8
1
  100
AcDbLine
  10
44.8585
  20
-0.068445
  30
0
  11
44.858
  21
-0.068234
  31
0
  0
LINE
  5
166
  100
AcDbEntity
  8
1
  100
AcDbLine
  10
44.858
  20
-0.068234
  30
0
  11
44.8575
  21
-0.068023
  31
0
  0
LINE
  5
167
  100
AcDbEntity
  8
1
  100
AcDbLine
  10
44.8575
  20
-0.068023
  30
0
  11
44.857
  21
-0.067811
  31
0
  0
LINE
  5
168
  100
AcDbEntity
  8
1
  100
AcDbLine
  10
44.857
  20
-0.067811
  30
0
  11
44.8565
  21
-0.067598
  31
0
  0
LINE
  5
169
  100
AcDbEntity
  8
1
  100
AcDbLine
  10
44.8565
  20
-0.067598
  30
0
  11
44.856
  21
-0.067385
  31
0
  0
LINE
  5
16a
  100
AcDbEntity
  8
1
  100
AcDbLine
  10
44.856
  20
-0.067385
  30
0
  11
44.8555
  21
-0.067172
  31
0
  0
LINE
  5
16b
  100
AcDbEntity
  8
1
  100
AcDbLine
  10
44.8555
  20
-0.067172
  30
0
  11
44.855
  21
-0.066958
  31
0
  0
LINE
  5
16c
  100
AcDbEntity
  8
1
  100
AcDbLine
  10
44.855
  20
-0.066958
  30
0
  11
44.8545
  21
-0.066743
  31
0
  0
LINE
  5
16d
  100
AcDbEntity
  8
1
  100
AcDbLine
  10
44.8545
  20
-0.066743
  30
0
  11
44.854
  21
-0.066528
  31
0
  0
LINE
  5
16e
  100
AcDbEntity
  8
1
  100
AcDbLine
  10
44.854
  20
-0.066528
  30
0
  11
44.8535
  21
-0.066312
  31
0
  0
LINE
  5
16f
  100
AcDbEntity
  8
1
  100
AcDbLine
  10
44.8535
  20
-0.066312
  30
0
  11
44.853
  21
-0.066096
  31
0
  0
LINE
  5
170
  100
AcDbEntity
  8
1
  100
AcDbLine
  10
44.853
  20
-0.066096
  30
0
  11
44.8525
  21
-0.065879
  31
0
  0
LINE
  5
171
  100
AcDbEntity
  8
1
  100
AcDbLine
  10
44.8525
  20
-0.065879
  30
0
  11
44.852
  21
-0.065661
  31
0
  0
LINE
  5
172
  100
AcDbEntity
  8
1
  100
AcDbLine
  10
44.852
  20
-0.065661
  30
0
  11
44.8515
  21
-0.065443
  31
0
  0
LINE
  5
173
  100
AcDbEntity
  8
1
  100
AcDbLine
  10
44.8515
  20
-0.065443
  30
0
  11
44.851
  21
-0.065225
  31
0
  0
LINE
  5
174
  100
AcDbEntity
  8
1
  100
AcDbLine
  10
44.851
  20
-0.065225
  30
0
  11
44.8505
  21
-0.065006
  31
0
  0
LINE
  5
175
  100
AcDbEntity
  8
1
  100
AcDbLine
  10
44.8505
  20
-0.065006
  30
0
  11
44.85
  21
-0.064786
  31
0
  0
LINE
  5
176
  100
AcDbEntity
  8
1
  100
AcDbLine
  10
44.85
  20
-0.064786
  30
0
  11
44.85
  21
-0.057228
  31
0
  0
LINE
  5
177
  100
AcDbEntity
  8
1
  100
AcDbLine
  10
44.8505
  20
-0.056393
  30
0
  11
44.851
  21
-0.056627
  31
0
  0
LINE
  5
178
  100
AcDbEntity
  8
1
  100
AcDbLine
  10
44.851
  20
-0.056627
  30
0
  11
44.8515
  21
-0.05686
  31
0
  0
LINE
  5
179
  100
AcDbEntity
  8
1
  100
AcDbLine
  10
44.8515
  20
-0.05686
  30
0
  11
44.852
  21
-0.057093
  31
0
  0
LINE
  5
17a
  100
AcDbEntity
  8
1
  100
AcDbLine
  10
44.852
  20
-0.057093
  30
0
  11
44.8525
  21
-0.057326
  31
0
  0
LINE
  5
17b
  100
AcDbEntity
  8
1
  100
AcDbLine
  10
44.8525
  20
-0.057326
  30
0
  11
44.853
  21
-0.057558
  31
0
  0
LINE
  5
17c
  100
AcDbEntity
  8
1
  100
AcDbLine
  10
44.853
  20
-0.057558
  30
0
  11
44.8535
  21
-0.057789
  31
0
  0
LINE
  5
17d
  100
AcDbEntity
  8
1
  100
AcDbLine
  10
44.8535
  20
-0.057789
  30
0
  11
44.854
  21
-0.05802
  31
0
  0
LINE
  5
17e
  100
AcDbEntity
  8
1
  100
AcDbLine
  10
44.854
  20
-0.05802
  30
0
  11
44.8545
  21
-0.05825
  31
0
  0
LINE
  5
17f
  100
AcDbEntity
  8
1
  100
AcDbLine
  10
44.8545
  20
-0.05825
  30
0
  11
44.855
  21
-0.05848
  31
0
  0
LINE
  5
180
  100
AcDbEntity
  8
1
  100
AcDbLine
  10
44.855
  20
-0.05848
  30
0
  11
44.8555
  21
-0.05871
  31
0
  0
LINE
  5
181
  100
AcDbEntity
  8
1
  100
AcDbLine
  10
44.8555
  20
-0.05871
  30
0
  11
44.856
  21
-0.058939
  31
0
  0
LINE
  5
182
  100
AcDbEntity
  8
1
  100
AcDbLine
  10
44.856
  20
-0.058939
  30
0
  11
44.8565
  21
-0.059167
  31
0
  0
LINE
  5
183
  100
AcDbEntity
  8
1
  100
AcDbLine
  10
44.8565
  20
-0.059167
  30
0
  11
44.857
  21
-0.059395
  31
0
  0
LINE
  5
184
  100
AcDbEntity
  8
1
  100
AcDbLine
  10
44.857
  20
-0.059395
  30
0
  11
44.8575
  21
-0.059623
  31
0
  0
LINE
  5
185
  100
AcDbEntity
  8
1
  100
AcDbLine
  10
44.8575
  20
-0.059623
  30
0
  11
44.858
  21
-0.05985
  31
0
  0
LINE
  5
186
  100
AcDbEntity
  8
1
  100
AcDbLine
  10
44.858
  20
-0.05985
  30
0
  11
44.8585
  21
-0.060076
  31
0
  0
LINE
  5
187
  100
AcDbEntity
  8
1
  100
AcDbLine
  10
44.8585
  20
-0.060076
  30
0
  11
44.859
  21
-0.060302
  31
0
  0
LINE
  5
188
  100
AcDbEntity
  8
1
  100
AcDbLine
  10
44.859
  20
-0.060302
  30
0
  11
44.8595
  21
-0.060528
  31
0
  0
LINE
  5
189
  100
AcDbEntity
  8
1
  100
AcDbLine
  10
44.8595
  20
-0.060528
  30
0
  11
44.86
  21
-0.060753
  31
0
  0
LINE
  5
18a
  100
AcDbEntity
  8
1
  100
AcDbLine
  10
44.86
  20
-0.060753
  30
0
  11
44.8605
  21
-0.060977
  31
0
  0
LINE
  5
18b
  100
AcDbEntity
  8
1
  100
AcDbLine
  10
44.8605
  20
-0.060977
  30
0
  11
44.861
  21
-0.061201
  31
0
  0
LINE
  5
18c
  100
AcDbEntity
  8
1
  100
AcDbLine
  10
44.861
  20
-0.061201
  30
0
  11
44.8615
  21
-0.061425
  31
0
  0
LINE
  5
18d
  100
AcDbEntity
  8
1
  100
AcDbLine
  10
44.8615
  20
-0.061425
  30
0
  11
44.862
  21
-0.061648
  31
0
  0
LINE
  5
18e
  100
AcDbEntity
  8
1
  100
AcDbLine
  10
44.862
  20
-0.061648
  30
0
  11
44.8625
  21
-0.06187
  31
0
  0
LINE
  5
18f
  100
AcDbEntity
  8
1
  100
AcDbLine
  10
44.8625
  20
-0.06187
  30
0
  11
44.863
  21
-0.062092
  31
0
  0
LINE
  5
190
  100
AcDbEntity
  8
1
  100
AcDbLine
  10
44.863
  20
-0.062092
  30
0
  11
44.8635
  21
-0.062314
  31
0
  0
LINE
  5
191
  100
AcDbEntity
  8
1
  100
AcDbLine
  10
44.8635
  20
-0.062314
  30
0
  11
44.864
  21
-0.062535
  31
0
  0
LINE
  5
192
  100
AcDbEntity
  8
1
  100
AcDbLine
  10
44.864
  20
-0.062535
  30
0
  11
44.8645
  21
-0.062755
  31
0
  0
LINE
  5
193
  100
AcDbEntity
  8
1
  100
AcDbLine
  10
44.8645
  20
-0.062755
  30
0
  11
44.865
  21
-0.062975
  31
0
  0
LINE
  5
194
  100
AcDbEntity
  8
1
  100
AcDbLine
  10
44.865
  20
-0.062975
  30
0
  11
44.8655
  21
-0.063194
  31
0
  0
LINE
  5
195
  100
AcDbEntity
  8
1
  100
AcDbLine
  10
44.8655
  20
-0.063194
  30
0
  11
44.866
  21
-0.063413
  31
0
  0
LINE
  5
196
  100
AcDbEntity
  8
1
  100
AcDbLine
  10
44.866
  20
-0.063413
  30
0
  11
44.8665
  21
-0.063631
  31
0
  0
LINE
  5
197
  100
AcDbEntity
  8
1
  100
AcDbLine
  10
44.8665
  20
-0.063631
  30
0
  11
44.867
  21
-0.063849
  31
0
  0
LINE
  5
198
  100
AcDbEntity
  8
1
  100
AcDbLine
  10
44.867
  20
-0.063849
  30
0
  11
44.8675
  21
-0.064066
  31
0
  0
LINE
  5
199
  100
AcDbEntity
  8
1
  100
AcDbLine
  10
44.8675
  20
-0.064066
  30
0
  11
44.868
  21
-0.064283
  31
0
  0
LINE
  5
19a
  100
AcDbEntity
  8
1
  100
AcDbLine
  10
44.868
  20
-0.064283
  30
0
  11
44.8685
  21
-0.064499
  31
0
  0
LINE
  5
19b
  100
AcDbEntity
  8
1
  100
AcDbLine
  10
44.8685
  20
-0.064499
  30
0
  11
44.869
  21
-0.064715
  31
0
  0
LINE
  5
19c
  100
AcDbEntity
  8
1
  100
AcDbLine
  10
44.869
  20
-0.064715
  30
0
  11
44.8695
  21
-0.06493
  31
0
  0
LINE
  5
19d
  100
AcDbEntity
  8
1
  100
AcDbLine
  10
44.8695
  20
-0.06493
  30
0
  11
44.87
  21
-0.065144
  31
0
  0
LINE
  5
19e
  100
AcDbEntity
  8
1
  100
AcDbLine
  10
44.87
  20
-0.065144
  30
0
  11
44.8705
  21
-0.065358
  31
0
  0
LINE
  5
19f
  100
AcDbEntity
  8
1
  100
AcDbLine
  10
44.8705
  20
-0.065358
  30
0
  11
44.871
  21
-0.065572
  31
0
  0
LINE
  5
1a0
  100
AcDbEntity
  8
1
  100
AcDbLine
  10
44.871
  20
-0.065572
  30
0
  11
44.8715
  21
-0.065785
  31
0
  0
LINE
  5
1a1
  100
AcDbEntity
  8
1
  100
AcDbLine
  10
44.8715
  20
-0.065785
  30
0
  11
44.872
  21
-0.065997
  31
0
  0
LINE
  5
1a2
  100
AcDbEntity
  8
1
  100
AcDbLine
  10
44.872
  20
-0.065997
  30
0
  11
44.8725
  21
-0.066209
  31
0
  0
LINE
  5
1a3
  100
AcDbEntity
  8
1
  100
AcDbLine
  10
44.8725
  20
-0.066209
  30
0
  11
44.873
  21
-0.06642
  31
0
  0
LINE
  5
1a4
  100
AcDbEntity
  8
1
  100
AcDbLine
  10
44.873
  20
-0.06642
  30
0
  11
44.8735
  21
-0.066631
  31
0
  0
LINE
  5
1a5
  100
AcDbEntity
  8
1
  100
AcDbLine
  10
44.8735
  20
-0.066631
  30
0
  11
44.874
  21
-0.066841
  31
0
  0
LINE
  5
1a6
  100
AcDbEntity
  8
1
  100
AcDbLine
  10
44.874
  20
-0.066841
  30
0
  11
44.8745
  21
-0.06705
  31
0
  0
LINE
  5
1a7
  100
AcDbEntity
  8
1
  100
AcDbLine
  10
44.8745
  20
-0.06705
  30
0
  11
44.875
  21
-0.067259
  31
0
  0
LINE
  5
1a8
  100
AcDbEntity
  8
1
  100
AcDbLine
  10
44.875
  20
-0.067259
  30
0
  11
44.8755
  21
-0.067468
  31
0
  0
LINE
  5
1a9
  100
AcDbEntity
  8
1
  100
AcDbLine
  10
44.8755
  20
-0.067468
  30
0
  11
44.876
  21
-0.067676
  31
0
  0
LINE
  5
1aa
  100
AcDbEntity
  8
1
  100
AcDbLine
  10
44.876
  20
-0.067676
  30
0
  11
44.8765
  21
-0.067883
  31
0
  0
LINE
  5
1ab
  100
AcDbEntity
  8
1
  100
AcDbLine
  10
44.8765
  20
-0.067883
  30
0
  11
44.877
  21
-0.06809
  31
0
  0
LINE
  5
1ac
  100
AcDbEntity
  8
1
  100
AcDbLine
  10
44.877
  20
-0.06809
  30
0
  11
44.8775
  21
-0.068296
  31
0
  0
LINE
  5
1ad
  100
AcDbEntity
  8
1
  100
AcDbLine
  10
44.8775
  20
-0.068296
  30
0
  11
44.878
  21
-0.068502
  31
0
  0
LINE
  5
1ae
  100
AcDbEntity
  8
1
  100
AcDbLine
  10
44.878
  20
-0.068502
  30
0
  11
44.8785
  21
-0.068707
  31
0
  0
LINE
  5
1af
  100
AcDbEntity
  8
1
  100
AcDbLine
  10
44.8785
  20
-0.068707
  30
0
  11
44.879
  21
-0.068911
  31
0
  0
LINE
  5
1b0
  100
AcDbEntity
  8
1
  100
AcDbLine
  10
44.879
  20
-0.068911
  30
0
  11
44.8795
  21
-0.069115
  31
0
  0
LINE
  5
1b1
  100
AcDbEntity
  8
1
  100
AcDbLine
  10
44.8795
  20
-0.069115
  30
0
  11
44.88
  21
-0.069319
  31
0
  0
LINE
  5
1b2
  100
AcDbEntity
  8
1
  100
AcDbLine
  10
44.88
  20
-0.069319
  30
0
  11
44.8805
  21
-0.069521
  31
0
  0
LINE
  5
1b3
  100
AcDbEntity
  8
1
  100
AcDbLine
  10
44.8805
  20
-0.069521
  30
0
  11
44.881
  21
-0.069724
  31
0
  0
LINE
  5
1b4
  100
AcDbEntity
  8
1
  100
AcDbLine
  10
44.881
  20
-0.069724
  30
0
  11
44.8815
  21
-0.069925
  31
0
  0
LINE
  5
1b5
  100
AcDbEntity
  8
1
  100
AcDbLine
  10
44.8815
  20
-0.069925
  30
0
  11
44.882
  21
-0.070126
  31
0
  0
LINE
  5
1b6
  100
AcDbEntity
  8
1
  100
AcDbLine
  10
44.882
  20
-0.070126
  30
0
  11
44.8825
  21
-0.070327
  31
0
  0
LINE
  5
1b7
  100
AcDbEntity
  8
1
  100
AcDbLine
  10
44.8825
  20
-0.070327
  30
0
  11
44.883
  21
-0.070526
  31
0
  0
LINE
  5
1b8
  100
AcDbEntity
  8
1
  100
AcDbLine
  10
44.883
  20
-0.070526
  30
0
  11
44.8835
  21
-0.070726
  31
0
  0
LINE
  5
1b9
  100
AcDbEntity
  8
1
  100
AcDbLine
  10
44.8835
  20
-0.070726
  30
0
  11
44.884
  21
-0.070924
  31
0
  0
LINE
  5
1ba
  100
AcDbEntity
  8
1
  100
AcDbLine
  10
44.884
  20
-0.070924
  30
0
  11
44.8845
  21
-0.071122
  31
0
  0
LINE
  5
1bb
  100
AcDbEntity
  8
1
  100
AcDbLine
  10
44.8845
  20
-0.071122
  30
0
  11
44.885
  21
-0.07132
  31
0
  0
LINE
  5
1bc
  100
AcDbEntity
  8
1
  100
AcDbLine
  10
44.885
  20
-0.07132
  30
0
  11
44.8855
  21
-0.071517
  31
0
  0
LINE
  5
1bd
  100
AcDbEntity
  8
1
  100
AcDbLine
  10
44.8855
  20
-0.071517
  30
0
  11
44.886
  21
-0.071713
  31
0
  0
LINE
  5
1be
  100
AcDbEntity
  8
1
  100
AcDbLine
  10
44.886
  20
-0.071713
  30
0
  11
44.8865
  21
-0.071909
  31
0
  0
LINE
  5
1bf
  100
AcDbEntity
  8
1
  100
AcDbLine
  10
44.8865
  20
-0.071909
  30
0
  11
44.887
  21
-0.072104
  31
0
  0
LINE
  5
1c0
  100
AcDbEntity
  8
1
  100
AcDbLine
  10
44.887
  20
-0.072104
  30
0
  11
44.8875
  21
-0.072298
  31
0
  0
LINE
  5
1c1
  100
AcDbEntity
  8
1
  100
AcDbLine
  10
44.8875
  20
-0.072298
  30
0
  11
44.888
  21
-0.072492
  31
0
  0
LINE
  5
1c2
  100
AcDbEntity
  8
1
  100
AcDbLine
  10
44.888
  20
-0.072492
  30
0
  11
44.8885
  21
-0.072686
  31
0
  0
LINE
  5
1c3
  100
AcDbEntity
  8
1
  100
AcDbLine
  10
44.8885
  20
-0.072686
  30
0
  11
44.889
  21
-0.072878
  31
0
  0
LINE
  5
1c4
  100
AcDbEntity
  8
1
  100
AcDbLine
  10
44.889
  20
-0.072878
  30
0
  11
44.8895
  21
-0.07307
  31
0
  0
LINE
  5
1c5
  100
AcDbEntity
  8
1
  100
AcDbLine
  10
44.8895
  20
-0.07307
  30
0
  11
44.89
  21
-0.073262
  31
0
  0
LINE
  5
1c6
  100
AcDbEntity
  8
1
  100
AcDbLine
  10
44.89
  20
-0.073262
  30
0
  11
44.8905
  21
-0.073453
  31
0
  0
LINE
  5
1c7
  100
AcDbEntity
  8
1
  100
AcDbLine
  10
44.8905
  20
-0.073453
  30
0
  11
44.891
  21
-0.073643
  31
0
  0
LINE
  5
1c8
  100
AcDbEntity
  8
1
  100
AcDbLine
  10
44.891
  20
-0.073643
  30
0
  11
44.8915
  21
-0.073833
  31
0
  0
LINE
  5
1c9
  100
AcDbEntity
  8
1
  100
AcDbLine
  10
44.8915
  20
-0.073833
  30
0
  11
44.892
  21
-0.074022
  31
0
  0
LINE
  5
1ca
  100
AcDbEntity
  8
1
  100
AcDbLine
  10
44.892
  20
-0.074022
  30
0
  11
44.8925
  21
-0.07421
  31
0
  0
LINE
  5
1cb
  100
AcDbEntity
  8
1
  100
AcDbLine
  10
44.8925
  20
-0.07421
  30
0
  11
44.893
  21
-0.074398
  31
0
  0
LINE
  5
1cc
  100
AcDbEntity
  8
1
  100
AcDbLine
  10
44.893
  20
-0.074398
  30
0
  11
44.8935
  21
-0.074585
  31
0
  0
LINE
  5
1cd
  100
AcDbEntity
  8
1
  100
AcDbLine
  10
44.8935
  20
-0.074585
  30
0
  11
44.894
  21
-0.074772
  31
0
  0
LINE
  5
1ce
  100
AcDbEntity
  8
1
  100
AcDbLine
  10
44.894
  20
-0.074772
  30
0
  11
44.8945
  21
-0.074957
  31
0
  0
LINE
  5
1cf
  100
AcDbEntity
  8
1
  100
AcDbLine
  10
44.8945
  20
-0.074957
  30
0
  11
44.895
  21
-0.075143
  31
0
  0
LINE
  5
1d0
  100
AcDbEntity
  8
1
  100
AcDbLine
  10
44.895
  20
-0.075143
  30
0
  11
44.8955
  21
-0.075327
  31
0
  0
LINE
  5
1d1
  100
AcDbEntity
  8
1
  100
AcDbLine
  10
44.8955
  20
-0.075327
  30
0
  11
44.896
  21
-0.075511
  31
0
  0
LINE
  5
1d2
  100
AcDbEntity
  8
1
  100
AcDbLine
  10
44.896
  20
-0.075511
  30
0
  11
44.8965
  21
-0.075695
  31
0
  0
LINE
  5
1d3
  100
AcDbEntity
  8
1
  100
AcDbLine
  10
44.8965
  20
-0.075695
  30
0
  11
44.897
  21
-0.075878
  31
0
  0
LINE
  5
1d4
  100
AcDbEntity
  8
1
  100
AcDbLine
  10
44.897
  20
-0.075878
  30
0
  11
44.8975
  21
-0.07606
  31
0
  0
LINE
  5
1d5
  100
AcDbEntity
  8
1
  100
AcDbLine
  10
44.8975
  20
-0.07606
  30
0
  11
44.898
  21
-0.076241
  31
0
  0
LINE
  5
1d6
  100
AcDbEntity
  8
1
  100
AcDbLine
  10
44.898
  20
-0.076241
  30
0
  11
44.8985
  21
-0.076422
  31
0
  0
LINE
  5
1d7
  100
AcDbEntity
  8
1
  100
AcDbLine
  10
44.8985
  20
-0.076422
  30
0
  11
44.899
  21
-0.076602
  31
0
  0
LINE
  5
1d8
  100
AcDbEntity
  8
1
  100
AcDbLine
  10
44.899
  20
-0.076602
  30
0
  11
44.8995
  21
-0.076782
  31
0
  0
LINE
  5
1d9
  100
AcDbEntity
  8
1
  100
AcDbLine
  10
44.8995
  20
-0.076782
  30
0
  11
44.9
  21
-0.076961
  31
0
  0
LINE
  5
1da
  100
AcDbEntity
  8
1
  100
AcDbLine
  10
44.9
  20
-0.076961
  30
0
  11
44.9005
  21
-0.077139
  31
0
  0
LINE
  5
1db
  100
AcDbEntity
  8
1
  100
AcDbLine
  10
44.9005
  20
-0.077139
  30
0
  11
44.901
  21
-0.077317
  31
0
  0
LINE
  5
1dc
  100
AcDbEntity
  8
1
  100
AcDbLine
  10
44.901
  20
-0.077317
  30
0
  11
44.9015
  21
-0.077494
  31
0
  0
LINE
  5
1dd
  100
AcDbEntity
  8
1
  100
AcDbLine
  10
44.9015
  20
-0.077494
  30
0
  11
44.902
  21
-0.07767
  31
0
  0
LINE
  5
1de
  100
AcDbEntity
  8
1
  100
AcDbLine
  10
44.902
  20
-0.07767
  30
0
  11
44.9025
  21
-0.077846
  31
0
  0
LINE
  5
1df
  100
AcDbEntity
  8
1
  100
AcDbLine
  10
44.9025
  20
-0.077846
  30
0
  11
44.903
  21
-0.078021
  31
0
  0
LINE
  5
1e0
  100
AcDbEntity
  8
1
  100
AcDbLine
  10
44.903
  20
-0.078021
  30
0
  11
44.9035
  21
-0.078196
  31
0
  0
LINE
  5
1e1
  100
AcDbEntity
  8
1
  100
AcDbLine
  10
44.9035
  20
-0.078196
  30
0
  11
44.904
  21
-0.07837
  31
0
  0
LINE
  5
1e2
  100
AcDbEntity
  8
1
  100
AcDbLine
  10
44.904
  20
-0.07837
  30
0
  11
44.9045
  21
-0.078543
  31
0
  0
LINE
  5
1e3
  100
AcDbEntity
  8
1
  100
AcDbLine
  10
44.9045
  20
-0.078543
  30
0
  11
44.905
  21
-0.078715
  31
0
  0
LINE
  5
1e4
  100
AcDbEntity
  8
1
  100
AcDbLine
  10
44.905
  20
-0.078715
  30
0
  11
44.9055
  21
-0.078887
  31
0
  0
LINE
  5
1e5
  100
AcDbEntity
  8
1
  100
AcDbLine
  10
44.9055
  20
-0.078887
  30
0
  11
44.906
  21
-0.079058
  31
0
  0
LINE
  5
1e6
  100
AcDbEntity
  8
1
  100
AcDbLine
  10
44.906
  20
-0.079058
  30
0
  11
44.9065
  21
-0.079229
  31
0
  0
LINE
  5
1e7
  100
AcDbEntity
  8
1
  100
AcDbLine
  10
44.9065
  20
-0.079229
  30
0
  11
44.907
  21
-0.079399
  31
0
  0
LINE
  5
1e8
  100
AcDbEntity
  8
1
  100
AcDbLine
  10
44.907
  20
-0.079399
  30
0
  11
44.9075
  21
-0.079568
  31
0
  0
LINE
  5
1e9
  100
AcDbEntity
  8
1
  100
AcDbLine
  10
44.9075
  20
-0.079568
  30
0
  11
44.908
  21
-0.079736
  31
0
  0
LINE
  5
1ea
  100
AcDbEntity
  8
1
  100
AcDbLine
  10
44.908
  20
-0.079736
  30
0
  11
44.9085
  21
-0.079904
  31
0
  0
LINE
  5
1eb
  100
AcDbEntity
  8
1
  100
AcDbLine
  10
44.9085
  20
-0.079904
  30
0
  11
44.909
  21
-0.080071
  31
0
  0
LINE
  5
1ec
  100
AcDbEntity
  8
1
  100
AcDbLine
  10
44.909
  20
-0.080071
  30
0
  11
44.9095
  21
-0.080238
  31
0
  0
LINE
  5
1ed
  100
AcDbEntity
  8
1
  100
AcDbLine
  10
44.9095
  20
-0.080238
  30
0
  11
44.91
  21
-0.080404
  31
0
  0
LINE
  5
1ee
  100
AcDbEntity
  8
1
  100
AcDbLine
  10
44.91
  20
-0.080404
  30
0
  11
44.9105
  21
-0.080569
  31
0
  0
LINE
  5
1ef
  100
AcDbEntity
  8
1
  100
AcDbLine
  10
44.9105
  20
-0.080569
  30
0
  11
44.911
  21
-0.080733
  31
0
  0
LINE
  5
1f0
  100
AcDbEntity
  8
1
  100
AcDbLine
  10
44.911
  20
-0.080733
  30
0
  11
44.9115
  21
-0.080897
  31
0
  0
LINE
  5
1f1
  100
AcDbEntity
  8
1
  100
AcDbLine
  10
44.9115
  20
-0.080897
  30
0
  11
44.912
  21
-0.08106
  31
0
  0
LINE
  5
1f2
  100
AcDbEntity
  8
1
  100
AcDbLine
  10
44.912
  20
-0.08106
  30
0
  11
44.9125
  21
-0.081223
  31
0
  0
LINE
  5
1f3
  100
AcDbEntity
  8
1
  100
AcDbLine
  10
44.9125
  20
-0.081223
  30
0
  11
44.913
  21
-0.081385
  31
0
  0
LINE
  5
1f4
  100
AcDbEntity
  8
1
  100
AcDbLine
  10
44.913
  20
-0.081385
  30
0
  11
44.9135
  21
-0.081546
  31
0
  0
LINE
  5
1f5
  100
AcDbEntity
  8
1
  100
AcDbLine
  10
44.9135
  20
-0.081546
  30
0
  11
44.914
  21
-0.081706
  31
0
  0
LINE
  5
1f6
  100
AcDbEntity
  8
1
  100
AcDbLine
  10
44.914
  20
-0.081706
  30
0
  11
44.9145
  21
-0.081866
  31
0
  0
LINE
  5
1f7
  100
AcDbEntity
  8
1
  100
AcDbLine
  10
44.9145
  20
-0.081866
  30
0
  11
44.915
  21
-0.082025
  31
0
  0
LINE
  5
1f8
  100
AcDbEntity
  8
1
  100
AcDbLine
  10
44.915
  20
-0.082025
  30
0
  11
44.9155
  21
-0.082184
  31
0
  0
LINE
  5
1f9
  100
AcDbEntity
  8
1
  100
AcDbLine
  10
44.9155
  20
-0.082184
  30
0
  11
44.916
  21
-0.082341
  31
0
  0
LINE
  5
1fa
  100
AcDbEntity
  8
1
  100
AcDbLine
  10
44.916
  20
-0.082341
  30
0
  11
44.9165
  21
-0.082498
  31
0
  0
LINE
  5
1fb
  100
AcDbEntity
  8
1
  100
AcDbLine
  10
44.9165
  20
-0.082498
  30
0
  11
44.917
  21
-0.082655
  31
0
  0
LINE
  5
1fc
  100
AcDbEntity
  8
1
  100
AcDbLine
  10
44.917
  20
-0.082655
  30
0
  11
44.9175
  21
-0.08281
  31
0
  0
LINE
  5
1fd
  100
AcDbEntity
  8
1
  100
AcDbLine
  10
44.9175
  20
-0.08281
  30
0
  11
44.918
  21
-0.082965
  31
0
  0
LINE
  5
1fe
  100
AcDbEntity
  8
1
  100
AcDbLine
  10
44.918
  20
-0.082965
  30
0
  11
44.9185
  21
-0.08312
  31
0
  0
LINE
  5
1ff
  100
AcDbEntity
  8
1
  100
AcDbLine
  10
44.9185
  20
-0.08312
  30
0
  11
44.919
  21
-0.083273
  31
0
  0
LINE
  5
200
  100
AcDbEntity
  8
1
  100
AcDbLine
  10
44.919
  20
-0.083273
  30
0
  11
44.9195
  21
-0.083426
  31
0
  0
LINE
  5
201
  100
AcDbEntity
  8
1
  100
AcDbLine
  10
44.9195
  20
-0.083426
  30
0
  11
44.92
  21
-0.083578
  31
0
  0
LINE
  5
202
  100
AcDbEntity
  8
1
  100
AcDbLine
  10
44.92
  20
-0.083578
  30
0
  11
44.9205
  21
-0.08373
  31
0
  0
LINE
  5
203
  100
AcDbEntity
  8
1
  100
AcDbLine
  10
44.9205
  20
-0.08373
  30
0
  11
44.921
  21
-0.083881
  31
0
  0
LINE
  5
204
  100
AcDbEntity
  8
1
  100
AcDbLine
  10
44.921
  20
-0.083881
  30
0
  11
44.9215
  21
-0.084031
  31
0
  0
LINE
  5
205
  100
AcDbEntity
  8
1
  100
AcDbLine
  10
44.9215
  20
-0.084031
  30
0
  11
44.922
  21
-0.08418
  31
0
  0
LINE
  5
206
  100
AcDbEntity
  8
1
  100
AcDbLine
  10
44.922
  20
-0.08418
  30
0
  11
44.9225
  21
-0.084329
  31
0
  0
LINE
  5
207
  100
AcDbEntity
  8
1
  100
AcDbLine
  10
44.9225
  20
-0.084329
  30
0
  11
44.923
  21
-0.084477
  31
0
  0
LINE
  5
208
  100
AcDbEntity
  8
1
  100
AcDbLine
  10
44.923
  20
-0.084477
  30
0
  11
44.9235
  21
-0.084624
  31
0
  0
LINE
  5
209
  100
AcDbEntity
  8
1
  100
AcDbLine
  10
44.9235
  20
-0.084624
  30
0
  11
44.924
  21
-0.084771
  31
0
  0
LINE
  5
20a
  100
AcDbEntity
  8
1
  100
AcDbLine
  10
44.924
  20
-0.084771
  30
0
  11
44.9245
  21
-0.084917
  31
0
  0
LINE
  5
20b
  100
AcDbEntity
  8
1
  100
AcDbLine
  10
44.9245
  20
-0.084917
  30
0
  11
44.925
  21
-0.085062
  31
0
  0
LINE
  5
20c
  100
AcDbEntity
  8
1
  100
AcDbLine
  10
44.925
  20
-0.085062
  30
0
  11
44.9255
  21
-0.085207
  31
0
  0
LINE
  5
20d
  100
AcDbEntity
  8
1
  100
AcDbLine
  10
44.9255
  20
-0.085207
  30
0
  11
44.926
  21
-0.08535
  31
0
  0
LINE
  5
20e
  100
AcDbEntity
  8
1
  100
AcDbLine
  10
44.926
  20
-0.08535
  30
0
  11
44.9265
  21
-0.085493
  31
0
  0
LINE
  5
20f
  100
AcDbEntity
  8
1
  100
AcDbLine
  10
44.9265
  20
-0.085493
  30
0
  11
44.927
  21
-0.085636
  31
0
  0
LINE
  5
210
  100
AcDbEntity
  8
1
  100
AcDbLine
  10
44.927
  20
-0.085636
  30
0
  11
44.9275
  21
-0.085777
  31
0
  0
LINE
  5
211
  100
AcDbEntity
  8
1
  100
AcDbLine
  10
44.9275
  20
-0.085777
  30
0
  11
44.928
  21
-0.085918
  31
0
  0
LINE
  5
212
  100
AcDbEntity
  8
1
  100
AcDbLine
  10
44.928
  20
-0.085918
  30
0
  11
44.9285
  21
-0.086058
  31
0
  0
LINE
  5
213
  100
AcDbEntity
  8
1
  100
AcDbLine
  10
44.9285
  20
-0.086058
  30
0
  11
44.929
  21
-0.086198
  31
0
  0
LINE
  5
214
  100
AcDbEntity
  8
1
  100
AcDbLine
  10
44.929
  20
-0.086198
  30
0
  11
44.9295
  21
-0.086337
  31
0
  0
LINE
  5
215
  100
AcDbEntity
  8
1
  100
AcDbLine
  10
44.9295
  20
-0.086337
  30
0
  11
44.93
  21
-0.086475
  31
0
  0
LINE
  5
216
  100
AcDbEntity
  8
1
  100
AcDbLine
  10
44.93
  20
-0.086475
  30
0
  11
44.9305
  21
-0.086612
  31
0
  0
LINE
  5
217
  100
AcDbEntity
  8
1
  100
AcDbLine
  10
44.9305
  20
-0.086612
  30
0
  11
44.931
  21
-0.086749
  31
0
  0
LINE
  5
218
  100
AcDbEntity
  8
1
  100
AcDbLine
  10
44.931
  20
-0.086749
  30
0
  11
44.9315
  21
-0.086885
  31
0
  0
LINE
  5
219
  100
AcDbEntity
  8
1
  100
AcDbLine
  10
44.9315
  20
-0.086885
  30
0
  11
44.932
  21
-0.08702
  31
0
  0
LINE
  5
21a
  100
AcDbEntity
  8
1
  100
AcDbLine
  10
44.932
  20
-0.08702
  30
0
  11
44.9325
  21
-0.087154
  31
0
  0
LINE
  5
21b
  100
AcDbEntity
  8
1
  100
AcDbLine
  10
44.9325
  20
-0.087154
  30
0
  11
44.933
  21
-0.087288
  31
0
  0
LINE
  5
21c
  100
AcDbEntity
  8
1
  100
AcDbLine
  10
44.933
  20
-0.087288
  30
0
  11
44.9335
  21
-0.087421
  31
0
  0
LINE
  5
21d
  100
AcDbEntity
  8
1
  100
AcDbLine
  10
44.9335
  20
-0.087421
  30
0
  11
44.934
  21
-0.087553
  31
0
  0
LINE
  5
21e
  100
AcDbEntity
  8
1
  100
AcDbLine
  10
44.934
  20
-0.087553
  30
0
  11
44.9345
  21
-0.087685
  31
0
  0
LINE
  5
21f
  100
AcDbEntity
  8
1
  100
AcDbLine
  10
44.9345
  20
-0.087685
  30
0
  11
44.935
  21
-0.087815
  31
0
  0
LINE
  5
220
  100
AcDbEntity
  8
1
  100
AcDbLine
  10
44.935
  20
-0.087815
  30
0
  11
44.9355
  21
-0.087945
  31
0
  0
LINE
  5
221
  100
AcDbEntity
  8
1
  100
AcDbLine
  10
44.9355
  20
-0.087945
  30
0
  11
44.936
  21
-0.088075
  31
0
  0
LINE
  5
222
  100
AcDbEntity
  8
1
  100
AcDbLine
  10
44.936
  20
-0.088075
  30
0
  11
44.9365
  21
-0.088203
  31
0
  0
LINE
  5
223
  100
AcDbEntity
  8
1
  100
AcDbLine
  10
44.9365
  20
-0.088203
  30
0
  11
44.937
  21
-0.088331
  31
0
  0
LINE
  5
224
  100
AcDbEntity
  8
1
  100
AcDbLine
  10
44.937
  20
-0.088331
  30
0
  11
44.9375
  21
-0.088458
  31
0
  0
LINE
  5
225
  100
AcDbEntity
  8
1
  100
AcDbLine
  10
44.9375
  20
-0.088458
  30
0
  11
44.938
  21
-0.088585
  31
0
  0
LINE
  5
226
  100
AcDbEntity
  8
1
  100
AcDbLine
  10
44.938
  20
-0.088585
  30
0
  11
44.9385
  21
-0.08871
  31
0
  0
LINE
  5
227
  100
AcDbEntity
  8
1
  100
AcDbLine
  10
44.9385
  20
-0.08871
  30
0
  11
44.939
  21
-0.088835
  31
0
  0
LINE
  5
228
  100
AcDbEntity
  8
1
  100
AcDbLine
  10
44.939
  20
-0.088835
  30
0
  11
44.9395
  21
-0.088959
  31
0
  0
LINE
  5
229
  100
AcDbEntity
  8
1
  100
AcDbLine
  10
44.9395
  20
-0.088959
  30
0
  11
44.94
  21
-0.089083
  31
0
  0
LINE
  5
22a
  100
AcDbEntity
  8
1
  100
AcDbLine
  10
44.94
  20
-0.089083
  30
0
  11
44.9405
  21
-0.089205
  31
0
  0
LINE
  5
22b
  100
AcDbEntity
  8
1
  100
AcDbLine
  10
44.9405
  20
-0.089205
  30
0
  11
44.941
  21
-0.089327
  31
0
  0
LINE
  5
22c
  100
AcDbEntity
  8
1
  100
AcDbLine
  10
44.941
  20
-0.089327
  30
0
  11
44.9415
  21
-0.089449
  31
0
  0
LINE
  5
22d
  100
AcDbEntity
  8
1
  100
AcDbLine
  10
44.9415
  20
-0.089449
  30
0
  11
44.942
  21
-0.089569
  31
0
  0
LINE
  5
22e
  100
AcDbEntity
  8
1
  100
AcDbLine
  10
44.942
  20
-0.089569
  30
0
  11
44.9425
  21
-0.089689
  31
0
  0
LINE
  5
22f
  100
AcDbEntity
  8
1
  100
AcDbLine
  10
44.9425
  20
-0.089689
  30
0
  11
44.943
  21
-0.089808
  31
0
  0
LINE
  5
230
  100
AcDbEntity
  8
1
  100
AcDbLine
  10
44.943
  20
-0.089808
  30
0
  11
44.9435
  21
-0.089926
  31
0
  0
LINE
  5
231
  100
AcDbEntity
  8
1
  100
AcDbLine
  10
44.9435
  20
-0.089926
  30
0
  11
44.944
  21
-0.090043
  31
0
  0
LINE
  5
232
  100
AcDbEntity
  8
1
  100
AcDbLine
  10
44.944
  20
-0.090043
  30
0
  11
44.9445
  21
-0.09016
  31
0
  0
LINE
  5
233
  100
AcDbEntity
  8
1
  100
AcDbLine
  10
44.9445
  20
-0.09016
  30
0
  11
44.945
  21
-0.090276
  31
0
  0
LINE
  5
234
  100
AcDbEntity
  8
1
  100
AcDbLine
  10
44.945
  20
-0.090276
  30
0
  11
44.9455
  21
-0.090391
  31
0
  0
LINE
  5
235
  100
AcDbEntity
  8
1
  100
AcDbLine
  10
44.9455
  20
-0.090391
  30
0
  11
44.946
  21
-0.090506
  31
0
  0
LINE
  5
236
  100
AcDbEntity
  8
1
  100
AcDbLine
  10
44.946
  20
-0.090506
  30
0
  11
44.9465
  21
-0.090619
  31
0
  0
LINE
  5
237
  100
AcDbEntity
  8
1
  100
AcDbLine
  10
44.9465
  20
-0.090619
  30
0
  11
44.947
  21
-0.090732
  31
0
  0
LINE
  5
238
  100
AcDbEntity
  8
1
  100
AcDbLine
  10
44.947
  20
-0.090732
  30
0
  11
44.9475
  21
-0.090844
  31
0
  0
LINE
  5
239
  100
AcDbEntity
  8
1
  100
AcDbLine
  10
44.9475
  20
-0.090844
  30
0
  11
44.948
  21
-0.090956
  31
0
  0
LINE
  5
23a
  100
AcDbEntity
  8
1
  100
AcDbLine
  10
44.948
  20
-0.090956
  30
0
  11
44.9485
  21
-0.091067
  31
0
  0
LINE
  5
23b
  100
AcDbEntity
  8
1
  100
AcDbLine
  10
44.9485
  20
-0.091067
  30
0
  11
44.949
  21
-0.091176
  31
0
  0
LINE
  5
23c
  100
AcDbEntity
  8
1
  100
AcDbLine
  10
44.949
  20
-0.091176
  30
0
  11
44.9495
  21
-0.091286
  31
0
  0
LINE
  5
23d
  100
AcDbEntity
  8
1
  100
AcDbLine
  10
44.9495
  20
-0.091286
  30
0
  11
44.95
  21
-0.091394
  31
0
  0
LINE
  5
23e
  100
AcDbEntity
  8
1
  100
AcDbLine
  10
44.95
  20
-0.091394
  30
0
  11
44.9505
  21
-0.091502
  31
0
  0
LINE
  5
23f
  100
AcDbEntity
  8
1
  100
AcDbLine
  10
44.9505
  20
-0.091502
  30
0
  11
44.951
  21
-0.091608
  31
0
  0
LINE
  5
240
  100
AcDbEntity
  8
1
  100
AcDbLine
  10
44.951
  20
-0.091608
  30
0
  11
44.9515
  21
-0.091715
  31
0
  0
LINE
  5
241
  100
AcDbEntity
  8
1
  100
AcDbLine
  10
44.9515
  20
-0.091715
  30
0
  11
44.952
  21
-0.09182
  31
0
  0
LINE
  5
242
  100
AcDbEntity
  8
1
  100
AcDbLine
  10
44.952
  20
-0.09182
  30
0
  11
44.9525
  21
-0.091924
  31
0
  0
LINE
  5
243
  100
AcDbEntity
  8
1
  100
AcDbLine
  10
44.9525
  20
-0.091924
  30
0
  11
44.953
  21
-0.092028
  31
0
  0
LINE
  5
244
  100
AcDbEntity
  8
1
  100
AcDbLine
  10
44.953
  20
-0.092028
  30
0
  11
44.9535
  21
-0.092131
  31
0
  0
LINE
  5
245
  100
AcDbEntity
  8
1
  100
AcDbLine
  10
44.9535
  20
-0.092131
  30
0
  11
44.954
  21
-0.092234
  31
0
  0
LINE
  5
246
  100
AcDbEntity
  8
1
  100
AcDbLine
  10
44.954
  20
-0.092234
  30
0
  11
44.9545
  21
-0.092335
  31
0
  0
LINE
  5
247
  100
AcDbEntity
  8
1
  100
AcDbLine
  10
44.9545
  20
-0.092335
  30
0
  11
44.955
  21
-0.092436
  31
0
  0
LINE
  5
248
  100
AcDbEntity
  8
1
  100
AcDbLine
  10
44.955
  20
-0.092436
  30
0
  11
44.9555
  21
-0.092536
  31
0
  0
LINE
  5
249
  100
AcDbEntity
  8
1
  100
AcDbLine
  10
44.9555
  20
-0.092536
  30
0
  11
44.956
  21
-0.092635
  31
0
  0
LINE
  5
24a
  100
AcDbEntity
  8
1
  100
AcDbLine
  10
44.956
  20
-0.092635
  30
0
  11
44.9565
  21
-0.092733
  31
0
  0
LINE
  5
24b
  100
AcDbEntity
  8
1
  100
AcDbLine
  10
44.9565
  20
-0.092733
  30
0
  11
44.957
  21
-0.092831
  31
0
  0
LINE
  5
24c
  100
AcDbEntity
  8
1
  100
AcDbLine
  10
44.957
  20
-0.092831
  30
0
  11
44.9575
  21
-0.092928
  31
0
  0
LINE
  5
24d
  100
AcDbEntity
  8
1
  100
AcDbLine
  10
44.9575
  20
-0.092928
  30
0
  11
44.958
  21
-0.093024
  31
0
  0
LINE
  5
24e
  100
AcDbEntity
  8
1
  100
AcDbLine
  10
44.958
  20
-0.093024
  30
0
  11
44.9585
  21
-0.093119
  31
0
  0
LINE
  5
24f
  100
AcDbEntity
  8
1
  100
AcDbLine
  10
44.9585
  20
-0.093119
  30
0
  11
44.959
  21
-0.093214
  31
0
  0
LINE
  5
250
  100
AcDbEntity
  8
1
  100
AcDbLine
  10
44.959
  20
-0.093214
  30
0
  11
44.9595
  21
-0.093308
  31
0
  0
LINE
  5
251
  100
AcDbEntity
  8
1
  100
AcDbLine
  10
44.9595
  20
-0.093308
  30
0
  11
44.96
  21
-0.093401
  31
0
  0
LINE
  5
252
  100
AcDbEntity
  8
1
  100
AcDbLine
  10
44.96
  20
-0.093401
  30
0
  11
44.9605
  21
-0.093493
  31
0
  0
LINE
  5
253
  100
AcDbEntity
  8
1
  100
AcDbLine
  10
44.9605
  20
-0.093493
  30
0
  11
44.961
  21
-0.093584
  31
0
  0
LINE
  5
254
  100
AcDbEntity
  8
1
  100
AcDbLine
  10
44.961
  20
-0.093584
  30
0
  11
44.9615
  21
-0.093675
  31
0
  0
LINE
  5
255
  100
AcDbEntity
  8
1
  100
AcDbLine
  10
44.9615
  20
-0.093675
  30
0
  11
44.962
  21
-0.093765
  31
0
  0
LINE
  5
256
  100
AcDbEntity
  8
1
  100
AcDbLine
  10
44.962
  20
-0.093765
  30
0
  11
44.9625
  21
-0.093854
  31
0
  0
LINE
  5
257
  100
AcDbEntity
  8
1
  100
AcDbLine
  10
44.9625
  20
-0.093854
  30
0
  11
44.963
  21
-0.093942
  31
0
  0
LINE
  5
258
  100
AcDbEntity
  8
1
  100
AcDbLine
  10
44.963
  20
-0.093942
  30
0
  11
44.9635
  21
-0.09403
  31
0
  0
LINE
  5
259
  100
AcDbEntity
  8
1
  100
AcDbLine
  10
44.9635
  20
-0.09403
  30
0
  11
44.964
  21
-0.094116
  31
0
  0
LINE
  5
25a
  100
AcDbEntity
  8
1
  100
AcDbLine
  10
44.964
  20
-0.094116
  30
0
  11
44.9645
  21
-0.094202
  31
0
  0
LINE
  5
25b
  100
AcDbEntity
  8
1
  100
AcDbLine
  10
44.9645
  20
-0.094202
  30
0
  11
44.965
  21
-0.094288
  31
0
  0
LINE
  5
25c
  100
AcDbEntity
  8
1
  100
AcDbLine
  10
44.965
  20
-0.094288
  30
0
  11
44.9655
  21
-0.094372
  31
0
  0
LINE
  5
25d
  100
AcDbEntity
  8
1
  100
AcDbLine
  10
44.9655
  20
-0.094372
  30
0
  11
44.966
  21
-0.094456
  31
0
  0
LINE
  5
25e
  100
AcDbEntity
  8
1
  100
AcDbLine
  10
44.966
  20
-0.094456
  30
0
  11
44.9665
  21
-0.094538
  31
0
  0
LINE
  5
25f
  100
AcDbEntity
  8
1
  100
AcDbLine
  10
44.9665
  20
-0.094538
  30
0
  11
44.967
  21
-0.09462
  31
0
  0
LINE
  5
260
  100
AcDbEntity
  8
1
  100
AcDbLine
  10
44.967
  20
-0.09462
  30
0
  11
44.9675
  21
-0.094702
  31
0
  0
LINE
  5
261
  100
AcDbEntity
  8
1
  100
AcDbLine
  10
44.9675
  20
-0.094702
  30
0
  11
44.968
  21
-0.094782
  31
0
  0
LINE
  5
262
  100
AcDbEntity
  8
1
  100
AcDbLine
  10
44.968
  20
-0.094782
  30
0
  11
44.9685
  21
-0.094862
  31
0
  0
LINE
  5
263
  100
AcDbEntity
  8
1
  100
AcDbLine
  10
44.9685
  20
-0.094862
  30
0
  11
44.969
  21
-0.094941
  31
0
  0
LINE
  5
264
  100
AcDbEntity
  8
1
  100
AcDbLine
  10
44.969
  20
-0.094941
  30
0
  11
44.9695
  21
-0.095019
  31
0
  0
LINE
  5
265
  100
AcDbEntity
  8
1
  100
AcDbLine
  10
44.9695
  20
-0.095019
  30
0
  11
44.97
  21
-0.095096
  31
0
  0
LINE
  5
266
  100
AcDbEntity
  8
1
  100
AcDbLine
  10
44.97
  20
-0.095096
  30
0
  11
44.9705
  21
-0.095173
  31
0
  0
LINE
  5
267
  100
AcDbEntity
  8
1
  100
AcDbLine
  10
44.9705
  20
-0.095173
  30
0
  11
44.971
  21
-0.095248
  31
0
  0
LINE
  5
268
  100
AcDbEntity
  8
1
  100
AcDbLine
  10
44.971
  20
-0.095248
  30
0
  11
44.9715
  21
-0.095323
  31
0
  0
LINE
  5
269
  100
AcDbEntity
  8
1
  100
AcDbLine
  10
44.9715
  20
-0.095323
  30
0
  11
44.972
  21
-0.095397
  31
0
  0
LINE
  5
26a
  100
AcDbEntity
  8
1
  100
AcDbLine
  10
44.972
  20
-0.095397
  30
0
  11
44.9725
  21
-0.095471
  31
0
  0
LINE
  5
26b
  100
AcDbEntity
  8
1
  100
AcDbLine
  10
44.9725
  20
-0.095471
  30
0
  11
44.973
  21
-0.095543
  31
0
  0
LINE
  5
26c
  100
AcDbEntity
  8
1
  100
AcDbLine
  10
44.973
  20
-0.095543
  30
0
  11
44.9735
  21
-0.095615
  31
0
  0
LINE
  5
26d
  100
AcDbEntity
  8
1
  100
AcDbLine
  10
44.9735
  20
-0.095615
  30
0
  11
44.974
  21
-0.095686
  31
0
  0
LINE
  5
26e
  100
AcDbEntity
  8
1
  100
AcDbLine
  10
44.974
  20
-0.095686
  30
0
  11
44.9745
  21
-0.095756
  31
0
  0
LINE
  5
26f
  100
AcDbEntity
  8
1
  100
AcDbLine
  10
44.9745
  20
-0.095756
  30
0
  11
44.975
  21
-0.095825
  31
0
  0
LINE
  5
270
  100
AcDbEntity
  8
1
  100
AcDbLine
  10
44.975
  20
-0.095825
  30
0
  11
44.9755
  21
-0.095894
  31
0
  0
LINE
  5
271
  100
AcDbEntity
  8
1
  100
AcDbLine
  10
44.9755
  20
-0.095894
  30
0
  11
44.976
  21
-0.095961
  31
0
  0
LINE
  5
272
  100
AcDbEntity
  8
1
  100
AcDbLine
  10
44.976
  20
-0.095961
  30
0
  11
44.9765
  21
-0.096028
  31
0
  0
LINE
  5
273
  100
AcDbEntity
  8
1
  100
AcDbLine
  10
44.9765
  20
-0.096028
  30
0
  11
44.977
  21
-0.096095
  31
0
  0
LINE
  5
274
  100
AcDbEntity
  8
1
  100
AcDbLine
  10
44.977
  20
-0.096095
  30
0
  11
44.9775
  21
-0.09616
  31
0
  0
LINE
  5
275
  100
AcDbEntity
  8
1
  100
AcDbLine
  10
44.9775
  20
-0.09616
  30
0
  11
44.978
  21
-0.096224
  31
0
  0
LINE
  5
276
  100
AcDbEntity
  8
1
  100
AcDbLine
  10
44.978
  20
-0.096224
  30
0
  11
44.9785
  21
-0.096288
  31
0
  0
LINE
  5
277
  100
AcDbEntity
  8
1
  100
AcDbLine
  10
44.9785
  20
-0.096288
  30
0
  11
44.979
  21
-0.096351
  31
0
  0
LINE
  5
278
  100
AcDbEntity
  8
1
  100
AcDbLine
  10
44.979
  20
-0.096351
  30
0
  11
44.9795
  21
-0.096413
  31
0
  0
LINE
  5
279
  100
AcDbEntity
  8
1
  100
AcDbLine
  10
44.9795
  20
-0.096413
  30
0
  11
44.98
  21
-0.096475
  31
0
  0
LINE
  5
27a
  100
AcDbEntity
  8
1
  100
AcDbLine
  10
44.98
  20
-0.096475
  30
0
  11
44.9805
  21
-0.096529
  31
0
  0
LINE
  5
27b
  100
AcDbEntity
  8
1
  100
AcDbLine
  10
44.9805
  20
-0.096529
  30
0
  11
44.981
  21
-0.096569
  31
0
  0
LINE
  5
27c
  100
AcDbEntity
  8
1
  100
AcDbLine
  10
44.981
  20
-0.096569
  30
0
  11
44.9815
  21
-0.096596
  31
0
  0
LINE
  5
27d
  100
AcDbEntity
  8
1
  100
AcDbLine
  10
44.9815
  20
-0.096596
  30
0
  11
44.982
  21
-0.096609
  31
0
  0
LINE
  5
27e
  100
AcDbEntity
  8
1
  100
AcDbLine
  10
44.982
  20
-0.096609
  30
0
  11
44.9825
  21
-0.096609
  31
0
  0
LINE
  5
27f
  100
AcDbEntity
  8
1
  100
AcDbLine
  10
44.9825
  20
-0.096609
  30
0
  11
44.983
  21
-0.096594
  31
0
  0
LINE
  5
280
  100
AcDbEntity
  8
1
  100
AcDbLine
  10
44.983
  20
-0.096594
  30
0
  11
44.9835
  21
-0.096566
  31
0
  0
LINE
  5
281
  100
AcDbEntity
  8
1
  100
AcDbLine
  10
44.9835
  20
-0.096566
  30
0
  11
44.984
  21
-0.096523
  31
0
  0
LINE
  5
282
  100
AcDbEntity
  8
1
  100
AcDbLine
  10
44.984
  20
-0.096523
  30
0
  11
44.9845
  21
-0.096466
  31
0
  0
LINE
  5
283
  100
AcDbEntity
  8
1
  100
AcDbLine
  10
44.9845
  20
-0.096466
  30
0
  11
44.985
  21
-0.096394
  31
0
  0
LINE
  5
284
  100
AcDbEntity
  8
1
  100
AcDbLine
  10
44.985
  20
-0.096394
  30
0
  11
44.9855
  21
-0.096308
  31
0
  0
LINE
  5
285
  100
AcDbEntity
  8
1
  100
AcDbLine
  10
44.9855
  20
-0.096308
  30
0
  11
44.986
  21
-0.096206
  31
0
  0
LINE
  5
286
  100
AcDbEntity
  8
1
  100
AcDbLine
  10
44.986
  20
-0.096206
  30
0
  11
44.9865
  21
-0.096089
  31
0
  0
LINE
  5
287
  100
AcDbEntity
  8
1
  100
AcDbLine
  10
44.9865
  20
-0.096089
  30
0
  11
44.987
  21
-0.095956
  31
0
  0
LINE
  5
288
  100
AcDbEntity
  8
1
  100
AcDbLine
  10
44.987
  20
-0.095956
  30
0
  11
44.9875
  21
-0.095807
  31
0
  0
LINE
  5
289
  100
AcDbEntity
  8
1
  100
AcDbLine
  10
44.9875
  20
-0.095807
  30
0
  11
44.988
  21
-0.095641
  31
0
  0
LINE
  5
28a
  100
AcDbEntity
  8
1
  100
AcDbLine
  10
44.988
  20
-0.095641
  30
0
  11
44.9885
  21
-0.095457
  31
0
  0
LINE
  5
28b
  100
AcDbEntity
  8
1
  100
AcDbLine
  10
44.9885
  20
-0.095457
  30
0
  11
44.989
  21
-0.095256
  31
0
  0
LINE
  5
28c
  100
AcDbEntity
  8
1
  100
AcDbLine
  10
44.989
  20
-0.095256
  30
0
  11
44.9895
  21
-0.095036
  31
0
  0
LINE
  5
28d
  100
AcDbEntity
  8
1
  100
AcDbLine
  10
44.9895
  20
-0.095036
  30
0
  11
44.99
  21
-0.094796
  31
0
  0
LINE
  5
28e
  100
AcDbEntity
  8
1
  100
AcDbLine
  10
44.99
  20
-0.094796
  30
0
  11
44.9905
  21
-0.094537
  31
0
  0
LINE
  5
28f
  100
AcDbEntity
  8
1
  100
AcDbLine
  10
44.9905
  20
-0.094537
  30
0
  11
44.991
  21
-0.094255
  31
0
  0
LINE
  5
290
  100
AcDbEntity
  8
1
  100
AcDbLine
  10
44.991
  20
-0.094255
  30
0
  11
44.9915
  21
-0.093951
  31
0
  0
LINE
  5
291
  100
AcDbEntity
  8
1
  100
AcDbLine
  10
44.9915
  20
-0.093951
  30
0
  11
44.992
  21
-0.093624
  31
0
  0
LINE
  5
292
  100
AcDbEntity
  8
1
  100
AcDbLine
  10
44.992
  20
-0.093624
  30
0
  11
44.9925
  21
-0.09327
  31
0
  0
LINE
  5
293
  100
AcDbEntity
  8
1
  100
AcDbLine
  10
44.9925
  20
-0.09327
  30
0
  11
44.993
  21
-0.092889
  31
0
  0
LINE
  5
294
  100
AcDbEntity
  8
1
  100
AcDbLine
  10
44.993
  20
-0.092889
  30
0
  11
44.9935
  21
-0.092478
  31
0
  0
LINE
  5
295
  100
AcDbEntity
  8
1
  100
AcDbLine
  10
44.9935
  20
-0.092478
  30
0
  11
44.994
  21
-0.092035
  31
0
  0
LINE
  5
296
  100
AcDbEntity
  8
1
  100
AcDbLine
  10
44.994
  20
-0.092035
  30
0
  11
44.9945
  21
-0.091556
  31
0
  0
LINE
  5
297
  100
AcDbEntity
  8
1
  100
AcDbLine
  10
44.9945
  20
-0.091556
  30
0
  11
44.995
  21
-0.091038
  31
0
  0
LINE
  5
298
  100
AcDbEntity
  8
1
  100
AcDbLine
  10
44.995
  20
-0.091038
  30
0
  11
44.9955
  21
-0.090474
  31
0
  0
LINE
  5
299
  100
AcDbEntity
  8
1
  100
AcDbLine
  10
44.9955
  20
-0.090474
  30
0
  11
44.996
  21
-0.089859
  31
0
  0
LINE
  5
29a
  100
AcDbEntity
  8
1
  100
AcDbLine
  10
44.996
  20
-0.089859
  30
0
  11
44.9965
  21
-0.089185
  31
0
  0
LINE
  5
29b
  100
AcDbEntity
  8
1
  100
AcDbLine
  10
44.9965
  20
-0.089185
  30
0
  11
44.997
  21
-0.088438
  31
0
  0
LINE
  5
29c
  100
AcDbEntity
  8
1
  100
AcDbLine
  10
44.997
  20
-0.088438
  30
0
  11
44.9975
  21
-0.087603
  31
0
  0
LINE
  5
29d
  100
AcDbEntity
  8
1
  100
AcDbLine
  10
44.9975
  20
-0.087603
  30
0
  11
44.998
  21
-0.086654
  31
0
  0
LINE
  5
29e
  100
AcDbEntity
  8
1
  100
AcDbLine
  10
44.998
  20
-0.086654
  30
0
  11
44.9985
  21
-0.085546
  31
0
  0
LINE
  5
29f
  100
AcDbEntity
  8
1
  100
AcDbLine
  10
44.9985
  20
-0.085546
  30
0
  11
44.999
  21
-0.084197
  31
0
  0
LINE
  5
2a0
  100
AcDbEntity
  8
1
  100
AcDbLine
  10
44.999
  20
-0.084197
  30
0
  11
44.9995
  21
-0.082389
  31
0
  0
LINE
  5
2a1
  100
AcDbEntity
  8
1
  100
AcDbLine
  10
44.9995
  20
-0.082389
  30
0
  11
44.999938
  21
-0.078428
  31
0
  0
LINE
  5
2a2
  100
AcDbEntity
  8
1
  100
AcDbLine
  10
44.999938
  20
-0.078428
  30
0
  11
45
  21
-0.077868
  31
0
  0
LINE
  5
2a3
  100
AcDbEntity
  8
1
  100
AcDbLine
  10
45
  20
-0.071483
  30
0
  11
44.9995
  21
-0.076859
  31
0
  0
LINE
  5
2a4
  100
AcDbEntity
  8
1
  100
AcDbLine
  10
44.9995
  20
-0.076859
  30
0
  11
44.999
  21
-0.078934
  31
0
  0
LINE
  5
2a5
  100
AcDbEntity
  8
1
  100
AcDbLine
  10
44.999
  20
-0.078934
  30
0
  11
44.9985
  21
-0.080456
  31
0
  0
LINE
  5
2a6
  100
AcDbEntity
  8
1
  100
AcDbLine
  10
44.9985
  20
-0.080456
  30
0
  11
44.998
  21
-0.081687
  31
0
  0
LINE
  5
2a7
  100
AcDbEntity
  8
1
  100
AcDbLine
  10
44.998
  20
-0.081687
  30
0
  11
44.9975
  21
-0.082729
  31
0
  0
LINE
  5
2a8
  100
AcDbEntity
  8
1
  100
AcDbLine
  10
44.9975
  20
-0.082729
  30
0
  11
44.997
  21
-0.083635
  31
0
  0
LINE
  5
2a9
  100
AcDbEntity
  8
1
  100
AcDbLine
  10
44.997
  20
-0.083635
  30
0
  11
44.9965
  21
-0.084437
  31
0
  0
LINE
  5
2aa
  100
AcDbEntity
  8
1
  100
AcDbLine
  10
44.9965
  20
-0.084437
  30
0
  11
44.996
  21
-0.085154
  31
0
  0
LINE
  5
2ab
  100
AcDbEntity
  8
1
  100
AcDbLine
  10
44.996
  20
-0.085154
  30
0
  11
44.9955
  21
-0.085801
  31
0
  0
LINE
  5
2ac
  100
AcDbEntity
  8
1
  100
AcDbLine
  10
44.9955
  20
-0.085801
  30
0
  11
44.995
  21
-0.086387
  31
0
  0
LINE
  5
2ad
  100
AcDbEntity
  8
1
  100
AcDbLine
  10
44.995
  20
-0.086387
  30
0
  11
44.9945
  21
-0.086922
  31
0
  0
LINE
  5
2ae
  100
AcDbEntity
  8
1
  100
AcDbLine
  10
44.9945
  20
-0.086922
  30
0
  11
44.994
  21
-0.087411
  31
0
  0
LINE
  5
2af
  100
AcDbEntity
  8
1
  100
AcDbLine
  10
44.994
  20
-0.087411
  30
0
  11
44.9935
  21
-0.087858
  31
0
  0
LINE
  5
2b0
  100
AcDbEntity
  8
1
  100
AcDbLine
  10
44.9935
  20
-0.087858
  30
0
  11
44.993
  21
-0.088268
  31
0
  0
LINE
  5
2b1
  100
AcDbEntity
  8
1
  100
AcDbLine
  10
44.993
  20
-0.088268
  30
0
  11
44.9925
  21
-0.088644
  31
0
  0
LINE
  5
2b2
  100
AcDbEntity
  8
1
  100
AcDbLine
  10
44.9925
  20
-0.088644
  30
0
  11
44.992
  21
-0.088988
  31
0
  0
LINE
  5
2b3
  100
AcDbEntity
  8
1
  100
AcDbLine
  10
44.992
  20
-0.088988
  30
0
  11
44.9915
  21
-0.089303
  31
0
  0
LINE
  5
2b4
  100
AcDbEntity
  8
1
  100
AcDbLine
  10
44.9915
  20
-0.089303
  30
0
  11
44.991
  21
-0.089591
  31
0
  0
LINE
  5
2b5
  100
AcDbEntity
  8
1
  100
AcDbLine
  10
44.991
  20
-0.089591
  30
0
  11
44.9905
  21
-0.089854
  31
0
  0
LINE
  5
2b6
  100
AcDbEntity
  8
1
  100
AcDbLine
  10
44.9905
  20
-0.089854
  30
0
  11
44.99
  21
-0.090092
  31
0
  0
LINE
  5
2b7
  100
AcDbEntity
  8
1
  100
AcDbLine
  10
44.99
  20
-0.090092
  30
0
  11
44.9895
  21
-0.090307
  31
0
  0
LINE
  5
2b8
  100
AcDbEntity
  8
1
  100
AcDbLine
  10
44.9895
  20
-0.090307
  30
0
  11
44.989
  21
-0.0905
  31
0
  0
LINE
  5
2b9
  100
AcDbEntity
  8
1
  100
AcDbLine
  10
44.989
  20
-0.0905
  30
0
  11
44.9885
  21
-0.090672
  31
0
  0
LINE
  5
2ba
  100
AcDbEntity
  8
1
  100
AcDbLine
  10
44.9885
  20
-0.090672
  30
0
  11
44.988
  21
-0.090824
  31
0
  0
LINE
  5
2bb
  100
AcDbEntity
  8
1
  100
AcDbLine
  10
44.988
  20
-0.090824
  30
0
  11
44.9875
  21
-0.090956
  31
0
  0
LINE
  5
2bc
  100
AcDbEntity
  8
1
  100
AcDbLine
  10
44.9875
  20
-0.090956
  30
0
  11
44.987
  21
-0.09107
  31
0
  0
LINE
  5
2bd
  100
AcDbEntity
  8
1
  100
AcDbLine
  10
44.987
  20
-0.09107
  30
0
  11
44.9865
  21
-0.091166
  31
0
  0
LINE
  5
2be
  100
AcDbEntity
  8
1
  100
AcDbLine
  10
44.9865
  20
-0.091166
  30
0
  11
44.986
  21
-0.091244
  31
0
  0
LINE
  5
2bf
  100
AcDbEntity
  8
1
  100
AcDbLine
  10
44.986
  20
-0.091244
  30
0
  11
44.9855
  21
-0.091304
  31
0
  0
LINE
  5
2c0
  100
AcDbEntity
  8
1
  100
AcDbLine
  10
44.9855
  20
-0.091304
  30
0
  11
44.985
  21
-0.091348
  31
0
  0
LINE
  5
2c1
  100
AcDbEntity
  8
1
  100
AcDbLine
  10
44.985
  20
-0.091348
  30
0
  11
44.9845
  21
-0.091375
  31
0
  0
LINE
  5
2c2
  100
AcDbEntity
  8
1
  100
AcDbLine
  10
44.9845
  20
-0.091375
  30
0
  11
44.984
  21
-0.091386
  31
0
  0
LINE
  5
2c3
  100
AcDbEntity
  8
1
  100
AcDbLine
  10
44.984
  20
-0.091386
  30
0
  11
44.9835
  21
-0.091381
  31
0
  0
LINE
  5
2c4
  100
AcDbEntity
  8
1
  100
AcDbLine
  10
44.9835
  20
-0.091381
  30
0
  11
44.983
  21
-0.09136
  31
0
  0
LINE
  5
2c5
  100
AcDbEntity
  8
1
  100
AcDbLine
  10
44.983
  20
-0.09136
  30
0
  11
44.9825
  21
-0.091324
  31
0
  0
LINE
  5
2c6
  100
AcDbEntity
  8
1
  100
AcDbLine
  10
44.9825
  20
-0.091324
  30
0
  11
44.982
  21
-0.091272
  31
0
  0
LINE
  5
2c7
  100
AcDbEntity
  8
1
  100
AcDbLine
  10
44.982
  20
-0.091272
  30
0
  11
44.9815
  21
-0.091205
  31
0
  0
LINE
  5
2c8
  100
AcDbEntity
  8
1
  100
AcDbLine
  10
44.9815
  20
-0.091205
  30
0
  11
44.981
  21
-0.091122
  31
0
  0
LINE
  5
2c9
  100
AcDbEntity
  8
1
  100
AcDbLine
  10
44.981
  20
-0.091122
  30
0
  11
44.9805
  21
-0.091025
  31
0
  0
LINE
  5
2ca
  100
AcDbEntity
  8
1
  100
AcDbLine
  10
44.9805
  20
-0.091025
  30
0
  11
44.98
  21
-0.090912
  31
0
  0
LINE
  5
2cb
  100
AcDbEntity
  8
1
  100
AcDbLine
  10
44.98
  20
-0.090912
  30
0
  11
44.9795
  21
-0.090791
  31
0
  0
LINE
  5
2cc
  100
AcDbEntity
  8
1
  100
AcDbLine
  10
44.9795
  20
-0.090791
  30
0
  11
44.979
  21
-0.09067
  31
0
  0
LINE
  5
2cd
  100
AcDbEntity
  8
1
  100
AcDbLine
  10
44.979
  20
-0.09067
  30
0
  11
44.9785
  21
-0.090548
  31
0
  0
LINE
  5
2ce
  100
AcDbEntity
  8
1
  100
AcDbLine
  10
44.9785
  20
-0.090548
  30
0
  11
44.978
  21
-0.090425
  31
0
  0
LINE
  5
2cf
  100
AcDbEntity
  8
1
  100
AcDbLine
  10
44.978
  20
-0.090425
  30
0
  11
44.9775
  21
-0.090301
  31
0
  0
LINE
  5
2d0
  100
AcDbEntity
  8
1
  100
AcDbLine
  10
44.9775
  20
-0.090301
  30
0
  11
44.977
  21
-0.090177
  31
0
  0
LINE
  5
2d1
  100
AcDbEntity
  8
1
  100
AcDbLine
  10
44.977
  20
-0.090177
  30
0
  11
44.9765
  21
-0.090052
  31
0
  0
LINE
  5
2d2
  100
AcDbEntity
  8
1
  100
AcDbLine
  10
44.9765
  20
-0.090052
  30
0
  11
44.976
  21
-0.089926
  31
0
  0
LINE
  5
2d3
  100
AcDbEntity
  8
1
  100
AcDbLine
  10
44.976
  20
-0.089926
  30
0
  11
44.9755
  21
-0.089799
  31
0
  0
LINE
  5
2d4
  100
AcDbEntity
  8
1
  100
AcDbLine
  10
44.9755
  20
-0.089799
  30
0
  11
44.975
  21
-0.089672
  31
0
  0
LINE
  5
2d5
  100
AcDbEntity
  8
1
  100
AcDbLine
  10
44.975
  20
-0.089672
  30
0
  11
44.9745
  21
-0.089544
  31
0
  0
LINE
  5
2d6
  100
AcDbEntity
  8
1
  100
AcDbLine
  10
44.9745
  20
-0.089544
  30
0
  11
44.974
  21
-0.089415
  31
0
  0
LINE
  5
2d7
  100
AcDbEntity
  8
1
  100
AcDbLine
  10
44.974
  20
-0.089415
  30
0
  11
44.9735
  21
-0.089285
  31
0
  0
LINE
  5
2d8
  100
AcDbEntity
  8
1
  100
AcDbLine
  10
44.9735
  20
-0.089285
  30
0
  11
44.973
  21
-0.089155
  31
0
  0
LINE
  5
2d9
  100
AcDbEntity
  8
1
  100
AcDbLine
  10
44.973
  20
-0.089155
  30
0
  11
44.9725
  21
-0.089024
  31
0
  0
LINE
  5
2da
  100
AcDbEntity
  8
1
  100
AcDbLine
  10
44.9725
  20
-0.089024
  30
0
  11
44.972
  21
-0.088892
  31
0
  0
LINE
  5
2db
  100
AcDbEntity
  8
1
  100
AcDbLine
  10
44.972
  20
-0.088892
  30
0
  11
44.9715
  21
-0.088759
  31
0
  0
LINE
  5
2dc
  100
AcDbEntity
  8
1
  100
AcDbLine
  10
44.9715
  20
-0.088759
  30
0
  11
44.971
  21
-0.088626
  31
0
  0
LINE
  5
2dd
  100
AcDbEntity
  8
1
  100
AcDbLine
  10
44.971
  20
-0.088626
  30
0
  11
44.9705
  21
-0.088492
  31
0
  0
LINE
  5
2de
  100
AcDbEntity
  8
1
  100
AcDbLine
  10
44.9705
  20
-0.088492
  30
0
  11
44.97
  21
-0.088357
  31
0
  0
LINE
  5
2df
  100
AcDbEntity
  8
1
  100
AcDbLine
  10
44.97
  20
-0.088357
  30
0
  11
44.9695
  21
-0.088221
  31
0
  0
LINE
  5
2e0
  100
AcDbEntity
  8
1
  100
AcDbLine
  10
44.9695
  20
-0.088221
  30
0
  11
44.969
  21
-0.088085
  31
0
  0
LINE
  5
2e1
  100
AcDbEntity
  8
1
  100
AcDbLine
  10
44.969
  20
-0.088085
  30
0
  11
44.9685
  21
-0.087948
  31
0
  0
LINE
  5
2e2
  100
AcDbEntity
  8
1
  100
AcDbLine
  10
44.9685
  20
-0.087948
  30
0
  11
44.968
  21
-0.08781
  31
0
  0
LINE
  5
2e3
  100
AcDbEntity
  8
1
  100
AcDbLine
  10
44.968
  20
-0.08781
  30
0
  11
44.9675
  21
-0.087672
  31
0
  0
LINE
  5
2e4
  100
AcDbEntity
  8
1
  100
AcDbLine
  10
44.9675
  20
-0.087672
  30
0
  11
44.967
  21
-0.087533
  31
0
  0
LINE
  5
2e5
  100
AcDbEntity
  8
1
  100
AcDbLine
  10
44.967
  20
-0.087533
  30
0
  11
44.9665
  21
-0.087393
  31
0
  0
LINE
  5
2e6
  100
AcDbEntity
  8
1
  100
AcDbLine
  10
44.9665
  20
-0.087393
  30
0
  11
44.966
  21
-0.087252
  31
0
  0
LINE
  5
2e7
  100
AcDbEntity
  8
1
  100
AcDbLine
  10
44.966
  20
-0.087252
  30
0
  11
44.9655
  21
-0.087111
  31
0
  0
LINE
  5
2e8
  100
AcDbEntity
  8
1
  100
AcDbLine
  10
44.9655
  20
-0.087111
  30
0
  11
44.965
  21
-0.086969
  31
0
  0
LINE
  5
2e9
  100
AcDbEntity
  8
1
  100
AcDbLine
  10
44.965
  20
-0.086969
  30
0
  11
44.9645
  21
-0.086826
  31
0
  0
LINE
  5
2ea
  100
AcDbEntity
  8
1
  100
AcDbLine
  10
44.9645
  20
-0.086826
  30
0
  11
44.964
  21
-0.086682
  31
0
  0
LINE
  5
2eb
  100
AcDbEntity
  8
1
  100
AcDbLine
  10
44.964
  20
-0.086682
  30
0
  11
44.9635
  21
-0.086538
  31
0
  0
LINE
  5
2ec
  100
AcDbEntity
  8
1
  100
AcDbLine
  10
44.9635
  20
-0.086538
  30
0
  11
44.963
  21
-0.086393
  31
0
  0
LINE
  5
2ed
  100
AcDbEntity
  8
1
  100
AcDbLine
  10
44.963
  20
-0.086393
  30
0
  11
44.9625
  21
-0.086247
  31
0
  0
LINE
  5
2ee
  100
AcDbEntity
  8
1
  100
AcDbLine
  10
44.9625
  20
-0.086247
  30
0
  11
44.962
  21
-0.086101
  31
0
  0
LINE
  5
2ef
  100
AcDbEntity
  8
1
  100
AcDbLine
  10
44.962
  20
-0.086101
  30
0
  11
44.9615
  21
-0.085953
  31
0
  0
LINE
  5
2f0
  100
AcDbEntity
  8
1
  100
AcDbLine
  10
44.9615
  20
-0.085953
  30
0
  11
44.961
  21
-0.085806
  31
0
  0
LINE
  5
2f1
  100
AcDbEntity
  8
1
  100
AcDbLine
  10
44.961
  20
-0.085806
  30
0
  11
44.9605
  21
-0.085657
  31
0
  0
LINE
  5
2f2
  100
AcDbEntity
  8
1
  100
AcDbLine
  10
44.9605
  20
-0.085657
  30
0
  11
44.96
  21
-0.085508
  31
0
  0
LINE
  5
2f3
  100
AcDbEntity
  8
1
  100
AcDbLine
  10
44.96
  20
-0.085508
  30
0
  11
44.9595
  21
-0.085358
  31
0
  0
LINE
  5
2f4
  100
AcDbEntity
  8
1
  100
AcDbLine
  10
44.9595
  20
-0.085358
  30
0
  11
44.959
  21
-0.085207
  31
0
  0
LINE
  5
2f5
  100
AcDbEntity
  8
1
  100
AcDbLine
  10
44.959
  20
-0.085207
  30
0
  11
44.9585
  21
-0.085055
  31
0
  0
LINE
  5
2f6
  100
AcDbEntity
  8
1
  100
AcDbLine
  10
44.9585
  20
-0.085055
  30
0
  11
44.958
  21
-0.084903
  31
0
  0
LINE
  5
2f7
  100
AcDbEntity
  8
1
  100
AcDbLine
  10
44.958
  20
-0.084903
  30
0
  11
44.9575
  21
-0.08475
  31
0
  0
LINE
  5
2f8
  100
AcDbEntity
  8
1
  100
AcDbLine
  10
44.9575
  20
-0.08475
  30
0
  11
44.957
  21
-0.084597
  31
0
  0
LINE
  5
2f9
  100
AcDbEntity
  8
1
  100
AcDbLine
  10
44.957
  20
-0.084597
  30
0
  11
44.9565
  21
-0.084442
  31
0
  0
LINE
  5
2fa
  100
AcDbEntity
  8
1
  100
AcDbLine
  10
44.9565
  20
-0.084442
  30
0
  11
44.956
  21
-0.084287
  31
0
  0
LINE
  5
2fb
  100
AcDbEntity
  8
1
  100
AcDbLine
  10
44.956
  20
-0.084287
  30
0
  11
44.9555
  21
-0.084132
  31
0
  0
LINE
  5
2fc
  100
AcDbEntity
  8
1
  100
AcDbLine
  10
44.9555
  20
-0.084132
  30
0
  11
44.955
  21
-0.083975
  31
0
  0
LINE
  5
2fd
  100
AcDbEntity
  8
1
  100
AcDbLine
  10
44.955
  20
-0.083975
  30
0
  11
44.9545
  21
-0.083818
  31
0
  0
LINE
  5
2fe
  100
AcDbEntity
  8
1
  100
AcDbLine
  10
44.9545
  20
-0.083818
  30
0
  11
44.954
  21
-0.08366
  31
0
  0
LINE
  5
2ff
  100
AcDbEntity
  8
1
  100
AcDbLine
  10
44.954
  20
-0.08366
  30
0
  11
44.9535
  21
-0.083502
  31
0
  0
LINE
  5
300
  100
AcDbEntity
  8
1
  100
AcDbLine
  10
44.9535
  20
-0.083502
  30
0
  11
44.953
  21
-0.083343
  31
0
  0
LINE
  5
301
  100
AcDbEntity
  8
1
  100
AcDbLine
  10
44.953
  20
-0.083343
  30
0
  11
44.9525
  21
-0.083183
  31
0
  0
LINE
  5
302
  100
AcDbEntity
  8
1
  100
AcDbLine
  10
44.9525
  20
-0.083183
  30
0
  11
44.952
  21
-0.083022
  31
0
  0
LINE
  5
303
  100
AcDbEntity
  8
1
  100
AcDbLine
  10
44.952
  20
-0.083022
  30
0
  11
44.9515
  21
-0.082861
  31
0
  0
LINE
  5
304
  100
AcDbEntity
  8
1
  100
AcDbLine
  10
44.9515
  20
-0.082861
  30
0
  11
44.951
  21
-0.082699
  31
0
  0
LINE
  5
305
  100
AcDbEntity
  8
1
  100
AcDbLine
  10
44.951
  20
-0.082699
  30
0
  11
44.9505
  21
-0.082537
  31
0
  0
LINE
  5
306
  100
AcDbEntity
  8
1
  100
AcDbLine
  10
44.9505
  20
-0.082537
  30
0
  11
44.95
  21
-0.082373
  31
0
  0
LINE
  5
307
  100
AcDbEntity
  8
1
  100
AcDbLine
  10
44.95
  20
-0.082373
  30
0
  11
44.9495
  21
-0.082209
  31
0
  0
LINE
  5
308
  100
AcDbEntity
  8
1
  100
AcDbLine
  10
44.9495
  20
-0.082209
  30
0
  11
44.949
  21
-0.082044
  31
0
  0
LINE
  5
309
  100
AcDbEntity
  8
1
  100
AcDbLine
  10
44.949
  20
-0.082044
  30
0
  11
44.9485
  21
-0.081879
  31
0
  0
LINE
  5
30a
  100
AcDbEntity
  8
1
  100
AcDbLine
  10
44.9485
  20
-0.081879
  30
0
  11
44.948
  21
-0.081713
  31
0
  0
LINE
  5
30b
  100
AcDbEntity
  8
1
  100
AcDbLine
  10
44.948
  20
-0.081713
  30
0
  11
44.9475
  21
-0.081546
  31
0
  0
LINE
  5
30c
  100
AcDbEntity
  8
1
  100
AcDbLine
  10
44.9475
  20
-0.081546
  30
0
  11
44.947
  21
-0.081379
  31
0
  0
LINE
  5
30d
  100
AcDbEntity
  8
1
  100
AcDbLine
  10
44.947
  20
-0.081379
  30
0
  11
44.9465
  21
-0.081211
  31
0
  0
LINE
  5
30e
  100
AcDbEntity
  8
1
  100
AcDbLine
  10
44.9465
  20
-0.081211
  30
0
  11
44.946
  21
-0.081042
  31
0
  0
LINE
  5
30f
  100
AcDbEntity
  8
1
  100
AcDbLine
  10
44.946
  20
-0.081042
  30
0
  11
44.9455
  21
-0.080872
  31
0
  0
LINE
  5
310
  100
AcDbEntity
  8
1
  100
AcDbLine
  10
44.9455
  20
-0.080872
  30
0
  11
44.945
  21
-0.080702
  31
0
  0
LINE
  5
311
  100
AcDbEntity
  8
1
  100
AcDbLine
  10
44.945
  20
-0.080702
  30
0
  11
44.9445
  21
-0.080532
  31
0
  0
LINE
  5
312
  100
AcDbEntity
  8
1
  100
AcDbLine
  10
44.9445
  20
-0.080532
  30
0
  11
44.944
  21
-0.08036
  31
0
  0
LINE
  5
313
  100
AcDbEntity
  8
1
  100
AcDbLine
  10
44.944
  20
-0.08036
  30
0
  11
44.9435
  21
-0.080188
  31
0
  0
LINE
  5
314
  100
AcDbEntity
  8
1
  100
AcDbLine
  10
44.9435
  20
-0.080188
  30
0
  11
44.943
  21
-0.080015
  31
0
  0
LINE
  5
315
  100
AcDbEntity
  8
1
  100
AcDbLine
  10
44.943
  20
-0.080015
  30
0
  11
44.9425
  21
-0.079842
  31
0
  0
LINE
  5
316
  100
AcDbEntity
  8
1
  100
AcDbLine
  10
44.9425
  20
-0.079842
  30
0
  11
44.942
  21
-0.079668
  31
0
  0
LINE
  5
317
  100
AcDbEntity
  8
1
  100
AcDbLine
  10
44.942
  20
-0.079668
  30
0
  11
44.9415
  21
-0.079493
  31
0
  0
LINE
  5
318
  100
AcDbEntity
  8
1
  100
AcDbLine
  10
44.9415
  20
-0.079493
  30
0
  11
44.941
  21
-0.079317
  31
0
  0
LINE
  5
319
  100
AcDbEntity
  8
1
  100
AcDbLine
  10
44.941
  20
-0.079317
  30
0
  11
44.9405
  21
-0.079141
  31
0
  0
LINE
  5
31a
  100
AcDbEntity
  8
1
  100
AcDbLine
  10
44.9405
  20
-0.079141
  30
0
  11
44.94
  21
-0.078964
  31
0
  0
LINE
  5
31b
  100
AcDbEntity
  8
1
  100
AcDbLine
  10
44.94
  20
-0.078964
  30
0
  11
44.9395
  21
-0.078787
  31
0
  0
LINE
  5
31c
  100
AcDbEntity
  8
1
  100
AcDbLine
  10
44.9395
  20
-0.078787
  30
0
  11
44.939
  21
-0.078609
  31
0
  0
LINE
  5
31d
  100
AcDbEntity
  8
1
  100
AcDbLine
  10
44.939
  20
-0.078609
  30
0
  11
44.9385
  21
-0.07843
  31
0
  0
LINE
  5
31e
  100
AcDbEntity
  8
1
  100
AcDbLine
  10
44.9385
  20
-0.07843
  30
0
  11
44.938
  21
-0.078251
  31
0
  0
LINE
  5
31f
  100
AcDbEntity
  8
1
  100
AcDbLine
  10
44.938
  20
-0.078251
  30
0
  11
44.9375
  21
-0.07807
  31
0
  0
LINE
  5
320
  100
AcDbEntity
  8
1
  100
AcDbLine
  10
44.9375
  20
-0.07807
  30
0
  11
44.937
  21
-0.07789
  31
0
  0
LINE
  5
321
  100
AcDbEntity
  8
1
  100
AcDbLine
  10
44.937
  20
-0.07789
  30
0
  11
44.9365
  21
-0.077708
  31
0
  0
LINE
  5
322
  100
AcDbEntity
  8
1
  100
AcDbLine
  10
44.9365
  20
-0.077708
  30
0
  11
44.936
  21
-0.077526
  31
0
  0
LINE
  5
323
  100
AcDbEntity
  8
1
  100
AcDbLine
  10
44.936
  20
-0.077526
  30
0
  11
44.9355
  21
-0.077344
  31
0
  0
LINE
  5
324
  100
AcDbEntity
  8
1
  100
AcDbLine
  10
44.9355
  20
-0.077344
  30
0
  11
44.935
  21
-0.07716
  31
0
  0
LINE
  5
325
  100
AcDbEntity
  8
1
  100
AcDbLine
  10
44.935
  20
-0.07716
  30
0
  11
44.9345
  21
-0.076976
  31
0
  0
LINE
  5
326
  100
AcDbEntity
  8
1
  100
AcDbLine
  10
44.9345
  20
-0.076976
  30
0
  11
44.934
  21
-0.076792
  31
0
  0
LINE
  5
327
  100
AcDbEntity
  8
1
  100
AcDbLine
  10
44.934
  20
-0.076792
  30
0
  11
44.9335
  21
-0.076607
  31
0
  0
LINE
  5
328
  100
AcDbEntity
  8
1
  100
AcDbLine
  10
44.9335
  20
-0.076607
  30
0
  11
44.933
  21
-0.076421
  31
0
  0
LINE
  5
329
  100
AcDbEntity
  8
1
  100
AcDbLine
  10
44.933
  20
-0.076421
  30
0
  11
44.9325
  21
-0.076234
  31
0
  0
LINE
  5
32a
  100
AcDbEntity
  8
1
  100
AcDbLine
  10
44.9325
  20
-0.076234
  30
0
  11
44.932
  21
-0.076047
  31
0
  0
LINE
  5
32b
  100
AcDbEntity
  8
1
  100
AcDbLine
  10
44.932
  20
-0.076047
  30
0
  11
44.9315
  21
-0.075859
  31
0
  0
LINE
  5
32c
  100
AcDbEntity
  8
1
  100
AcDbLine
  10
44.9315
  20
-0.075859
  30
0
  11
44.931
  21
-0.075671
  31
0
  0
LINE
  5
32d
  100
AcDbEntity
  8
1
  100
AcDbLine
  10
44.931
  20
-0.075671
  30
0
  11
44.9305
  21
-0.075482
  31
0
  0
LINE
  5
32e
  100
AcDbEntity
  8
1
  100
AcDbLine
  10
44.9305
  20
-0.075482
  30
0
  11
44.93
  21
-0.075292
  31
0
  0
LINE
  5
32f
  100
AcDbEntity
  8
1
  100
AcDbLine
  10
44.93
  20
-0.075292
  30
0
  11
44.9295
  21
-0.075102
  31
0
  0
LINE
  5
330
  100
AcDbEntity
  8
1
  100
AcDbLine
  10
44.9295
  20
-0.075102
  30
0
  11
44.929
  21
-0.074911
  31
0
  0
LINE
  5
331
  100
AcDbEntity
  8
1
  100
AcDbLine
  10
44.929
  20
-0.074911
  30
0
  11
44.9285
  21
-0.07472
  31
0
  0
LINE
  5
332
  100
AcDbEntity
  8
1
  100
AcDbLine
  10
44.9285
  20
-0.07472
  30
0
  11
44.928
  21
-0.074527
  31
0
  0
LINE
  5
333
  100
AcDbEntity
  8
1
  100
AcDbLine
  10
44.928
  20
-0.074527
  30
0
  11
44.9275
  21
-0.074335
  31
0
  0
LINE
  5
334
  100
AcDbEntity
  8
1
  100
AcDbLine
  10
44.9275
  20
-0.074335
  30
0
  11
44.927
  21
-0.074141
  31
0
  0
LINE
  5
335
  100
AcDbEntity
  8
1
  100
AcDbLine
  10
44.927
  20
-0.074141
  30
0
  11
44.9265
  21
-0.073947
  31
0
  0
LINE
  5
336
  100
AcDbEntity
  8
1
  100
AcDbLine
  10
44.9265
  20
-0.073947
  30
0
  11
44.926
  21
-0.073752
  31
0
  0
LINE
  5
337
  100
AcDbEntity
  8
1
  100
AcDbLine
  10
44.926
  20
-0.073752
  30
0
  11
44.9255
  21
-0.073557
  31
0
  0
LINE
  5
338
  100
AcDbEntity
  8
1
  100
AcDbLine
  10
44.9255
  20
-0.073557
  30
0
  11
44.925
  21
-0.073361
  31
0
  0
LINE
  5
339
  100
AcDbEntity
  8
1
  100
AcDbLine
  10
44.925
  20
-0.073361
  30
0
  11
44.9245
  21
-0.073165
  31
0
  0
LINE
  5
33a
  100
AcDbEntity
  8
1
  100
AcDbLine
  10
44.9245
  20
-0.073165
  30
0
  11
44.924
  21
-0.072968
  31
0
  0
LINE
  5
33b
  100
AcDbEntity
  8
1
  100
AcDbLine
  10
44.924
  20
-0.072968
  30
0
  11
44.9235
  21
-0.07277
  31
0
  0
LINE
  5
33c
  100
AcDbEntity
  8
1
  100
AcDbLine
  10
44.9235
  20
-0.07277
  30
0
  11
44.923
  21
-0.072572
  31
0
  0
LINE
  5
33d
  100
AcDbEntity
  8
1
  100
AcDbLine
  10
44.923
  20
-0.072572
  30
0
  11
44.9225
  21
-0.072373
  31
0
  0
LINE
  5
33e
  100
AcDbEntity
  8
1
  100
AcDbLine
  10
44.9225
  20
-0.072373
  30
0
  11
44.922
  21
-0.072173
  31
0
  0
LINE
  5
33f
  100
AcDbEntity
  8
1
  100
AcDbLine
  10
44.922
  20
-0.072173
  30
0
  11
44.9215
  21
-0.071973
  31
0
  0
LINE
  5
340
  100
AcDbEntity
  8
1
  100
AcDbLine
  10
44.9215
  20
-0.071973
  30
0
  11
44.921
  21
-0.071773
  31
0
  0
LINE
  5
341
  100
AcDbEntity
  8
1
  100
AcDbLine
  10
44.921
  20
-0.071773
  30
0
  11
44.9205
  21
-0.071571
  31
0
  0
LINE
  5
342
  100
AcDbEntity
  8
1
  100
AcDbLine
  10
44.9205
  20
-0.071571
  30
0
  11
44.92
  21
-0.071369
  31
0
  0
LINE
  5
343
  100
AcDbEntity
  8
1
  100
AcDbLine
  10
44.92
  20
-0.071369
  30
0
  11
44.9195
  21
-0.071167
  31
0
  0
LINE
  5
344
  100
AcDbEntity
  8
1
  100
AcDbLine
  10
44.9195
  20
-0.071167
  30
0
  11
44.919
  21
-0.070964
  31
0
  0
LINE
  5
345
  100
AcDbEntity
  8
1
  100
AcDbLine
  10
44.919
  20
-0.070964
  30
0
  11
44.9185
  21
-0.07076
  31
0
  0
LINE
  5
346
  100
AcDbEntity
  8
1
  100
AcDbLine
  10
44.9185
  20
-0.07076
  30
0
  11
44.918
  21
-0.070556
  31
0
  0
LINE
  5
347
  100
AcDbEntity
  8
1
  100
AcDbLine
  10
44.918
  20
-0.070556
  30
0
  11
44.9175
  21
-0.070351
  31
0
  0
LINE
  5
348
  100
AcDbEntity
  8
1
  100
AcDbLine
  10
44.9175
  20
-0.070351
  30
0
  11
44.917
  21
-0.070145
  31
0
  0
LINE
  5
349
  100
AcDbEntity
  8
1
  100
AcDbLine
  10
44.917
  20
-0.070145
  30
0
  11
44.9165
  21
-0.069939
  31
0
  0
LINE
  5
34a
  100
AcDbEntity
  8
1
  100
AcDbLine
  10
44.9165
  20
-0.069939
  30
0
  11
44.916
  21
-0.069733
  31
0
  0
LINE
  5
34b
  100
AcDbEntity
  8
1
  100
AcDbLine
  10
44.916
  20
-0.069733
  30
0
  11
44.9155
  21
-0.069526
  31
0
  0
LINE
  5
34c
  100
AcDbEntity
  8
1
  100
AcDbLine
  10
44.9155
  20
-0.069526
  30
0
  11
44.915
  21
-0.069318
  31
0
  0
LINE
  5
34d
  100
AcDbEntity
  8
1
  100
AcDbLine
  10
44.915
  20
-0.069318
  30
0
  11
44.9145
  21
-0.069109
  31
0
  0
LINE
  5
34e
  100
AcDbEntity
  8
1
  100
AcDbLine
  10
44.9145
  20
-0.069109
  30
0
  11
44.914
  21
-0.068901
  31
0
  0
LINE
  5
34f
  100
AcDbEntity
  8
1
  100
AcDbLine
  10
44.914
  20
-0.068901
  30
0
  11
44.9135
  21
-0.068691
  31
0
  0
LINE
  5
350
  100
AcDbEntity
  8
1
  100
AcDbLine
  10
44.9135
  20
-0.068691
  30
0
  11
44.913
  21
-0.068481
  31
0
  0
LINE
  5
351
  100
AcDbEntity
  8
1
  100
AcDbLine
  10
44.913
  20
-0.068481
  30
0
  11
44.9125
  21
-0.06827
  31
0
  0
LINE
  5
352
  100
AcDbEntity
  8
1
  100
AcDbLine
  10
44.9125
  20
-0.06827
  30
0
  11
44.912
  21
-0.068059
  31
0
  0
LINE
  5
353
  100
AcDbEntity
  8
1
  100
AcDbLine
  10
44.912
  20
-0.068059
  30
0
  11
44.9115
  21
-0.067847
  31
0
  0
LINE
  5
354
  100
AcDbEntity
  8
1
  100
AcDbLine
  10
44.9115
  20
-0.067847
  30
0
  11
44.911
  21
-0.067635
  31
0
  0
LINE
  5
355
  100
AcDbEntity
  8
1
  100
AcDbLine
  10
44.911
  20
-0.067635
  30
0
  11
44.9105
  21
-0.067422
  31
0
  0
LINE
  5
356
  100
AcDbEntity
  8
1
  100
AcDbLine
  10
44.9105
  20
-0.067422
  30
0
  11
44.91
  21
-0.067209
  31
0
  0
LINE
  5
357
  100
AcDbEntity
  8
1
  100
AcDbLine
  10
44.91
  20
-0.067209
  30
0
  11
44.9095
  21
-0.066995
  31
0
  0
LINE
  5
358
  100
AcDbEntity
  8
1
  100
AcDbLine
  10
44.9095
  20
-0.066995
  30
0
  11
44.909
  21
-0.06678
  31
0
  0
LINE
  5
359
  100
AcDbEntity
  8
1
  100
AcDbLine
  10
44.909
  20
-0.06678
  30
0
  11
44.9085
  21
-0.066565
  31
0
  0
LINE
  5
35a
  100
AcDbEntity
  8
1
  100
AcDbLine
  10
44.9085
  20
-0.066565
  30
0
  11
44.908
  21
-0.066349
  31
0
  0
LINE
  5
35b
  100
AcDbEntity
  8
1
  100
AcDbLine
  10
44.908
  20
-0.066349
  30
0
  11
44.9075
  21
-0.066133
  31
0
  0
LINE
  5
35c
  100
AcDbEntity
  8
1
  100
AcDbLine
  10
44.9075
  20
-0.066133
  30
0
  11
44.907
  21
-0.065916
  31
0
  0
LINE
  5
35d
  100
AcDbEntity
  8
1
  100
AcDbLine
  10
44.907
  20
-0.065916
  30
0
  11
44.9065
  21
-0.065699
  31
0
  0
LINE
  5
35e
  100
AcDbEntity
  8
1
  100
AcDbLine
  10
44.9065
  20
-0.065699
  30
0
  11
44.906
  21
-0.065481
  31
0
  0
LINE
  5
35f
  100
AcDbEntity
  8
1
  100
AcDbLine
  10
44.906
  20
-0.065481
  30
0
  11
44.9055
  21
-0.065262
  31
0
  0
LINE
  5
360
  100
AcDbEntity
  8
1
  100
AcDbLine
  10
44.9055
  20
-0.065262
  30
0
  11
44.905
  21
-0.065043
  31
0
  0
LINE
  5
361
  100
AcDbEntity
  8
1
  100
AcDbLine
  10
44.905
  20
-0.065043
  30
0
  11
44.9045
  21
-0.064824
  31
0
  0
LINE
  5
362
  100
AcDbEntity
  8
1
  100
AcDbLine
  10
44.9045
  20
-0.064824
  30
0
  11
44.904
  21
-0.064604
  31
0
  0
LINE
  5
363
  100
AcDbEntity
  8
1
  100
AcDbLine
  10
44.904
  20
-0.064604
  30
0
  11
44.9035
  21
-0.064383
  31
0
  0
LINE
  5
364
  100
AcDbEntity
  8
1
  100
AcDbLine
  10
44.9035
  20
-0.064383
  30
0
  11
44.903
  21
-0.064162
  31
0
  0
LINE
  5
365
  100
AcDbEntity
  8
1
  100
AcDbLine
  10
44.903
  20
-0.064162
  30
0
  11
44.9025
  21
-0.06394
  31
0
  0
LINE
  5
366
  100
AcDbEntity
  8
1
  100
AcDbLine
  10
44.9025
  20
-0.06394
  30
0
  11
44.902
  21
-0.063718
  31
0
  0
LINE
  5
367
  100
AcDbEntity
  8
1
  100
AcDbLine
  10
44.902
  20
-0.063718
  30
0
  11
44.9015
  21
-0.063495
  31
0
  0
LINE
  5
368
  100
AcDbEntity
  8
1
  100
AcDbLine
  10
44.9015
  20
-0.063495
  30
0
  11
44.901
  21
-0.063272
  31
0
  0
LINE
  5
369
  100
AcDbEntity
  8
1
  100
AcDbLine
  10
44.901
  20
-0.063272
  30
0
  11
44.9005
  21
-0.063048
  31
0
  0
LINE
  5
36a
  100
AcDbEntity
  8
1
  100
AcDbLine
  10
44.9005
  20
-0.063048
  30
0
  11
44.9
  21
-0.062824
  31
0
  0
LINE
  5
36b
  100
AcDbEntity
  8
1
  100
AcDbLine
  10
44.9
  20
-0.062824
  30
0
  11
44.8995
  21
-0.062599
  31
0
  0
LINE
  5
36c
  100
AcDbEntity
  8
1
  100
AcDbLine
  10
44.8995
  20
-0.062599
  30
0
  11
44.899
  21
-0.062374
  31
0
  0
LINE
  5
36d
  100
AcDbEntity
  8
1
  100
AcDbLine
  10
44.899
  20
-0.062374
  30
0
  11
44.8985
  21
-0.062148
  31
0
  0
LINE
  5
36e
  100
AcDbEntity
  8
1
  100
AcDbLine
  10
44.8985
  20
-0.062148
  30
0
  11
44.898
  21
-0.061921
  31
0
  0
LINE
  5
36f
  100
AcDbEntity
  8
1
  100
AcDbLine
  10
44.898
  20
-0.061921
  30
0
  11
44.8975
  21
-0.061694
  31
0
  0
LINE
  5
370
  100
AcDbEntity
  8
1
  100
AcDbLine
  10
44.8975
  20
-0.061694
  30
0
  11
44.897
  21
-0.061467
  31
0
  0
LINE
  5
371
  100
AcDbEntity
  8
1
  100
AcDbLine
  10
44.897
  20
-0.061467
  30
0
  11
44.8965
  21
-0.061239
  31
0
  0
LINE
  5
372
  100
AcDbEntity
  8
1
  100
AcDbLine
  10
44.8965
  20
-0.061239
  30
0
  11
44.896
  21
-0.06101
  31
0
  0
LINE
  5
373
  100
AcDbEntity
  8
1
  100
AcDbLine
  10
44.896
  20
-0.06101
  30
0
  11
44.8955
  21
-0.060781
  31
0
  0
LINE
  5
374
  100
AcDbEntity
  8
1
  100
AcDbLine
  10
44.8955
  20
-0.060781
  30
0
  11
44.895
  21
-0.060552
  31
0
  0
LINE
  5
375
  100
AcDbEntity
  8
1
  100
AcDbLine
  10
44.895
  20
-0.060552
  30
0
  11
44.8945
  21
-0.060322
  31
0
  0
LINE
  5
376
  100
AcDbEntity
  8
1
  100
AcDbLine
  10
44.8945
  20
-0.060322
  30
0
  11
44.894
  21
-0.060092
  31
0
  0
LINE
  5
377
  100
AcDbEntity
  8
1
  100
AcDbLine
  10
44.894
  20
-0.060092
  30
0
  11
44.8935
  21
-0.059861
  31
0
  0
LINE
  5
378
  100
AcDbEntity
  8
1
  100
AcDbLine
  10
44.8935
  20
-0.059861
  30
0
  11
44.893
  21
-0.059629
  31
0
  0
LINE
  5
379
  100
AcDbEntity
  8
1
  100
AcDbLine
  10
44.893
  20
-0.059629
  30
0
  11
44.8925
  21
-0.059397
  31
0
  0
LINE
  5
37a
  100
AcDbEntity
  8
1
  100
AcDbLine
  10
44.8925
  20
-0.059397
  30
0
  11
44.892
  21
-0.059165
  31
0
  0
LINE
  5
37b
  100
AcDbEntity
  8
1
  100
AcDbLine
  10
44.892
  20
-0.059165
  30
0
  11
44.8915
  21
-0.058932
  31
0
  0
LINE
  5
37c
  100
AcDbEntity
  8
1
  100
AcDbLine
  10
44.8915
  20
-0.058932
  30
0
  11
44.891
  21
-0.058698
  31
0
  0
LINE
  5
37d
  100
AcDbEntity
  8
1
  100
AcDbLine
  10
44.891
  20
-0.058698
  30
0
  11
44.8905
  21
-0.058464
  31
0
  0
LINE
  5
37e
  100
AcDbEntity
  8
1
  100
AcDbLine
  10
44.8905
  20
-0.058464
  30
0
  11
44.89
  21
-0.05823
  31
0
  0
LINE
  5
37f
  100
AcDbEntity
  8
1
  100
AcDbLine
  10
44.89
  20
-0.05823
  30
0
  11
44.8895
  21
-0.057995
  31
0
  0
LINE
  5
380
  100
AcDbEntity
  8
1
  100
AcDbLine
  10
44.8895
  20
-0.057995
  30
0
  11
44.889
  21
-0.057759
  31
0
  0
LINE
  5
381
  100
AcDbEntity
  8
1
  100
AcDbLine
  10
44.889
  20
-0.057759
  30
0
  11
44.8885
  21
-0.057524
  31
0
  0
LINE
  5
382
  100
AcDbEntity
  8
1
  100
AcDbLine
  10
44.8885
  20
-0.057524
  30
0
  11
44.888
  21
-0.057287
  31
0
  0
LINE
  5
383
  100
AcDbEntity
  8
1
  100
AcDbLine
  10
44.888
  20
-0.057287
  30
0
  11
44.8875
  21
-0.05705
  31
0
  0
LINE
  5
384
  100
AcDbEntity
  8
1
  100
AcDbLine
  10
44.8875
  20
-0.05705
  30
0
  11
44.887
  21
-0.056813
  31
0
  0
LINE
  5
385
  100
AcDbEntity
  8
1
  100
AcDbLine
  10
44.887
  20
-0.056813
  30
0
  11
44.8865
  21
-0.056575
  31
0
  0
LINE
  5
386
  100
AcDbEntity
  8
1
  100
AcDbLine
  10
44.8865
  20
-0.056575
  30
0
  11
44.886
  21
-0.056337
  31
0
  0
LINE
  5
387
  100
AcDbEntity
  8
1
  100
AcDbLine
  10
44.886
  20
-0.056337
  30
0
  11
44.8855
  21
-0.056098
  31
0
  0
LINE
  5
388
  100
AcDbEntity
  8
1
  100
AcDbLine
  10
44.8855
  20
-0.056098
  30
0
  11
44.885
  21
-0.055859
  31
0
  0
LINE
  5
389
  100
AcDbEntity
  8
1
  100
AcDbLine
  10
44.885
  20
-0.055859
  30
0
  11
44.8845
  21
-0.055619
  31
0
  0
LINE
  5
38a
  100
AcDbEntity
  8
1
  100
AcDbLine
  10
44.8845
  20
-0.055619
  30
0
  11
44.884
  21
-0.055379
  31
0
  0
LINE
  5
38b
  100
AcDbEntity
  8
1
  100
AcDbLine
  10
44.884
  20
-0.055379
  30
0
  11
44.8835
  21
-0.055139
  31
0
  0
LINE
  5
38c
  100
AcDbEntity
  8
1
  100
AcDbLine
  10
44.8835
  20
-0.055139
  30
0
  11
44.883
  21
-0.054897
  31
0
  0
LINE
  5
38d
  100
AcDbEntity
  8
1
  100
AcDbLine
  10
44.883
  20
-0.054897
  30
0
  11
44.8825
  21
-0.054656
  31
0
  0
LINE
  5
38e
  100
AcDbEntity
  8
1
  100
AcDbLine
  10
44.8825
  20
-0.054656
  30
0
  11
44.882
  21
-0.054414
  31
0
  0
LINE
  5
38f
  100
AcDbEntity
  8
1
  100
AcDbLine
  10
44.882
  20
-0.054414
  30
0
  11
44.8815
  21
-0.054172
  31
0
  0
LINE
  5
390
  100
AcDbEntity
  8
1
  100
AcDbLine
  10
44.8815
  20
-0.054172
  30
0
  11
44.881
  21
-0.053929
  31
0
  0
LINE
  5
391
  100
AcDbEntity
  8
1
  100
AcDbLine
  10
44.881
  20
-0.053929
  30
0
  11
44.8805
  21
-0.053685
  31
0
  0
LINE
  5
392
  100
AcDbEntity
  8
1
  100
AcDbLine
  10
44.8805
  20
-0.053685
  30
0
  11
44.88
  21
-0.053442
  31
0
  0
LINE
  5
393
  100
AcDbEntity
  8
1
  100
AcDbLine
  10
44.88
  20
-0.053442
  30
0
  11
44.8795
  21
-0.053197
  31
0
  0
LINE
  5
394
  100
AcDbEntity
  8
1
  100
AcDbLine
  10
44.8795
  20
-0.053197
  30
0
  11
44.879
  21
-0.052953
  31
0
  0
LINE
  5
395
  100
AcDbEntity
  8
1
  100
AcDbLine
  10
44.879
  20
-0.052953
  30
0
  11
44.8785
  21
-0.052708
  31
0
  0
LINE
  5
396
  100
AcDbEntity
  8
1
  100
AcDbLine
  10
44.8785
  20
-0.052708
  30
0
  11
44.878
  21
-0.052462
  31
0
  0
LINE
  5
397
  100
AcDbEntity
  8
1
  100
AcDbLine
  10
44.878
  20
-0.052462
  30
0
  11
44.8775
  21
-0.052216
  31
0
  0
LINE
  5
398
  100
AcDbEntity
  8
1
  100
AcDbLine
  10
44.8775
  20
-0.052216
  30
0
  11
44.877
  21
-0.05197
  31
0
  0
LINE
  5
399
  100
AcDbEntity
  8
1
  100
AcDbLine
  10
44.877
  20
-0.05197
  30
0
  11
44.8765
  21
-0.051723
  31
0
  0
LINE
  5
39a
  100
AcDbEntity
  8
1
  100
AcDbLine
  10
44.8765
  20
-0.051723
  30
0
  11
44.876
  21
-0.051476
  31
0
  0
LINE
  5
39b
  100
AcDbEntity
  8
1
  100
AcDbLine
  10
44.876
  20
-0.051476
  30
0
  11
44.8755
  21
-0.051228
  31
0
  0
LINE
  5
39c
  100
AcDbEntity
  8
1
  100
AcDbLine
  10
44.8755
  20
-0.051228
  30
0
  11
44.875
  21
-0.05098
  31
0
  0
LINE
  5
39d
  100
AcDbEntity
  8
1
  100
AcDbLine
  10
44.875
  20
-0.05098
  30
0
  11
44.8745
  21
-0.050731
  31
0
  0
LINE
  5
39e
  100
AcDbEntity
  8
1
  100
AcDbLine
  10
44.8745
  20
-0.050731
  30
0
  11
44.874
  21
-0.050482
  31
0
  0
LINE
  5
39f
  100
AcDbEntity
  8
1
  100
AcDbLine
  10
44.874
  20
-0.050482
  30
0
  11
44.8735
  21
-0.050233
  31
0
  0
LINE
  5
3a0
  100
AcDbEntity
  8
1
  100
AcDbLine
  10
44.8735
  20
-0.050233
  30
0
  11
44.873
  21
-0.049983
  31
0
  0
LINE
  5
3a1
  100
AcDbEntity
  8
1
  100
AcDbLine
  10
44.873
  20
-0.049983
  30
0
  11
44.8725
  21
-0.049733
  31
0
  0
LINE
  5
3a2
  100
AcDbEntity
  8
1
  100
AcDbLine
  10
44.8725
  20
-0.049733
  30
0
  11
44.872
  21
-0.049482
  31
0
  0
LINE
  5
3a3
  100
AcDbEntity
  8
1
  100
AcDbLine
  10
44.872
  20
-0.049482
  30
0
  11
44.8715
  21
-0.049231
  31
0
  0
LINE
  5
3a4
  100
AcDbEntity
  8
1
  100
AcDbLine
  10
44.8715
  20
-0.049231
  30
0
  11
44.871
  21
-0.04898
  31
0
  0
LINE
  5
3a5
  100
AcDbEntity
  8
1
  100
AcDbLine
  10
44.871
  20
-0.04898
  30
0
  11
44.8705
  21
-0.048728
  31
0
  0
LINE
  5
3a6
  100
AcDbEntity
  8
1
  100
AcDbLine
  10
44.8705
  20
-0.048728
  30
0
  11
44.87
  21
-0.048475
  31
0
  0
LINE
  5
3a7
  100
AcDbEntity
  8
1
  100
AcDbLine
  10
44.87
  20
-0.048475
  30
0
  11
44.8695
  21
-0.048223
  31
0
  0
LINE
  5
3a8
  100
AcDbEntity
  8
1
  100
AcDbLine
  10
44.8695
  20
-0.048223
  30
0
  11
44.869
  21
-0.04797
  31
0
  0
LINE
  5
3a9
  100
AcDbEntity
  8
1
  100
AcDbLine
  10
44.869
  20
-0.04797
  30
0
  11
44.8685
  21
-0.047716
  31
0
  0
LINE
  5
3aa
  100
AcDbEntity
  8
1
  100
AcDbLine
  10
44.8685
  20
-0.047716
  30
0
  11
44.868
  21
-0.047462
  31
0
  0
LINE
  5
3ab
  100
AcDbEntity
  8
1
  100
AcDbLine
  10
44.868
  20
-0.047462
  30
0
  11
44.8675
  21
-0.047208
  31
0
  0
LINE
  5
3ac
  100
AcDbEntity
  8
1
  100
AcDbLine
  10
44.8675
  20
-0.047208
  30
0
  11
44.867
  21
-0.046953
  31
0
  0
LINE
  5
3ad
  100
AcDbEntity
  8
1
  100
AcDbLine
  10
44.867
  20
-0.046953
  30
0
  11
44.8665
  21
-0.046698
  31
0
  0
LINE
  5
3ae
  100
AcDbEntity
  8
1
  100
AcDbLine
  10
44.8665
  20
-0.046698
  30
0
  11
44.866
  21
-0.046443
  31
0
  0
LINE
  5
3af
  100
AcDbEntity
  8
1
  100
AcDbLine
  10
44.866
  20
-0.046443
  30
0
  11
44.8655
  21
-0.046187
  31
0
  0
LINE
  5
3b0
  100
AcDbEntity
  8
1
  100
AcDbLine
  10
44.8655
  20
-0.046187
  30
0
  11
44.865
  21
-0.045931
  31
0
  0
LINE
  5
3b1
  100
AcDbEntity
  8
1
  100
AcDbLine
  10
44.865
  20
-0.045931
  30
0
  11
44.8645
  21
-0.045674
  31
0
  0
LINE
  5
3b2
  100
AcDbEntity
  8
1
  100
AcDbLine
  10
44.8645
  20
-0.045674
  30
0
  11
44.864
  21
-0.045417
  31
0
  0
LINE
  5
3b3
  100
AcDbEntity
  8
1
  100
AcDbLine
  10
44.864
  20
-0.045417
  30
0
  11
44.8635
  21
-0.04516
  31
0
  0
LINE
  5
3b4
  100
AcDbEntity
  8
1
  100
AcDbLine
  10
44.8635
  20
-0.04516
  30
0
  11
44.863
  21
-0.044902
  31
0
  0
LINE
  5
3b5
  100
AcDbEntity
  8
1
  100
AcDbLine
  10
44.863
  20
-0.044902
  30
0
  11
44.8625
  21
-0.044644
  31
0
  0
LINE
  5
3b6
  100
AcDbEntity
  8
1
  100
AcDbLine
  10
44.8625
  20
-0.044644
  30
0
  11
44.862
  21
-0.044385
  31
0
  0
LINE
  5
3b7
  100
AcDbEntity
  8
1
  100
AcDbLine
  10
44.862
  20
-0.044385
  30
0
  11
44.8615
  21
-0.044126
  31
0
  0
LINE
  5
3b8
  100
AcDbEntity
  8
1
  100
AcDbLine
  10
44.8615
  20
-0.044126
  30
0
  11
44.861
  21
-0.043867
  31
0
  0
LINE
  5
3b9
  100
AcDbEntity
  8
1
  100
AcDbLine
  10
44.861
  20
-0.043867
  30
0
  11
44.8605
  21
-0.043608
  31
0
  0
LINE
  5
3ba
  100
AcDbEntity
  8
1
  100
AcDbLine
  10
44.8605
  20
-0.043608
  30
0
  11
44.86
  21
-0.043348
  31
0
  0
LINE
  5
3bb
  100
AcDbEntity
  8
1
  100
AcDbLine
  10
44.86
  20
-0.043348
  30
0
  11
44.8595
  21
-0.043087
  31
0
  0
LINE
  5
3bc
  100
AcDbEntity
  8
1
  100
AcDbLine
  10
44.8595
  20
-0.043087
  30
0
  11
44.859
  21
-0.042827
  31
0
  0
LINE
  5
3bd
  100
AcDbEntity
  8
1
  100
AcDbLine
  10
44.859
  20
-0.042827
  30
0
  11
44.8585
  21
-0.042566
  31
0
  0
LINE
  5
3be
  100
AcDbEntity
  8
1
  100
AcDbLine
  10
44.8585
  20
-0.042566
  30
0
  11
44.858
  21
-0.042304
  31
0
  0
LINE
  5
3bf
  100
AcDbEntity
  8
1
  100
AcDbLine
  10
44.858
  20
-0.042304
  30
0
  11
44.8575
  21
-0.042042
  31
0
  0
LINE
  5
3c0
  100
AcDbEntity
  8
1
  100
AcDbLine
  10
44.8575
  20
-0.042042
  30
0
  11
44.857
  21
-0.04178
  31
0
  0
LINE
  5
3c1
  100
AcDbEntity
  8
1
  100
AcDbLine
  10
44.857
  20
-0.04178
  30
0
  11
44.8565
  21
-0.041518
  31
0
  0
LINE
  5
3c2
  100
AcDbEntity
  8
1
  100
AcDbLine
  10
44.8565
  20
-0.041518
  30
0
  11
44.856
  21
-0.041255
  31
0
  0
LINE
  5
3c3
  100
AcDbEntity
  8
1
  100
AcDbLine
  10
44.856
  20
-0.041255
  30
0
  11
44.8555
  21
-0.040992
  31
0
  0
LINE
  5
3c4
  100
AcDbEntity
  8
1
  100
AcDbLine
  10
44.8555
  20
-0.040992
  30
0
  11
44.855
  21
-0.040728
  31
0
  0
LINE
  5
3c5
  100
AcDbEntity
  8
1
  100
AcDbLine
  10
44.855
  20
-0.040728
  30
0
  11
44.8545
  21
-0.040465
  31
0
  0
LINE
  5
3c6
  100
AcDbEntity
  8
1
  100
AcDbLine
  10
44.8545
  20
-0.040465
  30
0
  11
44.854
  21
-0.040201
  31
0
  0
LINE
  5
3c7
  100
AcDbEntity
  8
1
  100
AcDbLine
  10
44.854
  20
-0.040201
  30
0
  11
44.8535
  21
-0.039936
  31
0
  0
LINE
  5
3c8
  100
AcDbEntity
  8
1
  100
AcDbLine
  10
44.8535
  20
-0.039936
  30
0
  11
44.853
  21
-0.039671
  31
0
  0
LINE
  5
3c9
  100
AcDbEntity
  8
1
  100
AcDbLine
  10
44.853
  20
-0.039671
  30
0
  11
44.8525
  21
-0.039406
  31
0
  0
LINE
  5
3ca
  100
AcDbEntity
  8
1
  100
AcDbLine
  10
44.8525
  20
-0.039406
  30
0
  11
44.852
  21
-0.039141
  31
0
  0
LINE
  5
3cb
  100
AcDbEntity
  8
1
  100
AcDbLine
  10
44.852
  20
-0.039141
  30
0
  11
44.8515
  21
-0.038875
  31
0
  0
LINE
  5
3cc
  100
AcDbEntity
  8
1
  100
AcDbLine
  10
44.8515
  20
-0.038875
  30
0
  11
44.851
  21
-0.038609
  31
0
  0
LINE
  5
3cd
  100
AcDbEntity
  8
1
  100
AcDbLine
  10
44.851
  20
-0.038609
  30
0
  11
44.8505
  21
-0.038342
  31
0
  0
LINE
  5
3ce
  100
AcDbEntity
  8
1
  100
AcDbLine
  10
44.8505
  20
-0.038342
  30
0
  11
44.85
  21
-0.038075
  31
0
  0
LINE
  5
3cf
  100
AcDbEntity
  8
1
  100
AcDbLine
  10
44.85
  20
-0.038075
  30
0
  11
44.85
  21
-0.028755
  31
0
  0
LINE
  5
3d0
  100
AcDbEntity
  8
1
  100
AcDbLine
  10
44.85
  20
-0.048524
  30
0
  11
44.85
  21
-0.056159
  31
0
  0
LINE
  5
3d1
  100
AcDbEntity
  8
1
  100
AcDbLine
  10
44.85
  20
-0.056159
  30
0
  11
44.8505
  21
-0.056393
  31
0
  0
LINE
  5
3d2
  100
AcDbEntity
  8
1
  100
AcDbLine
  10
44.85
  20
-0.09
  30
0
  11
44.85
  21
0.09
  31
0
  0
LINE
  5
3d3
  100
AcDbEntity
  8
1
  100
AcDbLine
  10
44.85
  20
0.085283
  30
0
  11
44.85
  21
0.092468
  31
0
  0
LINE
  5
3d4
  100
AcDbEntity
  8
1
  100
AcDbLine
  10
44.85
  20
0.092468
  30
0
  11
44.8505
  21
0.092357
  31
0
  0
LINE
  5
3d5
  100
AcDbEntity
  8
1
  100
AcDbLine
  10
44.8505
  20
0.092357
  30
0
  11
44.851
  21
0.092246
  31
0
  0
LINE
  5
3d6
  100
AcDbEntity
  8
1
  100
AcDbLine
  10
44.851
  20
0.092246
  30
0
  11
44.8515
  21
0.092134
  31
0
  0
LINE
  5
3d7
  100
AcDbEntity
  8
1
  100
AcDbLine
  10
44.8515
  20
0.092134
  30
0
  11
44.852
  21
0.092022
  31
0
  0
LINE
  5
3d8
  100
AcDbEntity
  8
1
  100
AcDbLine
  10
44.852
  20
0.092022
  30
0
  11
44.8525
  21
0.091908
  31
0
  0
LINE
  5
3d9
  100
AcDbEntity
  8
1
  100
AcDbLine
  10
44.8525
  20
0.091908
  30
0
  11
44.853
  21
0.091794
  31
0
  0
LINE
  5
3da
  100
AcDbEntity
  8
1
  100
AcDbLine
  10
44.853
  20
0.091794
  30
0
  11
44.8535
  21
0.091679
  31
0
  0
LINE
  5
3db
  100
AcDbEntity
  8
1
  100
AcDbLine
  10
44.8535
  20
0.091679
  30
0
  11
44.854
  21
0.091564
  31
0
  0
LINE
  5
3dc
  100
AcDbEntity
  8
1
  100
AcDbLine
  10
44.854
  20
0.091564
  30
0
  11
44.8545
  21
0.091447
  31
0
  0
LINE
  5
3dd
  100
AcDbEntity
  8
1
  100
AcDbLine
  10
44.8545
  20
0.091447
  30
0
  11
44.855
  21
0.09133
  31
0
  0
LINE
  5
3de
  100
AcDbEntity
  8
1
  100
AcDbLine
  10
44.855
  20
0.09133
  30
0
  11
44.8555
  21
0.091212
  31
0
  0
LINE
  5
3df
  100
AcDbEntity
  8
1
  100
AcDbLine
  10
44.8555
  20
0.091212
  30
0
  11
44.856
  21
0.091093
  31
0
  0
LINE
  5
3e0
  100
AcDbEntity
  8
1
  100
AcDbLine
  10
44.856
  20
0.091093
  30
0
  11
44.8565
  21
0.090974
  31
0
  0
LINE
  5
3e1
  100
AcDbEntity
  8
1
  100
AcDbLine
  10
44.8565
  20
0.090974
  30
0
  11
44.857
  21
0.090854
  31
0
  0
LINE
  5
3e2
  100
AcDbEntity
  8
1
  100
AcDbLine
  10
44.857
  20
0.090854
  30
0
  11
44.8575
  21
0.090733
  31
0
  0
LINE
  5
3e3
  100
AcDbEntity
  8
1
  100
AcDbLine
  10
44.8575
  20
0.090733
  30
0
  11
44.858
  21
0.090611
  31
0
  0
LINE
  5
3e4
  100
AcDbEntity
  8
1
  100
AcDbLine
  10
44.858
  20
0.090611
  30
0
  11
44.8585
  21
0.090489
  31
0
  0
LINE
  5
3e5
  100
AcDbEntity
  8
1
  100
AcDbLine
  10
44.8585
  20
0.090489
  30
0
  11
44.859
  21
0.090365
  31
0
  0
LINE
  5
3e6
  100
AcDbEntity
  8
1
  100
AcDbLine
  10
44.859
  20
0.090365
  30
0
  11
44.8595
  21
0.090241
  31
0
  0
LINE
  5
3e7
  100
AcDbEntity
  8
1
  100
AcDbLine
  10
44.8595
  20
0.090241
  30
0
  11
44.86
  21
0.090117
  31
0
  0
LINE
  5
3e8
  100
AcDbEntity
  8
1
  100
AcDbLine
  10
44.86
  20
0.090117
  30
0
  11
44.8605
  21
0.089991
  31
0
  0
LINE
  5
3e9
  100
AcDbEntity
  8
1
  100
AcDbLine
  10
44.8605
  20
0.089991
  30
0
  11
44.861
  21
0.089865
  31
0
  0
LINE
  5
3ea
  100
AcDbEntity
  8
1
  100
AcDbLine
  10
44.861
  20
0.089865
  30
0
  11
44.8615
  21
0.089738
  31
0
  0
LINE
  5
3eb
  100
AcDbEntity
  8
1
  100
AcDbLine
  10
44.8615
  20
0.089738
  30
0
  11
44.862
  21
0.08961
  31
0
  0
LINE
  5
3ec
  100
AcDbEntity
  8
1
  100
AcDbLine
  10
44.862
  20
0.08961
  30
0
  11
44.8625
  21
0.089481
  31
0
  0
LINE
  5
3ed
  100
AcDbEntity
  8
1
  100
AcDbLine
  10
44.8625
  20
0.089481
  30
0
  11
44.863
  21
0.089352
  31
0
  0
LINE
  5
3ee
  100
AcDbEntity
  8
1
  100
AcDbLine
  10
44.863
  20
0.089352
  30
0
  11
44.8635
  21
0.089222
  31
0
  0
LINE
  5
3ef
  100
AcDbEntity
  8
1
  100
AcDbLine
  10
44.8635
  20
0.089222
  30
0
  11
44.864
  21
0.089091
  31
0
  0
LINE
  5
3f0
  100
AcDbEntity
  8
1
  100
AcDbLine
  10
44.864
  20
0.089091
  30
0
  11
44.8645
  21
0.08896
  31
0
  0
LINE
  5
3f1
  100
AcDbEntity
  8
1
  100
AcDbLine
  10
44.8645
  20
0.08896
  30
0
  11
44.865
  21
0.088828
  31
0
  0
LINE
  5
3f2
  100
AcDbEntity
  8
1
  100
AcDbLine
  10
44.865
  20
0.088828
  30
0
  11
44.8655
  21
0.088695
  31
0
  0
LINE
  5
3f3
  100
AcDbEntity
  8
1
  100
AcDbLine
  10
44.8655
  20
0.088695
  30
0
  11
44.866
  21
0.088561
  31
0
  0
LINE
  5
3f4
  100
AcDbEntity
  8
1
  100
AcDbLine
  10
44.866
  20
0.088561
  30
0
  11
44.8665
  21
0.088427
  31
0
  0
LINE
  5
3f5
  100
AcDbEntity
  8
1
  100
AcDbLine
  10
44.8665
  20
0.088427
  30
0
  11
44.867
  21
0.088292
  31
0
  0
LINE
  5
3f6
  100
AcDbEntity
  8
1
  100
AcDbLine
  10
44.867
  20
0.088292
  30
0
  11
44.8675
  21
0.088156
  31
0
  0
LINE
  5
3f7
  100
AcDbEntity
  8
1
  100
AcDbLine
  10
44.8675
  20
0.088156
  30
0
  11
44.868
  21
0.088019
  31
0
  0
LINE
  5
3f8
  100
AcDbEntity
  8
1
  100
AcDbLine
  10
44.868
  20
0.088019
  30
0
  11
44.8685
  21
0.087882
  31
0
  0
LINE
  5
3f9
  100
AcDbEntity
  8
1
  100
AcDbLine
  10
44.8685
  20
0.087882
  30
0
  11
44.869
  21
0.087743
  31
0
  0
LINE
  5
3fa
  100
AcDbEntity
  8
1
  100
AcDbLine
  10
44.869
  20
0.087743
  30
0
  11
44.8695
  21
0.087605
  31
0
  0
LINE
  5
3fb
  100
AcDbEntity
  8
1
  100
AcDbLine
  10
44.8695
  20
0.087605
  30
0
  11
44.87
  21
0.087465
  31
0
  0
LINE
  5
3fc
  100
AcDbEntity
  8
1
  100
AcDbLine
  10
44.87
  20
0.087465
  30
0
  11
44.8705
  21
0.087325
  31
0
  0
LINE
  5
3fd
  100
AcDbEntity
  8
1
  100
AcDbLine
  10
44.8705
  20
0.087325
  30
0
  11
44.871
  21
0.087184
  31
0
  0
LINE
  5
3fe
  100
AcDbEntity
  8
1
  100
AcDbLine
  10
44.871
  20
0.087184
  30
0
  11
44.8715
  21
0.087042
  31
0
  0
LINE
  5
3ff
  100
AcDbEntity
  8
1
  100
AcDbLine
  10
44.8715
  20
0.087042
  30
0
  11
44.872
  21
0.086899
  31
0
  0
LINE
  5
400
  100
AcDbEntity
  8
1
  100
AcDbLine
  10
44.872
  20
0.086899
  30
0
  11
44.8725
  21
0.086756
  31
0
  0
LINE
  5
401
  100
AcDbEntity
  8
1
  100
AcDbLine
  10
44.8725
  20
0.086756
  30
0
  11
44.873
  21
0.086612
  31
0
  0
LINE
  5
402
  100
AcDbEntity
  8
1
  100
AcDbLine
  10
44.873
  20
0.086612
  30
0
  11
44.8735
  21
0.086468
  31
0
  0
LINE
  5
403
  100
AcDbEntity
  8
1
  100
AcDbLine
  10
44.8735
  20
0.086468
  30
0
  11
44.874
  21
0.086322
  31
0
  0
LINE
  5
404
  100
AcDbEntity
  8
1
  100
AcDbLine
  10
44.874
  20
0.086322
  30
0
  11
44.8745
  21
0.086176
  31
0
  0
LINE
  5
405
  100
AcDbEntity
  8
1
  100
AcDbLine
  10
44.8745
  20
0.086176
  30
0
  11
44.875
  21
0.086029
  31
0
  0
LINE
  5
406
  100
AcDbEntity
  8
1
  100
AcDbLine
  10
44.875
  20
0.086029
  30
0
  11
44.8755
  21
0.085882
  31
0
  0
LINE
  5
407
  100
AcDbEntity
  8
1
  100
AcDbLine
  10
44.8755
  20
0.085882
  30
0
  11
44.876
  21
0.085734
  31
0
  0
LINE
  5
408
  100
AcDbEntity
  8
1
  100
AcDbLine
  10
44.876
  20
0.085734
  30
0
  11
44.8765
  21
0.085585
  31
0
  0
LINE
  5
409
  100
AcDbEntity
  8
1
  100
AcDbLine
  10
44.8765
  20
0.085585
  30
0
  11
44.877
  21
0.085435
  31
0
  0
LINE
  5
40a
  100
AcDbEntity
  8
1
  100
AcDbLine
  10
44.877
  20
0.085435
  30
0
  11
44.8775
  21
0.085285
  31
0
  0
LINE
  5
40b
  100
AcDbEntity
  8
1
  100
AcDbLine
  10
44.8775
  20
0.085285
  30
0
  11
44.878
  21
0.085134
  31
0
  0
LINE
  5
40c
  100
AcDbEntity
  8
1
  100
AcDbLine
  10
44.878
  20
0.085134
  30
0
  11
44.8785
  21
0.084982
  31
0
  0
LINE
  5
40d
  100
AcDbEntity
  8
1
  100
AcDbLine
  10
44.8785
  20
0.084982
  30
0
  11
44.879
  21
0.084829
  31
0
  0
LINE
  5
40e
  100
AcDbEntity
  8
1
  100
AcDbLine
  10
44.879
  20
0.084829
  30
0
  11
44.8795
  21
0.084676
  31
0
  0
LINE
  5
40f
  100
AcDbEntity
  8
1
  100
AcDbLine
  10
44.8795
  20
0.084676
  30
0
  11
44.88
  21
0.084522
  31
0
  0
LINE
  5
410
  100
AcDbEntity
  8
1
  100
AcDbLine
  10
44.88
  20
0.084522
  30
0
  11
44.8805
  21
0.084368
  31
0
  0
LINE
  5
411
  100
AcDbEntity
  8
1
  100
AcDbLine
  10
44.8805
  20
0.084368
  30
0
  11
44.881
  21
0.084212
  31
0
  0
LINE
  5
412
  100
AcDbEntity
  8
1
  100
AcDbLine
  10
44.881
  20
0.084212
  30
0
  11
44.8815
  21
0.084056
  31
0
  0
LINE
  5
413
  100
AcDbEntity
  8
1
  100
AcDbLine
  10
44.8815
  20
0.084056
  30
0
  11
44.882
  21
0.083899
  31
0
  0
LINE
  5
414
  100
AcDbEntity
  8
1
  100
AcDbLine
  10
44.882
  20
0.083899
  30
0
  11
44.8825
  21
0.083742
  31
0
  0
LINE
  5
415
  100
AcDbEntity
  8
1
  100
AcDbLine
  10
44.8825
  20
0.083742
  30
0
  11
44.883
  21
0.083584
  31
0
  0
LINE
  5
416
  100
AcDbEntity
  8
1
  100
AcDbLine
  10
44.883
  20
0.083584
  30
0
  11
44.8835
  21
0.083425
  31
0
  0
LINE
  5
417
  100
AcDbEntity
  8
1
  100
AcDbLine
  10
44.8835
  20
0.083425
  30
0
  11
44.884
  21
0.083266
  31
0
  0
LINE
  5
418
  100
AcDbEntity
  8
1
  100
AcDbLine
  10
44.884
  20
0.083266
  30
0
  11
44.8845
  21
0.083105
  31
0
  0
LINE
  5
419
  100
AcDbEntity
  8
1
  100
AcDbLine
  10
44.8845
  20
0.083105
  30
0
  11
44.885
  21
0.082944
  31
0
  0
LINE
  5
41a
  100
AcDbEntity
  8
1
  100
AcDbLine
  10
44.885
  20
0.082944
  30
0
  11
44.8855
  21
0.082783
  31
0
  0
LINE
  5
41b
  100
AcDbEntity
  8
1
  100
AcDbLine
  10
44.8855
  20
0.082783
  30
0
  11
44.886
  21
0.082621
  31
0
  0
LINE
  5
41c
  100
AcDbEntity
  8
1
  100
AcDbLine
  10
44.886
  20
0.082621
  30
0
  11
44.8865
  21
0.082458
  31
0
  0
LINE
  5
41d
  100
AcDbEntity
  8
1
  100
AcDbLine
  10
44.8865
  20
0.082458
  30
0
  11
44.887
  21
0.082294
  31
0
  0
LINE
  5
41e
  100
AcDbEntity
  8
1
  100
AcDbLine
  10
44.887
  20
0.082294
  30
0
  11
44.8875
  21
0.08213
  31
0
  0
LINE
  5
41f
  100
AcDbEntity
  8
1
  100
AcDbLine
  10
44.8875
  20
0.08213
  30
0
  11
44.888
  21
0.081965
  31
0
  0
LINE
  5
420
  100
AcDbEntity
  8
1
  100
AcDbLine
  10
44.888
  20
0.081965
  30
0
  11
44.8885
  21
0.081799
  31
0
  0
LINE
  5
421
  100
AcDbEntity
  8
1
  100
AcDbLine
  10
44.8885
  20
0.081799
  30
0
  11
44.889
  21
0.081632
  31
0
  0
LINE
  5
422
  100
AcDbEntity
  8
1
  100
AcDbLine
  10
44.889
  20
0.081632
  30
0
  11
44.8895
  21
0.081465
  31
0
  0
LINE
  5
423
  100
AcDbEntity
  8
1
  100
AcDbLine
  10
44.8895
  20
0.081465
  30
0
  11
44.89
  21
0.081298
  31
0
  0
LINE
  5
424
  100
AcDbEntity
  8
1
  100
AcDbLine
  10
44.89
  20
0.081298
  30
0
  11
44.8905
  21
0.081129
  31
0
  0
LINE
  5
425
  100
AcDbEntity
  8
1
  100
AcDbLine
  10
44.8905
  20
0.081129
  30
0
  11
44.891
  21
0.08096
  31
0
  0
LINE
  5
426
  100
AcDbEntity
  8
1
  100
AcDbLine
  10
44.891
  20
0.08096
  30
0
  11
44.8915
  21
0.08079
  31
0
  0
LINE
  5
427
  100
AcDbEntity
  8
1
  100
AcDbLine
  10
44.8915
  20
0.08079
  30
0
  11
44.892
  21
0.08062
  31
0
  0
LINE
  5
428
  100
AcDbEntity
  8
1
  100
AcDbLine
  10
44.892
  20
0.08062
  30
0
  11
44.8925
  21
0.080449
  31
0
  0
LINE
  5
429
  100
AcDbEntity
  8
1
  100
AcDbLine
  10
44.8925
  20
0.080449
  30
0
  11
44.893
  21
0.080277
  31
0
  0
LINE
  5
42a
  100
AcDbEntity
  8
1
  100
AcDbLine
  10
44.893
  20
0.080277
  30
0
  11
44.8935
  21
0.080104
  31
0
  0
LINE
  5
42b
  100
AcDbEntity
  8
1
  100
AcDbLine
  10
44.8935
  20
0.080104
  30
0
  11
44.894
  21
0.079931
  31
0
  0
LINE
  5
42c
  100
AcDbEntity
  8
1
  100
AcDbLine
  10
44.894
  20
0.079931
  30
0
  11
44.8945
  21
0.079757
  31
0
  0
LINE
  5
42d
  100
AcDbEntity
  8
1
  100
AcDbLine
  10
44.8945
  20
0.079757
  30
0
  11
44.895
  21
0.079583
  31
0
  0
LINE
  5
42e
  100
AcDbEntity
  8
1
  100
AcDbLine
  10
44.895
  20
0.079583
  30
0
  11
44.8955
  21
0.079408
  31
0
  0
LINE
  5
42f
  100
AcDbEntity
  8
1
  100
AcDbLine
  10
44.8955
  20
0.079408
  30
0
  11
44.896
  21
0.079232
  31
0
  0
LINE
  5
430
  100
AcDbEntity
  8
1
  100
AcDbLine
  10
44.896
  20
0.079232
  30
0
  11
44.8965
  21
0.079056
  31
0
  0
LINE
  5
431
  100
AcDbEntity
  8
1
  100
AcDbLine
  10
44.8965
  20
0.079056
  30
0
  11
44.897
  21
0.078879
  31
0
  0
LINE
  5
432
  100
AcDbEntity
  8
1
  100
AcDbLine
  10
44.897
  20
0.078879
  30
0
  11
44.8975
  21
0.078701
  31
0
  0
LINE
  5
433
  100
AcDbEntity
  8
1
  100
AcDbLine
  10
44.8975
  20
0.078701
  30
0
  11
44.898
  21
0.078522
  31
0
  0
LINE
  5
434
  100
AcDbEntity
  8
1
  100
AcDbLine
  10
44.898
  20
0.078522
  30
0
  11
44.8985
  21
0.078343
  31
0
  0
LINE
  5
435
  100
AcDbEntity
  8
1
  100
AcDbLine
  10
44.8985
  20
0.078343
  30
0
  11
44.899
  21
0.078164
  31
0
  0
LINE
  5
436
  100
AcDbEntity
  8
1
  100
AcDbLine
  10
44.899
  20
0.078164
  30
0
  11
44.8995
  21
0.077983
  31
0
  0
LINE
  5
437
  100
AcDbEntity
  8
1
  100
AcDbLine
  10
44.8995
  20
0.077983
  30
0
  11
44.9
  21
0.077802
  31
0
  0
LINE
  5
438
  100
AcDbEntity
  8
1
  100
AcDbLine
  10
44.9
  20
0.077802
  30
0
  11
44.9005
  21
0.07762
  31
0
  0
LINE
  5
439
  100
AcDbEntity
  8
1
  100
AcDbLine
  10
44.9005
  20
0.07762
  30
0
  11
44.901
  21
0.077438
  31
0
  0
LINE
  5
43a
  100
AcDbEntity
  8
1
  100
AcDbLine
  10
44.901
  20
0.077438
  30
0
  11
44.9015
  21
0.077255
  31
0
  0
LINE
  5
43b
  100
AcDbEntity
  8
1
  100
AcDbLine
  10
44.9015
  20
0.077255
  30
0
  11
44.902
  21
0.077072
  31
0
  0
LINE
  5
43c
  100
AcDbEntity
  8
1
  100
AcDbLine
  10
44.902
  20
0.077072
  30
0
  11
44.9025
  21
0.076887
  31
0
  0
LINE
  5
43d
  100
AcDbEntity
  8
1
  100
AcDbLine
  10
44.9025
  20
0.076887
  30
0
  11
44.903
  21
0.076702
  31
0
  0
LINE
  5
43e
  100
AcDbEntity
  8
1
  100
AcDbLine
  10
44.903
  20
0.076702
  30
0
  11
44.9035
  21
0.076517
  31
0
  0
LINE
  5
43f
  100
AcDbEntity
  8
1
  100
AcDbLine
  10
44.9035
  20
0.076517
  30
0
  11
44.904
  21
0.076331
  31
0
  0
LINE
  5
440
  100
AcDbEntity
  8
1
  100
AcDbLine
  10
44.904
  20
0.076331
  30
0
  11
44.9045
  21
0.076144
  31
0
  0
LINE
  5
441
  100
AcDbEntity
  8
1
  100
AcDbLine
  10
44.9045
  20
0.076144
  30
0
  11
44.905
  21
0.075956
  31
0
  0
LINE
  5
442
  100
AcDbEntity
  8
1
  100
AcDbLine
  10
44.905
  20
0.075956
  30
0
  11
44.9055
  21
0.075768
  31
0
  0
LINE
  5
443
  100
AcDbEntity
  8
1
  100
AcDbLine
  10
44.9055
  20
0.075768
  30
0
  11
44.906
  21
0.07558
  31
0
  0
LINE
  5
444
  100
AcDbEntity
  8
1
  100
AcDbLine
  10
44.906
  20
0.07558
  30
0
  11
44.9065
  21
0.07539
  31
0
  0
LINE
  5
445
  100
AcDbEntity
  8
1
  100
AcDbLine
  10
44.9065
  20
0.07539
  30
0
  11
44.907
  21
0.0752
  31
0
  0
LINE
  5
446
  100
AcDbEntity
  8
1
  100
AcDbLine
  10
44.907
  20
0.0752
  30
0
  11
44.9075
  21
0.07501
  31
0
  0
LINE
  5
447
  100
AcDbEntity
  8
1
  100
AcDbLine
  10
44.9075
  20
0.07501
  30
0
  11
44.908
  21
0.074818
  31
0
  0
LINE
  5
448
  100
AcDbEntity
  8
1
  100
AcDbLine
  10
44.908
  20
0.074818
  30
0
  11
44.9085
  21
0.074627
  31
0
  0
LINE
  5
449
  100
AcDbEntity
  8
1
  100
AcDbLine
  10
44.9085
  20
0.074627
  30
0
  11
44.909
  21
0.074434
  31
0
  0
LINE
  5
44a
  100
AcDbEntity
  8
1
  100
AcDbLine
  10
44.909
  20
0.074434
  30
0
  11
44.9095
  21
0.074241
  31
0
  0
LINE
  5
44b
  100
AcDbEntity
  8
1
  100
AcDbLine
  10
44.9095
  20
0.074241
  30
0
  11
44.91
  21
0.074047
  31
0
  0
LINE
  5
44c
  100
AcDbEntity
  8
1
  100
AcDbLine
  10
44.91
  20
0.074047
  30
0
  11
44.9105
  21
0.073853
  31
0
  0
LINE
  5
44d
  100
AcDbEntity
  8
1
  100
AcDbLine
  10
44.9105
  20
0.073853
  30
0
  11
44.911
  21
0.073658
  31
0
  0
LINE
  5
44e
  100
AcDbEntity
  8
1
  100
AcDbLine
  10
44.911
  20
0.073658
  30
0
  11
44.9115
  21
0.073463
  31
0
  0
LINE
  5
44f
  100
AcDbEntity
  8
1
  100
AcDbLine
  10
44.9115
  20
0.073463
  30
0
  11
44.912
  21
0.073266
  31
0
  0
LINE
  5
450
  100
AcDbEntity
  8
1
  100
AcDbLine
  10
44.912
  20
0.073266
  30
0
  11
44.9125
  21
0.07307
  31
0
  0
LINE
  5
451
  100
AcDbEntity
  8
1
  100
AcDbLine
  10
44.9125
  20
0.07307
  30
0
  11
44.913
  21
0.072872
  31
0
  0
LINE
  5
452
  100
AcDbEntity
  8
1
  100
AcDbLine
  10
44.913
  20
0.072872
  30
0
  11
44.9135
  21
0.072674
  31
0
  0
LINE
  5
453
  100
AcDbEntity
  8
1
  100
AcDbLine
  10
44.9135
  20
0.072674
  30
0
  11
44.914
  21
0.072476
  31
0
  0
LINE
  5
454
  100
AcDbEntity
  8
1
  100
AcDbLine
  10
44.914
  20
0.072476
  30
0
  11
44.9145
  21
0.072276
  31
0
  0
LINE
  5
455
  100
AcDbEntity
  8
1
  100
AcDbLine
  10
44.9145
  20
0.072276
  30
0
  11
44.915
  21
0.072077
  31
0
  0
LINE
  5
456
  100
AcDbEntity
  8
1
  100
AcDbLine
  10
44.915
  20
0.072077
  30
0
  11
44.9155
  21
0.071876
  31
0
  0
LINE
  5
457
  100
AcDbEntity
  8
1
  100
AcDbLine
  10
44.9155
  20
0.071876
  30
0
  11
44.916
  21
0.071675
  31
0
  0
LINE
  5
458
  100
AcDbEntity
  8
1
  100
AcDbLine
  10
44.916
  20
0.071675
  30
0
  11
44.9165
  21
0.071474
  31
0
  0
LINE
  5
459
  100
AcDbEntity
  8
1
  100
AcDbLine
  10
44.9165
  20
0.071474
  30
0
  11
44.917
  21
0.071271
  31
0
  0
LINE
  5
45a
  100
AcDbEntity
  8
1
  100
AcDbLine
  10
44.917
  20
0.071271
  30
0
  11
44.9175
  21
0.071069
  31
0
  0
LINE
  5
45b
  100
AcDbEntity
  8
1
  100
AcDbLine
  10
44.9175
  20
0.071069
  30
0
  11
44.918
  21
0.070865
  31
0
  0
LINE
  5
45c
  100
AcDbEntity
  8
1
  100
AcDbLine
  10
44.918
  20
0.070865
  30
0
  11
44.9185
  21
0.070661
  31
0
  0
LINE
  5
45d
  100
AcDbEntity
  8
1
  100
AcDbLine
  10
44.9185
  20
0.070661
  30
0
  11
44.919
  21
0.070457
  31
0
  0
LINE
  5
45e
  100
AcDbEntity
  8
1
  100
AcDbLine
  10
44.919
  20
0.070457
  30
0
  11
44.9195
  21
0.070252
  31
0
  0
LINE
  5
45f
  100
AcDbEntity
  8
1
  100
AcDbLine
  10
44.9195
  20
0.070252
  30
0
  11
44.92
  21
0.070046
  31
0
  0
LINE
  5
460
  100
AcDbEntity
  8
1
  100
AcDbLine
  10
44.92
  20
0.070046
  30
0
  11
44.9205
  21
0.06984
  31
0
  0
LINE
  5
461
  100
AcDbEntity
  8
1
  100
AcDbLine
  10
44.9205
  20
0.06984
  30
0
  11
44.921
  21
0.069633
  31
0
  0
LINE
  5
462
  100
AcDbEntity
  8
1
  100
AcDbLine
  10
44.921
  20
0.069633
  30
0
  11
44.9215
  21
0.069425
  31
0
  0
LINE
  5
463
  100
AcDbEntity
  8
1
  100
AcDbLine
  10
44.9215
  20
0.069425
  30
0
  11
44.922
  21
0.069217
  31
0
  0
LINE
  5
464
  100
AcDbEntity
  8
1
  100
AcDbLine
  10
44.922
  20
0.069217
  30
0
  11
44.9225
  21
0.069008
  31
0
  0
LINE
  5
465
  100
AcDbEntity
  8
1
  100
AcDbLine
  10
44.9225
  20
0.069008
  30
0
  11
44.923
  21
0.068799
  31
0
  0
LINE
  5
466
  100
AcDbEntity
  8
1
  100
AcDbLine
  10
44.923
  20
0.068799
  30
0
  11
44.9235
  21
0.068589
  31
0
  0
LINE
  5
467
  100
AcDbEntity
  8
1
  100
AcDbLine
  10
44.9235
  20
0.068589
  30
0
  11
44.924
  21
0.068379
  31
0
  0
LINE
  5
468
  100
AcDbEntity
  8
1
  100
AcDbLine
  10
44.924
  20
0.068379
  30
0
  11
44.9245
  21
0.068168
  31
0
  0
LINE
  5
469
  100
AcDbEntity
  8
1
  100
AcDbLine
  10
44.9245
  20
0.068168
  30
0
  11
44.925
  21
0.067957
  31
0
  0
LINE
  5
46a
  100
AcDbEntity
  8
1
  100
AcDbLine
  10
44.925
  20
0.067957
  30
0
  11
44.9255
  21
0.067745
  31
0
  0
LINE
  5
46b
  100
AcDbEntity
  8
1
  100
AcDbLine
  10
44.9255
  20
0.067745
  30
0
  11
44.926
  21
0.067532
  31
0
  0
LINE
  5
46c
  100
AcDbEntity
  8
1
  100
AcDbLine
  10
44.926
  20
0.067532
  30
0
  11
44.9265
  21
0.067319
  31
0
  0
LINE
  5
46d
  100
AcDbEntity
  8
1
  100
AcDbLine
  10
44.9265
  20
0.067319
  30
0
  11
44.927
  21
0.067105
  31
0
  0
LINE
  5
46e
  100
AcDbEntity
  8
1
  100
AcDbLine
  10
44.927
  20
0.067105
  30
0
  11
44.9275
  21
0.066891
  31
0
  0
LINE
  5
46f
  100
AcDbEntity
  8
1
  100
AcDbLine
  10
44.9275
  20
0.066891
  30
0
  11
44.928
  21
0.066676
  31
0
  0
LINE
  5
470
  100
AcDbEntity
  8
1
  100
AcDbLine
  10
44.928
  20
0.066676
  30
0
  11
44.9285
  21
0.06646
  31
0
  0
LINE
  5
471
  100
AcDbEntity
  8
1
  100
AcDbLine
  10
44.9285
  20
0.06646
  30
0
  11
44.929
  21
0.066245
  31
0
  0
LINE
  5
472
  100
AcDbEntity
  8
1
  100
AcDbLine
  10
44.929
  20
0.066245
  30
0
  11
44.9295
  21
0.066028
  31
0
  0
LINE
  5
473
  100
AcDbEntity
  8
1
  100
AcDbLine
  10
44.9295
  20
0.066028
  30
0
  11
44.93
  21
0.065811
  31
0
  0
LINE
  5
474
  100
AcDbEntity
  8
1
  100
AcDbLine
  10
44.93
  20
0.065811
  30
0
  11
44.9305
  21
0.065593
  31
0
  0
LINE
  5
475
  100
AcDbEntity
  8
1
  100
AcDbLine
  10
44.9305
  20
0.065593
  30
0
  11
44.931
  21
0.065375
  31
0
  0
LINE
  5
476
  100
AcDbEntity
  8
1
  100
AcDbLine
  10
44.931
  20
0.065375
  30
0
  11
44.9315
  21
0.065156
  31
0
  0
LINE
  5
477
  100
AcDbEntity
  8
1
  100
AcDbLine
  10
44.9315
  20
0.065156
  30
0
  11
44.932
  21
0.064937
  31
0
  0
LINE
  5
478
  100
AcDbEntity
  8
1
  100
AcDbLine
  10
44.932
  20
0.064937
  30
0
  11
44.9325
  21
0.064717
  31
0
  0
LINE
  5
479
  100
AcDbEntity
  8
1
  100
AcDbLine
  10
44.9325
  20
0.064717
  30
0
  11
44.933
  21
0.064497
  31
0
  0
LINE
  5
47a
  100
AcDbEntity
  8
1
  100
AcDbLine
  10
44.933
  20
0.064497
  30
0
  11
44.9335
  21
0.064276
  31
0
  0
LINE
  5
47b
  100
AcDbEntity
  8
1
  100
AcDbLine
  10
44.9335
  20
0.064276
  30
0
  11
44.934
  21
0.064055
  31
0
  0
LINE
  5
47c
  100
AcDbEntity
  8
1
  100
AcDbLine
  10
44.934
  20
0.064055
  30
0
  11
44.9345
  21
0.063833
  31
0
  0
LINE
  5
47d
  100
AcDbEntity
  8
1
  100
AcDbLine
  10
44.9345
  20
0.063833
  30
0
  11
44.935
  21
0.06361
  31
0
  0
LINE
  5
47e
  100
AcDbEntity
  8
1
  100
AcDbLine
  10
44.935
  20
0.06361
  30
0
  11
44.9355
  21
0.063387
  31
0
  0
LINE
  5
47f
  100
AcDbEntity
  8
1
  100
AcDbLine
  10
44.9355
  20
0.063387
  30
0
  11
44.936
  21
0.063164
  31
0
  0
LINE
  5
480
  100
AcDbEntity
  8
1
  100
AcDbLine
  10
44.936
  20
0.063164
  30
0
  11
44.9365
  21
0.06294
  31
0
  0
LINE
  5
481
  100
AcDbEntity
  8
1
  100
AcDbLine
  10
44.9365
  20
0.06294
  30
0
  11
44.937
  21
0.062715
  31
0
  0
LINE
  5
482
  100
AcDbEntity
  8
1
  100
AcDbLine
  10
44.937
  20
0.062715
  30
0
  11
44.9375
  21
0.06249
  31
0
  0
LINE
  5
483
  100
AcDbEntity
  8
1
  100
AcDbLine
  10
44.9375
  20
0.06249
  30
0
  11
44.938
  21
0.062264
  31
0
  0
LINE
  5
484
  100
AcDbEntity
  8
1
  100
AcDbLine
  10
44.938
  20
0.062264
  30
0
  11
44.9385
  21
0.062038
  31
0
  0
LINE
  5
485
  100
AcDbEntity
  8
1
  100
AcDbLine
  10
44.9385
  20
0.062038
  30
0
  11
44.939
  21
0.061812
  31
0
  0
LINE
  5
486
  100
AcDbEntity
  8
1
  100
AcDbLine
  10
44.939
  20
0.061812
  30
0
  11
44.9395
  21
0.061584
  31
0
  0
LINE
  5
487
  100
AcDbEntity
  8
1
  100
AcDbLine
  10
44.9395
  20
0.061584
  30
0
  11
44.94
  21
0.061357
  31
0
  0
LINE
  5
488
  100
AcDbEntity
  8
1
  100
AcDbLine
  10
44.94
  20
0.061357
  30
0
  11
44.9405
  21
0.061128
  31
0
  0
LINE
  5
489
  100
AcDbEntity
  8
1
  100
AcDbLine
  10
44.9405
  20
0.061128
  30
0
  11
44.941
  21
0.0609
  31
0
  0
LINE
  5
48a
  100
AcDbEntity
  8
1
  100
AcDbLine
  10
44.941
  20
0.0609
  30
0
  11
44.9415
  21
0.060671
  31
0
  0
LINE
  5
48b
  100
AcDbEntity
  8
1
  100
AcDbLine
  10
44.9415
  20
0.060671
  30
0
  11
44.942
  21
0.060441
  31
0
  0
LINE
  5
48c
  100
AcDbEntity
  8
1
  100
AcDbLine
  10
44.942
  20
0.060441
  30
0
  11
44.9425
  21
0.060211
  31
0
  0
LINE
  5
48d
  100
AcDbEntity
  8
1
  100
AcDbLine
  10
44.9425
  20
0.060211
  30
0
  11
44.943
  21
0.05998
  31
0
  0
LINE
  5
48e
  100
AcDbEntity
  8
1
  100
AcDbLine
  10
44.943
  20
0.05998
  30
0
  11
44.9435
  21
0.059749
  31
0
  0
LINE
  5
48f
  100
AcDbEntity
  8
1
  100
AcDbLine
  10
44.9435
  20
0.059749
  30
0
  11
44.944
  21
0.059517
  31
0
  0
LINE
  5
490
  100
AcDbEntity
  8
1
  100
AcDbLine
  10
44.944
  20
0.059517
  30
0
  11
44.9445
  21
0.059285
  31
0
  0
LINE
  5
491
  100
AcDbEntity
  8
1
  100
AcDbLine
  10
44.9445
  20
0.059285
  30
0
  11
44.945
  21
0.059052
  31
0
  0
LINE
  5
492
  100
AcDbEntity
  8
1
  100
AcDbLine
  10
44.945
  20
0.059052
  30
0
  11
44.9455
  21
0.058819
  31
0
  0
LINE
  5
493
  100
AcDbEntity
  8
1
  100
AcDbLine
  10
44.9455
  20
0.058819
  30
0
  11
44.946
  21
0.058585
  31
0
  0
LINE
  5
494
  100
AcDbEntity
  8
1
  100
AcDbLine
  10
44.946
  20
0.058585
  30
0
  11
44.9465
  21
0.058351
  31
0
  0
LINE
  5
495
  100
AcDbEntity
  8
1
  100
AcDbLine
  10
44.9465
  20
0.058351
  30
0
  11
44.947
  21
0.058116
  31
0
  0
LINE
  5
496
  100
AcDbEntity
  8
1
  100
AcDbLine
  10
44.947
  20
0.058116
  30
0
  11
44.9475
  21
0.057881
  31
0
  0
LINE
  5
497
  100
AcDbEntity
  8
1
  100
AcDbLine
  10
44.9475
  20
0.057881
  30
0
  11
44.948
  21
0.057645
  31
0
  0
LINE
  5
498
  100
AcDbEntity
  8
1
  100
AcDbLine
  10
44.948
  20
0.057645
  30
0
  11
44.9485
  21
0.057409
  31
0
  0
LINE
  5
499
  100
AcDbEntity
  8
1
  100
AcDbLine
  10
44.9485
  20
0.057409
  30
0
  11
44.949
  21
0.057173
  31
0
  0
LINE
  5
49a
  100
AcDbEntity
  8
1
  100
AcDbLine
  10
44.949
  20
0.057173
  30
0
  11
44.9495
  21
0.056936
  31
0
  0
LINE
  5
49b
  100
AcDbEntity
  8
1
  100
AcDbLine
  10
44.9495
  20
0.056936
  30
0
  11
44.95
  21
0.056698
  31
0
  0
LINE
  5
49c
  100
AcDbEntity
  8
1
  100
AcDbLine
  10
44.95
  20
0.056698
  30
0
  11
44.9505
  21
0.05646
  31
0
  0
LINE
  5
49d
  100
AcDbEntity
  8
1
  100
AcDbLine
  10
44.9505
  20
0.05646
  30
0
  11
44.951
  21
0.056221
  31
0
  0
LINE
  5
49e
  100
AcDbEntity
  8
1
  100
AcDbLine
  10
44.951
  20
0.056221
  30
0
  11
44.9515
  21
0.055982
  31
0
  0
LINE
  5
49f
  100
AcDbEntity
  8
1
  100
AcDbLine
  10
44.9515
  20
0.055982
  30
0
  11
44.952
  21
0.055743
  31
0
  0
LINE
  5
4a0
  100
AcDbEntity
  8
1
  100
AcDbLine
  10
44.952
  20
0.055743
  30
0
  11
44.9525
  21
0.055503
  31
0
  0
LINE
  5
4a1
  100
AcDbEntity
  8
1
  100
AcDbLine
  10
44.9525
  20
0.055503
  30
0
  11
44.953
  21
0.055263
  31
0
  0
LINE
  5
4a2
  100
AcDbEntity
  8
1
  100
AcDbLine
  10
44.953
  20
0.055263
  30
0
  11
44.9535
  21
0.055022
  31
0
  0
LINE
  5
4a3
  100
AcDbEntity
  8
1
  100
AcDbLine
  10
44.9535
  20
0.055022
  30
0
  11
44.954
  21
0.054781
  31
0
  0
LINE
  5
4a4
  100
AcDbEntity
  8
1
  100
AcDbLine
  10
44.954
  20
0.054781
  30
0
  11
44.9545
  21
0.054539
  31
0
  0
LINE
  5
4a5
  100
AcDbEntity
  8
1
  100
AcDbLine
  10
44.9545
  20
0.054539
  30
0
  11
44.955
  21
0.054297
  31
0
  0
LINE
  5
4a6
  100
AcDbEntity
  8
1
  100
AcDbLine
  10
44.955
  20
0.054297
  30
0
  11
44.9555
  21
0.054054
  31
0
  0
LINE
  5
4a7
  100
AcDbEntity
  8
1
  100
AcDbLine
  10
44.9555
  20
0.054054
  30
0
  11
44.956
  21
0.053811
  31
0
  0
LINE
  5
4a8
  100
AcDbEntity
  8
1
  100
AcDbLine
  10
44.956
  20
0.053811
  30
0
  11
44.9565
  21
0.053567
  31
0
  0
LINE
  5
4a9
  100
AcDbEntity
  8
1
  100
AcDbLine
  10
44.9565
  20
0.053567
  30
0
  11
44.957
  21
0.053323
  31
0
  0
LINE
  5
4aa
  100
AcDbEntity
  8
1
  100
AcDbLine
  10
44.957
  20
0.053323
  30
0
  11
44.9575
  21
0.053079
  31
0
  0
LINE
  5
4ab
  100
AcDbEntity
  8
1
  100
AcDbLine
  10
44.9575
  20
0.053079
  30
0
  11
44.958
  21
0.052834
  31
0
  0
LINE
  5
4ac
  100
AcDbEntity
  8
1
  100
AcDbLine
  10
44.958
  20
0.052834
  30
0
  11
44.9585
  21
0.052589
  31
0
  0
LINE
  5
4ad
  100
AcDbEntity
  8
1
  100
AcDbLine
  10
44.9585
  20
0.052589
  30
0
  11
44.959
  21
0.052343
  31
0
  0
LINE
  5
4ae
  100
AcDbEntity
  8
1
  100
AcDbLine
  10
44.959
  20
0.052343
  30
0
  11
44.9595
  21
0.052097
  31
0
  0
LINE
  5
4af
  100
AcDbEntity
  8
1
  100
AcDbLine
  10
44.9595
  20
0.052097
  30
0
  11
44.96
  21
0.05185
  31
0
  0
LINE
  5
4b0
  100
AcDbEntity
  8
1
  100
AcDbLine
  10
44.96
  20
0.05185
  30
0
  11
44.9605
  21
0.051603
  31
0
  0
LINE
  5
4b1
  100
AcDbEntity
  8
1
  100
AcDbLine
  10
44.9605
  20
0.051603
  30
0
  11
44.961
  21
0.051356
  31
0
  0
LINE
  5
4b2
  100
AcDbEntity
  8
1
  100
AcDbLine
  10
44.961
  20
0.051356
  30
0
  11
44.9615
  21
0.051108
  31
0
  0
LINE
  5
4b3
  100
AcDbEntity
  8
1
  100
AcDbLine
  10
44.9615
  20
0.051108
  30
0
  11
44.962
  21
0.05086
  31
0
  0
LINE
  5
4b4
  100
AcDbEntity
  8
1
  100
AcDbLine
  10
44.962
  20
0.05086
  30
0
  11
44.9625
  21
0.050611
  31
0
  0
LINE
  5
4b5
  100
AcDbEntity
  8
1
  100
AcDbLine
  10
44.9625
  20
0.050611
  30
0
  11
44.963
  21
0.050362
  31
0
  0
LINE
  5
4b6
  100
AcDbEntity
  8
1
  100
AcDbLine
  10
44.963
  20
0.050362
  30
0
  11
44.9635
  21
0.050112
  31
0
  0
LINE
  5
4b7
  100
AcDbEntity
  8
1
  100
AcDbLine
  10
44.9635
  20
0.050112
  30
0
  11
44.964
  21
0.049862
  31
0
  0
LINE
  5
4b8
  100
AcDbEntity
  8
1
  100
AcDbLine
  10
44.964
  20
0.049862
  30
0
  11
44.9645
  21
0.049612
  31
0
  0
LINE
  5
4b9
  100
AcDbEntity
  8
1
  100
AcDbLine
  10
44.9645
  20
0.049612
  30
0
  11
44.965
  21
0.049361
  31
0
  0
LINE
  5
4ba
  100
AcDbEntity
  8
1
  100
AcDbLine
  10
44.965
  20
0.049361
  30
0
  11
44.9655
  21
0.049109
  31
0
  0
LINE
  5
4bb
  100
AcDbEntity
  8
1
  100
AcDbLine
  10
44.9655
  20
0.049109
  30
0
  11
44.966
  21
0.048858
  31
0
  0
LINE
  5
4bc
  100
AcDbEntity
  8
1
  100
AcDbLine
  10
44.966
  20
0.048858
  30
0
  11
44.9665
  21
0.048606
  31
0
  0
LINE
  5
4bd
  100
AcDbEntity
  8
1
  100
AcDbLine
  10
44.9665
  20
0.048606
  30
0
  11
44.967
  21
0.048353
  31
0
  0
LINE
  5
4be
  100
AcDbEntity
  8
1
  100
AcDbLine
  10
44.967
  20
0.048353
  30
0
  11
44.9675
  21
0.0481
  31
0
  0
LINE
  5
4bf
  100
AcDbEntity
  8
1
  100
AcDbLine
  10
44.9675
  20
0.0481
  30
0
  11
44.968
  21
0.047847
  31
0
  0
LINE
  5
4c0
  100
AcDbEntity
  8
1
  100
AcDbLine
  10
44.968
  20
0.047847
  30
0
  11
44.9685
  21
0.047593
  31
0
  0
LINE
  5
4c1
  100
AcDbEntity
  8
1
  100
AcDbLine
  10
44.9685
  20
0.047593
  30
0
  11
44.969
  21
0.047339
  31
0
  0
LINE
  5
4c2
  100
AcDbEntity
  8
1
  100
AcDbLine
  10
44.969
  20
0.047339
  30
0
  11
44.9695
  21
0.047085
  31
0
  0
LINE
  5
4c3
  100
AcDbEntity
  8
1
  100
AcDbLine
  10
44.9695
  20
0.047085
  30
0
  11
44.97
  21
0.04683
  31
0
  0
LINE
  5
4c4
  100
AcDbEntity
  8
1
  100
AcDbLine
  10
44.97
  20
0.04683
  30
0
  11
44.9705
  21
0.046575
  31
0
  0
LINE
  5
4c5
  100
AcDbEntity
  8
1
  100
AcDbLine
  10
44.9705
  20
0.046575
  30
0
  11
44.971
  21
0.046319
  31
0
  0
LINE
  5
4c6
  100
AcDbEntity
  8
1
  100
AcDbLine
  10
44.971
  20
0.046319
  30
0
  11
44.9715
  21
0.046063
  31
0
  0
LINE
  5
4c7
  100
AcDbEntity
  8
1
  100
AcDbLine
  10
44.9715
  20
0.046063
  30
0
  11
44.972
  21
0.045807
  31
0
  0
LINE
  5
4c8
  100
AcDbEntity
  8
1
  100
AcDbLine
  10
44.972
  20
0.045807
  30
0
  11
44.9725
  21
0.04555
  31
0
  0
LINE
  5
4c9
  100
AcDbEntity
  8
1
  100
AcDbLine
  10
44.9725
  20
0.04555
  30
0
  11
44.973
  21
0.045293
  31
0
  0
LINE
  5
4ca
  100
AcDbEntity
  8
1
  100
AcDbLine
  10
44.973
  20
0.045293
  30
0
  11
44.9735
  21
0.045035
  31
0
  0
LINE
  5
4cb
  100
AcDbEntity
  8
1
  100
AcDbLine
  10
44.9735
  20
0.045035
  30
0
  11
44.974
  21
0.044777
  31
0
  0
LINE
  5
4cc
  100
AcDbEntity
  8
1
  100
AcDbLine
  10
44.974
  20
0.044777
  30
0
  11
44.9745
  21
0.044519
  31
0
  0
LINE
  5
4cd
  100
AcDbEntity
  8
1
  100
AcDbLine
  10
44.9745
  20
0.044519
  30
0
  11
44.975
  21
0.04426
  31
0
  0
LINE
  5
4ce
  100
AcDbEntity
  8
1
  100
AcDbLine
  10
44.975
  20
0.04426
  30
0
  11
44.9755
  21
0.044001
  31
0
  0
LINE
  5
4cf
  100
AcDbEntity
  8
1
  100
AcDbLine
  10
44.9755
  20
0.044001
  30
0
  11
44.976
  21
0.043742
  31
0
  0
LINE
  5
4d0
  100
AcDbEntity
  8
1
  100
AcDbLine
  10
44.976
  20
0.043742
  30
0
  11
44.9765
  21
0.043482
  31
0
  0
LINE
  5
4d1
  100
AcDbEntity
  8
1
  100
AcDbLine
  10
44.9765
  20
0.043482
  30
0
  11
44.977
  21
0.043222
  31
0
  0
LINE
  5
4d2
  100
AcDbEntity
  8
1
  100
AcDbLine
  10
44.977
  20
0.043222
  30
0
  11
44.9775
  21
0.042961
  31
0
  0
LINE
  5
4d3
  100
AcDbEntity
  8
1
  100
AcDbLine
  10
44.9775
  20
0.042961
  30
0
  11
44.978
  21
0.0427
  31
0
  0
LINE
  5
4d4
  100
AcDbEntity
  8
1
  100
AcDbLine
  10
44.978
  20
0.0427
  30
0
  11
44.9785
  21
0.042439
  31
0
  0
LINE
  5
4d5
  100
AcDbEntity
  8
1
  100
AcDbLine
  10
44.9785
  20
0.042439
  30
0
  11
44.979
  21
0.042178
  31
0
  0
LINE
  5
4d6
  100
AcDbEntity
  8
1
  100
AcDbLine
  10
44.979
  20
0.042178
  30
0
  11
44.9795
  21
0.041916
  31
0
  0
LINE
  5
4d7
  100
AcDbEntity
  8
1
  100
AcDbLine
  10
44.9795
  20
0.041916
  30
0
  11
44.98
  21
0.041653
  31
0
  0
LINE
  5
4d8
  100
AcDbEntity
  8
1
  100
AcDbLine
  10
44.98
  20
0.041653
  30
0
  11
44.9805
  21
0.041391
  31
0
  0
LINE
  5
4d9
  100
AcDbEntity
  8
1
  100
AcDbLine
  10
44.9805
  20
0.041391
  30
0
  11
44.981
  21
0.041131
  31
0
  0
LINE
  5
4da
  100
AcDbEntity
  8
1
  100
AcDbLine
  10
44.981
  20
0.041131
  30
0
  11
44.9815
  21
0.040871
  31
0
  0
LINE
  5
4db
  100
AcDbEntity
  8
1
  100
AcDbLine
  10
44.9815
  20
0.040871
  30
0
  11
44.982
  21
0.040613
  31
0
  0
LINE
  5
4dc
  100
AcDbEntity
  8
1
  100
AcDbLine
  10
44.982
  20
0.040613
  30
0
  11
44.9825
  21
0.040356
  31
0
  0
LINE
  5
4dd
  100
AcDbEntity
  8
1
  100
AcDbLine
  10
44.9825
  20
0.040356
  30
0
  11
44.983
  21
0.040102
  31
0
  0
LINE
  5
4de
  100
AcDbEntity
  8
1
  100
AcDbLine
  10
44.983
  20
0.040102
  30
0
  11
44.9835
  21
0.039848
  31
0
  0
LINE
  5
4df
  100
AcDbEntity
  8
1
  100
AcDbLine
  10
44.9835
  20
0.039848
  30
0
  11
44.984
  21
0.039597
  31
0
  0
LINE
  5
4e0
  100
AcDbEntity
  8
1
  100
AcDbLine
  10
44.984
  20
0.039597
  30
0
  11
44.9845
  21
0.039348
  31
0
  0
LINE
  5
4e1
  100
AcDbEntity
  8
1
  100
AcDbLine
  10
44.9845
  20
0.039348
  30
0
  11
44.985
  21
0.039102
  31
0
  0
LINE
  5
4e2
  100
AcDbEntity
  8
1
  100
AcDbLine
  10
44.985
  20
0.039102
  30
0
  11
44.9855
  21
0.038858
  31
0
  0
LINE
  5
4e3
  100
AcDbEntity
  8
1
  100
AcDbLine
  10
44.9855
  20
0.038858
  30
0
  11
44.986
  21
0.038616
  31
0
  0
LINE
  5
4e4
  100
AcDbEntity
  8
1
  100
AcDbLine
  10
44.986
  20
0.038616
  30
0
  11
44.9865
  21
0.038378
  31
0
  0
LINE
  5
4e5
  100
AcDbEntity
  8
1
  100
AcDbLine
  10
44.9865
  20
0.038378
  30
0
  11
44.987
  21
0.038142
  31
0
  0
LINE
  5
4e6
  100
AcDbEntity
  8
1
  100
AcDbLine
  10
44.987
  20
0.038142
  30
0
  11
44.9875
  21
0.03791
  31
0
  0
LINE
  5
4e7
  100
AcDbEntity
  8
1
  100
AcDbLine
  10
44.9875
  20
0.03791
  30
0
  11
44.988
  21
0.037681
  31
0
  0
LINE
  5
4e8
  100
AcDbEntity
  8
1
  100
AcDbLine
  10
44.988
  20
0.037681
  30
0
  11
44.9885
  21
0.037456
  31
0
  0
LINE
  5
4e9
  100
AcDbEntity
  8
1
  100
AcDbLine
  10
44.9885
  20
0.037456
  30
0
  11
44.989
  21
0.037236
  31
0
  0
LINE
  5
4ea
  100
AcDbEntity
  8
1
  100
AcDbLine
  10
44.989
  20
0.037236
  30
0
  11
44.9895
  21
0.037019
  31
0
  0
LINE
  5
4eb
  100
AcDbEntity
  8
1
  100
AcDbLine
  10
44.9895
  20
0.037019
  30
0
  11
44.99
  21
0.036807
  31
0
  0
LINE
  5
4ec
  100
AcDbEntity
  8
1
  100
AcDbLine
  10
44.99
  20
0.036807
  30
0
  11
44.9905
  21
0.036601
  31
0
  0
LINE
  5
4ed
  100
AcDbEntity
  8
1
  100
AcDbLine
  10
44.9905
  20
0.036601
  30
0
  11
44.991
  21
0.0364
  31
0
  0
LINE
  5
4ee
  100
AcDbEntity
  8
1
  100
AcDbLine
  10
44.991
  20
0.0364
  30
0
  11
44.9915
  21
0.036204
  31
0
  0
LINE
  5
4ef
  100
AcDbEntity
  8
1
  100
AcDbLine
  10
44.9915
  20
0.036204
  30
0
  11
44.992
  21
0.036015
  31
0
  0
LINE
  5
4f0
  100
AcDbEntity
  8
1
  100
AcDbLine
  10
44.992
  20
0.036015
  30
0
  11
44.9925
  21
0.035833
  31
0
  0
LINE
  5
4f1
  100
AcDbEntity
  8
1
  100
AcDbLine
  10
44.9925
  20
0.035833
  30
0
  11
44.993
  21
0.035659
  31
0
  0
LINE
  5
4f2
  100
AcDbEntity
  8
1
  100
AcDbLine
  10
44.993
  20
0.035659
  30
0
  11
44.9935
  21
0.035493
  31
0
  0
LINE
  5
4f3
  100
AcDbEntity
  8
1
  100
AcDbLine
  10
44.9935
  20
0.035493
  30
0
  11
44.994
  21
0.035336
  31
0
  0
LINE
  5
4f4
  100
AcDbEntity
  8
1
  100
AcDbLine
  10
44.994
  20
0.035336
  30
0
  11
44.9945
  21
0.03519
  31
0
  0
LINE
  5
4f5
  100
AcDbEntity
  8
1
  100
AcDbLine
  10
44.9945
  20
0.03519
  30
0
  11
44.995
  21
0.035054
  31
0
  0
LINE
  5
4f6
  100
AcDbEntity
  8
1
  100
AcDbLine
  10
44.995
  20
0.035054
  30
0
  11
44.9955
  21
0.034932
  31
0
  0
LINE
  5
4f7
  100
AcDbEntity
  8
1
  100
AcDbLine
  10
44.9955
  20
0.034932
  30
0
  11
44.996
  21
0.034825
  31
0
  0
LINE
  5
4f8
  100
AcDbEntity
  8
1
  100
AcDbLine
  10
44.996
  20
0.034825
  30
0
  11
44.9965
  21
0.034736
  31
0
  0
LINE
  5
4f9
  100
AcDbEntity
  8
1
  100
AcDbLine
  10
44.9965
  20
0.034736
  30
0
  11
44.997
  21
0.034667
  31
0
  0
LINE
  5
4fa
  100
AcDbEntity
  8
1
  100
AcDbLine
  10
44.997
  20
0.034667
  30
0
  11
44.9975
  21
0.034624
  31
0
  0
LINE
  5
4fb
  100
AcDbEntity
  8
1
  100
AcDbLine
  10
44.9975
  20
0.034624
  30
0
  11
44.998
  21
0.034614
  31
0
  0
LINE
  5
4fc
  100
AcDbEntity
  8
1
  100
AcDbLine
  10
44.998
  20
0.034614
  30
0
  11
44.9985
  21
0.034649
  31
0
  0
LINE
  5
4fd
  100
AcDbEntity
  8
1
  100
AcDbLine
  10
44.9985
  20
0.034649
  30
0
  11
44.999
  21
0.034751
  31
0
  0
LINE
  5
4fe
  100
AcDbEntity
  8
1
  100
AcDbLine
  10
44.999
  20
0.034751
  30
0
  11
44.9995
  21
0.034978
  31
0
  0
LINE
  5
4ff
  100
AcDbEntity
  8
1
  100
AcDbLine
  10
44.9995
  20
0.034978
  30
0
  11
45
  21
0.03592
  31
0
  0
LINE
  5
500
  100
AcDbEntity
  8
1
  100
AcDbLine
  10
45
  20
0.012599
  30
0
  11
44.9995
  21
0.012228
  31
0
  0
LINE
  5
501
  100
AcDbEntity
  8
1
  100
AcDbLine
  10
44.9995
  20
0.012228
  30
0
  11
44.999
  21
0.012229
  31
0
  0
LINE
  5
502
  100
AcDbEntity
  8
1
  100
AcDbLine
  10
44.999
  20
0.012229
  30
0
  11
44.9985
  21
0.012298
  31
0
  0
LINE
  5
503
  100
AcDbEntity
  8
1
  100
AcDbLine
  10
44.9985
  20
0.012298
  30
0
  11
44.998
  21
0.012404
  31
0
  0
LINE
  5
504
  100
AcDbEntity
  8
1
  100
AcDbLine
  10
44.998
  20
0.012404
  30
0
  11
44.9975
  21
0.012536
  31
0
  0
LINE
  5
505
  100
AcDbEntity
  8
1
  100
AcDbLine
  10
44.9975
  20
0.012536
  30
0
  11
44.997
  21
0.012687
  31
0
  0
LINE
  5
506
  100
AcDbEntity
  8
1
  100
AcDbLine
  10
44.997
  20
0.012687
  30
0
  11
44.9965
  21
0.012852
  31
0
  0
LINE
  5
507
  100
AcDbEntity
  8
1
  100
AcDbLine
  10
44.9965
  20
0.012852
  30
0
  11
44.996
  21
0.01303
  31
0
  0
LINE
  5
508
  100
AcDbEntity
  8
1
  100
AcDbLine
  10
44.996
  20
0.01303
  30
0
  11
44.9955
  21
0.013218
  31
0
  0
LINE
  5
509
  100
AcDbEntity
  8
1
  100
AcDbLine
  10
44.9955
  20
0.013218
  30
0
  11
44.995
  21
0.013415
  31
0
  0
LINE
  5
50a
  100
AcDbEntity
  8
1
  100
AcDbLine
  10
44.995
  20
0.013415
  30
0
  11
44.9945
  21
0.013621
  31
0
  0
LINE
  5
50b
  100
AcDbEntity
  8
1
  100
AcDbLine
  10
44.9945
  20
0.013621
  30
0
  11
44.994
  21
0.013833
  31
0
  0
LINE
  5
50c
  100
AcDbEntity
  8
1
  100
AcDbLine
  10
44.994
  20
0.013833
  30
0
  11
44.9935
  21
0.014051
  31
0
  0
LINE
  5
50d
  100
AcDbEntity
  8
1
  100
AcDbLine
  10
44.9935
  20
0.014051
  30
0
  11
44.993
  21
0.014275
  31
0
  0
LINE
  5
50e
  100
AcDbEntity
  8
1
  100
AcDbLine
  10
44.993
  20
0.014275
  30
0
  11
44.9925
  21
0.014505
  31
0
  0
LINE
  5
50f
  100
AcDbEntity
  8
1
  100
AcDbLine
  10
44.9925
  20
0.014505
  30
0
  11
44.992
  21
0.014739
  31
0
  0
LINE
  5
510
  100
AcDbEntity
  8
1
  100
AcDbLine
  10
44.992
  20
0.014739
  30
0
  11
44.9915
  21
0.014977
  31
0
  0
LINE
  5
511
  100
AcDbEntity
  8
1
  100
AcDbLine
  10
44.9915
  20
0.014977
  30
0
  11
44.991
  21
0.015219
  31
0
  0
LINE
  5
512
  100
AcDbEntity
  8
1
  100
AcDbLine
  10
44.991
  20
0.015219
  30
0
  11
44.9905
  21
0.015465
  31
0
  0
LINE
  5
513
  100
AcDbEntity
  8
1
  100
AcDbLine
  10
44.9905
  20
0.015465
  30
0
  11
44.99
  21
0.015714
  31
0
  0
LINE
  5
514
  100
AcDbEntity
  8
1
  100
AcDbLine
  10
44.99
  20
0.015714
  30
0
  11
44.9895
  21
0.015966
  31
0
  0
LINE
  5
515
  100
AcDbEntity
  8
1
  100
AcDbLine
  10
44.9895
  20
0.015966
  30
0
  11
44.989
  21
0.016222
  31
0
  0
LINE
  5
516
  100
AcDbEntity
  8
1
  100
AcDbLine
  10
44.989
  20
0.016222
  30
0
  11
44.9885
  21
0.016479
  31
0
  0
LINE
  5
517
  100
AcDbEntity
  8
1
  100
AcDbLine
  10
44.9885
  20
0.016479
  30
0
  11
44.988
  21
0.01674
  31
0
  0
LINE
  5
518
  100
AcDbEntity
  8
1
  100
AcDbLine
  10
44.988
  20
0.01674
  30
0
  11
44.9875
  21
0.017002
  31
0
  0
LINE
  5
519
  100
AcDbEntity
  8
1
  100
AcDbLine
  10
44.9875
  20
0.017002
  30
0
  11
44.987
  21
0.017267
  31
0
  0
LINE
  5
51a
  100
AcDbEntity
  8
1
  100
AcDbLine
  10
44.987
  20
0.017267
  30
0
  11
44.9865
  21
0.017533
  31
0
  0
LINE
  5
51b
  100
AcDbEntity
  8
1
  100
AcDbLine
  10
44.9865
  20
0.017533
  30
0
  11
44.986
  21
0.017801
  31
0
  0
LINE
  5
51c
  100
AcDbEntity
  8
1
  100
AcDbLine
  10
44.986
  20
0.017801
  30
0
  11
44.9855
  21
0.018071
  31
0
  0
LINE
  5
51d
  100
AcDbEntity
  8
1
  100
AcDbLine
  10
44.9855
  20
0.018071
  30
0
  11
44.985
  21
0.018342
  31
0
  0
LINE
  5
51e
  100
AcDbEntity
  8
1
  100
AcDbLine
  10
44.985
  20
0.018342
  30
0
  11
44.9845
  21
0.018615
  31
0
  0
LINE
  5
51f
  100
AcDbEntity
  8
1
  100
AcDbLine
  10
44.9845
  20
0.018615
  30
0
  11
44.984
  21
0.018888
  31
0
  0
LINE
  5
520
  100
AcDbEntity
  8
1
  100
AcDbLine
  10
44.984
  20
0.018888
  30
0
  11
44.9835
  21
0.019163
  31
0
  0
LINE
  5
521
  100
AcDbEntity
  8
1
  100
AcDbLine
  10
44.9835
  20
0.019163
  30
0
  11
44.983
  21
0.019438
  31
0
  0
LINE
  5
522
  100
AcDbEntity
  8
1
  100
AcDbLine
  10
44.983
  20
0.019438
  30
0
  11
44.9825
  21
0.019715
  31
0
  0
LINE
  5
523
  100
AcDbEntity
  8
1
  100
AcDbLine
  10
44.9825
  20
0.019715
  30
0
  11
44.982
  21
0.019992
  31
0
  0
LINE
  5
524
  100
AcDbEntity
  8
1
  100
AcDbLine
  10
44.982
  20
0.019992
  30
0
  11
44.9815
  21
0.020269
  31
0
  0
LINE
  5
525
  100
AcDbEntity
  8
1
  100
AcDbLine
  10
44.9815
  20
0.020269
  30
0
  11
44.981
  21
0.020547
  31
0
  0
LINE
  5
526
  100
AcDbEntity
  8
1
  100
AcDbLine
  10
44.981
  20
0.020547
  30
0
  11
44.9805
  21
0.020825
  31
0
  0
LINE
  5
527
  100
AcDbEntity
  8
1
  100
AcDbLine
  10
44.9805
  20
0.020825
  30
0
  11
44.98
  21
0.021104
  31
0
  0
LINE
  5
528
  100
AcDbEntity
  8
1
  100
AcDbLine
  10
44.98
  20
0.021104
  30
0
  11
44.9795
  21
0.021382
  31
0
  0
LINE
  5
529
  100
AcDbEntity
  8
1
  100
AcDbLine
  10
44.9795
  20
0.021382
  30
0
  11
44.979
  21
0.02166
  31
0
  0
LINE
  5
52a
  100
AcDbEntity
  8
1
  100
AcDbLine
  10
44.979
  20
0.02166
  30
0
  11
44.9785
  21
0.021938
  31
0
  0
LINE
  5
52b
  100
AcDbEntity
  8
1
  100
AcDbLine
  10
44.9785
  20
0.021938
  30
0
  11
44.978
  21
0.022216
  31
0
  0
LINE
  5
52c
  100
AcDbEntity
  8
1
  100
AcDbLine
  10
44.978
  20
0.022216
  30
0
  11
44.9775
  21
0.022494
  31
0
  0
LINE
  5
52d
  100
AcDbEntity
  8
1
  100
AcDbLine
  10
44.9775
  20
0.022494
  30
0
  11
44.977
  21
0.022772
  31
0
  0
LINE
  5
52e
  100
AcDbEntity
  8
1
  100
AcDbLine
  10
44.977
  20
0.022772
  30
0
  11
44.9765
  21
0.023049
  31
0
  0
LINE
  5
52f
  100
AcDbEntity
  8
1
  100
AcDbLine
  10
44.9765
  20
0.023049
  30
0
  11
44.976
  21
0.023326
  31
0
  0
LINE
  5
530
  100
AcDbEntity
  8
1
  100
AcDbLine
  10
44.976
  20
0.023326
  30
0
  11
44.9755
  21
0.023603
  31
0
  0
LINE
  5
531
  100
AcDbEntity
  8
1
  100
AcDbLine
  10
44.9755
  20
0.023603
  30
0
  11
44.975
  21
0.02388
  31
0
  0
LINE
  5
532
  100
AcDbEntity
  8
1
  100
AcDbLine
  10
44.975
  20
0.02388
  30
0
  11
44.9745
  21
0.024156
  31
0
  0
LINE
  5
533
  100
AcDbEntity
  8
1
  100
AcDbLine
  10
44.9745
  20
0.024156
  30
0
  11
44.974
  21
0.024432
  31
0
  0
LINE
  5
534
  100
AcDbEntity
  8
1
  100
AcDbLine
  10
44.974
  20
0.024432
  30
0
  11
44.9735
  21
0.024709
  31
0
  0
LINE
  5
535
  100
AcDbEntity
  8
1
  100
AcDbLine
  10
44.9735
  20
0.024709
  30
0
  11
44.973
  21
0.024984
  31
0
  0
LINE
  5
536
  100
AcDbEntity
  8
1
  100
AcDbLine
  10
44.973
  20
0.024984
  30
0
  11
44.9725
  21
0.02526
  31
0
  0
LINE
  5
537
  100
AcDbEntity
  8
1
  100
AcDbLine
  10
44.9725
  20
0.02526
  30
0
  11
44.972
  21
0.025536
  31
0
  0
LINE
  5
538
  100
AcDbEntity
  8
1
  100
AcDbLine
  10
44.972
  20
0.025536
  30
0
  11
44.9715
  21
0.025811
  31
0
  0
LINE
  5
539
  100
AcDbEntity
  8
1
  100
AcDbLine
  10
44.9715
  20
0.025811
  30
0
  11
44.971
  21
0.026086
  31
0
  0
LINE
  5
53a
  100
AcDbEntity
  8
1
  100
AcDbLine
  10
44.971
  20
0.026086
  30
0
  11
44.9705
  21
0.026361
  31
0
  0
LINE
  5
53b
  100
AcDbEntity
  8
1
  100
AcDbLine
  10
44.9705
  20
0.026361
  30
0
  11
44.97
  21
0.026635
  31
0
  0
LINE
  5
53c
  100
AcDbEntity
  8
1
  100
AcDbLine
  10
44.97
  20
0.026635
  30
0
  11
44.9695
  21
0.02691
  31
0
  0
LINE
  5
53d
  100
AcDbEntity
  8
1
  100
AcDbLine
  10
44.9695
  20
0.02691
  30
0
  11
44.969
  21
0.027184
  31
0
  0
LINE
  5
53e
  100
AcDbEntity
  8
1
  100
AcDbLine
  10
44.969
  20
0.027184
  30
0
  11
44.9685
  21
0.027458
  31
0
  0
LINE
  5
53f
  100
AcDbEntity
  8
1
  100
AcDbLine
  10
44.9685
  20
0.027458
  30
0
  11
44.968
  21
0.027732
  31
0
  0
LINE
  5
540
  100
AcDbEntity
  8
1
  100
AcDbLine
  10
44.968
  20
0.027732
  30
0
  11
44.9675
  21
0.028005
  31
0
  0
LINE
  5
541
  100
AcDbEntity
  8
1
  100
AcDbLine
  10
44.9675
  20
0.028005
  30
0
  11
44.967
  21
0.028279
  31
0
  0
LINE
  5
542
  100
AcDbEntity
  8
1
  100
AcDbLine
  10
44.967
  20
0.028279
  30
0
  11
44.9665
  21
0.028552
  31
0
  0
LINE
  5
543
  100
AcDbEntity
  8
1
  100
AcDbLine
  10
44.9665
  20
0.028552
  30
0
  11
44.966
  21
0.028824
  31
0
  0
LINE
  5
544
  100
AcDbEntity
  8
1
  100
AcDbLine
  10
44.966
  20
0.028824
  30
0
  11
44.9655
  21
0.029097
  31
0
  0
LINE
  5
545
  100
AcDbEntity
  8
1
  100
AcDbLine
  10
44.9655
  20
0.029097
  30
0
  11
44.965
  21
0.029369
  31
0
  0
LINE
  5
546
  100
AcDbEntity
  8
1
  100
AcDbLine
  10
44.965
  20
0.029369
  30
0
  11
44.9645
  21
0.029641
  31
0
  0
LINE
  5
547
  100
AcDbEntity
  8
1
  100
AcDbLine
  10
44.9645
  20
0.029641
  30
0
  11
44.964
  21
0.029913
  31
0
  0
LINE
  5
548
  100
AcDbEntity
  8
1
  100
AcDbLine
  10
44.964
  20
0.029913
  30
0
  11
44.9635
  21
0.030185
  31
0
  0
LINE
  5
549
  100
AcDbEntity
  8
1
  100
AcDbLine
  10
44.9635
  20
0.030185
  30
0
  11
44.963
  21
0.030456
  31
0
  0
LINE
  5
54a
  100
AcDbEntity
  8
1
  100
AcDbLine
  10
44.963
  20
0.030456
  30
0
  11
44.9625
  21
0.030727
  31
0
  0
LINE
  5
54b
  100
AcDbEntity
  8
1
  100
AcDbLine
  10
44.9625
  20
0.030727
  30
0
  11
44.962
  21
0.030998
  31
0
  0
LINE
  5
54c
  100
AcDbEntity
  8
1
  100
AcDbLine
  10
44.962
  20
0.030998
  30
0
  11
44.9615
  21
0.031268
  31
0
  0
LINE
  5
54d
  100
AcDbEntity
  8
1
  100
AcDbLine
  10
44.9615
  20
0.031268
  30
0
  11
44.961
  21
0.031539
  31
0
  0
LINE
  5
54e
  100
AcDbEntity
  8
1
  100
AcDbLine
  10
44.961
  20
0.031539
  30
0
  11
44.9605
  21
0.031809
  31
0
  0
LINE
  5
54f
  100
AcDbEntity
  8
1
  100
AcDbLine
  10
44.9605
  20
0.031809
  30
0
  11
44.96
  21
0.032078
  31
0
  0
LINE
  5
550
  100
AcDbEntity
  8
1
  100
AcDbLine
  10
44.96
  20
0.032078
  30
0
  11
44.9595
  21
0.032348
  31
0
  0
LINE
  5
551
  100
AcDbEntity
  8
1
  100
AcDbLine
  10
44.9595
  20
0.032348
  30
0
  11
44.959
  21
0.032617
  31
0
  0
LINE
  5
552
  100
AcDbEntity
  8
1
  100
AcDbLine
  10
44.959
  20
0.032617
  30
0
  11
44.9585
  21
0.032886
  31
0
  0
LINE
  5
553
  100
AcDbEntity
  8
1
  100
AcDbLine
  10
44.9585
  20
0.032886
  30
0
  11
44.958
  21
0.033155
  31
0
  0
LINE
  5
554
  100
AcDbEntity
  8
1
  100
AcDbLine
  10
44.958
  20
0.033155
  30
0
  11
44.9575
  21
0.033423
  31
0
  0
LINE
  5
555
  100
AcDbEntity
  8
1
  100
AcDbLine
  10
44.9575
  20
0.033423
  30
0
  11
44.957
  21
0.033691
  31
0
  0
LINE
  5
556
  100
AcDbEntity
  8
1
  100
AcDbLine
  10
44.957
  20
0.033691
  30
0
  11
44.9565
  21
0.033959
  31
0
  0
LINE
  5
557
  100
AcDbEntity
  8
1
  100
AcDbLine
  10
44.9565
  20
0.033959
  30
0
  11
44.956
  21
0.034227
  31
0
  0
LINE
  5
558
  100
AcDbEntity
  8
1
  100
AcDbLine
  10
44.956
  20
0.034227
  30
0
  11
44.9555
  21
0.034494
  31
0
  0
LINE
  5
559
  100
AcDbEntity
  8
1
  100
AcDbLine
  10
44.9555
  20
0.034494
  30
0
  11
44.955
  21
0.034761
  31
0
  0
LINE
  5
55a
  100
AcDbEntity
  8
1
  100
AcDbLine
  10
44.955
  20
0.034761
  30
0
  11
44.9545
  21
0.035028
  31
0
  0
LINE
  5
55b
  100
AcDbEntity
  8
1
  100
AcDbLine
  10
44.9545
  20
0.035028
  30
0
  11
44.954
  21
0.035294
  31
0
  0
LINE
  5
55c
  100
AcDbEntity
  8
1
  100
AcDbLine
  10
44.954
  20
0.035294
  30
0
  11
44.9535
  21
0.03556
  31
0
  0
LINE
  5
55d
  100
AcDbEntity
  8
1
  100
AcDbLine
  10
44.9535
  20
0.03556
  30
0
  11
44.953
  21
0.035826
  31
0
  0
LINE
  5
55e
  100
AcDbEntity
  8
1
  100
AcDbLine
  10
44.953
  20
0.035826
  30
0
  11
44.9525
  21
0.036091
  31
0
  0
LINE
  5
55f
  100
AcDbEntity
  8
1
  100
AcDbLine
  10
44.9525
  20
0.036091
  30
0
  11
44.952
  21
0.036357
  31
0
  0
LINE
  5
560
  100
AcDbEntity
  8
1
  100
AcDbLine
  10
44.952
  20
0.036357
  30
0
  11
44.9515
  21
0.036622
  31
0
  0
LINE
  5
561
  100
AcDbEntity
  8
1
  100
AcDbLine
  10
44.9515
  20
0.036622
  30
0
  11
44.951
  21
0.036886
  31
0
  0
LINE
  5
562
  100
AcDbEntity
  8
1
  100
AcDbLine
  10
44.951
  20
0.036886
  30
0
  11
44.9505
  21
0.03715
  31
0
  0
LINE
  5
563
  100
AcDbEntity
  8
1
  100
AcDbLine
  10
44.9505
  20
0.03715
  30
0
  11
44.95
  21
0.037414
  31
0
  0
LINE
  5
564
  100
AcDbEntity
  8
1
  100
AcDbLine
  10
44.95
  20
0.037414
  30
0
  11
44.9495
  21
0.037678
  31
0
  0
LINE
  5
565
  100
AcDbEntity
  8
1
  100
AcDbLine
  10
44.9495
  20
0.037678
  30
0
  11
44.949
  21
0.037942
  31
0
  0
LINE
  5
566
  100
AcDbEntity
  8
1
  100
AcDbLine
  10
44.949
  20
0.037942
  30
0
  11
44.9485
  21
0.038205
  31
0
  0
LINE
  5
567
  100
AcDbEntity
  8
1
  100
AcDbLine
  10
44.9485
  20
0.038205
  30
0
  11
44.948
  21
0.038467
  31
0
  0
LINE
  5
568
  100
AcDbEntity
  8
1
  100
AcDbLine
  10
44.948
  20
0.038467
  30
0
  11
44.9475
  21
0.03873
  31
0
  0
LINE
  5
569
  100
AcDbEntity
  8
1
  100
AcDbLine
  10
44.9475
  20
0.03873
  30
0
  11
44.947
  21
0.038992
  31
0
  0
LINE
  5
56a
  100
AcDbEntity
  8
1
  100
AcDbLine
  10
44.947
  20
0.038992
  30
0
  11
44.9465
  21
0.039254
  31
0
  0
LINE
  5
56b
  100
AcDbEntity
  8
1
  100
AcDbLine
  10
44.9465
  20
0.039254
  30
0
  11
44.946
  21
0.039515
  31
0
  0
LINE
  5
56c
  100
AcDbEntity
  8
1
  100
AcDbLine
  10
44.946
  20
0.039515
  30
0
  11
44.9455
  21
0.039776
  31
0
  0
LINE
  5
56d
  100
AcDbEntity
  8
1
  100
AcDbLine
  10
44.9455
  20
0.039776
  30
0
  11
44.945
  21
0.040037
  31
0
  0
LINE
  5
56e
  100
AcDbEntity
  8
1
  100
AcDbLine
  10
44.945
  20
0.040037
  30
0
  11
44.9445
  21
0.040297
  31
0
  0
LINE
  5
56f
  100
AcDbEntity
  8
1
  100
AcDbLine
  10
44.9445
  20
0.040297
  30
0
  11
44.944
  21
0.040557
  31
0
  0
LINE
  5
570
  100
AcDbEntity
  8
1
  100
AcDbLine
  10
44.944
  20
0.040557
  30
0
  11
44.9435
  21
0.040817
  31
0
  0
LINE
  5
571
  100
AcDbEntity
  8
1
  100
AcDbLine
  10
44.9435
  20
0.040817
  30
0
  11
44.943
  21
0.041077
  31
0
  0
LINE
  5
572
  100
AcDbEntity
  8
1
  100
AcDbLine
  10
44.943
  20
0.041077
  30
0
  11
44.9425
  21
0.041336
  31
0
  0
LINE
  5
573
  100
AcDbEntity
  8
1
  100
AcDbLine
  10
44.9425
  20
0.041336
  30
0
  11
44.942
  21
0.041594
  31
0
  0
LINE
  5
574
  100
AcDbEntity
  8
1
  100
AcDbLine
  10
44.942
  20
0.041594
  30
0
  11
44.9415
  21
0.041853
  31
0
  0
LINE
  5
575
  100
AcDbEntity
  8
1
  100
AcDbLine
  10
44.9415
  20
0.041853
  30
0
  11
44.941
  21
0.042111
  31
0
  0
LINE
  5
576
  100
AcDbEntity
  8
1
  100
AcDbLine
  10
44.941
  20
0.042111
  30
0
  11
44.9405
  21
0.042369
  31
0
  0
LINE
  5
577
  100
AcDbEntity
  8
1
  100
AcDbLine
  10
44.9405
  20
0.042369
  30
0
  11
44.94
  21
0.042626
  31
0
  0
LINE
  5
578
  100
AcDbEntity
  8
1
  100
AcDbLine
  10
44.94
  20
0.042626
  30
0
  11
44.9395
  21
0.042883
  31
0
  0
LINE
  5
579
  100
AcDbEntity
  8
1
  100
AcDbLine
  10
44.9395
  20
0.042883
  30
0
  11
44.939
  21
0.043139
  31
0
  0
LINE
  5
57a
  100
AcDbEntity
  8
1
  100
AcDbLine
  10
44.939
  20
0.043139
  30
0
  11
44.9385
  21
0.043396
  31
0
  0
LINE
  5
57b
  100
AcDbEntity
  8
1
  100
AcDbLine
  10
44.9385
  20
0.043396
  30
0
  11
44.938
  21
0.043652
  31
0
  0
LINE
  5
57c
  100
AcDbEntity
  8
1
  100
AcDbLine
  10
44.938
  20
0.043652
  30
0
  11
44.9375
  21
0.043907
  31
0
  0
LINE
  5
57d
  100
AcDbEntity
  8
1
  100
AcDbLine
  10
44.9375
  20
0.043907
  30
0
  11
44.937
  21
0.044162
  31
0
  0
LINE
  5
57e
  100
AcDbEntity
  8
1
  100
AcDbLine
  10
44.937
  20
0.044162
  30
0
  11
44.9365
  21
0.044417
  31
0
  0
LINE
  5
57f
  100
AcDbEntity
  8
1
  100
AcDbLine
  10
44.9365
  20
0.044417
  30
0
  11
44.936
  21
0.044672
  31
0
  0
LINE
  5
580
  100
AcDbEntity
  8
1
  100
AcDbLine
  10
44.936
  20
0.044672
  30
0
  11
44.9355
  21
0.044926
  31
0
  0
LINE
  5
581
  100
AcDbEntity
  8
1
  100
AcDbLine
  10
44.9355
  20
0.044926
  30
0
  11
44.935
  21
0.045179
  31
0
  0
LINE
  5
582
  100
AcDbEntity
  8
1
  100
AcDbLine
  10
44.935
  20
0.045179
  30
0
  11
44.9345
  21
0.045433
  31
0
  0
LINE
  5
583
  100
AcDbEntity
  8
1
  100
AcDbLine
  10
44.9345
  20
0.045433
  30
0
  11
44.934
  21
0.045686
  31
0
  0
LINE
  5
584
  100
AcDbEntity
  8
1
  100
AcDbLine
  10
44.934
  20
0.045686
  30
0
  11
44.9335
  21
0.045938
  31
0
  0
LINE
  5
585
  100
AcDbEntity
  8
1
  100
AcDbLine
  10
44.9335
  20
0.045938
  30
0
  11
44.933
  21
0.04619
  31
0
  0
LINE
  5
586
  100
AcDbEntity
  8
1
  100
AcDbLine
  10
44.933
  20
0.04619
  30
0
  11
44.9325
  21
0.046442
  31
0
  0
LINE
  5
587
  100
AcDbEntity
  8
1
  100
AcDbLine
  10
44.9325
  20
0.046442
  30
0
  11
44.932
  21
0.046693
  31
0
  0
LINE
  5
588
  100
AcDbEntity
  8
1
  100
AcDbLine
  10
44.932
  20
0.046693
  30
0
  11
44.9315
  21
0.046944
  31
0
  0
LINE
  5
589
  100
AcDbEntity
  8
1
  100
AcDbLine
  10
44.9315
  20
0.046944
  30
0
  11
44.931
  21
0.047195
  31
0
  0
LINE
  5
58a
  100
AcDbEntity
  8
1
  100
AcDbLine
  10
44.931
  20
0.047195
  30
0
  11
44.9305
  21
0.047445
  31
0
  0
LINE
  5
58b
  100
AcDbEntity
  8
1
  100
AcDbLine
  10
44.9305
  20
0.047445
  30
0
  11
44.93
  21
0.047695
  31
0
  0
LINE
  5
58c
  100
AcDbEntity
  8
1
  100
AcDbLine
  10
44.93
  20
0.047695
  30
0
  11
44.9295
  21
0.047945
  31
0
  0
LINE
  5
58d
  100
AcDbEntity
  8
1
  100
AcDbLine
  10
44.9295
  20
0.047945
  30
0
  11
44.929
  21
0.048194
  31
0
  0
LINE
  5
58e
  100
AcDbEntity
  8
1
  100
AcDbLine
  10
44.929
  20
0.048194
  30
0
  11
44.9285
  21
0.048442
  31
0
  0
LINE
  5
58f
  100
AcDbEntity
  8
1
  100
AcDbLine
  10
44.9285
  20
0.048442
  30
0
  11
44.928
  21
0.04869
  31
0
  0
LINE
  5
590
  100
AcDbEntity
  8
1
  100
AcDbLine
  10
44.928
  20
0.04869
  30
0
  11
44.9275
  21
0.048938
  31
0
  0
LINE
  5
591
  100
AcDbEntity
  8
1
  100
AcDbLine
  10
44.9275
  20
0.048938
  30
0
  11
44.927
  21
0.049186
  31
0
  0
LINE
  5
592
  100
AcDbEntity
  8
1
  100
AcDbLine
  10
44.927
  20
0.049186
  30
0
  11
44.9265
  21
0.049433
  31
0
  0
LINE
  5
593
  100
AcDbEntity
  8
1
  100
AcDbLine
  10
44.9265
  20
0.049433
  30
0
  11
44.926
  21
0.049679
  31
0
  0
LINE
  5
594
  100
AcDbEntity
  8
1
  100
AcDbLine
  10
44.926
  20
0.049679
  30
0
  11
44.9255
  21
0.049925
  31
0
  0
LINE
  5
595
  100
AcDbEntity
  8
1
  100
AcDbLine
  10
44.9255
  20
0.049925
  30
0
  11
44.925
  21
0.050171
  31
0
  0
LINE
  5
596
  100
AcDbEntity
  8
1
  100
AcDbLine
  10
44.925
  20
0.050171
  30
0
  11
44.9245
  21
0.050417
  31
0
  0
LINE
  5
597
  100
AcDbEntity
  8
1
  100
AcDbLine
  10
44.9245
  20
0.050417
  30
0
  11
44.924
  21
0.050662
  31
0
  0
LINE
  5
598
  100
AcDbEntity
  8
1
  100
AcDbLine
  10
44.924
  20
0.050662
  30
0
  11
44.9235
  21
0.050906
  31
0
  0
LINE
  5
599
  100
AcDbEntity
  8
1
  100
AcDbLine
  10
44.9235
  20
0.050906
  30
0
  11
44.923
  21
0.05115
  31
0
  0
LINE
  5
59a
  100
AcDbEntity
  8
1
  100
AcDbLine
  10
44.923
  20
0.05115
  30
0
  11
44.9225
  21
0.051394
  31
0
  0
LINE
  5
59b
  100
AcDbEntity
  8
1
  100
AcDbLine
  10
44.9225
  20
0.051394
  30
0
  11
44.922
  21
0.051637
  31
0
  0
LINE
  5
59c
  100
AcDbEntity
  8
1
  100
AcDbLine
  10
44.922
  20
0.051637
  30
0
  11
44.9215
  21
0.05188
  31
0
  0
LINE
  5
59d
  100
AcDbEntity
  8
1
  100
AcDbLine
  10
44.9215
  20
0.05188
  30
0
  11
44.921
  21
0.052122
  31
0
  0
LINE
  5
59e
  100
AcDbEntity
  8
1
  100
AcDbLine
  10
44.921
  20
0.052122
  30
0
  11
44.9205
  21
0.052364
  31
0
  0
LINE
  5
59f
  100
AcDbEntity
  8
1
  100
AcDbLine
  10
44.9205
  20
0.052364
  30
0
  11
44.92
  21
0.052606
  31
0
  0
LINE
  5
5a0
  100
AcDbEntity
  8
1
  100
AcDbLine
  10
44.92
  20
0.052606
  30
0
  11
44.9195
  21
0.052847
  31
0
  0
LINE
  5
5a1
  100
AcDbEntity
  8
1
  100
AcDbLine
  10
44.9195
  20
0.052847
  30
0
  11
44.919
  21
0.053087
  31
0
  0
LINE
  5
5a2
  100
AcDbEntity
  8
1
  100
AcDbLine
  10
44.919
  20
0.053087
  30
0
  11
44.9185
  21
0.053327
  31
0
  0
LINE
  5
5a3
  100
AcDbEntity
  8
1
  100
AcDbLine
  10
44.9185
  20
0.053327
  30
0
  11
44.918
  21
0.053567
  31
0
  0
LINE
  5
5a4
  100
AcDbEntity
  8
1
  100
AcDbLine
  10
44.918
  20
0.053567
  30
0
  11
44.9175
  21
0.053806
  31
0
  0
LINE
  5
5a5
  100
AcDbEntity
  8
1
  100
AcDbLine
  10
44.9175
  20
0.053806
  30
0
  11
44.917
  21
0.054045
  31
0
  0
LINE
  5
5a6
  100
AcDbEntity
  8
1
  100
AcDbLine
  10
44.917
  20
0.054045
  30
0
  11
44.9165
  21
0.054284
  31
0
  0
LINE
  5
5a7
  100
AcDbEntity
  8
1
  100
AcDbLine
  10
44.9165
  20
0.054284
  30
0
  11
44.916
  21
0.054521
  31
0
  0
LINE
  5
5a8
  100
AcDbEntity
  8
1
  100
AcDbLine
  10
44.916
  20
0.054521
  30
0
  11
44.9155
  21
0.054759
  31
0
  0
LINE
  5
5a9
  100
AcDbEntity
  8
1
  100
AcDbLine
  10
44.9155
  20
0.054759
  30
0
  11
44.915
  21
0.054996
  31
0
  0
LINE
  5
5aa
  100
AcDbEntity
  8
1
  100
AcDbLine
  10
44.915
  20
0.054996
  30
0
  11
44.9145
  21
0.055233
  31
0
  0
LINE
  5
5ab
  100
AcDbEntity
  8
1
  100
AcDbLine
  10
44.9145
  20
0.055233
  30
0
  11
44.914
  21
0.055469
  31
0
  0
LINE
  5
5ac
  100
AcDbEntity
  8
1
  100
AcDbLine
  10
44.914
  20
0.055469
  30
0
  11
44.9135
  21
0.055704
  31
0
  0
LINE
  5
5ad
  100
AcDbEntity
  8
1
  100
AcDbLine
  10
44.9135
  20
0.055704
  30
0
  11
44.913
  21
0.055939
  31
0
  0
LINE
  5
5ae
  100
AcDbEntity
  8
1
  100
AcDbLine
  10
44.913
  20
0.055939
  30
0
  11
44.9125
  21
0.056174
  31
0
  0
LINE
  5
5af
  100
AcDbEntity
  8
1
  100
AcDbLine
  10
44.9125
  20
0.056174
  30
0
  11
44.912
  21
0.056408
  31
0
  0
LINE
  5
5b0
  100
AcDbEntity
  8
1
  100
AcDbLine
  10
44.912
  20
0.056408
  30
0
  11
44.9115
  21
0.056642
  31
0
  0
LINE
  5
5b1
  100
AcDbEntity
  8
1
  100
AcDbLine
  10
44.9115
  20
0.056642
  30
0
  11
44.911
  21
0.056875
  31
0
  0
LINE
  5
5b2
  100
AcDbEntity
  8
1
  100
AcDbLine
  10
44.911
  20
0.056875
  30
0
  11
44.9105
  21
0.057108
  31
0
  0
LINE
  5
5b3
  100
AcDbEntity
  8
1
  100
AcDbLine
  10
44.9105
  20
0.057108
  30
0
  11
44.91
  21
0.057341
  31
0
  0
LINE
  5
5b4
  100
AcDbEntity
  8
1
  100
AcDbLine
  10
44.91
  20
0.057341
  30
0
  11
44.9095
  21
0.057572
  31
0
  0
LINE
  5
5b5
  100
AcDbEntity
  8
1
  100
AcDbLine
  10
44.9095
  20
0.057572
  30
0
  11
44.909
  21
0.057804
  31
0
  0
LINE
  5
5b6
  100
AcDbEntity
  8
1
  100
AcDbLine
  10
44.909
  20
0.057804
  30
0
  11
44.9085
  21
0.058035
  31
0
  0
LINE
  5
5b7
  100
AcDbEntity
  8
1
  100
AcDbLine
  10
44.9085
  20
0.058035
  30
0
  11
44.908
  21
0.058265
  31
0
  0
LINE
  5
5b8
  100
AcDbEntity
  8
1
  100
AcDbLine
  10
44.908
  20
0.058265
  30
0
  11
44.9075
  21
0.058495
  31
0
  0
LINE
  5
5b9
  100
AcDbEntity
  8
1
  100
AcDbLine
  10
44.9075
  20
0.058495
  30
0
  11
44.907
  21
0.058725
  31
0
  0
LINE
  5
5ba
  100
AcDbEntity
  8
1
  100
AcDbLine
  10
44.907
  20
0.058725
  30
0
  11
44.9065
  21
0.058954
  31
0
  0
LINE
  5
5bb
  100
AcDbEntity
  8
1
  100
AcDbLine
  10
44.9065
  20
0.058954
  30
0
  11
44.906
  21
0.059182
  31
0
  0
LINE
  5
5bc
  100
AcDbEntity
  8
1
  100
AcDbLine
  10
44.906
  20
0.059182
  30
0
  11
44.9055
  21
0.05941
  31
0
  0
LINE
  5
5bd
  100
AcDbEntity
  8
1
  100
AcDbLine
  10
44.9055
  20
0.05941
  30
0
  11
44.905
  21
0.059637
  31
0
  0
LINE
  5
5be
  100
AcDbEntity
  8
1
  100
AcDbLine
  10
44.905
  20
0.059637
  30
0
  11
44.9045
  21
0.059864
  31
0
  0
LINE
  5
5bf
  100
AcDbEntity
  8
1
  100
AcDbLine
  10
44.9045
  20
0.059864
  30
0
  11
44.904
  21
0.060091
  31
0
  0
LINE
  5
5c0
  100
AcDbEntity
  8
1
  100
AcDbLine
  10
44.904
  20
0.060091
  30
0
  11
44.9035
  21
0.060317
  31
0
  0
LINE
  5
5c1
  100
AcDbEntity
  8
1
  100
AcDbLine
  10
44.9035
  20
0.060317
  30
0
  11
44.903
  21
0.060542
  31
0
  0
LINE
  5
5c2
  100
AcDbEntity
  8
1
  100
AcDbLine
  10
44.903
  20
0.060542
  30
0
  11
44.9025
  21
0.060767
  31
0
  0
LINE
  5
5c3
  100
AcDbEntity
  8
1
  100
AcDbLine
  10
44.9025
  20
0.060767
  30
0
  11
44.902
  21
0.060992
  31
0
  0
LINE
  5
5c4
  100
AcDbEntity
  8
1
  100
AcDbLine
  10
44.902
  20
0.060992
  30
0
  11
44.9015
  21
0.061216
  31
0
  0
LINE
  5
5c5
  100
AcDbEntity
  8
1
  100
AcDbLine
  10
44.9015
  20
0.061216
  30
0
  11
44.901
  21
0.061439
  31
0
  0
LINE
  5
5c6
  100
AcDbEntity
  8
1
  100
AcDbLine
  10
44.901
  20
0.061439
  30
0
  11
44.9005
  21
0.061662
  31
0
  0
LINE
  5
5c7
  100
AcDbEntity
  8
1
  100
AcDbLine
  10
44.9005
  20
0.061662
  30
0
  11
44.9
  21
0.061885
  31
0
  0
LINE
  5
5c8
  100
AcDbEntity
  8
1
  100
AcDbLine
  10
44.9
  20
0.061885
  30
0
  11
44.8995
  21
0.062107
  31
0
  0
LINE
  5
5c9
  100
AcDbEntity
  8
1
  100
AcDbLine
  10
44.8995
  20
0.062107
  30
0
  11
44.899
  21
0.062328
  31
0
  0
LINE
  5
5ca
  100
AcDbEntity
  8
1
  100
AcDbLine
  10
44.899
  20
0.062328
  30
0
  11
44.8985
  21
0.062549
  31
0
  0
LINE
  5
5cb
  100
AcDbEntity
  8
1
  100
AcDbLine
  10
44.8985
  20
0.062549
  30
0
  11
44.898
  21
0.062769
  31
0
  0
LINE
  5
5cc
  100
AcDbEntity
  8
1
  100
AcDbLine
  10
44.898
  20
0.062769
  30
0
  11
44.8975
  21
0.062989
  31
0
  0
LINE
  5
5cd
  100
AcDbEntity
  8
1
  100
AcDbLine
  10
44.8975
  20
0.062989
  30
0
  11
44.897
  21
0.063208
  31
0
  0
LINE
  5
5ce
  100
AcDbEntity
  8
1
  100
AcDbLine
  10
44.897
  20
0.063208
  30
0
  11
44.8965
  21
0.063427
  31
0
  0
LINE
  5
5cf
  100
AcDbEntity
  8
1
  100
AcDbLine
  10
44.8965
  20
0.063427
  30
0
  11
44.896
  21
0.063645
  31
0
  0
LINE
  5
5d0
  100
AcDbEntity
  8
1
  100
AcDbLine
  10
44.896
  20
0.063645
  30
0
  11
44.8955
  21
0.063863
  31
0
  0
LINE
  5
5d1
  100
AcDbEntity
  8
1
  100
AcDbLine
  10
44.8955
  20
0.063863
  30
0
  11
44.895
  21
0.06408
  31
0
  0
LINE
  5
5d2
  100
AcDbEntity
  8
1
  100
AcDbLine
  10
44.895
  20
0.06408
  30
0
  11
44.8945
  21
0.064297
  31
0
  0
LINE
  5
5d3
  100
AcDbEntity
  8
1
  100
AcDbLine
  10
44.8945
  20
0.064297
  30
0
  11
44.894
  21
0.064513
  31
0
  0
LINE
  5
5d4
  100
AcDbEntity
  8
1
  100
AcDbLine
  10
44.894
  20
0.064513
  30
0
  11
44.8935
  21
0.064729
  31
0
  0
LINE
  5
5d5
  100
AcDbEntity
  8
1
  100
AcDbLine
  10
44.8935
  20
0.064729
  30
0
  11
44.893
  21
0.064944
  31
0
  0
LINE
  5
5d6
  100
AcDbEntity
  8
1
  100
AcDbLine
  10
44.893
  20
0.064944
  30
0
  11
44.8925
  21
0.065158
  31
0
  0
LINE
  5
5d7
  100
AcDbEntity
  8
1
  100
AcDbLine
  10
44.8925
  20
0.065158
  30
0
  11
44.892
  21
0.065372
  31
0
  0
LINE
  5
5d8
  100
AcDbEntity
  8
1
  100
AcDbLine
  10
44.892
  20
0.065372
  30
0
  11
44.8915
  21
0.065585
  31
0
  0
LINE
  5
5d9
  100
AcDbEntity
  8
1
  100
AcDbLine
  10
44.8915
  20
0.065585
  30
0
  11
44.891
  21
0.065798
  31
0
  0
LINE
  5
5da
  100
AcDbEntity
  8
1
  100
AcDbLine
  10
44.891
  20
0.065798
  30
0
  11
44.8905
  21
0.066011
  31
0
  0
LINE
  5
5db
  100
AcDbEntity
  8
1
  100
AcDbLine
  10
44.8905
  20
0.066011
  30
0
  11
44.89
  21
0.066222
  31
0
  0
LINE
  5
5dc
  100
AcDbEntity
  8
1
  100
AcDbLine
  10
44.89
  20
0.066222
  30
0
  11
44.8895
  21
0.066434
  31
0
  0
LINE
  5
5dd
  100
AcDbEntity
  8
1
  100
AcDbLine
  10
44.8895
  20
0.066434
  30
0
  11
44.889
  21
0.066644
  31
0
  0
LINE
  5
5de
  100
AcDbEntity
  8
1
  100
AcDbLine
  10
44.889
  20
0.066644
  30
0
  11
44.8885
  21
0.066854
  31
0
  0
LINE
  5
5df
  100
AcDbEntity
  8
1
  100
AcDbLine
  10
44.8885
  20
0.066854
  30
0
  11
44.888
  21
0.067064
  31
0
  0
LINE
  5
5e0
  100
AcDbEntity
  8
1
  100
AcDbLine
  10
44.888
  20
0.067064
  30
0
  11
44.8875
  21
0.067273
  31
0
  0
LINE
  5
5e1
  100
AcDbEntity
  8
1
  100
AcDbLine
  10
44.8875
  20
0.067273
  30
0
  11
44.887
  21
0.067481
  31
0
  0
LINE
  5
5e2
  100
AcDbEntity
  8
1
  100
AcDbLine
  10
44.887
  20
0.067481
  30
0
  11
44.8865
  21
0.067689
  31
0
  0
LINE
  5
5e3
  100
AcDbEntity
  8
1
  100
AcDbLine
  10
44.8865
  20
0.067689
  30
0
  11
44.886
  21
0.067896
  31
0
  0
LINE
  5
5e4
  100
AcDbEntity
  8
1
  100
AcDbLine
  10
44.886
  20
0.067896
  30
0
  11
44.8855
  21
0.068103
  31
0
  0
LINE
  5
5e5
  100
AcDbEntity
  8
1
  100
AcDbLine
  10
44.8855
  20
0.068103
  30
0
  11
44.885
  21
0.068309
  31
0
  0
LINE
  5
5e6
  100
AcDbEntity
  8
1
  100
AcDbLine
  10
44.885
  20
0.068309
  30
0
  11
44.8845
  21
0.068515
  31
0
  0
LINE
  5
5e7
  100
AcDbEntity
  8
1
  100
AcDbLine
  10
44.8845
  20
0.068515
  30
0
  11
44.884
  21
0.06872
  31
0
  0
LINE
  5
5e8
  100
AcDbEntity
  8
1
  100
AcDbLine
  10
44.884
  20
0.06872
  30
0
  11
44.8835
  21
0.068924
  31
0
  0
LINE
  5
5e9
  100
AcDbEntity
  8
1
  100
AcDbLine
  10
44.8835
  20
0.068924
  30
0
  11
44.883
  21
0.069128
  31
0
  0
LINE
  5
5ea
  100
AcDbEntity
  8
1
  100
AcDbLine
  10
44.883
  20
0.069128
  30
0
  11
44.8825
  21
0.069332
  31
0
  0
LINE
  5
5eb
  100
AcDbEntity
  8
1
  100
AcDbLine
  10
44.8825
  20
0.069332
  30
0
  11
44.882
  21
0.069534
  31
0
  0
LINE
  5
5ec
  100
AcDbEntity
  8
1
  100
AcDbLine
  10
44.882
  20
0.069534
  30
0
  11
44.8815
  21
0.069737
  31
0
  0
LINE
  5
5ed
  100
AcDbEntity
  8
1
  100
AcDbLine
  10
44.8815
  20
0.069737
  30
0
  11
44.881
  21
0.069938
  31
0
  0
LINE
  5
5ee
  100
AcDbEntity
  8
1
  100
AcDbLine
  10
44.881
  20
0.069938
  30
0
  11
44.8805
  21
0.070139
  31
0
  0
LINE
  5
5ef
  100
AcDbEntity
  8
1
  100
AcDbLine
  10
44.8805
  20
0.070139
  30
0
  11
44.88
  21
0.070339
  31
0
  0
LINE
  5
5f0
  100
AcDbEntity
  8
1
  100
AcDbLine
  10
44.88
  20
0.070339
  30
0
  11
44.8795
  21
0.070539
  31
0
  0
LINE
  5
5f1
  100
AcDbEntity
  8
1
  100
AcDbLine
  10
44.8795
  20
0.070539
  30
0
  11
44.879
  21
0.070738
  31
0
  0
LINE
  5
5f2
  100
AcDbEntity
  8
1
  100
AcDbLine
  10
44.879
  20
0.070738
  30
0
  11
44.8785
  21
0.070937
  31
0
  0
LINE
  5
5f3
  100
AcDbEntity
  8
1
  100
AcDbLine
  10
44.8785
  20
0.070937
  30
0
  11
44.878
  21
0.071135
  31
0
  0
LINE
  5
5f4
  100
AcDbEntity
  8
1
  100
AcDbLine
  10
44.878
  20
0.071135
  30
0
  11
44.8775
  21
0.071333
  31
0
  0
LINE
  5
5f5
  100
AcDbEntity
  8
1
  100
AcDbLine
  10
44.8775
  20
0.071333
  30
0
  11
44.877
  21
0.071529
  31
0
  0
LINE
  5
5f6
  100
AcDbEntity
  8
1
  100
AcDbLine
  10
44.877
  20
0.071529
  30
0
  11
44.8765
  21
0.071726
  31
0
  0
LINE
  5
5f7
  100
AcDbEntity
  8
1
  100
AcDbLine
  10
44.8765
  20
0.071726
  30
0
  11
44.876
  21
0.071921
  31
0
  0
LINE
  5
5f8
  100
AcDbEntity
  8
1
  100
AcDbLine
  10
44.876
  20
0.071921
  30
0
  11
44.8755
  21
0.072116
  31
0
  0
LINE
  5
5f9
  100
AcDbEntity
  8
1
  100
AcDbLine
  10
44.8755
  20
0.072116
  30
0
  11
44.875
  21
0.072311
  31
0
  0
LINE
  5
5fa
  100
AcDbEntity
  8
1
  100
AcDbLine
  10
44.875
  20
0.072311
  30
0
  11
44.8745
  21
0.072505
  31
0
  0
LINE
  5
5fb
  100
AcDbEntity
  8
1
  100
AcDbLine
  10
44.8745
  20
0.072505
  30
0
  11
44.874
  21
0.072698
  31
0
  0
LINE
  5
5fc
  100
AcDbEntity
  8
1
  100
AcDbLine
  10
44.874
  20
0.072698
  30
0
  11
44.8735
  21
0.072891
  31
0
  0
LINE
  5
5fd
  100
AcDbEntity
  8
1
  100
AcDbLine
  10
44.8735
  20
0.072891
  30
0
  11
44.873
  21
0.073083
  31
0
  0
LINE
  5
5fe
  100
AcDbEntity
  8
1
  100
AcDbLine
  10
44.873
  20
0.073083
  30
0
  11
44.8725
  21
0.073274
  31
0
  0
LINE
  5
5ff
  100
AcDbEntity
  8
1
  100
AcDbLine
  10
44.8725
  20
0.073274
  30
0
  11
44.872
  21
0.073465
  31
0
  0
LINE
  5
600
  100
AcDbEntity
  8
1
  100
AcDbLine
  10
44.872
  20
0.073465
  30
0
  11
44.8715
  21
0.073655
  31
0
  0
LINE
  5
601
  100
AcDbEntity
  8
1
  100
AcDbLine
  10
44.8715
  20
0.073655
  30
0
  11
44.871
  21
0.073845
  31
0
  0
LINE
  5
602
  100
AcDbEntity
  8
1
  100
AcDbLine
  10
44.871
  20
0.073845
  30
0
  11
44.8705
  21
0.074034
  31
0
  0
LINE
  5
603
  100
AcDbEntity
  8
1
  100
AcDbLine
  10
44.8705
  20
0.074034
  30
0
  11
44.87
  21
0.074222
  31
0
  0
LINE
  5
604
  100
AcDbEntity
  8
1
  100
AcDbLine
  10
44.87
  20
0.074222
  30
0
  11
44.8695
  21
0.07441
  31
0
  0
LINE
  5
605
  100
AcDbEntity
  8
1
  100
AcDbLine
  10
44.8695
  20
0.07441
  30
0
  11
44.869
  21
0.074597
  31
0
  0
LINE
  5
606
  100
AcDbEntity
  8
1
  100
AcDbLine
  10
44.869
  20
0.074597
  30
0
  11
44.8685
  21
0.074784
  31
0
  0
LINE
  5
607
  100
AcDbEntity
  8
1
  100
AcDbLine
  10
44.8685
  20
0.074784
  30
0
  11
44.868
  21
0.074969
  31
0
  0
LINE
  5
608
  100
AcDbEntity
  8
1
  100
AcDbLine
  10
44.868
  20
0.074969
  30
0
  11
44.8675
  21
0.075155
  31
0
  0
LINE
  5
609
  100
AcDbEntity
  8
1
  100
AcDbLine
  10
44.8675
  20
0.075155
  30
0
  11
44.867
  21
0.075339
  31
0
  0
LINE
  5
60a
  100
AcDbEntity
  8
1
  100
AcDbLine
  10
44.867
  20
0.075339
  30
0
  11
44.8665
  21
0.075523
  31
0
  0
LINE
  5
60b
  100
AcDbEntity
  8
1
  100
AcDbLine
  10
44.8665
  20
0.075523
  30
0
  11
44.866
  21
0.075707
  31
0
  0
LINE
  5
60c
  100
AcDbEntity
  8
1
  100
AcDbLine
  10
44.866
  20
0.075707
  30
0
  11
44.8655
  21
0.075889
  31
0
  0
LINE
  5
60d
  100
AcDbEntity
  8
1
  100
AcDbLine
  10
44.8655
  20
0.075889
  30
0
  11
44.865
  21
0.076072
  31
0
  0
LINE
  5
60e
  100
AcDbEntity
  8
1
  100
AcDbLine
  10
44.865
  20
0.076072
  30
0
  11
44.8645
  21
0.076253
  31
0
  0
LINE
  5
60f
  100
AcDbEntity
  8
1
  100
AcDbLine
  10
44.8645
  20
0.076253
  30
0
  11
44.864
  21
0.076434
  31
0
  0
LINE
  5
610
  100
AcDbEntity
  8
1
  100
AcDbLine
  10
44.864
  20
0.076434
  30
0
  11
44.8635
  21
0.076614
  31
0
  0
LINE
  5
611
  100
AcDbEntity
  8
1
  100
AcDbLine
  10
44.8635
  20
0.076614
  30
0
  11
44.863
  21
0.076794
  31
0
  0
LINE
  5
612
  100
AcDbEntity
  8
1
  100
AcDbLine
  10
44.863
  20
0.076794
  30
0
  11
44.8625
  21
0.076973
  31
0
  0
LINE
  5
613
  100
AcDbEntity
  8
1
  100
AcDbLine
  10
44.8625
  20
0.076973
  30
0
  11
44.862
  21
0.077151
  31
0
  0
LINE
  5
614
  100
AcDbEntity
  8
1
  100
AcDbLine
  10
44.862
  20
0.077151
  30
0
  11
44.8615
  21
0.077328
  31
0
  0
LINE
  5
615
  100
AcDbEntity
  8
1
  100
AcDbLine
  10
44.8615
  20
0.077328
  30
0
  11
44.861
  21
0.077505
  31
0
  0
LINE
  5
616
  100
AcDbEntity
  8
1
  100
AcDbLine
  10
44.861
  20
0.077505
  30
0
  11
44.8605
  21
0.077682
  31
0
  0
LINE
  5
617
  100
AcDbEntity
  8
1
  100
AcDbLine
  10
44.8605
  20
0.077682
  30
0
  11
44.86
  21
0.077857
  31
0
  0
LINE
  5
618
  100
AcDbEntity
  8
1
  100
AcDbLine
  10
44.86
  20
0.077857
  30
0
  11
44.8595
  21
0.078033
  31
0
  0
LINE
  5
619
  100
AcDbEntity
  8
1
  100
AcDbLine
  10
44.8595
  20
0.078033
  30
0
  11
44.859
  21
0.078207
  31
0
  0
LINE
  5
61a
  100
AcDbEntity
  8
1
  100
AcDbLine
  10
44.859
  20
0.078207
  30
0
  11
44.8585
  21
0.078381
  31
0
  0
LINE
  5
61b
  100
AcDbEntity
  8
1
  100
AcDbLine
  10
44.8585
  20
0.078381
  30
0
  11
44.858
  21
0.078554
  31
0
  0
LINE
  5
61c
  100
AcDbEntity
  8
1
  100
AcDbLine
  10
44.858
  20
0.078554
  30
0
  11
44.8575
  21
0.078726
  31
0
  0
LINE
  5
61d
  100
AcDbEntity
  8
1
  100
AcDbLine
  10
44.8575
  20
0.078726
  30
0
  11
44.857
  21
0.078898
  31
0
  0
LINE
  5
61e
  100
AcDbEntity
  8
1
  100
AcDbLine
  10
44.857
  20
0.078898
  30
0
  11
44.8565
  21
0.079069
  31
0
  0
LINE
  5
61f
  100
AcDbEntity
  8
1
  100
AcDbLine
  10
44.8565
  20
0.079069
  30
0
  11
44.856
  21
0.07924
  31
0
  0
LINE
  5
620
  100
AcDbEntity
  8
1
  100
AcDbLine
  10
44.856
  20
0.07924
  30
0
  11
44.8555
  21
0.079409
  31
0
  0
LINE
  5
621
  100
AcDbEntity
  8
1
  100
AcDbLine
  10
44.8555
  20
0.079409
  30
0
  11
44.855
  21
0.079579
  31
0
  0
LINE
  5
622
  100
AcDbEntity
  8
1
  100
AcDbLine
  10
44.855
  20
0.079579
  30
0
  11
44.8545
  21
0.079747
  31
0
  0
LINE
  5
623
  100
AcDbEntity
  8
1
  100
AcDbLine
  10
44.8545
  20
0.079747
  30
0
  11
44.854
  21
0.079915
  31
0
  0
LINE
  5
624
  100
AcDbEntity
  8
1
  100
AcDbLine
  10
44.854
  20
0.079915
  30
0
  11
44.8535
  21
0.080082
  31
0
  0
LINE
  5
625
  100
AcDbEntity
  8
1
  100
AcDbLine
  10
44.8535
  20
0.080082
  30
0
  11
44.853
  21
0.080249
  31
0
  0
LINE
  5
626
  100
AcDbEntity
  8
1
  100
AcDbLine
  10
44.853
  20
0.080249
  30
0
  11
44.8525
  21
0.080414
  31
0
  0
LINE
  5
627
  100
AcDbEntity
  8
1
  100
AcDbLine
  10
44.8525
  20
0.080414
  30
0
  11
44.852
  21
0.08058
  31
0
  0
LINE
  5
628
  100
AcDbEntity
  8
1
  100
AcDbLine
  10
44.852
  20
0.08058
  30
0
  11
44.8515
  21
0.080744
  31
0
  0
LINE
  5
629
  100
AcDbEntity
  8
1
  100
AcDbLine
  10
44.8515
  20
0.080744
  30
0
  11
44.851
  21
0.080908
  31
0
  0
LINE
  5
62a
  100
AcDbEntity
  8
1
  100
AcDbLine
  10
44.851
  20
0.080908
  30
0
  11
44.8505
  21
0.081071
  31
0
  0
LINE
  5
62b
  100
AcDbEntity
  8
1
  100
AcDbLine
  10
44.8505
  20
0.081071
  30
0
  11
44.85
  21
0.081233
  31
0
  0
LINE
  5
62c
  100
AcDbEntity
  8
1
  100
AcDbLine
  10
44.85
  20
0.081233
  30
0
  11
44.85
  21
0.074383
  31
0
  0
LINE
  5
62d
  100
AcDbEntity
  8
1
  100
AcDbLine
  10
45
  20
0.002818
  30
0
  11
44.9995
  21
0.002434
  31
0
  0
LINE
  5
62e
  100
AcDbEntity
  8
1
  100
AcDbLine
  10
44.9995
  20
0.002434
  30
0
  11
44.999
  21
0.002434
  31
0
  0
LINE
  5
62f
  100
AcDbEntity
  8
1
  100
AcDbLine
  10
44.999
  20
0.002434
  30
0
  11
44.9985
  21
0.002504
  31
0
  0
LINE
  5
630
  100
AcDbEntity
  8
1
  100
AcDbLine
  10
44.9985
  20
0.002504
  30
0
  11
44.998
  21
0.002612
  31
0
  0
LINE
  5
631
  100
AcDbEntity
  8
1
  100
AcDbLine
  10
44.998
  20
0.002612
  30
0
  11
44.9975
  21
0.002746
  31
0
  0
LINE
  5
632
  100
AcDbEntity
  8
1
  100
AcDbLine
  10
44.9975
  20
0.002746
  30
0
  11
44.997
  21
0.002899
  31
0
  0
LINE
  5
633
  100
AcDbEntity
  8
1
  100
AcDbLine
  10
44.997
  20
0.002899
  30
0
  11
44.9965
  21
0.003068
  31
0
  0
LINE
  5
634
  100
AcDbEntity
  8
1
  100
AcDbLine
  10
44.9965
  20
0.003068
  30
0
  11
44.996
  21
0.003249
  31
0
  0
LINE
  5
635
  100
AcDbEntity
  8
1
  100
AcDbLine
  10
44.996
  20
0.003249
  30
0
  11
44.9955
  21
0.003441
  31
0
  0
LINE
  5
636
  100
AcDbEntity
  8
1
  100
AcDbLine
  10
44.9955
  20
0.003441
  30
0
  11
44.995
  21
0.003643
  31
0
  0
LINE
  5
637
  100
AcDbEntity
  8
1
  100
AcDbLine
  10
44.995
  20
0.003643
  30
0
  11
44.9945
  21
0.003852
  31
0
  0
LINE
  5
638
  100
AcDbEntity
  8
1
  100
AcDbLine
  10
44.9945
  20
0.003852
  30
0
  11
44.994
  21
0.004069
  31
0
  0
LINE
  5
639
  100
AcDbEntity
  8
1
  100
AcDbLine
  10
44.994
  20
0.004069
  30
0
  11
44.9935
  21
0.004292
  31
0
  0
LINE
  5
63a
  100
AcDbEntity
  8
1
  100
AcDbLine
  10
44.9935
  20
0.004292
  30
0
  11
44.993
  21
0.004521
  31
0
  0
LINE
  5
63b
  100
AcDbEntity
  8
1
  100
AcDbLine
  10
44.993
  20
0.004521
  30
0
  11
44.9925
  21
0.004755
  31
0
  0
LINE
  5
63c
  100
AcDbEntity
  8
1
  100
AcDbLine
  10
44.9925
  20
0.004755
  30
0
  11
44.992
  21
0.004994
  31
0
  0
LINE
  5
63d
  100
AcDbEntity
  8
1
  100
AcDbLine
  10
44.992
  20
0.004994
  30
0
  11
44.9915
  21
0.005238
  31
0
  0
LINE
  5
63e
  100
AcDbEntity
  8
1
  100
AcDbLine
  10
44.9915
  20
0.005238
  30
0
  11
44.991
  21
0.005485
  31
0
  0
LINE
  5
63f
  100
AcDbEntity
  8
1
  100
AcDbLine
  10
44.991
  20
0.005485
  30
0
  11
44.9905
  21
0.005737
  31
0
  0
LINE
  5
640
  100
AcDbEntity
  8
1
  100
AcDbLine
  10
44.9905
  20
0.005737
  30
0
  11
44.99
  21
0.005992
  31
0
  0
LINE
  5
641
  100
AcDbEntity
  8
1
  100
AcDbLine
  10
44.99
  20
0.005992
  30
0
  11
44.9895
  21
0.00625
  31
0
  0
LINE
  5
642
  100
AcDbEntity
  8
1
  100
AcDbLine
  10
44.9895
  20
0.00625
  30
0
  11
44.989
  21
0.006511
  31
0
  0
LINE
  5
643
  100
AcDbEntity
  8
1
  100
AcDbLine
  10
44.989
  20
0.006511
  30
0
  11
44.9885
  21
0.006775
  31
0
  0
LINE
  5
644
  100
AcDbEntity
  8
1
  100
AcDbLine
  10
44.9885
  20
0.006775
  30
0
  11
44.988
  21
0.007041
  31
0
  0
LINE
  5
645
  100
AcDbEntity
  8
1
  100
AcDbLine
  10
44.988
  20
0.007041
  30
0
  11
44.9875
  21
0.00731
  31
0
  0
LINE
  5
646
  100
AcDbEntity
  8
1
  100
AcDbLine
  10
44.9875
  20
0.00731
  30
0
  11
44.987
  21
0.007581
  31
0
  0
LINE
  5
647
  100
AcDbEntity
  8
1
  100
AcDbLine
  10
44.987
  20
0.007581
  30
0
  11
44.9865
  21
0.007854
  31
0
  0
LINE
  5
648
  100
AcDbEntity
  8
1
  100
AcDbLine
  10
44.9865
  20
0.007854
  30
0
  11
44.986
  21
0.008129
  31
0
  0
LINE
  5
649
  100
AcDbEntity
  8
1
  100
AcDbLine
  10
44.986
  20
0.008129
  30
0
  11
44.9855
  21
0.008405
  31
0
  0
LINE
  5
64a
  100
AcDbEntity
  8
1
  100
AcDbLine
  10
44.9855
  20
0.008405
  30
0
  11
44.985
  21
0.008683
  31
0
  0
LINE
  5
64b
  100
AcDbEntity
  8
1
  100
AcDbLine
  10
44.985
  20
0.008683
  30
0
  11
44.9845
  21
0.008963
  31
0
  0
LINE
  5
64c
  100
AcDbEntity
  8
1
  100
AcDbLine
  10
44.9845
  20
0.008963
  30
0
  11
44.984
  21
0.009244
  31
0
  0
LINE
  5
64d
  100
AcDbEntity
  8
1
  100
AcDbLine
  10
44.984
  20
0.009244
  30
0
  11
44.9835
  21
0.009526
  31
0
  0
LINE
  5
64e
  100
AcDbEntity
  8
1
  100
AcDbLine
  10
44.9835
  20
0.009526
  30
0
  11
44.983
  21
0.009809
  31
0
  0
LINE
  5
64f
  100
AcDbEntity
  8
1
  100
AcDbLine
  10
44.983
  20
0.009809
  30
0
  11
44.9825
  21
0.010093
  31
0
  0
LINE
  5
650
  100
AcDbEntity
  8
1
  100
AcDbLine
  10
44.9825
  20
0.010093
  30
0
  11
44.982
  21
0.010377
  31
0
  0
LINE
  5
651
  100
AcDbEntity
  8
1
  100
AcDbLine
  10
44.982
  20
0.010377
  30
0
  11
44.9815
  21
0.010663
  31
0
  0
LINE
  5
652
  100
AcDbEntity
  8
1
  100
AcDbLine
  10
44.9815
  20
0.010663
  30
0
  11
44.981
  21
0.010948
  31
0
  0
LINE
  5
653
  100
AcDbEntity
  8
1
  100
AcDbLine
  10
44.981
  20
0.010948
  30
0
  11
44.9805
  21
0.011235
  31
0
  0
LINE
  5
654
  100
AcDbEntity
  8
1
  100
AcDbLine
  10
44.9805
  20
0.011235
  30
0
  11
44.98
  21
0.011521
  31
0
  0
LINE
  5
655
  100
AcDbEntity
  8
1
  100
AcDbLine
  10
44.98
  20
0.011521
  30
0
  11
44.9795
  21
0.011808
  31
0
  0
LINE
  5
656
  100
AcDbEntity
  8
1
  100
AcDbLine
  10
44.9795
  20
0.011808
  30
0
  11
44.979
  21
0.012095
  31
0
  0
LINE
  5
657
  100
AcDbEntity
  8
1
  100
AcDbLine
  10
44.979
  20
0.012095
  30
0
  11
44.9785
  21
0.012381
  31
0
  0
LINE
  5
658
  100
AcDbEntity
  8
1
  100
AcDbLine
  10
44.9785
  20
0.012381
  30
0
  11
44.978
  21
0.012668
  31
0
  0
LINE
  5
659
  100
AcDbEntity
  8
1
  100
AcDbLine
  10
44.978
  20
0.012668
  30
0
  11
44.9775
  21
0.012954
  31
0
  0
LINE
  5
65a
  100
AcDbEntity
  8
1
  100
AcDbLine
  10
44.9775
  20
0.012954
  30
0
  11
44.977
  21
0.01324
  31
0
  0
LINE
  5
65b
  100
AcDbEntity
  8
1
  100
AcDbLine
  10
44.977
  20
0.01324
  30
0
  11
44.9765
  21
0.013526
  31
0
  0
LINE
  5
65c
  100
AcDbEntity
  8
1
  100
AcDbLine
  10
44.9765
  20
0.013526
  30
0
  11
44.976
  21
0.013812
  31
0
  0
LINE
  5
65d
  100
AcDbEntity
  8
1
  100
AcDbLine
  10
44.976
  20
0.013812
  30
0
  11
44.9755
  21
0.014098
  31
0
  0
LINE
  5
65e
  100
AcDbEntity
  8
1
  100
AcDbLine
  10
44.9755
  20
0.014098
  30
0
  11
44.975
  21
0.014384
  31
0
  0
LINE
  5
65f
  100
AcDbEntity
  8
1
  100
AcDbLine
  10
44.975
  20
0.014384
  30
0
  11
44.9745
  21
0.014669
  31
0
  0
LINE
  5
660
  100
AcDbEntity
  8
1
  100
AcDbLine
  10
44.9745
  20
0.014669
  30
0
  11
44.974
  21
0.014955
  31
0
  0
LINE
  5
661
  100
AcDbEntity
  8
1
  100
AcDbLine
  10
44.974
  20
0.014955
  30
0
  11
44.9735
  21
0.01524
  31
0
  0
LINE
  5
662
  100
AcDbEntity
  8
1
  100
AcDbLine
  10
44.9735
  20
0.01524
  30
0
  11
44.973
  21
0.015525
  31
0
  0
LINE
  5
663
  100
AcDbEntity
  8
1
  100
AcDbLine
  10
44.973
  20
0.015525
  30
0
  11
44.9725
  21
0.015811
  31
0
  0
LINE
  5
664
  100
AcDbEntity
  8
1
  100
AcDbLine
  10
44.9725
  20
0.015811
  30
0
  11
44.972
  21
0.016095
  31
0
  0
LINE
  5
665
  100
AcDbEntity
  8
1
  100
AcDbLine
  10
44.972
  20
0.016095
  30
0
  11
44.9715
  21
0.01638
  31
0
  0
LINE
  5
666
  100
AcDbEntity
  8
1
  100
AcDbLine
  10
44.9715
  20
0.01638
  30
0
  11
44.971
  21
0.016665
  31
0
  0
LINE
  5
667
  100
AcDbEntity
  8
1
  100
AcDbLine
  10
44.971
  20
0.016665
  30
0
  11
44.9705
  21
0.01695
  31
0
  0
LINE
  5
668
  100
AcDbEntity
  8
1
  100
AcDbLine
  10
44.9705
  20
0.01695
  30
0
  11
44.97
  21
0.017234
  31
0
  0
LINE
  5
669
  100
AcDbEntity
  8
1
  100
AcDbLine
  10
44.97
  20
0.017234
  30
0
  11
44.9695
  21
0.017518
  31
0
  0
LINE
  5
66a
  100
AcDbEntity
  8
1
  100
AcDbLine
  10
44.9695
  20
0.017518
  30
0
  11
44.969
  21
0.017802
  31
0
  0
LINE
  5
66b
  100
AcDbEntity
  8
1
  100
AcDbLine
  10
44.969
  20
0.017802
  30
0
  11
44.9685
  21
0.018086
  31
0
  0
LINE
  5
66c
  100
AcDbEntity
  8
1
  100
AcDbLine
  10
44.9685
  20
0.018086
  30
0
  11
44.968
  21
0.01837
  31
0
  0
LINE
  5
66d
  100
AcDbEntity
  8
1
  100
AcDbLine
  10
44.968
  20
0.01837
  30
0
  11
44.9675
  21
0.018654
  31
0
  0
LINE
  5
66e
  100
AcDbEntity
  8
1
  100
AcDbLine
  10
44.9675
  20
0.018654
  30
0
  11
44.967
  21
0.018937
  31
0
  0
LINE
  5
66f
  100
AcDbEntity
  8
1
  100
AcDbLine
  10
44.967
  20
0.018937
  30
0
  11
44.9665
  21
0.019221
  31
0
  0
LINE
  5
670
  100
AcDbEntity
  8
1
  100
AcDbLine
  10
44.9665
  20
0.019221
  30
0
  11
44.966
  21
0.019504
  31
0
  0
LINE
  5
671
  100
AcDbEntity
  8
1
  100
AcDbLine
  10
44.966
  20
0.019504
  30
0
  11
44.9655
  21
0.019787
  31
0
  0
LINE
  5
672
  100
AcDbEntity
  8
1
  100
AcDbLine
  10
44.9655
  20
0.019787
  30
0
  11
44.965
  21
0.02007
  31
0
  0
LINE
  5
673
  100
AcDbEntity
  8
1
  100
AcDbLine
  10
44.965
  20
0.02007
  30
0
  11
44.9645
  21
0.020353
  31
0
  0
LINE
  5
674
  100
AcDbEntity
  8
1
  100
AcDbLine
  10
44.9645
  20
0.020353
  30
0
  11
44.964
  21
0.020635
  31
0
  0
LINE
  5
675
  100
AcDbEntity
  8
1
  100
AcDbLine
  10
44.964
  20
0.020635
  30
0
  11
44.9635
  21
0.020918
  31
0
  0
LINE
  5
676
  100
AcDbEntity
  8
1
  100
AcDbLine
  10
44.9635
  20
0.020918
  30
0
  11
44.963
  21
0.0212
  31
0
  0
LINE
  5
677
  100
AcDbEntity
  8
1
  100
AcDbLine
  10
44.963
  20
0.0212
  30
0
  11
44.9625
  21
0.021482
  31
0
  0
LINE
  5
678
  100
AcDbEntity
  8
1
  100
AcDbLine
  10
44.9625
  20
0.021482
  30
0
  11
44.962
  21
0.021764
  31
0
  0
LINE
  5
679
  100
AcDbEntity
  8
1
  100
AcDbLine
  10
44.962
  20
0.021764
  30
0
  11
44.9615
  21
0.022045
  31
0
  0
LINE
  5
67a
  100
AcDbEntity
  8
1
  100
AcDbLine
  10
44.9615
  20
0.022045
  30
0
  11
44.961
  21
0.022327
  31
0
  0
LINE
  5
67b
  100
AcDbEntity
  8
1
  100
AcDbLine
  10
44.961
  20
0.022327
  30
0
  11
44.9605
  21
0.022608
  31
0
  0
LINE
  5
67c
  100
AcDbEntity
  8
1
  100
AcDbLine
  10
44.9605
  20
0.022608
  30
0
  11
44.96
  21
0.022889
  31
0
  0
LINE
  5
67d
  100
AcDbEntity
  8
1
  100
AcDbLine
  10
44.96
  20
0.022889
  30
0
  11
44.9595
  21
0.02317
  31
0
  0
LINE
  5
67e
  100
AcDbEntity
  8
1
  100
AcDbLine
  10
44.9595
  20
0.02317
  30
0
  11
44.959
  21
0.023451
  31
0
  0
LINE
  5
67f
  100
AcDbEntity
  8
1
  100
AcDbLine
  10
44.959
  20
0.023451
  30
0
  11
44.9585
  21
0.023731
  31
0
  0
LINE
  5
680
  100
AcDbEntity
  8
1
  100
AcDbLine
  10
44.9585
  20
0.023731
  30
0
  11
44.958
  21
0.024012
  31
0
  0
LINE
  5
681
  100
AcDbEntity
  8
1
  100
AcDbLine
  10
44.958
  20
0.024012
  30
0
  11
44.9575
  21
0.024292
  31
0
  0
LINE
  5
682
  100
AcDbEntity
  8
1
  100
AcDbLine
  10
44.9575
  20
0.024292
  30
0
  11
44.957
  21
0.024572
  31
0
  0
LINE
  5
683
  100
AcDbEntity
  8
1
  100
AcDbLine
  10
44.957
  20
0.024572
  30
0
  11
44.9565
  21
0.024852
  31
0
  0
LINE
  5
684
  100
AcDbEntity
  8
1
  100
AcDbLine
  10
44.9565
  20
0.024852
  30
0
  11
44.956
  21
0.025131
  31
0
  0
LINE
  5
685
  100
AcDbEntity
  8
1
  100
AcDbLine
  10
44.956
  20
0.025131
  30
0
  11
44.9555
  21
0.02541
  31
0
  0
LINE
  5
686
  100
AcDbEntity
  8
1
  100
AcDbLine
  10
44.9555
  20
0.02541
  30
0
  11
44.955
  21
0.025689
  31
0
  0
LINE
  5
687
  100
AcDbEntity
  8
1
  100
AcDbLine
  10
44.955
  20
0.025689
  30
0
  11
44.9545
  21
0.025968
  31
0
  0
LINE
  5
688
  100
AcDbEntity
  8
1
  100
AcDbLine
  10
44.9545
  20
0.025968
  30
0
  11
44.954
  21
0.026247
  31
0
  0
LINE
  5
689
  100
AcDbEntity
  8
1
  100
AcDbLine
  10
44.954
  20
0.026247
  30
0
  11
44.9535
  21
0.026525
  31
0
  0
LINE
  5
68a
  100
AcDbEntity
  8
1
  100
AcDbLine
  10
44.9535
  20
0.026525
  30
0
  11
44.953
  21
0.026804
  31
0
  0
LINE
  5
68b
  100
AcDbEntity
  8
1
  100
AcDbLine
  10
44.953
  20
0.026804
  30
0
  11
44.9525
  21
0.027082
  31
0
  0
LINE
  5
68c
  100
AcDbEntity
  8
1
  100
AcDbLine
  10
44.9525
  20
0.027082
  30
0
  11
44.952
  21
0.027359
  31
0
  0
LINE
  5
68d
  100
AcDbEntity
  8
1
  100
AcDbLine
  10
44.952
  20
0.027359
  30
0
  11
44.9515
  21
0.027637
  31
0
  0
LINE
  5
68e
  100
AcDbEntity
  8
1
  100
AcDbLine
  10
44.9515
  20
0.027637
  30
0
  11
44.951
  21
0.027914
  31
0
  0
LINE
  5
68f
  100
AcDbEntity
  8
1
  100
AcDbLine
  10
44.951
  20
0.027914
  30
0
  11
44.9505
  21
0.028191
  31
0
  0
LINE
  5
690
  100
AcDbEntity
  8
1
  100
AcDbLine
  10
44.9505
  20
0.028191
  30
0
  11
44.95
  21
0.028468
  31
0
  0
LINE
  5
691
  100
AcDbEntity
  8
1
  100
AcDbLine
  10
44.95
  20
0.028468
  30
0
  11
44.9495
  21
0.028745
  31
0
  0
LINE
  5
692
  100
AcDbEntity
  8
1
  100
AcDbLine
  10
44.9495
  20
0.028745
  30
0
  11
44.949
  21
0.029021
  31
0
  0
LINE
  5
693
  100
AcDbEntity
  8
1
  100
AcDbLine
  10
44.949
  20
0.029021
  30
0
  11
44.9485
  21
0.029297
  31
0
  0
LINE
  5
694
  100
AcDbEntity
  8
1
  100
AcDbLine
  10
44.9485
  20
0.029297
  30
0
  11
44.948
  21
0.029573
  31
0
  0
LINE
  5
695
  100
AcDbEntity
  8
1
  100
AcDbLine
  10
44.948
  20
0.029573
  30
0
  11
44.9475
  21
0.029849
  31
0
  0
LINE
  5
696
  100
AcDbEntity
  8
1
  100
AcDbLine
  10
44.9475
  20
0.029849
  30
0
  11
44.947
  21
0.030124
  31
0
  0
LINE
  5
697
  100
AcDbEntity
  8
1
  100
AcDbLine
  10
44.947
  20
0.030124
  30
0
  11
44.9465
  21
0.030399
  31
0
  0
LINE
  5
698
  100
AcDbEntity
  8
1
  100
AcDbLine
  10
44.9465
  20
0.030399
  30
0
  11
44.946
  21
0.030674
  31
0
  0
LINE
  5
699
  100
AcDbEntity
  8
1
  100
AcDbLine
  10
44.946
  20
0.030674
  30
0
  11
44.9455
  21
0.030949
  31
0
  0
LINE
  5
69a
  100
AcDbEntity
  8
1
  100
AcDbLine
  10
44.9455
  20
0.030949
  30
0
  11
44.945
  21
0.031223
  31
0
  0
LINE
  5
69b
  100
AcDbEntity
  8
1
  100
AcDbLine
  10
44.945
  20
0.031223
  30
0
  11
44.9445
  21
0.031497
  31
0
  0
LINE
  5
69c
  100
AcDbEntity
  8
1
  100
AcDbLine
  10
44.9445
  20
0.031497
  30
0
  11
44.944
  21
0.031771
  31
0
  0
LINE
  5
69d
  100
AcDbEntity
  8
1
  100
AcDbLine
  10
44.944
  20
0.031771
  30
0
  11
44.9435
  21
0.032045
  31
0
  0
LINE
  5
69e
  100
AcDbEntity
  8
1
  100
AcDbLine
  10
44.9435
  20
0.032045
  30
0
  11
44.943
  21
0.032318
  31
0
  0
LINE
  5
69f
  100
AcDbEntity
  8
1
  100
AcDbLine
  10
44.943
  20
0.032318
  30
0
  11
44.9425
  21
0.032591
  31
0
  0
LINE
  5
6a0
  100
AcDbEntity
  8
1
  100
AcDbLine
  10
44.9425
  20
0.032591
  30
0
  11
44.942
  21
0.032864
  31
0
  0
LINE
  5
6a1
  100
AcDbEntity
  8
1
  100
AcDbLine
  10
44.942
  20
0.032864
  30
0
  11
44.9415
  21
0.033136
  31
0
  0
LINE
  5
6a2
  100
AcDbEntity
  8
1
  100
AcDbLine
  10
44.9415
  20
0.033136
  30
0
  11
44.941
  21
0.033409
  31
0
  0
LINE
  5
6a3
  100
AcDbEntity
  8
1
  100
AcDbLine
  10
44.941
  20
0.033409
  30
0
  11
44.9405
  21
0.033681
  31
0
  0
LINE
  5
6a4
  100
AcDbEntity
  8
1
  100
AcDbLine
  10
44.9405
  20
0.033681
  30
0
  11
44.94
  21
0.033952
  31
0
  0
LINE
  5
6a5
  100
AcDbEntity
  8
1
  100
AcDbLine
  10
44.94
  20
0.033952
  30
0
  11
44.9395
  21
0.034224
  31
0
  0
LINE
  5
6a6
  100
AcDbEntity
  8
1
  100
AcDbLine
  10
44.9395
  20
0.034224
  30
0
  11
44.939
  21
0.034495
  31
0
  0
LINE
  5
6a7
  100
AcDbEntity
  8
1
  100
AcDbLine
  10
44.939
  20
0.034495
  30
0
  11
44.9385
  21
0.034766
  31
0
  0
LINE
  5
6a8
  100
AcDbEntity
  8
1
  100
AcDbLine
  10
44.9385
  20
0.034766
  30
0
  11
44.938
  21
0.035036
  31
0
  0
LINE
  5
6a9
  100
AcDbEntity
  8
1
  100
AcDbLine
  10
44.938
  20
0.035036
  30
0
  11
44.9375
  21
0.035306
  31
0
  0
LINE
  5
6aa
  100
AcDbEntity
  8
1
  100
AcDbLine
  10
44.9375
  20
0.035306
  30
0
  11
44.937
  21
0.035576
  31
0
  0
LINE
  5
6ab
  100
AcDbEntity
  8
1
  100
AcDbLine
  10
44.937
  20
0.035576
  30
0
  11
44.9365
  21
0.035846
  31
0
  0
LINE
  5
6ac
  100
AcDbEntity
  8
1
  100
AcDbLine
  10
44.9365
  20
0.035846
  30
0
  11
44.936
  21
0.036115
  31
0
  0
LINE
  5
6ad
  100
AcDbEntity
  8
1
  100
AcDbLine
  10
44.936
  20
0.036115
  30
0
  11
44.9355
  21
0.036384
  31
0
  0
LINE
  5
6ae
  100
AcDbEntity
  8
1
  100
AcDbLine
  10
44.9355
  20
0.036384
  30
0
  11
44.935
  21
0.036653
  31
0
  0
LINE
  5
6af
  100
AcDbEntity
  8
1
  100
AcDbLine
  10
44.935
  20
0.036653
  30
0
  11
44.9345
  21
0.036922
  31
0
  0
LINE
  5
6b0
  100
AcDbEntity
  8
1
  100
AcDbLine
  10
44.9345
  20
0.036922
  30
0
  11
44.934
  21
0.03719
  31
0
  0
LINE
  5
6b1
  100
AcDbEntity
  8
1
  100
AcDbLine
  10
44.934
  20
0.03719
  30
0
  11
44.9335
  21
0.037457
  31
0
  0
LINE
  5
6b2
  100
AcDbEntity
  8
1
  100
AcDbLine
  10
44.9335
  20
0.037457
  30
0
  11
44.933
  21
0.037725
  31
0
  0
LINE
  5
6b3
  100
AcDbEntity
  8
1
  100
AcDbLine
  10
44.933
  20
0.037725
  30
0
  11
44.9325
  21
0.037992
  31
0
  0
LINE
  5
6b4
  100
AcDbEntity
  8
1
  100
AcDbLine
  10
44.9325
  20
0.037992
  30
0
  11
44.932
  21
0.038259
  31
0
  0
LINE
  5
6b5
  100
AcDbEntity
  8
1
  100
AcDbLine
  10
44.932
  20
0.038259
  30
0
  11
44.9315
  21
0.038526
  31
0
  0
LINE
  5
6b6
  100
AcDbEntity
  8
1
  100
AcDbLine
  10
44.9315
  20
0.038526
  30
0
  11
44.931
  21
0.038792
  31
0
  0
LINE
  5
6b7
  100
AcDbEntity
  8
1
  100
AcDbLine
  10
44.931
  20
0.038792
  30
0
  11
44.9305
  21
0.039058
  31
0
  0
LINE
  5
6b8
  100
AcDbEntity
  8
1
  100
AcDbLine
  10
44.9305
  20
0.039058
  30
0
  11
44.93
  21
0.039323
  31
0
  0
LINE
  5
6b9
  100
AcDbEntity
  8
1
  100
AcDbLine
  10
44.93
  20
0.039323
  30
0
  11
44.9295
  21
0.039589
  31
0
  0
LINE
  5
6ba
  100
AcDbEntity
  8
1
  100
AcDbLine
  10
44.9295
  20
0.039589
  30
0
  11
44.929
  21
0.039853
  31
0
  0
LINE
  5
6bb
  100
AcDbEntity
  8
1
  100
AcDbLine
  10
44.929
  20
0.039853
  30
0
  11
44.9285
  21
0.040118
  31
0
  0
LINE
  5
6bc
  100
AcDbEntity
  8
1
  100
AcDbLine
  10
44.9285
  20
0.040118
  30
0
  11
44.928
  21
0.040382
  31
0
  0
LINE
  5
6bd
  100
AcDbEntity
  8
1
  100
AcDbLine
  10
44.928
  20
0.040382
  30
0
  11
44.9275
  21
0.040646
  31
0
  0
LINE
  5
6be
  100
AcDbEntity
  8
1
  100
AcDbLine
  10
44.9275
  20
0.040646
  30
0
  11
44.927
  21
0.04091
  31
0
  0
LINE
  5
6bf
  100
AcDbEntity
  8
1
  100
AcDbLine
  10
44.927
  20
0.04091
  30
0
  11
44.9265
  21
0.041173
  31
0
  0
LINE
  5
6c0
  100
AcDbEntity
  8
1
  100
AcDbLine
  10
44.9265
  20
0.041173
  30
0
  11
44.926
  21
0.041436
  31
0
  0
LINE
  5
6c1
  100
AcDbEntity
  8
1
  100
AcDbLine
  10
44.926
  20
0.041436
  30
0
  11
44.9255
  21
0.041699
  31
0
  0
LINE
  5
6c2
  100
AcDbEntity
  8
1
  100
AcDbLine
  10
44.9255
  20
0.041699
  30
0
  11
44.925
  21
0.041961
  31
0
  0
LINE
  5
6c3
  100
AcDbEntity
  8
1
  100
AcDbLine
  10
44.925
  20
0.041961
  30
0
  11
44.9245
  21
0.042223
  31
0
  0
LINE
  5
6c4
  100
AcDbEntity
  8
1
  100
AcDbLine
  10
44.9245
  20
0.042223
  30
0
  11
44.924
  21
0.042484
  31
0
  0
LINE
  5
6c5
  100
AcDbEntity
  8
1
  100
AcDbLine
  10
44.924
  20
0.042484
  30
0
  11
44.9235
  21
0.042745
  31
0
  0
LINE
  5
6c6
  100
AcDbEntity
  8
1
  100
AcDbLine
  10
44.9235
  20
0.042745
  30
0
  11
44.923
  21
0.043006
  31
0
  0
LINE
  5
6c7
  100
AcDbEntity
  8
1
  100
AcDbLine
  10
44.923
  20
0.043006
  30
0
  11
44.9225
  21
0.043266
  31
0
  0
LINE
  5
6c8
  100
AcDbEntity
  8
1
  100
AcDbLine
  10
44.9225
  20
0.043266
  30
0
  11
44.922
  21
0.043527
  31
0
  0
LINE
  5
6c9
  100
AcDbEntity
  8
1
  100
AcDbLine
  10
44.922
  20
0.043527
  30
0
  11
44.9215
  21
0.043786
  31
0
  0
LINE
  5
6ca
  100
AcDbEntity
  8
1
  100
AcDbLine
  10
44.9215
  20
0.043786
  30
0
  11
44.921
  21
0.044046
  31
0
  0
LINE
  5
6cb
  100
AcDbEntity
  8
1
  100
AcDbLine
  10
44.921
  20
0.044046
  30
0
  11
44.9205
  21
0.044305
  31
0
  0
LINE
  5
6cc
  100
AcDbEntity
  8
1
  100
AcDbLine
  10
44.9205
  20
0.044305
  30
0
  11
44.92
  21
0.044563
  31
0
  0
LINE
  5
6cd
  100
AcDbEntity
  8
1
  100
AcDbLine
  10
44.92
  20
0.044563
  30
0
  11
44.9195
  21
0.044821
  31
0
  0
LINE
  5
6ce
  100
AcDbEntity
  8
1
  100
AcDbLine
  10
44.9195
  20
0.044821
  30
0
  11
44.919
  21
0.045079
  31
0
  0
LINE
  5
6cf
  100
AcDbEntity
  8
1
  100
AcDbLine
  10
44.919
  20
0.045079
  30
0
  11
44.9185
  21
0.045337
  31
0
  0
LINE
  5
6d0
  100
AcDbEntity
  8
1
  100
AcDbLine
  10
44.9185
  20
0.045337
  30
0
  11
44.918
  21
0.045594
  31
0
  0
LINE
  5
6d1
  100
AcDbEntity
  8
1
  100
AcDbLine
  10
44.918
  20
0.045594
  30
0
  11
44.9175
  21
0.045851
  31
0
  0
LINE
  5
6d2
  100
AcDbEntity
  8
1
  100
AcDbLine
  10
44.9175
  20
0.045851
  30
0
  11
44.917
  21
0.046107
  31
0
  0
LINE
  5
6d3
  100
AcDbEntity
  8
1
  100
AcDbLine
  10
44.917
  20
0.046107
  30
0
  11
44.9165
  21
0.046363
  31
0
  0
LINE
  5
6d4
  100
AcDbEntity
  8
1
  100
AcDbLine
  10
44.9165
  20
0.046363
  30
0
  11
44.916
  21
0.046619
  31
0
  0
LINE
  5
6d5
  100
AcDbEntity
  8
1
  100
AcDbLine
  10
44.916
  20
0.046619
  30
0
  11
44.9155
  21
0.046874
  31
0
  0
LINE
  5
6d6
  100
AcDbEntity
  8
1
  100
AcDbLine
  10
44.9155
  20
0.046874
  30
0
  11
44.915
  21
0.047129
  31
0
  0
LINE
  5
6d7
  100
AcDbEntity
  8
1
  100
AcDbLine
  10
44.915
  20
0.047129
  30
0
  11
44.9145
  21
0.047383
  31
0
  0
LINE
  5
6d8
  100
AcDbEntity
  8
1
  100
AcDbLine
  10
44.9145
  20
0.047383
  30
0
  11
44.914
  21
0.047637
  31
0
  0
LINE
  5
6d9
  100
AcDbEntity
  8
1
  100
AcDbLine
  10
44.914
  20
0.047637
  30
0
  11
44.9135
  21
0.047891
  31
0
  0
LINE
  5
6da
  100
AcDbEntity
  8
1
  100
AcDbLine
  10
44.9135
  20
0.047891
  30
0
  11
44.913
  21
0.048144
  31
0
  0
LINE
  5
6db
  100
AcDbEntity
  8
1
  100
AcDbLine
  10
44.913
  20
0.048144
  30
0
  11
44.9125
  21
0.048397
  31
0
  0
LINE
  5
6dc
  100
AcDbEntity
  8
1
  100
AcDbLine
  10
44.9125
  20
0.048397
  30
0
  11
44.912
  21
0.048649
  31
0
  0
LINE
  5
6dd
  100
AcDbEntity
  8
1
  100
AcDbLine
  10
44.912
  20
0.048649
  30
0
  11
44.9115
  21
0.048901
  31
0
  0
LINE
  5
6de
  100
AcDbEntity
  8
1
  100
AcDbLine
  10
44.9115
  20
0.048901
  30
0
  11
44.911
  21
0.049153
  31
0
  0
LINE
  5
6df
  100
AcDbEntity
  8
1
  100
AcDbLine
  10
44.911
  20
0.049153
  30
0
  11
44.9105
  21
0.049404
  31
0
  0
LINE
  5
6e0
  100
AcDbEntity
  8
1
  100
AcDbLine
  10
44.9105
  20
0.049404
  30
0
  11
44.91
  21
0.049655
  31
0
  0
LINE
  5
6e1
  100
AcDbEntity
  8
1
  100
AcDbLine
  10
44.91
  20
0.049655
  30
0
  11
44.9095
  21
0.049905
  31
0
  0
LINE
  5
6e2
  100
AcDbEntity
  8
1
  100
AcDbLine
  10
44.9095
  20
0.049905
  30
0
  11
44.909
  21
0.050155
  31
0
  0
LINE
  5
6e3
  100
AcDbEntity
  8
1
  100
AcDbLine
  10
44.909
  20
0.050155
  30
0
  11
44.9085
  21
0.050404
  31
0
  0
LINE
  5
6e4
  100
AcDbEntity
  8
1
  100
AcDbLine
  10
44.9085
  20
0.050404
  30
0
  11
44.908
  21
0.050654
  31
0
  0
LINE
  5
6e5
  100
AcDbEntity
  8
1
  100
AcDbLine
  10
44.908
  20
0.050654
  30
0
  11
44.9075
  21
0.050902
  31
0
  0
LINE
  5
6e6
  100
AcDbEntity
  8
1
  100
AcDbLine
  10
44.9075
  20
0.050902
  30
0
  11
44.907
  21
0.051151
  31
0
  0
LINE
  5
6e7
  100
AcDbEntity
  8
1
  100
AcDbLine
  10
44.907
  20
0.051151
  30
0
  11
44.9065
  21
0.051398
  31
0
  0
LINE
  5
6e8
  100
AcDbEntity
  8
1
  100
AcDbLine
  10
44.9065
  20
0.051398
  30
0
  11
44.906
  21
0.051646
  31
0
  0
LINE
  5
6e9
  100
AcDbEntity
  8
1
  100
AcDbLine
  10
44.906
  20
0.051646
  30
0
  11
44.9055
  21
0.051893
  31
0
  0
LINE
  5
6ea
  100
AcDbEntity
  8
1
  100
AcDbLine
  10
44.9055
  20
0.051893
  30
0
  11
44.905
  21
0.052139
  31
0
  0
LINE
  5
6eb
  100
AcDbEntity
  8
1
  100
AcDbLine
  10
44.905
  20
0.052139
  30
0
  11
44.9045
  21
0.052385
  31
0
  0
LINE
  5
6ec
  100
AcDbEntity
  8
1
  100
AcDbLine
  10
44.9045
  20
0.052385
  30
0
  11
44.904
  21
0.052631
  31
0
  0
LINE
  5
6ed
  100
AcDbEntity
  8
1
  100
AcDbLine
  10
44.904
  20
0.052631
  30
0
  11
44.9035
  21
0.052876
  31
0
  0
LINE
  5
6ee
  100
AcDbEntity
  8
1
  100
AcDbLine
  10
44.9035
  20
0.052876
  30
0
  11
44.903
  21
0.053121
  31
0
  0
LINE
  5
6ef
  100
AcDbEntity
  8
1
  100
AcDbLine
  10
44.903
  20
0.053121
  30
0
  11
44.9025
  21
0.053365
  31
0
  0
LINE
  5
6f0
  100
AcDbEntity
  8
1
  100
AcDbLine
  10
44.9025
  20
0.053365
  30
0
  11
44.902
  21
0.053609
  31
0
  0
LINE
  5
6f1
  100
AcDbEntity
  8
1
  100
AcDbLine
  10
44.902
  20
0.053609
  30
0
  11
44.9015
  21
0.053853
  31
0
  0
LINE
  5
6f2
  100
AcDbEntity
  8
1
  100
AcDbLine
  10
44.9015
  20
0.053853
  30
0
  11
44.901
  21
0.054096
  31
0
  0
LINE
  5
6f3
  100
AcDbEntity
  8
1
  100
AcDbLine
  10
44.901
  20
0.054096
  30
0
  11
44.9005
  21
0.054338
  31
0
  0
LINE
  5
6f4
  100
AcDbEntity
  8
1
  100
AcDbLine
  10
44.9005
  20
0.054338
  30
0
  11
44.9
  21
0.054581
  31
0
  0
LINE
  5
6f5
  100
AcDbEntity
  8
1
  100
AcDbLine
  10
44.9
  20
0.054581
  30
0
  11
44.8995
  21
0.054822
  31
0
  0
LINE
  5
6f6
  100
AcDbEntity
  8
1
  100
AcDbLine
  10
44.8995
  20
0.054822
  30
0
  11
44.899
  21
0.055063
  31
0
  0
LINE
  5
6f7
  100
AcDbEntity
  8
1
  100
AcDbLine
  10
44.899
  20
0.055063
  30
0
  11
44.8985
  21
0.055304
  31
0
  0
LINE
  5
6f8
  100
AcDbEntity
  8
1
  100
AcDbLine
  10
44.8985
  20
0.055304
  30
0
  11
44.898
  21
0.055544
  31
0
  0
LINE
  5
6f9
  100
AcDbEntity
  8
1
  100
AcDbLine
  10
44.898
  20
0.055544
  30
0
  11
44.8975
  21
0.055784
  31
0
  0
LINE
  5
6fa
  100
AcDbEntity
  8
1
  100
AcDbLine
  10
44.8975
  20
0.055784
  30
0
  11
44.897
  21
0.056024
  31
0
  0
LINE
  5
6fb
  100
AcDbEntity
  8
1
  100
AcDbLine
  10
44.897
  20
0.056024
  30
0
  11
44.8965
  21
0.056262
  31
0
  0
LINE
  5
6fc
  100
AcDbEntity
  8
1
  100
AcDbLine
  10
44.8965
  20
0.056262
  30
0
  11
44.896
  21
0.056501
  31
0
  0
LINE
  5
6fd
  100
AcDbEntity
  8
1
  100
AcDbLine
  10
44.896
  20
0.056501
  30
0
  11
44.8955
  21
0.056739
  31
0
  0
LINE
  5
6fe
  100
AcDbEntity
  8
1
  100
AcDbLine
  10
44.8955
  20
0.056739
  30
0
  11
44.895
  21
0.056976
  31
0
  0
LINE
  5
6ff
  100
AcDbEntity
  8
1
  100
AcDbLine
  10
44.895
  20
0.056976
  30
0
  11
44.8945
  21
0.057213
  31
0
  0
LINE
  5
700
  100
AcDbEntity
  8
1
  100
AcDbLine
  10
44.8945
  20
0.057213
  30
0
  11
44.894
  21
0.05745
  31
0
  0
LINE
  5
701
  100
AcDbEntity
  8
1
  100
AcDbLine
  10
44.894
  20
0.05745
  30
0
  11
44.8935
  21
0.057686
  31
0
  0
LINE
  5
702
  100
AcDbEntity
  8
1
  100
AcDbLine
  10
44.8935
  20
0.057686
  30
0
  11
44.893
  21
0.057921
  31
0
  0
LINE
  5
703
  100
AcDbEntity
  8
1
  100
AcDbLine
  10
44.893
  20
0.057921
  30
0
  11
44.8925
  21
0.058157
  31
0
  0
LINE
  5
704
  100
AcDbEntity
  8
1
  100
AcDbLine
  10
44.8925
  20
0.058157
  30
0
  11
44.892
  21
0.058391
  31
0
  0
LINE
  5
705
  100
AcDbEntity
  8
1
  100
AcDbLine
  10
44.892
  20
0.058391
  30
0
  11
44.8915
  21
0.058625
  31
0
  0
LINE
  5
706
  100
AcDbEntity
  8
1
  100
AcDbLine
  10
44.8915
  20
0.058625
  30
0
  11
44.891
  21
0.058859
  31
0
  0
LINE
  5
707
  100
AcDbEntity
  8
1
  100
AcDbLine
  10
44.891
  20
0.058859
  30
0
  11
44.8905
  21
0.059092
  31
0
  0
LINE
  5
708
  100
AcDbEntity
  8
1
  100
AcDbLine
  10
44.8905
  20
0.059092
  30
0
  11
44.89
  21
0.059325
  31
0
  0
LINE
  5
709
  100
AcDbEntity
  8
1
  100
AcDbLine
  10
44.89
  20
0.059325
  30
0
  11
44.8895
  21
0.059557
  31
0
  0
LINE
  5
70a
  100
AcDbEntity
  8
1
  100
AcDbLine
  10
44.8895
  20
0.059557
  30
0
  11
44.889
  21
0.059788
  31
0
  0
LINE
  5
70b
  100
AcDbEntity
  8
1
  100
AcDbLine
  10
44.889
  20
0.059788
  30
0
  11
44.8885
  21
0.06002
  31
0
  0
LINE
  5
70c
  100
AcDbEntity
  8
1
  100
AcDbLine
  10
44.8885
  20
0.06002
  30
0
  11
44.888
  21
0.06025
  31
0
  0
LINE
  5
70d
  100
AcDbEntity
  8
1
  100
AcDbLine
  10
44.888
  20
0.06025
  30
0
  11
44.8875
  21
0.06048
  31
0
  0
LINE
  5
70e
  100
AcDbEntity
  8
1
  100
AcDbLine
  10
44.8875
  20
0.06048
  30
0
  11
44.887
  21
0.06071
  31
0
  0
LINE
  5
70f
  100
AcDbEntity
  8
1
  100
AcDbLine
  10
44.887
  20
0.06071
  30
0
  11
44.8865
  21
0.060939
  31
0
  0
LINE
  5
710
  100
AcDbEntity
  8
1
  100
AcDbLine
  10
44.8865
  20
0.060939
  30
0
  11
44.886
  21
0.061168
  31
0
  0
LINE
  5
711
  100
AcDbEntity
  8
1
  100
AcDbLine
  10
44.886
  20
0.061168
  30
0
  11
44.8855
  21
0.061396
  31
0
  0
LINE
  5
712
  100
AcDbEntity
  8
1
  100
AcDbLine
  10
44.8855
  20
0.061396
  30
0
  11
44.885
  21
0.061623
  31
0
  0
LINE
  5
713
  100
AcDbEntity
  8
1
  100
AcDbLine
  10
44.885
  20
0.061623
  30
0
  11
44.8845
  21
0.061851
  31
0
  0
LINE
  5
714
  100
AcDbEntity
  8
1
  100
AcDbLine
  10
44.8845
  20
0.061851
  30
0
  11
44.884
  21
0.062077
  31
0
  0
LINE
  5
715
  100
AcDbEntity
  8
1
  100
AcDbLine
  10
44.884
  20
0.062077
  30
0
  11
44.8835
  21
0.062303
  31
0
  0
LINE
  5
716
  100
AcDbEntity
  8
1
  100
AcDbLine
  10
44.8835
  20
0.062303
  30
0
  11
44.883
  21
0.062529
  31
0
  0
LINE
  5
717
  100
AcDbEntity
  8
1
  100
AcDbLine
  10
44.883
  20
0.062529
  30
0
  11
44.8825
  21
0.062754
  31
0
  0
LINE
  5
718
  100
AcDbEntity
  8
1
  100
AcDbLine
  10
44.8825
  20
0.062754
  30
0
  11
44.882
  21
0.062978
  31
0
  0
LINE
  5
719
  100
AcDbEntity
  8
1
  100
AcDbLine
  10
44.882
  20
0.062978
  30
0
  11
44.8815
  21
0.063202
  31
0
  0
LINE
  5
71a
  100
AcDbEntity
  8
1
  100
AcDbLine
  10
44.8815
  20
0.063202
  30
0
  11
44.881
  21
0.063426
  31
0
  0
LINE
  5
71b
  100
AcDbEntity
  8
1
  100
AcDbLine
  10
44.881
  20
0.063426
  30
0
  11
44.8805
  21
0.063649
  31
0
  0
LINE
  5
71c
  100
AcDbEntity
  8
1
  100
AcDbLine
  10
44.8805
  20
0.063649
  30
0
  11
44.88
  21
0.063871
  31
0
  0
LINE
  5
71d
  100
AcDbEntity
  8
1
  100
AcDbLine
  10
44.88
  20
0.063871
  30
0
  11
44.8795
  21
0.064093
  31
0
  0
LINE
  5
71e
  100
AcDbEntity
  8
1
  100
AcDbLine
  10
44.8795
  20
0.064093
  30
0
  11
44.879
  21
0.064314
  31
0
  0
LINE
  5
71f
  100
AcDbEntity
  8
1
  100
AcDbLine
  10
44.879
  20
0.064314
  30
0
  11
44.8785
  21
0.064535
  31
0
  0
LINE
  5
720
  100
AcDbEntity
  8
1
  100
AcDbLine
  10
44.8785
  20
0.064535
  30
0
  11
44.878
  21
0.064755
  31
0
  0
LINE
  5
721
  100
AcDbEntity
  8
1
  100
AcDbLine
  10
44.878
  20
0.064755
  30
0
  11
44.8775
  21
0.064975
  31
0
  0
LINE
  5
722
  100
AcDbEntity
  8
1
  100
AcDbLine
  10
44.8775
  20
0.064975
  30
0
  11
44.877
  21
0.065194
  31
0
  0
LINE
  5
723
  100
AcDbEntity
  8
1
  100
AcDbLine
  10
44.877
  20
0.065194
  30
0
  11
44.8765
  21
0.065413
  31
0
  0
LINE
  5
724
  100
AcDbEntity
  8
1
  100
AcDbLine
  10
44.8765
  20
0.065413
  30
0
  11
44.876
  21
0.065631
  31
0
  0
LINE
  5
725
  100
AcDbEntity
  8
1
  100
AcDbLine
  10
44.876
  20
0.065631
  30
0
  11
44.8755
  21
0.065848
  31
0
  0
LINE
  5
726
  100
AcDbEntity
  8
1
  100
AcDbLine
  10
44.8755
  20
0.065848
  30
0
  11
44.875
  21
0.066065
  31
0
  0
LINE
  5
727
  100
AcDbEntity
  8
1
  100
AcDbLine
  10
44.875
  20
0.066065
  30
0
  11
44.8745
  21
0.066282
  31
0
  0
LINE
  5
728
  100
AcDbEntity
  8
1
  100
AcDbLine
  10
44.8745
  20
0.066282
  30
0
  11
44.874
  21
0.066498
  31
0
  0
LINE
  5
729
  100
AcDbEntity
  8
1
  100
AcDbLine
  10
44.874
  20
0.066498
  30
0
  11
44.8735
  21
0.066713
  31
0
  0
LINE
  5
72a
  100
AcDbEntity
  8
1
  100
AcDbLine
  10
44.8735
  20
0.066713
  30
0
  11
44.873
  21
0.066928
  31
0
  0
LINE
  5
72b
  100
AcDbEntity
  8
1
  100
AcDbLine
  10
44.873
  20
0.066928
  30
0
  11
44.8725
  21
0.067142
  31
0
  0
LINE
  5
72c
  100
AcDbEntity
  8
1
  100
AcDbLine
  10
44.8725
  20
0.067142
  30
0
  11
44.872
  21
0.067356
  31
0
  0
LINE
  5
72d
  100
AcDbEntity
  8
1
  100
AcDbLine
  10
44.872
  20
0.067356
  30
0
  11
44.8715
  21
0.067569
  31
0
  0
LINE
  5
72e
  100
AcDbEntity
  8
1
  100
AcDbLine
  10
44.8715
  20
0.067569
  30
0
  11
44.871
  21
0.067781
  31
0
  0
LINE
  5
72f
  100
AcDbEntity
  8
1
  100
AcDbLine
  10
44.871
  20
0.067781
  30
0
  11
44.8705
  21
0.067993
  31
0
  0
LINE
  5
730
  100
AcDbEntity
  8
1
  100
AcDbLine
  10
44.8705
  20
0.067993
  30
0
  11
44.87
  21
0.068204
  31
0
  0
LINE
  5
731
  100
AcDbEntity
  8
1
  100
AcDbLine
  10
44.87
  20
0.068204
  30
0
  11
44.8695
  21
0.068415
  31
0
  0
LINE
  5
732
  100
AcDbEntity
  8
1
  100
AcDbLine
  10
44.8695
  20
0.068415
  30
0
  11
44.869
  21
0.068626
  31
0
  0
LINE
  5
733
  100
AcDbEntity
  8
1
  100
AcDbLine
  10
44.869
  20
0.068626
  30
0
  11
44.8685
  21
0.068835
  31
0
  0
LINE
  5
734
  100
AcDbEntity
  8
1
  100
AcDbLine
  10
44.8685
  20
0.068835
  30
0
  11
44.868
  21
0.069044
  31
0
  0
LINE
  5
735
  100
AcDbEntity
  8
1
  100
AcDbLine
  10
44.868
  20
0.069044
  30
0
  11
44.8675
  21
0.069253
  31
0
  0
LINE
  5
736
  100
AcDbEntity
  8
1
  100
AcDbLine
  10
44.8675
  20
0.069253
  30
0
  11
44.867
  21
0.069461
  31
0
  0
LINE
  5
737
  100
AcDbEntity
  8
1
  100
AcDbLine
  10
44.867
  20
0.069461
  30
0
  11
44.8665
  21
0.069668
  31
0
  0
LINE
  5
738
  100
AcDbEntity
  8
1
  100
AcDbLine
  10
44.8665
  20
0.069668
  30
0
  11
44.866
  21
0.069875
  31
0
  0
LINE
  5
739
  100
AcDbEntity
  8
1
  100
AcDbLine
  10
44.866
  20
0.069875
  30
0
  11
44.8655
  21
0.070081
  31
0
  0
LINE
  5
73a
  100
AcDbEntity
  8
1
  100
AcDbLine
  10
44.8655
  20
0.070081
  30
0
  11
44.865
  21
0.070287
  31
0
  0
LINE
  5
73b
  100
AcDbEntity
  8
1
  100
AcDbLine
  10
44.865
  20
0.070287
  30
0
  11
44.8645
  21
0.070492
  31
0
  0
LINE
  5
73c
  100
AcDbEntity
  8
1
  100
AcDbLine
  10
44.8645
  20
0.070492
  30
0
  11
44.864
  21
0.070696
  31
0
  0
LINE
  5
73d
  100
AcDbEntity
  8
1
  100
AcDbLine
  10
44.864
  20
0.070696
  30
0
  11
44.8635
  21
0.0709
  31
0
  0
LINE
  5
73e
  100
AcDbEntity
  8
1
  100
AcDbLine
  10
44.8635
  20
0.0709
  30
0
  11
44.863
  21
0.071104
  31
0
  0
LINE
  5
73f
  100
AcDbEntity
  8
1
  100
AcDbLine
  10
44.863
  20
0.071104
  30
0
  11
44.8625
  21
0.071306
  31
0
  0
LINE
  5
740
  100
AcDbEntity
  8
1
  100
AcDbLine
  10
44.8625
  20
0.071306
  30
0
  11
44.862
  21
0.071508
  31
0
  0
LINE
  5
741
  100
AcDbEntity
  8
1
  100
AcDbLine
  10
44.862
  20
0.071508
  30
0
  11
44.8615
  21
0.07171
  31
0
  0
LINE
  5
742
  100
AcDbEntity
  8
1
  100
AcDbLine
  10
44.8615
  20
0.07171
  30
0
  11
44.861
  21
0.071911
  31
0
  0
LINE
  5
743
  100
AcDbEntity
  8
1
  100
AcDbLine
  10
44.861
  20
0.071911
  30
0
  11
44.8605
  21
0.072111
  31
0
  0
LINE
  5
744
  100
AcDbEntity
  8
1
  100
AcDbLine
  10
44.8605
  20
0.072111
  30
0
  11
44.86
  21
0.072311
  31
0
  0
LINE
  5
745
  100
AcDbEntity
  8
1
  100
AcDbLine
  10
44.86
  20
0.072311
  30
0
  11
44.8595
  21
0.07251
  31
0
  0
LINE
  5
746
  100
AcDbEntity
  8
1
  100
AcDbLine
  10
44.8595
  20
0.07251
  30
0
  11
44.859
  21
0.072708
  31
0
  0
LINE
  5
747
  100
AcDbEntity
  8
1
  100
AcDbLine
  10
44.859
  20
0.072708
  30
0
  11
44.8585
  21
0.072906
  31
0
  0
LINE
  5
748
  100
AcDbEntity
  8
1
  100
AcDbLine
  10
44.8585
  20
0.072906
  30
0
  11
44.858
  21
0.073103
  31
0
  0
LINE
  5
749
  100
AcDbEntity
  8
1
  100
AcDbLine
  10
44.858
  20
0.073103
  30
0
  11
44.8575
  21
0.0733
  31
0
  0
LINE
  5
74a
  100
AcDbEntity
  8
1
  100
AcDbLine
  10
44.8575
  20
0.0733
  30
0
  11
44.857
  21
0.073496
  31
0
  0
LINE
  5
74b
  100
AcDbEntity
  8
1
  100
AcDbLine
  10
44.857
  20
0.073496
  30
0
  11
44.8565
  21
0.073692
  31
0
  0
LINE
  5
74c
  100
AcDbEntity
  8
1
  100
AcDbLine
  10
44.8565
  20
0.073692
  30
0
  11
44.856
  21
0.073886
  31
0
  0
LINE
  5
74d
  100
AcDbEntity
  8
1
  100
AcDbLine
  10
44.856
  20
0.073886
  30
0
  11
44.8555
  21
0.074081
  31
0
  0
LINE
  5
74e
  100
AcDbEntity
  8
1
  100
AcDbLine
  10
44.8555
  20
0.074081
  30
0
  11
44.855
  21
0.074274
  31
0
  0
LINE
  5
74f
  100
AcDbEntity
  8
1
  100
AcDbLine
  10
44.855
  20
0.074274
  30
0
  11
44.8545
  21
0.074467
  31
0
  0
LINE
  5
750
  100
AcDbEntity
  8
1
  100
AcDbLine
  10
44.8545
  20
0.074467
  30
0
  11
44.854
  21
0.07466
  31
0
  0
LINE
  5
751
  100
AcDbEntity
  8
1
  100
AcDbLine
  10
44.854
  20
0.07466
  30
0
  11
44.8535
  21
0.074851
  31
0
  0
LINE
  5
752
  100
AcDbEntity
  8
1
  100
AcDbLine
  10
44.8535
  20
0.074851
  30
0
  11
44.853
  21
0.075043
  31
0
  0
LINE
  5
753
  100
AcDbEntity
  8
1
  100
AcDbLine
  10
44.853
  20
0.075043
  30
0
  11
44.8525
  21
0.075233
  31
0
  0
LINE
  5
754
  100
AcDbEntity
  8
1
  100
AcDbLine
  10
44.8525
  20
0.075233
  30
0
  11
44.852
  21
0.075423
  31
0
  0
LINE
  5
755
  100
AcDbEntity
  8
1
  100
AcDbLine
  10
44.852
  20
0.075423
  30
0
  11
44.8515
  21
0.075612
  31
0
  0
LINE
  5
756
  100
AcDbEntity
  8
1
  100
AcDbLine
  10
44.8515
  20
0.075612
  30
0
  11
44.851
  21
0.075801
  31
0
  0
LINE
  5
757
  100
AcDbEntity
  8
1
  100
AcDbLine
  10
44.851
  20
0.075801
  30
0
  11
44.8505
  21
0.075989
  31
0
  0
LINE
  5
758
  100
AcDbEntity
  8
1
  100
AcDbLine
  10
44.8505
  20
0.075989
  30
0
  11
44.85
  21
0.076176
  31
0
  0
LINE
  5
759
  100
AcDbEntity
  8
1
  100
AcDbLine
  10
44.85
  20
0.076176
  30
0
  11
44.85
  21
0.069462
  31
0
  0
LINE
  5
75a
  100
AcDbEntity
  8
SK1
  100
AcDbLine
  10
37.316
  20
1.999916
  30
0
  11
37.315688
  21
2
  31
0
  0
LINE
  5
75b
  100
AcDbEntity
  8
SK1
  100
AcDbLine
  10
37.315688
  20
2
  30
0
  11
0.7
  21
2
  31
0
  0
LINE
  5
75c
  100
AcDbEntity
  8
SK1
  100
AcDbLine
  10
0.7
  20
2
  30
0
  11
0
  21
1.3
  31
0
  0
LINE
  5
75d
  100
AcDbEntity
  8
SK1
  100
AcDbLine
  10
37.316
  20
-1.999916
  30
0
  11
37.315688
  21
-2
  31
0
  0
LINE
  5
75e
  100
AcDbEntity
  8
SK1
  100
AcDbLine
  10
37.315688
  20
-2
  30
0
  11
0.7
  21
-2
  31
0
  0
LINE
  5
75f
  100
AcDbEntity
  8
SK1
  100
AcDbLine
  10
0.7
  20
-2
  30
0
  11
0
  21
-1.3
  31
0
  0
LINE
  5
760
  100
AcDbEntity
  8
SK1
  100
AcDbLine
  10
37.315688
  20
2
  30
0
  11
37.315688
  21
-2
  31
0
  0
LINE
  5
761
  100
AcDbEntity
  8
SK1
  100
AcDbLine
  10
37.315688
  20
2
  30
0
  11
37.315688
  21
-2
  31
0
  0
LINE
  5
762
  100
AcDbEntity
  8
SK1
  100
AcDbLine
  10
0.7
  20
2
  30
0
  11
0.7
  21
-2
  31
0
  0
LINE
  5
763
  100
AcDbEntity
  8
SK1
  100
AcDbLine
  10
0
  20
1.3
  30
0
  11
0
  21
-1.3
  31
0
  0
LINE
  5
764
  100
AcDbEntity
  8
SK1
  100
AcDbLine
  10
38.3561
  20
1.40688
  30
0
  11
38.7229
  21
1.0401
  31
0
  0
LINE
  5
765
  100
AcDbEntity
  8
SK1
  100
AcDbLine
  10
37.8488
  20
1.66666
  30
0
  11
38.9827
  21
0.532833
  31
0
  0
LINE
  5
766
  100
AcDbEntity
  8
SK1
  100
AcDbLine
  10
37.5314
  20
1.73657
  30
0
  11
39.0526
  21
0.215434
  31
0
  0
LINE
  5
767
  100
AcDbEntity
  8
SK1
  100
AcDbLine
  10
37.316
  20
1.70452
  30
0
  11
39.0205
  21
0
  31
0
  0
LINE
  5
768
  100
AcDbEntity
  8
SK1
  100
AcDbLine
  10
37.316
  20
1.45703
  30
0
  11
38.773
  21
0
  31
0
  0
LINE
  5
769
  100
AcDbEntity
  8
SK1
  100
AcDbLine
  10
37.316
  20
1.20954
  30
0
  11
38.5255
  21
0
  31
0
  0
LINE
  5
76a
  100
AcDbEntity
  8
SK1
  100
AcDbLine
  10
37.316
  20
0.962054
  30
0
  11
38.2781
  21
0
  31
0
  0
LINE
  5
76b
  100
AcDbEntity
  8
SK1
  100
AcDbLine
  10
37.316
  20
0.714566
  30
0
  11
38.0306
  21
0
  31
0
  0
LINE
  5
76c
  100
AcDbEntity
  8
SK1
  100
AcDbLine
  10
37.316
  20
0.467079
  30
0
  11
37.7831
  21
0
  31
0
  0
LINE
  5
76d
  100
AcDbEntity
  8
SK1
  100
AcDbLine
  10
37.316
  20
0.219592
  30
0
  11
37.5356
  21
0
  31
0
  0
LINE
  5
76e
  100
AcDbEntity
  8
SK1
  100
AcDbLine
  10
37.316
  20
1.70452
  30
0
  11
37.3601
  21
1.74861
  31
0
  0
LINE
  5
76f
  100
AcDbEntity
  8
SK1
  100
AcDbLine
  10
37.316
  20
1.45703
  30
0
  11
37.587
  21
1.72802
  31
0
  0
LINE
  5
770
  100
AcDbEntity
  8
SK1
  100
AcDbLine
  10
37.316
  20
1.20954
  30
0
  11
37.7902
  21
1.6837
  31
0
  0
LINE
  5
771
  100
AcDbEntity
  8
SK1
  100
AcDbLine
  10
37.316
  20
0.962054
  30
0
  11
37.9748
  21
1.62082
  31
0
  0
LINE
  5
772
  100
AcDbEntity
  8
SK1
  100
AcDbLine
  10
37.316
  20
0.714566
  30
0
  11
38.1431
  21
1.54167
  31
0
  0
LINE
  5
773
  100
AcDbEntity
  8
SK1
  100
AcDbLine
  10
37.316
  20
0.467079
  30
0
  11
38.297
  21
1.44812
  31
0
  0
LINE
  5
774
  100
AcDbEntity
  8
SK1
  100
AcDbLine
  10
37.316
  20
0.219592
  30
0
  11
38.4386
  21
1.34216
  31
0
  0
LINE
  5
775
  100
AcDbEntity
  8
SK1
  100
AcDbLine
  10
37.3439
  20
0
  30
0
  11
38.5668
  21
1.22288
  31
0
  0
LINE
  5
776
  100
AcDbEntity
  8
SK1
  100
AcDbLine
  10
37.5914
  20
0
  30
0
  11
38.683
  21
1.09157
  31
0
  0
LINE
  5
777
  100
AcDbEntity
  8
SK1
  100
AcDbLine
  10
37.8389
  20
0
  30
0
  11
38.7867
  21
0.947822
  31
0
  0
LINE
  5
778
  100
AcDbEntity
  8
SK1
  100
AcDbLine
  10
38.0864
  20
0
  30
0
  11
38.8765
  21
0.790145
  31
0
  0
LINE
  5
779
  100
AcDbEntity
  8
SK1
  100
AcDbLine
  10
38.3338
  20
0
  30
0
  11
38.9524
  21
0.618517
  31
0
  0
LINE
  5
77a
  100
AcDbEntity
  8
SK1
  100
AcDbLine
  10
38.5813
  20
0
  30
0
  11
39.012
  21
0.430696
  31
0
  0
LINE
  5
77b
  100
AcDbEntity
  8
SK1
  100
AcDbLine
  10
38.8288
  20
0
  30
0
  11
39.0516
  21
0.222827
  31
0
  0
LINE
  5
77c
  100
AcDbEntity
  8
SK1
  100
AcDbLine
  10
37.316
  20
0
  30
0
  11
37.316
  21
1.75
  31
0
  0
LINE
  5
77d
  100
AcDbEntity
  8
SK1
  100
AcDbLine
  10
37.316
  20
0
  30
0
  11
39.066
  21
0
  31
0
  0
ARC
  5
77e
  100
AcDbEntity
  8
SK1
  100
AcDbCircle
  10
37.316
  20
0
  30
0
  40
1.75
  100
AcDbArc
  50
0
  51
90
  0
ARC
  5
77f
  100
AcDbEntity
  8
SK1
  100
AcDbCircle
  10
37.316
  20
0
  30
0
  40
1.75
  100
AcDbArc
  50
90
  51
180
  0
LINE
  5
780
  100
AcDbEntity
  8
SK1
  100
AcDbLine
  10
37.2881
  20
0
  30
0
  11
37.316
  21
-0.027896
  31
0
  0
LINE
  5
781
  100
AcDbEntity
  8
SK1
  100
AcDbLine
  10
37.0406
  20
0
  30
0
  11
37.316
  21
-0.275383
  31
0
  0
LINE
  5
782
  100
AcDbEntity
  8
SK1
  100
AcDbLine
  10
36.7931
  20
0
  30
0
  11
37.316
  21
-0.522871
  31
0
  0
LINE
  5
783
  100
AcDbEntity
  8
SK1
  100
AcDbLine
  10
36.5456
  20
0
  30
0
  11
37.316
  21
-0.770358
  31
0
  0
LINE
  5
784
  100
AcDbEntity
  8
SK1
  100
AcDbLine
  10
36.2982
  20
0
  30
0
  11
37.316
  21
-1.01785
  31
0
  0
LINE
  5
785
  100
AcDbEntity
  8
SK1
  100
AcDbLine
  10
36.0507
  20
0
  30
0
  11
37.316
  21
-1.26533
  31
0
  0
LINE
  5
786
  100
AcDbEntity
  8
SK1
  100
AcDbLine
  10
35.8032
  20
0
  30
0
  11
37.316
  21
-1.51282
  31
0
  0
LINE
  5
787
  100
AcDbEntity
  8
SK1
  100
AcDbLine
  10
35.5663
  20
-0.010642
  30
0
  11
37.3054
  21
-1.74967
  31
0
  0
LINE
  5
788
  100
AcDbEntity
  8
SK1
  100
AcDbLine
  10
35.5896
  20
-0.281429
  30
0
  11
37.0346
  21
-1.72637
  31
0
  0
LINE
  5
789
  100
AcDbEntity
  8
SK1
  100
AcDbLine
  10
35.6799
  20
-0.619147
  30
0
  11
36.6969
  21
-1.63613
  31
0
  0
LINE
  5
78a
  100
AcDbEntity
  8
SK1
  100
AcDbLine
  10
35.5674
  20
-0.044098
  30
0
  11
35.6115
  21
0
  31
0
  0
LINE
  5
78b
  100
AcDbEntity
  8
SK1
  100
AcDbLine
  10
35.588
  20
-0.270991
  30
0
  11
35.859
  21
0
  31
0
  0
LINE
  5
78c
  100
AcDbEntity
  8
SK1
  100
AcDbLine
  10
35.6323
  20
-0.474162
  30
0
  11
36.1065
  21
0
  31
0
  0
LINE
  5
78d
  100
AcDbEntity
  8
SK1
  100
AcDbLine
  10
35.6952
  20
-0.658762
  30
0
  11
36.3539
  21
0
  31
0
  0
LINE
  5
78e
  100
AcDbEntity
  8
SK1
  100
AcDbLine
  10
35.7743
  20
-0.827105
  30
0
  11
36.6014
  21
0
  31
0
  0
LINE
  5
78f
  100
AcDbEntity
  8
SK1
  100
AcDbLine
  10
35.8679
  20
-0.981039
  30
0
  11
36.8489
  21
0
  31
0
  0
LINE
  5
790
  100
AcDbEntity
  8
SK1
  100
AcDbLine
  10
35.9738
  20
-1.12257
  30
0
  11
37.0964
  21
0
  31
0
  0
LINE
  5
791
  100
AcDbEntity
  8
SK1
  100
AcDbLine
  10
36.0931
  20
-1.25077
  30
0
  11
37.316
  21
-0.027896
  31
0
  0
LINE
  5
792
  100
AcDbEntity
  8
SK1
  100
AcDbLine
  10
36.2244
  20
-1.36695
  30
0
  11
37.316
  21
-0.275383
  31
0
  0
LINE
  5
793
  100
AcDbEntity
  8
SK1
  100
AcDbLine
  10
36.3682
  20
-1.47069
  30
0
  11
37.316
  21
-0.522871
  31
0
  0
LINE
  5
794
  100
AcDbEntity
  8
SK1
  100
AcDbLine
  10
36.5259
  20
-1.5605
  30
0
  11
37.316
  21
-0.770358
  31
0
  0
LINE
  5
795
  100
AcDbEntity
  8
SK1
  100
AcDbLine
  10
36.6975
  20
-1.63636
  30
0
  11
37.316
  21
-1.01785
  31
0
  0
LINE
  5
796
  100
AcDbEntity
  8
SK1
  100
AcDbLine
  10
36.8853
  20
-1.69603
  30
0
  11
37.316
  21
-1.26533
  31
0
  0
LINE
  5
797
  100
AcDbEntity
  8
SK1
  100
AcDbLine
  10
37.0932
  20
-1.73565
  30
0
  11
37.316
  21
-1.51282
  31
0
  0
LINE
  5
798
  100
AcDbEntity
  8
SK1
  100
AcDbLine
  10
37.316
  20
0
  30
0
  11
35.566
  21
0
  31
0
  0
LINE
  5
799
  100
AcDbEntity
  8
SK1
  100
AcDbLine
  10
37.316
  20
-1.75
  30
0
  11
37.316
  21
0
  31
0
  0
ARC
  5
79a
  100
AcDbEntity
  8
SK1
  100
AcDbCircle
  10
37.316
  20
0
  30
0
  40
1.75
  100
AcDbArc
  50
180
  51
270
  0
ARC
  5
79b
  100
AcDbEntity
  8
SK1
  100
AcDbCircle
  10
37.316
  20
0
  30
0
  40
1.75
  100
AcDbArc
  50
270
  51
0
  0
LINE
  5
816
  100
AcDbEntity
  8
NOCUT
  100
AcDbLine
  10
44.85
  20
0
  30
0
  11
44.85
  21
0.09
  31
0
  0
LINE
  5
817
  100
AcDbEntity
  8
NOCUT
  100
AcDbLine
  10
44.85
  20
0.09
  30
0
  11
44.62
  21
0.09
  31
0
  0
ARC
  5
818
  100
AcDbEntity
  8
NOCUT
  100
AcDbCircle
  10
44.881467
  20
3.078584
  30
0
  40
3
  100
AcDbArc
  50
255
  51
265
  0
LINE
  5
819
  100
AcDbEntity
  8
NOCUT
  100
AcDbLine
  10
44.10501
  20
0.180807
  30
0
  11
37.316
  21
1.999916
  31
0
  0
LINE
  5
81a
  100
AcDbEntity
  8
NOCUT
  100
AcDbLine
  10
37.316
  20
1.999916
  30
0
  11
37.316
  21
0
  31
0
  0
LINE
  5
81b
  100
AcDbEntity
  8
NOCUT
  100
AcDbLine
  10
37.316
  20
0
  30
0
  11
44.85
  21
0
  31
0
  0
LINE
  5
81c
  100
AcDbEntity
  8
CUT
  100
AcDbLine
  10
45
  20
0
  30
0
  11
45
  21
0.08
  31
0
  0
ARC
  5
81d
  100
AcDbEntity
  8
CUT
  100
AcDbCircle
  10
44.98
  20
0.08
  30
0
  40
0.02
  100
AcDbArc
  50
0
  51
90
  0
LINE
  5
81e
  100
AcDbEntity
  8
CUT
  100
AcDbLine
  10
44.98
  20
0.1
  30
0
  11
44.85
  21
0.1
  31
0
  0
LINE
  5
81f
  100
AcDbEntity
  8
CUT
  100
AcDbLine
  10
44.85
  20
0.1
  30
0
  11
44.85
  21
0
  31
0
  0
LINE
  5
820
  100
AcDbEntity
  8
CUT
  100
AcDbLine
  10
44.85
  20
0
  30
0
  11
45
  21
0
  31
0
  0
LINE
  5
821
  100
AcDbEntity
  8
4
  100
AcDbLine
  10
37.316
  20
0
  30
0
  11
45
  21
0
  31
0
  0
LINE
  5
822
  100
AcDbEntity
  8
SK4
  100
AcDbLine
  10
-1
  20
0
  30
0
  11
46
  21
0
  31
0
  0
LINE
  5
823
  100
AcDbEntity
  8
INFTOTAL
  100
AcDbLine
  10
-15.45
  20
33.45
  30
0
  11
60.45
  21
33.45
  31
0
  0
LINE
  5
824
  100
AcDbEntity
  8
INFTOTAL
  100
AcDbLine
  10
60.45
  20
33.45
  30
0
  11
60.45
  21
-38.45
  31
0
  0
LINE
  5
825
  100
AcDbEntity
  8
INFTOTAL
  100
AcDbLine
  10
60.45
  20
-38.45
  30
0
  11
-15.45
  21
-38.45
  31
0
  0
LINE
  5
826
  100
AcDbEntity
  8
INFTOTAL
  100
AcDbLine
  10
-15.45
  20
-38.45
  30
0
  11
-15.45
  21
33.45
  31
0
  0
ENDSEC
  0
SECTION
  2
OBJECTS
  0
DICTIONARY
  5
827
  330
0
100
AcDbDictionary
281
    1
  3
ACAD_GROUP
  350
828
  0
DICTIONARY
  5
828
102
{ACAD_REACTORS
  330
827
102
}
  330
827
100
AcDbDictionary
281
    1
  0
ENDSEC
  0
EOF
