  0
SECTION
  2
HEADER
  9
$ACADVER
  1
AC1015
  9
$DWGCODEPAGE
  3
ANSI_932
  9
$HANDSEED
  5
106AB90
  9
$INSUNITS
  70
4
  0
ENDSEC
  0
SECTION
  2
TABLES
  0
TABLE
  2
VPORT
  5
2
  330
0
  100
AcDbSymbolTable
  70
    0
  0
ENDTAB
  0
TABLE
  2
LTYPE
  5
3
  330
0
  100
AcDbSymbolTable
  70
    4
  0
LTYPE
  5
4
  330
3
  100
AcDbSymbolTableRecord
  100
AcDbLinetypeTableRecord
  2
ByBlock
  70
    0
  3

  72
65
  73
    0
  40
0
  0
LTYPE
  5
5
  330
3
  100
AcDbSymbolTableRecord
  100
AcDbLinetypeTableRecord
  2
ByLayer
  70
    0
  3

  72
65
  73
    0
  40
0
  0
LTYPE
  5
6
  330
3
  100
AcDbSymbolTableRecord
  100
AcDbLinetypeTableRecord
  2
CONTINUOUS
  70
    0
  3
Solid Line
  72
65
  73
    0
  40
0
  0
LTYPE
  5
7
  330
3
  100
AcDbSymbolTableRecord
  100
AcDbLinetypeTableRecord
  2
DASH
  70
    0
  3
Hidden
  72
65
  73
2
  40
2.5
  49
1.5
  74
0
  49
-1
  74
0
  0
LTYPE
  5
8
  330
3
  100
AcDbSymbolTableRecord
  100
AcDbLinetypeTableRecord
  2
LONGDASHDASH
  70
    0
  3
__ . __
  72
65
  73
    4
  40
7
  49
4
  74
    0
  49
-1
  74
    0
  49
1
  74
    0
  49
-1
  74
    0
  0
ENDTAB
  0
TABLE
  2
LAYER
  5
9
  330
0
  100
AcDbSymbolTable
  70
    40
  0
LAYER
  5
a
  330
9
  100
AcDbSymbolTableRecord
  100
AcDbLayerTableRecord
  2
0
  70
    0
  62
    0
  6
CONTINUOUS
  390
0
  0
LAYER
  5
c
  330
9
  100
AcDbSymbolTableRecord
  100
AcDbLayerTableRecord
  2
1
  70
    0
  62
    4
  6
CONTINUOUS
  370
50
  390
0
  0
LAYER
  5
d
  330
9
  100
AcDbSymbolTableRecord
  100
AcDbLayerTableRecord
  2
2
  70
    0
  62
    7
  6
CONTINUOUS
  370
25
  390
0
  0
LAYER
  5
f
  330
9
  100
AcDbSymbolTableRecord
  100
AcDbLayerTableRecord
  2
4
  70
    0
  62
    2
  6
LONGDASHDASH
  370
25
  390
0
  0
LAYER
  5
13
  330
9
  100
AcDbSymbolTableRecord
  100
AcDbLayerTableRecord
  2
SK1
  70
    0
  62
    4
  6
CONTINUOUS
  370
50
  390
0
  0
LAYER
  5
14
  330
9
  100
AcDbSymbolTableRecord
  100
AcDbLayerTableRecord
  2
SK2
  70
    0
  62
    7
  6
CONTINUOUS
  370
25
  390
0
  0
LAYER
  5
16
  330
9
  100
AcDbSymbolTableRecord
  100
AcDbLayerTableRecord
  2
SK4
  70
    0
  62
    2
  6
LONGDASHDASH
  370
25
  390
0
  0
LAYER
  5
21
  330
9
  100
AcDbSymbolTableRecord
  100
AcDbLayerTableRecord
  2
NOCUT
  70
    0
  62
    7
  6
CONTINUOUS
  370
25
  390
0
  0
LAYER
  5
22
  330
9
  100
AcDbSymbolTableRecord
  100
AcDbLayerTableRecord
  2
CUT
  70
    0
  62
    1
  6
CONTINUOUS
  370
25
  390
0
  0
LAYER
  5
26
  330
9
  100
AcDbSymbolTableRecord
  100
AcDbLayerTableRecord
  2
INFTOTAL
  70
    0
  62
    9
  6
CONTINUOUS
  370
18
  390
0
  0
ENDTAB
  0
TABLE
  2
STYLE
  5
27
  330
0
  100
AcDbSymbolTable
  70
    1
  0
STYLE
  5
28
  330
27
  100
AcDbSymbolTableRecord
  100
AcDbTextStyleTableRecord
  2
Monospac821 BT
  70
    0
  40
    3.5
  41
1
  50
0
  71
0
  42
3
  3

  4

  1001
ACAD
  1000
Monospac821 BT
  1071
256
  0
ENDTAB
  0
TABLE
  2
VIEW
  5
29
  330
0
  100
AcDbSymbolTable
  70
    0
  0
ENDTAB
  0
TABLE
  2
UCS
  5
2a
  330
0
  100
AcDbSymbolTable
  70
    0
  0
ENDTAB
  0
TABLE
  2
APPID
  5
2b
  330
0
  100
AcDbSymbolTable
  70
    1
  0
APPID
  5
2c
  330
2b
  100
AcDbSymbolTableRecord
  100
AcDbRegAppTableRecord
  2
ACAD
  70
    0
  0
ENDTAB
  0
TABLE
  2
DIMSTYLE
  5
2d
  330
0
  100
AcDbSymbolTable
  70
    1
  100
AcDbDimStyleTable
  0
DIMSTYLE
  105
2e
  330
2d
  100
AcDbSymbolTableRecord
  100
AcDbDimStyleTableRecord
  2
STANDARD
  70
    0
  41
    3
  42
0.5
  44
1
  73
0
  77
1
  78
1
  140
3.5
  141
2.5
  143
0.03937
  147
0.8
  172
1
  174
1
  178
0
  179
1
  271
2
  279
1
  284
1
  340
28
  0
ENDTAB
  0
TABLE
  2
BLOCK_RECORD
  5
2f
  330
0
  100
AcDbSymbolTable
  70
    2
  0
BLOCK_RECORD
  5
30
  330
2f
  100
AcDbSymbolTableRecord
  100
AcDbBlockTableRecord
  2
*Model_Space
  0
BLOCK_RECORD
  5
31
  330
2f
  100
AcDbSymbolTableRecord
  100
AcDbBlockTableRecord
  2
*Paper_Space
  0
BLOCK_RECORD
  5
636
  330
2f
  100
AcDbSymbolTableRecord
  100
AcDbBlockTableRecord
  2
*D635
  340
0
  0
BLOCK_RECORD
  5
644
  330
2f
  100
AcDbSymbolTableRecord
  100
AcDbBlockTableRecord
  2
*D643
  340
0
  0
BLOCK_RECORD
  5
652
  330
2f
  100
AcDbSymbolTableRecord
  100
AcDbBlockTableRecord
  2
*D651
  340
0
  0
BLOCK_RECORD
  5
660
  330
2f
  100
AcDbSymbolTableRecord
  100
AcDbBlockTableRecord
  2
*D65f
  340
0
  0
BLOCK_RECORD
  5
66e
  330
2f
  100
AcDbSymbolTableRecord
  100
AcDbBlockTableRecord
  2
*D66d
  340
0
  0
BLOCK_RECORD
  5
67c
  330
2f
  100
AcDbSymbolTableRecord
  100
AcDbBlockTableRecord
  2
*D67b
  340
0
  0
ENDTAB
  0
ENDSEC
  0
SECTION
  2
BLOCKS
  0
BLOCK
  5
32
  330
30
  100
AcDbEntity
  8
0
  100
AcDbBlockBegin
  2
*Model_Space
  70
    0
  10
0
  20
0
  30
0
  3
*Model_Space
  1

  0
ENDBLK
  5
33
  330
30
  100
AcDbEntity
  8
0
  100
AcDbBlockEnd
  0
BLOCK
  5
34
  330
31
  100
AcDbEntity
  8
0
  100
AcDbBlockBegin
  2
*Paper_Space
  70
    0
  10
0
  20
0
  30
0
  3
*Paper_Space
  1

  0
ENDBLK
  5
35
  330
31
  100
AcDbEntity
  8
0
  100
AcDbBlockEnd
  0
BLOCK
  5
634
  330
636
  100
AcDbEntity
  8
SK2
  100
AcDbBlockBegin
  2
*D635
  70
1
  10
0
  20
0
  30
0
  3
*D635
  1

  0
LINE
  5
637
  330
636
  100
AcDbEntity
  8
SK2
  100
AcDbLine
  10
0
  20
2.5
  30
0
  11
0
  21
35
  31
0
  0
LINE
  5
638
  330
636
  100
AcDbEntity
  8
SK2
  100
AcDbLine
  10
45
  20
1.5
  30
0
  11
45
  21
35
  31
0
  0
LINE
  5
639
  330
636
  100
AcDbEntity
  8
SK2
  100
AcDbLine
  10
0
  20
33
  30
0
  11
45
  21
33
  31
0
  0
SOLID
  5
63a
  330
636
  100
AcDbEntity
  8
SK2
  100
AcDbTrace
  10
0
  20
33
  30
0
  11
2.478612
  21
33.326315
  31
0
  12
2.478612
  22
32.673685
  32
0
  13
2.478612
  23
32.673685
  33
0
  0
SOLID
  5
63b
  330
636
  100
AcDbEntity
  8
SK2
  100
AcDbTrace
  10
45
  20
33
  30
0
  11
42.521388
  21
32.673685
  31
0
  12
42.521388
  22
33.326315
  32
0
  13
42.521388
  23
33.326315
  33
0
  0
MTEXT
  5
63c
  330
636
  100
AcDbEntity
  8
SK2
  100
AcDbMText
  10
29.922295
  20
33
  30
0
  11
1
  21
0
  31
0
  40
2
  41
0
  71
8
  72
1
  1
45
  0
POINT
  5
63d
  330
636
  100
AcDbEntity
  8
SK2
  62
0
  100
AcDbPoint
  10
0
  20
2.5
  30
0
  0
POINT
  5
63e
  330
636
  100
AcDbEntity
  8
SK2
  62
0
  100
AcDbPoint
  10
45
  20
1.5
  30
0
  0
POINT
  5
63f
  330
636
  100
AcDbEntity
  8
SK2
  62
0
  100
AcDbPoint
  10
45
  20
33
  30
0
  0
ENDBLK
  5
640
  330
636
  100
AcDbEntity
  8
SK2
  100
AcDbBlockEnd
  0
BLOCK
  5
642
  330
644
  100
AcDbEntity
  8
SK2
  100
AcDbBlockBegin
  2
*D643
  70
1
  10
0
  20
0
  30
0
  3
*D643
  1

  0
LINE
  5
645
  330
644
  100
AcDbEntity
  8
SK2
  100
AcDbLine
  10
32.701754
  20
3
  30
0
  11
32.701754
  21
20
  31
0
  0
LINE
  5
646
  330
644
  100
AcDbEntity
  8
SK2
  100
AcDbLine
  10
0
  20
2.5
  30
0
  11
0
  21
20
  31
0
  0
LINE
  5
647
  330
644
  100
AcDbEntity
  8
SK2
  100
AcDbLine
  10
32.701754
  20
18
  30
0
  11
0
  21
18
  31
0
  0
SOLID
  5
648
  330
644
  100
AcDbEntity
  8
SK2
  100
AcDbTrace
  10
32.701754
  20
18
  30
0
  11
30.223142
  21
17.673685
  31
0
  12
30.223142
  22
18.326315
  32
0
  13
30.223142
  23
18.326315
  33
0
  0
SOLID
  5
649
  330
644
  100
AcDbEntity
  8
SK2
  100
AcDbTrace
  10
0
  20
18
  30
0
  11
2.478612
  21
18.326315
  31
0
  12
2.478612
  22
17.673685
  32
0
  13
2.478612
  23
17.673685
  33
0
  0
MTEXT
  5
64a
  330
644
  100
AcDbEntity
  8
SK2
  100
AcDbMText
  10
10.604776
  20
18
  30
0
  11
1
  21
-0
  31
0
  40
2
  41
0
  71
8
  72
1
  1
32.7
  0
POINT
  5
64b
  330
644
  100
AcDbEntity
  8
SK2
  62
0
  100
AcDbPoint
  10
32.701754
  20
3
  30
0
  0
POINT
  5
64c
  330
644
  100
AcDbEntity
  8
SK2
  62
0
  100
AcDbPoint
  10
0
  20
2.5
  30
0
  0
POINT
  5
64d
  330
644
  100
AcDbEntity
  8
SK2
  62
0
  100
AcDbPoint
  10
0
  20
18
  30
0
  0
ENDBLK
  5
64e
  330
644
  100
AcDbEntity
  8
SK2
  100
AcDbBlockEnd
  0
BLOCK
  5
650
  330
652
  100
AcDbEntity
  8
SK2
  100
AcDbBlockBegin
  2
*D651
  70
1
  10
0
  20
0
  30
0
  3
*D651
  1

  0
LINE
  5
653
  330
652
  100
AcDbEntity
  8
SK2
  100
AcDbLine
  10
0.5
  20
-3
  30
0
  11
-12
  21
-3
  31
0
  0
LINE
  5
654
  330
652
  100
AcDbEntity
  8
SK2
  100
AcDbLine
  10
0.5
  20
3
  30
0
  11
-12
  21
3
  31
0
  0
LINE
  5
655
  330
652
  100
AcDbEntity
  8
SK2
  100
AcDbLine
  10
-10
  20
-3
  30
0
  11
-10
  21
3
  31
0
  0
SOLID
  5
656
  330
652
  100
AcDbEntity
  8
SK2
  100
AcDbTrace
  10
-10
  20
-3
  30
0
  11
-10.326315
  21
-0.521388
  31
0
  12
-9.673685
  22
-0.521388
  32
0
  13
-9.673685
  23
-0.521388
  33
0
  0
SOLID
  5
657
  330
652
  100
AcDbEntity
  8
SK2
  100
AcDbTrace
  10
-10
  20
3
  30
0
  11
-9.673685
  21
0.521388
  31
0
  12
-10.326315
  22
0.521388
  32
0
  13
-10.326315
  23
0.521388
  33
0
  0
MTEXT
  5
658
  330
652
  100
AcDbEntity
  8
SK2
  100
AcDbMText
  10
-10
  20
0
  30
0
  11
0
  21
1
  31
0
  40
2
  41
0
  71
8
  72
1
  1
Ø6
  0
POINT
  5
659
  330
652
  100
AcDbEntity
  8
SK2
  62
0
  100
AcDbPoint
  10
0.5
  20
-3
  30
0
  0
POINT
  5
65a
  330
652
  100
AcDbEntity
  8
SK2
  62
0
  100
AcDbPoint
  10
0.5
  20
3
  30
0
  0
POINT
  5
65b
  330
652
  100
AcDbEntity
  8
SK2
  62
0
  100
AcDbPoint
  10
-10
  20
3
  30
0
  0
ENDBLK
  5
65c
  330
652
  100
AcDbEntity
  8
SK2
  100
AcDbBlockEnd
  0
BLOCK
  5
65e
  330
660
  100
AcDbEntity
  8
2
  100
AcDbBlockBegin
  2
*D65f
  70
1
  10
0
  20
0
  30
0
  3
*D65f
  1

  0
LINE
  5
661
  330
660
  100
AcDbEntity
  8
2
  100
AcDbLine
  10
45
  20
-1.5
  30
0
  11
57
  21
-1.5
  31
0
  0
LINE
  5
662
  330
660
  100
AcDbEntity
  8
2
  100
AcDbLine
  10
45
  20
1.5
  30
0
  11
57
  21
1.5
  31
0
  0
LINE
  5
663
  330
660
  100
AcDbEntity
  8
2
  100
AcDbLine
  10
55
  20
-4.794767
  30
0
  11
55
  21
1.5
  31
0
  0
SOLID
  5
664
  330
660
  100
AcDbEntity
  8
2
  100
AcDbTrace
  10
55
  20
-1.5
  30
0
  11
55.326315
  21
-3.978612
  31
0
  12
54.673685
  22
-3.978612
  32
0
  13
54.673685
  23
-3.978612
  33
0
  0
SOLID
  5
665
  330
660
  100
AcDbEntity
  8
2
  100
AcDbTrace
  10
55
  20
1.5
  30
0
  11
54.673685
  21
3.978612
  31
0
  12
55.326315
  22
3.978612
  32
0
  13
55.326315
  23
3.978612
  33
0
  0
MTEXT
  5
666
  330
660
  100
AcDbEntity
  8
2
  100
AcDbMText
  10
55
  20
0
  30
0
  11
0
  21
1
  31
0
  40
2
  41
0
  71
9
  72
1
  1
Ø3
  0
POINT
  5
667
  330
660
  100
AcDbEntity
  8
2
  62
0
  100
AcDbPoint
  10
45
  20
-1.5
  30
0
  0
POINT
  5
668
  330
660
  100
AcDbEntity
  8
2
  62
0
  100
AcDbPoint
  10
45
  20
1.5
  30
0
  0
POINT
  5
669
  330
660
  100
AcDbEntity
  8
2
  62
0
  100
AcDbPoint
  10
55
  20
1.5
  30
0
  0
ENDBLK
  5
66a
  330
660
  100
AcDbEntity
  8
2
  100
AcDbBlockEnd
  0
BLOCK
  5
66c
  330
66e
  100
AcDbEntity
  8
2
  100
AcDbBlockBegin
  2
*D66d
  70
1
  10
0
  20
0
  30
0
  3
*D66d
  1

  0
LINE
  5
66f
  330
66e
  100
AcDbEntity
  8
2
  100
AcDbLine
  10
40.5
  20
-1.49995
  30
0
  11
40.5
  21
-15
  31
0
  0
LINE
  5
670
  330
66e
  100
AcDbEntity
  8
2
  100
AcDbLine
  10
45
  20
-15
  30
0
  11
45
  21
1.5
  31
0
  0
LINE
  5
671
  330
66e
  100
AcDbEntity
  8
2
  100
AcDbLine
  10
40.189841
  20
-13
  30
0
  11
45.146229
  21
-13
  31
0
  0
SOLID
  5
672
  330
66e
  100
AcDbEntity
  8
2
  100
AcDbTrace
  10
40.5
  20
-13
  30
0
  11
42.978612
  21
-12.673685
  31
0
  12
42.978612
  22
-13.326315
  32
0
  13
42.978612
  23
-13.326315
  33
0
  0
SOLID
  5
673
  330
66e
  100
AcDbEntity
  8
2
  100
AcDbTrace
  10
45
  20
-13
  30
0
  11
42.521388
  21
-13.326315
  31
0
  12
42.521388
  22
-12.673685
  32
0
  13
42.521388
  23
-12.673685
  33
0
  0
MTEXT
  5
674
  330
66e
  100
AcDbEntity
  8
2
  100
AcDbMText
  10
42.75
  20
-13
  30
0
  11
1
  21
0
  31
0
  40
2
  41
0
  71
8
  72
1
  1
4.5
  0
POINT
  5
675
  330
66e
  100
AcDbEntity
  8
2
  62
0
  100
AcDbPoint
  10
40.5
  20
-1.49995
  30
0
  0
POINT
  5
676
  330
66e
  100
AcDbEntity
  8
2
  62
0
  100
AcDbPoint
  10
45
  20
1.5
  30
0
  0
POINT
  5
677
  330
66e
  100
AcDbEntity
  8
2
  62
0
  100
AcDbPoint
  10
45.146229
  20
-13
  30
0
  0
ENDBLK
  5
678
  330
66e
  100
AcDbEntity
  8
2
  100
AcDbBlockEnd
  0
BLOCK
  5
67a
  330
67c
  100
AcDbEntity
  8
2
  100
AcDbBlockBegin
  2
*D67b
  70
1
  10
0
  20
0
  30
0
  3
*D67b
  1

  0
LINE
  5
67d
  330
67c
  100
AcDbEntity
  8
2
  100
AcDbLine
  10
32.702
  20
-2.999934
  30
0
  11
32.702
  21
-25
  31
0
  0
LINE
  5
67e
  330
67c
  100
AcDbEntity
  8
2
  100
AcDbLine
  10
45
  20
-25
  30
0
  11
45
  21
1.5
  31
0
  0
LINE
  5
67f
  330
67c
  100
AcDbEntity
  8
2
  100
AcDbLine
  10
32.702
  20
-23
  30
0
  11
45
  21
-23
  31
0
  0
SOLID
  5
680
  330
67c
  100
AcDbEntity
  8
2
  100
AcDbTrace
  10
32.702
  20
-23
  30
0
  11
35.180612
  21
-22.673685
  31
0
  12
35.180612
  22
-23.326315
  32
0
  13
35.180612
  23
-23.326315
  33
0
  0
SOLID
  5
681
  330
67c
  100
AcDbEntity
  8
2
  100
AcDbTrace
  10
45
  20
-23
  30
0
  11
42.521388
  21
-23.326315
  31
0
  12
42.521388
  22
-22.673685
  32
0
  13
42.521388
  23
-22.673685
  33
0
  0
MTEXT
  5
682
  330
67c
  100
AcDbEntity
  8
2
  100
AcDbMText
  10
38.851
  20
-23
  30
0
  11
1
  21
0
  31
0
  40
2
  41
0
  71
8
  72
1
  1
12.298
  0
POINT
  5
683
  330
67c
  100
AcDbEntity
  8
2
  62
0
  100
AcDbPoint
  10
32.702
  20
-2.999934
  30
0
  0
POINT
  5
684
  330
67c
  100
AcDbEntity
  8
2
  62
0
  100
AcDbPoint
  10
45
  20
1.5
  30
0
  0
POINT
  5
685
  330
67c
  100
AcDbEntity
  8
2
  62
0
  100
AcDbPoint
  10
45
  20
-23
  30
0
  0
ENDBLK
  5
686
  330
67c
  100
AcDbEntity
  8
2
  100
AcDbBlockEnd
  0
ENDSEC
  0
SECTION
  2
ENTITIES
  0
DIMENSION
  5
641
  100
AcDbEntity
  8
SK2
  100
AcDbDimension
  2
*D635
  10
45
  20
33
  30
0
  11
29.922295
  21
33
  31
0
  70
160
  1
<>
  71
5
  3
STANDARD
  42
45
  100
AcDbAlignedDimension
  13
0
  23
2.5
  33
0
  14
45
  24
1.5
  34
0
  50
0
  100
AcDbRotatedDimension
  0
DIMENSION
  5
64f
  100
AcDbEntity
  8
SK2
  100
AcDbDimension
  2
*D643
  10
0
  20
18
  30
0
  11
10.604776
  21
18
  31
0
  70
160
  1
<>
  71
5
  3
STANDARD
  42
32.701754
  100
AcDbAlignedDimension
  13
32.701754
  23
3
  33
0
  14
0
  24
2.5
  34
0
  50
0
  100
AcDbRotatedDimension
  0
DIMENSION
  5
65d
  100
AcDbEntity
  8
SK2
  100
AcDbDimension
  2
*D651
  10
-10
  20
3
  30
0
  11
-10
  21
0
  31
0
  70
160
  1
%%c<>
  71
5
  3
STANDARD
  42
6
  100
AcDbAlignedDimension
  13
0.5
  23
-3
  33
0
  14
0.5
  24
3
  34
0
  50
-90
  100
AcDbRotatedDimension
  0
DIMENSION
  5
66b
  100
AcDbEntity
  8
2
  100
AcDbDimension
  2
*D65f
  10
55
  20
1.5
  30
0
  11
55
  21
0
  31
0
  70
160
  1
%%c<>
  71
5
  3
STANDARD
  42
3
  100
AcDbAlignedDimension
  13
45
  23
-1.5
  33
0
  14
45
  24
1.5
  34
0
  50
-90
  100
AcDbRotatedDimension
  0
DIMENSION
  5
679
  100
AcDbEntity
  8
2
  100
AcDbDimension
  2
*D66d
  10
45.146229
  20
-13
  30
0
  11
42.75
  21
-13
  31
0
  70
160
  1
<>
  71
5
  3
STANDARD
  42
4.5
  100
AcDbAlignedDimension
  13
40.5
  23
-1.49995
  33
0
  14
45
  24
1.5
  34
0
  50
0
  100
AcDbRotatedDimension
  0
DIMENSION
  5
687
  100
AcDbEntity
  8
2
  100
AcDbDimension
  2
*D67b
  10
45
  20
-23
  30
0
  11
38.851
  21
-23
  31
0
  70
160
  1
<>
  71
5
  3
STANDARD
  42
12.298
  100
AcDbAlignedDimension
  13
32.702
  23
-2.999934
  33
0
  14
45
  24
1.5
  34
0
  50
0
  100
AcDbRotatedDimension
  0
ARC
  5
36
  100
AcDbEntity
  8
1
  100
AcDbCircle
  10
39.758557
  20
-11.461897
  30
0
  40
10
  100
AcDbArc
  50
95
  51
105
  0
LINE
  5
37
  100
AcDbEntity
  8
1
  100
AcDbLine
  10
38.887
  20
-1.49995
  30
0
  11
40.5
  21
-1.49995
  31
0
  0
LINE
  5
38
  100
AcDbEntity
  8
1
  100
AcDbLine
  10
40.5
  20
-1.49995
  30
0
  11
40.5
  21
-1.5
  31
0
  0
LINE
  5
39
  100
AcDbEntity
  8
1
  100
AcDbLine
  10
40.5
  20
-1.5
  30
0
  11
45
  21
-1.5
  31
0
  0
LINE
  5
3a
  100
AcDbEntity
  8
1
  100
AcDbLine
  10
45
  20
-1.5
  30
0
  11
45
  21
1.5
  31
0
  0
LINE
  5
3b
  100
AcDbEntity
  8
1
  100
AcDbLine
  10
45
  20
1.324421
  30
0
  11
44.985
  21
1.330931
  31
0
  0
LINE
  5
3c
  100
AcDbEntity
  8
1
  100
AcDbLine
  10
44.985
  20
1.330931
  30
0
  11
44.97
  21
1.337324
  31
0
  0
LINE
  5
3d
  100
AcDbEntity
  8
1
  100
AcDbLine
  10
44.97
  20
1.337324
  30
0
  11
44.955
  21
1.343601
  31
0
  0
LINE
  5
3e
  100
AcDbEntity
  8
1
  100
AcDbLine
  10
44.955
  20
1.343601
  30
0
  11
44.94
  21
1.349761
  31
0
  0
LINE
  5
3f
  100
AcDbEntity
  8
1
  100
AcDbLine
  10
44.94
  20
1.349761
  30
0
  11
44.925
  21
1.355804
  31
0
  0
LINE
  5
40
  100
AcDbEntity
  8
1
  100
AcDbLine
  10
44.925
  20
1.355804
  30
0
  11
44.91
  21
1.361729
  31
0
  0
LINE
  5
41
  100
AcDbEntity
  8
1
  100
AcDbLine
  10
44.91
  20
1.361729
  30
0
  11
44.895
  21
1.367536
  31
0
  0
LINE
  5
42
  100
AcDbEntity
  8
1
  100
AcDbLine
  10
44.895
  20
1.367536
  30
0
  11
44.88
  21
1.373224
  31
0
  0
LINE
  5
43
  100
AcDbEntity
  8
1
  100
AcDbLine
  10
44.88
  20
1.373224
  30
0
  11
44.865
  21
1.378792
  31
0
  0
LINE
  5
44
  100
AcDbEntity
  8
1
  100
AcDbLine
  10
44.865
  20
1.378792
  30
0
  11
44.85
  21
1.38424
  31
0
  0
LINE
  5
45
  100
AcDbEntity
  8
1
  100
AcDbLine
  10
44.85
  20
1.38424
  30
0
  11
44.835
  21
1.389568
  31
0
  0
LINE
  5
46
  100
AcDbEntity
  8
1
  100
AcDbLine
  10
44.835
  20
1.389568
  30
0
  11
44.82
  21
1.394776
  31
0
  0
LINE
  5
47
  100
AcDbEntity
  8
1
  100
AcDbLine
  10
44.82
  20
1.394776
  30
0
  11
44.805
  21
1.399861
  31
0
  0
LINE
  5
48
  100
AcDbEntity
  8
1
  100
AcDbLine
  10
44.805
  20
1.399861
  30
0
  11
44.79
  21
1.404826
  31
0
  0
LINE
  5
49
  100
AcDbEntity
  8
1
  100
AcDbLine
  10
44.79
  20
1.404826
  30
0
  11
44.775
  21
1.409668
  31
0
  0
LINE
  5
4a
  100
AcDbEntity
  8
1
  100
AcDbLine
  10
44.775
  20
1.409668
  30
0
  11
44.76
  21
1.414387
  31
0
  0
LINE
  5
4b
  100
AcDbEntity
  8
1
  100
AcDbLine
  10
44.76
  20
1.414387
  30
0
  11
44.745
  21
1.418983
  31
0
  0
LINE
  5
4c
  100
AcDbEntity
  8
1
  100
AcDbLine
  10
44.745
  20
1.418983
  30
0
  11
44.73
  21
1.423457
  31
0
  0
LINE
  5
4d
  100
AcDbEntity
  8
1
  100
AcDbLine
  10
44.73
  20
1.423457
  30
0
  11
44.715
  21
1.427806
  31
0
  0
LINE
  5
4e
  100
AcDbEntity
  8
1
  100
AcDbLine
  10
44.715
  20
1.427806
  30
0
  11
44.7
  21
1.432031
  31
0
  0
LINE
  5
4f
  100
AcDbEntity
  8
1
  100
AcDbLine
  10
44.7
  20
1.432031
  30
0
  11
44.685
  21
1.436131
  31
0
  0
LINE
  5
50
  100
AcDbEntity
  8
1
  100
AcDbLine
  10
44.685
  20
1.436131
  30
0
  11
44.67
  21
1.440107
  31
0
  0
LINE
  5
51
  100
AcDbEntity
  8
1
  100
AcDbLine
  10
44.67
  20
1.440107
  30
0
  11
44.655
  21
1.443958
  31
0
  0
LINE
  5
52
  100
AcDbEntity
  8
1
  100
AcDbLine
  10
44.655
  20
1.443958
  30
0
  11
44.64
  21
1.447683
  31
0
  0
LINE
  5
53
  100
AcDbEntity
  8
1
  100
AcDbLine
  10
44.64
  20
1.447683
  30
0
  11
44.625
  21
1.451282
  31
0
  0
LINE
  5
54
  100
AcDbEntity
  8
1
  100
AcDbLine
  10
44.625
  20
1.451282
  30
0
  11
44.61
  21
1.454754
  31
0
  0
LINE
  5
55
  100
AcDbEntity
  8
1
  100
AcDbLine
  10
44.61
  20
1.454754
  30
0
  11
44.595
  21
1.458101
  31
0
  0
LINE
  5
56
  100
AcDbEntity
  8
1
  100
AcDbLine
  10
44.595
  20
1.458101
  30
0
  11
44.58
  21
1.46132
  31
0
  0
LINE
  5
57
  100
AcDbEntity
  8
1
  100
AcDbLine
  10
44.58
  20
1.46132
  30
0
  11
44.565
  21
1.464413
  31
0
  0
LINE
  5
58
  100
AcDbEntity
  8
1
  100
AcDbLine
  10
44.565
  20
1.464413
  30
0
  11
44.55
  21
1.467378
  31
0
  0
LINE
  5
59
  100
AcDbEntity
  8
1
  100
AcDbLine
  10
44.55
  20
1.467378
  30
0
  11
44.535
  21
1.470215
  31
0
  0
LINE
  5
5a
  100
AcDbEntity
  8
1
  100
AcDbLine
  10
44.535
  20
1.470215
  30
0
  11
44.52
  21
1.472925
  31
0
  0
LINE
  5
5b
  100
AcDbEntity
  8
1
  100
AcDbLine
  10
44.52
  20
1.472925
  30
0
  11
44.505
  21
1.475506
  31
0
  0
LINE
  5
5c
  100
AcDbEntity
  8
1
  100
AcDbLine
  10
44.505
  20
1.475506
  30
0
  11
44.49
  21
1.47796
  31
0
  0
LINE
  5
5d
  100
AcDbEntity
  8
1
  100
AcDbLine
  10
44.49
  20
1.47796
  30
0
  11
44.475
  21
1.480284
  31
0
  0
LINE
  5
5e
  100
AcDbEntity
  8
1
  100
AcDbLine
  10
44.475
  20
1.480284
  30
0
  11
44.46
  21
1.48248
  31
0
  0
LINE
  5
5f
  100
AcDbEntity
  8
1
  100
AcDbLine
  10
44.46
  20
1.48248
  30
0
  11
44.445
  21
1.484548
  31
0
  0
LINE
  5
60
  100
AcDbEntity
  8
1
  100
AcDbLine
  10
44.445
  20
1.484548
  30
0
  11
44.43
  21
1.486486
  31
0
  0
LINE
  5
61
  100
AcDbEntity
  8
1
  100
AcDbLine
  10
44.43
  20
1.486486
  30
0
  11
44.415
  21
1.488294
  31
0
  0
LINE
  5
62
  100
AcDbEntity
  8
1
  100
AcDbLine
  10
44.415
  20
1.488294
  30
0
  11
44.4
  21
1.489974
  31
0
  0
LINE
  5
63
  100
AcDbEntity
  8
1
  100
AcDbLine
  10
44.4
  20
1.489974
  30
0
  11
44.385
  21
1.491523
  31
0
  0
LINE
  5
64
  100
AcDbEntity
  8
1
  100
AcDbLine
  10
44.385
  20
1.491523
  30
0
  11
44.37
  21
1.492944
  31
0
  0
LINE
  5
65
  100
AcDbEntity
  8
1
  100
AcDbLine
  10
44.37
  20
1.492944
  30
0
  11
44.355
  21
1.494234
  31
0
  0
LINE
  5
66
  100
AcDbEntity
  8
1
  100
AcDbLine
  10
44.355
  20
1.494234
  30
0
  11
44.34
  21
1.495394
  31
0
  0
LINE
  5
67
  100
AcDbEntity
  8
1
  100
AcDbLine
  10
44.34
  20
1.495394
  30
0
  11
44.325
  21
1.496424
  31
0
  0
LINE
  5
68
  100
AcDbEntity
  8
1
  100
AcDbLine
  10
44.325
  20
1.496424
  30
0
  11
44.31
  21
1.497325
  31
0
  0
LINE
  5
69
  100
AcDbEntity
  8
1
  100
AcDbLine
  10
44.31
  20
1.497325
  30
0
  11
44.295
  21
1.498095
  31
0
  0
LINE
  5
6a
  100
AcDbEntity
  8
1
  100
AcDbLine
  10
44.295
  20
1.498095
  30
0
  11
44.28
  21
1.498734
  31
0
  0
LINE
  5
6b
  100
AcDbEntity
  8
1
  100
AcDbLine
  10
44.28
  20
1.498734
  30
0
  11
44.265
  21
1.499244
  31
0
  0
LINE
  5
6c
  100
AcDbEntity
  8
1
  100
AcDbLine
  10
44.265
  20
1.499244
  30
0
  11
44.25
  21
1.499623
  31
0
  0
LINE
  5
6d
  100
AcDbEntity
  8
1
  100
AcDbLine
  10
44.25
  20
1.499623
  30
0
  11
44.235
  21
1.499871
  31
0
  0
LINE
  5
6e
  100
AcDbEntity
  8
1
  100
AcDbLine
  10
44.235
  20
1.499871
  30
0
  11
44.22
  21
1.499989
  31
0
  0
LINE
  5
6f
  100
AcDbEntity
  8
1
  100
AcDbLine
  10
44.22
  20
1.499989
  30
0
  11
44.213913
  21
1.5
  31
0
  0
LINE
  5
70
  100
AcDbEntity
  8
1
  100
AcDbLine
  10
43.476202
  20
1.5
  30
0
  11
43.485
  21
1.481315
  31
0
  0
LINE
  5
71
  100
AcDbEntity
  8
1
  100
AcDbLine
  10
43.485
  20
1.481315
  30
0
  11
43.5
  21
1.481175
  31
0
  0
LINE
  5
72
  100
AcDbEntity
  8
1
  100
AcDbLine
  10
43.5
  20
1.481175
  30
0
  11
43.515
  21
1.480906
  31
0
  0
LINE
  5
73
  100
AcDbEntity
  8
1
  100
AcDbLine
  10
43.515
  20
1.480906
  30
0
  11
43.53
  21
1.480508
  31
0
  0
LINE
  5
74
  100
AcDbEntity
  8
1
  100
AcDbLine
  10
43.53
  20
1.480508
  30
0
  11
43.545
  21
1.479982
  31
0
  0
LINE
  5
75
  100
AcDbEntity
  8
1
  100
AcDbLine
  10
43.545
  20
1.479982
  30
0
  11
43.56
  21
1.479327
  31
0
  0
LINE
  5
76
  100
AcDbEntity
  8
1
  100
AcDbLine
  10
43.56
  20
1.479327
  30
0
  11
43.575
  21
1.478543
  31
0
  0
LINE
  5
77
  100
AcDbEntity
  8
1
  100
AcDbLine
  10
43.575
  20
1.478543
  30
0
  11
43.59
  21
1.477631
  31
0
  0
LINE
  5
78
  100
AcDbEntity
  8
1
  100
AcDbLine
  10
43.59
  20
1.477631
  30
0
  11
43.605
  21
1.476591
  31
0
  0
LINE
  5
79
  100
AcDbEntity
  8
1
  100
AcDbLine
  10
43.605
  20
1.476591
  30
0
  11
43.62
  21
1.475421
  31
0
  0
LINE
  5
7a
  100
AcDbEntity
  8
1
  100
AcDbLine
  10
43.62
  20
1.475421
  30
0
  11
43.635
  21
1.474124
  31
0
  0
LINE
  5
7b
  100
AcDbEntity
  8
1
  100
AcDbLine
  10
43.635
  20
1.474124
  30
0
  11
43.65
  21
1.472698
  31
0
  0
LINE
  5
7c
  100
AcDbEntity
  8
1
  100
AcDbLine
  10
43.65
  20
1.472698
  30
0
  11
43.665
  21
1.471145
  31
0
  0
LINE
  5
7d
  100
AcDbEntity
  8
1
  100
AcDbLine
  10
43.665
  20
1.471145
  30
0
  11
43.68
  21
1.469463
  31
0
  0
LINE
  5
7e
  100
AcDbEntity
  8
1
  100
AcDbLine
  10
43.68
  20
1.469463
  30
0
  11
43.695
  21
1.467654
  31
0
  0
LINE
  5
7f
  100
AcDbEntity
  8
1
  100
AcDbLine
  10
43.695
  20
1.467654
  30
0
  11
43.71
  21
1.465717
  31
0
  0
LINE
  5
80
  100
AcDbEntity
  8
1
  100
AcDbLine
  10
43.71
  20
1.465717
  30
0
  11
43.725
  21
1.463653
  31
0
  0
LINE
  5
81
  100
AcDbEntity
  8
1
  100
AcDbLine
  10
43.725
  20
1.463653
  30
0
  11
43.74
  21
1.461461
  31
0
  0
LINE
  5
82
  100
AcDbEntity
  8
1
  100
AcDbLine
  10
43.74
  20
1.461461
  30
0
  11
43.755
  21
1.459142
  31
0
  0
LINE
  5
83
  100
AcDbEntity
  8
1
  100
AcDbLine
  10
43.755
  20
1.459142
  30
0
  11
43.77
  21
1.456696
  31
0
  0
LINE
  5
84
  100
AcDbEntity
  8
1
  100
AcDbLine
  10
43.77
  20
1.456696
  30
0
  11
43.785
  21
1.454124
  31
0
  0
LINE
  5
85
  100
AcDbEntity
  8
1
  100
AcDbLine
  10
43.785
  20
1.454124
  30
0
  11
43.8
  21
1.451425
  31
0
  0
LINE
  5
86
  100
AcDbEntity
  8
1
  100
AcDbLine
  10
43.8
  20
1.451425
  30
0
  11
43.815
  21
1.4486
  31
0
  0
LINE
  5
87
  100
AcDbEntity
  8
1
  100
AcDbLine
  10
43.815
  20
1.4486
  30
0
  11
43.83
  21
1.445649
  31
0
  0
LINE
  5
88
  100
AcDbEntity
  8
1
  100
AcDbLine
  10
43.83
  20
1.445649
  30
0
  11
43.845
  21
1.442573
  31
0
  0
LINE
  5
89
  100
AcDbEntity
  8
1
  100
AcDbLine
  10
43.845
  20
1.442573
  30
0
  11
43.86
  21
1.439371
  31
0
  0
LINE
  5
8a
  100
AcDbEntity
  8
1
  100
AcDbLine
  10
43.86
  20
1.439371
  30
0
  11
43.875
  21
1.436043
  31
0
  0
LINE
  5
8b
  100
AcDbEntity
  8
1
  100
AcDbLine
  10
43.875
  20
1.436043
  30
0
  11
43.89
  21
1.432591
  31
0
  0
LINE
  5
8c
  100
AcDbEntity
  8
1
  100
AcDbLine
  10
43.89
  20
1.432591
  30
0
  11
43.905
  21
1.429014
  31
0
  0
LINE
  5
8d
  100
AcDbEntity
  8
1
  100
AcDbLine
  10
43.905
  20
1.429014
  30
0
  11
43.92
  21
1.425313
  31
0
  0
LINE
  5
8e
  100
AcDbEntity
  8
1
  100
AcDbLine
  10
43.92
  20
1.425313
  30
0
  11
43.935
  21
1.421489
  31
0
  0
LINE
  5
8f
  100
AcDbEntity
  8
1
  100
AcDbLine
  10
43.935
  20
1.421489
  30
0
  11
43.95
  21
1.41754
  31
0
  0
LINE
  5
90
  100
AcDbEntity
  8
1
  100
AcDbLine
  10
43.95
  20
1.41754
  30
0
  11
43.965
  21
1.413468
  31
0
  0
LINE
  5
91
  100
AcDbEntity
  8
1
  100
AcDbLine
  10
43.965
  20
1.413468
  30
0
  11
43.98
  21
1.409273
  31
0
  0
LINE
  5
92
  100
AcDbEntity
  8
1
  100
AcDbLine
  10
43.98
  20
1.409273
  30
0
  11
43.995
  21
1.404956
  31
0
  0
LINE
  5
93
  100
AcDbEntity
  8
1
  100
AcDbLine
  10
43.995
  20
1.404956
  30
0
  11
44.01
  21
1.400517
  31
0
  0
LINE
  5
94
  100
AcDbEntity
  8
1
  100
AcDbLine
  10
44.01
  20
1.400517
  30
0
  11
44.025
  21
1.395956
  31
0
  0
LINE
  5
95
  100
AcDbEntity
  8
1
  100
AcDbLine
  10
44.025
  20
1.395956
  30
0
  11
44.04
  21
1.391273
  31
0
  0
LINE
  5
96
  100
AcDbEntity
  8
1
  100
AcDbLine
  10
44.04
  20
1.391273
  30
0
  11
44.055
  21
1.386469
  31
0
  0
LINE
  5
97
  100
AcDbEntity
  8
1
  100
AcDbLine
  10
44.055
  20
1.386469
  30
0
  11
44.07
  21
1.381545
  31
0
  0
LINE
  5
98
  100
AcDbEntity
  8
1
  100
AcDbLine
  10
44.07
  20
1.381545
  30
0
  11
44.085
  21
1.376501
  31
0
  0
LINE
  5
99
  100
AcDbEntity
  8
1
  100
AcDbLine
  10
44.085
  20
1.376501
  30
0
  11
44.1
  21
1.371337
  31
0
  0
LINE
  5
9a
  100
AcDbEntity
  8
1
  100
AcDbLine
  10
44.1
  20
1.371337
  30
0
  11
44.115
  21
1.366054
  31
0
  0
LINE
  5
9b
  100
AcDbEntity
  8
1
  100
AcDbLine
  10
44.115
  20
1.366054
  30
0
  11
44.13
  21
1.360652
  31
0
  0
LINE
  5
9c
  100
AcDbEntity
  8
1
  100
AcDbLine
  10
44.13
  20
1.360652
  30
0
  11
44.145
  21
1.355131
  31
0
  0
LINE
  5
9d
  100
AcDbEntity
  8
1
  100
AcDbLine
  10
44.145
  20
1.355131
  30
0
  11
44.16
  21
1.349493
  31
0
  0
LINE
  5
9e
  100
AcDbEntity
  8
1
  100
AcDbLine
  10
44.16
  20
1.349493
  30
0
  11
44.175
  21
1.343738
  31
0
  0
LINE
  5
9f
  100
AcDbEntity
  8
1
  100
AcDbLine
  10
44.175
  20
1.343738
  30
0
  11
44.19
  21
1.337865
  31
0
  0
LINE
  5
a0
  100
AcDbEntity
  8
1
  100
AcDbLine
  10
44.19
  20
1.337865
  30
0
  11
44.205
  21
1.331876
  31
0
  0
LINE
  5
a1
  100
AcDbEntity
  8
1
  100
AcDbLine
  10
44.205
  20
1.331876
  30
0
  11
44.22
  21
1.325772
  31
0
  0
LINE
  5
a2
  100
AcDbEntity
  8
1
  100
AcDbLine
  10
44.22
  20
1.325772
  30
0
  11
44.235
  21
1.319552
  31
0
  0
LINE
  5
a3
  100
AcDbEntity
  8
1
  100
AcDbLine
  10
44.235
  20
1.319552
  30
0
  11
44.25
  21
1.313217
  31
0
  0
LINE
  5
a4
  100
AcDbEntity
  8
1
  100
AcDbLine
  10
44.25
  20
1.313217
  30
0
  11
44.265
  21
1.306769
  31
0
  0
LINE
  5
a5
  100
AcDbEntity
  8
1
  100
AcDbLine
  10
44.265
  20
1.306769
  30
0
  11
44.28
  21
1.300206
  31
0
  0
LINE
  5
a6
  100
AcDbEntity
  8
1
  100
AcDbLine
  10
44.28
  20
1.300206
  30
0
  11
44.295
  21
1.293531
  31
0
  0
LINE
  5
a7
  100
AcDbEntity
  8
1
  100
AcDbLine
  10
44.295
  20
1.293531
  30
0
  11
44.31
  21
1.286743
  31
0
  0
LINE
  5
a8
  100
AcDbEntity
  8
1
  100
AcDbLine
  10
44.31
  20
1.286743
  30
0
  11
44.325
  21
1.279843
  31
0
  0
LINE
  5
a9
  100
AcDbEntity
  8
1
  100
AcDbLine
  10
44.325
  20
1.279843
  30
0
  11
44.34
  21
1.272832
  31
0
  0
LINE
  5
aa
  100
AcDbEntity
  8
1
  100
AcDbLine
  10
44.34
  20
1.272832
  30
0
  11
44.355
  21
1.26571
  31
0
  0
LINE
  5
ab
  100
AcDbEntity
  8
1
  100
AcDbLine
  10
44.355
  20
1.26571
  30
0
  11
44.37
  21
1.258478
  31
0
  0
LINE
  5
ac
  100
AcDbEntity
  8
1
  100
AcDbLine
  10
44.37
  20
1.258478
  30
0
  11
44.385
  21
1.251137
  31
0
  0
LINE
  5
ad
  100
AcDbEntity
  8
1
  100
AcDbLine
  10
44.385
  20
1.251137
  30
0
  11
44.4
  21
1.243687
  31
0
  0
LINE
  5
ae
  100
AcDbEntity
  8
1
  100
AcDbLine
  10
44.4
  20
1.243687
  30
0
  11
44.415
  21
1.236128
  31
0
  0
LINE
  5
af
  100
AcDbEntity
  8
1
  100
AcDbLine
  10
44.415
  20
1.236128
  30
0
  11
44.43
  21
1.228463
  31
0
  0
LINE
  5
b0
  100
AcDbEntity
  8
1
  100
AcDbLine
  10
44.43
  20
1.228463
  30
0
  11
44.445
  21
1.22069
  31
0
  0
LINE
  5
b1
  100
AcDbEntity
  8
1
  100
AcDbLine
  10
44.445
  20
1.22069
  30
0
  11
44.46
  21
1.212811
  31
0
  0
LINE
  5
b2
  100
AcDbEntity
  8
1
  100
AcDbLine
  10
44.46
  20
1.212811
  30
0
  11
44.475
  21
1.204827
  31
0
  0
LINE
  5
b3
  100
AcDbEntity
  8
1
  100
AcDbLine
  10
44.475
  20
1.204827
  30
0
  11
44.49
  21
1.196738
  31
0
  0
LINE
  5
b4
  100
AcDbEntity
  8
1
  100
AcDbLine
  10
44.49
  20
1.196738
  30
0
  11
44.505
  21
1.188545
  31
0
  0
LINE
  5
b5
  100
AcDbEntity
  8
1
  100
AcDbLine
  10
44.505
  20
1.188545
  30
0
  11
44.52
  21
1.180249
  31
0
  0
LINE
  5
b6
  100
AcDbEntity
  8
1
  100
AcDbLine
  10
44.52
  20
1.180249
  30
0
  11
44.535
  21
1.17185
  31
0
  0
LINE
  5
b7
  100
AcDbEntity
  8
1
  100
AcDbLine
  10
44.535
  20
1.17185
  30
0
  11
44.55
  21
1.163349
  31
0
  0
LINE
  5
b8
  100
AcDbEntity
  8
1
  100
AcDbLine
  10
44.55
  20
1.163349
  30
0
  11
44.565
  21
1.154747
  31
0
  0
LINE
  5
b9
  100
AcDbEntity
  8
1
  100
AcDbLine
  10
44.565
  20
1.154747
  30
0
  11
44.58
  21
1.146044
  31
0
  0
LINE
  5
ba
  100
AcDbEntity
  8
1
  100
AcDbLine
  10
44.58
  20
1.146044
  30
0
  11
44.595
  21
1.137242
  31
0
  0
LINE
  5
bb
  100
AcDbEntity
  8
1
  100
AcDbLine
  10
44.595
  20
1.137242
  30
0
  11
44.61
  21
1.128341
  31
0
  0
LINE
  5
bc
  100
AcDbEntity
  8
1
  100
AcDbLine
  10
44.61
  20
1.128341
  30
0
  11
44.625
  21
1.119342
  31
0
  0
LINE
  5
bd
  100
AcDbEntity
  8
1
  100
AcDbLine
  10
44.625
  20
1.119342
  30
0
  11
44.64
  21
1.110246
  31
0
  0
LINE
  5
be
  100
AcDbEntity
  8
1
  100
AcDbLine
  10
44.64
  20
1.110246
  30
0
  11
44.655
  21
1.101053
  31
0
  0
LINE
  5
bf
  100
AcDbEntity
  8
1
  100
AcDbLine
  10
44.655
  20
1.101053
  30
0
  11
44.67
  21
1.091764
  31
0
  0
LINE
  5
c0
  100
AcDbEntity
  8
1
  100
AcDbLine
  10
44.67
  20
1.091764
  30
0
  11
44.685
  21
1.08238
  31
0
  0
LINE
  5
c1
  100
AcDbEntity
  8
1
  100
AcDbLine
  10
44.685
  20
1.08238
  30
0
  11
44.7
  21
1.072902
  31
0
  0
LINE
  5
c2
  100
AcDbEntity
  8
1
  100
AcDbLine
  10
44.7
  20
1.072902
  30
0
  11
44.715
  21
1.063331
  31
0
  0
LINE
  5
c3
  100
AcDbEntity
  8
1
  100
AcDbLine
  10
44.715
  20
1.063331
  30
0
  11
44.73
  21
1.053668
  31
0
  0
LINE
  5
c4
  100
AcDbEntity
  8
1
  100
AcDbLine
  10
44.73
  20
1.053668
  30
0
  11
44.745
  21
1.043912
  31
0
  0
LINE
  5
c5
  100
AcDbEntity
  8
1
  100
AcDbLine
  10
44.745
  20
1.043912
  30
0
  11
44.76
  21
1.034066
  31
0
  0
LINE
  5
c6
  100
AcDbEntity
  8
1
  100
AcDbLine
  10
44.76
  20
1.034066
  30
0
  11
44.775
  21
1.02413
  31
0
  0
LINE
  5
c7
  100
AcDbEntity
  8
1
  100
AcDbLine
  10
44.775
  20
1.02413
  30
0
  11
44.79
  21
1.014105
  31
0
  0
LINE
  5
c8
  100
AcDbEntity
  8
1
  100
AcDbLine
  10
44.79
  20
1.014105
  30
0
  11
44.805
  21
1.003992
  31
0
  0
LINE
  5
c9
  100
AcDbEntity
  8
1
  100
AcDbLine
  10
44.805
  20
1.003992
  30
0
  11
44.82
  21
0.993792
  31
0
  0
LINE
  5
ca
  100
AcDbEntity
  8
1
  100
AcDbLine
  10
44.82
  20
0.993792
  30
0
  11
44.835
  21
0.983505
  31
0
  0
LINE
  5
cb
  100
AcDbEntity
  8
1
  100
AcDbLine
  10
44.835
  20
0.983505
  30
0
  11
44.85
  21
0.973133
  31
0
  0
LINE
  5
cc
  100
AcDbEntity
  8
1
  100
AcDbLine
  10
44.85
  20
0.973133
  30
0
  11
44.865
  21
0.962675
  31
0
  0
LINE
  5
cd
  100
AcDbEntity
  8
1
  100
AcDbLine
  10
44.865
  20
0.962675
  30
0
  11
44.88
  21
0.952135
  31
0
  0
LINE
  5
ce
  100
AcDbEntity
  8
1
  100
AcDbLine
  10
44.88
  20
0.952135
  30
0
  11
44.895
  21
0.941511
  31
0
  0
LINE
  5
cf
  100
AcDbEntity
  8
1
  100
AcDbLine
  10
44.895
  20
0.941511
  30
0
  11
44.91
  21
0.930806
  31
0
  0
LINE
  5
d0
  100
AcDbEntity
  8
1
  100
AcDbLine
  10
44.91
  20
0.930806
  30
0
  11
44.925
  21
0.920019
  31
0
  0
LINE
  5
d1
  100
AcDbEntity
  8
1
  100
AcDbLine
  10
44.925
  20
0.920019
  30
0
  11
44.94
  21
0.909153
  31
0
  0
LINE
  5
d2
  100
AcDbEntity
  8
1
  100
AcDbLine
  10
44.94
  20
0.909153
  30
0
  11
44.955
  21
0.898208
  31
0
  0
LINE
  5
d3
  100
AcDbEntity
  8
1
  100
AcDbLine
  10
44.955
  20
0.898208
  30
0
  11
44.97
  21
0.887184
  31
0
  0
LINE
  5
d4
  100
AcDbEntity
  8
1
  100
AcDbLine
  10
44.97
  20
0.887184
  30
0
  11
44.985
  21
0.876084
  31
0
  0
LINE
  5
d5
  100
AcDbEntity
  8
1
  100
AcDbLine
  10
44.985
  20
0.876084
  30
0
  11
45
  21
0.864907
  31
0
  0
LINE
  5
d6
  100
AcDbEntity
  8
1
  100
AcDbLine
  10
45
  20
0.75
  30
0
  11
44.985
  21
0.762081
  31
0
  0
LINE
  5
d7
  100
AcDbEntity
  8
1
  100
AcDbLine
  10
44.985
  20
0.762081
  30
0
  11
44.97
  21
0.774096
  31
0
  0
LINE
  5
d8
  100
AcDbEntity
  8
1
  100
AcDbLine
  10
44.97
  20
0.774096
  30
0
  11
44.955
  21
0.786043
  31
0
  0
LINE
  5
d9
  100
AcDbEntity
  8
1
  100
AcDbLine
  10
44.955
  20
0.786043
  30
0
  11
44.94
  21
0.797922
  31
0
  0
LINE
  5
da
  100
AcDbEntity
  8
1
  100
AcDbLine
  10
44.94
  20
0.797922
  30
0
  11
44.925
  21
0.809732
  31
0
  0
LINE
  5
db
  100
AcDbEntity
  8
1
  100
AcDbLine
  10
44.925
  20
0.809732
  30
0
  11
44.91
  21
0.821471
  31
0
  0
LINE
  5
dc
  100
AcDbEntity
  8
1
  100
AcDbLine
  10
44.91
  20
0.821471
  30
0
  11
44.895
  21
0.833139
  31
0
  0
LINE
  5
dd
  100
AcDbEntity
  8
1
  100
AcDbLine
  10
44.895
  20
0.833139
  30
0
  11
44.88
  21
0.844734
  31
0
  0
LINE
  5
de
  100
AcDbEntity
  8
1
  100
AcDbLine
  10
44.88
  20
0.844734
  30
0
  11
44.865
  21
0.856256
  31
0
  0
LINE
  5
df
  100
AcDbEntity
  8
1
  100
AcDbLine
  10
44.865
  20
0.856256
  30
0
  11
44.85
  21
0.867703
  31
0
  0
LINE
  5
e0
  100
AcDbEntity
  8
1
  100
AcDbLine
  10
44.85
  20
0.867703
  30
0
  11
44.835
  21
0.879075
  31
0
  0
LINE
  5
e1
  100
AcDbEntity
  8
1
  100
AcDbLine
  10
44.835
  20
0.879075
  30
0
  11
44.82
  21
0.890371
  31
0
  0
LINE
  5
e2
  100
AcDbEntity
  8
1
  100
AcDbLine
  10
44.82
  20
0.890371
  30
0
  11
44.805
  21
0.901589
  31
0
  0
LINE
  5
e3
  100
AcDbEntity
  8
1
  100
AcDbLine
  10
44.805
  20
0.901589
  30
0
  11
44.79
  21
0.912728
  31
0
  0
LINE
  5
e4
  100
AcDbEntity
  8
1
  100
AcDbLine
  10
44.79
  20
0.912728
  30
0
  11
44.775
  21
0.923789
  31
0
  0
LINE
  5
e5
  100
AcDbEntity
  8
1
  100
AcDbLine
  10
44.775
  20
0.923789
  30
0
  11
44.76
  21
0.934769
  31
0
  0
LINE
  5
e6
  100
AcDbEntity
  8
1
  100
AcDbLine
  10
44.76
  20
0.934769
  30
0
  11
44.745
  21
0.945667
  31
0
  0
LINE
  5
e7
  100
AcDbEntity
  8
1
  100
AcDbLine
  10
44.745
  20
0.945667
  30
0
  11
44.73
  21
0.956484
  31
0
  0
LINE
  5
e8
  100
AcDbEntity
  8
1
  100
AcDbLine
  10
44.73
  20
0.956484
  30
0
  11
44.715
  21
0.967217
  31
0
  0
LINE
  5
e9
  100
AcDbEntity
  8
1
  100
AcDbLine
  10
44.715
  20
0.967217
  30
0
  11
44.7
  21
0.977866
  31
0
  0
LINE
  5
ea
  100
AcDbEntity
  8
1
  100
AcDbLine
  10
44.7
  20
0.977866
  30
0
  11
44.685
  21
0.988431
  31
0
  0
LINE
  5
eb
  100
AcDbEntity
  8
1
  100
AcDbLine
  10
44.685
  20
0.988431
  30
0
  11
44.67
  21
0.998909
  31
0
  0
LINE
  5
ec
  100
AcDbEntity
  8
1
  100
AcDbLine
  10
44.67
  20
0.998909
  30
0
  11
44.655
  21
1.0093
  31
0
  0
LINE
  5
ed
  100
AcDbEntity
  8
1
  100
AcDbLine
  10
44.655
  20
1.0093
  30
0
  11
44.64
  21
1.019604
  31
0
  0
LINE
  5
ee
  100
AcDbEntity
  8
1
  100
AcDbLine
  10
44.64
  20
1.019604
  30
0
  11
44.625
  21
1.029819
  31
0
  0
LINE
  5
ef
  100
AcDbEntity
  8
1
  100
AcDbLine
  10
44.625
  20
1.029819
  30
0
  11
44.61
  21
1.039944
  31
0
  0
LINE
  5
f0
  100
AcDbEntity
  8
1
  100
AcDbLine
  10
44.61
  20
1.039944
  30
0
  11
44.595
  21
1.049979
  31
0
  0
LINE
  5
f1
  100
AcDbEntity
  8
1
  100
AcDbLine
  10
44.595
  20
1.049979
  30
0
  11
44.58
  21
1.059923
  31
0
  0
LINE
  5
f2
  100
AcDbEntity
  8
1
  100
AcDbLine
  10
44.58
  20
1.059923
  30
0
  11
44.565
  21
1.069774
  31
0
  0
LINE
  5
f3
  100
AcDbEntity
  8
1
  100
AcDbLine
  10
44.565
  20
1.069774
  30
0
  11
44.55
  21
1.079532
  31
0
  0
LINE
  5
f4
  100
AcDbEntity
  8
1
  100
AcDbLine
  10
44.55
  20
1.079532
  30
0
  11
44.535
  21
1.089197
  31
0
  0
LINE
  5
f5
  100
AcDbEntity
  8
1
  100
AcDbLine
  10
44.535
  20
1.089197
  30
0
  11
44.52
  21
1.098767
  31
0
  0
LINE
  5
f6
  100
AcDbEntity
  8
1
  100
AcDbLine
  10
44.52
  20
1.098767
  30
0
  11
44.505
  21
1.108241
  31
0
  0
LINE
  5
f7
  100
AcDbEntity
  8
1
  100
AcDbLine
  10
44.505
  20
1.108241
  30
0
  11
44.49
  21
1.117619
  31
0
  0
LINE
  5
f8
  100
AcDbEntity
  8
1
  100
AcDbLine
  10
44.49
  20
1.117619
  30
0
  11
44.475
  21
1.1269
  31
0
  0
LINE
  5
f9
  100
AcDbEntity
  8
1
  100
AcDbLine
  10
44.475
  20
1.1269
  30
0
  11
44.46
  21
1.136083
  31
0
  0
LINE
  5
fa
  100
AcDbEntity
  8
1
  100
AcDbLine
  10
44.46
  20
1.136083
  30
0
  11
44.445
  21
1.145167
  31
0
  0
LINE
  5
fb
  100
AcDbEntity
  8
1
  100
AcDbLine
  10
44.445
  20
1.145167
  30
0
  11
44.43
  21
1.154151
  31
0
  0
LINE
  5
fc
  100
AcDbEntity
  8
1
  100
AcDbLine
  10
44.43
  20
1.154151
  30
0
  11
44.415
  21
1.163035
  31
0
  0
LINE
  5
fd
  100
AcDbEntity
  8
1
  100
AcDbLine
  10
44.415
  20
1.163035
  30
0
  11
44.4
  21
1.171818
  31
0
  0
LINE
  5
fe
  100
AcDbEntity
  8
1
  100
AcDbLine
  10
44.4
  20
1.171818
  30
0
  11
44.385
  21
1.180499
  31
0
  0
LINE
  5
ff
  100
AcDbEntity
  8
1
  100
AcDbLine
  10
44.385
  20
1.180499
  30
0
  11
44.37
  21
1.189077
  31
0
  0
LINE
  5
100
  100
AcDbEntity
  8
1
  100
AcDbLine
  10
44.37
  20
1.189077
  30
0
  11
44.355
  21
1.197552
  31
0
  0
LINE
  5
101
  100
AcDbEntity
  8
1
  100
AcDbLine
  10
44.355
  20
1.197552
  30
0
  11
44.34
  21
1.205923
  31
0
  0
LINE
  5
102
  100
AcDbEntity
  8
1
  100
AcDbLine
  10
44.34
  20
1.205923
  30
0
  11
44.325
  21
1.214189
  31
0
  0
LINE
  5
103
  100
AcDbEntity
  8
1
  100
AcDbLine
  10
44.325
  20
1.214189
  30
0
  11
44.31
  21
1.222349
  31
0
  0
LINE
  5
104
  100
AcDbEntity
  8
1
  100
AcDbLine
  10
44.31
  20
1.222349
  30
0
  11
44.295
  21
1.230403
  31
0
  0
LINE
  5
105
  100
AcDbEntity
  8
1
  100
AcDbLine
  10
44.295
  20
1.230403
  30
0
  11
44.28
  21
1.23835
  31
0
  0
LINE
  5
106
  100
AcDbEntity
  8
1
  100
AcDbLine
  10
44.28
  20
1.23835
  30
0
  11
44.265
  21
1.24619
  31
0
  0
LINE
  5
107
  100
AcDbEntity
  8
1
  100
AcDbLine
  10
44.265
  20
1.24619
  30
0
  11
44.25
  21
1.253921
  31
0
  0
LINE
  5
108
  100
AcDbEntity
  8
1
  100
AcDbLine
  10
44.25
  20
1.253921
  30
0
  11
44.235
  21
1.261543
  31
0
  0
LINE
  5
109
  100
AcDbEntity
  8
1
  100
AcDbLine
  10
44.235
  20
1.261543
  30
0
  11
44.22
  21
1.269055
  31
0
  0
LINE
  5
10a
  100
AcDbEntity
  8
1
  100
AcDbLine
  10
44.22
  20
1.269055
  30
0
  11
44.205
  21
1.276457
  31
0
  0
LINE
  5
10b
  100
AcDbEntity
  8
1
  100
AcDbLine
  10
44.205
  20
1.276457
  30
0
  11
44.19
  21
1.283748
  31
0
  0
LINE
  5
10c
  100
AcDbEntity
  8
1
  100
AcDbLine
  10
44.19
  20
1.283748
  30
0
  11
44.175
  21
1.290927
  31
0
  0
LINE
  5
10d
  100
AcDbEntity
  8
1
  100
AcDbLine
  10
44.175
  20
1.290927
  30
0
  11
44.16
  21
1.297994
  31
0
  0
LINE
  5
10e
  100
AcDbEntity
  8
1
  100
AcDbLine
  10
44.16
  20
1.297994
  30
0
  11
44.145
  21
1.304948
  31
0
  0
LINE
  5
10f
  100
AcDbEntity
  8
1
  100
AcDbLine
  10
44.145
  20
1.304948
  30
0
  11
44.13
  21
1.311789
  31
0
  0
LINE
  5
110
  100
AcDbEntity
  8
1
  100
AcDbLine
  10
44.13
  20
1.311789
  30
0
  11
44.115
  21
1.318516
  31
0
  0
LINE
  5
111
  100
AcDbEntity
  8
1
  100
AcDbLine
  10
44.115
  20
1.318516
  30
0
  11
44.1
  21
1.325128
  31
0
  0
LINE
  5
112
  100
AcDbEntity
  8
1
  100
AcDbLine
  10
44.1
  20
1.325128
  30
0
  11
44.085
  21
1.331624
  31
0
  0
LINE
  5
113
  100
AcDbEntity
  8
1
  100
AcDbLine
  10
44.085
  20
1.331624
  30
0
  11
44.07
  21
1.338005
  31
0
  0
LINE
  5
114
  100
AcDbEntity
  8
1
  100
AcDbLine
  10
44.07
  20
1.338005
  30
0
  11
44.055
  21
1.34427
  31
0
  0
LINE
  5
115
  100
AcDbEntity
  8
1
  100
AcDbLine
  10
44.055
  20
1.34427
  30
0
  11
44.04
  21
1.350417
  31
0
  0
LINE
  5
116
  100
AcDbEntity
  8
1
  100
AcDbLine
  10
44.04
  20
1.350417
  30
0
  11
44.025
  21
1.356448
  31
0
  0
LINE
  5
117
  100
AcDbEntity
  8
1
  100
AcDbLine
  10
44.025
  20
1.356448
  30
0
  11
44.01
  21
1.36236
  31
0
  0
LINE
  5
118
  100
AcDbEntity
  8
1
  100
AcDbLine
  10
44.01
  20
1.36236
  30
0
  11
43.995
  21
1.368154
  31
0
  0
LINE
  5
119
  100
AcDbEntity
  8
1
  100
AcDbLine
  10
43.995
  20
1.368154
  30
0
  11
43.98
  21
1.373829
  31
0
  0
LINE
  5
11a
  100
AcDbEntity
  8
1
  100
AcDbLine
  10
43.98
  20
1.373829
  30
0
  11
43.965
  21
1.379384
  31
0
  0
LINE
  5
11b
  100
AcDbEntity
  8
1
  100
AcDbLine
  10
43.965
  20
1.379384
  30
0
  11
43.95
  21
1.38482
  31
0
  0
LINE
  5
11c
  100
AcDbEntity
  8
1
  100
AcDbLine
  10
43.95
  20
1.38482
  30
0
  11
43.935
  21
1.390135
  31
0
  0
LINE
  5
11d
  100
AcDbEntity
  8
1
  100
AcDbLine
  10
43.935
  20
1.390135
  30
0
  11
43.92
  21
1.395329
  31
0
  0
LINE
  5
11e
  100
AcDbEntity
  8
1
  100
AcDbLine
  10
43.92
  20
1.395329
  30
0
  11
43.905
  21
1.400402
  31
0
  0
LINE
  5
11f
  100
AcDbEntity
  8
1
  100
AcDbLine
  10
43.905
  20
1.400402
  30
0
  11
43.89
  21
1.405353
  31
0
  0
LINE
  5
120
  100
AcDbEntity
  8
1
  100
AcDbLine
  10
43.89
  20
1.405353
  30
0
  11
43.875
  21
1.410181
  31
0
  0
LINE
  5
121
  100
AcDbEntity
  8
1
  100
AcDbLine
  10
43.875
  20
1.410181
  30
0
  11
43.86
  21
1.414888
  31
0
  0
LINE
  5
122
  100
AcDbEntity
  8
1
  100
AcDbLine
  10
43.86
  20
1.414888
  30
0
  11
43.845
  21
1.419471
  31
0
  0
LINE
  5
123
  100
AcDbEntity
  8
1
  100
AcDbLine
  10
43.845
  20
1.419471
  30
0
  11
43.83
  21
1.423931
  31
0
  0
LINE
  5
124
  100
AcDbEntity
  8
1
  100
AcDbLine
  10
43.83
  20
1.423931
  30
0
  11
43.815
  21
1.428267
  31
0
  0
LINE
  5
125
  100
AcDbEntity
  8
1
  100
AcDbLine
  10
43.815
  20
1.428267
  30
0
  11
43.8
  21
1.432478
  31
0
  0
LINE
  5
126
  100
AcDbEntity
  8
1
  100
AcDbLine
  10
43.8
  20
1.432478
  30
0
  11
43.785
  21
1.436565
  31
0
  0
LINE
  5
127
  100
AcDbEntity
  8
1
  100
AcDbLine
  10
43.785
  20
1.436565
  30
0
  11
43.77
  21
1.440528
  31
0
  0
LINE
  5
128
  100
AcDbEntity
  8
1
  100
AcDbLine
  10
43.77
  20
1.440528
  30
0
  11
43.755
  21
1.444365
  31
0
  0
LINE
  5
129
  100
AcDbEntity
  8
1
  100
AcDbLine
  10
43.755
  20
1.444365
  30
0
  11
43.74
  21
1.448076
  31
0
  0
LINE
  5
12a
  100
AcDbEntity
  8
1
  100
AcDbLine
  10
43.74
  20
1.448076
  30
0
  11
43.725
  21
1.451661
  31
0
  0
LINE
  5
12b
  100
AcDbEntity
  8
1
  100
AcDbLine
  10
43.725
  20
1.451661
  30
0
  11
43.71
  21
1.455121
  31
0
  0
LINE
  5
12c
  100
AcDbEntity
  8
1
  100
AcDbLine
  10
43.71
  20
1.455121
  30
0
  11
43.695
  21
1.458453
  31
0
  0
LINE
  5
12d
  100
AcDbEntity
  8
1
  100
AcDbLine
  10
43.695
  20
1.458453
  30
0
  11
43.68
  21
1.461659
  31
0
  0
LINE
  5
12e
  100
AcDbEntity
  8
1
  100
AcDbLine
  10
43.68
  20
1.461659
  30
0
  11
43.665
  21
1.464738
  31
0
  0
LINE
  5
12f
  100
AcDbEntity
  8
1
  100
AcDbLine
  10
43.665
  20
1.464738
  30
0
  11
43.65
  21
1.467689
  31
0
  0
LINE
  5
130
  100
AcDbEntity
  8
1
  100
AcDbLine
  10
43.65
  20
1.467689
  30
0
  11
43.635
  21
1.470513
  31
0
  0
LINE
  5
131
  100
AcDbEntity
  8
1
  100
AcDbLine
  10
43.635
  20
1.470513
  30
0
  11
43.62
  21
1.473209
  31
0
  0
LINE
  5
132
  100
AcDbEntity
  8
1
  100
AcDbLine
  10
43.62
  20
1.473209
  30
0
  11
43.605
  21
1.475777
  31
0
  0
LINE
  5
133
  100
AcDbEntity
  8
1
  100
AcDbLine
  10
43.605
  20
1.475777
  30
0
  11
43.59
  21
1.478216
  31
0
  0
LINE
  5
134
  100
AcDbEntity
  8
1
  100
AcDbLine
  10
43.59
  20
1.478216
  30
0
  11
43.575
  21
1.480527
  31
0
  0
LINE
  5
135
  100
AcDbEntity
  8
1
  100
AcDbLine
  10
43.575
  20
1.480527
  30
0
  11
43.56
  21
1.482709
  31
0
  0
LINE
  5
136
  100
AcDbEntity
  8
1
  100
AcDbLine
  10
43.56
  20
1.482709
  30
0
  11
43.545
  21
1.484762
  31
0
  0
LINE
  5
137
  100
AcDbEntity
  8
1
  100
AcDbLine
  10
43.545
  20
1.484762
  30
0
  11
43.53
  21
1.486687
  31
0
  0
LINE
  5
138
  100
AcDbEntity
  8
1
  100
AcDbLine
  10
43.53
  20
1.486687
  30
0
  11
43.515
  21
1.488481
  31
0
  0
LINE
  5
139
  100
AcDbEntity
  8
1
  100
AcDbLine
  10
43.515
  20
1.488481
  30
0
  11
43.5
  21
1.490147
  31
0
  0
LINE
  5
13a
  100
AcDbEntity
  8
1
  100
AcDbLine
  10
43.5
  20
1.490147
  30
0
  11
43.485
  21
1.491683
  31
0
  0
LINE
  5
13b
  100
AcDbEntity
  8
1
  100
AcDbLine
  10
43.485
  20
1.491683
  30
0
  11
43.47
  21
1.493089
  31
0
  0
LINE
  5
13c
  100
AcDbEntity
  8
1
  100
AcDbLine
  10
43.47
  20
1.493089
  30
0
  11
43.455
  21
1.494365
  31
0
  0
LINE
  5
13d
  100
AcDbEntity
  8
1
  100
AcDbLine
  10
43.455
  20
1.494365
  30
0
  11
43.44
  21
1.495511
  31
0
  0
LINE
  5
13e
  100
AcDbEntity
  8
1
  100
AcDbLine
  10
43.44
  20
1.495511
  30
0
  11
43.425
  21
1.496528
  31
0
  0
LINE
  5
13f
  100
AcDbEntity
  8
1
  100
AcDbLine
  10
43.425
  20
1.496528
  30
0
  11
43.41
  21
1.497414
  31
0
  0
LINE
  5
140
  100
AcDbEntity
  8
1
  100
AcDbLine
  10
43.41
  20
1.497414
  30
0
  11
43.395
  21
1.49817
  31
0
  0
LINE
  5
141
  100
AcDbEntity
  8
1
  100
AcDbLine
  10
43.395
  20
1.49817
  30
0
  11
43.38
  21
1.498795
  31
0
  0
LINE
  5
142
  100
AcDbEntity
  8
1
  100
AcDbLine
  10
43.38
  20
1.498795
  30
0
  11
43.365
  21
1.499291
  31
0
  0
LINE
  5
143
  100
AcDbEntity
  8
1
  100
AcDbLine
  10
43.365
  20
1.499291
  30
0
  11
43.35
  21
1.499656
  31
0
  0
LINE
  5
144
  100
AcDbEntity
  8
1
  100
AcDbLine
  10
43.35
  20
1.499656
  30
0
  11
43.335
  21
1.49989
  31
0
  0
LINE
  5
145
  100
AcDbEntity
  8
1
  100
AcDbLine
  10
43.335
  20
1.49989
  30
0
  11
43.32
  21
1.499994
  31
0
  0
LINE
  5
146
  100
AcDbEntity
  8
1
  100
AcDbLine
  10
43.32
  20
1.499994
  30
0
  11
43.315527
  21
1.5
  31
0
  0
LINE
  5
147
  100
AcDbEntity
  8
1
  100
AcDbLine
  10
40.5
  20
-0.456318
  30
0
  11
40.5
  21
-0.45636
  31
0
  0
LINE
  5
148
  100
AcDbEntity
  8
1
  100
AcDbLine
  10
40.5
  20
-0.45636
  30
0
  11
40.515
  21
-0.469665
  31
0
  0
LINE
  5
149
  100
AcDbEntity
  8
1
  100
AcDbLine
  10
40.515
  20
-0.469665
  30
0
  11
40.53
  21
-0.482929
  31
0
  0
LINE
  5
14a
  100
AcDbEntity
  8
1
  100
AcDbLine
  10
40.53
  20
-0.482929
  30
0
  11
40.545
  21
-0.496151
  31
0
  0
LINE
  5
14b
  100
AcDbEntity
  8
1
  100
AcDbLine
  10
40.545
  20
-0.496151
  30
0
  11
40.56
  21
-0.509329
  31
0
  0
LINE
  5
14c
  100
AcDbEntity
  8
1
  100
AcDbLine
  10
40.56
  20
-0.509329
  30
0
  11
40.575
  21
-0.522464
  31
0
  0
LINE
  5
14d
  100
AcDbEntity
  8
1
  100
AcDbLine
  10
40.575
  20
-0.522464
  30
0
  11
40.59
  21
-0.535552
  31
0
  0
LINE
  5
14e
  100
AcDbEntity
  8
1
  100
AcDbLine
  10
40.59
  20
-0.535552
  30
0
  11
40.605
  21
-0.548595
  31
0
  0
LINE
  5
14f
  100
AcDbEntity
  8
1
  100
AcDbLine
  10
40.605
  20
-0.548595
  30
0
  11
40.62
  21
-0.561589
  31
0
  0
LINE
  5
150
  100
AcDbEntity
  8
1
  100
AcDbLine
  10
40.62
  20
-0.561589
  30
0
  11
40.635
  21
-0.574535
  31
0
  0
LINE
  5
151
  100
AcDbEntity
  8
1
  100
AcDbLine
  10
40.635
  20
-0.574535
  30
0
  11
40.65
  21
-0.587431
  31
0
  0
LINE
  5
152
  100
AcDbEntity
  8
1
  100
AcDbLine
  10
40.65
  20
-0.587431
  30
0
  11
40.665
  21
-0.600276
  31
0
  0
LINE
  5
153
  100
AcDbEntity
  8
1
  100
AcDbLine
  10
40.665
  20
-0.600276
  30
0
  11
40.68
  21
-0.613068
  31
0
  0
LINE
  5
154
  100
AcDbEntity
  8
1
  100
AcDbLine
  10
40.68
  20
-0.613068
  30
0
  11
40.695
  21
-0.625808
  31
0
  0
LINE
  5
155
  100
AcDbEntity
  8
1
  100
AcDbLine
  10
40.695
  20
-0.625808
  30
0
  11
40.71
  21
-0.638492
  31
0
  0
LINE
  5
156
  100
AcDbEntity
  8
1
  100
AcDbLine
  10
40.71
  20
-0.638492
  30
0
  11
40.725
  21
-0.651122
  31
0
  0
LINE
  5
157
  100
AcDbEntity
  8
1
  100
AcDbLine
  10
40.725
  20
-0.651122
  30
0
  11
40.74
  21
-0.663694
  31
0
  0
LINE
  5
158
  100
AcDbEntity
  8
1
  100
AcDbLine
  10
40.74
  20
-0.663694
  30
0
  11
40.755
  21
-0.676209
  31
0
  0
LINE
  5
159
  100
AcDbEntity
  8
1
  100
AcDbLine
  10
40.755
  20
-0.676209
  30
0
  11
40.77
  21
-0.688666
  31
0
  0
LINE
  5
15a
  100
AcDbEntity
  8
1
  100
AcDbLine
  10
40.77
  20
-0.688666
  30
0
  11
40.785
  21
-0.701062
  31
0
  0
LINE
  5
15b
  100
AcDbEntity
  8
1
  100
AcDbLine
  10
40.785
  20
-0.701062
  30
0
  11
40.8
  21
-0.713397
  31
0
  0
LINE
  5
15c
  100
AcDbEntity
  8
1
  100
AcDbLine
  10
40.8
  20
-0.713397
  30
0
  11
40.815
  21
-0.72567
  31
0
  0
LINE
  5
15d
  100
AcDbEntity
  8
1
  100
AcDbLine
  10
40.815
  20
-0.72567
  30
0
  11
40.83
  21
-0.737881
  31
0
  0
LINE
  5
15e
  100
AcDbEntity
  8
1
  100
AcDbLine
  10
40.83
  20
-0.737881
  30
0
  11
40.845
  21
-0.750027
  31
0
  0
LINE
  5
15f
  100
AcDbEntity
  8
1
  100
AcDbLine
  10
40.845
  20
-0.750027
  30
0
  11
40.86
  21
-0.762107
  31
0
  0
LINE
  5
160
  100
AcDbEntity
  8
1
  100
AcDbLine
  10
40.86
  20
-0.762107
  30
0
  11
40.875
  21
-0.774122
  31
0
  0
LINE
  5
161
  100
AcDbEntity
  8
1
  100
AcDbLine
  10
40.875
  20
-0.774122
  30
0
  11
40.89
  21
-0.786069
  31
0
  0
LINE
  5
162
  100
AcDbEntity
  8
1
  100
AcDbLine
  10
40.89
  20
-0.786069
  30
0
  11
40.905
  21
-0.797948
  31
0
  0
LINE
  5
163
  100
AcDbEntity
  8
1
  100
AcDbLine
  10
40.905
  20
-0.797948
  30
0
  11
40.92
  21
-0.809757
  31
0
  0
LINE
  5
164
  100
AcDbEntity
  8
1
  100
AcDbLine
  10
40.92
  20
-0.809757
  30
0
  11
40.935
  21
-0.821497
  31
0
  0
LINE
  5
165
  100
AcDbEntity
  8
1
  100
AcDbLine
  10
40.935
  20
-0.821497
  30
0
  11
40.95
  21
-0.833164
  31
0
  0
LINE
  5
166
  100
AcDbEntity
  8
1
  100
AcDbLine
  10
40.95
  20
-0.833164
  30
0
  11
40.965
  21
-0.844759
  31
0
  0
LINE
  5
167
  100
AcDbEntity
  8
1
  100
AcDbLine
  10
40.965
  20
-0.844759
  30
0
  11
40.98
  21
-0.856281
  31
0
  0
LINE
  5
168
  100
AcDbEntity
  8
1
  100
AcDbLine
  10
40.98
  20
-0.856281
  30
0
  11
40.995
  21
-0.867728
  31
0
  0
LINE
  5
169
  100
AcDbEntity
  8
1
  100
AcDbLine
  10
40.995
  20
-0.867728
  30
0
  11
41.01
  21
-0.8791
  31
0
  0
LINE
  5
16a
  100
AcDbEntity
  8
1
  100
AcDbLine
  10
41.01
  20
-0.8791
  30
0
  11
41.025
  21
-0.890395
  31
0
  0
LINE
  5
16b
  100
AcDbEntity
  8
1
  100
AcDbLine
  10
41.025
  20
-0.890395
  30
0
  11
41.04
  21
-0.901613
  31
0
  0
LINE
  5
16c
  100
AcDbEntity
  8
1
  100
AcDbLine
  10
41.04
  20
-0.901613
  30
0
  11
41.055
  21
-0.912753
  31
0
  0
LINE
  5
16d
  100
AcDbEntity
  8
1
  100
AcDbLine
  10
41.055
  20
-0.912753
  30
0
  11
41.07
  21
-0.923813
  31
0
  0
LINE
  5
16e
  100
AcDbEntity
  8
1
  100
AcDbLine
  10
41.07
  20
-0.923813
  30
0
  11
41.085
  21
-0.934793
  31
0
  0
LINE
  5
16f
  100
AcDbEntity
  8
1
  100
AcDbLine
  10
41.085
  20
-0.934793
  30
0
  11
41.1
  21
-0.945691
  31
0
  0
LINE
  5
170
  100
AcDbEntity
  8
1
  100
AcDbLine
  10
41.1
  20
-0.945691
  30
0
  11
41.115
  21
-0.956508
  31
0
  0
LINE
  5
171
  100
AcDbEntity
  8
1
  100
AcDbLine
  10
41.115
  20
-0.956508
  30
0
  11
41.13
  21
-0.967241
  31
0
  0
LINE
  5
172
  100
AcDbEntity
  8
1
  100
AcDbLine
  10
41.13
  20
-0.967241
  30
0
  11
41.145
  21
-0.97789
  31
0
  0
LINE
  5
173
  100
AcDbEntity
  8
1
  100
AcDbLine
  10
41.145
  20
-0.97789
  30
0
  11
41.16
  21
-0.988454
  31
0
  0
LINE
  5
174
  100
AcDbEntity
  8
1
  100
AcDbLine
  10
41.16
  20
-0.988454
  30
0
  11
41.175
  21
-0.998932
  31
0
  0
LINE
  5
175
  100
AcDbEntity
  8
1
  100
AcDbLine
  10
41.175
  20
-0.998932
  30
0
  11
41.19
  21
-1.009323
  31
0
  0
LINE
  5
176
  100
AcDbEntity
  8
1
  100
AcDbLine
  10
41.19
  20
-1.009323
  30
0
  11
41.205
  21
-1.019626
  31
0
  0
LINE
  5
177
  100
AcDbEntity
  8
1
  100
AcDbLine
  10
41.205
  20
-1.019626
  30
0
  11
41.22
  21
-1.029841
  31
0
  0
LINE
  5
178
  100
AcDbEntity
  8
1
  100
AcDbLine
  10
41.22
  20
-1.029841
  30
0
  11
41.235
  21
-1.039966
  31
0
  0
LINE
  5
179
  100
AcDbEntity
  8
1
  100
AcDbLine
  10
41.235
  20
-1.039966
  30
0
  11
41.25
  21
-1.050001
  31
0
  0
LINE
  5
17a
  100
AcDbEntity
  8
1
  100
AcDbLine
  10
41.25
  20
-1.050001
  30
0
  11
41.265
  21
-1.059944
  31
0
  0
LINE
  5
17b
  100
AcDbEntity
  8
1
  100
AcDbLine
  10
41.265
  20
-1.059944
  30
0
  11
41.28
  21
-1.069796
  31
0
  0
LINE
  5
17c
  100
AcDbEntity
  8
1
  100
AcDbLine
  10
41.28
  20
-1.069796
  30
0
  11
41.295
  21
-1.079554
  31
0
  0
LINE
  5
17d
  100
AcDbEntity
  8
1
  100
AcDbLine
  10
41.295
  20
-1.079554
  30
0
  11
41.31
  21
-1.089218
  31
0
  0
LINE
  5
17e
  100
AcDbEntity
  8
1
  100
AcDbLine
  10
41.31
  20
-1.089218
  30
0
  11
41.325
  21
-1.098788
  31
0
  0
LINE
  5
17f
  100
AcDbEntity
  8
1
  100
AcDbLine
  10
41.325
  20
-1.098788
  30
0
  11
41.34
  21
-1.108262
  31
0
  0
LINE
  5
180
  100
AcDbEntity
  8
1
  100
AcDbLine
  10
41.34
  20
-1.108262
  30
0
  11
41.355
  21
-1.11764
  31
0
  0
LINE
  5
181
  100
AcDbEntity
  8
1
  100
AcDbLine
  10
41.355
  20
-1.11764
  30
0
  11
41.37
  21
-1.12692
  31
0
  0
LINE
  5
182
  100
AcDbEntity
  8
1
  100
AcDbLine
  10
41.37
  20
-1.12692
  30
0
  11
41.385
  21
-1.136103
  31
0
  0
LINE
  5
183
  100
AcDbEntity
  8
1
  100
AcDbLine
  10
41.385
  20
-1.136103
  30
0
  11
41.4
  21
-1.145186
  31
0
  0
LINE
  5
184
  100
AcDbEntity
  8
1
  100
AcDbLine
  10
41.4
  20
-1.145186
  30
0
  11
41.415
  21
-1.154171
  31
0
  0
LINE
  5
185
  100
AcDbEntity
  8
1
  100
AcDbLine
  10
41.415
  20
-1.154171
  30
0
  11
41.43
  21
-1.163054
  31
0
  0
LINE
  5
186
  100
AcDbEntity
  8
1
  100
AcDbLine
  10
41.43
  20
-1.163054
  30
0
  11
41.445
  21
-1.171837
  31
0
  0
LINE
  5
187
  100
AcDbEntity
  8
1
  100
AcDbLine
  10
41.445
  20
-1.171837
  30
0
  11
41.46
  21
-1.180518
  31
0
  0
LINE
  5
188
  100
AcDbEntity
  8
1
  100
AcDbLine
  10
41.46
  20
-1.180518
  30
0
  11
41.475
  21
-1.189096
  31
0
  0
LINE
  5
189
  100
AcDbEntity
  8
1
  100
AcDbLine
  10
41.475
  20
-1.189096
  30
0
  11
41.49
  21
-1.197571
  31
0
  0
LINE
  5
18a
  100
AcDbEntity
  8
1
  100
AcDbLine
  10
41.49
  20
-1.197571
  30
0
  11
41.505
  21
-1.205941
  31
0
  0
LINE
  5
18b
  100
AcDbEntity
  8
1
  100
AcDbLine
  10
41.505
  20
-1.205941
  30
0
  11
41.52
  21
-1.214207
  31
0
  0
LINE
  5
18c
  100
AcDbEntity
  8
1
  100
AcDbLine
  10
41.52
  20
-1.214207
  30
0
  11
41.535
  21
-1.222367
  31
0
  0
LINE
  5
18d
  100
AcDbEntity
  8
1
  100
AcDbLine
  10
41.535
  20
-1.222367
  30
0
  11
41.55
  21
-1.230421
  31
0
  0
LINE
  5
18e
  100
AcDbEntity
  8
1
  100
AcDbLine
  10
41.55
  20
-1.230421
  30
0
  11
41.565
  21
-1.238368
  31
0
  0
LINE
  5
18f
  100
AcDbEntity
  8
1
  100
AcDbLine
  10
41.565
  20
-1.238368
  30
0
  11
41.58
  21
-1.246207
  31
0
  0
LINE
  5
190
  100
AcDbEntity
  8
1
  100
AcDbLine
  10
41.58
  20
-1.246207
  30
0
  11
41.595
  21
-1.253938
  31
0
  0
LINE
  5
191
  100
AcDbEntity
  8
1
  100
AcDbLine
  10
41.595
  20
-1.253938
  30
0
  11
41.61
  21
-1.261559
  31
0
  0
LINE
  5
192
  100
AcDbEntity
  8
1
  100
AcDbLine
  10
41.61
  20
-1.261559
  30
0
  11
41.625
  21
-1.269071
  31
0
  0
LINE
  5
193
  100
AcDbEntity
  8
1
  100
AcDbLine
  10
41.625
  20
-1.269071
  30
0
  11
41.64
  21
-1.276473
  31
0
  0
LINE
  5
194
  100
AcDbEntity
  8
1
  100
AcDbLine
  10
41.64
  20
-1.276473
  30
0
  11
41.655
  21
-1.283764
  31
0
  0
LINE
  5
195
  100
AcDbEntity
  8
1
  100
AcDbLine
  10
41.655
  20
-1.283764
  30
0
  11
41.67
  21
-1.290943
  31
0
  0
LINE
  5
196
  100
AcDbEntity
  8
1
  100
AcDbLine
  10
41.67
  20
-1.290943
  30
0
  11
41.685
  21
-1.29801
  31
0
  0
LINE
  5
197
  100
AcDbEntity
  8
1
  100
AcDbLine
  10
41.685
  20
-1.29801
  30
0
  11
41.7
  21
-1.304963
  31
0
  0
LINE
  5
198
  100
AcDbEntity
  8
1
  100
AcDbLine
  10
41.7
  20
-1.304963
  30
0
  11
41.715
  21
-1.311804
  31
0
  0
LINE
  5
199
  100
AcDbEntity
  8
1
  100
AcDbLine
  10
41.715
  20
-1.311804
  30
0
  11
41.73
  21
-1.31853
  31
0
  0
LINE
  5
19a
  100
AcDbEntity
  8
1
  100
AcDbLine
  10
41.73
  20
-1.31853
  30
0
  11
41.745
  21
-1.325142
  31
0
  0
LINE
  5
19b
  100
AcDbEntity
  8
1
  100
AcDbLine
  10
41.745
  20
-1.325142
  30
0
  11
41.76
  21
-1.331638
  31
0
  0
LINE
  5
19c
  100
AcDbEntity
  8
1
  100
AcDbLine
  10
41.76
  20
-1.331638
  30
0
  11
41.775
  21
-1.338019
  31
0
  0
LINE
  5
19d
  100
AcDbEntity
  8
1
  100
AcDbLine
  10
41.775
  20
-1.338019
  30
0
  11
41.79
  21
-1.344283
  31
0
  0
LINE
  5
19e
  100
AcDbEntity
  8
1
  100
AcDbLine
  10
41.79
  20
-1.344283
  30
0
  11
41.805
  21
-1.350431
  31
0
  0
LINE
  5
19f
  100
AcDbEntity
  8
1
  100
AcDbLine
  10
41.805
  20
-1.350431
  30
0
  11
41.82
  21
-1.356461
  31
0
  0
LINE
  5
1a0
  100
AcDbEntity
  8
1
  100
AcDbLine
  10
41.82
  20
-1.356461
  30
0
  11
41.835
  21
-1.362373
  31
0
  0
LINE
  5
1a1
  100
AcDbEntity
  8
1
  100
AcDbLine
  10
41.835
  20
-1.362373
  30
0
  11
41.85
  21
-1.368166
  31
0
  0
LINE
  5
1a2
  100
AcDbEntity
  8
1
  100
AcDbLine
  10
41.85
  20
-1.368166
  30
0
  11
41.865
  21
-1.373841
  31
0
  0
LINE
  5
1a3
  100
AcDbEntity
  8
1
  100
AcDbLine
  10
41.865
  20
-1.373841
  30
0
  11
41.88
  21
-1.379396
  31
0
  0
LINE
  5
1a4
  100
AcDbEntity
  8
1
  100
AcDbLine
  10
41.88
  20
-1.379396
  30
0
  11
41.895
  21
-1.384831
  31
0
  0
LINE
  5
1a5
  100
AcDbEntity
  8
1
  100
AcDbLine
  10
41.895
  20
-1.384831
  30
0
  11
41.91
  21
-1.390146
  31
0
  0
LINE
  5
1a6
  100
AcDbEntity
  8
1
  100
AcDbLine
  10
41.91
  20
-1.390146
  30
0
  11
41.925
  21
-1.39534
  31
0
  0
LINE
  5
1a7
  100
AcDbEntity
  8
1
  100
AcDbLine
  10
41.925
  20
-1.39534
  30
0
  11
41.94
  21
-1.400413
  31
0
  0
LINE
  5
1a8
  100
AcDbEntity
  8
1
  100
AcDbLine
  10
41.94
  20
-1.400413
  30
0
  11
41.955
  21
-1.405363
  31
0
  0
LINE
  5
1a9
  100
AcDbEntity
  8
1
  100
AcDbLine
  10
41.955
  20
-1.405363
  30
0
  11
41.97
  21
-1.410192
  31
0
  0
LINE
  5
1aa
  100
AcDbEntity
  8
1
  100
AcDbLine
  10
41.97
  20
-1.410192
  30
0
  11
41.985
  21
-1.414898
  31
0
  0
LINE
  5
1ab
  100
AcDbEntity
  8
1
  100
AcDbLine
  10
41.985
  20
-1.414898
  30
0
  11
42
  21
-1.419481
  31
0
  0
LINE
  5
1ac
  100
AcDbEntity
  8
1
  100
AcDbLine
  10
42
  20
-1.419481
  30
0
  11
42.015
  21
-1.42394
  31
0
  0
LINE
  5
1ad
  100
AcDbEntity
  8
1
  100
AcDbLine
  10
42.015
  20
-1.42394
  30
0
  11
42.03
  21
-1.428276
  31
0
  0
LINE
  5
1ae
  100
AcDbEntity
  8
1
  100
AcDbLine
  10
42.03
  20
-1.428276
  30
0
  11
42.045
  21
-1.432487
  31
0
  0
LINE
  5
1af
  100
AcDbEntity
  8
1
  100
AcDbLine
  10
42.045
  20
-1.432487
  30
0
  11
42.06
  21
-1.436574
  31
0
  0
LINE
  5
1b0
  100
AcDbEntity
  8
1
  100
AcDbLine
  10
42.06
  20
-1.436574
  30
0
  11
42.075
  21
-1.440536
  31
0
  0
LINE
  5
1b1
  100
AcDbEntity
  8
1
  100
AcDbLine
  10
42.075
  20
-1.440536
  30
0
  11
42.09
  21
-1.444373
  31
0
  0
LINE
  5
1b2
  100
AcDbEntity
  8
1
  100
AcDbLine
  10
42.09
  20
-1.444373
  30
0
  11
42.105
  21
-1.448084
  31
0
  0
LINE
  5
1b3
  100
AcDbEntity
  8
1
  100
AcDbLine
  10
42.105
  20
-1.448084
  30
0
  11
42.12
  21
-1.451669
  31
0
  0
LINE
  5
1b4
  100
AcDbEntity
  8
1
  100
AcDbLine
  10
42.12
  20
-1.451669
  30
0
  11
42.135
  21
-1.455128
  31
0
  0
LINE
  5
1b5
  100
AcDbEntity
  8
1
  100
AcDbLine
  10
42.135
  20
-1.455128
  30
0
  11
42.15
  21
-1.45846
  31
0
  0
LINE
  5
1b6
  100
AcDbEntity
  8
1
  100
AcDbLine
  10
42.15
  20
-1.45846
  30
0
  11
42.165
  21
-1.461666
  31
0
  0
LINE
  5
1b7
  100
AcDbEntity
  8
1
  100
AcDbLine
  10
42.165
  20
-1.461666
  30
0
  11
42.18
  21
-1.464745
  31
0
  0
LINE
  5
1b8
  100
AcDbEntity
  8
1
  100
AcDbLine
  10
42.18
  20
-1.464745
  30
0
  11
42.195
  21
-1.467696
  31
0
  0
LINE
  5
1b9
  100
AcDbEntity
  8
1
  100
AcDbLine
  10
42.195
  20
-1.467696
  30
0
  11
42.21
  21
-1.470519
  31
0
  0
LINE
  5
1ba
  100
AcDbEntity
  8
1
  100
AcDbLine
  10
42.21
  20
-1.470519
  30
0
  11
42.225
  21
-1.473215
  31
0
  0
LINE
  5
1bb
  100
AcDbEntity
  8
1
  100
AcDbLine
  10
42.225
  20
-1.473215
  30
0
  11
42.24
  21
-1.475782
  31
0
  0
LINE
  5
1bc
  100
AcDbEntity
  8
1
  100
AcDbLine
  10
42.24
  20
-1.475782
  30
0
  11
42.255
  21
-1.478221
  31
0
  0
LINE
  5
1bd
  100
AcDbEntity
  8
1
  100
AcDbLine
  10
42.255
  20
-1.478221
  30
0
  11
42.27
  21
-1.480532
  31
0
  0
LINE
  5
1be
  100
AcDbEntity
  8
1
  100
AcDbLine
  10
42.27
  20
-1.480532
  30
0
  11
42.285
  21
-1.482714
  31
0
  0
LINE
  5
1bf
  100
AcDbEntity
  8
1
  100
AcDbLine
  10
42.285
  20
-1.482714
  30
0
  11
42.3
  21
-1.484767
  31
0
  0
LINE
  5
1c0
  100
AcDbEntity
  8
1
  100
AcDbLine
  10
42.3
  20
-1.484767
  30
0
  11
42.315
  21
-1.486691
  31
0
  0
LINE
  5
1c1
  100
AcDbEntity
  8
1
  100
AcDbLine
  10
42.315
  20
-1.486691
  30
0
  11
42.33
  21
-1.488485
  31
0
  0
LINE
  5
1c2
  100
AcDbEntity
  8
1
  100
AcDbLine
  10
42.33
  20
-1.488485
  30
0
  11
42.345
  21
-1.49015
  31
0
  0
LINE
  5
1c3
  100
AcDbEntity
  8
1
  100
AcDbLine
  10
42.345
  20
-1.49015
  30
0
  11
42.36
  21
-1.491686
  31
0
  0
LINE
  5
1c4
  100
AcDbEntity
  8
1
  100
AcDbLine
  10
42.36
  20
-1.491686
  30
0
  11
42.375
  21
-1.493092
  31
0
  0
LINE
  5
1c5
  100
AcDbEntity
  8
1
  100
AcDbLine
  10
42.375
  20
-1.493092
  30
0
  11
42.39
  21
-1.494368
  31
0
  0
LINE
  5
1c6
  100
AcDbEntity
  8
1
  100
AcDbLine
  10
42.39
  20
-1.494368
  30
0
  11
42.405
  21
-1.495514
  31
0
  0
LINE
  5
1c7
  100
AcDbEntity
  8
1
  100
AcDbLine
  10
42.405
  20
-1.495514
  30
0
  11
42.42
  21
-1.49653
  31
0
  0
LINE
  5
1c8
  100
AcDbEntity
  8
1
  100
AcDbLine
  10
42.42
  20
-1.49653
  30
0
  11
42.435
  21
-1.497416
  31
0
  0
LINE
  5
1c9
  100
AcDbEntity
  8
1
  100
AcDbLine
  10
42.435
  20
-1.497416
  30
0
  11
42.45
  21
-1.498171
  31
0
  0
LINE
  5
1ca
  100
AcDbEntity
  8
1
  100
AcDbLine
  10
42.45
  20
-1.498171
  30
0
  11
42.465
  21
-1.498797
  31
0
  0
LINE
  5
1cb
  100
AcDbEntity
  8
1
  100
AcDbLine
  10
42.465
  20
-1.498797
  30
0
  11
42.48
  21
-1.499292
  31
0
  0
LINE
  5
1cc
  100
AcDbEntity
  8
1
  100
AcDbLine
  10
42.48
  20
-1.499292
  30
0
  11
42.495
  21
-1.499656
  31
0
  0
LINE
  5
1cd
  100
AcDbEntity
  8
1
  100
AcDbLine
  10
42.495
  20
-1.499656
  30
0
  11
42.51
  21
-1.49989
  31
0
  0
LINE
  5
1ce
  100
AcDbEntity
  8
1
  100
AcDbLine
  10
42.51
  20
-1.49989
  30
0
  11
42.525
  21
-1.499994
  31
0
  0
LINE
  5
1cf
  100
AcDbEntity
  8
1
  100
AcDbLine
  10
42.525
  20
-1.499994
  30
0
  11
42.52944
  21
-1.5
  31
0
  0
LINE
  5
1d0
  100
AcDbEntity
  8
1
  100
AcDbLine
  10
40.5
  20
-1.028781
  30
0
  11
40.5
  21
-1.028824
  31
0
  0
LINE
  5
1d1
  100
AcDbEntity
  8
1
  100
AcDbLine
  10
40.5
  20
-1.028824
  30
0
  11
40.515
  21
-1.038718
  31
0
  0
LINE
  5
1d2
  100
AcDbEntity
  8
1
  100
AcDbLine
  10
40.515
  20
-1.038718
  30
0
  11
40.53
  21
-1.048521
  31
0
  0
LINE
  5
1d3
  100
AcDbEntity
  8
1
  100
AcDbLine
  10
40.53
  20
-1.048521
  30
0
  11
40.545
  21
-1.058234
  31
0
  0
LINE
  5
1d4
  100
AcDbEntity
  8
1
  100
AcDbLine
  10
40.545
  20
-1.058234
  30
0
  11
40.56
  21
-1.067854
  31
0
  0
LINE
  5
1d5
  100
AcDbEntity
  8
1
  100
AcDbLine
  10
40.56
  20
-1.067854
  30
0
  11
40.575
  21
-1.077381
  31
0
  0
LINE
  5
1d6
  100
AcDbEntity
  8
1
  100
AcDbLine
  10
40.575
  20
-1.077381
  30
0
  11
40.59
  21
-1.086815
  31
0
  0
LINE
  5
1d7
  100
AcDbEntity
  8
1
  100
AcDbLine
  10
40.59
  20
-1.086815
  30
0
  11
40.605
  21
-1.096154
  31
0
  0
LINE
  5
1d8
  100
AcDbEntity
  8
1
  100
AcDbLine
  10
40.605
  20
-1.096154
  30
0
  11
40.62
  21
-1.105397
  31
0
  0
LINE
  5
1d9
  100
AcDbEntity
  8
1
  100
AcDbLine
  10
40.62
  20
-1.105397
  30
0
  11
40.635
  21
-1.114545
  31
0
  0
LINE
  5
1da
  100
AcDbEntity
  8
1
  100
AcDbLine
  10
40.635
  20
-1.114545
  30
0
  11
40.65
  21
-1.123596
  31
0
  0
LINE
  5
1db
  100
AcDbEntity
  8
1
  100
AcDbLine
  10
40.65
  20
-1.123596
  30
0
  11
40.665
  21
-1.132549
  31
0
  0
LINE
  5
1dc
  100
AcDbEntity
  8
1
  100
AcDbLine
  10
40.665
  20
-1.132549
  30
0
  11
40.68
  21
-1.141403
  31
0
  0
LINE
  5
1dd
  100
AcDbEntity
  8
1
  100
AcDbLine
  10
40.68
  20
-1.141403
  30
0
  11
40.695
  21
-1.150158
  31
0
  0
LINE
  5
1de
  100
AcDbEntity
  8
1
  100
AcDbLine
  10
40.695
  20
-1.150158
  30
0
  11
40.71
  21
-1.158814
  31
0
  0
LINE
  5
1df
  100
AcDbEntity
  8
1
  100
AcDbLine
  10
40.71
  20
-1.158814
  30
0
  11
40.725
  21
-1.167368
  31
0
  0
LINE
  5
1e0
  100
AcDbEntity
  8
1
  100
AcDbLine
  10
40.725
  20
-1.167368
  30
0
  11
40.74
  21
-1.175821
  31
0
  0
LINE
  5
1e1
  100
AcDbEntity
  8
1
  100
AcDbLine
  10
40.74
  20
-1.175821
  30
0
  11
40.755
  21
-1.184172
  31
0
  0
LINE
  5
1e2
  100
AcDbEntity
  8
1
  100
AcDbLine
  10
40.755
  20
-1.184172
  30
0
  11
40.77
  21
-1.19242
  31
0
  0
LINE
  5
1e3
  100
AcDbEntity
  8
1
  100
AcDbLine
  10
40.77
  20
-1.19242
  30
0
  11
40.785
  21
-1.200564
  31
0
  0
LINE
  5
1e4
  100
AcDbEntity
  8
1
  100
AcDbLine
  10
40.785
  20
-1.200564
  30
0
  11
40.8
  21
-1.208603
  31
0
  0
LINE
  5
1e5
  100
AcDbEntity
  8
1
  100
AcDbLine
  10
40.8
  20
-1.208603
  30
0
  11
40.815
  21
-1.216538
  31
0
  0
LINE
  5
1e6
  100
AcDbEntity
  8
1
  100
AcDbLine
  10
40.815
  20
-1.216538
  30
0
  11
40.83
  21
-1.224367
  31
0
  0
LINE
  5
1e7
  100
AcDbEntity
  8
1
  100
AcDbLine
  10
40.83
  20
-1.224367
  30
0
  11
40.845
  21
-1.232089
  31
0
  0
LINE
  5
1e8
  100
AcDbEntity
  8
1
  100
AcDbLine
  10
40.845
  20
-1.232089
  30
0
  11
40.86
  21
-1.239704
  31
0
  0
LINE
  5
1e9
  100
AcDbEntity
  8
1
  100
AcDbLine
  10
40.86
  20
-1.239704
  30
0
  11
40.875
  21
-1.247212
  31
0
  0
LINE
  5
1ea
  100
AcDbEntity
  8
1
  100
AcDbLine
  10
40.875
  20
-1.247212
  30
0
  11
40.89
  21
-1.25461
  31
0
  0
LINE
  5
1eb
  100
AcDbEntity
  8
1
  100
AcDbLine
  10
40.89
  20
-1.25461
  30
0
  11
40.905
  21
-1.2619
  31
0
  0
LINE
  5
1ec
  100
AcDbEntity
  8
1
  100
AcDbLine
  10
40.905
  20
-1.2619
  30
0
  11
40.92
  21
-1.26908
  31
0
  0
LINE
  5
1ed
  100
AcDbEntity
  8
1
  100
AcDbLine
  10
40.92
  20
-1.26908
  30
0
  11
40.935
  21
-1.27615
  31
0
  0
LINE
  5
1ee
  100
AcDbEntity
  8
1
  100
AcDbLine
  10
40.935
  20
-1.27615
  30
0
  11
40.95
  21
-1.283109
  31
0
  0
LINE
  5
1ef
  100
AcDbEntity
  8
1
  100
AcDbLine
  10
40.95
  20
-1.283109
  30
0
  11
40.965
  21
-1.289956
  31
0
  0
LINE
  5
1f0
  100
AcDbEntity
  8
1
  100
AcDbLine
  10
40.965
  20
-1.289956
  30
0
  11
40.98
  21
-1.296691
  31
0
  0
LINE
  5
1f1
  100
AcDbEntity
  8
1
  100
AcDbLine
  10
40.98
  20
-1.296691
  30
0
  11
40.995
  21
-1.303313
  31
0
  0
LINE
  5
1f2
  100
AcDbEntity
  8
1
  100
AcDbLine
  10
40.995
  20
-1.303313
  30
0
  11
41.01
  21
-1.309822
  31
0
  0
LINE
  5
1f3
  100
AcDbEntity
  8
1
  100
AcDbLine
  10
41.01
  20
-1.309822
  30
0
  11
41.025
  21
-1.316217
  31
0
  0
LINE
  5
1f4
  100
AcDbEntity
  8
1
  100
AcDbLine
  10
41.025
  20
-1.316217
  30
0
  11
41.04
  21
-1.322498
  31
0
  0
LINE
  5
1f5
  100
AcDbEntity
  8
1
  100
AcDbLine
  10
41.04
  20
-1.322498
  30
0
  11
41.055
  21
-1.328663
  31
0
  0
LINE
  5
1f6
  100
AcDbEntity
  8
1
  100
AcDbLine
  10
41.055
  20
-1.328663
  30
0
  11
41.07
  21
-1.334713
  31
0
  0
LINE
  5
1f7
  100
AcDbEntity
  8
1
  100
AcDbLine
  10
41.07
  20
-1.334713
  30
0
  11
41.085
  21
-1.340647
  31
0
  0
LINE
  5
1f8
  100
AcDbEntity
  8
1
  100
AcDbLine
  10
41.085
  20
-1.340647
  30
0
  11
41.1
  21
-1.346465
  31
0
  0
LINE
  5
1f9
  100
AcDbEntity
  8
1
  100
AcDbLine
  10
41.1
  20
-1.346465
  30
0
  11
41.115
  21
-1.352165
  31
0
  0
LINE
  5
1fa
  100
AcDbEntity
  8
1
  100
AcDbLine
  10
41.115
  20
-1.352165
  30
0
  11
41.13
  21
-1.357748
  31
0
  0
LINE
  5
1fb
  100
AcDbEntity
  8
1
  100
AcDbLine
  10
41.13
  20
-1.357748
  30
0
  11
41.145
  21
-1.363212
  31
0
  0
LINE
  5
1fc
  100
AcDbEntity
  8
1
  100
AcDbLine
  10
41.145
  20
-1.363212
  30
0
  11
41.16
  21
-1.368558
  31
0
  0
LINE
  5
1fd
  100
AcDbEntity
  8
1
  100
AcDbLine
  10
41.16
  20
-1.368558
  30
0
  11
41.175
  21
-1.373786
  31
0
  0
LINE
  5
1fe
  100
AcDbEntity
  8
1
  100
AcDbLine
  10
41.175
  20
-1.373786
  30
0
  11
41.19
  21
-1.378893
  31
0
  0
LINE
  5
1ff
  100
AcDbEntity
  8
1
  100
AcDbLine
  10
41.19
  20
-1.378893
  30
0
  11
41.205
  21
-1.383881
  31
0
  0
LINE
  5
200
  100
AcDbEntity
  8
1
  100
AcDbLine
  10
41.205
  20
-1.383881
  30
0
  11
41.22
  21
-1.388748
  31
0
  0
LINE
  5
201
  100
AcDbEntity
  8
1
  100
AcDbLine
  10
41.22
  20
-1.388748
  30
0
  11
41.235
  21
-1.393495
  31
0
  0
LINE
  5
202
  100
AcDbEntity
  8
1
  100
AcDbLine
  10
41.235
  20
-1.393495
  30
0
  11
41.25
  21
-1.39812
  31
0
  0
LINE
  5
203
  100
AcDbEntity
  8
1
  100
AcDbLine
  10
41.25
  20
-1.39812
  30
0
  11
41.265
  21
-1.402624
  31
0
  0
LINE
  5
204
  100
AcDbEntity
  8
1
  100
AcDbLine
  10
41.265
  20
-1.402624
  30
0
  11
41.28
  21
-1.407006
  31
0
  0
LINE
  5
205
  100
AcDbEntity
  8
1
  100
AcDbLine
  10
41.28
  20
-1.407006
  30
0
  11
41.295
  21
-1.411266
  31
0
  0
LINE
  5
206
  100
AcDbEntity
  8
1
  100
AcDbLine
  10
41.295
  20
-1.411266
  30
0
  11
41.31
  21
-1.415403
  31
0
  0
LINE
  5
207
  100
AcDbEntity
  8
1
  100
AcDbLine
  10
41.31
  20
-1.415403
  30
0
  11
41.325
  21
-1.419416
  31
0
  0
LINE
  5
208
  100
AcDbEntity
  8
1
  100
AcDbLine
  10
41.325
  20
-1.419416
  30
0
  11
41.34
  21
-1.423307
  31
0
  0
LINE
  5
209
  100
AcDbEntity
  8
1
  100
AcDbLine
  10
41.34
  20
-1.423307
  30
0
  11
41.355
  21
-1.427073
  31
0
  0
LINE
  5
20a
  100
AcDbEntity
  8
1
  100
AcDbLine
  10
41.355
  20
-1.427073
  30
0
  11
41.37
  21
-1.430716
  31
0
  0
LINE
  5
20b
  100
AcDbEntity
  8
1
  100
AcDbLine
  10
41.37
  20
-1.430716
  30
0
  11
41.385
  21
-1.434234
  31
0
  0
LINE
  5
20c
  100
AcDbEntity
  8
1
  100
AcDbLine
  10
41.385
  20
-1.434234
  30
0
  11
41.4
  21
-1.437627
  31
0
  0
LINE
  5
20d
  100
AcDbEntity
  8
1
  100
AcDbLine
  10
41.4
  20
-1.437627
  30
0
  11
41.415
  21
-1.440895
  31
0
  0
LINE
  5
20e
  100
AcDbEntity
  8
1
  100
AcDbLine
  10
41.415
  20
-1.440895
  30
0
  11
41.43
  21
-1.444038
  31
0
  0
LINE
  5
20f
  100
AcDbEntity
  8
1
  100
AcDbLine
  10
41.43
  20
-1.444038
  30
0
  11
41.445
  21
-1.447056
  31
0
  0
LINE
  5
210
  100
AcDbEntity
  8
1
  100
AcDbLine
  10
41.445
  20
-1.447056
  30
0
  11
41.46
  21
-1.449948
  31
0
  0
LINE
  5
211
  100
AcDbEntity
  8
1
  100
AcDbLine
  10
41.46
  20
-1.449948
  30
0
  11
41.475
  21
-1.452713
  31
0
  0
LINE
  5
212
  100
AcDbEntity
  8
1
  100
AcDbLine
  10
41.475
  20
-1.452713
  30
0
  11
41.49
  21
-1.455352
  31
0
  0
LINE
  5
213
  100
AcDbEntity
  8
1
  100
AcDbLine
  10
41.49
  20
-1.455352
  30
0
  11
41.505
  21
-1.457865
  31
0
  0
LINE
  5
214
  100
AcDbEntity
  8
1
  100
AcDbLine
  10
41.505
  20
-1.457865
  30
0
  11
41.52
  21
-1.460251
  31
0
  0
LINE
  5
215
  100
AcDbEntity
  8
1
  100
AcDbLine
  10
41.52
  20
-1.460251
  30
0
  11
41.535
  21
-1.46251
  31
0
  0
LINE
  5
216
  100
AcDbEntity
  8
1
  100
AcDbLine
  10
41.535
  20
-1.46251
  30
0
  11
41.55
  21
-1.464641
  31
0
  0
LINE
  5
217
  100
AcDbEntity
  8
1
  100
AcDbLine
  10
41.55
  20
-1.464641
  30
0
  11
41.565
  21
-1.466646
  31
0
  0
LINE
  5
218
  100
AcDbEntity
  8
1
  100
AcDbLine
  10
41.565
  20
-1.466646
  30
0
  11
41.58
  21
-1.468523
  31
0
  0
LINE
  5
219
  100
AcDbEntity
  8
1
  100
AcDbLine
  10
41.58
  20
-1.468523
  30
0
  11
41.595
  21
-1.470272
  31
0
  0
LINE
  5
21a
  100
AcDbEntity
  8
1
  100
AcDbLine
  10
41.595
  20
-1.470272
  30
0
  11
41.61
  21
-1.471893
  31
0
  0
LINE
  5
21b
  100
AcDbEntity
  8
1
  100
AcDbLine
  10
41.61
  20
-1.471893
  30
0
  11
41.625
  21
-1.473386
  31
0
  0
LINE
  5
21c
  100
AcDbEntity
  8
1
  100
AcDbLine
  10
41.625
  20
-1.473386
  30
0
  11
41.64
  21
-1.474751
  31
0
  0
LINE
  5
21d
  100
AcDbEntity
  8
1
  100
AcDbLine
  10
41.64
  20
-1.474751
  30
0
  11
41.655
  21
-1.475988
  31
0
  0
LINE
  5
21e
  100
AcDbEntity
  8
1
  100
AcDbLine
  10
41.655
  20
-1.475988
  30
0
  11
41.67
  21
-1.477097
  31
0
  0
LINE
  5
21f
  100
AcDbEntity
  8
1
  100
AcDbLine
  10
41.67
  20
-1.477097
  30
0
  11
41.685
  21
-1.478077
  31
0
  0
LINE
  5
220
  100
AcDbEntity
  8
1
  100
AcDbLine
  10
41.685
  20
-1.478077
  30
0
  11
41.7
  21
-1.478929
  31
0
  0
LINE
  5
221
  100
AcDbEntity
  8
1
  100
AcDbLine
  10
41.7
  20
-1.478929
  30
0
  11
41.715
  21
-1.479652
  31
0
  0
LINE
  5
222
  100
AcDbEntity
  8
1
  100
AcDbLine
  10
41.715
  20
-1.479652
  30
0
  11
41.73
  21
-1.480246
  31
0
  0
LINE
  5
223
  100
AcDbEntity
  8
1
  100
AcDbLine
  10
41.73
  20
-1.480246
  30
0
  11
41.745
  21
-1.480712
  31
0
  0
LINE
  5
224
  100
AcDbEntity
  8
1
  100
AcDbLine
  10
41.745
  20
-1.480712
  30
0
  11
41.76
  21
-1.481048
  31
0
  0
LINE
  5
225
  100
AcDbEntity
  8
1
  100
AcDbLine
  10
41.76
  20
-1.481048
  30
0
  11
41.775
  21
-1.481257
  31
0
  0
LINE
  5
226
  100
AcDbEntity
  8
1
  100
AcDbLine
  10
41.775
  20
-1.481257
  30
0
  11
41.79
  21
-1.481336
  31
0
  0
LINE
  5
227
  100
AcDbEntity
  8
1
  100
AcDbLine
  10
41.79
  20
-1.481336
  30
0
  11
41.791729
  21
-1.5
  31
0
  0
LINE
  5
228
  100
AcDbEntity
  8
1
  100
AcDbLine
  10
41.631054
  20
-1.5
  30
0
  11
41.625
  21
-1.499989
  31
0
  0
LINE
  5
229
  100
AcDbEntity
  8
1
  100
AcDbLine
  10
41.625
  20
-1.499989
  30
0
  11
41.61
  21
-1.499872
  31
0
  0
LINE
  5
22a
  100
AcDbEntity
  8
1
  100
AcDbLine
  10
41.61
  20
-1.499872
  30
0
  11
41.595
  21
-1.499623
  31
0
  0
LINE
  5
22b
  100
AcDbEntity
  8
1
  100
AcDbLine
  10
41.595
  20
-1.499623
  30
0
  11
41.58
  21
-1.499245
  31
0
  0
LINE
  5
22c
  100
AcDbEntity
  8
1
  100
AcDbLine
  10
41.58
  20
-1.499245
  30
0
  11
41.565
  21
-1.498735
  31
0
  0
LINE
  5
22d
  100
AcDbEntity
  8
1
  100
AcDbLine
  10
41.565
  20
-1.498735
  30
0
  11
41.55
  21
-1.498096
  31
0
  0
LINE
  5
22e
  100
AcDbEntity
  8
1
  100
AcDbLine
  10
41.55
  20
-1.498096
  30
0
  11
41.535
  21
-1.497326
  31
0
  0
LINE
  5
22f
  100
AcDbEntity
  8
1
  100
AcDbLine
  10
41.535
  20
-1.497326
  30
0
  11
41.52
  21
-1.496427
  31
0
  0
LINE
  5
230
  100
AcDbEntity
  8
1
  100
AcDbLine
  10
41.52
  20
-1.496427
  30
0
  11
41.505
  21
-1.495397
  31
0
  0
LINE
  5
231
  100
AcDbEntity
  8
1
  100
AcDbLine
  10
41.505
  20
-1.495397
  30
0
  11
41.49
  21
-1.494237
  31
0
  0
LINE
  5
232
  100
AcDbEntity
  8
1
  100
AcDbLine
  10
41.49
  20
-1.494237
  30
0
  11
41.475
  21
-1.492947
  31
0
  0
LINE
  5
233
  100
AcDbEntity
  8
1
  100
AcDbLine
  10
41.475
  20
-1.492947
  30
0
  11
41.46
  21
-1.491527
  31
0
  0
LINE
  5
234
  100
AcDbEntity
  8
1
  100
AcDbLine
  10
41.46
  20
-1.491527
  30
0
  11
41.445
  21
-1.489977
  31
0
  0
LINE
  5
235
  100
AcDbEntity
  8
1
  100
AcDbLine
  10
41.445
  20
-1.489977
  30
0
  11
41.43
  21
-1.488298
  31
0
  0
LINE
  5
236
  100
AcDbEntity
  8
1
  100
AcDbLine
  10
41.43
  20
-1.488298
  30
0
  11
41.415
  21
-1.48649
  31
0
  0
LINE
  5
237
  100
AcDbEntity
  8
1
  100
AcDbLine
  10
41.415
  20
-1.48649
  30
0
  11
41.4
  21
-1.484552
  31
0
  0
LINE
  5
238
  100
AcDbEntity
  8
1
  100
AcDbLine
  10
41.4
  20
-1.484552
  30
0
  11
41.385
  21
-1.482485
  31
0
  0
LINE
  5
239
  100
AcDbEntity
  8
1
  100
AcDbLine
  10
41.385
  20
-1.482485
  30
0
  11
41.37
  21
-1.480289
  31
0
  0
LINE
  5
23a
  100
AcDbEntity
  8
1
  100
AcDbLine
  10
41.37
  20
-1.480289
  30
0
  11
41.355
  21
-1.477965
  31
0
  0
LINE
  5
23b
  100
AcDbEntity
  8
1
  100
AcDbLine
  10
41.355
  20
-1.477965
  30
0
  11
41.34
  21
-1.475512
  31
0
  0
LINE
  5
23c
  100
AcDbEntity
  8
1
  100
AcDbLine
  10
41.34
  20
-1.475512
  30
0
  11
41.325
  21
-1.472931
  31
0
  0
LINE
  5
23d
  100
AcDbEntity
  8
1
  100
AcDbLine
  10
41.325
  20
-1.472931
  30
0
  11
41.31
  21
-1.470221
  31
0
  0
LINE
  5
23e
  100
AcDbEntity
  8
1
  100
AcDbLine
  10
41.31
  20
-1.470221
  30
0
  11
41.295
  21
-1.467384
  31
0
  0
LINE
  5
23f
  100
AcDbEntity
  8
1
  100
AcDbLine
  10
41.295
  20
-1.467384
  30
0
  11
41.28
  21
-1.464419
  31
0
  0
LINE
  5
240
  100
AcDbEntity
  8
1
  100
AcDbLine
  10
41.28
  20
-1.464419
  30
0
  11
41.265
  21
-1.461327
  31
0
  0
LINE
  5
241
  100
AcDbEntity
  8
1
  100
AcDbLine
  10
41.265
  20
-1.461327
  30
0
  11
41.25
  21
-1.458108
  31
0
  0
LINE
  5
242
  100
AcDbEntity
  8
1
  100
AcDbLine
  10
41.25
  20
-1.458108
  30
0
  11
41.235
  21
-1.454762
  31
0
  0
LINE
  5
243
  100
AcDbEntity
  8
1
  100
AcDbLine
  10
41.235
  20
-1.454762
  30
0
  11
41.22
  21
-1.451289
  31
0
  0
LINE
  5
244
  100
AcDbEntity
  8
1
  100
AcDbLine
  10
41.22
  20
-1.451289
  30
0
  11
41.205
  21
-1.447691
  31
0
  0
LINE
  5
245
  100
AcDbEntity
  8
1
  100
AcDbLine
  10
41.205
  20
-1.447691
  30
0
  11
41.19
  21
-1.443966
  31
0
  0
LINE
  5
246
  100
AcDbEntity
  8
1
  100
AcDbLine
  10
41.19
  20
-1.443966
  30
0
  11
41.175
  21
-1.440116
  31
0
  0
LINE
  5
247
  100
AcDbEntity
  8
1
  100
AcDbLine
  10
41.175
  20
-1.440116
  30
0
  11
41.16
  21
-1.43614
  31
0
  0
LINE
  5
248
  100
AcDbEntity
  8
1
  100
AcDbLine
  10
41.16
  20
-1.43614
  30
0
  11
41.145
  21
-1.43204
  31
0
  0
LINE
  5
249
  100
AcDbEntity
  8
1
  100
AcDbLine
  10
41.145
  20
-1.43204
  30
0
  11
41.13
  21
-1.427815
  31
0
  0
LINE
  5
24a
  100
AcDbEntity
  8
1
  100
AcDbLine
  10
41.13
  20
-1.427815
  30
0
  11
41.115
  21
-1.423466
  31
0
  0
LINE
  5
24b
  100
AcDbEntity
  8
1
  100
AcDbLine
  10
41.115
  20
-1.423466
  30
0
  11
41.1
  21
-1.418993
  31
0
  0
LINE
  5
24c
  100
AcDbEntity
  8
1
  100
AcDbLine
  10
41.1
  20
-1.418993
  30
0
  11
41.085
  21
-1.414397
  31
0
  0
LINE
  5
24d
  100
AcDbEntity
  8
1
  100
AcDbLine
  10
41.085
  20
-1.414397
  30
0
  11
41.07
  21
-1.409678
  31
0
  0
LINE
  5
24e
  100
AcDbEntity
  8
1
  100
AcDbLine
  10
41.07
  20
-1.409678
  30
0
  11
41.055
  21
-1.404836
  31
0
  0
LINE
  5
24f
  100
AcDbEntity
  8
1
  100
AcDbLine
  10
41.055
  20
-1.404836
  30
0
  11
41.04
  21
-1.399872
  31
0
  0
LINE
  5
250
  100
AcDbEntity
  8
1
  100
AcDbLine
  10
41.04
  20
-1.399872
  30
0
  11
41.025
  21
-1.394787
  31
0
  0
LINE
  5
251
  100
AcDbEntity
  8
1
  100
AcDbLine
  10
41.025
  20
-1.394787
  30
0
  11
41.01
  21
-1.38958
  31
0
  0
LINE
  5
252
  100
AcDbEntity
  8
1
  100
AcDbLine
  10
41.01
  20
-1.38958
  30
0
  11
40.995
  21
-1.384252
  31
0
  0
LINE
  5
253
  100
AcDbEntity
  8
1
  100
AcDbLine
  10
40.995
  20
-1.384252
  30
0
  11
40.98
  21
-1.378804
  31
0
  0
LINE
  5
254
  100
AcDbEntity
  8
1
  100
AcDbLine
  10
40.98
  20
-1.378804
  30
0
  11
40.965
  21
-1.373236
  31
0
  0
LINE
  5
255
  100
AcDbEntity
  8
1
  100
AcDbLine
  10
40.965
  20
-1.373236
  30
0
  11
40.95
  21
-1.367549
  31
0
  0
LINE
  5
256
  100
AcDbEntity
  8
1
  100
AcDbLine
  10
40.95
  20
-1.367549
  30
0
  11
40.935
  21
-1.361742
  31
0
  0
LINE
  5
257
  100
AcDbEntity
  8
1
  100
AcDbLine
  10
40.935
  20
-1.361742
  30
0
  11
40.92
  21
-1.355817
  31
0
  0
LINE
  5
258
  100
AcDbEntity
  8
1
  100
AcDbLine
  10
40.92
  20
-1.355817
  30
0
  11
40.905
  21
-1.349775
  31
0
  0
LINE
  5
259
  100
AcDbEntity
  8
1
  100
AcDbLine
  10
40.905
  20
-1.349775
  30
0
  11
40.89
  21
-1.343615
  31
0
  0
LINE
  5
25a
  100
AcDbEntity
  8
1
  100
AcDbLine
  10
40.89
  20
-1.343615
  30
0
  11
40.875
  21
-1.337338
  31
0
  0
LINE
  5
25b
  100
AcDbEntity
  8
1
  100
AcDbLine
  10
40.875
  20
-1.337338
  30
0
  11
40.86
  21
-1.330945
  31
0
  0
LINE
  5
25c
  100
AcDbEntity
  8
1
  100
AcDbLine
  10
40.86
  20
-1.330945
  30
0
  11
40.845
  21
-1.324436
  31
0
  0
LINE
  5
25d
  100
AcDbEntity
  8
1
  100
AcDbLine
  10
40.845
  20
-1.324436
  30
0
  11
40.83
  21
-1.317812
  31
0
  0
LINE
  5
25e
  100
AcDbEntity
  8
1
  100
AcDbLine
  10
40.83
  20
-1.317812
  30
0
  11
40.815
  21
-1.311073
  31
0
  0
LINE
  5
25f
  100
AcDbEntity
  8
1
  100
AcDbLine
  10
40.815
  20
-1.311073
  30
0
  11
40.8
  21
-1.30422
  31
0
  0
LINE
  5
260
  100
AcDbEntity
  8
1
  100
AcDbLine
  10
40.8
  20
-1.30422
  30
0
  11
40.785
  21
-1.297254
  31
0
  0
LINE
  5
261
  100
AcDbEntity
  8
1
  100
AcDbLine
  10
40.785
  20
-1.297254
  30
0
  11
40.77
  21
-1.290175
  31
0
  0
LINE
  5
262
  100
AcDbEntity
  8
1
  100
AcDbLine
  10
40.77
  20
-1.290175
  30
0
  11
40.755
  21
-1.282984
  31
0
  0
LINE
  5
263
  100
AcDbEntity
  8
1
  100
AcDbLine
  10
40.755
  20
-1.282984
  30
0
  11
40.74
  21
-1.275682
  31
0
  0
LINE
  5
264
  100
AcDbEntity
  8
1
  100
AcDbLine
  10
40.74
  20
-1.275682
  30
0
  11
40.725
  21
-1.268268
  31
0
  0
LINE
  5
265
  100
AcDbEntity
  8
1
  100
AcDbLine
  10
40.725
  20
-1.268268
  30
0
  11
40.71
  21
-1.260744
  31
0
  0
LINE
  5
266
  100
AcDbEntity
  8
1
  100
AcDbLine
  10
40.71
  20
-1.260744
  30
0
  11
40.695
  21
-1.253111
  31
0
  0
LINE
  5
267
  100
AcDbEntity
  8
1
  100
AcDbLine
  10
40.695
  20
-1.253111
  30
0
  11
40.68
  21
-1.245368
  31
0
  0
LINE
  5
268
  100
AcDbEntity
  8
1
  100
AcDbLine
  10
40.68
  20
-1.245368
  30
0
  11
40.665
  21
-1.237517
  31
0
  0
LINE
  5
269
  100
AcDbEntity
  8
1
  100
AcDbLine
  10
40.665
  20
-1.237517
  30
0
  11
40.65
  21
-1.229559
  31
0
  0
LINE
  5
26a
  100
AcDbEntity
  8
1
  100
AcDbLine
  10
40.65
  20
-1.229559
  30
0
  11
40.635
  21
-1.221494
  31
0
  0
LINE
  5
26b
  100
AcDbEntity
  8
1
  100
AcDbLine
  10
40.635
  20
-1.221494
  30
0
  11
40.62
  21
-1.213322
  31
0
  0
LINE
  5
26c
  100
AcDbEntity
  8
1
  100
AcDbLine
  10
40.62
  20
-1.213322
  30
0
  11
40.605
  21
-1.205045
  31
0
  0
LINE
  5
26d
  100
AcDbEntity
  8
1
  100
AcDbLine
  10
40.605
  20
-1.205045
  30
0
  11
40.59
  21
-1.196663
  31
0
  0
LINE
  5
26e
  100
AcDbEntity
  8
1
  100
AcDbLine
  10
40.59
  20
-1.196663
  30
0
  11
40.575
  21
-1.188178
  31
0
  0
LINE
  5
26f
  100
AcDbEntity
  8
1
  100
AcDbLine
  10
40.575
  20
-1.188178
  30
0
  11
40.56
  21
-1.179588
  31
0
  0
LINE
  5
270
  100
AcDbEntity
  8
1
  100
AcDbLine
  10
40.56
  20
-1.179588
  30
0
  11
40.545
  21
-1.170897
  31
0
  0
LINE
  5
271
  100
AcDbEntity
  8
1
  100
AcDbLine
  10
40.545
  20
-1.170897
  30
0
  11
40.53
  21
-1.162103
  31
0
  0
LINE
  5
272
  100
AcDbEntity
  8
1
  100
AcDbLine
  10
40.53
  20
-1.162103
  30
0
  11
40.515
  21
-1.153208
  31
0
  0
LINE
  5
273
  100
AcDbEntity
  8
1
  100
AcDbLine
  10
40.515
  20
-1.153208
  30
0
  11
40.5
  21
-1.144214
  31
0
  0
LINE
  5
274
  100
AcDbEntity
  8
1
  100
AcDbLine
  10
40.5
  20
-1.144214
  30
0
  11
40.5
  21
-1.144171
  31
0
  0
LINE
  5
275
  100
AcDbEntity
  8
1
  100
AcDbLine
  10
38.887
  20
-1.49995
  30
0
  11
38.887
  21
1.49995
  31
0
  0
LINE
  5
276
  100
AcDbEntity
  8
1
  100
AcDbLine
  10
40.5
  20
1.49995
  30
0
  11
40.5
  21
-1.49995
  31
0
  0
LINE
  5
277
  100
AcDbEntity
  8
1
  100
AcDbLine
  10
40.5
  20
-1.5
  30
0
  11
40.5
  21
1.5
  31
0
  0
LINE
  5
278
  100
AcDbEntity
  8
1
  100
AcDbLine
  10
40.844967
  20
1.5
  30
0
  11
40.845
  21
1.5
  31
0
  0
LINE
  5
279
  100
AcDbEntity
  8
1
  100
AcDbLine
  10
40.845
  20
1.5
  30
0
  11
40.86
  21
1.499934
  31
0
  0
LINE
  5
27a
  100
AcDbEntity
  8
1
  100
AcDbLine
  10
40.86
  20
1.499934
  30
0
  11
40.875
  21
1.499739
  31
0
  0
LINE
  5
27b
  100
AcDbEntity
  8
1
  100
AcDbLine
  10
40.875
  20
1.499739
  30
0
  11
40.89
  21
1.499412
  31
0
  0
LINE
  5
27c
  100
AcDbEntity
  8
1
  100
AcDbLine
  10
40.89
  20
1.499412
  30
0
  11
40.905
  21
1.498955
  31
0
  0
LINE
  5
27d
  100
AcDbEntity
  8
1
  100
AcDbLine
  10
40.905
  20
1.498955
  30
0
  11
40.92
  21
1.498368
  31
0
  0
LINE
  5
27e
  100
AcDbEntity
  8
1
  100
AcDbLine
  10
40.92
  20
1.498368
  30
0
  11
40.935
  21
1.497651
  31
0
  0
LINE
  5
27f
  100
AcDbEntity
  8
1
  100
AcDbLine
  10
40.935
  20
1.497651
  30
0
  11
40.95
  21
1.496803
  31
0
  0
LINE
  5
280
  100
AcDbEntity
  8
1
  100
AcDbLine
  10
40.95
  20
1.496803
  30
0
  11
40.965
  21
1.495826
  31
0
  0
LINE
  5
281
  100
AcDbEntity
  8
1
  100
AcDbLine
  10
40.965
  20
1.495826
  30
0
  11
40.98
  21
1.494718
  31
0
  0
LINE
  5
282
  100
AcDbEntity
  8
1
  100
AcDbLine
  10
40.98
  20
1.494718
  30
0
  11
40.995
  21
1.49348
  31
0
  0
LINE
  5
283
  100
AcDbEntity
  8
1
  100
AcDbLine
  10
40.995
  20
1.49348
  30
0
  11
41.01
  21
1.492112
  31
0
  0
LINE
  5
284
  100
AcDbEntity
  8
1
  100
AcDbLine
  10
41.01
  20
1.492112
  30
0
  11
41.025
  21
1.490615
  31
0
  0
LINE
  5
285
  100
AcDbEntity
  8
1
  100
AcDbLine
  10
41.025
  20
1.490615
  30
0
  11
41.04
  21
1.488988
  31
0
  0
LINE
  5
286
  100
AcDbEntity
  8
1
  100
AcDbLine
  10
41.04
  20
1.488988
  30
0
  11
41.055
  21
1.487231
  31
0
  0
LINE
  5
287
  100
AcDbEntity
  8
1
  100
AcDbLine
  10
41.055
  20
1.487231
  30
0
  11
41.07
  21
1.485345
  31
0
  0
LINE
  5
288
  100
AcDbEntity
  8
1
  100
AcDbLine
  10
41.07
  20
1.485345
  30
0
  11
41.085
  21
1.48333
  31
0
  0
LINE
  5
289
  100
AcDbEntity
  8
1
  100
AcDbLine
  10
41.085
  20
1.48333
  30
0
  11
41.1
  21
1.481186
  31
0
  0
LINE
  5
28a
  100
AcDbEntity
  8
1
  100
AcDbLine
  10
41.1
  20
1.481186
  30
0
  11
41.115
  21
1.478914
  31
0
  0
LINE
  5
28b
  100
AcDbEntity
  8
1
  100
AcDbLine
  10
41.115
  20
1.478914
  30
0
  11
41.13
  21
1.476512
  31
0
  0
LINE
  5
28c
  100
AcDbEntity
  8
1
  100
AcDbLine
  10
41.13
  20
1.476512
  30
0
  11
41.145
  21
1.473982
  31
0
  0
LINE
  5
28d
  100
AcDbEntity
  8
1
  100
AcDbLine
  10
41.145
  20
1.473982
  30
0
  11
41.16
  21
1.471324
  31
0
  0
LINE
  5
28e
  100
AcDbEntity
  8
1
  100
AcDbLine
  10
41.16
  20
1.471324
  30
0
  11
41.175
  21
1.468538
  31
0
  0
LINE
  5
28f
  100
AcDbEntity
  8
1
  100
AcDbLine
  10
41.175
  20
1.468538
  30
0
  11
41.19
  21
1.465625
  31
0
  0
LINE
  5
290
  100
AcDbEntity
  8
1
  100
AcDbLine
  10
41.19
  20
1.465625
  30
0
  11
41.205
  21
1.462584
  31
0
  0
LINE
  5
291
  100
AcDbEntity
  8
1
  100
AcDbLine
  10
41.205
  20
1.462584
  30
0
  11
41.22
  21
1.459415
  31
0
  0
LINE
  5
292
  100
AcDbEntity
  8
1
  100
AcDbLine
  10
41.22
  20
1.459415
  30
0
  11
41.235
  21
1.45612
  31
0
  0
LINE
  5
293
  100
AcDbEntity
  8
1
  100
AcDbLine
  10
41.235
  20
1.45612
  30
0
  11
41.25
  21
1.452698
  31
0
  0
LINE
  5
294
  100
AcDbEntity
  8
1
  100
AcDbLine
  10
41.25
  20
1.452698
  30
0
  11
41.265
  21
1.44915
  31
0
  0
LINE
  5
295
  100
AcDbEntity
  8
1
  100
AcDbLine
  10
41.265
  20
1.44915
  30
0
  11
41.28
  21
1.445476
  31
0
  0
LINE
  5
296
  100
AcDbEntity
  8
1
  100
AcDbLine
  10
41.28
  20
1.445476
  30
0
  11
41.295
  21
1.441676
  31
0
  0
LINE
  5
297
  100
AcDbEntity
  8
1
  100
AcDbLine
  10
41.295
  20
1.441676
  30
0
  11
41.31
  21
1.437751
  31
0
  0
LINE
  5
298
  100
AcDbEntity
  8
1
  100
AcDbLine
  10
41.31
  20
1.437751
  30
0
  11
41.325
  21
1.433701
  31
0
  0
LINE
  5
299
  100
AcDbEntity
  8
1
  100
AcDbLine
  10
41.325
  20
1.433701
  30
0
  11
41.34
  21
1.429526
  31
0
  0
LINE
  5
29a
  100
AcDbEntity
  8
1
  100
AcDbLine
  10
41.34
  20
1.429526
  30
0
  11
41.355
  21
1.425227
  31
0
  0
LINE
  5
29b
  100
AcDbEntity
  8
1
  100
AcDbLine
  10
41.355
  20
1.425227
  30
0
  11
41.37
  21
1.420804
  31
0
  0
LINE
  5
29c
  100
AcDbEntity
  8
1
  100
AcDbLine
  10
41.37
  20
1.420804
  30
0
  11
41.385
  21
1.416257
  31
0
  0
LINE
  5
29d
  100
AcDbEntity
  8
1
  100
AcDbLine
  10
41.385
  20
1.416257
  30
0
  11
41.4
  21
1.411587
  31
0
  0
LINE
  5
29e
  100
AcDbEntity
  8
1
  100
AcDbLine
  10
41.4
  20
1.411587
  30
0
  11
41.415
  21
1.406795
  31
0
  0
LINE
  5
29f
  100
AcDbEntity
  8
1
  100
AcDbLine
  10
41.415
  20
1.406795
  30
0
  11
41.43
  21
1.40188
  31
0
  0
LINE
  5
2a0
  100
AcDbEntity
  8
1
  100
AcDbLine
  10
41.43
  20
1.40188
  30
0
  11
41.445
  21
1.396843
  31
0
  0
LINE
  5
2a1
  100
AcDbEntity
  8
1
  100
AcDbLine
  10
41.445
  20
1.396843
  30
0
  11
41.46
  21
1.391685
  31
0
  0
LINE
  5
2a2
  100
AcDbEntity
  8
1
  100
AcDbLine
  10
41.46
  20
1.391685
  30
0
  11
41.475
  21
1.386405
  31
0
  0
LINE
  5
2a3
  100
AcDbEntity
  8
1
  100
AcDbLine
  10
41.475
  20
1.386405
  30
0
  11
41.49
  21
1.381006
  31
0
  0
LINE
  5
2a4
  100
AcDbEntity
  8
1
  100
AcDbLine
  10
41.49
  20
1.381006
  30
0
  11
41.505
  21
1.375486
  31
0
  0
LINE
  5
2a5
  100
AcDbEntity
  8
1
  100
AcDbLine
  10
41.505
  20
1.375486
  30
0
  11
41.52
  21
1.369846
  31
0
  0
LINE
  5
2a6
  100
AcDbEntity
  8
1
  100
AcDbLine
  10
41.52
  20
1.369846
  30
0
  11
41.535
  21
1.364087
  31
0
  0
LINE
  5
2a7
  100
AcDbEntity
  8
1
  100
AcDbLine
  10
41.535
  20
1.364087
  30
0
  11
41.55
  21
1.35821
  31
0
  0
LINE
  5
2a8
  100
AcDbEntity
  8
1
  100
AcDbLine
  10
41.55
  20
1.35821
  30
0
  11
41.565
  21
1.352215
  31
0
  0
LINE
  5
2a9
  100
AcDbEntity
  8
1
  100
AcDbLine
  10
41.565
  20
1.352215
  30
0
  11
41.58
  21
1.346102
  31
0
  0
LINE
  5
2aa
  100
AcDbEntity
  8
1
  100
AcDbLine
  10
41.58
  20
1.346102
  30
0
  11
41.595
  21
1.339872
  31
0
  0
LINE
  5
2ab
  100
AcDbEntity
  8
1
  100
AcDbLine
  10
41.595
  20
1.339872
  30
0
  11
41.61
  21
1.333525
  31
0
  0
LINE
  5
2ac
  100
AcDbEntity
  8
1
  100
AcDbLine
  10
41.61
  20
1.333525
  30
0
  11
41.625
  21
1.327063
  31
0
  0
LINE
  5
2ad
  100
AcDbEntity
  8
1
  100
AcDbLine
  10
41.625
  20
1.327063
  30
0
  11
41.64
  21
1.320485
  31
0
  0
LINE
  5
2ae
  100
AcDbEntity
  8
1
  100
AcDbLine
  10
41.64
  20
1.320485
  30
0
  11
41.655
  21
1.313792
  31
0
  0
LINE
  5
2af
  100
AcDbEntity
  8
1
  100
AcDbLine
  10
41.655
  20
1.313792
  30
0
  11
41.67
  21
1.306985
  31
0
  0
LINE
  5
2b0
  100
AcDbEntity
  8
1
  100
AcDbLine
  10
41.67
  20
1.306985
  30
0
  11
41.685
  21
1.300064
  31
0
  0
LINE
  5
2b1
  100
AcDbEntity
  8
1
  100
AcDbLine
  10
41.685
  20
1.300064
  30
0
  11
41.7
  21
1.293031
  31
0
  0
LINE
  5
2b2
  100
AcDbEntity
  8
1
  100
AcDbLine
  10
41.7
  20
1.293031
  30
0
  11
41.715
  21
1.285884
  31
0
  0
LINE
  5
2b3
  100
AcDbEntity
  8
1
  100
AcDbLine
  10
41.715
  20
1.285884
  30
0
  11
41.73
  21
1.278626
  31
0
  0
LINE
  5
2b4
  100
AcDbEntity
  8
1
  100
AcDbLine
  10
41.73
  20
1.278626
  30
0
  11
41.745
  21
1.271257
  31
0
  0
LINE
  5
2b5
  100
AcDbEntity
  8
1
  100
AcDbLine
  10
41.745
  20
1.271257
  30
0
  11
41.76
  21
1.263778
  31
0
  0
LINE
  5
2b6
  100
AcDbEntity
  8
1
  100
AcDbLine
  10
41.76
  20
1.263778
  30
0
  11
41.775
  21
1.256188
  31
0
  0
LINE
  5
2b7
  100
AcDbEntity
  8
1
  100
AcDbLine
  10
41.775
  20
1.256188
  30
0
  11
41.79
  21
1.248489
  31
0
  0
LINE
  5
2b8
  100
AcDbEntity
  8
1
  100
AcDbLine
  10
41.79
  20
1.248489
  30
0
  11
41.805
  21
1.240682
  31
0
  0
LINE
  5
2b9
  100
AcDbEntity
  8
1
  100
AcDbLine
  10
41.805
  20
1.240682
  30
0
  11
41.82
  21
1.232767
  31
0
  0
LINE
  5
2ba
  100
AcDbEntity
  8
1
  100
AcDbLine
  10
41.82
  20
1.232767
  30
0
  11
41.835
  21
1.224744
  31
0
  0
LINE
  5
2bb
  100
AcDbEntity
  8
1
  100
AcDbLine
  10
41.835
  20
1.224744
  30
0
  11
41.85
  21
1.216615
  31
0
  0
LINE
  5
2bc
  100
AcDbEntity
  8
1
  100
AcDbLine
  10
41.85
  20
1.216615
  30
0
  11
41.865
  21
1.208381
  31
0
  0
LINE
  5
2bd
  100
AcDbEntity
  8
1
  100
AcDbLine
  10
41.865
  20
1.208381
  30
0
  11
41.88
  21
1.200041
  31
0
  0
LINE
  5
2be
  100
AcDbEntity
  8
1
  100
AcDbLine
  10
41.88
  20
1.200041
  30
0
  11
41.895
  21
1.191596
  31
0
  0
LINE
  5
2bf
  100
AcDbEntity
  8
1
  100
AcDbLine
  10
41.895
  20
1.191596
  30
0
  11
41.91
  21
1.183049
  31
0
  0
LINE
  5
2c0
  100
AcDbEntity
  8
1
  100
AcDbLine
  10
41.91
  20
1.183049
  30
0
  11
41.925
  21
1.174398
  31
0
  0
LINE
  5
2c1
  100
AcDbEntity
  8
1
  100
AcDbLine
  10
41.925
  20
1.174398
  30
0
  11
41.94
  21
1.165645
  31
0
  0
LINE
  5
2c2
  100
AcDbEntity
  8
1
  100
AcDbLine
  10
41.94
  20
1.165645
  30
0
  11
41.955
  21
1.156791
  31
0
  0
LINE
  5
2c3
  100
AcDbEntity
  8
1
  100
AcDbLine
  10
41.955
  20
1.156791
  30
0
  11
41.97
  21
1.147836
  31
0
  0
LINE
  5
2c4
  100
AcDbEntity
  8
1
  100
AcDbLine
  10
41.97
  20
1.147836
  30
0
  11
41.985
  21
1.138782
  31
0
  0
LINE
  5
2c5
  100
AcDbEntity
  8
1
  100
AcDbLine
  10
41.985
  20
1.138782
  30
0
  11
42
  21
1.129628
  31
0
  0
LINE
  5
2c6
  100
AcDbEntity
  8
1
  100
AcDbLine
  10
42
  20
1.129628
  30
0
  11
42.015
  21
1.120376
  31
0
  0
LINE
  5
2c7
  100
AcDbEntity
  8
1
  100
AcDbLine
  10
42.015
  20
1.120376
  30
0
  11
42.03
  21
1.111027
  31
0
  0
LINE
  5
2c8
  100
AcDbEntity
  8
1
  100
AcDbLine
  10
42.03
  20
1.111027
  30
0
  11
42.045
  21
1.101581
  31
0
  0
LINE
  5
2c9
  100
AcDbEntity
  8
1
  100
AcDbLine
  10
42.045
  20
1.101581
  30
0
  11
42.06
  21
1.09204
  31
0
  0
LINE
  5
2ca
  100
AcDbEntity
  8
1
  100
AcDbLine
  10
42.06
  20
1.09204
  30
0
  11
42.075
  21
1.082403
  31
0
  0
LINE
  5
2cb
  100
AcDbEntity
  8
1
  100
AcDbLine
  10
42.075
  20
1.082403
  30
0
  11
42.09
  21
1.072672
  31
0
  0
LINE
  5
2cc
  100
AcDbEntity
  8
1
  100
AcDbLine
  10
42.09
  20
1.072672
  30
0
  11
42.105
  21
1.062848
  31
0
  0
LINE
  5
2cd
  100
AcDbEntity
  8
1
  100
AcDbLine
  10
42.105
  20
1.062848
  30
0
  11
42.12
  21
1.052932
  31
0
  0
LINE
  5
2ce
  100
AcDbEntity
  8
1
  100
AcDbLine
  10
42.12
  20
1.052932
  30
0
  11
42.135
  21
1.042924
  31
0
  0
LINE
  5
2cf
  100
AcDbEntity
  8
1
  100
AcDbLine
  10
42.135
  20
1.042924
  30
0
  11
42.15
  21
1.032825
  31
0
  0
LINE
  5
2d0
  100
AcDbEntity
  8
1
  100
AcDbLine
  10
42.15
  20
1.032825
  30
0
  11
42.165
  21
1.022637
  31
0
  0
LINE
  5
2d1
  100
AcDbEntity
  8
1
  100
AcDbLine
  10
42.165
  20
1.022637
  30
0
  11
42.18
  21
1.012359
  31
0
  0
LINE
  5
2d2
  100
AcDbEntity
  8
1
  100
AcDbLine
  10
42.18
  20
1.012359
  30
0
  11
42.195
  21
1.001994
  31
0
  0
LINE
  5
2d3
  100
AcDbEntity
  8
1
  100
AcDbLine
  10
42.195
  20
1.001994
  30
0
  11
42.21
  21
0.991541
  31
0
  0
LINE
  5
2d4
  100
AcDbEntity
  8
1
  100
AcDbLine
  10
42.21
  20
0.991541
  30
0
  11
42.225
  21
0.981002
  31
0
  0
LINE
  5
2d5
  100
AcDbEntity
  8
1
  100
AcDbLine
  10
42.225
  20
0.981002
  30
0
  11
42.24
  21
0.970378
  31
0
  0
LINE
  5
2d6
  100
AcDbEntity
  8
1
  100
AcDbLine
  10
42.24
  20
0.970378
  30
0
  11
42.255
  21
0.95967
  31
0
  0
LINE
  5
2d7
  100
AcDbEntity
  8
1
  100
AcDbLine
  10
42.255
  20
0.95967
  30
0
  11
42.27
  21
0.948878
  31
0
  0
LINE
  5
2d8
  100
AcDbEntity
  8
1
  100
AcDbLine
  10
42.27
  20
0.948878
  30
0
  11
42.285
  21
0.938003
  31
0
  0
LINE
  5
2d9
  100
AcDbEntity
  8
1
  100
AcDbLine
  10
42.285
  20
0.938003
  30
0
  11
42.3
  21
0.927047
  31
0
  0
LINE
  5
2da
  100
AcDbEntity
  8
1
  100
AcDbLine
  10
42.3
  20
0.927047
  30
0
  11
42.315
  21
0.916011
  31
0
  0
LINE
  5
2db
  100
AcDbEntity
  8
1
  100
AcDbLine
  10
42.315
  20
0.916011
  30
0
  11
42.33
  21
0.904894
  31
0
  0
LINE
  5
2dc
  100
AcDbEntity
  8
1
  100
AcDbLine
  10
42.33
  20
0.904894
  30
0
  11
42.345
  21
0.893699
  31
0
  0
LINE
  5
2dd
  100
AcDbEntity
  8
1
  100
AcDbLine
  10
42.345
  20
0.893699
  30
0
  11
42.36
  21
0.882427
  31
0
  0
LINE
  5
2de
  100
AcDbEntity
  8
1
  100
AcDbLine
  10
42.36
  20
0.882427
  30
0
  11
42.375
  21
0.871077
  31
0
  0
LINE
  5
2df
  100
AcDbEntity
  8
1
  100
AcDbLine
  10
42.375
  20
0.871077
  30
0
  11
42.39
  21
0.859652
  31
0
  0
LINE
  5
2e0
  100
AcDbEntity
  8
1
  100
AcDbLine
  10
42.39
  20
0.859652
  30
0
  11
42.405
  21
0.848152
  31
0
  0
LINE
  5
2e1
  100
AcDbEntity
  8
1
  100
AcDbLine
  10
42.405
  20
0.848152
  30
0
  11
42.42
  21
0.836578
  31
0
  0
LINE
  5
2e2
  100
AcDbEntity
  8
1
  100
AcDbLine
  10
42.42
  20
0.836578
  30
0
  11
42.435
  21
0.824932
  31
0
  0
LINE
  5
2e3
  100
AcDbEntity
  8
1
  100
AcDbLine
  10
42.435
  20
0.824932
  30
0
  11
42.45
  21
0.813214
  31
0
  0
LINE
  5
2e4
  100
AcDbEntity
  8
1
  100
AcDbLine
  10
42.45
  20
0.813214
  30
0
  11
42.465
  21
0.801425
  31
0
  0
LINE
  5
2e5
  100
AcDbEntity
  8
1
  100
AcDbLine
  10
42.465
  20
0.801425
  30
0
  11
42.48
  21
0.789566
  31
0
  0
LINE
  5
2e6
  100
AcDbEntity
  8
1
  100
AcDbLine
  10
42.48
  20
0.789566
  30
0
  11
42.495
  21
0.777639
  31
0
  0
LINE
  5
2e7
  100
AcDbEntity
  8
1
  100
AcDbLine
  10
42.495
  20
0.777639
  30
0
  11
42.51
  21
0.765644
  31
0
  0
LINE
  5
2e8
  100
AcDbEntity
  8
1
  100
AcDbLine
  10
42.51
  20
0.765644
  30
0
  11
42.525
  21
0.753583
  31
0
  0
LINE
  5
2e9
  100
AcDbEntity
  8
1
  100
AcDbLine
  10
42.525
  20
0.753583
  30
0
  11
42.54
  21
0.741456
  31
0
  0
LINE
  5
2ea
  100
AcDbEntity
  8
1
  100
AcDbLine
  10
42.54
  20
0.741456
  30
0
  11
42.555
  21
0.729264
  31
0
  0
LINE
  5
2eb
  100
AcDbEntity
  8
1
  100
AcDbLine
  10
42.555
  20
0.729264
  30
0
  11
42.57
  21
0.717009
  31
0
  0
LINE
  5
2ec
  100
AcDbEntity
  8
1
  100
AcDbLine
  10
42.57
  20
0.717009
  30
0
  11
42.585
  21
0.704692
  31
0
  0
LINE
  5
2ed
  100
AcDbEntity
  8
1
  100
AcDbLine
  10
42.585
  20
0.704692
  30
0
  11
42.6
  21
0.692314
  31
0
  0
LINE
  5
2ee
  100
AcDbEntity
  8
1
  100
AcDbLine
  10
42.6
  20
0.692314
  30
0
  11
42.615
  21
0.679875
  31
0
  0
LINE
  5
2ef
  100
AcDbEntity
  8
1
  100
AcDbLine
  10
42.615
  20
0.679875
  30
0
  11
42.63
  21
0.667377
  31
0
  0
LINE
  5
2f0
  100
AcDbEntity
  8
1
  100
AcDbLine
  10
42.63
  20
0.667377
  30
0
  11
42.645
  21
0.654821
  31
0
  0
LINE
  5
2f1
  100
AcDbEntity
  8
1
  100
AcDbLine
  10
42.645
  20
0.654821
  30
0
  11
42.66
  21
0.642209
  31
0
  0
LINE
  5
2f2
  100
AcDbEntity
  8
1
  100
AcDbLine
  10
42.66
  20
0.642209
  30
0
  11
42.675
  21
0.62954
  31
0
  0
LINE
  5
2f3
  100
AcDbEntity
  8
1
  100
AcDbLine
  10
42.675
  20
0.62954
  30
0
  11
42.69
  21
0.616817
  31
0
  0
LINE
  5
2f4
  100
AcDbEntity
  8
1
  100
AcDbLine
  10
42.69
  20
0.616817
  30
0
  11
42.705
  21
0.60404
  31
0
  0
LINE
  5
2f5
  100
AcDbEntity
  8
1
  100
AcDbLine
  10
42.705
  20
0.60404
  30
0
  11
42.72
  21
0.59121
  31
0
  0
LINE
  5
2f6
  100
AcDbEntity
  8
1
  100
AcDbLine
  10
42.72
  20
0.59121
  30
0
  11
42.735
  21
0.578329
  31
0
  0
LINE
  5
2f7
  100
AcDbEntity
  8
1
  100
AcDbLine
  10
42.735
  20
0.578329
  30
0
  11
42.75
  21
0.565398
  31
0
  0
LINE
  5
2f8
  100
AcDbEntity
  8
1
  100
AcDbLine
  10
42.75
  20
0.565398
  30
0
  11
42.765
  21
0.552417
  31
0
  0
LINE
  5
2f9
  100
AcDbEntity
  8
1
  100
AcDbLine
  10
42.765
  20
0.552417
  30
0
  11
42.78
  21
0.539389
  31
0
  0
LINE
  5
2fa
  100
AcDbEntity
  8
1
  100
AcDbLine
  10
42.78
  20
0.539389
  30
0
  11
42.795
  21
0.526314
  31
0
  0
LINE
  5
2fb
  100
AcDbEntity
  8
1
  100
AcDbLine
  10
42.795
  20
0.526314
  30
0
  11
42.81
  21
0.513193
  31
0
  0
LINE
  5
2fc
  100
AcDbEntity
  8
1
  100
AcDbLine
  10
42.81
  20
0.513193
  30
0
  11
42.825
  21
0.500027
  31
0
  0
LINE
  5
2fd
  100
AcDbEntity
  8
1
  100
AcDbLine
  10
42.825
  20
0.500027
  30
0
  11
42.84
  21
0.486818
  31
0
  0
LINE
  5
2fe
  100
AcDbEntity
  8
1
  100
AcDbLine
  10
42.84
  20
0.486818
  30
0
  11
42.855
  21
0.473566
  31
0
  0
LINE
  5
2ff
  100
AcDbEntity
  8
1
  100
AcDbLine
  10
42.855
  20
0.473566
  30
0
  11
42.87
  21
0.460273
  31
0
  0
LINE
  5
300
  100
AcDbEntity
  8
1
  100
AcDbLine
  10
42.87
  20
0.460273
  30
0
  11
42.885
  21
0.446941
  31
0
  0
LINE
  5
301
  100
AcDbEntity
  8
1
  100
AcDbLine
  10
42.885
  20
0.446941
  30
0
  11
42.9
  21
0.433569
  31
0
  0
LINE
  5
302
  100
AcDbEntity
  8
1
  100
AcDbLine
  10
42.9
  20
0.433569
  30
0
  11
42.915
  21
0.42016
  31
0
  0
LINE
  5
303
  100
AcDbEntity
  8
1
  100
AcDbLine
  10
42.915
  20
0.42016
  30
0
  11
42.93
  21
0.406714
  31
0
  0
LINE
  5
304
  100
AcDbEntity
  8
1
  100
AcDbLine
  10
42.93
  20
0.406714
  30
0
  11
42.945
  21
0.393233
  31
0
  0
LINE
  5
305
  100
AcDbEntity
  8
1
  100
AcDbLine
  10
42.945
  20
0.393233
  30
0
  11
42.96
  21
0.379717
  31
0
  0
LINE
  5
306
  100
AcDbEntity
  8
1
  100
AcDbLine
  10
42.96
  20
0.379717
  30
0
  11
42.975
  21
0.366169
  31
0
  0
LINE
  5
307
  100
AcDbEntity
  8
1
  100
AcDbLine
  10
42.975
  20
0.366169
  30
0
  11
42.99
  21
0.352588
  31
0
  0
LINE
  5
308
  100
AcDbEntity
  8
1
  100
AcDbLine
  10
42.99
  20
0.352588
  30
0
  11
43.005
  21
0.338978
  31
0
  0
LINE
  5
309
  100
AcDbEntity
  8
1
  100
AcDbLine
  10
43.005
  20
0.338978
  30
0
  11
43.02
  21
0.325337
  31
0
  0
LINE
  5
30a
  100
AcDbEntity
  8
1
  100
AcDbLine
  10
43.02
  20
0.325337
  30
0
  11
43.035
  21
0.311668
  31
0
  0
LINE
  5
30b
  100
AcDbEntity
  8
1
  100
AcDbLine
  10
43.035
  20
0.311668
  30
0
  11
43.05
  21
0.297973
  31
0
  0
LINE
  5
30c
  100
AcDbEntity
  8
1
  100
AcDbLine
  10
43.05
  20
0.297973
  30
0
  11
43.065
  21
0.284251
  31
0
  0
LINE
  5
30d
  100
AcDbEntity
  8
1
  100
AcDbLine
  10
43.065
  20
0.284251
  30
0
  11
43.08
  21
0.270504
  31
0
  0
LINE
  5
30e
  100
AcDbEntity
  8
1
  100
AcDbLine
  10
43.08
  20
0.270504
  30
0
  11
43.095
  21
0.256734
  31
0
  0
LINE
  5
30f
  100
AcDbEntity
  8
1
  100
AcDbLine
  10
43.095
  20
0.256734
  30
0
  11
43.11
  21
0.242942
  31
0
  0
LINE
  5
310
  100
AcDbEntity
  8
1
  100
AcDbLine
  10
43.11
  20
0.242942
  30
0
  11
43.125
  21
0.229129
  31
0
  0
LINE
  5
311
  100
AcDbEntity
  8
1
  100
AcDbLine
  10
43.125
  20
0.229129
  30
0
  11
43.14
  21
0.215295
  31
0
  0
LINE
  5
312
  100
AcDbEntity
  8
1
  100
AcDbLine
  10
43.14
  20
0.215295
  30
0
  11
43.155
  21
0.201443
  31
0
  0
LINE
  5
313
  100
AcDbEntity
  8
1
  100
AcDbLine
  10
43.155
  20
0.201443
  30
0
  11
43.17
  21
0.187574
  31
0
  0
LINE
  5
314
  100
AcDbEntity
  8
1
  100
AcDbLine
  10
43.17
  20
0.187574
  30
0
  11
43.185
  21
0.173688
  31
0
  0
LINE
  5
315
  100
AcDbEntity
  8
1
  100
AcDbLine
  10
43.185
  20
0.173688
  30
0
  11
43.2
  21
0.159787
  31
0
  0
LINE
  5
316
  100
AcDbEntity
  8
1
  100
AcDbLine
  10
43.2
  20
0.159787
  30
0
  11
43.215
  21
0.145872
  31
0
  0
LINE
  5
317
  100
AcDbEntity
  8
1
  100
AcDbLine
  10
43.215
  20
0.145872
  30
0
  11
43.23
  21
0.131945
  31
0
  0
LINE
  5
318
  100
AcDbEntity
  8
1
  100
AcDbLine
  10
43.23
  20
0.131945
  30
0
  11
43.245
  21
0.118005
  31
0
  0
LINE
  5
319
  100
AcDbEntity
  8
1
  100
AcDbLine
  10
43.245
  20
0.118005
  30
0
  11
43.26
  21
0.104056
  31
0
  0
LINE
  5
31a
  100
AcDbEntity
  8
1
  100
AcDbLine
  10
43.26
  20
0.104056
  30
0
  11
43.275
  21
0.090098
  31
0
  0
LINE
  5
31b
  100
AcDbEntity
  8
1
  100
AcDbLine
  10
43.275
  20
0.090098
  30
0
  11
43.29
  21
0.076132
  31
0
  0
LINE
  5
31c
  100
AcDbEntity
  8
1
  100
AcDbLine
  10
43.29
  20
0.076132
  30
0
  11
43.305
  21
0.062159
  31
0
  0
LINE
  5
31d
  100
AcDbEntity
  8
1
  100
AcDbLine
  10
43.305
  20
0.062159
  30
0
  11
43.32
  21
0.048181
  31
0
  0
LINE
  5
31e
  100
AcDbEntity
  8
1
  100
AcDbLine
  10
43.32
  20
0.048181
  30
0
  11
43.335
  21
0.034198
  31
0
  0
LINE
  5
31f
  100
AcDbEntity
  8
1
  100
AcDbLine
  10
43.335
  20
0.034198
  30
0
  11
43.35
  21
0.020213
  31
0
  0
LINE
  5
320
  100
AcDbEntity
  8
1
  100
AcDbLine
  10
43.35
  20
0.020213
  30
0
  11
43.365
  21
0.006226
  31
0
  0
LINE
  5
321
  100
AcDbEntity
  8
1
  100
AcDbLine
  10
43.365
  20
0.006226
  30
0
  11
43.38
  21
-0.007762
  31
0
  0
LINE
  5
322
  100
AcDbEntity
  8
1
  100
AcDbLine
  10
43.38
  20
-0.007762
  30
0
  11
43.395
  21
-0.021749
  31
0
  0
LINE
  5
323
  100
AcDbEntity
  8
1
  100
AcDbLine
  10
43.395
  20
-0.021749
  30
0
  11
43.41
  21
-0.035734
  31
0
  0
LINE
  5
324
  100
AcDbEntity
  8
1
  100
AcDbLine
  10
43.41
  20
-0.035734
  30
0
  11
43.425
  21
-0.049716
  31
0
  0
LINE
  5
325
  100
AcDbEntity
  8
1
  100
AcDbLine
  10
43.425
  20
-0.049716
  30
0
  11
43.44
  21
-0.063694
  31
0
  0
LINE
  5
326
  100
AcDbEntity
  8
1
  100
AcDbLine
  10
43.44
  20
-0.063694
  30
0
  11
43.455
  21
-0.077666
  31
0
  0
LINE
  5
327
  100
AcDbEntity
  8
1
  100
AcDbLine
  10
43.455
  20
-0.077666
  30
0
  11
43.47
  21
-0.091631
  31
0
  0
LINE
  5
328
  100
AcDbEntity
  8
1
  100
AcDbLine
  10
43.47
  20
-0.091631
  30
0
  11
43.485
  21
-0.105589
  31
0
  0
LINE
  5
329
  100
AcDbEntity
  8
1
  100
AcDbLine
  10
43.485
  20
-0.105589
  30
0
  11
43.5
  21
-0.119537
  31
0
  0
LINE
  5
32a
  100
AcDbEntity
  8
1
  100
AcDbLine
  10
43.5
  20
-0.119537
  30
0
  11
43.515
  21
-0.133475
  31
0
  0
LINE
  5
32b
  100
AcDbEntity
  8
1
  100
AcDbLine
  10
43.515
  20
-0.133475
  30
0
  11
43.53
  21
-0.147401
  31
0
  0
LINE
  5
32c
  100
AcDbEntity
  8
1
  100
AcDbLine
  10
43.53
  20
-0.147401
  30
0
  11
43.545
  21
-0.161314
  31
0
  0
LINE
  5
32d
  100
AcDbEntity
  8
1
  100
AcDbLine
  10
43.545
  20
-0.161314
  30
0
  11
43.56
  21
-0.175214
  31
0
  0
LINE
  5
32e
  100
AcDbEntity
  8
1
  100
AcDbLine
  10
43.56
  20
-0.175214
  30
0
  11
43.575
  21
-0.189098
  31
0
  0
LINE
  5
32f
  100
AcDbEntity
  8
1
  100
AcDbLine
  10
43.575
  20
-0.189098
  30
0
  11
43.59
  21
-0.202966
  31
0
  0
LINE
  5
330
  100
AcDbEntity
  8
1
  100
AcDbLine
  10
43.59
  20
-0.202966
  30
0
  11
43.605
  21
-0.216816
  31
0
  0
LINE
  5
331
  100
AcDbEntity
  8
1
  100
AcDbLine
  10
43.605
  20
-0.216816
  30
0
  11
43.62
  21
-0.230647
  31
0
  0
LINE
  5
332
  100
AcDbEntity
  8
1
  100
AcDbLine
  10
43.62
  20
-0.230647
  30
0
  11
43.635
  21
-0.244458
  31
0
  0
LINE
  5
333
  100
AcDbEntity
  8
1
  100
AcDbLine
  10
43.635
  20
-0.244458
  30
0
  11
43.65
  21
-0.258248
  31
0
  0
LINE
  5
334
  100
AcDbEntity
  8
1
  100
AcDbLine
  10
43.65
  20
-0.258248
  30
0
  11
43.665
  21
-0.272015
  31
0
  0
LINE
  5
335
  100
AcDbEntity
  8
1
  100
AcDbLine
  10
43.665
  20
-0.272015
  30
0
  11
43.68
  21
-0.285759
  31
0
  0
LINE
  5
336
  100
AcDbEntity
  8
1
  100
AcDbLine
  10
43.68
  20
-0.285759
  30
0
  11
43.695
  21
-0.299478
  31
0
  0
LINE
  5
337
  100
AcDbEntity
  8
1
  100
AcDbLine
  10
43.695
  20
-0.299478
  30
0
  11
43.71
  21
-0.313171
  31
0
  0
LINE
  5
338
  100
AcDbEntity
  8
1
  100
AcDbLine
  10
43.71
  20
-0.313171
  30
0
  11
43.725
  21
-0.326837
  31
0
  0
LINE
  5
339
  100
AcDbEntity
  8
1
  100
AcDbLine
  10
43.725
  20
-0.326837
  30
0
  11
43.74
  21
-0.340474
  31
0
  0
LINE
  5
33a
  100
AcDbEntity
  8
1
  100
AcDbLine
  10
43.74
  20
-0.340474
  30
0
  11
43.755
  21
-0.354082
  31
0
  0
LINE
  5
33b
  100
AcDbEntity
  8
1
  100
AcDbLine
  10
43.755
  20
-0.354082
  30
0
  11
43.77
  21
-0.367658
  31
0
  0
LINE
  5
33c
  100
AcDbEntity
  8
1
  100
AcDbLine
  10
43.77
  20
-0.367658
  30
0
  11
43.785
  21
-0.381203
  31
0
  0
LINE
  5
33d
  100
AcDbEntity
  8
1
  100
AcDbLine
  10
43.785
  20
-0.381203
  30
0
  11
43.8
  21
-0.394715
  31
0
  0
LINE
  5
33e
  100
AcDbEntity
  8
1
  100
AcDbLine
  10
43.8
  20
-0.394715
  30
0
  11
43.815
  21
-0.408192
  31
0
  0
LINE
  5
33f
  100
AcDbEntity
  8
1
  100
AcDbLine
  10
43.815
  20
-0.408192
  30
0
  11
43.83
  21
-0.421634
  31
0
  0
LINE
  5
340
  100
AcDbEntity
  8
1
  100
AcDbLine
  10
43.83
  20
-0.421634
  30
0
  11
43.845
  21
-0.435039
  31
0
  0
LINE
  5
341
  100
AcDbEntity
  8
1
  100
AcDbLine
  10
43.845
  20
-0.435039
  30
0
  11
43.86
  21
-0.448407
  31
0
  0
LINE
  5
342
  100
AcDbEntity
  8
1
  100
AcDbLine
  10
43.86
  20
-0.448407
  30
0
  11
43.875
  21
-0.461735
  31
0
  0
LINE
  5
343
  100
AcDbEntity
  8
1
  100
AcDbLine
  10
43.875
  20
-0.461735
  30
0
  11
43.89
  21
-0.475024
  31
0
  0
LINE
  5
344
  100
AcDbEntity
  8
1
  100
AcDbLine
  10
43.89
  20
-0.475024
  30
0
  11
43.905
  21
-0.488271
  31
0
  0
LINE
  5
345
  100
AcDbEntity
  8
1
  100
AcDbLine
  10
43.905
  20
-0.488271
  30
0
  11
43.92
  21
-0.501475
  31
0
  0
LINE
  5
346
  100
AcDbEntity
  8
1
  100
AcDbLine
  10
43.92
  20
-0.501475
  30
0
  11
43.935
  21
-0.514636
  31
0
  0
LINE
  5
347
  100
AcDbEntity
  8
1
  100
AcDbLine
  10
43.935
  20
-0.514636
  30
0
  11
43.95
  21
-0.527752
  31
0
  0
LINE
  5
348
  100
AcDbEntity
  8
1
  100
AcDbLine
  10
43.95
  20
-0.527752
  30
0
  11
43.965
  21
-0.540822
  31
0
  0
LINE
  5
349
  100
AcDbEntity
  8
1
  100
AcDbLine
  10
43.965
  20
-0.540822
  30
0
  11
43.98
  21
-0.553846
  31
0
  0
LINE
  5
34a
  100
AcDbEntity
  8
1
  100
AcDbLine
  10
43.98
  20
-0.553846
  30
0
  11
43.995
  21
-0.566821
  31
0
  0
LINE
  5
34b
  100
AcDbEntity
  8
1
  100
AcDbLine
  10
43.995
  20
-0.566821
  30
0
  11
44.01
  21
-0.579746
  31
0
  0
LINE
  5
34c
  100
AcDbEntity
  8
1
  100
AcDbLine
  10
44.01
  20
-0.579746
  30
0
  11
44.025
  21
-0.592622
  31
0
  0
LINE
  5
34d
  100
AcDbEntity
  8
1
  100
AcDbLine
  10
44.025
  20
-0.592622
  30
0
  11
44.04
  21
-0.605446
  31
0
  0
LINE
  5
34e
  100
AcDbEntity
  8
1
  100
AcDbLine
  10
44.04
  20
-0.605446
  30
0
  11
44.055
  21
-0.618217
  31
0
  0
LINE
  5
34f
  100
AcDbEntity
  8
1
  100
AcDbLine
  10
44.055
  20
-0.618217
  30
0
  11
44.07
  21
-0.630934
  31
0
  0
LINE
  5
350
  100
AcDbEntity
  8
1
  100
AcDbLine
  10
44.07
  20
-0.630934
  30
0
  11
44.085
  21
-0.643597
  31
0
  0
LINE
  5
351
  100
AcDbEntity
  8
1
  100
AcDbLine
  10
44.085
  20
-0.643597
  30
0
  11
44.1
  21
-0.656203
  31
0
  0
LINE
  5
352
  100
AcDbEntity
  8
1
  100
AcDbLine
  10
44.1
  20
-0.656203
  30
0
  11
44.115
  21
-0.668753
  31
0
  0
LINE
  5
353
  100
AcDbEntity
  8
1
  100
AcDbLine
  10
44.115
  20
-0.668753
  30
0
  11
44.13
  21
-0.681244
  31
0
  0
LINE
  5
354
  100
AcDbEntity
  8
1
  100
AcDbLine
  10
44.13
  20
-0.681244
  30
0
  11
44.145
  21
-0.693676
  31
0
  0
LINE
  5
355
  100
AcDbEntity
  8
1
  100
AcDbLine
  10
44.145
  20
-0.693676
  30
0
  11
44.16
  21
-0.706048
  31
0
  0
LINE
  5
356
  100
AcDbEntity
  8
1
  100
AcDbLine
  10
44.16
  20
-0.706048
  30
0
  11
44.175
  21
-0.718358
  31
0
  0
LINE
  5
357
  100
AcDbEntity
  8
1
  100
AcDbLine
  10
44.175
  20
-0.718358
  30
0
  11
44.19
  21
-0.730606
  31
0
  0
LINE
  5
358
  100
AcDbEntity
  8
1
  100
AcDbLine
  10
44.19
  20
-0.730606
  30
0
  11
44.205
  21
-0.742791
  31
0
  0
LINE
  5
359
  100
AcDbEntity
  8
1
  100
AcDbLine
  10
44.205
  20
-0.742791
  30
0
  11
44.22
  21
-0.754911
  31
0
  0
LINE
  5
35a
  100
AcDbEntity
  8
1
  100
AcDbLine
  10
44.22
  20
-0.754911
  30
0
  11
44.235
  21
-0.766965
  31
0
  0
LINE
  5
35b
  100
AcDbEntity
  8
1
  100
AcDbLine
  10
44.235
  20
-0.766965
  30
0
  11
44.25
  21
-0.778952
  31
0
  0
LINE
  5
35c
  100
AcDbEntity
  8
1
  100
AcDbLine
  10
44.25
  20
-0.778952
  30
0
  11
44.265
  21
-0.790872
  31
0
  0
LINE
  5
35d
  100
AcDbEntity
  8
1
  100
AcDbLine
  10
44.265
  20
-0.790872
  30
0
  11
44.28
  21
-0.802723
  31
0
  0
LINE
  5
35e
  100
AcDbEntity
  8
1
  100
AcDbLine
  10
44.28
  20
-0.802723
  30
0
  11
44.295
  21
-0.814504
  31
0
  0
LINE
  5
35f
  100
AcDbEntity
  8
1
  100
AcDbLine
  10
44.295
  20
-0.814504
  30
0
  11
44.31
  21
-0.826215
  31
0
  0
LINE
  5
360
  100
AcDbEntity
  8
1
  100
AcDbLine
  10
44.31
  20
-0.826215
  30
0
  11
44.325
  21
-0.837853
  31
0
  0
LINE
  5
361
  100
AcDbEntity
  8
1
  100
AcDbLine
  10
44.325
  20
-0.837853
  30
0
  11
44.34
  21
-0.849419
  31
0
  0
LINE
  5
362
  100
AcDbEntity
  8
1
  100
AcDbLine
  10
44.34
  20
-0.849419
  30
0
  11
44.355
  21
-0.86091
  31
0
  0
LINE
  5
363
  100
AcDbEntity
  8
1
  100
AcDbLine
  10
44.355
  20
-0.86091
  30
0
  11
44.37
  21
-0.872327
  31
0
  0
LINE
  5
364
  100
AcDbEntity
  8
1
  100
AcDbLine
  10
44.37
  20
-0.872327
  30
0
  11
44.385
  21
-0.883668
  31
0
  0
LINE
  5
365
  100
AcDbEntity
  8
1
  100
AcDbLine
  10
44.385
  20
-0.883668
  30
0
  11
44.4
  21
-0.894933
  31
0
  0
LINE
  5
366
  100
AcDbEntity
  8
1
  100
AcDbLine
  10
44.4
  20
-0.894933
  30
0
  11
44.415
  21
-0.906119
  31
0
  0
LINE
  5
367
  100
AcDbEntity
  8
1
  100
AcDbLine
  10
44.415
  20
-0.906119
  30
0
  11
44.43
  21
-0.917227
  31
0
  0
LINE
  5
368
  100
AcDbEntity
  8
1
  100
AcDbLine
  10
44.43
  20
-0.917227
  30
0
  11
44.445
  21
-0.928254
  31
0
  0
LINE
  5
369
  100
AcDbEntity
  8
1
  100
AcDbLine
  10
44.445
  20
-0.928254
  30
0
  11
44.46
  21
-0.939202
  31
0
  0
LINE
  5
36a
  100
AcDbEntity
  8
1
  100
AcDbLine
  10
44.46
  20
-0.939202
  30
0
  11
44.475
  21
-0.950067
  31
0
  0
LINE
  5
36b
  100
AcDbEntity
  8
1
  100
AcDbLine
  10
44.475
  20
-0.950067
  30
0
  11
44.49
  21
-0.96085
  31
0
  0
LINE
  5
36c
  100
AcDbEntity
  8
1
  100
AcDbLine
  10
44.49
  20
-0.96085
  30
0
  11
44.505
  21
-0.971549
  31
0
  0
LINE
  5
36d
  100
AcDbEntity
  8
1
  100
AcDbLine
  10
44.505
  20
-0.971549
  30
0
  11
44.52
  21
-0.982164
  31
0
  0
LINE
  5
36e
  100
AcDbEntity
  8
1
  100
AcDbLine
  10
44.52
  20
-0.982164
  30
0
  11
44.535
  21
-0.992693
  31
0
  0
LINE
  5
36f
  100
AcDbEntity
  8
1
  100
AcDbLine
  10
44.535
  20
-0.992693
  30
0
  11
44.55
  21
-1.003136
  31
0
  0
LINE
  5
370
  100
AcDbEntity
  8
1
  100
AcDbLine
  10
44.55
  20
-1.003136
  30
0
  11
44.565
  21
-1.013492
  31
0
  0
LINE
  5
371
  100
AcDbEntity
  8
1
  100
AcDbLine
  10
44.565
  20
-1.013492
  30
0
  11
44.58
  21
-1.02376
  31
0
  0
LINE
  5
372
  100
AcDbEntity
  8
1
  100
AcDbLine
  10
44.58
  20
-1.02376
  30
0
  11
44.595
  21
-1.033939
  31
0
  0
LINE
  5
373
  100
AcDbEntity
  8
1
  100
AcDbLine
  10
44.595
  20
-1.033939
  30
0
  11
44.61
  21
-1.044027
  31
0
  0
LINE
  5
374
  100
AcDbEntity
  8
1
  100
AcDbLine
  10
44.61
  20
-1.044027
  30
0
  11
44.625
  21
-1.054025
  31
0
  0
LINE
  5
375
  100
AcDbEntity
  8
1
  100
AcDbLine
  10
44.625
  20
-1.054025
  30
0
  11
44.64
  21
-1.063932
  31
0
  0
LINE
  5
376
  100
AcDbEntity
  8
1
  100
AcDbLine
  10
44.64
  20
-1.063932
  30
0
  11
44.655
  21
-1.073745
  31
0
  0
LINE
  5
377
  100
AcDbEntity
  8
1
  100
AcDbLine
  10
44.655
  20
-1.073745
  30
0
  11
44.67
  21
-1.083466
  31
0
  0
LINE
  5
378
  100
AcDbEntity
  8
1
  100
AcDbLine
  10
44.67
  20
-1.083466
  30
0
  11
44.685
  21
-1.093092
  31
0
  0
LINE
  5
379
  100
AcDbEntity
  8
1
  100
AcDbLine
  10
44.685
  20
-1.093092
  30
0
  11
44.7
  21
-1.102623
  31
0
  0
LINE
  5
37a
  100
AcDbEntity
  8
1
  100
AcDbLine
  10
44.7
  20
-1.102623
  30
0
  11
44.715
  21
-1.112059
  31
0
  0
LINE
  5
37b
  100
AcDbEntity
  8
1
  100
AcDbLine
  10
44.715
  20
-1.112059
  30
0
  11
44.73
  21
-1.121397
  31
0
  0
LINE
  5
37c
  100
AcDbEntity
  8
1
  100
AcDbLine
  10
44.73
  20
-1.121397
  30
0
  11
44.745
  21
-1.130638
  31
0
  0
LINE
  5
37d
  100
AcDbEntity
  8
1
  100
AcDbLine
  10
44.745
  20
-1.130638
  30
0
  11
44.76
  21
-1.139781
  31
0
  0
LINE
  5
37e
  100
AcDbEntity
  8
1
  100
AcDbLine
  10
44.76
  20
-1.139781
  30
0
  11
44.775
  21
-1.148825
  31
0
  0
LINE
  5
37f
  100
AcDbEntity
  8
1
  100
AcDbLine
  10
44.775
  20
-1.148825
  30
0
  11
44.79
  21
-1.157768
  31
0
  0
LINE
  5
380
  100
AcDbEntity
  8
1
  100
AcDbLine
  10
44.79
  20
-1.157768
  30
0
  11
44.805
  21
-1.166612
  31
0
  0
LINE
  5
381
  100
AcDbEntity
  8
1
  100
AcDbLine
  10
44.805
  20
-1.166612
  30
0
  11
44.82
  21
-1.175353
  31
0
  0
LINE
  5
382
  100
AcDbEntity
  8
1
  100
AcDbLine
  10
44.82
  20
-1.175353
  30
0
  11
44.835
  21
-1.183993
  31
0
  0
LINE
  5
383
  100
AcDbEntity
  8
1
  100
AcDbLine
  10
44.835
  20
-1.183993
  30
0
  11
44.85
  21
-1.192529
  31
0
  0
LINE
  5
384
  100
AcDbEntity
  8
1
  100
AcDbLine
  10
44.85
  20
-1.192529
  30
0
  11
44.865
  21
-1.200962
  31
0
  0
LINE
  5
385
  100
AcDbEntity
  8
1
  100
AcDbLine
  10
44.865
  20
-1.200962
  30
0
  11
44.88
  21
-1.20929
  31
0
  0
LINE
  5
386
  100
AcDbEntity
  8
1
  100
AcDbLine
  10
44.88
  20
-1.20929
  30
0
  11
44.895
  21
-1.217513
  31
0
  0
LINE
  5
387
  100
AcDbEntity
  8
1
  100
AcDbLine
  10
44.895
  20
-1.217513
  30
0
  11
44.91
  21
-1.225631
  31
0
  0
LINE
  5
388
  100
AcDbEntity
  8
1
  100
AcDbLine
  10
44.91
  20
-1.225631
  30
0
  11
44.925
  21
-1.233641
  31
0
  0
LINE
  5
389
  100
AcDbEntity
  8
1
  100
AcDbLine
  10
44.925
  20
-1.233641
  30
0
  11
44.94
  21
-1.241545
  31
0
  0
LINE
  5
38a
  100
AcDbEntity
  8
1
  100
AcDbLine
  10
44.94
  20
-1.241545
  30
0
  11
44.955
  21
-1.24934
  31
0
  0
LINE
  5
38b
  100
AcDbEntity
  8
1
  100
AcDbLine
  10
44.955
  20
-1.24934
  30
0
  11
44.97
  21
-1.257027
  31
0
  0
LINE
  5
38c
  100
AcDbEntity
  8
1
  100
AcDbLine
  10
44.97
  20
-1.257027
  30
0
  11
44.985
  21
-1.264605
  31
0
  0
LINE
  5
38d
  100
AcDbEntity
  8
1
  100
AcDbLine
  10
44.985
  20
-1.264605
  30
0
  11
45
  21
-1.272072
  31
0
  0
LINE
  5
38e
  100
AcDbEntity
  8
1
  100
AcDbLine
  10
45
  20
-1.473953
  30
0
  11
44.985
  21
-1.472511
  31
0
  0
LINE
  5
38f
  100
AcDbEntity
  8
1
  100
AcDbLine
  10
44.985
  20
-1.472511
  30
0
  11
44.97
  21
-1.470942
  31
0
  0
LINE
  5
390
  100
AcDbEntity
  8
1
  100
AcDbLine
  10
44.97
  20
-1.470942
  30
0
  11
44.955
  21
-1.469244
  31
0
  0
LINE
  5
391
  100
AcDbEntity
  8
1
  100
AcDbLine
  10
44.955
  20
-1.469244
  30
0
  11
44.94
  21
-1.467419
  31
0
  0
LINE
  5
392
  100
AcDbEntity
  8
1
  100
AcDbLine
  10
44.94
  20
-1.467419
  30
0
  11
44.925
  21
-1.465466
  31
0
  0
LINE
  5
393
  100
AcDbEntity
  8
1
  100
AcDbLine
  10
44.925
  20
-1.465466
  30
0
  11
44.91
  21
-1.463385
  31
0
  0
LINE
  5
394
  100
AcDbEntity
  8
1
  100
AcDbLine
  10
44.91
  20
-1.463385
  30
0
  11
44.895
  21
-1.461178
  31
0
  0
LINE
  5
395
  100
AcDbEntity
  8
1
  100
AcDbLine
  10
44.895
  20
-1.461178
  30
0
  11
44.88
  21
-1.458843
  31
0
  0
LINE
  5
396
  100
AcDbEntity
  8
1
  100
AcDbLine
  10
44.88
  20
-1.458843
  30
0
  11
44.865
  21
-1.456382
  31
0
  0
LINE
  5
397
  100
AcDbEntity
  8
1
  100
AcDbLine
  10
44.865
  20
-1.456382
  30
0
  11
44.85
  21
-1.453794
  31
0
  0
LINE
  5
398
  100
AcDbEntity
  8
1
  100
AcDbLine
  10
44.85
  20
-1.453794
  30
0
  11
44.835
  21
-1.451079
  31
0
  0
LINE
  5
399
  100
AcDbEntity
  8
1
  100
AcDbLine
  10
44.835
  20
-1.451079
  30
0
  11
44.82
  21
-1.448238
  31
0
  0
LINE
  5
39a
  100
AcDbEntity
  8
1
  100
AcDbLine
  10
44.82
  20
-1.448238
  30
0
  11
44.805
  21
-1.445271
  31
0
  0
LINE
  5
39b
  100
AcDbEntity
  8
1
  100
AcDbLine
  10
44.805
  20
-1.445271
  30
0
  11
44.79
  21
-1.442179
  31
0
  0
LINE
  5
39c
  100
AcDbEntity
  8
1
  100
AcDbLine
  10
44.79
  20
-1.442179
  30
0
  11
44.775
  21
-1.438961
  31
0
  0
LINE
  5
39d
  100
AcDbEntity
  8
1
  100
AcDbLine
  10
44.775
  20
-1.438961
  30
0
  11
44.76
  21
-1.435618
  31
0
  0
LINE
  5
39e
  100
AcDbEntity
  8
1
  100
AcDbLine
  10
44.76
  20
-1.435618
  30
0
  11
44.745
  21
-1.432151
  31
0
  0
LINE
  5
39f
  100
AcDbEntity
  8
1
  100
AcDbLine
  10
44.745
  20
-1.432151
  30
0
  11
44.73
  21
-1.428558
  31
0
  0
LINE
  5
3a0
  100
AcDbEntity
  8
1
  100
AcDbLine
  10
44.73
  20
-1.428558
  30
0
  11
44.715
  21
-1.424842
  31
0
  0
LINE
  5
3a1
  100
AcDbEntity
  8
1
  100
AcDbLine
  10
44.715
  20
-1.424842
  30
0
  11
44.7
  21
-1.421001
  31
0
  0
LINE
  5
3a2
  100
AcDbEntity
  8
1
  100
AcDbLine
  10
44.7
  20
-1.421001
  30
0
  11
44.685
  21
-1.417037
  31
0
  0
LINE
  5
3a3
  100
AcDbEntity
  8
1
  100
AcDbLine
  10
44.685
  20
-1.417037
  30
0
  11
44.67
  21
-1.41295
  31
0
  0
LINE
  5
3a4
  100
AcDbEntity
  8
1
  100
AcDbLine
  10
44.67
  20
-1.41295
  30
0
  11
44.655
  21
-1.40874
  31
0
  0
LINE
  5
3a5
  100
AcDbEntity
  8
1
  100
AcDbLine
  10
44.655
  20
-1.40874
  30
0
  11
44.64
  21
-1.404408
  31
0
  0
LINE
  5
3a6
  100
AcDbEntity
  8
1
  100
AcDbLine
  10
44.64
  20
-1.404408
  30
0
  11
44.625
  21
-1.399953
  31
0
  0
LINE
  5
3a7
  100
AcDbEntity
  8
1
  100
AcDbLine
  10
44.625
  20
-1.399953
  30
0
  11
44.61
  21
-1.395377
  31
0
  0
LINE
  5
3a8
  100
AcDbEntity
  8
1
  100
AcDbLine
  10
44.61
  20
-1.395377
  30
0
  11
44.595
  21
-1.390679
  31
0
  0
LINE
  5
3a9
  100
AcDbEntity
  8
1
  100
AcDbLine
  10
44.595
  20
-1.390679
  30
0
  11
44.58
  21
-1.38586
  31
0
  0
LINE
  5
3aa
  100
AcDbEntity
  8
1
  100
AcDbLine
  10
44.58
  20
-1.38586
  30
0
  11
44.565
  21
-1.380921
  31
0
  0
LINE
  5
3ab
  100
AcDbEntity
  8
1
  100
AcDbLine
  10
44.565
  20
-1.380921
  30
0
  11
44.55
  21
-1.375862
  31
0
  0
LINE
  5
3ac
  100
AcDbEntity
  8
1
  100
AcDbLine
  10
44.55
  20
-1.375862
  30
0
  11
44.535
  21
-1.370683
  31
0
  0
LINE
  5
3ad
  100
AcDbEntity
  8
1
  100
AcDbLine
  10
44.535
  20
-1.370683
  30
0
  11
44.52
  21
-1.365384
  31
0
  0
LINE
  5
3ae
  100
AcDbEntity
  8
1
  100
AcDbLine
  10
44.52
  20
-1.365384
  30
0
  11
44.505
  21
-1.359968
  31
0
  0
LINE
  5
3af
  100
AcDbEntity
  8
1
  100
AcDbLine
  10
44.505
  20
-1.359968
  30
0
  11
44.49
  21
-1.354433
  31
0
  0
LINE
  5
3b0
  100
AcDbEntity
  8
1
  100
AcDbLine
  10
44.49
  20
-1.354433
  30
0
  11
44.475
  21
-1.34878
  31
0
  0
LINE
  5
3b1
  100
AcDbEntity
  8
1
  100
AcDbLine
  10
44.475
  20
-1.34878
  30
0
  11
44.46
  21
-1.343009
  31
0
  0
LINE
  5
3b2
  100
AcDbEntity
  8
1
  100
AcDbLine
  10
44.46
  20
-1.343009
  30
0
  11
44.445
  21
-1.337122
  31
0
  0
LINE
  5
3b3
  100
AcDbEntity
  8
1
  100
AcDbLine
  10
44.445
  20
-1.337122
  30
0
  11
44.43
  21
-1.331119
  31
0
  0
LINE
  5
3b4
  100
AcDbEntity
  8
1
  100
AcDbLine
  10
44.43
  20
-1.331119
  30
0
  11
44.415
  21
-1.325
  31
0
  0
LINE
  5
3b5
  100
AcDbEntity
  8
1
  100
AcDbLine
  10
44.415
  20
-1.325
  30
0
  11
44.4
  21
-1.318766
  31
0
  0
LINE
  5
3b6
  100
AcDbEntity
  8
1
  100
AcDbLine
  10
44.4
  20
-1.318766
  30
0
  11
44.385
  21
-1.312417
  31
0
  0
LINE
  5
3b7
  100
AcDbEntity
  8
1
  100
AcDbLine
  10
44.385
  20
-1.312417
  30
0
  11
44.37
  21
-1.305954
  31
0
  0
LINE
  5
3b8
  100
AcDbEntity
  8
1
  100
AcDbLine
  10
44.37
  20
-1.305954
  30
0
  11
44.355
  21
-1.299378
  31
0
  0
LINE
  5
3b9
  100
AcDbEntity
  8
1
  100
AcDbLine
  10
44.355
  20
-1.299378
  30
0
  11
44.34
  21
-1.292688
  31
0
  0
LINE
  5
3ba
  100
AcDbEntity
  8
1
  100
AcDbLine
  10
44.34
  20
-1.292688
  30
0
  11
44.325
  21
-1.285886
  31
0
  0
LINE
  5
3bb
  100
AcDbEntity
  8
1
  100
AcDbLine
  10
44.325
  20
-1.285886
  30
0
  11
44.31
  21
-1.278972
  31
0
  0
LINE
  5
3bc
  100
AcDbEntity
  8
1
  100
AcDbLine
  10
44.31
  20
-1.278972
  30
0
  11
44.295
  21
-1.271947
  31
0
  0
LINE
  5
3bd
  100
AcDbEntity
  8
1
  100
AcDbLine
  10
44.295
  20
-1.271947
  30
0
  11
44.28
  21
-1.264812
  31
0
  0
LINE
  5
3be
  100
AcDbEntity
  8
1
  100
AcDbLine
  10
44.28
  20
-1.264812
  30
0
  11
44.265
  21
-1.257566
  31
0
  0
LINE
  5
3bf
  100
AcDbEntity
  8
1
  100
AcDbLine
  10
44.265
  20
-1.257566
  30
0
  11
44.25
  21
-1.250211
  31
0
  0
LINE
  5
3c0
  100
AcDbEntity
  8
1
  100
AcDbLine
  10
44.25
  20
-1.250211
  30
0
  11
44.235
  21
-1.242747
  31
0
  0
LINE
  5
3c1
  100
AcDbEntity
  8
1
  100
AcDbLine
  10
44.235
  20
-1.242747
  30
0
  11
44.22
  21
-1.235176
  31
0
  0
LINE
  5
3c2
  100
AcDbEntity
  8
1
  100
AcDbLine
  10
44.22
  20
-1.235176
  30
0
  11
44.205
  21
-1.227496
  31
0
  0
LINE
  5
3c3
  100
AcDbEntity
  8
1
  100
AcDbLine
  10
44.205
  20
-1.227496
  30
0
  11
44.19
  21
-1.219711
  31
0
  0
LINE
  5
3c4
  100
AcDbEntity
  8
1
  100
AcDbLine
  10
44.19
  20
-1.219711
  30
0
  11
44.175
  21
-1.211819
  31
0
  0
LINE
  5
3c5
  100
AcDbEntity
  8
1
  100
AcDbLine
  10
44.175
  20
-1.211819
  30
0
  11
44.16
  21
-1.203821
  31
0
  0
LINE
  5
3c6
  100
AcDbEntity
  8
1
  100
AcDbLine
  10
44.16
  20
-1.203821
  30
0
  11
44.145
  21
-1.195719
  31
0
  0
LINE
  5
3c7
  100
AcDbEntity
  8
1
  100
AcDbLine
  10
44.145
  20
-1.195719
  30
0
  11
44.13
  21
-1.187513
  31
0
  0
LINE
  5
3c8
  100
AcDbEntity
  8
1
  100
AcDbLine
  10
44.13
  20
-1.187513
  30
0
  11
44.115
  21
-1.179204
  31
0
  0
LINE
  5
3c9
  100
AcDbEntity
  8
1
  100
AcDbLine
  10
44.115
  20
-1.179204
  30
0
  11
44.1
  21
-1.170792
  31
0
  0
LINE
  5
3ca
  100
AcDbEntity
  8
1
  100
AcDbLine
  10
44.1
  20
-1.170792
  30
0
  11
44.085
  21
-1.162279
  31
0
  0
LINE
  5
3cb
  100
AcDbEntity
  8
1
  100
AcDbLine
  10
44.085
  20
-1.162279
  30
0
  11
44.07
  21
-1.153664
  31
0
  0
LINE
  5
3cc
  100
AcDbEntity
  8
1
  100
AcDbLine
  10
44.07
  20
-1.153664
  30
0
  11
44.055
  21
-1.144949
  31
0
  0
LINE
  5
3cd
  100
AcDbEntity
  8
1
  100
AcDbLine
  10
44.055
  20
-1.144949
  30
0
  11
44.04
  21
-1.136134
  31
0
  0
LINE
  5
3ce
  100
AcDbEntity
  8
1
  100
AcDbLine
  10
44.04
  20
-1.136134
  30
0
  11
44.025
  21
-1.127221
  31
0
  0
LINE
  5
3cf
  100
AcDbEntity
  8
1
  100
AcDbLine
  10
44.025
  20
-1.127221
  30
0
  11
44.01
  21
-1.11821
  31
0
  0
LINE
  5
3d0
  100
AcDbEntity
  8
1
  100
AcDbLine
  10
44.01
  20
-1.11821
  30
0
  11
43.995
  21
-1.109101
  31
0
  0
LINE
  5
3d1
  100
AcDbEntity
  8
1
  100
AcDbLine
  10
43.995
  20
-1.109101
  30
0
  11
43.98
  21
-1.099896
  31
0
  0
LINE
  5
3d2
  100
AcDbEntity
  8
1
  100
AcDbLine
  10
43.98
  20
-1.099896
  30
0
  11
43.965
  21
-1.090595
  31
0
  0
LINE
  5
3d3
  100
AcDbEntity
  8
1
  100
AcDbLine
  10
43.965
  20
-1.090595
  30
0
  11
43.95
  21
-1.0812
  31
0
  0
LINE
  5
3d4
  100
AcDbEntity
  8
1
  100
AcDbLine
  10
43.95
  20
-1.0812
  30
0
  11
43.935
  21
-1.07171
  31
0
  0
LINE
  5
3d5
  100
AcDbEntity
  8
1
  100
AcDbLine
  10
43.935
  20
-1.07171
  30
0
  11
43.92
  21
-1.062128
  31
0
  0
LINE
  5
3d6
  100
AcDbEntity
  8
1
  100
AcDbLine
  10
43.92
  20
-1.062128
  30
0
  11
43.905
  21
-1.052452
  31
0
  0
LINE
  5
3d7
  100
AcDbEntity
  8
1
  100
AcDbLine
  10
43.905
  20
-1.052452
  30
0
  11
43.89
  21
-1.042686
  31
0
  0
LINE
  5
3d8
  100
AcDbEntity
  8
1
  100
AcDbLine
  10
43.89
  20
-1.042686
  30
0
  11
43.875
  21
-1.032829
  31
0
  0
LINE
  5
3d9
  100
AcDbEntity
  8
1
  100
AcDbLine
  10
43.875
  20
-1.032829
  30
0
  11
43.86
  21
-1.022881
  31
0
  0
LINE
  5
3da
  100
AcDbEntity
  8
1
  100
AcDbLine
  10
43.86
  20
-1.022881
  30
0
  11
43.845
  21
-1.012845
  31
0
  0
LINE
  5
3db
  100
AcDbEntity
  8
1
  100
AcDbLine
  10
43.845
  20
-1.012845
  30
0
  11
43.83
  21
-1.002721
  31
0
  0
LINE
  5
3dc
  100
AcDbEntity
  8
1
  100
AcDbLine
  10
43.83
  20
-1.002721
  30
0
  11
43.815
  21
-0.99251
  31
0
  0
LINE
  5
3dd
  100
AcDbEntity
  8
1
  100
AcDbLine
  10
43.815
  20
-0.99251
  30
0
  11
43.8
  21
-0.982212
  31
0
  0
LINE
  5
3de
  100
AcDbEntity
  8
1
  100
AcDbLine
  10
43.8
  20
-0.982212
  30
0
  11
43.785
  21
-0.971829
  31
0
  0
LINE
  5
3df
  100
AcDbEntity
  8
1
  100
AcDbLine
  10
43.785
  20
-0.971829
  30
0
  11
43.77
  21
-0.961362
  31
0
  0
LINE
  5
3e0
  100
AcDbEntity
  8
1
  100
AcDbLine
  10
43.77
  20
-0.961362
  30
0
  11
43.755
  21
-0.950811
  31
0
  0
LINE
  5
3e1
  100
AcDbEntity
  8
1
  100
AcDbLine
  10
43.755
  20
-0.950811
  30
0
  11
43.74
  21
-0.940177
  31
0
  0
LINE
  5
3e2
  100
AcDbEntity
  8
1
  100
AcDbLine
  10
43.74
  20
-0.940177
  30
0
  11
43.725
  21
-0.929461
  31
0
  0
LINE
  5
3e3
  100
AcDbEntity
  8
1
  100
AcDbLine
  10
43.725
  20
-0.929461
  30
0
  11
43.71
  21
-0.918665
  31
0
  0
LINE
  5
3e4
  100
AcDbEntity
  8
1
  100
AcDbLine
  10
43.71
  20
-0.918665
  30
0
  11
43.695
  21
-0.907788
  31
0
  0
LINE
  5
3e5
  100
AcDbEntity
  8
1
  100
AcDbLine
  10
43.695
  20
-0.907788
  30
0
  11
43.68
  21
-0.896833
  31
0
  0
LINE
  5
3e6
  100
AcDbEntity
  8
1
  100
AcDbLine
  10
43.68
  20
-0.896833
  30
0
  11
43.665
  21
-0.8858
  31
0
  0
LINE
  5
3e7
  100
AcDbEntity
  8
1
  100
AcDbLine
  10
43.665
  20
-0.8858
  30
0
  11
43.65
  21
-0.87469
  31
0
  0
LINE
  5
3e8
  100
AcDbEntity
  8
1
  100
AcDbLine
  10
43.65
  20
-0.87469
  30
0
  11
43.635
  21
-0.863503
  31
0
  0
LINE
  5
3e9
  100
AcDbEntity
  8
1
  100
AcDbLine
  10
43.635
  20
-0.863503
  30
0
  11
43.62
  21
-0.852242
  31
0
  0
LINE
  5
3ea
  100
AcDbEntity
  8
1
  100
AcDbLine
  10
43.62
  20
-0.852242
  30
0
  11
43.605
  21
-0.840907
  31
0
  0
LINE
  5
3eb
  100
AcDbEntity
  8
1
  100
AcDbLine
  10
43.605
  20
-0.840907
  30
0
  11
43.59
  21
-0.829498
  31
0
  0
LINE
  5
3ec
  100
AcDbEntity
  8
1
  100
AcDbLine
  10
43.59
  20
-0.829498
  30
0
  11
43.575
  21
-0.818017
  31
0
  0
LINE
  5
3ed
  100
AcDbEntity
  8
1
  100
AcDbLine
  10
43.575
  20
-0.818017
  30
0
  11
43.56
  21
-0.806465
  31
0
  0
LINE
  5
3ee
  100
AcDbEntity
  8
1
  100
AcDbLine
  10
43.56
  20
-0.806465
  30
0
  11
43.545
  21
-0.794843
  31
0
  0
LINE
  5
3ef
  100
AcDbEntity
  8
1
  100
AcDbLine
  10
43.545
  20
-0.794843
  30
0
  11
43.53
  21
-0.783152
  31
0
  0
LINE
  5
3f0
  100
AcDbEntity
  8
1
  100
AcDbLine
  10
43.53
  20
-0.783152
  30
0
  11
43.515
  21
-0.771393
  31
0
  0
LINE
  5
3f1
  100
AcDbEntity
  8
1
  100
AcDbLine
  10
43.515
  20
-0.771393
  30
0
  11
43.5
  21
-0.759567
  31
0
  0
LINE
  5
3f2
  100
AcDbEntity
  8
1
  100
AcDbLine
  10
43.5
  20
-0.759567
  30
0
  11
43.485
  21
-0.747674
  31
0
  0
LINE
  5
3f3
  100
AcDbEntity
  8
1
  100
AcDbLine
  10
43.485
  20
-0.747674
  30
0
  11
43.47
  21
-0.735717
  31
0
  0
LINE
  5
3f4
  100
AcDbEntity
  8
1
  100
AcDbLine
  10
43.47
  20
-0.735717
  30
0
  11
43.455
  21
-0.723695
  31
0
  0
LINE
  5
3f5
  100
AcDbEntity
  8
1
  100
AcDbLine
  10
43.455
  20
-0.723695
  30
0
  11
43.44
  21
-0.711611
  31
0
  0
LINE
  5
3f6
  100
AcDbEntity
  8
1
  100
AcDbLine
  10
43.44
  20
-0.711611
  30
0
  11
43.425
  21
-0.699465
  31
0
  0
LINE
  5
3f7
  100
AcDbEntity
  8
1
  100
AcDbLine
  10
43.425
  20
-0.699465
  30
0
  11
43.41
  21
-0.687258
  31
0
  0
LINE
  5
3f8
  100
AcDbEntity
  8
1
  100
AcDbLine
  10
43.41
  20
-0.687258
  30
0
  11
43.395
  21
-0.674991
  31
0
  0
LINE
  5
3f9
  100
AcDbEntity
  8
1
  100
AcDbLine
  10
43.395
  20
-0.674991
  30
0
  11
43.38
  21
-0.662666
  31
0
  0
LINE
  5
3fa
  100
AcDbEntity
  8
1
  100
AcDbLine
  10
43.38
  20
-0.662666
  30
0
  11
43.365
  21
-0.650283
  31
0
  0
LINE
  5
3fb
  100
AcDbEntity
  8
1
  100
AcDbLine
  10
43.365
  20
-0.650283
  30
0
  11
43.35
  21
-0.637843
  31
0
  0
LINE
  5
3fc
  100
AcDbEntity
  8
1
  100
AcDbLine
  10
43.35
  20
-0.637843
  30
0
  11
43.335
  21
-0.625348
  31
0
  0
LINE
  5
3fd
  100
AcDbEntity
  8
1
  100
AcDbLine
  10
43.335
  20
-0.625348
  30
0
  11
43.32
  21
-0.612799
  31
0
  0
LINE
  5
3fe
  100
AcDbEntity
  8
1
  100
AcDbLine
  10
43.32
  20
-0.612799
  30
0
  11
43.305
  21
-0.600196
  31
0
  0
LINE
  5
3ff
  100
AcDbEntity
  8
1
  100
AcDbLine
  10
43.305
  20
-0.600196
  30
0
  11
43.29
  21
-0.587541
  31
0
  0
LINE
  5
400
  100
AcDbEntity
  8
1
  100
AcDbLine
  10
43.29
  20
-0.587541
  30
0
  11
43.275
  21
-0.574835
  31
0
  0
LINE
  5
401
  100
AcDbEntity
  8
1
  100
AcDbLine
  10
43.275
  20
-0.574835
  30
0
  11
43.26
  21
-0.562079
  31
0
  0
LINE
  5
402
  100
AcDbEntity
  8
1
  100
AcDbLine
  10
43.26
  20
-0.562079
  30
0
  11
43.245
  21
-0.549274
  31
0
  0
LINE
  5
403
  100
AcDbEntity
  8
1
  100
AcDbLine
  10
43.245
  20
-0.549274
  30
0
  11
43.23
  21
-0.536421
  31
0
  0
LINE
  5
404
  100
AcDbEntity
  8
1
  100
AcDbLine
  10
43.23
  20
-0.536421
  30
0
  11
43.215
  21
-0.523522
  31
0
  0
LINE
  5
405
  100
AcDbEntity
  8
1
  100
AcDbLine
  10
43.215
  20
-0.523522
  30
0
  11
43.2
  21
-0.510577
  31
0
  0
LINE
  5
406
  100
AcDbEntity
  8
1
  100
AcDbLine
  10
43.2
  20
-0.510577
  30
0
  11
43.185
  21
-0.497588
  31
0
  0
LINE
  5
407
  100
AcDbEntity
  8
1
  100
AcDbLine
  10
43.185
  20
-0.497588
  30
0
  11
43.17
  21
-0.484555
  31
0
  0
LINE
  5
408
  100
AcDbEntity
  8
1
  100
AcDbLine
  10
43.17
  20
-0.484555
  30
0
  11
43.155
  21
-0.471481
  31
0
  0
LINE
  5
409
  100
AcDbEntity
  8
1
  100
AcDbLine
  10
43.155
  20
-0.471481
  30
0
  11
43.14
  21
-0.458365
  31
0
  0
LINE
  5
40a
  100
AcDbEntity
  8
1
  100
AcDbLine
  10
43.14
  20
-0.458365
  30
0
  11
43.125
  21
-0.44521
  31
0
  0
LINE
  5
40b
  100
AcDbEntity
  8
1
  100
AcDbLine
  10
43.125
  20
-0.44521
  30
0
  11
43.11
  21
-0.432015
  31
0
  0
LINE
  5
40c
  100
AcDbEntity
  8
1
  100
AcDbLine
  10
43.11
  20
-0.432015
  30
0
  11
43.095
  21
-0.418784
  31
0
  0
LINE
  5
40d
  100
AcDbEntity
  8
1
  100
AcDbLine
  10
43.095
  20
-0.418784
  30
0
  11
43.08
  21
-0.405515
  31
0
  0
LINE
  5
40e
  100
AcDbEntity
  8
1
  100
AcDbLine
  10
43.08
  20
-0.405515
  30
0
  11
43.065
  21
-0.392212
  31
0
  0
LINE
  5
40f
  100
AcDbEntity
  8
1
  100
AcDbLine
  10
43.065
  20
-0.392212
  30
0
  11
43.05
  21
-0.378874
  31
0
  0
LINE
  5
410
  100
AcDbEntity
  8
1
  100
AcDbLine
  10
43.05
  20
-0.378874
  30
0
  11
43.035
  21
-0.365504
  31
0
  0
LINE
  5
411
  100
AcDbEntity
  8
1
  100
AcDbLine
  10
43.035
  20
-0.365504
  30
0
  11
43.02
  21
-0.352102
  31
0
  0
LINE
  5
412
  100
AcDbEntity
  8
1
  100
AcDbLine
  10
43.02
  20
-0.352102
  30
0
  11
43.005
  21
-0.338669
  31
0
  0
LINE
  5
413
  100
AcDbEntity
  8
1
  100
AcDbLine
  10
43.005
  20
-0.338669
  30
0
  11
42.99
  21
-0.325206
  31
0
  0
LINE
  5
414
  100
AcDbEntity
  8
1
  100
AcDbLine
  10
42.99
  20
-0.325206
  30
0
  11
42.975
  21
-0.311716
  31
0
  0
LINE
  5
415
  100
AcDbEntity
  8
1
  100
AcDbLine
  10
42.975
  20
-0.311716
  30
0
  11
42.96
  21
-0.298198
  31
0
  0
LINE
  5
416
  100
AcDbEntity
  8
1
  100
AcDbLine
  10
42.96
  20
-0.298198
  30
0
  11
42.945
  21
-0.284654
  31
0
  0
LINE
  5
417
  100
AcDbEntity
  8
1
  100
AcDbLine
  10
42.945
  20
-0.284654
  30
0
  11
42.93
  21
-0.271086
  31
0
  0
LINE
  5
418
  100
AcDbEntity
  8
1
  100
AcDbLine
  10
42.93
  20
-0.271086
  30
0
  11
42.915
  21
-0.257494
  31
0
  0
LINE
  5
419
  100
AcDbEntity
  8
1
  100
AcDbLine
  10
42.915
  20
-0.257494
  30
0
  11
42.9
  21
-0.243879
  31
0
  0
LINE
  5
41a
  100
AcDbEntity
  8
1
  100
AcDbLine
  10
42.9
  20
-0.243879
  30
0
  11
42.885
  21
-0.230244
  31
0
  0
LINE
  5
41b
  100
AcDbEntity
  8
1
  100
AcDbLine
  10
42.885
  20
-0.230244
  30
0
  11
42.87
  21
-0.216588
  31
0
  0
LINE
  5
41c
  100
AcDbEntity
  8
1
  100
AcDbLine
  10
42.87
  20
-0.216588
  30
0
  11
42.855
  21
-0.202914
  31
0
  0
LINE
  5
41d
  100
AcDbEntity
  8
1
  100
AcDbLine
  10
42.855
  20
-0.202914
  30
0
  11
42.84
  21
-0.189222
  31
0
  0
LINE
  5
41e
  100
AcDbEntity
  8
1
  100
AcDbLine
  10
42.84
  20
-0.189222
  30
0
  11
42.825
  21
-0.175513
  31
0
  0
LINE
  5
41f
  100
AcDbEntity
  8
1
  100
AcDbLine
  10
42.825
  20
-0.175513
  30
0
  11
42.81
  21
-0.161789
  31
0
  0
LINE
  5
420
  100
AcDbEntity
  8
1
  100
AcDbLine
  10
42.81
  20
-0.161789
  30
0
  11
42.795
  21
-0.148051
  31
0
  0
LINE
  5
421
  100
AcDbEntity
  8
1
  100
AcDbLine
  10
42.795
  20
-0.148051
  30
0
  11
42.78
  21
-0.134301
  31
0
  0
LINE
  5
422
  100
AcDbEntity
  8
1
  100
AcDbLine
  10
42.78
  20
-0.134301
  30
0
  11
42.765
  21
-0.120538
  31
0
  0
LINE
  5
423
  100
AcDbEntity
  8
1
  100
AcDbLine
  10
42.765
  20
-0.120538
  30
0
  11
42.75
  21
-0.106765
  31
0
  0
LINE
  5
424
  100
AcDbEntity
  8
1
  100
AcDbLine
  10
42.75
  20
-0.106765
  30
0
  11
42.735
  21
-0.092983
  31
0
  0
LINE
  5
425
  100
AcDbEntity
  8
1
  100
AcDbLine
  10
42.735
  20
-0.092983
  30
0
  11
42.72
  21
-0.079193
  31
0
  0
LINE
  5
426
  100
AcDbEntity
  8
1
  100
AcDbLine
  10
42.72
  20
-0.079193
  30
0
  11
42.705
  21
-0.065396
  31
0
  0
LINE
  5
427
  100
AcDbEntity
  8
1
  100
AcDbLine
  10
42.705
  20
-0.065396
  30
0
  11
42.69
  21
-0.051593
  31
0
  0
LINE
  5
428
  100
AcDbEntity
  8
1
  100
AcDbLine
  10
42.69
  20
-0.051593
  30
0
  11
42.675
  21
-0.037785
  31
0
  0
LINE
  5
429
  100
AcDbEntity
  8
1
  100
AcDbLine
  10
42.675
  20
-0.037785
  30
0
  11
42.66
  21
-0.023975
  31
0
  0
LINE
  5
42a
  100
AcDbEntity
  8
1
  100
AcDbLine
  10
42.66
  20
-0.023975
  30
0
  11
42.645
  21
-0.010162
  31
0
  0
LINE
  5
42b
  100
AcDbEntity
  8
1
  100
AcDbLine
  10
42.645
  20
-0.010162
  30
0
  11
42.63
  21
0.003652
  31
0
  0
LINE
  5
42c
  100
AcDbEntity
  8
1
  100
AcDbLine
  10
42.63
  20
0.003652
  30
0
  11
42.615
  21
0.017465
  31
0
  0
LINE
  5
42d
  100
AcDbEntity
  8
1
  100
AcDbLine
  10
42.615
  20
0.017465
  30
0
  11
42.6
  21
0.031277
  31
0
  0
LINE
  5
42e
  100
AcDbEntity
  8
1
  100
AcDbLine
  10
42.6
  20
0.031277
  30
0
  11
42.585
  21
0.045086
  31
0
  0
LINE
  5
42f
  100
AcDbEntity
  8
1
  100
AcDbLine
  10
42.585
  20
0.045086
  30
0
  11
42.57
  21
0.058891
  31
0
  0
LINE
  5
430
  100
AcDbEntity
  8
1
  100
AcDbLine
  10
42.57
  20
0.058891
  30
0
  11
42.555
  21
0.072691
  31
0
  0
LINE
  5
431
  100
AcDbEntity
  8
1
  100
AcDbLine
  10
42.555
  20
0.072691
  30
0
  11
42.54
  21
0.086485
  31
0
  0
LINE
  5
432
  100
AcDbEntity
  8
1
  100
AcDbLine
  10
42.54
  20
0.086485
  30
0
  11
42.525
  21
0.100271
  31
0
  0
LINE
  5
433
  100
AcDbEntity
  8
1
  100
AcDbLine
  10
42.525
  20
0.100271
  30
0
  11
42.51
  21
0.114048
  31
0
  0
LINE
  5
434
  100
AcDbEntity
  8
1
  100
AcDbLine
  10
42.51
  20
0.114048
  30
0
  11
42.495
  21
0.127816
  31
0
  0
LINE
  5
435
  100
AcDbEntity
  8
1
  100
AcDbLine
  10
42.495
  20
0.127816
  30
0
  11
42.48
  21
0.141572
  31
0
  0
LINE
  5
436
  100
AcDbEntity
  8
1
  100
AcDbLine
  10
42.48
  20
0.141572
  30
0
  11
42.465
  21
0.155316
  31
0
  0
LINE
  5
437
  100
AcDbEntity
  8
1
  100
AcDbLine
  10
42.465
  20
0.155316
  30
0
  11
42.45
  21
0.169047
  31
0
  0
LINE
  5
438
  100
AcDbEntity
  8
1
  100
AcDbLine
  10
42.45
  20
0.169047
  30
0
  11
42.435
  21
0.182763
  31
0
  0
LINE
  5
439
  100
AcDbEntity
  8
1
  100
AcDbLine
  10
42.435
  20
0.182763
  30
0
  11
42.42
  21
0.196463
  31
0
  0
LINE
  5
43a
  100
AcDbEntity
  8
1
  100
AcDbLine
  10
42.42
  20
0.196463
  30
0
  11
42.405
  21
0.210146
  31
0
  0
LINE
  5
43b
  100
AcDbEntity
  8
1
  100
AcDbLine
  10
42.405
  20
0.210146
  30
0
  11
42.39
  21
0.22381
  31
0
  0
LINE
  5
43c
  100
AcDbEntity
  8
1
  100
AcDbLine
  10
42.39
  20
0.22381
  30
0
  11
42.375
  21
0.237455
  31
0
  0
LINE
  5
43d
  100
AcDbEntity
  8
1
  100
AcDbLine
  10
42.375
  20
0.237455
  30
0
  11
42.36
  21
0.25108
  31
0
  0
LINE
  5
43e
  100
AcDbEntity
  8
1
  100
AcDbLine
  10
42.36
  20
0.25108
  30
0
  11
42.345
  21
0.264683
  31
0
  0
LINE
  5
43f
  100
AcDbEntity
  8
1
  100
AcDbLine
  10
42.345
  20
0.264683
  30
0
  11
42.33
  21
0.278262
  31
0
  0
LINE
  5
440
  100
AcDbEntity
  8
1
  100
AcDbLine
  10
42.33
  20
0.278262
  30
0
  11
42.315
  21
0.291818
  31
0
  0
LINE
  5
441
  100
AcDbEntity
  8
1
  100
AcDbLine
  10
42.315
  20
0.291818
  30
0
  11
42.3
  21
0.305348
  31
0
  0
LINE
  5
442
  100
AcDbEntity
  8
1
  100
AcDbLine
  10
42.3
  20
0.305348
  30
0
  11
42.285
  21
0.318852
  31
0
  0
LINE
  5
443
  100
AcDbEntity
  8
1
  100
AcDbLine
  10
42.285
  20
0.318852
  30
0
  11
42.27
  21
0.332327
  31
0
  0
LINE
  5
444
  100
AcDbEntity
  8
1
  100
AcDbLine
  10
42.27
  20
0.332327
  30
0
  11
42.255
  21
0.345774
  31
0
  0
LINE
  5
445
  100
AcDbEntity
  8
1
  100
AcDbLine
  10
42.255
  20
0.345774
  30
0
  11
42.24
  21
0.359191
  31
0
  0
LINE
  5
446
  100
AcDbEntity
  8
1
  100
AcDbLine
  10
42.24
  20
0.359191
  30
0
  11
42.225
  21
0.372577
  31
0
  0
LINE
  5
447
  100
AcDbEntity
  8
1
  100
AcDbLine
  10
42.225
  20
0.372577
  30
0
  11
42.21
  21
0.38593
  31
0
  0
LINE
  5
448
  100
AcDbEntity
  8
1
  100
AcDbLine
  10
42.21
  20
0.38593
  30
0
  11
42.195
  21
0.39925
  31
0
  0
LINE
  5
449
  100
AcDbEntity
  8
1
  100
AcDbLine
  10
42.195
  20
0.39925
  30
0
  11
42.18
  21
0.412535
  31
0
  0
LINE
  5
44a
  100
AcDbEntity
  8
1
  100
AcDbLine
  10
42.18
  20
0.412535
  30
0
  11
42.165
  21
0.425784
  31
0
  0
LINE
  5
44b
  100
AcDbEntity
  8
1
  100
AcDbLine
  10
42.165
  20
0.425784
  30
0
  11
42.15
  21
0.438996
  31
0
  0
LINE
  5
44c
  100
AcDbEntity
  8
1
  100
AcDbLine
  10
42.15
  20
0.438996
  30
0
  11
42.135
  21
0.45217
  31
0
  0
LINE
  5
44d
  100
AcDbEntity
  8
1
  100
AcDbLine
  10
42.135
  20
0.45217
  30
0
  11
42.12
  21
0.465304
  31
0
  0
LINE
  5
44e
  100
AcDbEntity
  8
1
  100
AcDbLine
  10
42.12
  20
0.465304
  30
0
  11
42.105
  21
0.478398
  31
0
  0
LINE
  5
44f
  100
AcDbEntity
  8
1
  100
AcDbLine
  10
42.105
  20
0.478398
  30
0
  11
42.09
  21
0.491451
  31
0
  0
LINE
  5
450
  100
AcDbEntity
  8
1
  100
AcDbLine
  10
42.09
  20
0.491451
  30
0
  11
42.075
  21
0.504461
  31
0
  0
LINE
  5
451
  100
AcDbEntity
  8
1
  100
AcDbLine
  10
42.075
  20
0.504461
  30
0
  11
42.06
  21
0.517427
  31
0
  0
LINE
  5
452
  100
AcDbEntity
  8
1
  100
AcDbLine
  10
42.06
  20
0.517427
  30
0
  11
42.045
  21
0.530347
  31
0
  0
LINE
  5
453
  100
AcDbEntity
  8
1
  100
AcDbLine
  10
42.045
  20
0.530347
  30
0
  11
42.03
  21
0.543222
  31
0
  0
LINE
  5
454
  100
AcDbEntity
  8
1
  100
AcDbLine
  10
42.03
  20
0.543222
  30
0
  11
42.015
  21
0.55605
  31
0
  0
LINE
  5
455
  100
AcDbEntity
  8
1
  100
AcDbLine
  10
42.015
  20
0.55605
  30
0
  11
42
  21
0.568829
  31
0
  0
LINE
  5
456
  100
AcDbEntity
  8
1
  100
AcDbLine
  10
42
  20
0.568829
  30
0
  11
41.985
  21
0.581559
  31
0
  0
LINE
  5
457
  100
AcDbEntity
  8
1
  100
AcDbLine
  10
41.985
  20
0.581559
  30
0
  11
41.97
  21
0.594238
  31
0
  0
LINE
  5
458
  100
AcDbEntity
  8
1
  100
AcDbLine
  10
41.97
  20
0.594238
  30
0
  11
41.955
  21
0.606865
  31
0
  0
LINE
  5
459
  100
AcDbEntity
  8
1
  100
AcDbLine
  10
41.955
  20
0.606865
  30
0
  11
41.94
  21
0.61944
  31
0
  0
LINE
  5
45a
  100
AcDbEntity
  8
1
  100
AcDbLine
  10
41.94
  20
0.61944
  30
0
  11
41.925
  21
0.631961
  31
0
  0
LINE
  5
45b
  100
AcDbEntity
  8
1
  100
AcDbLine
  10
41.925
  20
0.631961
  30
0
  11
41.91
  21
0.644427
  31
0
  0
LINE
  5
45c
  100
AcDbEntity
  8
1
  100
AcDbLine
  10
41.91
  20
0.644427
  30
0
  11
41.895
  21
0.656837
  31
0
  0
LINE
  5
45d
  100
AcDbEntity
  8
1
  100
AcDbLine
  10
41.895
  20
0.656837
  30
0
  11
41.88
  21
0.669189
  31
0
  0
LINE
  5
45e
  100
AcDbEntity
  8
1
  100
AcDbLine
  10
41.88
  20
0.669189
  30
0
  11
41.865
  21
0.681484
  31
0
  0
LINE
  5
45f
  100
AcDbEntity
  8
1
  100
AcDbLine
  10
41.865
  20
0.681484
  30
0
  11
41.85
  21
0.693719
  31
0
  0
LINE
  5
460
  100
AcDbEntity
  8
1
  100
AcDbLine
  10
41.85
  20
0.693719
  30
0
  11
41.835
  21
0.705894
  31
0
  0
LINE
  5
461
  100
AcDbEntity
  8
1
  100
AcDbLine
  10
41.835
  20
0.705894
  30
0
  11
41.82
  21
0.718008
  31
0
  0
LINE
  5
462
  100
AcDbEntity
  8
1
  100
AcDbLine
  10
41.82
  20
0.718008
  30
0
  11
41.805
  21
0.730059
  31
0
  0
LINE
  5
463
  100
AcDbEntity
  8
1
  100
AcDbLine
  10
41.805
  20
0.730059
  30
0
  11
41.79
  21
0.742047
  31
0
  0
LINE
  5
464
  100
AcDbEntity
  8
1
  100
AcDbLine
  10
41.79
  20
0.742047
  30
0
  11
41.775
  21
0.75397
  31
0
  0
LINE
  5
465
  100
AcDbEntity
  8
1
  100
AcDbLine
  10
41.775
  20
0.75397
  30
0
  11
41.76
  21
0.765827
  31
0
  0
LINE
  5
466
  100
AcDbEntity
  8
1
  100
AcDbLine
  10
41.76
  20
0.765827
  30
0
  11
41.745
  21
0.777618
  31
0
  0
LINE
  5
467
  100
AcDbEntity
  8
1
  100
AcDbLine
  10
41.745
  20
0.777618
  30
0
  11
41.73
  21
0.789342
  31
0
  0
LINE
  5
468
  100
AcDbEntity
  8
1
  100
AcDbLine
  10
41.73
  20
0.789342
  30
0
  11
41.715
  21
0.800996
  31
0
  0
LINE
  5
469
  100
AcDbEntity
  8
1
  100
AcDbLine
  10
41.715
  20
0.800996
  30
0
  11
41.7
  21
0.812581
  31
0
  0
LINE
  5
46a
  100
AcDbEntity
  8
1
  100
AcDbLine
  10
41.7
  20
0.812581
  30
0
  11
41.685
  21
0.824096
  31
0
  0
LINE
  5
46b
  100
AcDbEntity
  8
1
  100
AcDbLine
  10
41.685
  20
0.824096
  30
0
  11
41.67
  21
0.835539
  31
0
  0
LINE
  5
46c
  100
AcDbEntity
  8
1
  100
AcDbLine
  10
41.67
  20
0.835539
  30
0
  11
41.655
  21
0.846909
  31
0
  0
LINE
  5
46d
  100
AcDbEntity
  8
1
  100
AcDbLine
  10
41.655
  20
0.846909
  30
0
  11
41.64
  21
0.858205
  31
0
  0
LINE
  5
46e
  100
AcDbEntity
  8
1
  100
AcDbLine
  10
41.64
  20
0.858205
  30
0
  11
41.625
  21
0.869427
  31
0
  0
LINE
  5
46f
  100
AcDbEntity
  8
1
  100
AcDbLine
  10
41.625
  20
0.869427
  30
0
  11
41.61
  21
0.880573
  31
0
  0
LINE
  5
470
  100
AcDbEntity
  8
1
  100
AcDbLine
  10
41.61
  20
0.880573
  30
0
  11
41.595
  21
0.891643
  31
0
  0
LINE
  5
471
  100
AcDbEntity
  8
1
  100
AcDbLine
  10
41.595
  20
0.891643
  30
0
  11
41.58
  21
0.902635
  31
0
  0
LINE
  5
472
  100
AcDbEntity
  8
1
  100
AcDbLine
  10
41.58
  20
0.902635
  30
0
  11
41.565
  21
0.913549
  31
0
  0
LINE
  5
473
  100
AcDbEntity
  8
1
  100
AcDbLine
  10
41.565
  20
0.913549
  30
0
  11
41.55
  21
0.924383
  31
0
  0
LINE
  5
474
  100
AcDbEntity
  8
1
  100
AcDbLine
  10
41.55
  20
0.924383
  30
0
  11
41.535
  21
0.935137
  31
0
  0
LINE
  5
475
  100
AcDbEntity
  8
1
  100
AcDbLine
  10
41.535
  20
0.935137
  30
0
  11
41.52
  21
0.945809
  31
0
  0
LINE
  5
476
  100
AcDbEntity
  8
1
  100
AcDbLine
  10
41.52
  20
0.945809
  30
0
  11
41.505
  21
0.956399
  31
0
  0
LINE
  5
477
  100
AcDbEntity
  8
1
  100
AcDbLine
  10
41.505
  20
0.956399
  30
0
  11
41.49
  21
0.966906
  31
0
  0
LINE
  5
478
  100
AcDbEntity
  8
1
  100
AcDbLine
  10
41.49
  20
0.966906
  30
0
  11
41.475
  21
0.977329
  31
0
  0
LINE
  5
479
  100
AcDbEntity
  8
1
  100
AcDbLine
  10
41.475
  20
0.977329
  30
0
  11
41.46
  21
0.987667
  31
0
  0
LINE
  5
47a
  100
AcDbEntity
  8
1
  100
AcDbLine
  10
41.46
  20
0.987667
  30
0
  11
41.445
  21
0.997919
  31
0
  0
LINE
  5
47b
  100
AcDbEntity
  8
1
  100
AcDbLine
  10
41.445
  20
0.997919
  30
0
  11
41.43
  21
1.008085
  31
0
  0
LINE
  5
47c
  100
AcDbEntity
  8
1
  100
AcDbLine
  10
41.43
  20
1.008085
  30
0
  11
41.415
  21
1.018162
  31
0
  0
LINE
  5
47d
  100
AcDbEntity
  8
1
  100
AcDbLine
  10
41.415
  20
1.018162
  30
0
  11
41.4
  21
1.028152
  31
0
  0
LINE
  5
47e
  100
AcDbEntity
  8
1
  100
AcDbLine
  10
41.4
  20
1.028152
  30
0
  11
41.385
  21
1.038051
  31
0
  0
LINE
  5
47f
  100
AcDbEntity
  8
1
  100
AcDbLine
  10
41.385
  20
1.038051
  30
0
  11
41.37
  21
1.047861
  31
0
  0
LINE
  5
480
  100
AcDbEntity
  8
1
  100
AcDbLine
  10
41.37
  20
1.047861
  30
0
  11
41.355
  21
1.057579
  31
0
  0
LINE
  5
481
  100
AcDbEntity
  8
1
  100
AcDbLine
  10
41.355
  20
1.057579
  30
0
  11
41.34
  21
1.067205
  31
0
  0
LINE
  5
482
  100
AcDbEntity
  8
1
  100
AcDbLine
  10
41.34
  20
1.067205
  30
0
  11
41.325
  21
1.076739
  31
0
  0
LINE
  5
483
  100
AcDbEntity
  8
1
  100
AcDbLine
  10
41.325
  20
1.076739
  30
0
  11
41.31
  21
1.086179
  31
0
  0
LINE
  5
484
  100
AcDbEntity
  8
1
  100
AcDbLine
  10
41.31
  20
1.086179
  30
0
  11
41.295
  21
1.095524
  31
0
  0
LINE
  5
485
  100
AcDbEntity
  8
1
  100
AcDbLine
  10
41.295
  20
1.095524
  30
0
  11
41.28
  21
1.104775
  31
0
  0
LINE
  5
486
  100
AcDbEntity
  8
1
  100
AcDbLine
  10
41.28
  20
1.104775
  30
0
  11
41.265
  21
1.113929
  31
0
  0
LINE
  5
487
  100
AcDbEntity
  8
1
  100
AcDbLine
  10
41.265
  20
1.113929
  30
0
  11
41.25
  21
1.122986
  31
0
  0
LINE
  5
488
  100
AcDbEntity
  8
1
  100
AcDbLine
  10
41.25
  20
1.122986
  30
0
  11
41.235
  21
1.131946
  31
0
  0
LINE
  5
489
  100
AcDbEntity
  8
1
  100
AcDbLine
  10
41.235
  20
1.131946
  30
0
  11
41.22
  21
1.140807
  31
0
  0
LINE
  5
48a
  100
AcDbEntity
  8
1
  100
AcDbLine
  10
41.22
  20
1.140807
  30
0
  11
41.205
  21
1.149569
  31
0
  0
LINE
  5
48b
  100
AcDbEntity
  8
1
  100
AcDbLine
  10
41.205
  20
1.149569
  30
0
  11
41.19
  21
1.158231
  31
0
  0
LINE
  5
48c
  100
AcDbEntity
  8
1
  100
AcDbLine
  10
41.19
  20
1.158231
  30
0
  11
41.175
  21
1.166792
  31
0
  0
LINE
  5
48d
  100
AcDbEntity
  8
1
  100
AcDbLine
  10
41.175
  20
1.166792
  30
0
  11
41.16
  21
1.175252
  31
0
  0
LINE
  5
48e
  100
AcDbEntity
  8
1
  100
AcDbLine
  10
41.16
  20
1.175252
  30
0
  11
41.145
  21
1.18361
  31
0
  0
LINE
  5
48f
  100
AcDbEntity
  8
1
  100
AcDbLine
  10
41.145
  20
1.18361
  30
0
  11
41.13
  21
1.191865
  31
0
  0
LINE
  5
490
  100
AcDbEntity
  8
1
  100
AcDbLine
  10
41.13
  20
1.191865
  30
0
  11
41.115
  21
1.200016
  31
0
  0
LINE
  5
491
  100
AcDbEntity
  8
1
  100
AcDbLine
  10
41.115
  20
1.200016
  30
0
  11
41.1
  21
1.208063
  31
0
  0
LINE
  5
492
  100
AcDbEntity
  8
1
  100
AcDbLine
  10
41.1
  20
1.208063
  30
0
  11
41.085
  21
1.216004
  31
0
  0
LINE
  5
493
  100
AcDbEntity
  8
1
  100
AcDbLine
  10
41.085
  20
1.216004
  30
0
  11
41.07
  21
1.22384
  31
0
  0
LINE
  5
494
  100
AcDbEntity
  8
1
  100
AcDbLine
  10
41.07
  20
1.22384
  30
0
  11
41.055
  21
1.23157
  31
0
  0
LINE
  5
495
  100
AcDbEntity
  8
1
  100
AcDbLine
  10
41.055
  20
1.23157
  30
0
  11
41.04
  21
1.239192
  31
0
  0
LINE
  5
496
  100
AcDbEntity
  8
1
  100
AcDbLine
  10
41.04
  20
1.239192
  30
0
  11
41.025
  21
1.246707
  31
0
  0
LINE
  5
497
  100
AcDbEntity
  8
1
  100
AcDbLine
  10
41.025
  20
1.246707
  30
0
  11
41.01
  21
1.254113
  31
0
  0
LINE
  5
498
  100
AcDbEntity
  8
1
  100
AcDbLine
  10
41.01
  20
1.254113
  30
0
  11
40.995
  21
1.26141
  31
0
  0
LINE
  5
499
  100
AcDbEntity
  8
1
  100
AcDbLine
  10
40.995
  20
1.26141
  30
0
  11
40.98
  21
1.268598
  31
0
  0
LINE
  5
49a
  100
AcDbEntity
  8
1
  100
AcDbLine
  10
40.98
  20
1.268598
  30
0
  11
40.965
  21
1.275675
  31
0
  0
LINE
  5
49b
  100
AcDbEntity
  8
1
  100
AcDbLine
  10
40.965
  20
1.275675
  30
0
  11
40.95
  21
1.282641
  31
0
  0
LINE
  5
49c
  100
AcDbEntity
  8
1
  100
AcDbLine
  10
40.95
  20
1.282641
  30
0
  11
40.935
  21
1.289496
  31
0
  0
LINE
  5
49d
  100
AcDbEntity
  8
1
  100
AcDbLine
  10
40.935
  20
1.289496
  30
0
  11
40.92
  21
1.296239
  31
0
  0
LINE
  5
49e
  100
AcDbEntity
  8
1
  100
AcDbLine
  10
40.92
  20
1.296239
  30
0
  11
40.905
  21
1.302869
  31
0
  0
LINE
  5
49f
  100
AcDbEntity
  8
1
  100
AcDbLine
  10
40.905
  20
1.302869
  30
0
  11
40.89
  21
1.309385
  31
0
  0
LINE
  5
4a0
  100
AcDbEntity
  8
1
  100
AcDbLine
  10
40.89
  20
1.309385
  30
0
  11
40.875
  21
1.315788
  31
0
  0
LINE
  5
4a1
  100
AcDbEntity
  8
1
  100
AcDbLine
  10
40.875
  20
1.315788
  30
0
  11
40.86
  21
1.322076
  31
0
  0
LINE
  5
4a2
  100
AcDbEntity
  8
1
  100
AcDbLine
  10
40.86
  20
1.322076
  30
0
  11
40.845
  21
1.32825
  31
0
  0
LINE
  5
4a3
  100
AcDbEntity
  8
1
  100
AcDbLine
  10
40.845
  20
1.32825
  30
0
  11
40.83
  21
1.334308
  31
0
  0
LINE
  5
4a4
  100
AcDbEntity
  8
1
  100
AcDbLine
  10
40.83
  20
1.334308
  30
0
  11
40.815
  21
1.340249
  31
0
  0
LINE
  5
4a5
  100
AcDbEntity
  8
1
  100
AcDbLine
  10
40.815
  20
1.340249
  30
0
  11
40.8
  21
1.346075
  31
0
  0
LINE
  5
4a6
  100
AcDbEntity
  8
1
  100
AcDbLine
  10
40.8
  20
1.346075
  30
0
  11
40.785
  21
1.351783
  31
0
  0
LINE
  5
4a7
  100
AcDbEntity
  8
1
  100
AcDbLine
  10
40.785
  20
1.351783
  30
0
  11
40.77
  21
1.357374
  31
0
  0
LINE
  5
4a8
  100
AcDbEntity
  8
1
  100
AcDbLine
  10
40.77
  20
1.357374
  30
0
  11
40.755
  21
1.362846
  31
0
  0
LINE
  5
4a9
  100
AcDbEntity
  8
1
  100
AcDbLine
  10
40.755
  20
1.362846
  30
0
  11
40.74
  21
1.3682
  31
0
  0
LINE
  5
4aa
  100
AcDbEntity
  8
1
  100
AcDbLine
  10
40.74
  20
1.3682
  30
0
  11
40.725
  21
1.373436
  31
0
  0
LINE
  5
4ab
  100
AcDbEntity
  8
1
  100
AcDbLine
  10
40.725
  20
1.373436
  30
0
  11
40.71
  21
1.378551
  31
0
  0
LINE
  5
4ac
  100
AcDbEntity
  8
1
  100
AcDbLine
  10
40.71
  20
1.378551
  30
0
  11
40.695
  21
1.383547
  31
0
  0
LINE
  5
4ad
  100
AcDbEntity
  8
1
  100
AcDbLine
  10
40.695
  20
1.383547
  30
0
  11
40.68
  21
1.388423
  31
0
  0
LINE
  5
4ae
  100
AcDbEntity
  8
1
  100
AcDbLine
  10
40.68
  20
1.388423
  30
0
  11
40.665
  21
1.393178
  31
0
  0
LINE
  5
4af
  100
AcDbEntity
  8
1
  100
AcDbLine
  10
40.665
  20
1.393178
  30
0
  11
40.65
  21
1.397811
  31
0
  0
LINE
  5
4b0
  100
AcDbEntity
  8
1
  100
AcDbLine
  10
40.65
  20
1.397811
  30
0
  11
40.635
  21
1.402323
  31
0
  0
LINE
  5
4b1
  100
AcDbEntity
  8
1
  100
AcDbLine
  10
40.635
  20
1.402323
  30
0
  11
40.62
  21
1.406713
  31
0
  0
LINE
  5
4b2
  100
AcDbEntity
  8
1
  100
AcDbLine
  10
40.62
  20
1.406713
  30
0
  11
40.605
  21
1.410981
  31
0
  0
LINE
  5
4b3
  100
AcDbEntity
  8
1
  100
AcDbLine
  10
40.605
  20
1.410981
  30
0
  11
40.59
  21
1.415126
  31
0
  0
LINE
  5
4b4
  100
AcDbEntity
  8
1
  100
AcDbLine
  10
40.59
  20
1.415126
  30
0
  11
40.575
  21
1.419149
  31
0
  0
LINE
  5
4b5
  100
AcDbEntity
  8
1
  100
AcDbLine
  10
40.575
  20
1.419149
  30
0
  11
40.56
  21
1.423047
  31
0
  0
LINE
  5
4b6
  100
AcDbEntity
  8
1
  100
AcDbLine
  10
40.56
  20
1.423047
  30
0
  11
40.545
  21
1.426822
  31
0
  0
LINE
  5
4b7
  100
AcDbEntity
  8
1
  100
AcDbLine
  10
40.545
  20
1.426822
  30
0
  11
40.53
  21
1.430473
  31
0
  0
LINE
  5
4b8
  100
AcDbEntity
  8
1
  100
AcDbLine
  10
40.53
  20
1.430473
  30
0
  11
40.515
  21
1.434
  31
0
  0
LINE
  5
4b9
  100
AcDbEntity
  8
1
  100
AcDbLine
  10
40.515
  20
1.434
  30
0
  11
40.5
  21
1.437401
  31
0
  0
LINE
  5
4ba
  100
AcDbEntity
  8
1
  100
AcDbLine
  10
40.5
  20
1.437401
  30
0
  11
40.5
  21
1.437356
  31
0
  0
LINE
  5
4bb
  100
AcDbEntity
  8
1
  100
AcDbLine
  10
40.5
  20
1.412051
  30
0
  11
40.5
  21
1.412096
  31
0
  0
LINE
  5
4bc
  100
AcDbEntity
  8
1
  100
AcDbLine
  10
40.5
  20
1.412096
  30
0
  11
40.515
  21
1.407316
  31
0
  0
LINE
  5
4bd
  100
AcDbEntity
  8
1
  100
AcDbLine
  10
40.515
  20
1.407316
  30
0
  11
40.53
  21
1.402415
  31
0
  0
LINE
  5
4be
  100
AcDbEntity
  8
1
  100
AcDbLine
  10
40.53
  20
1.402415
  30
0
  11
40.545
  21
1.397391
  31
0
  0
LINE
  5
4bf
  100
AcDbEntity
  8
1
  100
AcDbLine
  10
40.545
  20
1.397391
  30
0
  11
40.56
  21
1.392246
  31
0
  0
LINE
  5
4c0
  100
AcDbEntity
  8
1
  100
AcDbLine
  10
40.56
  20
1.392246
  30
0
  11
40.575
  21
1.386979
  31
0
  0
LINE
  5
4c1
  100
AcDbEntity
  8
1
  100
AcDbLine
  10
40.575
  20
1.386979
  30
0
  11
40.59
  21
1.381592
  31
0
  0
LINE
  5
4c2
  100
AcDbEntity
  8
1
  100
AcDbLine
  10
40.59
  20
1.381592
  30
0
  11
40.605
  21
1.376085
  31
0
  0
LINE
  5
4c3
  100
AcDbEntity
  8
1
  100
AcDbLine
  10
40.605
  20
1.376085
  30
0
  11
40.62
  21
1.370459
  31
0
  0
LINE
  5
4c4
  100
AcDbEntity
  8
1
  100
AcDbLine
  10
40.62
  20
1.370459
  30
0
  11
40.635
  21
1.364713
  31
0
  0
LINE
  5
4c5
  100
AcDbEntity
  8
1
  100
AcDbLine
  10
40.635
  20
1.364713
  30
0
  11
40.65
  21
1.358848
  31
0
  0
LINE
  5
4c6
  100
AcDbEntity
  8
1
  100
AcDbLine
  10
40.65
  20
1.358848
  30
0
  11
40.665
  21
1.352866
  31
0
  0
LINE
  5
4c7
  100
AcDbEntity
  8
1
  100
AcDbLine
  10
40.665
  20
1.352866
  30
0
  11
40.68
  21
1.346765
  31
0
  0
LINE
  5
4c8
  100
AcDbEntity
  8
1
  100
AcDbLine
  10
40.68
  20
1.346765
  30
0
  11
40.695
  21
1.340548
  31
0
  0
LINE
  5
4c9
  100
AcDbEntity
  8
1
  100
AcDbLine
  10
40.695
  20
1.340548
  30
0
  11
40.71
  21
1.334214
  31
0
  0
LINE
  5
4ca
  100
AcDbEntity
  8
1
  100
AcDbLine
  10
40.71
  20
1.334214
  30
0
  11
40.725
  21
1.327764
  31
0
  0
LINE
  5
4cb
  100
AcDbEntity
  8
1
  100
AcDbLine
  10
40.725
  20
1.327764
  30
0
  11
40.74
  21
1.321198
  31
0
  0
LINE
  5
4cc
  100
AcDbEntity
  8
1
  100
AcDbLine
  10
40.74
  20
1.321198
  30
0
  11
40.755
  21
1.314518
  31
0
  0
LINE
  5
4cd
  100
AcDbEntity
  8
1
  100
AcDbLine
  10
40.755
  20
1.314518
  30
0
  11
40.77
  21
1.307723
  31
0
  0
LINE
  5
4ce
  100
AcDbEntity
  8
1
  100
AcDbLine
  10
40.77
  20
1.307723
  30
0
  11
40.785
  21
1.300815
  31
0
  0
LINE
  5
4cf
  100
AcDbEntity
  8
1
  100
AcDbLine
  10
40.785
  20
1.300815
  30
0
  11
40.8
  21
1.293793
  31
0
  0
LINE
  5
4d0
  100
AcDbEntity
  8
1
  100
AcDbLine
  10
40.8
  20
1.293793
  30
0
  11
40.815
  21
1.286659
  31
0
  0
LINE
  5
4d1
  100
AcDbEntity
  8
1
  100
AcDbLine
  10
40.815
  20
1.286659
  30
0
  11
40.83
  21
1.279413
  31
0
  0
LINE
  5
4d2
  100
AcDbEntity
  8
1
  100
AcDbLine
  10
40.83
  20
1.279413
  30
0
  11
40.845
  21
1.272056
  31
0
  0
LINE
  5
4d3
  100
AcDbEntity
  8
1
  100
AcDbLine
  10
40.845
  20
1.272056
  30
0
  11
40.86
  21
1.264588
  31
0
  0
LINE
  5
4d4
  100
AcDbEntity
  8
1
  100
AcDbLine
  10
40.86
  20
1.264588
  30
0
  11
40.875
  21
1.25701
  31
0
  0
LINE
  5
4d5
  100
AcDbEntity
  8
1
  100
AcDbLine
  10
40.875
  20
1.25701
  30
0
  11
40.89
  21
1.249323
  31
0
  0
LINE
  5
4d6
  100
AcDbEntity
  8
1
  100
AcDbLine
  10
40.89
  20
1.249323
  30
0
  11
40.905
  21
1.241527
  31
0
  0
LINE
  5
4d7
  100
AcDbEntity
  8
1
  100
AcDbLine
  10
40.905
  20
1.241527
  30
0
  11
40.92
  21
1.233624
  31
0
  0
LINE
  5
4d8
  100
AcDbEntity
  8
1
  100
AcDbLine
  10
40.92
  20
1.233624
  30
0
  11
40.935
  21
1.225613
  31
0
  0
LINE
  5
4d9
  100
AcDbEntity
  8
1
  100
AcDbLine
  10
40.935
  20
1.225613
  30
0
  11
40.95
  21
1.217495
  31
0
  0
LINE
  5
4da
  100
AcDbEntity
  8
1
  100
AcDbLine
  10
40.95
  20
1.217495
  30
0
  11
40.965
  21
1.209272
  31
0
  0
LINE
  5
4db
  100
AcDbEntity
  8
1
  100
AcDbLine
  10
40.965
  20
1.209272
  30
0
  11
40.98
  21
1.200943
  31
0
  0
LINE
  5
4dc
  100
AcDbEntity
  8
1
  100
AcDbLine
  10
40.98
  20
1.200943
  30
0
  11
40.995
  21
1.19251
  31
0
  0
LINE
  5
4dd
  100
AcDbEntity
  8
1
  100
AcDbLine
  10
40.995
  20
1.19251
  30
0
  11
41.01
  21
1.183974
  31
0
  0
LINE
  5
4de
  100
AcDbEntity
  8
1
  100
AcDbLine
  10
41.01
  20
1.183974
  30
0
  11
41.025
  21
1.175334
  31
0
  0
LINE
  5
4df
  100
AcDbEntity
  8
1
  100
AcDbLine
  10
41.025
  20
1.175334
  30
0
  11
41.04
  21
1.166592
  31
0
  0
LINE
  5
4e0
  100
AcDbEntity
  8
1
  100
AcDbLine
  10
41.04
  20
1.166592
  30
0
  11
41.055
  21
1.157749
  31
0
  0
LINE
  5
4e1
  100
AcDbEntity
  8
1
  100
AcDbLine
  10
41.055
  20
1.157749
  30
0
  11
41.07
  21
1.148805
  31
0
  0
LINE
  5
4e2
  100
AcDbEntity
  8
1
  100
AcDbLine
  10
41.07
  20
1.148805
  30
0
  11
41.085
  21
1.139761
  31
0
  0
LINE
  5
4e3
  100
AcDbEntity
  8
1
  100
AcDbLine
  10
41.085
  20
1.139761
  30
0
  11
41.1
  21
1.130618
  31
0
  0
LINE
  5
4e4
  100
AcDbEntity
  8
1
  100
AcDbLine
  10
41.1
  20
1.130618
  30
0
  11
41.115
  21
1.121377
  31
0
  0
LINE
  5
4e5
  100
AcDbEntity
  8
1
  100
AcDbLine
  10
41.115
  20
1.121377
  30
0
  11
41.13
  21
1.112038
  31
0
  0
LINE
  5
4e6
  100
AcDbEntity
  8
1
  100
AcDbLine
  10
41.13
  20
1.112038
  30
0
  11
41.145
  21
1.102602
  31
0
  0
LINE
  5
4e7
  100
AcDbEntity
  8
1
  100
AcDbLine
  10
41.145
  20
1.102602
  30
0
  11
41.16
  21
1.093071
  31
0
  0
LINE
  5
4e8
  100
AcDbEntity
  8
1
  100
AcDbLine
  10
41.16
  20
1.093071
  30
0
  11
41.175
  21
1.083445
  31
0
  0
LINE
  5
4e9
  100
AcDbEntity
  8
1
  100
AcDbLine
  10
41.175
  20
1.083445
  30
0
  11
41.19
  21
1.073724
  31
0
  0
LINE
  5
4ea
  100
AcDbEntity
  8
1
  100
AcDbLine
  10
41.19
  20
1.073724
  30
0
  11
41.205
  21
1.06391
  31
0
  0
LINE
  5
4eb
  100
AcDbEntity
  8
1
  100
AcDbLine
  10
41.205
  20
1.06391
  30
0
  11
41.22
  21
1.054003
  31
0
  0
LINE
  5
4ec
  100
AcDbEntity
  8
1
  100
AcDbLine
  10
41.22
  20
1.054003
  30
0
  11
41.235
  21
1.044005
  31
0
  0
LINE
  5
4ed
  100
AcDbEntity
  8
1
  100
AcDbLine
  10
41.235
  20
1.044005
  30
0
  11
41.25
  21
1.033916
  31
0
  0
LINE
  5
4ee
  100
AcDbEntity
  8
1
  100
AcDbLine
  10
41.25
  20
1.033916
  30
0
  11
41.265
  21
1.023737
  31
0
  0
LINE
  5
4ef
  100
AcDbEntity
  8
1
  100
AcDbLine
  10
41.265
  20
1.023737
  30
0
  11
41.28
  21
1.01347
  31
0
  0
LINE
  5
4f0
  100
AcDbEntity
  8
1
  100
AcDbLine
  10
41.28
  20
1.01347
  30
0
  11
41.295
  21
1.003114
  31
0
  0
LINE
  5
4f1
  100
AcDbEntity
  8
1
  100
AcDbLine
  10
41.295
  20
1.003114
  30
0
  11
41.31
  21
0.99267
  31
0
  0
LINE
  5
4f2
  100
AcDbEntity
  8
1
  100
AcDbLine
  10
41.31
  20
0.99267
  30
0
  11
41.325
  21
0.982141
  31
0
  0
LINE
  5
4f3
  100
AcDbEntity
  8
1
  100
AcDbLine
  10
41.325
  20
0.982141
  30
0
  11
41.34
  21
0.971526
  31
0
  0
LINE
  5
4f4
  100
AcDbEntity
  8
1
  100
AcDbLine
  10
41.34
  20
0.971526
  30
0
  11
41.355
  21
0.960826
  31
0
  0
LINE
  5
4f5
  100
AcDbEntity
  8
1
  100
AcDbLine
  10
41.355
  20
0.960826
  30
0
  11
41.37
  21
0.950043
  31
0
  0
LINE
  5
4f6
  100
AcDbEntity
  8
1
  100
AcDbLine
  10
41.37
  20
0.950043
  30
0
  11
41.385
  21
0.939178
  31
0
  0
LINE
  5
4f7
  100
AcDbEntity
  8
1
  100
AcDbLine
  10
41.385
  20
0.939178
  30
0
  11
41.4
  21
0.92823
  31
0
  0
LINE
  5
4f8
  100
AcDbEntity
  8
1
  100
AcDbLine
  10
41.4
  20
0.92823
  30
0
  11
41.415
  21
0.917202
  31
0
  0
LINE
  5
4f9
  100
AcDbEntity
  8
1
  100
AcDbLine
  10
41.415
  20
0.917202
  30
0
  11
41.43
  21
0.906094
  31
0
  0
LINE
  5
4fa
  100
AcDbEntity
  8
1
  100
AcDbLine
  10
41.43
  20
0.906094
  30
0
  11
41.445
  21
0.894908
  31
0
  0
LINE
  5
4fb
  100
AcDbEntity
  8
1
  100
AcDbLine
  10
41.445
  20
0.894908
  30
0
  11
41.46
  21
0.883644
  31
0
  0
LINE
  5
4fc
  100
AcDbEntity
  8
1
  100
AcDbLine
  10
41.46
  20
0.883644
  30
0
  11
41.475
  21
0.872302
  31
0
  0
LINE
  5
4fd
  100
AcDbEntity
  8
1
  100
AcDbLine
  10
41.475
  20
0.872302
  30
0
  11
41.49
  21
0.860885
  31
0
  0
LINE
  5
4fe
  100
AcDbEntity
  8
1
  100
AcDbLine
  10
41.49
  20
0.860885
  30
0
  11
41.505
  21
0.849393
  31
0
  0
LINE
  5
4ff
  100
AcDbEntity
  8
1
  100
AcDbLine
  10
41.505
  20
0.849393
  30
0
  11
41.52
  21
0.837827
  31
0
  0
LINE
  5
500
  100
AcDbEntity
  8
1
  100
AcDbLine
  10
41.52
  20
0.837827
  30
0
  11
41.535
  21
0.826189
  31
0
  0
LINE
  5
501
  100
AcDbEntity
  8
1
  100
AcDbLine
  10
41.535
  20
0.826189
  30
0
  11
41.55
  21
0.814478
  31
0
  0
LINE
  5
502
  100
AcDbEntity
  8
1
  100
AcDbLine
  10
41.55
  20
0.814478
  30
0
  11
41.565
  21
0.802697
  31
0
  0
LINE
  5
503
  100
AcDbEntity
  8
1
  100
AcDbLine
  10
41.565
  20
0.802697
  30
0
  11
41.58
  21
0.790846
  31
0
  0
LINE
  5
504
  100
AcDbEntity
  8
1
  100
AcDbLine
  10
41.58
  20
0.790846
  30
0
  11
41.595
  21
0.778926
  31
0
  0
LINE
  5
505
  100
AcDbEntity
  8
1
  100
AcDbLine
  10
41.595
  20
0.778926
  30
0
  11
41.61
  21
0.766938
  31
0
  0
LINE
  5
506
  100
AcDbEntity
  8
1
  100
AcDbLine
  10
41.61
  20
0.766938
  30
0
  11
41.625
  21
0.754884
  31
0
  0
LINE
  5
507
  100
AcDbEntity
  8
1
  100
AcDbLine
  10
41.625
  20
0.754884
  30
0
  11
41.64
  21
0.742764
  31
0
  0
LINE
  5
508
  100
AcDbEntity
  8
1
  100
AcDbLine
  10
41.64
  20
0.742764
  30
0
  11
41.655
  21
0.73058
  31
0
  0
LINE
  5
509
  100
AcDbEntity
  8
1
  100
AcDbLine
  10
41.655
  20
0.73058
  30
0
  11
41.67
  21
0.718331
  31
0
  0
LINE
  5
50a
  100
AcDbEntity
  8
1
  100
AcDbLine
  10
41.67
  20
0.718331
  30
0
  11
41.685
  21
0.706021
  31
0
  0
LINE
  5
50b
  100
AcDbEntity
  8
1
  100
AcDbLine
  10
41.685
  20
0.706021
  30
0
  11
41.7
  21
0.693649
  31
0
  0
LINE
  5
50c
  100
AcDbEntity
  8
1
  100
AcDbLine
  10
41.7
  20
0.693649
  30
0
  11
41.715
  21
0.681217
  31
0
  0
LINE
  5
50d
  100
AcDbEntity
  8
1
  100
AcDbLine
  10
41.715
  20
0.681217
  30
0
  11
41.73
  21
0.668725
  31
0
  0
LINE
  5
50e
  100
AcDbEntity
  8
1
  100
AcDbLine
  10
41.73
  20
0.668725
  30
0
  11
41.745
  21
0.656176
  31
0
  0
LINE
  5
50f
  100
AcDbEntity
  8
1
  100
AcDbLine
  10
41.745
  20
0.656176
  30
0
  11
41.76
  21
0.643569
  31
0
  0
LINE
  5
510
  100
AcDbEntity
  8
1
  100
AcDbLine
  10
41.76
  20
0.643569
  30
0
  11
41.775
  21
0.630906
  31
0
  0
LINE
  5
511
  100
AcDbEntity
  8
1
  100
AcDbLine
  10
41.775
  20
0.630906
  30
0
  11
41.79
  21
0.618189
  31
0
  0
LINE
  5
512
  100
AcDbEntity
  8
1
  100
AcDbLine
  10
41.79
  20
0.618189
  30
0
  11
41.805
  21
0.605417
  31
0
  0
LINE
  5
513
  100
AcDbEntity
  8
1
  100
AcDbLine
  10
41.805
  20
0.605417
  30
0
  11
41.82
  21
0.592593
  31
0
  0
LINE
  5
514
  100
AcDbEntity
  8
1
  100
AcDbLine
  10
41.82
  20
0.592593
  30
0
  11
41.835
  21
0.579718
  31
0
  0
LINE
  5
515
  100
AcDbEntity
  8
1
  100
AcDbLine
  10
41.835
  20
0.579718
  30
0
  11
41.85
  21
0.566792
  31
0
  0
LINE
  5
516
  100
AcDbEntity
  8
1
  100
AcDbLine
  10
41.85
  20
0.566792
  30
0
  11
41.865
  21
0.553817
  31
0
  0
LINE
  5
517
  100
AcDbEntity
  8
1
  100
AcDbLine
  10
41.865
  20
0.553817
  30
0
  11
41.88
  21
0.540794
  31
0
  0
LINE
  5
518
  100
AcDbEntity
  8
1
  100
AcDbLine
  10
41.88
  20
0.540794
  30
0
  11
41.895
  21
0.527723
  31
0
  0
LINE
  5
519
  100
AcDbEntity
  8
1
  100
AcDbLine
  10
41.895
  20
0.527723
  30
0
  11
41.91
  21
0.514607
  31
0
  0
LINE
  5
51a
  100
AcDbEntity
  8
1
  100
AcDbLine
  10
41.91
  20
0.514607
  30
0
  11
41.925
  21
0.501446
  31
0
  0
LINE
  5
51b
  100
AcDbEntity
  8
1
  100
AcDbLine
  10
41.925
  20
0.501446
  30
0
  11
41.94
  21
0.488241
  31
0
  0
LINE
  5
51c
  100
AcDbEntity
  8
1
  100
AcDbLine
  10
41.94
  20
0.488241
  30
0
  11
41.955
  21
0.474994
  31
0
  0
LINE
  5
51d
  100
AcDbEntity
  8
1
  100
AcDbLine
  10
41.955
  20
0.474994
  30
0
  11
41.97
  21
0.461706
  31
0
  0
LINE
  5
51e
  100
AcDbEntity
  8
1
  100
AcDbLine
  10
41.97
  20
0.461706
  30
0
  11
41.985
  21
0.448378
  31
0
  0
LINE
  5
51f
  100
AcDbEntity
  8
1
  100
AcDbLine
  10
41.985
  20
0.448378
  30
0
  11
42
  21
0.43501
  31
0
  0
LINE
  5
520
  100
AcDbEntity
  8
1
  100
AcDbLine
  10
42
  20
0.43501
  30
0
  11
42.015
  21
0.421605
  31
0
  0
LINE
  5
521
  100
AcDbEntity
  8
1
  100
AcDbLine
  10
42.015
  20
0.421605
  30
0
  11
42.03
  21
0.408163
  31
0
  0
LINE
  5
522
  100
AcDbEntity
  8
1
  100
AcDbLine
  10
42.03
  20
0.408163
  30
0
  11
42.045
  21
0.394685
  31
0
  0
LINE
  5
523
  100
AcDbEntity
  8
1
  100
AcDbLine
  10
42.045
  20
0.394685
  30
0
  11
42.06
  21
0.381173
  31
0
  0
LINE
  5
524
  100
AcDbEntity
  8
1
  100
AcDbLine
  10
42.06
  20
0.381173
  30
0
  11
42.075
  21
0.367629
  31
0
  0
LINE
  5
525
  100
AcDbEntity
  8
1
  100
AcDbLine
  10
42.075
  20
0.367629
  30
0
  11
42.09
  21
0.354052
  31
0
  0
LINE
  5
526
  100
AcDbEntity
  8
1
  100
AcDbLine
  10
42.09
  20
0.354052
  30
0
  11
42.105
  21
0.340444
  31
0
  0
LINE
  5
527
  100
AcDbEntity
  8
1
  100
AcDbLine
  10
42.105
  20
0.340444
  30
0
  11
42.12
  21
0.326807
  31
0
  0
LINE
  5
528
  100
AcDbEntity
  8
1
  100
AcDbLine
  10
42.12
  20
0.326807
  30
0
  11
42.135
  21
0.313141
  31
0
  0
LINE
  5
529
  100
AcDbEntity
  8
1
  100
AcDbLine
  10
42.135
  20
0.313141
  30
0
  11
42.15
  21
0.299448
  31
0
  0
LINE
  5
52a
  100
AcDbEntity
  8
1
  100
AcDbLine
  10
42.15
  20
0.299448
  30
0
  11
42.165
  21
0.285729
  31
0
  0
LINE
  5
52b
  100
AcDbEntity
  8
1
  100
AcDbLine
  10
42.165
  20
0.285729
  30
0
  11
42.18
  21
0.271985
  31
0
  0
LINE
  5
52c
  100
AcDbEntity
  8
1
  100
AcDbLine
  10
42.18
  20
0.271985
  30
0
  11
42.195
  21
0.258218
  31
0
  0
LINE
  5
52d
  100
AcDbEntity
  8
1
  100
AcDbLine
  10
42.195
  20
0.258218
  30
0
  11
42.21
  21
0.244428
  31
0
  0
LINE
  5
52e
  100
AcDbEntity
  8
1
  100
AcDbLine
  10
42.21
  20
0.244428
  30
0
  11
42.225
  21
0.230617
  31
0
  0
LINE
  5
52f
  100
AcDbEntity
  8
1
  100
AcDbLine
  10
42.225
  20
0.230617
  30
0
  11
42.24
  21
0.216785
  31
0
  0
LINE
  5
530
  100
AcDbEntity
  8
1
  100
AcDbLine
  10
42.24
  20
0.216785
  30
0
  11
42.255
  21
0.202935
  31
0
  0
LINE
  5
531
  100
AcDbEntity
  8
1
  100
AcDbLine
  10
42.255
  20
0.202935
  30
0
  11
42.27
  21
0.189067
  31
0
  0
LINE
  5
532
  100
AcDbEntity
  8
1
  100
AcDbLine
  10
42.27
  20
0.189067
  30
0
  11
42.285
  21
0.175183
  31
0
  0
LINE
  5
533
  100
AcDbEntity
  8
1
  100
AcDbLine
  10
42.285
  20
0.175183
  30
0
  11
42.3
  21
0.161284
  31
0
  0
LINE
  5
534
  100
AcDbEntity
  8
1
  100
AcDbLine
  10
42.3
  20
0.161284
  30
0
  11
42.315
  21
0.14737
  31
0
  0
LINE
  5
535
  100
AcDbEntity
  8
1
  100
AcDbLine
  10
42.315
  20
0.14737
  30
0
  11
42.33
  21
0.133444
  31
0
  0
LINE
  5
536
  100
AcDbEntity
  8
1
  100
AcDbLine
  10
42.33
  20
0.133444
  30
0
  11
42.345
  21
0.119506
  31
0
  0
LINE
  5
537
  100
AcDbEntity
  8
1
  100
AcDbLine
  10
42.345
  20
0.119506
  30
0
  11
42.36
  21
0.105558
  31
0
  0
LINE
  5
538
  100
AcDbEntity
  8
1
  100
AcDbLine
  10
42.36
  20
0.105558
  30
0
  11
42.375
  21
0.091601
  31
0
  0
LINE
  5
539
  100
AcDbEntity
  8
1
  100
AcDbLine
  10
42.375
  20
0.091601
  30
0
  11
42.39
  21
0.077635
  31
0
  0
LINE
  5
53a
  100
AcDbEntity
  8
1
  100
AcDbLine
  10
42.39
  20
0.077635
  30
0
  11
42.405
  21
0.063663
  31
0
  0
LINE
  5
53b
  100
AcDbEntity
  8
1
  100
AcDbLine
  10
42.405
  20
0.063663
  30
0
  11
42.42
  21
0.049685
  31
0
  0
LINE
  5
53c
  100
AcDbEntity
  8
1
  100
AcDbLine
  10
42.42
  20
0.049685
  30
0
  11
42.435
  21
0.035703
  31
0
  0
LINE
  5
53d
  100
AcDbEntity
  8
1
  100
AcDbLine
  10
42.435
  20
0.035703
  30
0
  11
42.45
  21
0.021718
  31
0
  0
LINE
  5
53e
  100
AcDbEntity
  8
1
  100
AcDbLine
  10
42.45
  20
0.021718
  30
0
  11
42.465
  21
0.007731
  31
0
  0
LINE
  5
53f
  100
AcDbEntity
  8
1
  100
AcDbLine
  10
42.465
  20
0.007731
  30
0
  11
42.48
  21
-0.006256
  31
0
  0
LINE
  5
540
  100
AcDbEntity
  8
1
  100
AcDbLine
  10
42.48
  20
-0.006256
  30
0
  11
42.495
  21
-0.020244
  31
0
  0
LINE
  5
541
  100
AcDbEntity
  8
1
  100
AcDbLine
  10
42.495
  20
-0.020244
  30
0
  11
42.51
  21
-0.034229
  31
0
  0
LINE
  5
542
  100
AcDbEntity
  8
1
  100
AcDbLine
  10
42.51
  20
-0.034229
  30
0
  11
42.525
  21
-0.048211
  31
0
  0
LINE
  5
543
  100
AcDbEntity
  8
1
  100
AcDbLine
  10
42.525
  20
-0.048211
  30
0
  11
42.54
  21
-0.06219
  31
0
  0
LINE
  5
544
  100
AcDbEntity
  8
1
  100
AcDbLine
  10
42.54
  20
-0.06219
  30
0
  11
42.555
  21
-0.076162
  31
0
  0
LINE
  5
545
  100
AcDbEntity
  8
1
  100
AcDbLine
  10
42.555
  20
-0.076162
  30
0
  11
42.57
  21
-0.090129
  31
0
  0
LINE
  5
546
  100
AcDbEntity
  8
1
  100
AcDbLine
  10
42.57
  20
-0.090129
  30
0
  11
42.585
  21
-0.104087
  31
0
  0
LINE
  5
547
  100
AcDbEntity
  8
1
  100
AcDbLine
  10
42.585
  20
-0.104087
  30
0
  11
42.6
  21
-0.118036
  31
0
  0
LINE
  5
548
  100
AcDbEntity
  8
1
  100
AcDbLine
  10
42.6
  20
-0.118036
  30
0
  11
42.615
  21
-0.131975
  31
0
  0
LINE
  5
549
  100
AcDbEntity
  8
1
  100
AcDbLine
  10
42.615
  20
-0.131975
  30
0
  11
42.63
  21
-0.145903
  31
0
  0
LINE
  5
54a
  100
AcDbEntity
  8
1
  100
AcDbLine
  10
42.63
  20
-0.145903
  30
0
  11
42.645
  21
-0.159818
  31
0
  0
LINE
  5
54b
  100
AcDbEntity
  8
1
  100
AcDbLine
  10
42.645
  20
-0.159818
  30
0
  11
42.66
  21
-0.173718
  31
0
  0
LINE
  5
54c
  100
AcDbEntity
  8
1
  100
AcDbLine
  10
42.66
  20
-0.173718
  30
0
  11
42.675
  21
-0.187604
  31
0
  0
LINE
  5
54d
  100
AcDbEntity
  8
1
  100
AcDbLine
  10
42.675
  20
-0.187604
  30
0
  11
42.69
  21
-0.201474
  31
0
  0
LINE
  5
54e
  100
AcDbEntity
  8
1
  100
AcDbLine
  10
42.69
  20
-0.201474
  30
0
  11
42.705
  21
-0.215326
  31
0
  0
LINE
  5
54f
  100
AcDbEntity
  8
1
  100
AcDbLine
  10
42.705
  20
-0.215326
  30
0
  11
42.72
  21
-0.229159
  31
0
  0
LINE
  5
550
  100
AcDbEntity
  8
1
  100
AcDbLine
  10
42.72
  20
-0.229159
  30
0
  11
42.735
  21
-0.242973
  31
0
  0
LINE
  5
551
  100
AcDbEntity
  8
1
  100
AcDbLine
  10
42.735
  20
-0.242973
  30
0
  11
42.75
  21
-0.256765
  31
0
  0
LINE
  5
552
  100
AcDbEntity
  8
1
  100
AcDbLine
  10
42.75
  20
-0.256765
  30
0
  11
42.765
  21
-0.270535
  31
0
  0
LINE
  5
553
  100
AcDbEntity
  8
1
  100
AcDbLine
  10
42.765
  20
-0.270535
  30
0
  11
42.78
  21
-0.284281
  31
0
  0
LINE
  5
554
  100
AcDbEntity
  8
1
  100
AcDbLine
  10
42.78
  20
-0.284281
  30
0
  11
42.795
  21
-0.298003
  31
0
  0
LINE
  5
555
  100
AcDbEntity
  8
1
  100
AcDbLine
  10
42.795
  20
-0.298003
  30
0
  11
42.81
  21
-0.311698
  31
0
  0
LINE
  5
556
  100
AcDbEntity
  8
1
  100
AcDbLine
  10
42.81
  20
-0.311698
  30
0
  11
42.825
  21
-0.325367
  31
0
  0
LINE
  5
557
  100
AcDbEntity
  8
1
  100
AcDbLine
  10
42.825
  20
-0.325367
  30
0
  11
42.84
  21
-0.339007
  31
0
  0
LINE
  5
558
  100
AcDbEntity
  8
1
  100
AcDbLine
  10
42.84
  20
-0.339007
  30
0
  11
42.855
  21
-0.352618
  31
0
  0
LINE
  5
559
  100
AcDbEntity
  8
1
  100
AcDbLine
  10
42.855
  20
-0.352618
  30
0
  11
42.87
  21
-0.366199
  31
0
  0
LINE
  5
55a
  100
AcDbEntity
  8
1
  100
AcDbLine
  10
42.87
  20
-0.366199
  30
0
  11
42.885
  21
-0.379747
  31
0
  0
LINE
  5
55b
  100
AcDbEntity
  8
1
  100
AcDbLine
  10
42.885
  20
-0.379747
  30
0
  11
42.9
  21
-0.393262
  31
0
  0
LINE
  5
55c
  100
AcDbEntity
  8
1
  100
AcDbLine
  10
42.9
  20
-0.393262
  30
0
  11
42.915
  21
-0.406743
  31
0
  0
LINE
  5
55d
  100
AcDbEntity
  8
1
  100
AcDbLine
  10
42.915
  20
-0.406743
  30
0
  11
42.93
  21
-0.420189
  31
0
  0
LINE
  5
55e
  100
AcDbEntity
  8
1
  100
AcDbLine
  10
42.93
  20
-0.420189
  30
0
  11
42.945
  21
-0.433598
  31
0
  0
LINE
  5
55f
  100
AcDbEntity
  8
1
  100
AcDbLine
  10
42.945
  20
-0.433598
  30
0
  11
42.96
  21
-0.44697
  31
0
  0
LINE
  5
560
  100
AcDbEntity
  8
1
  100
AcDbLine
  10
42.96
  20
-0.44697
  30
0
  11
42.975
  21
-0.460303
  31
0
  0
LINE
  5
561
  100
AcDbEntity
  8
1
  100
AcDbLine
  10
42.975
  20
-0.460303
  30
0
  11
42.99
  21
-0.473595
  31
0
  0
LINE
  5
562
  100
AcDbEntity
  8
1
  100
AcDbLine
  10
42.99
  20
-0.473595
  30
0
  11
43.005
  21
-0.486847
  31
0
  0
LINE
  5
563
  100
AcDbEntity
  8
1
  100
AcDbLine
  10
43.005
  20
-0.486847
  30
0
  11
43.02
  21
-0.500056
  31
0
  0
LINE
  5
564
  100
AcDbEntity
  8
1
  100
AcDbLine
  10
43.02
  20
-0.500056
  30
0
  11
43.035
  21
-0.513222
  31
0
  0
LINE
  5
565
  100
AcDbEntity
  8
1
  100
AcDbLine
  10
43.035
  20
-0.513222
  30
0
  11
43.05
  21
-0.526343
  31
0
  0
LINE
  5
566
  100
AcDbEntity
  8
1
  100
AcDbLine
  10
43.05
  20
-0.526343
  30
0
  11
43.065
  21
-0.539418
  31
0
  0
LINE
  5
567
  100
AcDbEntity
  8
1
  100
AcDbLine
  10
43.065
  20
-0.539418
  30
0
  11
43.08
  21
-0.552446
  31
0
  0
LINE
  5
568
  100
AcDbEntity
  8
1
  100
AcDbLine
  10
43.08
  20
-0.552446
  30
0
  11
43.095
  21
-0.565426
  31
0
  0
LINE
  5
569
  100
AcDbEntity
  8
1
  100
AcDbLine
  10
43.095
  20
-0.565426
  30
0
  11
43.11
  21
-0.578358
  31
0
  0
LINE
  5
56a
  100
AcDbEntity
  8
1
  100
AcDbLine
  10
43.11
  20
-0.578358
  30
0
  11
43.125
  21
-0.591238
  31
0
  0
LINE
  5
56b
  100
AcDbEntity
  8
1
  100
AcDbLine
  10
43.125
  20
-0.591238
  30
0
  11
43.14
  21
-0.604068
  31
0
  0
LINE
  5
56c
  100
AcDbEntity
  8
1
  100
AcDbLine
  10
43.14
  20
-0.604068
  30
0
  11
43.155
  21
-0.616845
  31
0
  0
LINE
  5
56d
  100
AcDbEntity
  8
1
  100
AcDbLine
  10
43.155
  20
-0.616845
  30
0
  11
43.17
  21
-0.629568
  31
0
  0
LINE
  5
56e
  100
AcDbEntity
  8
1
  100
AcDbLine
  10
43.17
  20
-0.629568
  30
0
  11
43.185
  21
-0.642236
  31
0
  0
LINE
  5
56f
  100
AcDbEntity
  8
1
  100
AcDbLine
  10
43.185
  20
-0.642236
  30
0
  11
43.2
  21
-0.654849
  31
0
  0
LINE
  5
570
  100
AcDbEntity
  8
1
  100
AcDbLine
  10
43.2
  20
-0.654849
  30
0
  11
43.215
  21
-0.667405
  31
0
  0
LINE
  5
571
  100
AcDbEntity
  8
1
  100
AcDbLine
  10
43.215
  20
-0.667405
  30
0
  11
43.23
  21
-0.679902
  31
0
  0
LINE
  5
572
  100
AcDbEntity
  8
1
  100
AcDbLine
  10
43.23
  20
-0.679902
  30
0
  11
43.245
  21
-0.692341
  31
0
  0
LINE
  5
573
  100
AcDbEntity
  8
1
  100
AcDbLine
  10
43.245
  20
-0.692341
  30
0
  11
43.26
  21
-0.704719
  31
0
  0
LINE
  5
574
  100
AcDbEntity
  8
1
  100
AcDbLine
  10
43.26
  20
-0.704719
  30
0
  11
43.275
  21
-0.717036
  31
0
  0
LINE
  5
575
  100
AcDbEntity
  8
1
  100
AcDbLine
  10
43.275
  20
-0.717036
  30
0
  11
43.29
  21
-0.729291
  31
0
  0
LINE
  5
576
  100
AcDbEntity
  8
1
  100
AcDbLine
  10
43.29
  20
-0.729291
  30
0
  11
43.305
  21
-0.741482
  31
0
  0
LINE
  5
577
  100
AcDbEntity
  8
1
  100
AcDbLine
  10
43.305
  20
-0.741482
  30
0
  11
43.32
  21
-0.753609
  31
0
  0
LINE
  5
578
  100
AcDbEntity
  8
1
  100
AcDbLine
  10
43.32
  20
-0.753609
  30
0
  11
43.335
  21
-0.765671
  31
0
  0
LINE
  5
579
  100
AcDbEntity
  8
1
  100
AcDbLine
  10
43.335
  20
-0.765671
  30
0
  11
43.35
  21
-0.777665
  31
0
  0
LINE
  5
57a
  100
AcDbEntity
  8
1
  100
AcDbLine
  10
43.35
  20
-0.777665
  30
0
  11
43.365
  21
-0.789592
  31
0
  0
LINE
  5
57b
  100
AcDbEntity
  8
1
  100
AcDbLine
  10
43.365
  20
-0.789592
  30
0
  11
43.38
  21
-0.801451
  31
0
  0
LINE
  5
57c
  100
AcDbEntity
  8
1
  100
AcDbLine
  10
43.38
  20
-0.801451
  30
0
  11
43.395
  21
-0.81324
  31
0
  0
LINE
  5
57d
  100
AcDbEntity
  8
1
  100
AcDbLine
  10
43.395
  20
-0.81324
  30
0
  11
43.41
  21
-0.824958
  31
0
  0
LINE
  5
57e
  100
AcDbEntity
  8
1
  100
AcDbLine
  10
43.41
  20
-0.824958
  30
0
  11
43.425
  21
-0.836604
  31
0
  0
LINE
  5
57f
  100
AcDbEntity
  8
1
  100
AcDbLine
  10
43.425
  20
-0.836604
  30
0
  11
43.44
  21
-0.848177
  31
0
  0
LINE
  5
580
  100
AcDbEntity
  8
1
  100
AcDbLine
  10
43.44
  20
-0.848177
  30
0
  11
43.455
  21
-0.859677
  31
0
  0
LINE
  5
581
  100
AcDbEntity
  8
1
  100
AcDbLine
  10
43.455
  20
-0.859677
  30
0
  11
43.47
  21
-0.871102
  31
0
  0
LINE
  5
582
  100
AcDbEntity
  8
1
  100
AcDbLine
  10
43.47
  20
-0.871102
  30
0
  11
43.485
  21
-0.882451
  31
0
  0
LINE
  5
583
  100
AcDbEntity
  8
1
  100
AcDbLine
  10
43.485
  20
-0.882451
  30
0
  11
43.5
  21
-0.893724
  31
0
  0
LINE
  5
584
  100
AcDbEntity
  8
1
  100
AcDbLine
  10
43.5
  20
-0.893724
  30
0
  11
43.515
  21
-0.904919
  31
0
  0
LINE
  5
585
  100
AcDbEntity
  8
1
  100
AcDbLine
  10
43.515
  20
-0.904919
  30
0
  11
43.53
  21
-0.916035
  31
0
  0
LINE
  5
586
  100
AcDbEntity
  8
1
  100
AcDbLine
  10
43.53
  20
-0.916035
  30
0
  11
43.545
  21
-0.927071
  31
0
  0
LINE
  5
587
  100
AcDbEntity
  8
1
  100
AcDbLine
  10
43.545
  20
-0.927071
  30
0
  11
43.56
  21
-0.938027
  31
0
  0
LINE
  5
588
  100
AcDbEntity
  8
1
  100
AcDbLine
  10
43.56
  20
-0.938027
  30
0
  11
43.575
  21
-0.948901
  31
0
  0
LINE
  5
589
  100
AcDbEntity
  8
1
  100
AcDbLine
  10
43.575
  20
-0.948901
  30
0
  11
43.59
  21
-0.959693
  31
0
  0
LINE
  5
58a
  100
AcDbEntity
  8
1
  100
AcDbLine
  10
43.59
  20
-0.959693
  30
0
  11
43.605
  21
-0.970402
  31
0
  0
LINE
  5
58b
  100
AcDbEntity
  8
1
  100
AcDbLine
  10
43.605
  20
-0.970402
  30
0
  11
43.62
  21
-0.981025
  31
0
  0
LINE
  5
58c
  100
AcDbEntity
  8
1
  100
AcDbLine
  10
43.62
  20
-0.981025
  30
0
  11
43.635
  21
-0.991564
  31
0
  0
LINE
  5
58d
  100
AcDbEntity
  8
1
  100
AcDbLine
  10
43.635
  20
-0.991564
  30
0
  11
43.65
  21
-1.002017
  31
0
  0
LINE
  5
58e
  100
AcDbEntity
  8
1
  100
AcDbLine
  10
43.65
  20
-1.002017
  30
0
  11
43.665
  21
-1.012382
  31
0
  0
LINE
  5
58f
  100
AcDbEntity
  8
1
  100
AcDbLine
  10
43.665
  20
-1.012382
  30
0
  11
43.68
  21
-1.022659
  31
0
  0
LINE
  5
590
  100
AcDbEntity
  8
1
  100
AcDbLine
  10
43.68
  20
-1.022659
  30
0
  11
43.695
  21
-1.032847
  31
0
  0
LINE
  5
591
  100
AcDbEntity
  8
1
  100
AcDbLine
  10
43.695
  20
-1.032847
  30
0
  11
43.71
  21
-1.042946
  31
0
  0
LINE
  5
592
  100
AcDbEntity
  8
1
  100
AcDbLine
  10
43.71
  20
-1.042946
  30
0
  11
43.725
  21
-1.052954
  31
0
  0
LINE
  5
593
  100
AcDbEntity
  8
1
  100
AcDbLine
  10
43.725
  20
-1.052954
  30
0
  11
43.74
  21
-1.06287
  31
0
  0
LINE
  5
594
  100
AcDbEntity
  8
1
  100
AcDbLine
  10
43.74
  20
-1.06287
  30
0
  11
43.755
  21
-1.072694
  31
0
  0
LINE
  5
595
  100
AcDbEntity
  8
1
  100
AcDbLine
  10
43.755
  20
-1.072694
  30
0
  11
43.77
  21
-1.082424
  31
0
  0
LINE
  5
596
  100
AcDbEntity
  8
1
  100
AcDbLine
  10
43.77
  20
-1.082424
  30
0
  11
43.785
  21
-1.092061
  31
0
  0
LINE
  5
597
  100
AcDbEntity
  8
1
  100
AcDbLine
  10
43.785
  20
-1.092061
  30
0
  11
43.8
  21
-1.101602
  31
0
  0
LINE
  5
598
  100
AcDbEntity
  8
1
  100
AcDbLine
  10
43.8
  20
-1.101602
  30
0
  11
43.815
  21
-1.111048
  31
0
  0
LINE
  5
599
  100
AcDbEntity
  8
1
  100
AcDbLine
  10
43.815
  20
-1.111048
  30
0
  11
43.83
  21
-1.120397
  31
0
  0
LINE
  5
59a
  100
AcDbEntity
  8
1
  100
AcDbLine
  10
43.83
  20
-1.120397
  30
0
  11
43.845
  21
-1.129648
  31
0
  0
LINE
  5
59b
  100
AcDbEntity
  8
1
  100
AcDbLine
  10
43.845
  20
-1.129648
  30
0
  11
43.86
  21
-1.138802
  31
0
  0
LINE
  5
59c
  100
AcDbEntity
  8
1
  100
AcDbLine
  10
43.86
  20
-1.138802
  30
0
  11
43.875
  21
-1.147856
  31
0
  0
LINE
  5
59d
  100
AcDbEntity
  8
1
  100
AcDbLine
  10
43.875
  20
-1.147856
  30
0
  11
43.89
  21
-1.156811
  31
0
  0
LINE
  5
59e
  100
AcDbEntity
  8
1
  100
AcDbLine
  10
43.89
  20
-1.156811
  30
0
  11
43.905
  21
-1.165665
  31
0
  0
LINE
  5
59f
  100
AcDbEntity
  8
1
  100
AcDbLine
  10
43.905
  20
-1.165665
  30
0
  11
43.92
  21
-1.174417
  31
0
  0
LINE
  5
5a0
  100
AcDbEntity
  8
1
  100
AcDbLine
  10
43.92
  20
-1.174417
  30
0
  11
43.935
  21
-1.183068
  31
0
  0
LINE
  5
5a1
  100
AcDbEntity
  8
1
  100
AcDbLine
  10
43.935
  20
-1.183068
  30
0
  11
43.95
  21
-1.191615
  31
0
  0
LINE
  5
5a2
  100
AcDbEntity
  8
1
  100
AcDbLine
  10
43.95
  20
-1.191615
  30
0
  11
43.965
  21
-1.200059
  31
0
  0
LINE
  5
5a3
  100
AcDbEntity
  8
1
  100
AcDbLine
  10
43.965
  20
-1.200059
  30
0
  11
43.98
  21
-1.208399
  31
0
  0
LINE
  5
5a4
  100
AcDbEntity
  8
1
  100
AcDbLine
  10
43.98
  20
-1.208399
  30
0
  11
43.995
  21
-1.216633
  31
0
  0
LINE
  5
5a5
  100
AcDbEntity
  8
1
  100
AcDbLine
  10
43.995
  20
-1.216633
  30
0
  11
44.01
  21
-1.224762
  31
0
  0
LINE
  5
5a6
  100
AcDbEntity
  8
1
  100
AcDbLine
  10
44.01
  20
-1.224762
  30
0
  11
44.025
  21
-1.232784
  31
0
  0
LINE
  5
5a7
  100
AcDbEntity
  8
1
  100
AcDbLine
  10
44.025
  20
-1.232784
  30
0
  11
44.04
  21
-1.240699
  31
0
  0
LINE
  5
5a8
  100
AcDbEntity
  8
1
  100
AcDbLine
  10
44.04
  20
-1.240699
  30
0
  11
44.055
  21
-1.248506
  31
0
  0
LINE
  5
5a9
  100
AcDbEntity
  8
1
  100
AcDbLine
  10
44.055
  20
-1.248506
  30
0
  11
44.07
  21
-1.256205
  31
0
  0
LINE
  5
5aa
  100
AcDbEntity
  8
1
  100
AcDbLine
  10
44.07
  20
-1.256205
  30
0
  11
44.085
  21
-1.263794
  31
0
  0
LINE
  5
5ab
  100
AcDbEntity
  8
1
  100
AcDbLine
  10
44.085
  20
-1.263794
  30
0
  11
44.1
  21
-1.271274
  31
0
  0
LINE
  5
5ac
  100
AcDbEntity
  8
1
  100
AcDbLine
  10
44.1
  20
-1.271274
  30
0
  11
44.115
  21
-1.278643
  31
0
  0
LINE
  5
5ad
  100
AcDbEntity
  8
1
  100
AcDbLine
  10
44.115
  20
-1.278643
  30
0
  11
44.13
  21
-1.2859
  31
0
  0
LINE
  5
5ae
  100
AcDbEntity
  8
1
  100
AcDbLine
  10
44.13
  20
-1.2859
  30
0
  11
44.145
  21
-1.293046
  31
0
  0
LINE
  5
5af
  100
AcDbEntity
  8
1
  100
AcDbLine
  10
44.145
  20
-1.293046
  30
0
  11
44.16
  21
-1.30008
  31
0
  0
LINE
  5
5b0
  100
AcDbEntity
  8
1
  100
AcDbLine
  10
44.16
  20
-1.30008
  30
0
  11
44.175
  21
-1.307
  31
0
  0
LINE
  5
5b1
  100
AcDbEntity
  8
1
  100
AcDbLine
  10
44.175
  20
-1.307
  30
0
  11
44.19
  21
-1.313807
  31
0
  0
LINE
  5
5b2
  100
AcDbEntity
  8
1
  100
AcDbLine
  10
44.19
  20
-1.313807
  30
0
  11
44.205
  21
-1.320499
  31
0
  0
LINE
  5
5b3
  100
AcDbEntity
  8
1
  100
AcDbLine
  10
44.205
  20
-1.320499
  30
0
  11
44.22
  21
-1.327077
  31
0
  0
LINE
  5
5b4
  100
AcDbEntity
  8
1
  100
AcDbLine
  10
44.22
  20
-1.327077
  30
0
  11
44.235
  21
-1.333539
  31
0
  0
LINE
  5
5b5
  100
AcDbEntity
  8
1
  100
AcDbLine
  10
44.235
  20
-1.333539
  30
0
  11
44.25
  21
-1.339885
  31
0
  0
LINE
  5
5b6
  100
AcDbEntity
  8
1
  100
AcDbLine
  10
44.25
  20
-1.339885
  30
0
  11
44.265
  21
-1.346115
  31
0
  0
LINE
  5
5b7
  100
AcDbEntity
  8
1
  100
AcDbLine
  10
44.265
  20
-1.346115
  30
0
  11
44.28
  21
-1.352228
  31
0
  0
LINE
  5
5b8
  100
AcDbEntity
  8
1
  100
AcDbLine
  10
44.28
  20
-1.352228
  30
0
  11
44.295
  21
-1.358223
  31
0
  0
LINE
  5
5b9
  100
AcDbEntity
  8
1
  100
AcDbLine
  10
44.295
  20
-1.358223
  30
0
  11
44.31
  21
-1.3641
  31
0
  0
LINE
  5
5ba
  100
AcDbEntity
  8
1
  100
AcDbLine
  10
44.31
  20
-1.3641
  30
0
  11
44.325
  21
-1.369859
  31
0
  0
LINE
  5
5bb
  100
AcDbEntity
  8
1
  100
AcDbLine
  10
44.325
  20
-1.369859
  30
0
  11
44.34
  21
-1.375498
  31
0
  0
LINE
  5
5bc
  100
AcDbEntity
  8
1
  100
AcDbLine
  10
44.34
  20
-1.375498
  30
0
  11
44.355
  21
-1.381018
  31
0
  0
LINE
  5
5bd
  100
AcDbEntity
  8
1
  100
AcDbLine
  10
44.355
  20
-1.381018
  30
0
  11
44.37
  21
-1.386417
  31
0
  0
LINE
  5
5be
  100
AcDbEntity
  8
1
  100
AcDbLine
  10
44.37
  20
-1.386417
  30
0
  11
44.385
  21
-1.391696
  31
0
  0
LINE
  5
5bf
  100
AcDbEntity
  8
1
  100
AcDbLine
  10
44.385
  20
-1.391696
  30
0
  11
44.4
  21
-1.396854
  31
0
  0
LINE
  5
5c0
  100
AcDbEntity
  8
1
  100
AcDbLine
  10
44.4
  20
-1.396854
  30
0
  11
44.415
  21
-1.401891
  31
0
  0
LINE
  5
5c1
  100
AcDbEntity
  8
1
  100
AcDbLine
  10
44.415
  20
-1.401891
  30
0
  11
44.43
  21
-1.406805
  31
0
  0
LINE
  5
5c2
  100
AcDbEntity
  8
1
  100
AcDbLine
  10
44.43
  20
-1.406805
  30
0
  11
44.445
  21
-1.411598
  31
0
  0
LINE
  5
5c3
  100
AcDbEntity
  8
1
  100
AcDbLine
  10
44.445
  20
-1.411598
  30
0
  11
44.46
  21
-1.416267
  31
0
  0
LINE
  5
5c4
  100
AcDbEntity
  8
1
  100
AcDbLine
  10
44.46
  20
-1.416267
  30
0
  11
44.475
  21
-1.420814
  31
0
  0
LINE
  5
5c5
  100
AcDbEntity
  8
1
  100
AcDbLine
  10
44.475
  20
-1.420814
  30
0
  11
44.49
  21
-1.425236
  31
0
  0
LINE
  5
5c6
  100
AcDbEntity
  8
1
  100
AcDbLine
  10
44.49
  20
-1.425236
  30
0
  11
44.505
  21
-1.429535
  31
0
  0
LINE
  5
5c7
  100
AcDbEntity
  8
1
  100
AcDbLine
  10
44.505
  20
-1.429535
  30
0
  11
44.52
  21
-1.43371
  31
0
  0
LINE
  5
5c8
  100
AcDbEntity
  8
1
  100
AcDbLine
  10
44.52
  20
-1.43371
  30
0
  11
44.535
  21
-1.43776
  31
0
  0
LINE
  5
5c9
  100
AcDbEntity
  8
1
  100
AcDbLine
  10
44.535
  20
-1.43776
  30
0
  11
44.55
  21
-1.441685
  31
0
  0
LINE
  5
5ca
  100
AcDbEntity
  8
1
  100
AcDbLine
  10
44.55
  20
-1.441685
  30
0
  11
44.565
  21
-1.445484
  31
0
  0
LINE
  5
5cb
  100
AcDbEntity
  8
1
  100
AcDbLine
  10
44.565
  20
-1.445484
  30
0
  11
44.58
  21
-1.449158
  31
0
  0
LINE
  5
5cc
  100
AcDbEntity
  8
1
  100
AcDbLine
  10
44.58
  20
-1.449158
  30
0
  11
44.595
  21
-1.452706
  31
0
  0
LINE
  5
5cd
  100
AcDbEntity
  8
1
  100
AcDbLine
  10
44.595
  20
-1.452706
  30
0
  11
44.61
  21
-1.456128
  31
0
  0
LINE
  5
5ce
  100
AcDbEntity
  8
1
  100
AcDbLine
  10
44.61
  20
-1.456128
  30
0
  11
44.625
  21
-1.459423
  31
0
  0
LINE
  5
5cf
  100
AcDbEntity
  8
1
  100
AcDbLine
  10
44.625
  20
-1.459423
  30
0
  11
44.64
  21
-1.46259
  31
0
  0
LINE
  5
5d0
  100
AcDbEntity
  8
1
  100
AcDbLine
  10
44.64
  20
-1.46259
  30
0
  11
44.655
  21
-1.465631
  31
0
  0
LINE
  5
5d1
  100
AcDbEntity
  8
1
  100
AcDbLine
  10
44.655
  20
-1.465631
  30
0
  11
44.67
  21
-1.468545
  31
0
  0
LINE
  5
5d2
  100
AcDbEntity
  8
1
  100
AcDbLine
  10
44.67
  20
-1.468545
  30
0
  11
44.685
  21
-1.47133
  31
0
  0
LINE
  5
5d3
  100
AcDbEntity
  8
1
  100
AcDbLine
  10
44.685
  20
-1.47133
  30
0
  11
44.7
  21
-1.473988
  31
0
  0
LINE
  5
5d4
  100
AcDbEntity
  8
1
  100
AcDbLine
  10
44.7
  20
-1.473988
  30
0
  11
44.715
  21
-1.476518
  31
0
  0
LINE
  5
5d5
  100
AcDbEntity
  8
1
  100
AcDbLine
  10
44.715
  20
-1.476518
  30
0
  11
44.73
  21
-1.478919
  31
0
  0
LINE
  5
5d6
  100
AcDbEntity
  8
1
  100
AcDbLine
  10
44.73
  20
-1.478919
  30
0
  11
44.745
  21
-1.481191
  31
0
  0
LINE
  5
5d7
  100
AcDbEntity
  8
1
  100
AcDbLine
  10
44.745
  20
-1.481191
  30
0
  11
44.76
  21
-1.483335
  31
0
  0
LINE
  5
5d8
  100
AcDbEntity
  8
1
  100
AcDbLine
  10
44.76
  20
-1.483335
  30
0
  11
44.775
  21
-1.48535
  31
0
  0
LINE
  5
5d9
  100
AcDbEntity
  8
1
  100
AcDbLine
  10
44.775
  20
-1.48535
  30
0
  11
44.79
  21
-1.487235
  31
0
  0
LINE
  5
5da
  100
AcDbEntity
  8
1
  100
AcDbLine
  10
44.79
  20
-1.487235
  30
0
  11
44.805
  21
-1.488992
  31
0
  0
LINE
  5
5db
  100
AcDbEntity
  8
1
  100
AcDbLine
  10
44.805
  20
-1.488992
  30
0
  11
44.82
  21
-1.490618
  31
0
  0
LINE
  5
5dc
  100
AcDbEntity
  8
1
  100
AcDbLine
  10
44.82
  20
-1.490618
  30
0
  11
44.835
  21
-1.492115
  31
0
  0
LINE
  5
5dd
  100
AcDbEntity
  8
1
  100
AcDbLine
  10
44.835
  20
-1.492115
  30
0
  11
44.85
  21
-1.493483
  31
0
  0
LINE
  5
5de
  100
AcDbEntity
  8
1
  100
AcDbLine
  10
44.85
  20
-1.493483
  30
0
  11
44.865
  21
-1.49472
  31
0
  0
LINE
  5
5df
  100
AcDbEntity
  8
1
  100
AcDbLine
  10
44.865
  20
-1.49472
  30
0
  11
44.88
  21
-1.495828
  31
0
  0
LINE
  5
5e0
  100
AcDbEntity
  8
1
  100
AcDbLine
  10
44.88
  20
-1.495828
  30
0
  11
44.895
  21
-1.496805
  31
0
  0
LINE
  5
5e1
  100
AcDbEntity
  8
1
  100
AcDbLine
  10
44.895
  20
-1.496805
  30
0
  11
44.91
  21
-1.497653
  31
0
  0
LINE
  5
5e2
  100
AcDbEntity
  8
1
  100
AcDbLine
  10
44.91
  20
-1.497653
  30
0
  11
44.925
  21
-1.49837
  31
0
  0
LINE
  5
5e3
  100
AcDbEntity
  8
1
  100
AcDbLine
  10
44.925
  20
-1.49837
  30
0
  11
44.94
  21
-1.498957
  31
0
  0
LINE
  5
5e4
  100
AcDbEntity
  8
1
  100
AcDbLine
  10
44.94
  20
-1.498957
  30
0
  11
44.955
  21
-1.499413
  31
0
  0
LINE
  5
5e5
  100
AcDbEntity
  8
1
  100
AcDbLine
  10
44.955
  20
-1.499413
  30
0
  11
44.97
  21
-1.499739
  31
0
  0
LINE
  5
5e6
  100
AcDbEntity
  8
1
  100
AcDbLine
  10
44.97
  20
-1.499739
  30
0
  11
44.985
  21
-1.499935
  31
0
  0
LINE
  5
5e7
  100
AcDbEntity
  8
1
  100
AcDbLine
  10
44.985
  20
-1.499935
  30
0
  11
45
  21
-1.5
  31
0
  0
LINE
  5
5e8
  100
AcDbEntity
  8
1
  100
AcDbLine
  10
45
  20
-1.5
  30
0
  11
45
  21
0
  31
0
  0
LINE
  5
5e9
  100
AcDbEntity
  8
1
  100
AcDbLine
  10
45
  20
0
  30
0
  11
45
  21
1.5
  31
0
  0
LINE
  5
5ea
  100
AcDbEntity
  8
1
  100
AcDbLine
  10
45
  20
1.5
  30
0
  11
40.5
  21
1.5
  31
0
  0
LINE
  5
5eb
  100
AcDbEntity
  8
1
  100
AcDbLine
  10
40.5
  20
1.5
  30
0
  11
40.5
  21
1.49995
  31
0
  0
LINE
  5
5ec
  100
AcDbEntity
  8
1
  100
AcDbLine
  10
40.5
  20
1.49995
  30
0
  11
38.887
  21
1.49995
  31
0
  0
ARC
  5
5ed
  100
AcDbEntity
  8
1
  100
AcDbCircle
  10
39.758557
  20
11.461897
  30
0
  40
10
  100
AcDbArc
  50
255
  51
265
  0
LINE
  5
5ee
  100
AcDbEntity
  8
1
  100
AcDbLine
  10
37.170367
  20
1.802639
  30
0
  11
32.702
  21
2.999934
  31
0
  0
LINE
  5
5ef
  100
AcDbEntity
  8
1
  100
AcDbLine
  10
32.702
  20
2.999934
  30
0
  11
32.702
  21
-2.999934
  31
0
  0
LINE
  5
5f0
  100
AcDbEntity
  8
1
  100
AcDbLine
  10
32.702
  20
-2.999934
  30
0
  11
37.170367
  21
-1.802639
  31
0
  0
LINE
  5
5f1
  100
AcDbEntity
  8
1
  100
AcDbLine
  10
37.170367
  20
-1.802639
  30
0
  11
37.170367
  21
1.802639
  31
0
  0
LINE
  5
5f2
  100
AcDbEntity
  8
SK1
  100
AcDbLine
  10
32.702
  20
2.999934
  30
0
  11
32.701754
  21
3
  31
0
  0
LINE
  5
5f3
  100
AcDbEntity
  8
SK1
  100
AcDbLine
  10
32.701754
  20
3
  30
0
  11
0.5
  21
3
  31
0
  0
LINE
  5
5f4
  100
AcDbEntity
  8
SK1
  100
AcDbLine
  10
0.5
  20
3
  30
0
  11
0
  21
2.5
  31
0
  0
LINE
  5
5f5
  100
AcDbEntity
  8
SK1
  100
AcDbLine
  10
32.702
  20
-2.999934
  30
0
  11
32.701754
  21
-3
  31
0
  0
LINE
  5
5f6
  100
AcDbEntity
  8
SK1
  100
AcDbLine
  10
32.701754
  20
-3
  30
0
  11
0.5
  21
-3
  31
0
  0
LINE
  5
5f7
  100
AcDbEntity
  8
SK1
  100
AcDbLine
  10
0.5
  20
-3
  30
0
  11
0
  21
-2.5
  31
0
  0
LINE
  5
5f8
  100
AcDbEntity
  8
SK1
  100
AcDbLine
  10
32.701754
  20
3
  30
0
  11
32.701754
  21
-3
  31
0
  0
LINE
  5
5f9
  100
AcDbEntity
  8
SK1
  100
AcDbLine
  10
32.701754
  20
3
  30
0
  11
32.701754
  21
-3
  31
0
  0
LINE
  5
5fa
  100
AcDbEntity
  8
SK1
  100
AcDbLine
  10
0.5
  20
3
  30
0
  11
0.5
  21
-3
  31
0
  0
LINE
  5
5fb
  100
AcDbEntity
  8
SK1
  100
AcDbLine
  10
0
  20
2.5
  30
0
  11
0
  21
-2.5
  31
0
  0
LINE
  5
5fc
  100
AcDbEntity
  8
SK1
  100
AcDbLine
  10
33.7421
  20
1.40688
  30
0
  11
34.1089
  21
1.0401
  31
0
  0
LINE
  5
5fd
  100
AcDbEntity
  8
SK1
  100
AcDbLine
  10
33.2348
  20
1.66666
  30
0
  11
34.3687
  21
0.532833
  31
0
  0
LINE
  5
5fe
  100
AcDbEntity
  8
SK1
  100
AcDbLine
  10
32.9174
  20
1.73657
  30
0
  11
34.4386
  21
0.215434
  31
0
  0
LINE
  5
5ff
  100
AcDbEntity
  8
SK1
  100
AcDbLine
  10
32.702
  20
1.70452
  30
0
  11
34.4065
  21
0
  31
0
  0
LINE
  5
600
  100
AcDbEntity
  8
SK1
  100
AcDbLine
  10
32.702
  20
1.45703
  30
0
  11
34.159
  21
0
  31
0
  0
LINE
  5
601
  100
AcDbEntity
  8
SK1
  100
AcDbLine
  10
32.702
  20
1.20954
  30
0
  11
33.9115
  21
0
  31
0
  0
LINE
  5
602
  100
AcDbEntity
  8
SK1
  100
AcDbLine
  10
32.702
  20
0.962054
  30
0
  11
33.6641
  21
0
  31
0
  0
LINE
  5
603
  100
AcDbEntity
  8
SK1
  100
AcDbLine
  10
32.702
  20
0.714566
  30
0
  11
33.4166
  21
0
  31
0
  0
LINE
  5
604
  100
AcDbEntity
  8
SK1
  100
AcDbLine
  10
32.702
  20
0.467079
  30
0
  11
33.1691
  21
0
  31
0
  0
LINE
  5
605
  100
AcDbEntity
  8
SK1
  100
AcDbLine
  10
32.702
  20
0.219592
  30
0
  11
32.9216
  21
0
  31
0
  0
LINE
  5
606
  100
AcDbEntity
  8
SK1
  100
AcDbLine
  10
32.702
  20
1.70452
  30
0
  11
32.7461
  21
1.74861
  31
0
  0
LINE
  5
607
  100
AcDbEntity
  8
SK1
  100
AcDbLine
  10
32.702
  20
1.45703
  30
0
  11
32.973
  21
1.72802
  31
0
  0
LINE
  5
608
  100
AcDbEntity
  8
SK1
  100
AcDbLine
  10
32.702
  20
1.20954
  30
0
  11
33.1762
  21
1.6837
  31
0
  0
LINE
  5
609
  100
AcDbEntity
  8
SK1
  100
AcDbLine
  10
32.702
  20
0.962054
  30
0
  11
33.3608
  21
1.62082
  31
0
  0
LINE
  5
60a
  100
AcDbEntity
  8
SK1
  100
AcDbLine
  10
32.702
  20
0.714566
  30
0
  11
33.5291
  21
1.54167
  31
0
  0
LINE
  5
60b
  100
AcDbEntity
  8
SK1
  100
AcDbLine
  10
32.702
  20
0.467079
  30
0
  11
33.683
  21
1.44812
  31
0
  0
LINE
  5
60c
  100
AcDbEntity
  8
SK1
  100
AcDbLine
  10
32.702
  20
0.219592
  30
0
  11
33.8246
  21
1.34216
  31
0
  0
LINE
  5
60d
  100
AcDbEntity
  8
SK1
  100
AcDbLine
  10
32.7299
  20
0
  30
0
  11
33.9528
  21
1.22288
  31
0
  0
LINE
  5
60e
  100
AcDbEntity
  8
SK1
  100
AcDbLine
  10
32.9774
  20
0
  30
0
  11
34.069
  21
1.09157
  31
0
  0
LINE
  5
60f
  100
AcDbEntity
  8
SK1
  100
AcDbLine
  10
33.2249
  20
0
  30
0
  11
34.1727
  21
0.947822
  31
0
  0
LINE
  5
610
  100
AcDbEntity
  8
SK1
  100
AcDbLine
  10
33.4724
  20
0
  30
0
  11
34.2625
  21
0.790145
  31
0
  0
LINE
  5
611
  100
AcDbEntity
  8
SK1
  100
AcDbLine
  10
33.7198
  20
0
  30
0
  11
34.3384
  21
0.618517
  31
0
  0
LINE
  5
612
  100
AcDbEntity
  8
SK1
  100
AcDbLine
  10
33.9673
  20
0
  30
0
  11
34.398
  21
0.430696
  31
0
  0
LINE
  5
613
  100
AcDbEntity
  8
SK1
  100
AcDbLine
  10
34.2148
  20
0
  30
0
  11
34.4376
  21
0.222827
  31
0
  0
LINE
  5
614
  100
AcDbEntity
  8
SK1
  100
AcDbLine
  10
32.702
  20
0
  30
0
  11
32.702
  21
1.75
  31
0
  0
LINE
  5
615
  100
AcDbEntity
  8
SK1
  100
AcDbLine
  10
32.702
  20
0
  30
0
  11
34.452
  21
0
  31
0
  0
ARC
  5
616
  100
AcDbEntity
  8
SK1
  100
AcDbCircle
  10
32.702
  20
0
  30
0
  40
1.75
  100
AcDbArc
  50
0
  51
90
  0
ARC
  5
617
  100
AcDbEntity
  8
SK1
  100
AcDbCircle
  10
32.702
  20
0
  30
0
  40
1.75
  100
AcDbArc
  50
90
  51
180
  0
LINE
  5
618
  100
AcDbEntity
  8
SK1
  100
AcDbLine
  10
32.6741
  20
0
  30
0
  11
32.702
  21
-0.027896
  31
0
  0
LINE
  5
619
  100
AcDbEntity
  8
SK1
  100
AcDbLine
  10
32.4266
  20
0
  30
0
  11
32.702
  21
-0.275383
  31
0
  0
LINE
  5
61a
  100
AcDbEntity
  8
SK1
  100
AcDbLine
  10
32.1791
  20
0
  30
0
  11
32.702
  21
-0.522871
  31
0
  0
LINE
  5
61b
  100
AcDbEntity
  8
SK1
  100
AcDbLine
  10
31.9316
  20
0
  30
0
  11
32.702
  21
-0.770358
  31
0
  0
LINE
  5
61c
  100
AcDbEntity
  8
SK1
  100
AcDbLine
  10
31.6842
  20
0
  30
0
  11
32.702
  21
-1.01785
  31
0
  0
LINE
  5
61d
  100
AcDbEntity
  8
SK1
  100
AcDbLine
  10
31.4367
  20
0
  30
0
  11
32.702
  21
-1.26533
  31
0
  0
LINE
  5
61e
  100
AcDbEntity
  8
SK1
  100
AcDbLine
  10
31.1892
  20
0
  30
0
  11
32.702
  21
-1.51282
  31
0
  0
LINE
  5
61f
  100
AcDbEntity
  8
SK1
  100
AcDbLine
  10
30.9523
  20
-0.010642
  30
0
  11
32.6914
  21
-1.74967
  31
0
  0
LINE
  5
620
  100
AcDbEntity
  8
SK1
  100
AcDbLine
  10
30.9756
  20
-0.281429
  30
0
  11
32.4206
  21
-1.72637
  31
0
  0
LINE
  5
621
  100
AcDbEntity
  8
SK1
  100
AcDbLine
  10
31.0659
  20
-0.619147
  30
0
  11
32.0829
  21
-1.63613
  31
0
  0
LINE
  5
622
  100
AcDbEntity
  8
SK1
  100
AcDbLine
  10
30.9534
  20
-0.044098
  30
0
  11
30.9975
  21
0
  31
0
  0
LINE
  5
623
  100
AcDbEntity
  8
SK1
  100
AcDbLine
  10
30.974
  20
-0.270991
  30
0
  11
31.245
  21
0
  31
0
  0
LINE
  5
624
  100
AcDbEntity
  8
SK1
  100
AcDbLine
  10
31.0183
  20
-0.474162
  30
0
  11
31.4925
  21
0
  31
0
  0
LINE
  5
625
  100
AcDbEntity
  8
SK1
  100
AcDbLine
  10
31.0812
  20
-0.658762
  30
0
  11
31.7399
  21
0
  31
0
  0
LINE
  5
626
  100
AcDbEntity
  8
SK1
  100
AcDbLine
  10
31.1603
  20
-0.827105
  30
0
  11
31.9874
  21
0
  31
0
  0
LINE
  5
627
  100
AcDbEntity
  8
SK1
  100
AcDbLine
  10
31.2539
  20
-0.981039
  30
0
  11
32.2349
  21
0
  31
0
  0
LINE
  5
628
  100
AcDbEntity
  8
SK1
  100
AcDbLine
  10
31.3598
  20
-1.12257
  30
0
  11
32.4824
  21
0
  31
0
  0
LINE
  5
629
  100
AcDbEntity
  8
SK1
  100
AcDbLine
  10
31.4791
  20
-1.25077
  30
0
  11
32.702
  21
-0.027896
  31
0
  0
LINE
  5
62a
  100
AcDbEntity
  8
SK1
  100
AcDbLine
  10
31.6104
  20
-1.36695
  30
0
  11
32.702
  21
-0.275383
  31
0
  0
LINE
  5
62b
  100
AcDbEntity
  8
SK1
  100
AcDbLine
  10
31.7542
  20
-1.47069
  30
0
  11
32.702
  21
-0.522871
  31
0
  0
LINE
  5
62c
  100
AcDbEntity
  8
SK1
  100
AcDbLine
  10
31.9119
  20
-1.5605
  30
0
  11
32.702
  21
-0.770358
  31
0
  0
LINE
  5
62d
  100
AcDbEntity
  8
SK1
  100
AcDbLine
  10
32.0835
  20
-1.63636
  30
0
  11
32.702
  21
-1.01785
  31
0
  0
LINE
  5
62e
  100
AcDbEntity
  8
SK1
  100
AcDbLine
  10
32.2713
  20
-1.69603
  30
0
  11
32.702
  21
-1.26533
  31
0
  0
LINE
  5
62f
  100
AcDbEntity
  8
SK1
  100
AcDbLine
  10
32.4792
  20
-1.73565
  30
0
  11
32.702
  21
-1.51282
  31
0
  0
LINE
  5
630
  100
AcDbEntity
  8
SK1
  100
AcDbLine
  10
32.702
  20
0
  30
0
  11
30.952
  21
0
  31
0
  0
LINE
  5
631
  100
AcDbEntity
  8
SK1
  100
AcDbLine
  10
32.702
  20
-1.75
  30
0
  11
32.702
  21
0
  31
0
  0
ARC
  5
632
  100
AcDbEntity
  8
SK1
  100
AcDbCircle
  10
32.702
  20
0
  30
0
  40
1.75
  100
AcDbArc
  50
180
  51
270
  0
ARC
  5
633
  100
AcDbEntity
  8
SK1
  100
AcDbCircle
  10
32.702
  20
0
  30
0
  40
1.75
  100
AcDbArc
  50
270
  51
0
  0
LINE
  5
688
  100
AcDbEntity
  8
NOCUT
  100
AcDbLine
  10
40.5
  20
0
  30
0
  11
40.5
  21
1.49995
  31
0
  0
LINE
  5
689
  100
AcDbEntity
  8
NOCUT
  100
AcDbLine
  10
40.5
  20
1.49995
  30
0
  11
38.887
  21
1.49995
  31
0
  0
ARC
  5
68a
  100
AcDbEntity
  8
NOCUT
  100
AcDbCircle
  10
39.758557
  20
11.461897
  30
0
  40
10
  100
AcDbArc
  50
255
  51
265
  0
LINE
  5
68b
  100
AcDbEntity
  8
NOCUT
  100
AcDbLine
  10
37.170367
  20
1.802639
  30
0
  11
32.702
  21
2.999934
  31
0
  0
LINE
  5
68c
  100
AcDbEntity
  8
NOCUT
  100
AcDbLine
  10
32.702
  20
2.999934
  30
0
  11
32.702
  21
0
  31
0
  0
LINE
  5
68d
  100
AcDbEntity
  8
NOCUT
  100
AcDbLine
  10
32.702
  20
0
  30
0
  11
40.5
  21
0
  31
0
  0
LINE
  5
68e
  100
AcDbEntity
  8
CUT
  100
AcDbLine
  10
45
  20
0
  30
0
  11
45
  21
1.5
  31
0
  0
LINE
  5
68f
  100
AcDbEntity
  8
CUT
  100
AcDbLine
  10
45
  20
1.5
  30
0
  11
40.5
  21
1.5
  31
0
  0
LINE
  5
690
  100
AcDbEntity
  8
CUT
  100
AcDbLine
  10
40.5
  20
1.5
  30
0
  11
40.5
  21
0
  31
0
  0
LINE
  5
691
  100
AcDbEntity
  8
CUT
  100
AcDbLine
  10
40.5
  20
0
  30
0
  11
45
  21
0
  31
0
  0
LINE
  5
692
  100
AcDbEntity
  8
4
  100
AcDbLine
  10
32.702
  20
0
  30
0
  11
45
  21
0
  31
0
  0
LINE
  5
693
  100
AcDbEntity
  8
SK4
  100
AcDbLine
  10
-1
  20
0
  30
0
  11
46
  21
0
  31
0
  0
LINE
  5
694
  100
AcDbEntity
  8
INFTOTAL
  100
AcDbLine
  10
-15.45
  20
38.45
  30
0
  11
60.45
  21
38.45
  31
0
  0
LINE
  5
695
  100
AcDbEntity
  8
INFTOTAL
  100
AcDbLine
  10
60.45
  20
38.45
  30
0
  11
60.45
  21
-28.45
  31
0
  0
LINE
  5
696
  100
AcDbEntity
  8
INFTOTAL
  100
AcDbLine
  10
60.45
  20
-28.45
  30
0
  11
-15.45
  21
-28.45
  31
0
  0
LINE
  5
697
  100
AcDbEntity
  8
INFTOTAL
  100
AcDbLine
  10
-15.45
  20
-28.45
  30
0
  11
-15.45
  21
38.45
  31
0
  0
ENDSEC
  0
SECTION
  2
OBJECTS
  0
DICTIONARY
  5
698
  330
0
100
AcDbDictionary
281
    1
  3
ACAD_GROUP
  350
699
  0
DICTIONARY
  5
699
102
{ACAD_REACTORS
  330
698
102
}
  330
698
100
AcDbDictionary
281
    1
  0
ENDSEC
  0
EOF
