  0
SECTION
  2
HEADER
  9
$ACADVER
  1
AC1015
  9
$DWGCODEPAGE
  3
ANSI_932
  9
$HANDSEED
  5
106AB90
  0
ENDSEC
  0
SECTION
  2
CLASSES
  0
CLASS
  1
IMAGEDEF
  2
AcDbRasterImageDef
  3
ISM
  90
0
  91
4
  280
0
  281
0
  0
CLASS
  1
IMAGE
  2
AcDbRasterImage
  3
ISM
  90
127
  91
5
  280
0
  281
1
  0
CLASS
  1
IMAGEDEF_REACTOR
  2
AcDbRasterImageDefReactor
  3
ISM
  90
1
  91
4
  280
0
  281
0
  0
ENDSEC
  0
SECTION
  2
TABLES
  0
TABLE
  2
VPORT
  5
2
  330
0
  100
AcDbSymbolTable
  70
    0
  0
ENDTAB
  0
TABLE
  2
LTYPE
  5
3
  330
0
  100
AcDbSymbolTable
  70
    4
  0
LTYPE
  5
4
  330
3
  100
AcDbSymbolTableRecord
  100
AcDbLinetypeTableRecord
  2
ByBlock
  70
    0
  3

  72
65
  73
    0
  40
0
  0
LTYPE
  5
5
  330
3
  100
AcDbSymbolTableRecord
  100
AcDbLinetypeTableRecord
  2
ByLayer
  70
    0
  3

  72
65
  73
    0
  40
0
  0
LTYPE
  5
6
  330
3
  100
AcDbSymbolTableRecord
  100
AcDbLinetypeTableRecord
  2
CONTINUOUS
  70
    0
  3
Solid Line
  72
65
  73
    0
  40
0
  0
LTYPE
  5
7
  330
3
  100
AcDbSymbolTableRecord
  100
AcDbLinetypeTableRecord
  2
DASH
  70
    0
  3
Hidden
  72
65
  73
2
  40
2.5
  49
1.5
  74
0
  49
-1
  74
0
  0
LTYPE
  5
8
  330
3
  100
AcDbSymbolTableRecord
  100
AcDbLinetypeTableRecord
  2
LONGDASHDASH
  70
    0
  3
__ . __
  72
65
  73
    4
  40
7
  49
4
  74
    0
  49
-1
  74
    0
  49
1
  74
    0
  49
-1
  74
    0
  0
ENDTAB
  0
TABLE
  2
LAYER
  5
9
  330
0
  100
AcDbSymbolTable
  70
    40
  0
LAYER
  5
a
  330
9
  100
AcDbSymbolTableRecord
  100
AcDbLayerTableRecord
  2
0
  70
    0
  62
    0
  6
CONTINUOUS
  390
0
  0
LAYER
  5
c
  330
9
  100
AcDbSymbolTableRecord
  100
AcDbLayerTableRecord
  2
1
  70
    0
  62
    4
  6
CONTINUOUS
  370
50
  390
0
  0
LAYER
  5
d
  330
9
  100
AcDbSymbolTableRecord
  100
AcDbLayerTableRecord
  2
2
  70
    0
  62
    7
  6
CONTINUOUS
  370
25
  390
0
  0
LAYER
  5
f
  330
9
  100
AcDbSymbolTableRecord
  100
AcDbLayerTableRecord
  2
4
  70
    0
  62
    2
  6
LONGDASHDASH
  370
25
  390
0
  0
LAYER
  5
13
  330
9
  100
AcDbSymbolTableRecord
  100
AcDbLayerTableRecord
  2
SK1
  70
    0
  62
    4
  6
CONTINUOUS
  370
50
  390
0
  0
LAYER
  5
14
  330
9
  100
AcDbSymbolTableRecord
  100
AcDbLayerTableRecord
  2
SK2
  70
    0
  62
    7
  6
CONTINUOUS
  370
25
  390
0
  0
LAYER
  5
16
  330
9
  100
AcDbSymbolTableRecord
  100
AcDbLayerTableRecord
  2
SK4
  70
    0
  62
    2
  6
LONGDASHDASH
  370
25
  390
0
  0
LAYER
  5
21
  330
9
  100
AcDbSymbolTableRecord
  100
AcDbLayerTableRecord
  2
NOCUT
  70
    0
  62
    7
  6
CONTINUOUS
  370
25
  390
0
  0
LAYER
  5
22
  330
9
  100
AcDbSymbolTableRecord
  100
AcDbLayerTableRecord
  2
CUT
  70
    0
  62
    1
  6
CONTINUOUS
  370
25
  390
0
  0
LAYER
  5
26
  330
9
  100
AcDbSymbolTableRecord
  100
AcDbLayerTableRecord
  2
INFTOTAL
  70
    0
  62
    9
  6
CONTINUOUS
  370
18
  390
0
  0
ENDTAB
  0
TABLE
  2
STYLE
  5
27
  330
0
  100
AcDbSymbolTable
  70
    1
  0
STYLE
  5
28
  330
27
  100
AcDbSymbolTableRecord
  100
AcDbTextStyleTableRecord
  2
Monospac821 BT
  70
    0
  40
    3.5
  41
1
  50
0
  71
0
  42
3
  3

  4

  1001
ACAD
  1000
Monospac821 BT
  1071
256
  0
ENDTAB
  0
TABLE
  2
VIEW
  5
29
  330
0
  100
AcDbSymbolTable
  70
    0
  0
ENDTAB
  0
TABLE
  2
UCS
  5
2a
  330
0
  100
AcDbSymbolTable
  70
    0
  0
ENDTAB
  0
TABLE
  2
APPID
  5
2b
  330
0
  100
AcDbSymbolTable
  70
    1
  0
APPID
  5
2c
  330
2b
  100
AcDbSymbolTableRecord
  100
AcDbRegAppTableRecord
  2
ACAD
  70
    0
  0
ENDTAB
  0
TABLE
  2
DIMSTYLE
  5
2d
  330
0
  100
AcDbSymbolTable
  70
    1
  100
AcDbDimStyleTable
  0
DIMSTYLE
  105
2e
  330
2d
  100
AcDbSymbolTableRecord
  100
AcDbDimStyleTableRecord
  2
STANDARD
  70
    0
  41
    3
  42
0.5
  44
1
  73
0
  77
1
  78
1
  140
3.5
  141
2.5
  143
0.03937
  147
0.8
  172
1
  174
1
  178
0
  179
1
  271
2
  279
1
  284
1
  340
28
  0
ENDTAB
  0
TABLE
  2
BLOCK_RECORD
  5
2f
  330
0
  100
AcDbSymbolTable
  70
    2
  0
BLOCK_RECORD
  5
30
  330
2f
  100
AcDbSymbolTableRecord
  100
AcDbBlockTableRecord
  2
*Model_Space
  0
BLOCK_RECORD
  5
31
  330
2f
  100
AcDbSymbolTableRecord
  100
AcDbBlockTableRecord
  2
*Paper_Space
  0
BLOCK_RECORD
  5
34b
  330
2f
  100
AcDbSymbolTableRecord
  100
AcDbBlockTableRecord
  2
*D34a
  340
0
  0
BLOCK_RECORD
  5
359
  330
2f
  100
AcDbSymbolTableRecord
  100
AcDbBlockTableRecord
  2
*D358
  340
0
  0
BLOCK_RECORD
  5
367
  330
2f
  100
AcDbSymbolTableRecord
  100
AcDbBlockTableRecord
  2
*D366
  340
0
  0
BLOCK_RECORD
  5
375
  330
2f
  100
AcDbSymbolTableRecord
  100
AcDbBlockTableRecord
  2
*D374
  340
0
  0
BLOCK_RECORD
  5
383
  330
2f
  100
AcDbSymbolTableRecord
  100
AcDbBlockTableRecord
  2
*D382
  340
0
  0
BLOCK_RECORD
  5
38d
  330
2f
  100
AcDbSymbolTableRecord
  100
AcDbBlockTableRecord
  2
*D38c
  340
0
  0
BLOCK_RECORD
  5
397
  330
2f
  100
AcDbSymbolTableRecord
  100
AcDbBlockTableRecord
  2
*D396
  340
0
  0
BLOCK_RECORD
  5
3a5
  330
2f
  100
AcDbSymbolTableRecord
  100
AcDbBlockTableRecord
  2
*D3a4
  340
0
  0
ENDTAB
  0
ENDSEC
  0
SECTION
  2
BLOCKS
  0
BLOCK
  5
32
  330
30
  100
AcDbEntity
  8
0
  100
AcDbBlockBegin
  2
*Model_Space
  70
    0
  10
0
  20
0
  30
0
  3
*Model_Space
  1

  0
ENDBLK
  5
33
  330
30
  100
AcDbEntity
  8
0
  100
AcDbBlockEnd
  0
BLOCK
  5
34
  330
31
  100
AcDbEntity
  8
0
  100
AcDbBlockBegin
  2
*Paper_Space
  70
    0
  10
0
  20
0
  30
0
  3
*Paper_Space
  1

  0
ENDBLK
  5
35
  330
31
  100
AcDbEntity
  8
0
  100
AcDbBlockEnd
  0
BLOCK
  5
349
  330
34b
  100
AcDbEntity
  8
SK2
  100
AcDbBlockBegin
  2
*D34a
  70
1
  10
0
  20
0
  30
0
  3
*D34a
  1

  0
LINE
  5
34c
  330
34b
  100
AcDbEntity
  8
SK2
  100
AcDbLine
  10
0
  20
1.3
  30
0
  11
0
  21
35
  31
0
  0
LINE
  5
34d
  330
34b
  100
AcDbEntity
  8
SK2
  100
AcDbLine
  10
100
  20
-25
  30
0
  11
100
  21
35
  31
0
  0
LINE
  5
34e
  330
34b
  100
AcDbEntity
  8
SK2
  100
AcDbLine
  10
0
  20
33
  30
0
  11
100
  21
33
  31
0
  0
SOLID
  5
34f
  330
34b
  100
AcDbEntity
  8
SK2
  100
AcDbTrace
  10
0
  20
33
  30
0
  11
2.478612
  21
33.326315
  31
0
  12
2.478612
  22
32.673685
  32
0
  13
2.478612
  23
32.673685
  33
0
  0
SOLID
  5
350
  330
34b
  100
AcDbEntity
  8
SK2
  100
AcDbTrace
  10
100
  20
33
  30
0
  11
97.521388
  21
32.673685
  31
0
  12
97.521388
  22
33.326315
  32
0
  13
97.521388
  23
33.326315
  33
0
  0
MTEXT
  5
351
  330
34b
  100
AcDbEntity
  8
SK2
  100
AcDbMText
  10
50.440806
  20
33
  30
0
  11
1
  21
0
  31
0
  40
2
  41
0
  71
8
  72
1
  1
100
  0
POINT
  5
352
  330
34b
  100
AcDbEntity
  8
SK2
  62
0
  100
AcDbPoint
  10
0
  20
1.3
  30
0
  0
POINT
  5
353
  330
34b
  100
AcDbEntity
  8
SK2
  62
0
  100
AcDbPoint
  10
100
  20
-25
  30
0
  0
POINT
  5
354
  330
34b
  100
AcDbEntity
  8
SK2
  62
0
  100
AcDbPoint
  10
100
  20
33
  30
0
  0
ENDBLK
  5
355
  330
34b
  100
AcDbEntity
  8
SK2
  100
AcDbBlockEnd
  0
BLOCK
  5
357
  330
359
  100
AcDbEntity
  8
SK2
  100
AcDbBlockBegin
  2
*D358
  70
1
  10
0
  20
0
  30
0
  3
*D358
  1

  0
LINE
  5
35a
  330
359
  100
AcDbEntity
  8
SK2
  100
AcDbLine
  10
85
  20
2.5
  30
0
  11
85
  21
25
  31
0
  0
LINE
  5
35b
  330
359
  100
AcDbEntity
  8
SK2
  100
AcDbLine
  10
0
  20
1.3
  30
0
  11
0
  21
35
  31
0
  0
LINE
  5
35c
  330
359
  100
AcDbEntity
  8
SK2
  100
AcDbLine
  10
85
  20
23
  30
0
  11
0
  21
23
  31
0
  0
SOLID
  5
35d
  330
359
  100
AcDbEntity
  8
SK2
  100
AcDbTrace
  10
85
  20
23
  30
0
  11
87.478612
  21
23.326315
  31
0
  12
87.478612
  22
22.673685
  32
0
  13
87.478612
  23
22.673685
  33
0
  0
SOLID
  5
35e
  330
359
  100
AcDbEntity
  8
SK2
  100
AcDbTrace
  10
0
  20
23
  30
0
  11
-2.478612
  21
22.673685
  31
0
  12
-2.478612
  22
23.326315
  32
0
  13
-2.478612
  23
23.326315
  33
0
  0
MTEXT
  5
35f
  330
359
  100
AcDbEntity
  8
SK2
  100
AcDbMText
  10
42.922498
  20
23
  30
0
  11
1
  21
-0
  31
0
  40
2
  41
0
  71
8
  72
1
  1
85
  0
POINT
  5
360
  330
359
  100
AcDbEntity
  8
SK2
  62
0
  100
AcDbPoint
  10
85
  20
2.5
  30
0
  0
POINT
  5
361
  330
359
  100
AcDbEntity
  8
SK2
  62
0
  100
AcDbPoint
  10
0
  20
1.3
  30
0
  0
POINT
  5
362
  330
359
  100
AcDbEntity
  8
SK2
  62
0
  100
AcDbPoint
  10
0
  20
23
  30
0
  0
ENDBLK
  5
363
  330
359
  100
AcDbEntity
  8
SK2
  100
AcDbBlockEnd
  0
BLOCK
  5
365
  330
367
  100
AcDbEntity
  8
SK2
  100
AcDbBlockBegin
  2
*D366
  70
1
  10
0
  20
0
  30
0
  3
*D366
  1

  0
LINE
  5
368
  330
367
  100
AcDbEntity
  8
SK2
  100
AcDbLine
  10
0.7
  20
-2
  30
0
  11
-12
  21
-2
  31
0
  0
LINE
  5
369
  330
367
  100
AcDbEntity
  8
SK2
  100
AcDbLine
  10
0.7
  20
2
  30
0
  11
-12
  21
2
  31
0
  0
LINE
  5
36a
  330
367
  100
AcDbEntity
  8
SK2
  100
AcDbLine
  10
-10
  20
-4.95397
  30
0
  11
-10
  21
2
  31
0
  0
SOLID
  5
36b
  330
367
  100
AcDbEntity
  8
SK2
  100
AcDbTrace
  10
-10
  20
-2
  30
0
  11
-10.326315
  21
0.478612
  31
0
  12
-9.673685
  22
0.478612
  32
0
  13
-9.673685
  23
0.478612
  33
0
  0
SOLID
  5
36c
  330
367
  100
AcDbEntity
  8
SK2
  100
AcDbTrace
  10
-10
  20
2
  30
0
  11
-9.673685
  21
-0.478612
  31
0
  12
-10.326315
  22
-0.478612
  32
0
  13
-10.326315
  23
-0.478612
  33
0
  0
MTEXT
  5
36d
  330
367
  100
AcDbEntity
  8
SK2
  100
AcDbMText
  10
-10
  20
0
  30
0
  11
0
  21
1
  31
0
  40
2
  41
0
  71
8
  72
1
  1
Ø4
  0
POINT
  5
36e
  330
367
  100
AcDbEntity
  8
SK2
  62
0
  100
AcDbPoint
  10
0.7
  20
-2
  30
0
  0
POINT
  5
36f
  330
367
  100
AcDbEntity
  8
SK2
  62
0
  100
AcDbPoint
  10
0.7
  20
2
  30
0
  0
POINT
  5
370
  330
367
  100
AcDbEntity
  8
SK2
  62
0
  100
AcDbPoint
  10
-10
  20
2
  30
0
  0
ENDBLK
  5
371
  330
367
  100
AcDbEntity
  8
SK2
  100
AcDbBlockEnd
  0
BLOCK
  5
373
  330
375
  100
AcDbEntity
  8
2
  100
AcDbBlockBegin
  2
*D374
  70
1
  10
0
  20
0
  30
0
  3
*D374
  1

  0
LINE
  5
376
  330
375
  100
AcDbEntity
  8
2
  100
AcDbLine
  10
99.8
  20
-3
  30
0
  11
112
  21
-3
  31
0
  0
LINE
  5
377
  330
375
  100
AcDbEntity
  8
2
  100
AcDbLine
  10
99.8
  20
3
  30
0
  11
112
  21
3
  31
0
  0
LINE
  5
378
  330
375
  100
AcDbEntity
  8
2
  100
AcDbLine
  10
110
  20
-3
  30
0
  11
110
  21
3
  31
0
  0
SOLID
  5
379
  330
375
  100
AcDbEntity
  8
2
  100
AcDbTrace
  10
110
  20
-3
  30
0
  11
109.673685
  21
-0.521388
  31
0
  12
110.326315
  22
-0.521388
  32
0
  13
110.326315
  23
-0.521388
  33
0
  0
SOLID
  5
37a
  330
375
  100
AcDbEntity
  8
2
  100
AcDbTrace
  10
110
  20
3
  30
0
  11
110.326315
  21
0.521388
  31
0
  12
109.673685
  22
0.521388
  32
0
  13
109.673685
  23
0.521388
  33
0
  0
MTEXT
  5
37b
  330
375
  100
AcDbEntity
  8
2
  100
AcDbMText
  10
110
  20
0
  30
0
  11
0
  21
1
  31
0
  40
2
  41
0
  71
8
  72
1
  1
Ø6
  0
POINT
  5
37c
  330
375
  100
AcDbEntity
  8
2
  62
0
  100
AcDbPoint
  10
99.8
  20
-3
  30
0
  0
POINT
  5
37d
  330
375
  100
AcDbEntity
  8
2
  62
0
  100
AcDbPoint
  10
99.8
  20
3
  30
0
  0
POINT
  5
37e
  330
375
  100
AcDbEntity
  8
2
  62
0
  100
AcDbPoint
  10
110
  20
3
  30
0
  0
ENDBLK
  5
37f
  330
375
  100
AcDbEntity
  8
2
  100
AcDbBlockEnd
  0
BLOCK
  5
381
  330
383
  100
AcDbEntity
  8
2
  100
AcDbBlockBegin
  2
*D382
  70
1
  10
0
  20
0
  30
0
  3
*D382
  1

  0
LINE
  5
384
  330
383
  100
AcDbEntity
  8
2
  100
AcDbLine
  10
97.012658
  20
0.012658
  30
0
  11
107.012489
  21
10.012489
  31
0
  0
MTEXT
  5
385
  330
383
  100
AcDbEntity
  8
2
  100
AcDbMText
  10
99.941421
  20
2.941421
  30
0
  11
0.707107
  21
0.707107
  31
0
  40
2
  41
0
  71
8
  72
1
  1
R0.2
  0
SOLID
  5
386
  330
383
  100
AcDbEntity
  8
2
  100
AcDbTrace
  10
99.941421
  20
2.941421
  30
0
  11
101.463325
  21
4.924805
  31
0
  12
101.924805
  22
4.463325
  32
0
  13
101.924805
  23
4.463325
  33
0
  0
POINT
  5
387
  330
383
  100
AcDbEntity
  8
2
  62
0
  100
AcDbPoint
  10
97.012658
  20
0.012658
  30
0
  0
POINT
  5
388
  330
383
  100
AcDbEntity
  8
2
  62
0
  100
AcDbPoint
  10
99.8
  20
2.8
  30
0
  0
ENDBLK
  5
389
  330
383
  100
AcDbEntity
  8
2
  100
AcDbBlockEnd
  0
BLOCK
  5
38b
  330
38d
  100
AcDbEntity
  8
2
  100
AcDbBlockBegin
  2
*D38c
  70
1
  10
0
  20
0
  30
0
  3
*D38c
  1

  0
LINE
  5
38e
  330
38d
  100
AcDbEntity
  8
2
  100
AcDbLine
  10
87.800345
  20
0.199655
  30
0
  11
78.075379
  21
9.924621
  31
0
  0
MTEXT
  5
38f
  330
38d
  100
AcDbEntity
  8
2
  100
AcDbMText
  10
85.146447
  20
2.853553
  30
0
  11
0.707107
  21
-0.707107
  31
0
  40
2
  41
0
  71
8
  72
1
  1
R0.5
  0
SOLID
  5
390
  330
38d
  100
AcDbEntity
  8
2
  100
AcDbTrace
  10
85.146447
  20
2.853553
  30
0
  11
83.163063
  21
4.375457
  31
0
  12
83.624543
  22
4.836937
  32
0
  13
83.624543
  23
4.836937
  33
0
  0
POINT
  5
391
  330
38d
  100
AcDbEntity
  8
2
  62
0
  100
AcDbPoint
  10
87.800345
  20
0.199655
  30
0
  0
POINT
  5
392
  330
38d
  100
AcDbEntity
  8
2
  62
0
  100
AcDbPoint
  10
85.5
  20
2.5
  30
0
  0
ENDBLK
  5
393
  330
38d
  100
AcDbEntity
  8
2
  100
AcDbBlockEnd
  0
BLOCK
  5
395
  330
397
  100
AcDbEntity
  8
2
  100
AcDbBlockBegin
  2
*D396
  70
1
  10
0
  20
0
  30
0
  3
*D396
  1

  0
LINE
  5
398
  330
397
  100
AcDbEntity
  8
2
  100
AcDbLine
  10
85
  20
-2
  30
0
  11
85
  21
-15
  31
0
  0
LINE
  5
399
  330
397
  100
AcDbEntity
  8
2
  100
AcDbLine
  10
100
  20
-25
  30
0
  11
100
  21
35
  31
0
  0
LINE
  5
39a
  330
397
  100
AcDbEntity
  8
2
  100
AcDbLine
  10
85
  20
-13
  30
0
  11
100
  21
-13
  31
0
  0
SOLID
  5
39b
  330
397
  100
AcDbEntity
  8
2
  100
AcDbTrace
  10
85
  20
-13
  30
0
  11
87.478612
  21
-12.673685
  31
0
  12
87.478612
  22
-13.326315
  32
0
  13
87.478612
  23
-13.326315
  33
0
  0
SOLID
  5
39c
  330
397
  100
AcDbEntity
  8
2
  100
AcDbTrace
  10
100
  20
-13
  30
0
  11
97.521388
  21
-13.326315
  31
0
  12
97.521388
  22
-12.673685
  32
0
  13
97.521388
  23
-12.673685
  33
0
  0
MTEXT
  5
39d
  330
397
  100
AcDbEntity
  8
2
  100
AcDbMText
  10
92.5
  20
-13
  30
0
  11
1
  21
0
  31
0
  40
2
  41
0
  71
8
  72
1
  1
15
  0
POINT
  5
39e
  330
397
  100
AcDbEntity
  8
2
  62
0
  100
AcDbPoint
  10
85
  20
-2
  30
0
  0
POINT
  5
39f
  330
397
  100
AcDbEntity
  8
2
  62
0
  100
AcDbPoint
  10
100
  20
35
  30
0
  0
POINT
  5
3a0
  330
397
  100
AcDbEntity
  8
2
  62
0
  100
AcDbPoint
  10
100
  20
-13
  30
0
  0
ENDBLK
  5
3a1
  330
397
  100
AcDbEntity
  8
2
  100
AcDbBlockEnd
  0
BLOCK
  5
3a3
  330
3a5
  100
AcDbEntity
  8
2
  100
AcDbBlockBegin
  2
*D3a4
  70
1
  10
0
  20
0
  30
0
  3
*D3a4
  1

  0
LINE
  5
3a6
  330
3a5
  100
AcDbEntity
  8
2
  100
AcDbLine
  10
28
  20
-2
  30
0
  11
28
  21
-25
  31
0
  0
LINE
  5
3a7
  330
3a5
  100
AcDbEntity
  8
2
  100
AcDbLine
  10
100
  20
-25
  30
0
  11
100
  21
35
  31
0
  0
LINE
  5
3a8
  330
3a5
  100
AcDbEntity
  8
2
  100
AcDbLine
  10
28
  20
-23
  30
0
  11
100
  21
-23
  31
0
  0
SOLID
  5
3a9
  330
3a5
  100
AcDbEntity
  8
2
  100
AcDbTrace
  10
28
  20
-23
  30
0
  11
30.478612
  21
-22.673685
  31
0
  12
30.478612
  22
-23.326315
  32
0
  13
30.478612
  23
-23.326315
  33
0
  0
SOLID
  5
3aa
  330
3a5
  100
AcDbEntity
  8
2
  100
AcDbTrace
  10
100
  20
-23
  30
0
  11
97.521388
  21
-23.326315
  31
0
  12
97.521388
  22
-22.673685
  32
0
  13
97.521388
  23
-22.673685
  33
0
  0
MTEXT
  5
3ab
  330
3a5
  100
AcDbEntity
  8
2
  100
AcDbMText
  10
64
  20
-23
  30
0
  11
1
  21
0
  31
0
  40
2
  41
0
  71
8
  72
1
  1
72
  0
POINT
  5
3ac
  330
3a5
  100
AcDbEntity
  8
2
  62
0
  100
AcDbPoint
  10
28
  20
-2
  30
0
  0
POINT
  5
3ad
  330
3a5
  100
AcDbEntity
  8
2
  62
0
  100
AcDbPoint
  10
100
  20
35
  30
0
  0
POINT
  5
3ae
  330
3a5
  100
AcDbEntity
  8
2
  62
0
  100
AcDbPoint
  10
100
  20
-23
  30
0
  0
ENDBLK
  5
3af
  330
3a5
  100
AcDbEntity
  8
2
  100
AcDbBlockEnd
  0
ENDSEC
  0
SECTION
  2
ENTITIES
  0
DIMENSION
  5
356
  100
AcDbEntity
  8
SK2
  100
AcDbDimension
  2
*D34a
  10
100
  20
33
  30
0
  11
50.440806
  21
33
  31
0
  70
160
  1
<>
  71
5
  3
STANDARD
  42
100
  100
AcDbAlignedDimension
  13
0
  23
1.3
  33
0
  14
100
  24
-25
  34
0
  50
0
  100
AcDbRotatedDimension
  0
DIMENSION
  5
364
  100
AcDbEntity
  8
SK2
  100
AcDbDimension
  2
*D358
  10
0
  20
23
  30
0
  11
42.922498
  21
23
  31
0
  70
160
  1
<>
  71
5
  3
STANDARD
  42
85
  100
AcDbAlignedDimension
  13
85
  23
2.5
  33
0
  14
0
  24
1.3
  34
0
  50
0
  100
AcDbRotatedDimension
  0
DIMENSION
  5
372
  100
AcDbEntity
  8
SK2
  100
AcDbDimension
  2
*D366
  10
-10
  20
2
  30
0
  11
-10
  21
0
  31
0
  70
160
  1
%%c<>
  71
5
  3
STANDARD
  42
4
  100
AcDbAlignedDimension
  13
0.7
  23
-2
  33
0
  14
0.7
  24
2
  34
0
  50
-90
  100
AcDbRotatedDimension
  0
DIMENSION
  5
380
  100
AcDbEntity
  8
2
  100
AcDbDimension
  2
*D374
  10
110
  20
3
  30
0
  11
110
  21
0
  31
0
  70
160
  1
%%c<>
  71
5
  3
STANDARD
  42
6
  100
AcDbAlignedDimension
  13
99.8
  23
-3
  33
0
  14
99.8
  24
3
  34
0
  50
-90
  100
AcDbRotatedDimension
  0
DIMENSION
  5
38a
  100
AcDbEntity
  8
2
  100
AcDbDimension
  2
*D382
  10
99.8
  20
2.8
  30
0
  11
99.941421
  21
2.941421
  31
0
  70
164
  1
R0.2
  71
5
  3
STANDARD
  100
AcDbRadialDimension
  15
99.941421
  25
2.941421
  35
0
  50
45
  0
DIMENSION
  5
394
  100
AcDbEntity
  8
2
  100
AcDbDimension
  2
*D38c
  10
85.5
  20
2.5
  30
0
  11
85.146447
  21
2.853553
  31
0
  70
164
  1
R0.5
  71
5
  3
STANDARD
  100
AcDbRadialDimension
  15
85.146447
  25
2.853553
  35
0
  50
-45
  0
DIMENSION
  5
3a2
  100
AcDbEntity
  8
2
  100
AcDbDimension
  2
*D396
  10
100
  20
-13
  30
0
  11
92.5
  21
-13
  31
0
  70
160
  1
<>
  71
5
  3
STANDARD
  42
15
  100
AcDbAlignedDimension
  13
85
  23
-2
  33
0
  14
100
  24
35
  34
0
  50
0
  100
AcDbRotatedDimension
  0
DIMENSION
  5
3b0
  100
AcDbEntity
  8
2
  100
AcDbDimension
  2
*D3a4
  10
100
  20
-23
  30
0
  11
64
  21
-23
  31
0
  70
160
  1
<>
  71
5
  3
STANDARD
  42
72
  100
AcDbAlignedDimension
  13
28
  23
-2
  33
0
  14
100
  24
35
  34
0
  50
0
  100
AcDbRotatedDimension
  0
ARC
  5
36
  100
AcDbEntity
  8
1
  100
AcDbCircle
  10
85.5
  20
-2.5
  30
0
  40
0.5
  100
AcDbArc
  50
180
  51
270
  0
LINE
  5
37
  100
AcDbEntity
  8
1
  100
AcDbLine
  10
85.5
  20
-3
  30
0
  11
99.8
  21
-3
  31
0
  0
ARC
  5
38
  100
AcDbEntity
  8
1
  100
AcDbCircle
  10
99.8
  20
-2.8
  30
0
  40
0.2
  100
AcDbArc
  50
270
  51
0
  0
LINE
  5
39
  100
AcDbEntity
  8
1
  100
AcDbLine
  10
100
  20
-2.8
  30
0
  11
100
  21
0
  31
0
  0
LINE
  5
3a
  100
AcDbEntity
  8
1
  100
AcDbLine
  10
100
  20
0
  30
0
  11
100
  21
2.8
  31
0
  0
ARC
  5
3b
  100
AcDbEntity
  8
1
  100
AcDbCircle
  10
99.8
  20
2.8
  30
0
  40
0.2
  100
AcDbArc
  50
0
  51
90
  0
LINE
  5
3c
  100
AcDbEntity
  8
1
  100
AcDbLine
  10
99.8
  20
3
  30
0
  11
85.5
  21
3
  31
0
  0
ARC
  5
3d
  100
AcDbEntity
  8
1
  100
AcDbCircle
  10
85.5
  20
2.5
  30
0
  40
0.5
  100
AcDbArc
  50
90
  51
180
  0
LINE
  5
3e
  100
AcDbEntity
  8
1
  100
AcDbLine
  10
85
  20
2.5
  30
0
  11
85
  21
2
  31
0
  0
LINE
  5
3f
  100
AcDbEntity
  8
1
  100
AcDbLine
  10
85
  20
2
  30
0
  11
28
  21
2
  31
0
  0
LINE
  5
40
  100
AcDbEntity
  8
1
  100
AcDbLine
  10
28
  20
2
  30
0
  11
28
  21
-2
  31
0
  0
LINE
  5
41
  100
AcDbEntity
  8
1
  100
AcDbLine
  10
28
  20
-2
  30
0
  11
85
  21
-2
  31
0
  0
LINE
  5
42
  100
AcDbEntity
  8
1
  100
AcDbLine
  10
85
  20
-2
  30
0
  11
85
  21
-2.5
  31
0
  0
LINE
  5
43
  100
AcDbEntity
  8
1
  100
AcDbLine
  10
100
  20
1.424289
  30
0
  11
99.9
  21
1.569109
  31
0
  0
LINE
  5
44
  100
AcDbEntity
  8
1
  100
AcDbLine
  10
99.9
  20
1.569109
  30
0
  11
99.8
  21
1.658515
  31
0
  0
LINE
  5
45
  100
AcDbEntity
  8
1
  100
AcDbLine
  10
99.8
  20
1.658515
  30
0
  11
99.7
  21
1.735406
  31
0
  0
LINE
  5
46
  100
AcDbEntity
  8
1
  100
AcDbLine
  10
99.7
  20
1.735406
  30
0
  11
99.6
  21
1.810622
  31
0
  0
LINE
  5
47
  100
AcDbEntity
  8
1
  100
AcDbLine
  10
99.6
  20
1.810622
  30
0
  11
99.5
  21
1.884087
  31
0
  0
LINE
  5
48
  100
AcDbEntity
  8
1
  100
AcDbLine
  10
99.5
  20
1.884087
  30
0
  11
99.4
  21
1.955733
  31
0
  0
LINE
  5
49
  100
AcDbEntity
  8
1
  100
AcDbLine
  10
99.4
  20
1.955733
  30
0
  11
99.3
  21
2.025489
  31
0
  0
LINE
  5
4a
  100
AcDbEntity
  8
1
  100
AcDbLine
  10
99.3
  20
2.025489
  30
0
  11
99.2
  21
2.093288
  31
0
  0
LINE
  5
4b
  100
AcDbEntity
  8
1
  100
AcDbLine
  10
99.2
  20
2.093288
  30
0
  11
99.1
  21
2.159065
  31
0
  0
LINE
  5
4c
  100
AcDbEntity
  8
1
  100
AcDbLine
  10
99.1
  20
2.159065
  30
0
  11
99
  21
2.222756
  31
0
  0
LINE
  5
4d
  100
AcDbEntity
  8
1
  100
AcDbLine
  10
99
  20
2.222756
  30
0
  11
98.9
  21
2.284299
  31
0
  0
LINE
  5
4e
  100
AcDbEntity
  8
1
  100
AcDbLine
  10
98.9
  20
2.284299
  30
0
  11
98.8
  21
2.343636
  31
0
  0
LINE
  5
4f
  100
AcDbEntity
  8
1
  100
AcDbLine
  10
98.8
  20
2.343636
  30
0
  11
98.7
  21
2.400708
  31
0
  0
LINE
  5
50
  100
AcDbEntity
  8
1
  100
AcDbLine
  10
98.7
  20
2.400708
  30
0
  11
98.6
  21
2.455461
  31
0
  0
LINE
  5
51
  100
AcDbEntity
  8
1
  100
AcDbLine
  10
98.6
  20
2.455461
  30
0
  11
98.5
  21
2.507841
  31
0
  0
LINE
  5
52
  100
AcDbEntity
  8
1
  100
AcDbLine
  10
98.5
  20
2.507841
  30
0
  11
98.4
  21
2.557799
  31
0
  0
LINE
  5
53
  100
AcDbEntity
  8
1
  100
AcDbLine
  10
98.4
  20
2.557799
  30
0
  11
98.3
  21
2.605286
  31
0
  0
LINE
  5
54
  100
AcDbEntity
  8
1
  100
AcDbLine
  10
98.3
  20
2.605286
  30
0
  11
98.2
  21
2.650255
  31
0
  0
LINE
  5
55
  100
AcDbEntity
  8
1
  100
AcDbLine
  10
98.2
  20
2.650255
  30
0
  11
98.1
  21
2.692664
  31
0
  0
LINE
  5
56
  100
AcDbEntity
  8
1
  100
AcDbLine
  10
98.1
  20
2.692664
  30
0
  11
98
  21
2.732472
  31
0
  0
LINE
  5
57
  100
AcDbEntity
  8
1
  100
AcDbLine
  10
98
  20
2.732472
  30
0
  11
97.9
  21
2.769639
  31
0
  0
LINE
  5
58
  100
AcDbEntity
  8
1
  100
AcDbLine
  10
97.9
  20
2.769639
  30
0
  11
97.8
  21
2.804131
  31
0
  0
LINE
  5
59
  100
AcDbEntity
  8
1
  100
AcDbLine
  10
97.8
  20
2.804131
  30
0
  11
97.7
  21
2.835914
  31
0
  0
LINE
  5
5a
  100
AcDbEntity
  8
1
  100
AcDbLine
  10
97.7
  20
2.835914
  30
0
  11
97.6
  21
2.864956
  31
0
  0
LINE
  5
5b
  100
AcDbEntity
  8
1
  100
AcDbLine
  10
97.6
  20
2.864956
  30
0
  11
97.5
  21
2.891231
  31
0
  0
LINE
  5
5c
  100
AcDbEntity
  8
1
  100
AcDbLine
  10
97.5
  20
2.891231
  30
0
  11
97.4
  21
2.914713
  31
0
  0
LINE
  5
5d
  100
AcDbEntity
  8
1
  100
AcDbLine
  10
97.4
  20
2.914713
  30
0
  11
97.3
  21
2.935379
  31
0
  0
LINE
  5
5e
  100
AcDbEntity
  8
1
  100
AcDbLine
  10
97.3
  20
2.935379
  30
0
  11
97.2
  21
2.953208
  31
0
  0
LINE
  5
5f
  100
AcDbEntity
  8
1
  100
AcDbLine
  10
97.2
  20
2.953208
  30
0
  11
97.1
  21
2.968185
  31
0
  0
LINE
  5
60
  100
AcDbEntity
  8
1
  100
AcDbLine
  10
97.1
  20
2.968185
  30
0
  11
97
  21
2.980294
  31
0
  0
LINE
  5
61
  100
AcDbEntity
  8
1
  100
AcDbLine
  10
97
  20
2.980294
  30
0
  11
96.9
  21
2.989523
  31
0
  0
LINE
  5
62
  100
AcDbEntity
  8
1
  100
AcDbLine
  10
96.9
  20
2.989523
  30
0
  11
96.8
  21
2.995864
  31
0
  0
LINE
  5
63
  100
AcDbEntity
  8
1
  100
AcDbLine
  10
96.8
  20
2.995864
  30
0
  11
96.7
  21
2.999311
  31
0
  0
LINE
  5
64
  100
AcDbEntity
  8
1
  100
AcDbLine
  10
96.7
  20
2.999311
  30
0
  11
96.631056
  21
3
  31
0
  0
LINE
  5
65
  100
AcDbEntity
  8
1
  100
AcDbLine
  10
100
  20
1.652153
  30
0
  11
99.9
  21
1.792564
  31
0
  0
LINE
  5
66
  100
AcDbEntity
  8
1
  100
AcDbLine
  10
99.9
  20
1.792564
  30
0
  11
99.8
  21
1.875904
  31
0
  0
LINE
  5
67
  100
AcDbEntity
  8
1
  100
AcDbLine
  10
99.8
  20
1.875904
  30
0
  11
99.7
  21
1.946265
  31
0
  0
LINE
  5
68
  100
AcDbEntity
  8
1
  100
AcDbLine
  10
99.7
  20
1.946265
  30
0
  11
99.6
  21
2.014746
  31
0
  0
LINE
  5
69
  100
AcDbEntity
  8
1
  100
AcDbLine
  10
99.6
  20
2.014746
  30
0
  11
99.5
  21
2.081281
  31
0
  0
LINE
  5
6a
  100
AcDbEntity
  8
1
  100
AcDbLine
  10
99.5
  20
2.081281
  30
0
  11
99.4
  21
2.145805
  31
0
  0
LINE
  5
6b
  100
AcDbEntity
  8
1
  100
AcDbLine
  10
99.4
  20
2.145805
  30
0
  11
99.3
  21
2.208255
  31
0
  0
LINE
  5
6c
  100
AcDbEntity
  8
1
  100
AcDbLine
  10
99.3
  20
2.208255
  30
0
  11
99.2
  21
2.268572
  31
0
  0
LINE
  5
6d
  100
AcDbEntity
  8
1
  100
AcDbLine
  10
99.2
  20
2.268572
  30
0
  11
99.1
  21
2.326698
  31
0
  0
LINE
  5
6e
  100
AcDbEntity
  8
1
  100
AcDbLine
  10
99.1
  20
2.326698
  30
0
  11
99
  21
2.382576
  31
0
  0
LINE
  5
6f
  100
AcDbEntity
  8
1
  100
AcDbLine
  10
99
  20
2.382576
  30
0
  11
98.9
  21
2.436151
  31
0
  0
LINE
  5
70
  100
AcDbEntity
  8
1
  100
AcDbLine
  10
98.9
  20
2.436151
  30
0
  11
98.8
  21
2.487374
  31
0
  0
LINE
  5
71
  100
AcDbEntity
  8
1
  100
AcDbLine
  10
98.8
  20
2.487374
  30
0
  11
98.7
  21
2.536193
  31
0
  0
LINE
  5
72
  100
AcDbEntity
  8
1
  100
AcDbLine
  10
98.7
  20
2.536193
  30
0
  11
98.6
  21
2.582561
  31
0
  0
LINE
  5
73
  100
AcDbEntity
  8
1
  100
AcDbLine
  10
98.6
  20
2.582561
  30
0
  11
98.5
  21
2.626435
  31
0
  0
LINE
  5
74
  100
AcDbEntity
  8
1
  100
AcDbLine
  10
98.5
  20
2.626435
  30
0
  11
98.4
  21
2.667771
  31
0
  0
LINE
  5
75
  100
AcDbEntity
  8
1
  100
AcDbLine
  10
98.4
  20
2.667771
  30
0
  11
98.3
  21
2.70653
  31
0
  0
LINE
  5
76
  100
AcDbEntity
  8
1
  100
AcDbLine
  10
98.3
  20
2.70653
  30
0
  11
98.2
  21
2.742674
  31
0
  0
LINE
  5
77
  100
AcDbEntity
  8
1
  100
AcDbLine
  10
98.2
  20
2.742674
  30
0
  11
98.1
  21
2.776168
  31
0
  0
LINE
  5
78
  100
AcDbEntity
  8
1
  100
AcDbLine
  10
98.1
  20
2.776168
  30
0
  11
98
  21
2.80698
  31
0
  0
LINE
  5
79
  100
AcDbEntity
  8
1
  100
AcDbLine
  10
98
  20
2.80698
  30
0
  11
97.9
  21
2.83508
  31
0
  0
LINE
  5
7a
  100
AcDbEntity
  8
1
  100
AcDbLine
  10
97.9
  20
2.83508
  30
0
  11
97.8
  21
2.860441
  31
0
  0
LINE
  5
7b
  100
AcDbEntity
  8
1
  100
AcDbLine
  10
97.8
  20
2.860441
  30
0
  11
97.7
  21
2.883039
  31
0
  0
LINE
  5
7c
  100
AcDbEntity
  8
1
  100
AcDbLine
  10
97.7
  20
2.883039
  30
0
  11
97.6
  21
2.902851
  31
0
  0
LINE
  5
7d
  100
AcDbEntity
  8
1
  100
AcDbLine
  10
97.6
  20
2.902851
  30
0
  11
97.5
  21
2.919858
  31
0
  0
LINE
  5
7e
  100
AcDbEntity
  8
1
  100
AcDbLine
  10
97.5
  20
2.919858
  30
0
  11
97.4
  21
2.934045
  31
0
  0
LINE
  5
7f
  100
AcDbEntity
  8
1
  100
AcDbLine
  10
97.4
  20
2.934045
  30
0
  11
97.3
  21
2.945397
  31
0
  0
LINE
  5
80
  100
AcDbEntity
  8
1
  100
AcDbLine
  10
97.3
  20
2.945397
  30
0
  11
97.2
  21
2.953903
  31
0
  0
LINE
  5
81
  100
AcDbEntity
  8
1
  100
AcDbLine
  10
97.2
  20
2.953903
  30
0
  11
97.1
  21
2.959556
  31
0
  0
LINE
  5
82
  100
AcDbEntity
  8
1
  100
AcDbLine
  10
97.1
  20
2.959556
  30
0
  11
97
  21
2.962349
  31
0
  0
LINE
  5
83
  100
AcDbEntity
  8
1
  100
AcDbLine
  10
97
  20
2.962349
  30
0
  11
96.952403
  21
3
  31
0
  0
LINE
  5
84
  100
AcDbEntity
  8
1
  100
AcDbLine
  10
98.427827
  20
3
  30
0
  11
98.5
  21
2.999245
  31
0
  0
LINE
  5
85
  100
AcDbEntity
  8
1
  100
AcDbLine
  10
98.5
  20
2.999245
  30
0
  11
98.6
  21
2.995705
  31
0
  0
LINE
  5
86
  100
AcDbEntity
  8
1
  100
AcDbLine
  10
98.6
  20
2.995705
  30
0
  11
98.7
  21
2.98927
  31
0
  0
LINE
  5
87
  100
AcDbEntity
  8
1
  100
AcDbLine
  10
98.7
  20
2.98927
  30
0
  11
98.8
  21
2.979947
  31
0
  0
LINE
  5
88
  100
AcDbEntity
  8
1
  100
AcDbLine
  10
98.8
  20
2.979947
  30
0
  11
98.9
  21
2.967746
  31
0
  0
LINE
  5
89
  100
AcDbEntity
  8
1
  100
AcDbLine
  10
98.9
  20
2.967746
  30
0
  11
99
  21
2.952677
  31
0
  0
LINE
  5
8a
  100
AcDbEntity
  8
1
  100
AcDbLine
  10
99
  20
2.952677
  30
0
  11
99.1
  21
2.934755
  31
0
  0
LINE
  5
8b
  100
AcDbEntity
  8
1
  100
AcDbLine
  10
99.1
  20
2.934755
  30
0
  11
99.2
  21
2.913999
  31
0
  0
LINE
  5
8c
  100
AcDbEntity
  8
1
  100
AcDbLine
  10
99.2
  20
2.913999
  30
0
  11
99.3
  21
2.890426
  31
0
  0
LINE
  5
8d
  100
AcDbEntity
  8
1
  100
AcDbLine
  10
99.3
  20
2.890426
  30
0
  11
99.4
  21
2.864062
  31
0
  0
LINE
  5
8e
  100
AcDbEntity
  8
1
  100
AcDbLine
  10
99.4
  20
2.864062
  30
0
  11
99.5
  21
2.83493
  31
0
  0
LINE
  5
8f
  100
AcDbEntity
  8
1
  100
AcDbLine
  10
99.5
  20
2.83493
  30
0
  11
99.6
  21
2.803059
  31
0
  0
LINE
  5
90
  100
AcDbEntity
  8
1
  100
AcDbLine
  10
99.6
  20
2.803059
  30
0
  11
99.7
  21
2.768481
  31
0
  0
LINE
  5
91
  100
AcDbEntity
  8
1
  100
AcDbLine
  10
99.7
  20
2.768481
  30
0
  11
99.8
  21
2.731227
  31
0
  0
LINE
  5
92
  100
AcDbEntity
  8
1
  100
AcDbLine
  10
99.8
  20
2.731227
  30
0
  11
99.9
  21
2.674106
  31
0
  0
LINE
  5
93
  100
AcDbEntity
  8
1
  100
AcDbLine
  10
99.9
  20
2.674106
  30
0
  11
100
  21
2.52497
  31
0
  0
LINE
  5
94
  100
AcDbEntity
  8
1
  100
AcDbLine
  10
100
  20
2.8
  30
0
  11
100
  21
-2.8
  31
0
  0
LINE
  5
95
  100
AcDbEntity
  8
1
  100
AcDbLine
  10
100
  20
-2.799859
  30
0
  11
99.9
  21
-2.971649
  31
0
  0
LINE
  5
96
  100
AcDbEntity
  8
1
  100
AcDbLine
  10
99.9
  20
-2.971649
  30
0
  11
99.8
  21
-2.994205
  31
0
  0
LINE
  5
97
  100
AcDbEntity
  8
1
  100
AcDbLine
  10
99.8
  20
-2.994205
  30
0
  11
99.7
  21
-2.986966
  31
0
  0
LINE
  5
98
  100
AcDbEntity
  8
1
  100
AcDbLine
  10
99.7
  20
-2.986966
  30
0
  11
99.6
  21
-2.976841
  31
0
  0
LINE
  5
99
  100
AcDbEntity
  8
1
  100
AcDbLine
  10
99.6
  20
-2.976841
  30
0
  11
99.5
  21
-2.96384
  31
0
  0
LINE
  5
9a
  100
AcDbEntity
  8
1
  100
AcDbLine
  10
99.5
  20
-2.96384
  30
0
  11
99.4
  21
-2.947976
  31
0
  0
LINE
  5
9b
  100
AcDbEntity
  8
1
  100
AcDbLine
  10
99.4
  20
-2.947976
  30
0
  11
99.3
  21
-2.929264
  31
0
  0
LINE
  5
9c
  100
AcDbEntity
  8
1
  100
AcDbLine
  10
99.3
  20
-2.929264
  30
0
  11
99.2
  21
-2.907721
  31
0
  0
LINE
  5
9d
  100
AcDbEntity
  8
1
  100
AcDbLine
  10
99.2
  20
-2.907721
  30
0
  11
99.1
  21
-2.88337
  31
0
  0
LINE
  5
9e
  100
AcDbEntity
  8
1
  100
AcDbLine
  10
99.1
  20
-2.88337
  30
0
  11
99
  21
-2.856232
  31
0
  0
LINE
  5
9f
  100
AcDbEntity
  8
1
  100
AcDbLine
  10
99
  20
-2.856232
  30
0
  11
98.9
  21
-2.826336
  31
0
  0
LINE
  5
a0
  100
AcDbEntity
  8
1
  100
AcDbLine
  10
98.9
  20
-2.826336
  30
0
  11
98.8
  21
-2.793708
  31
0
  0
LINE
  5
a1
  100
AcDbEntity
  8
1
  100
AcDbLine
  10
98.8
  20
-2.793708
  30
0
  11
98.7
  21
-2.758382
  31
0
  0
LINE
  5
a2
  100
AcDbEntity
  8
1
  100
AcDbLine
  10
98.7
  20
-2.758382
  30
0
  11
98.6
  21
-2.72039
  31
0
  0
LINE
  5
a3
  100
AcDbEntity
  8
1
  100
AcDbLine
  10
98.6
  20
-2.72039
  30
0
  11
98.5
  21
-2.679771
  31
0
  0
LINE
  5
a4
  100
AcDbEntity
  8
1
  100
AcDbLine
  10
98.5
  20
-2.679771
  30
0
  11
98.4
  21
-2.636562
  31
0
  0
LINE
  5
a5
  100
AcDbEntity
  8
1
  100
AcDbLine
  10
98.4
  20
-2.636562
  30
0
  11
98.3
  21
-2.590806
  31
0
  0
LINE
  5
a6
  100
AcDbEntity
  8
1
  100
AcDbLine
  10
98.3
  20
-2.590806
  30
0
  11
98.2
  21
-2.542547
  31
0
  0
LINE
  5
a7
  100
AcDbEntity
  8
1
  100
AcDbLine
  10
98.2
  20
-2.542547
  30
0
  11
98.1
  21
-2.491832
  31
0
  0
LINE
  5
a8
  100
AcDbEntity
  8
1
  100
AcDbLine
  10
98.1
  20
-2.491832
  30
0
  11
98
  21
-2.438709
  31
0
  0
LINE
  5
a9
  100
AcDbEntity
  8
1
  100
AcDbLine
  10
98
  20
-2.438709
  30
0
  11
97.9
  21
-2.38323
  31
0
  0
LINE
  5
aa
  100
AcDbEntity
  8
1
  100
AcDbLine
  10
97.9
  20
-2.38323
  30
0
  11
97.8
  21
-2.325449
  31
0
  0
LINE
  5
ab
  100
AcDbEntity
  8
1
  100
AcDbLine
  10
97.8
  20
-2.325449
  30
0
  11
97.7
  21
-2.265421
  31
0
  0
LINE
  5
ac
  100
AcDbEntity
  8
1
  100
AcDbLine
  10
97.7
  20
-2.265421
  30
0
  11
97.6
  21
-2.203204
  31
0
  0
LINE
  5
ad
  100
AcDbEntity
  8
1
  100
AcDbLine
  10
97.6
  20
-2.203204
  30
0
  11
97.5
  21
-2.138859
  31
0
  0
LINE
  5
ae
  100
AcDbEntity
  8
1
  100
AcDbLine
  10
97.5
  20
-2.138859
  30
0
  11
97.4
  21
-2.072447
  31
0
  0
LINE
  5
af
  100
AcDbEntity
  8
1
  100
AcDbLine
  10
97.4
  20
-2.072447
  30
0
  11
97.3
  21
-2.004033
  31
0
  0
LINE
  5
b0
  100
AcDbEntity
  8
1
  100
AcDbLine
  10
97.3
  20
-2.004033
  30
0
  11
97.2
  21
-1.933683
  31
0
  0
LINE
  5
b1
  100
AcDbEntity
  8
1
  100
AcDbLine
  10
97.2
  20
-1.933683
  30
0
  11
97.1
  21
-1.861465
  31
0
  0
LINE
  5
b2
  100
AcDbEntity
  8
1
  100
AcDbLine
  10
97.1
  20
-1.861465
  30
0
  11
97
  21
-1.787448
  31
0
  0
LINE
  5
b3
  100
AcDbEntity
  8
1
  100
AcDbLine
  10
97
  20
-1.787448
  30
0
  11
96.9
  21
-1.711704
  31
0
  0
LINE
  5
b4
  100
AcDbEntity
  8
1
  100
AcDbLine
  10
96.9
  20
-1.711704
  30
0
  11
96.8
  21
-1.634307
  31
0
  0
LINE
  5
b5
  100
AcDbEntity
  8
1
  100
AcDbLine
  10
96.8
  20
-1.634307
  30
0
  11
96.7
  21
-1.555331
  31
0
  0
LINE
  5
b6
  100
AcDbEntity
  8
1
  100
AcDbLine
  10
96.7
  20
-1.555331
  30
0
  11
96.6
  21
-1.474852
  31
0
  0
LINE
  5
b7
  100
AcDbEntity
  8
1
  100
AcDbLine
  10
96.6
  20
-1.474852
  30
0
  11
96.5
  21
-1.392948
  31
0
  0
LINE
  5
b8
  100
AcDbEntity
  8
1
  100
AcDbLine
  10
96.5
  20
-1.392948
  30
0
  11
96.4
  21
-1.309698
  31
0
  0
LINE
  5
b9
  100
AcDbEntity
  8
1
  100
AcDbLine
  10
96.4
  20
-1.309698
  30
0
  11
96.3
  21
-1.225183
  31
0
  0
LINE
  5
ba
  100
AcDbEntity
  8
1
  100
AcDbLine
  10
96.3
  20
-1.225183
  30
0
  11
96.2
  21
-1.139485
  31
0
  0
LINE
  5
bb
  100
AcDbEntity
  8
1
  100
AcDbLine
  10
96.2
  20
-1.139485
  30
0
  11
96.1
  21
-1.052685
  31
0
  0
LINE
  5
bc
  100
AcDbEntity
  8
1
  100
AcDbLine
  10
96.1
  20
-1.052685
  30
0
  11
96
  21
-0.964868
  31
0
  0
LINE
  5
bd
  100
AcDbEntity
  8
1
  100
AcDbLine
  10
96
  20
-0.964868
  30
0
  11
95.9
  21
-0.87612
  31
0
  0
LINE
  5
be
  100
AcDbEntity
  8
1
  100
AcDbLine
  10
95.9
  20
-0.87612
  30
0
  11
95.8
  21
-0.786525
  31
0
  0
LINE
  5
bf
  100
AcDbEntity
  8
1
  100
AcDbLine
  10
95.8
  20
-0.786525
  30
0
  11
95.7
  21
-0.69617
  31
0
  0
LINE
  5
c0
  100
AcDbEntity
  8
1
  100
AcDbLine
  10
95.7
  20
-0.69617
  30
0
  11
95.6
  21
-0.605142
  31
0
  0
LINE
  5
c1
  100
AcDbEntity
  8
1
  100
AcDbLine
  10
95.6
  20
-0.605142
  30
0
  11
95.5
  21
-0.51353
  31
0
  0
LINE
  5
c2
  100
AcDbEntity
  8
1
  100
AcDbLine
  10
95.5
  20
-0.51353
  30
0
  11
95.4
  21
-0.421421
  31
0
  0
LINE
  5
c3
  100
AcDbEntity
  8
1
  100
AcDbLine
  10
95.4
  20
-0.421421
  30
0
  11
95.3
  21
-0.328906
  31
0
  0
LINE
  5
c4
  100
AcDbEntity
  8
1
  100
AcDbLine
  10
95.3
  20
-0.328906
  30
0
  11
95.2
  21
-0.236072
  31
0
  0
LINE
  5
c5
  100
AcDbEntity
  8
1
  100
AcDbLine
  10
95.2
  20
-0.236072
  30
0
  11
95.1
  21
-0.143011
  31
0
  0
LINE
  5
c6
  100
AcDbEntity
  8
1
  100
AcDbLine
  10
95.1
  20
-0.143011
  30
0
  11
95
  21
-0.049811
  31
0
  0
LINE
  5
c7
  100
AcDbEntity
  8
1
  100
AcDbLine
  10
95
  20
-0.049811
  30
0
  11
94.9
  21
0.043436
  31
0
  0
LINE
  5
c8
  100
AcDbEntity
  8
1
  100
AcDbLine
  10
94.9
  20
0.043436
  30
0
  11
94.8
  21
0.136642
  31
0
  0
LINE
  5
c9
  100
AcDbEntity
  8
1
  100
AcDbLine
  10
94.8
  20
0.136642
  30
0
  11
94.7
  21
0.229716
  31
0
  0
LINE
  5
ca
  100
AcDbEntity
  8
1
  100
AcDbLine
  10
94.7
  20
0.229716
  30
0
  11
94.6
  21
0.322568
  31
0
  0
LINE
  5
cb
  100
AcDbEntity
  8
1
  100
AcDbLine
  10
94.6
  20
0.322568
  30
0
  11
94.5
  21
0.415108
  31
0
  0
LINE
  5
cc
  100
AcDbEntity
  8
1
  100
AcDbLine
  10
94.5
  20
0.415108
  30
0
  11
94.4
  21
0.507247
  31
0
  0
LINE
  5
cd
  100
AcDbEntity
  8
1
  100
AcDbLine
  10
94.4
  20
0.507247
  30
0
  11
94.3
  21
0.598896
  31
0
  0
LINE
  5
ce
  100
AcDbEntity
  8
1
  100
AcDbLine
  10
94.3
  20
0.598896
  30
0
  11
94.2
  21
0.689966
  31
0
  0
LINE
  5
cf
  100
AcDbEntity
  8
1
  100
AcDbLine
  10
94.2
  20
0.689966
  30
0
  11
94.1
  21
0.78037
  31
0
  0
LINE
  5
d0
  100
AcDbEntity
  8
1
  100
AcDbLine
  10
94.1
  20
0.78037
  30
0
  11
94
  21
0.87002
  31
0
  0
LINE
  5
d1
  100
AcDbEntity
  8
1
  100
AcDbLine
  10
94
  20
0.87002
  30
0
  11
93.9
  21
0.958829
  31
0
  0
LINE
  5
d2
  100
AcDbEntity
  8
1
  100
AcDbLine
  10
93.9
  20
0.958829
  30
0
  11
93.8
  21
1.046712
  31
0
  0
LINE
  5
d3
  100
AcDbEntity
  8
1
  100
AcDbLine
  10
93.8
  20
1.046712
  30
0
  11
93.7
  21
1.133584
  31
0
  0
LINE
  5
d4
  100
AcDbEntity
  8
1
  100
AcDbLine
  10
93.7
  20
1.133584
  30
0
  11
93.6
  21
1.219361
  31
0
  0
LINE
  5
d5
  100
AcDbEntity
  8
1
  100
AcDbLine
  10
93.6
  20
1.219361
  30
0
  11
93.5
  21
1.303959
  31
0
  0
LINE
  5
d6
  100
AcDbEntity
  8
1
  100
AcDbLine
  10
93.5
  20
1.303959
  30
0
  11
93.4
  21
1.387298
  31
0
  0
LINE
  5
d7
  100
AcDbEntity
  8
1
  100
AcDbLine
  10
93.4
  20
1.387298
  30
0
  11
93.3
  21
1.469296
  31
0
  0
LINE
  5
d8
  100
AcDbEntity
  8
1
  100
AcDbLine
  10
93.3
  20
1.469296
  30
0
  11
93.2
  21
1.549875
  31
0
  0
LINE
  5
d9
  100
AcDbEntity
  8
1
  100
AcDbLine
  10
93.2
  20
1.549875
  30
0
  11
93.1
  21
1.628957
  31
0
  0
LINE
  5
da
  100
AcDbEntity
  8
1
  100
AcDbLine
  10
93.1
  20
1.628957
  30
0
  11
93
  21
1.706464
  31
0
  0
LINE
  5
db
  100
AcDbEntity
  8
1
  100
AcDbLine
  10
93
  20
1.706464
  30
0
  11
92.9
  21
1.782323
  31
0
  0
LINE
  5
dc
  100
AcDbEntity
  8
1
  100
AcDbLine
  10
92.9
  20
1.782323
  30
0
  11
92.8
  21
1.856461
  31
0
  0
LINE
  5
dd
  100
AcDbEntity
  8
1
  100
AcDbLine
  10
92.8
  20
1.856461
  30
0
  11
92.7
  21
1.928804
  31
0
  0
LINE
  5
de
  100
AcDbEntity
  8
1
  100
AcDbLine
  10
92.7
  20
1.928804
  30
0
  11
92.6
  21
1.999284
  31
0
  0
LINE
  5
df
  100
AcDbEntity
  8
1
  100
AcDbLine
  10
92.6
  20
1.999284
  30
0
  11
92.5
  21
2.067833
  31
0
  0
LINE
  5
e0
  100
AcDbEntity
  8
1
  100
AcDbLine
  10
92.5
  20
2.067833
  30
0
  11
92.4
  21
2.134383
  31
0
  0
LINE
  5
e1
  100
AcDbEntity
  8
1
  100
AcDbLine
  10
92.4
  20
2.134383
  30
0
  11
92.3
  21
2.198872
  31
0
  0
LINE
  5
e2
  100
AcDbEntity
  8
1
  100
AcDbLine
  10
92.3
  20
2.198872
  30
0
  11
92.2
  21
2.261236
  31
0
  0
LINE
  5
e3
  100
AcDbEntity
  8
1
  100
AcDbLine
  10
92.2
  20
2.261236
  30
0
  11
92.1
  21
2.321416
  31
0
  0
LINE
  5
e4
  100
AcDbEntity
  8
1
  100
AcDbLine
  10
92.1
  20
2.321416
  30
0
  11
92
  21
2.379353
  31
0
  0
LINE
  5
e5
  100
AcDbEntity
  8
1
  100
AcDbLine
  10
92
  20
2.379353
  30
0
  11
91.9
  21
2.434991
  31
0
  0
LINE
  5
e6
  100
AcDbEntity
  8
1
  100
AcDbLine
  10
91.9
  20
2.434991
  30
0
  11
91.8
  21
2.488276
  31
0
  0
LINE
  5
e7
  100
AcDbEntity
  8
1
  100
AcDbLine
  10
91.8
  20
2.488276
  30
0
  11
91.7
  21
2.539158
  31
0
  0
LINE
  5
e8
  100
AcDbEntity
  8
1
  100
AcDbLine
  10
91.7
  20
2.539158
  30
0
  11
91.6
  21
2.587586
  31
0
  0
LINE
  5
e9
  100
AcDbEntity
  8
1
  100
AcDbLine
  10
91.6
  20
2.587586
  30
0
  11
91.5
  21
2.633515
  31
0
  0
LINE
  5
ea
  100
AcDbEntity
  8
1
  100
AcDbLine
  10
91.5
  20
2.633515
  30
0
  11
91.4
  21
2.676899
  31
0
  0
LINE
  5
eb
  100
AcDbEntity
  8
1
  100
AcDbLine
  10
91.4
  20
2.676899
  30
0
  11
91.3
  21
2.717697
  31
0
  0
LINE
  5
ec
  100
AcDbEntity
  8
1
  100
AcDbLine
  10
91.3
  20
2.717697
  30
0
  11
91.2
  21
2.755869
  31
0
  0
LINE
  5
ed
  100
AcDbEntity
  8
1
  100
AcDbLine
  10
91.2
  20
2.755869
  30
0
  11
91.1
  21
2.791379
  31
0
  0
LINE
  5
ee
  100
AcDbEntity
  8
1
  100
AcDbLine
  10
91.1
  20
2.791379
  30
0
  11
91
  21
2.824192
  31
0
  0
LINE
  5
ef
  100
AcDbEntity
  8
1
  100
AcDbLine
  10
91
  20
2.824192
  30
0
  11
90.9
  21
2.854276
  31
0
  0
LINE
  5
f0
  100
AcDbEntity
  8
1
  100
AcDbLine
  10
90.9
  20
2.854276
  30
0
  11
90.8
  21
2.881603
  31
0
  0
LINE
  5
f1
  100
AcDbEntity
  8
1
  100
AcDbLine
  10
90.8
  20
2.881603
  30
0
  11
90.7
  21
2.906146
  31
0
  0
LINE
  5
f2
  100
AcDbEntity
  8
1
  100
AcDbLine
  10
90.7
  20
2.906146
  30
0
  11
90.6
  21
2.927881
  31
0
  0
LINE
  5
f3
  100
AcDbEntity
  8
1
  100
AcDbLine
  10
90.6
  20
2.927881
  30
0
  11
90.5
  21
2.946787
  31
0
  0
LINE
  5
f4
  100
AcDbEntity
  8
1
  100
AcDbLine
  10
90.5
  20
2.946787
  30
0
  11
90.4
  21
2.962847
  31
0
  0
LINE
  5
f5
  100
AcDbEntity
  8
1
  100
AcDbLine
  10
90.4
  20
2.962847
  30
0
  11
90.3
  21
2.976044
  31
0
  0
LINE
  5
f6
  100
AcDbEntity
  8
1
  100
AcDbLine
  10
90.3
  20
2.976044
  30
0
  11
90.2
  21
2.986365
  31
0
  0
LINE
  5
f7
  100
AcDbEntity
  8
1
  100
AcDbLine
  10
90.2
  20
2.986365
  30
0
  11
90.1
  21
2.993802
  31
0
  0
LINE
  5
f8
  100
AcDbEntity
  8
1
  100
AcDbLine
  10
90.1
  20
2.993802
  30
0
  11
90
  21
2.998346
  31
0
  0
LINE
  5
f9
  100
AcDbEntity
  8
1
  100
AcDbLine
  10
90
  20
2.998346
  30
0
  11
89.9
  21
2.999993
  31
0
  0
LINE
  5
fa
  100
AcDbEntity
  8
1
  100
AcDbLine
  10
89.9
  20
2.999993
  30
0
  11
89.893162
  21
3
  31
0
  0
LINE
  5
fb
  100
AcDbEntity
  8
1
  100
AcDbLine
  10
90.214513
  20
3
  30
0
  11
90.3
  21
2.961627
  31
0
  0
LINE
  5
fc
  100
AcDbEntity
  8
1
  100
AcDbLine
  10
90.3
  20
2.961627
  30
0
  11
90.4
  21
2.95775
  31
0
  0
LINE
  5
fd
  100
AcDbEntity
  8
1
  100
AcDbLine
  10
90.4
  20
2.95775
  30
0
  11
90.5
  21
2.951016
  31
0
  0
LINE
  5
fe
  100
AcDbEntity
  8
1
  100
AcDbLine
  10
90.5
  20
2.951016
  30
0
  11
90.6
  21
2.94143
  31
0
  0
LINE
  5
ff
  100
AcDbEntity
  8
1
  100
AcDbLine
  10
90.6
  20
2.94143
  30
0
  11
90.7
  21
2.929002
  31
0
  0
LINE
  5
100
  100
AcDbEntity
  8
1
  100
AcDbLine
  10
90.7
  20
2.929002
  30
0
  11
90.8
  21
2.913745
  31
0
  0
LINE
  5
101
  100
AcDbEntity
  8
1
  100
AcDbLine
  10
90.8
  20
2.913745
  30
0
  11
90.9
  21
2.895673
  31
0
  0
LINE
  5
102
  100
AcDbEntity
  8
1
  100
AcDbLine
  10
90.9
  20
2.895673
  30
0
  11
91
  21
2.874803
  31
0
  0
LINE
  5
103
  100
AcDbEntity
  8
1
  100
AcDbLine
  10
91
  20
2.874803
  30
0
  11
91.1
  21
2.851155
  31
0
  0
LINE
  5
104
  100
AcDbEntity
  8
1
  100
AcDbLine
  10
91.1
  20
2.851155
  30
0
  11
91.2
  21
2.824753
  31
0
  0
LINE
  5
105
  100
AcDbEntity
  8
1
  100
AcDbLine
  10
91.2
  20
2.824753
  30
0
  11
91.3
  21
2.795622
  31
0
  0
LINE
  5
106
  100
AcDbEntity
  8
1
  100
AcDbLine
  10
91.3
  20
2.795622
  30
0
  11
91.4
  21
2.76379
  31
0
  0
LINE
  5
107
  100
AcDbEntity
  8
1
  100
AcDbLine
  10
91.4
  20
2.76379
  30
0
  11
91.5
  21
2.729288
  31
0
  0
LINE
  5
108
  100
AcDbEntity
  8
1
  100
AcDbLine
  10
91.5
  20
2.729288
  30
0
  11
91.6
  21
2.692149
  31
0
  0
LINE
  5
109
  100
AcDbEntity
  8
1
  100
AcDbLine
  10
91.6
  20
2.692149
  30
0
  11
91.7
  21
2.652409
  31
0
  0
LINE
  5
10a
  100
AcDbEntity
  8
1
  100
AcDbLine
  10
91.7
  20
2.652409
  30
0
  11
91.8
  21
2.610107
  31
0
  0
LINE
  5
10b
  100
AcDbEntity
  8
1
  100
AcDbLine
  10
91.8
  20
2.610107
  30
0
  11
91.9
  21
2.565283
  31
0
  0
LINE
  5
10c
  100
AcDbEntity
  8
1
  100
AcDbLine
  10
91.9
  20
2.565283
  30
0
  11
92
  21
2.51798
  31
0
  0
LINE
  5
10d
  100
AcDbEntity
  8
1
  100
AcDbLine
  10
92
  20
2.51798
  30
0
  11
92.1
  21
2.468245
  31
0
  0
LINE
  5
10e
  100
AcDbEntity
  8
1
  100
AcDbLine
  10
92.1
  20
2.468245
  30
0
  11
92.2
  21
2.416125
  31
0
  0
LINE
  5
10f
  100
AcDbEntity
  8
1
  100
AcDbLine
  10
92.2
  20
2.416125
  30
0
  11
92.3
  21
2.361671
  31
0
  0
LINE
  5
110
  100
AcDbEntity
  8
1
  100
AcDbLine
  10
92.3
  20
2.361671
  30
0
  11
92.4
  21
2.304935
  31
0
  0
LINE
  5
111
  100
AcDbEntity
  8
1
  100
AcDbLine
  10
92.4
  20
2.304935
  30
0
  11
92.5
  21
2.245972
  31
0
  0
LINE
  5
112
  100
AcDbEntity
  8
1
  100
AcDbLine
  10
92.5
  20
2.245972
  30
0
  11
92.6
  21
2.18484
  31
0
  0
LINE
  5
113
  100
AcDbEntity
  8
1
  100
AcDbLine
  10
92.6
  20
2.18484
  30
0
  11
92.7
  21
2.121596
  31
0
  0
LINE
  5
114
  100
AcDbEntity
  8
1
  100
AcDbLine
  10
92.7
  20
2.121596
  30
0
  11
92.8
  21
2.056303
  31
0
  0
LINE
  5
115
  100
AcDbEntity
  8
1
  100
AcDbLine
  10
92.8
  20
2.056303
  30
0
  11
92.9
  21
1.989023
  31
0
  0
LINE
  5
116
  100
AcDbEntity
  8
1
  100
AcDbLine
  10
92.9
  20
1.989023
  30
0
  11
93
  21
1.919822
  31
0
  0
LINE
  5
117
  100
AcDbEntity
  8
1
  100
AcDbLine
  10
93
  20
1.919822
  30
0
  11
93.1
  21
1.848765
  31
0
  0
LINE
  5
118
  100
AcDbEntity
  8
1
  100
AcDbLine
  10
93.1
  20
1.848765
  30
0
  11
93.2
  21
1.775923
  31
0
  0
LINE
  5
119
  100
AcDbEntity
  8
1
  100
AcDbLine
  10
93.2
  20
1.775923
  30
0
  11
93.3
  21
1.701365
  31
0
  0
LINE
  5
11a
  100
AcDbEntity
  8
1
  100
AcDbLine
  10
93.3
  20
1.701365
  30
0
  11
93.4
  21
1.625163
  31
0
  0
LINE
  5
11b
  100
AcDbEntity
  8
1
  100
AcDbLine
  10
93.4
  20
1.625163
  30
0
  11
93.5
  21
1.547391
  31
0
  0
LINE
  5
11c
  100
AcDbEntity
  8
1
  100
AcDbLine
  10
93.5
  20
1.547391
  30
0
  11
93.6
  21
1.468124
  31
0
  0
LINE
  5
11d
  100
AcDbEntity
  8
1
  100
AcDbLine
  10
93.6
  20
1.468124
  30
0
  11
93.7
  21
1.387439
  31
0
  0
LINE
  5
11e
  100
AcDbEntity
  8
1
  100
AcDbLine
  10
93.7
  20
1.387439
  30
0
  11
93.8
  21
1.305413
  31
0
  0
LINE
  5
11f
  100
AcDbEntity
  8
1
  100
AcDbLine
  10
93.8
  20
1.305413
  30
0
  11
93.9
  21
1.222126
  31
0
  0
LINE
  5
120
  100
AcDbEntity
  8
1
  100
AcDbLine
  10
93.9
  20
1.222126
  30
0
  11
94
  21
1.137658
  31
0
  0
LINE
  5
121
  100
AcDbEntity
  8
1
  100
AcDbLine
  10
94
  20
1.137658
  30
0
  11
94.1
  21
1.052091
  31
0
  0
LINE
  5
122
  100
AcDbEntity
  8
1
  100
AcDbLine
  10
94.1
  20
1.052091
  30
0
  11
94.2
  21
0.965508
  31
0
  0
LINE
  5
123
  100
AcDbEntity
  8
1
  100
AcDbLine
  10
94.2
  20
0.965508
  30
0
  11
94.3
  21
0.877992
  31
0
  0
LINE
  5
124
  100
AcDbEntity
  8
1
  100
AcDbLine
  10
94.3
  20
0.877992
  30
0
  11
94.4
  21
0.789627
  31
0
  0
LINE
  5
125
  100
AcDbEntity
  8
1
  100
AcDbLine
  10
94.4
  20
0.789627
  30
0
  11
94.5
  21
0.7005
  31
0
  0
LINE
  5
126
  100
AcDbEntity
  8
1
  100
AcDbLine
  10
94.5
  20
0.7005
  30
0
  11
94.6
  21
0.610696
  31
0
  0
LINE
  5
127
  100
AcDbEntity
  8
1
  100
AcDbLine
  10
94.6
  20
0.610696
  30
0
  11
94.7
  21
0.520302
  31
0
  0
LINE
  5
128
  100
AcDbEntity
  8
1
  100
AcDbLine
  10
94.7
  20
0.520302
  30
0
  11
94.8
  21
0.429405
  31
0
  0
LINE
  5
129
  100
AcDbEntity
  8
1
  100
AcDbLine
  10
94.8
  20
0.429405
  30
0
  11
94.9
  21
0.338094
  31
0
  0
LINE
  5
12a
  100
AcDbEntity
  8
1
  100
AcDbLine
  10
94.9
  20
0.338094
  30
0
  11
95
  21
0.246455
  31
0
  0
LINE
  5
12b
  100
AcDbEntity
  8
1
  100
AcDbLine
  10
95
  20
0.246455
  30
0
  11
95.1
  21
0.154579
  31
0
  0
LINE
  5
12c
  100
AcDbEntity
  8
1
  100
AcDbLine
  10
95.1
  20
0.154579
  30
0
  11
95.2
  21
0.062553
  31
0
  0
LINE
  5
12d
  100
AcDbEntity
  8
1
  100
AcDbLine
  10
95.2
  20
0.062553
  30
0
  11
95.3
  21
-0.029533
  31
0
  0
LINE
  5
12e
  100
AcDbEntity
  8
1
  100
AcDbLine
  10
95.3
  20
-0.029533
  30
0
  11
95.4
  21
-0.12159
  31
0
  0
LINE
  5
12f
  100
AcDbEntity
  8
1
  100
AcDbLine
  10
95.4
  20
-0.12159
  30
0
  11
95.5
  21
-0.213531
  31
0
  0
LINE
  5
130
  100
AcDbEntity
  8
1
  100
AcDbLine
  10
95.5
  20
-0.213531
  30
0
  11
95.6
  21
-0.305264
  31
0
  0
LINE
  5
131
  100
AcDbEntity
  8
1
  100
AcDbLine
  10
95.6
  20
-0.305264
  30
0
  11
95.7
  21
-0.396703
  31
0
  0
LINE
  5
132
  100
AcDbEntity
  8
1
  100
AcDbLine
  10
95.7
  20
-0.396703
  30
0
  11
95.8
  21
-0.487759
  31
0
  0
LINE
  5
133
  100
AcDbEntity
  8
1
  100
AcDbLine
  10
95.8
  20
-0.487759
  30
0
  11
95.9
  21
-0.578343
  31
0
  0
LINE
  5
134
  100
AcDbEntity
  8
1
  100
AcDbLine
  10
95.9
  20
-0.578343
  30
0
  11
96
  21
-0.668369
  31
0
  0
LINE
  5
135
  100
AcDbEntity
  8
1
  100
AcDbLine
  10
96
  20
-0.668369
  30
0
  11
96.1
  21
-0.757749
  31
0
  0
LINE
  5
136
  100
AcDbEntity
  8
1
  100
AcDbLine
  10
96.1
  20
-0.757749
  30
0
  11
96.2
  21
-0.846397
  31
0
  0
LINE
  5
137
  100
AcDbEntity
  8
1
  100
AcDbLine
  10
96.2
  20
-0.846397
  30
0
  11
96.3
  21
-0.934227
  31
0
  0
LINE
  5
138
  100
AcDbEntity
  8
1
  100
AcDbLine
  10
96.3
  20
-0.934227
  30
0
  11
96.4
  21
-1.021154
  31
0
  0
LINE
  5
139
  100
AcDbEntity
  8
1
  100
AcDbLine
  10
96.4
  20
-1.021154
  30
0
  11
96.5
  21
-1.107095
  31
0
  0
LINE
  5
13a
  100
AcDbEntity
  8
1
  100
AcDbLine
  10
96.5
  20
-1.107095
  30
0
  11
96.6
  21
-1.191967
  31
0
  0
LINE
  5
13b
  100
AcDbEntity
  8
1
  100
AcDbLine
  10
96.6
  20
-1.191967
  30
0
  11
96.7
  21
-1.275686
  31
0
  0
LINE
  5
13c
  100
AcDbEntity
  8
1
  100
AcDbLine
  10
96.7
  20
-1.275686
  30
0
  11
96.8
  21
-1.358174
  31
0
  0
LINE
  5
13d
  100
AcDbEntity
  8
1
  100
AcDbLine
  10
96.8
  20
-1.358174
  30
0
  11
96.9
  21
-1.439349
  31
0
  0
LINE
  5
13e
  100
AcDbEntity
  8
1
  100
AcDbLine
  10
96.9
  20
-1.439349
  30
0
  11
97
  21
-1.519133
  31
0
  0
LINE
  5
13f
  100
AcDbEntity
  8
1
  100
AcDbLine
  10
97
  20
-1.519133
  30
0
  11
97.1
  21
-1.59745
  31
0
  0
LINE
  5
140
  100
AcDbEntity
  8
1
  100
AcDbLine
  10
97.1
  20
-1.59745
  30
0
  11
97.2
  21
-1.674224
  31
0
  0
LINE
  5
141
  100
AcDbEntity
  8
1
  100
AcDbLine
  10
97.2
  20
-1.674224
  30
0
  11
97.3
  21
-1.74938
  31
0
  0
LINE
  5
142
  100
AcDbEntity
  8
1
  100
AcDbLine
  10
97.3
  20
-1.74938
  30
0
  11
97.4
  21
-1.822845
  31
0
  0
LINE
  5
143
  100
AcDbEntity
  8
1
  100
AcDbLine
  10
97.4
  20
-1.822845
  30
0
  11
97.5
  21
-1.89455
  31
0
  0
LINE
  5
144
  100
AcDbEntity
  8
1
  100
AcDbLine
  10
97.5
  20
-1.89455
  30
0
  11
97.6
  21
-1.964425
  31
0
  0
LINE
  5
145
  100
AcDbEntity
  8
1
  100
AcDbLine
  10
97.6
  20
-1.964425
  30
0
  11
97.7
  21
-2.032401
  31
0
  0
LINE
  5
146
  100
AcDbEntity
  8
1
  100
AcDbLine
  10
97.7
  20
-2.032401
  30
0
  11
97.8
  21
-2.098414
  31
0
  0
LINE
  5
147
  100
AcDbEntity
  8
1
  100
AcDbLine
  10
97.8
  20
-2.098414
  30
0
  11
97.9
  21
-2.1624
  31
0
  0
LINE
  5
148
  100
AcDbEntity
  8
1
  100
AcDbLine
  10
97.9
  20
-2.1624
  30
0
  11
98
  21
-2.224296
  31
0
  0
LINE
  5
149
  100
AcDbEntity
  8
1
  100
AcDbLine
  10
98
  20
-2.224296
  30
0
  11
98.1
  21
-2.284044
  31
0
  0
LINE
  5
14a
  100
AcDbEntity
  8
1
  100
AcDbLine
  10
98.1
  20
-2.284044
  30
0
  11
98.2
  21
-2.341585
  31
0
  0
LINE
  5
14b
  100
AcDbEntity
  8
1
  100
AcDbLine
  10
98.2
  20
-2.341585
  30
0
  11
98.3
  21
-2.396863
  31
0
  0
LINE
  5
14c
  100
AcDbEntity
  8
1
  100
AcDbLine
  10
98.3
  20
-2.396863
  30
0
  11
98.4
  21
-2.449826
  31
0
  0
LINE
  5
14d
  100
AcDbEntity
  8
1
  100
AcDbLine
  10
98.4
  20
-2.449826
  30
0
  11
98.5
  21
-2.500422
  31
0
  0
LINE
  5
14e
  100
AcDbEntity
  8
1
  100
AcDbLine
  10
98.5
  20
-2.500422
  30
0
  11
98.6
  21
-2.548602
  31
0
  0
LINE
  5
14f
  100
AcDbEntity
  8
1
  100
AcDbLine
  10
98.6
  20
-2.548602
  30
0
  11
98.7
  21
-2.59432
  31
0
  0
LINE
  5
150
  100
AcDbEntity
  8
1
  100
AcDbLine
  10
98.7
  20
-2.59432
  30
0
  11
98.8
  21
-2.637532
  31
0
  0
LINE
  5
151
  100
AcDbEntity
  8
1
  100
AcDbLine
  10
98.8
  20
-2.637532
  30
0
  11
98.9
  21
-2.678195
  31
0
  0
LINE
  5
152
  100
AcDbEntity
  8
1
  100
AcDbLine
  10
98.9
  20
-2.678195
  30
0
  11
99
  21
-2.716271
  31
0
  0
LINE
  5
153
  100
AcDbEntity
  8
1
  100
AcDbLine
  10
99
  20
-2.716271
  30
0
  11
99.1
  21
-2.751723
  31
0
  0
LINE
  5
154
  100
AcDbEntity
  8
1
  100
AcDbLine
  10
99.1
  20
-2.751723
  30
0
  11
99.2
  21
-2.784516
  31
0
  0
LINE
  5
155
  100
AcDbEntity
  8
1
  100
AcDbLine
  10
99.2
  20
-2.784516
  30
0
  11
99.3
  21
-2.814619
  31
0
  0
LINE
  5
156
  100
AcDbEntity
  8
1
  100
AcDbLine
  10
99.3
  20
-2.814619
  30
0
  11
99.4
  21
-2.842003
  31
0
  0
LINE
  5
157
  100
AcDbEntity
  8
1
  100
AcDbLine
  10
99.4
  20
-2.842003
  30
0
  11
99.5
  21
-2.866641
  31
0
  0
LINE
  5
158
  100
AcDbEntity
  8
1
  100
AcDbLine
  10
99.5
  20
-2.866641
  30
0
  11
99.6
  21
-2.888509
  31
0
  0
LINE
  5
159
  100
AcDbEntity
  8
1
  100
AcDbLine
  10
99.6
  20
-2.888509
  30
0
  11
99.7
  21
-2.907587
  31
0
  0
LINE
  5
15a
  100
AcDbEntity
  8
1
  100
AcDbLine
  10
99.7
  20
-2.907587
  30
0
  11
99.8
  21
-2.923856
  31
0
  0
LINE
  5
15b
  100
AcDbEntity
  8
1
  100
AcDbLine
  10
99.8
  20
-2.923856
  30
0
  11
99.9
  21
-2.910026
  31
0
  0
LINE
  5
15c
  100
AcDbEntity
  8
1
  100
AcDbLine
  10
99.9
  20
-2.910026
  30
0
  11
100
  21
-2.744799
  31
0
  0
LINE
  5
15d
  100
AcDbEntity
  8
1
  100
AcDbLine
  10
100
  20
-2.310529
  30
0
  11
99.9
  21
-2.462588
  31
0
  0
LINE
  5
15e
  100
AcDbEntity
  8
1
  100
AcDbLine
  10
99.9
  20
-2.462588
  30
0
  11
99.8
  21
-2.440462
  31
0
  0
LINE
  5
15f
  100
AcDbEntity
  8
1
  100
AcDbLine
  10
99.8
  20
-2.440462
  30
0
  11
99.7
  21
-2.385058
  31
0
  0
LINE
  5
160
  100
AcDbEntity
  8
1
  100
AcDbLine
  10
99.7
  20
-2.385058
  30
0
  11
99.6
  21
-2.32735
  31
0
  0
LINE
  5
161
  100
AcDbEntity
  8
1
  100
AcDbLine
  10
99.6
  20
-2.32735
  30
0
  11
99.5
  21
-2.267394
  31
0
  0
LINE
  5
162
  100
AcDbEntity
  8
1
  100
AcDbLine
  10
99.5
  20
-2.267394
  30
0
  11
99.4
  21
-2.205247
  31
0
  0
LINE
  5
163
  100
AcDbEntity
  8
1
  100
AcDbLine
  10
99.4
  20
-2.205247
  30
0
  11
99.3
  21
-2.140969
  31
0
  0
LINE
  5
164
  100
AcDbEntity
  8
1
  100
AcDbLine
  10
99.3
  20
-2.140969
  30
0
  11
99.2
  21
-2.074623
  31
0
  0
LINE
  5
165
  100
AcDbEntity
  8
1
  100
AcDbLine
  10
99.2
  20
-2.074623
  30
0
  11
99.1
  21
-2.006273
  31
0
  0
LINE
  5
166
  100
AcDbEntity
  8
1
  100
AcDbLine
  10
99.1
  20
-2.006273
  30
0
  11
99
  21
-1.935984
  31
0
  0
LINE
  5
167
  100
AcDbEntity
  8
1
  100
AcDbLine
  10
99
  20
-1.935984
  30
0
  11
98.9
  21
-1.863825
  31
0
  0
LINE
  5
168
  100
AcDbEntity
  8
1
  100
AcDbLine
  10
98.9
  20
-1.863825
  30
0
  11
98.8
  21
-1.789865
  31
0
  0
LINE
  5
169
  100
AcDbEntity
  8
1
  100
AcDbLine
  10
98.8
  20
-1.789865
  30
0
  11
98.7
  21
-1.714176
  31
0
  0
LINE
  5
16a
  100
AcDbEntity
  8
1
  100
AcDbLine
  10
98.7
  20
-1.714176
  30
0
  11
98.6
  21
-1.636831
  31
0
  0
LINE
  5
16b
  100
AcDbEntity
  8
1
  100
AcDbLine
  10
98.6
  20
-1.636831
  30
0
  11
98.5
  21
-1.557905
  31
0
  0
LINE
  5
16c
  100
AcDbEntity
  8
1
  100
AcDbLine
  10
98.5
  20
-1.557905
  30
0
  11
98.4
  21
-1.477473
  31
0
  0
LINE
  5
16d
  100
AcDbEntity
  8
1
  100
AcDbLine
  10
98.4
  20
-1.477473
  30
0
  11
98.3
  21
-1.395614
  31
0
  0
LINE
  5
16e
  100
AcDbEntity
  8
1
  100
AcDbLine
  10
98.3
  20
-1.395614
  30
0
  11
98.2
  21
-1.312406
  31
0
  0
LINE
  5
16f
  100
AcDbEntity
  8
1
  100
AcDbLine
  10
98.2
  20
-1.312406
  30
0
  11
98.1
  21
-1.227931
  31
0
  0
LINE
  5
170
  100
AcDbEntity
  8
1
  100
AcDbLine
  10
98.1
  20
-1.227931
  30
0
  11
98
  21
-1.142269
  31
0
  0
LINE
  5
171
  100
AcDbEntity
  8
1
  100
AcDbLine
  10
98
  20
-1.142269
  30
0
  11
97.9
  21
-1.055504
  31
0
  0
LINE
  5
172
  100
AcDbEntity
  8
1
  100
AcDbLine
  10
97.9
  20
-1.055504
  30
0
  11
97.8
  21
-0.967719
  31
0
  0
LINE
  5
173
  100
AcDbEntity
  8
1
  100
AcDbLine
  10
97.8
  20
-0.967719
  30
0
  11
97.7
  21
-0.878999
  31
0
  0
LINE
  5
174
  100
AcDbEntity
  8
1
  100
AcDbLine
  10
97.7
  20
-0.878999
  30
0
  11
97.6
  21
-0.78943
  31
0
  0
LINE
  5
175
  100
AcDbEntity
  8
1
  100
AcDbLine
  10
97.6
  20
-0.78943
  30
0
  11
97.5
  21
-0.699098
  31
0
  0
LINE
  5
176
  100
AcDbEntity
  8
1
  100
AcDbLine
  10
97.5
  20
-0.699098
  30
0
  11
97.4
  21
-0.608091
  31
0
  0
LINE
  5
177
  100
AcDbEntity
  8
1
  100
AcDbLine
  10
97.4
  20
-0.608091
  30
0
  11
97.3
  21
-0.516496
  31
0
  0
LINE
  5
178
  100
AcDbEntity
  8
1
  100
AcDbLine
  10
97.3
  20
-0.516496
  30
0
  11
97.2
  21
-0.424402
  31
0
  0
LINE
  5
179
  100
AcDbEntity
  8
1
  100
AcDbLine
  10
97.2
  20
-0.424402
  30
0
  11
97.1
  21
-0.331898
  31
0
  0
LINE
  5
17a
  100
AcDbEntity
  8
1
  100
AcDbLine
  10
97.1
  20
-0.331898
  30
0
  11
97
  21
-0.239074
  31
0
  0
LINE
  5
17b
  100
AcDbEntity
  8
1
  100
AcDbLine
  10
97
  20
-0.239074
  30
0
  11
96.9
  21
-0.146018
  31
0
  0
LINE
  5
17c
  100
AcDbEntity
  8
1
  100
AcDbLine
  10
96.9
  20
-0.146018
  30
0
  11
96.8
  21
-0.052822
  31
0
  0
LINE
  5
17d
  100
AcDbEntity
  8
1
  100
AcDbLine
  10
96.8
  20
-0.052822
  30
0
  11
96.7
  21
0.040426
  31
0
  0
LINE
  5
17e
  100
AcDbEntity
  8
1
  100
AcDbLine
  10
96.7
  20
0.040426
  30
0
  11
96.6
  21
0.133634
  31
0
  0
LINE
  5
17f
  100
AcDbEntity
  8
1
  100
AcDbLine
  10
96.6
  20
0.133634
  30
0
  11
96.5
  21
0.226714
  31
0
  0
LINE
  5
180
  100
AcDbEntity
  8
1
  100
AcDbLine
  10
96.5
  20
0.226714
  30
0
  11
96.4
  21
0.319574
  31
0
  0
LINE
  5
181
  100
AcDbEntity
  8
1
  100
AcDbLine
  10
96.4
  20
0.319574
  30
0
  11
96.3
  21
0.412126
  31
0
  0
LINE
  5
182
  100
AcDbEntity
  8
1
  100
AcDbLine
  10
96.3
  20
0.412126
  30
0
  11
96.2
  21
0.504279
  31
0
  0
LINE
  5
183
  100
AcDbEntity
  8
1
  100
AcDbLine
  10
96.2
  20
0.504279
  30
0
  11
96.1
  21
0.595945
  31
0
  0
LINE
  5
184
  100
AcDbEntity
  8
1
  100
AcDbLine
  10
96.1
  20
0.595945
  30
0
  11
96
  21
0.687036
  31
0
  0
LINE
  5
185
  100
AcDbEntity
  8
1
  100
AcDbLine
  10
96
  20
0.687036
  30
0
  11
95.9
  21
0.777462
  31
0
  0
LINE
  5
186
  100
AcDbEntity
  8
1
  100
AcDbLine
  10
95.9
  20
0.777462
  30
0
  11
95.8
  21
0.867138
  31
0
  0
LINE
  5
187
  100
AcDbEntity
  8
1
  100
AcDbLine
  10
95.8
  20
0.867138
  30
0
  11
95.7
  21
0.955976
  31
0
  0
LINE
  5
188
  100
AcDbEntity
  8
1
  100
AcDbLine
  10
95.7
  20
0.955976
  30
0
  11
95.6
  21
1.04389
  31
0
  0
LINE
  5
189
  100
AcDbEntity
  8
1
  100
AcDbLine
  10
95.6
  20
1.04389
  30
0
  11
95.5
  21
1.130796
  31
0
  0
LINE
  5
18a
  100
AcDbEntity
  8
1
  100
AcDbLine
  10
95.5
  20
1.130796
  30
0
  11
95.4
  21
1.216609
  31
0
  0
LINE
  5
18b
  100
AcDbEntity
  8
1
  100
AcDbLine
  10
95.4
  20
1.216609
  30
0
  11
95.3
  21
1.301247
  31
0
  0
LINE
  5
18c
  100
AcDbEntity
  8
1
  100
AcDbLine
  10
95.3
  20
1.301247
  30
0
  11
95.2
  21
1.384627
  31
0
  0
LINE
  5
18d
  100
AcDbEntity
  8
1
  100
AcDbLine
  10
95.2
  20
1.384627
  30
0
  11
95.1
  21
1.46667
  31
0
  0
LINE
  5
18e
  100
AcDbEntity
  8
1
  100
AcDbLine
  10
95.1
  20
1.46667
  30
0
  11
95
  21
1.547296
  31
0
  0
LINE
  5
18f
  100
AcDbEntity
  8
1
  100
AcDbLine
  10
95
  20
1.547296
  30
0
  11
94.9
  21
1.626427
  31
0
  0
LINE
  5
190
  100
AcDbEntity
  8
1
  100
AcDbLine
  10
94.9
  20
1.626427
  30
0
  11
94.8
  21
1.703987
  31
0
  0
LINE
  5
191
  100
AcDbEntity
  8
1
  100
AcDbLine
  10
94.8
  20
1.703987
  30
0
  11
94.7
  21
1.7799
  31
0
  0
LINE
  5
192
  100
AcDbEntity
  8
1
  100
AcDbLine
  10
94.7
  20
1.7799
  30
0
  11
94.6
  21
1.854094
  31
0
  0
LINE
  5
193
  100
AcDbEntity
  8
1
  100
AcDbLine
  10
94.6
  20
1.854094
  30
0
  11
94.5
  21
1.926497
  31
0
  0
LINE
  5
194
  100
AcDbEntity
  8
1
  100
AcDbLine
  10
94.5
  20
1.926497
  30
0
  11
94.4
  21
1.997038
  31
0
  0
LINE
  5
195
  100
AcDbEntity
  8
1
  100
AcDbLine
  10
94.4
  20
1.997038
  30
0
  11
94.3
  21
2.06565
  31
0
  0
LINE
  5
196
  100
AcDbEntity
  8
1
  100
AcDbLine
  10
94.3
  20
2.06565
  30
0
  11
94.2
  21
2.132266
  31
0
  0
LINE
  5
197
  100
AcDbEntity
  8
1
  100
AcDbLine
  10
94.2
  20
2.132266
  30
0
  11
94.1
  21
2.196822
  31
0
  0
LINE
  5
198
  100
AcDbEntity
  8
1
  100
AcDbLine
  10
94.1
  20
2.196822
  30
0
  11
94
  21
2.259256
  31
0
  0
LINE
  5
199
  100
AcDbEntity
  8
1
  100
AcDbLine
  10
94
  20
2.259256
  30
0
  11
93.9
  21
2.319507
  31
0
  0
LINE
  5
19a
  100
AcDbEntity
  8
1
  100
AcDbLine
  10
93.9
  20
2.319507
  30
0
  11
93.8
  21
2.377517
  31
0
  0
LINE
  5
19b
  100
AcDbEntity
  8
1
  100
AcDbLine
  10
93.8
  20
2.377517
  30
0
  11
93.7
  21
2.433231
  31
0
  0
LINE
  5
19c
  100
AcDbEntity
  8
1
  100
AcDbLine
  10
93.7
  20
2.433231
  30
0
  11
93.6
  21
2.486593
  31
0
  0
LINE
  5
19d
  100
AcDbEntity
  8
1
  100
AcDbLine
  10
93.6
  20
2.486593
  30
0
  11
93.5
  21
2.537553
  31
0
  0
LINE
  5
19e
  100
AcDbEntity
  8
1
  100
AcDbLine
  10
93.5
  20
2.537553
  30
0
  11
93.4
  21
2.586061
  31
0
  0
LINE
  5
19f
  100
AcDbEntity
  8
1
  100
AcDbLine
  10
93.4
  20
2.586061
  30
0
  11
93.3
  21
2.632071
  31
0
  0
LINE
  5
1a0
  100
AcDbEntity
  8
1
  100
AcDbLine
  10
93.3
  20
2.632071
  30
0
  11
93.2
  21
2.675538
  31
0
  0
LINE
  5
1a1
  100
AcDbEntity
  8
1
  100
AcDbLine
  10
93.2
  20
2.675538
  30
0
  11
93.1
  21
2.71642
  31
0
  0
LINE
  5
1a2
  100
AcDbEntity
  8
1
  100
AcDbLine
  10
93.1
  20
2.71642
  30
0
  11
93
  21
2.754678
  31
0
  0
LINE
  5
1a3
  100
AcDbEntity
  8
1
  100
AcDbLine
  10
93
  20
2.754678
  30
0
  11
92.9
  21
2.790274
  31
0
  0
LINE
  5
1a4
  100
AcDbEntity
  8
1
  100
AcDbLine
  10
92.9
  20
2.790274
  30
0
  11
92.8
  21
2.823175
  31
0
  0
LINE
  5
1a5
  100
AcDbEntity
  8
1
  100
AcDbLine
  10
92.8
  20
2.823175
  30
0
  11
92.7
  21
2.853348
  31
0
  0
LINE
  5
1a6
  100
AcDbEntity
  8
1
  100
AcDbLine
  10
92.7
  20
2.853348
  30
0
  11
92.6
  21
2.880764
  31
0
  0
LINE
  5
1a7
  100
AcDbEntity
  8
1
  100
AcDbLine
  10
92.6
  20
2.880764
  30
0
  11
92.5
  21
2.905397
  31
0
  0
LINE
  5
1a8
  100
AcDbEntity
  8
1
  100
AcDbLine
  10
92.5
  20
2.905397
  30
0
  11
92.4
  21
2.927223
  31
0
  0
LINE
  5
1a9
  100
AcDbEntity
  8
1
  100
AcDbLine
  10
92.4
  20
2.927223
  30
0
  11
92.3
  21
2.946221
  31
0
  0
LINE
  5
1aa
  100
AcDbEntity
  8
1
  100
AcDbLine
  10
92.3
  20
2.946221
  30
0
  11
92.2
  21
2.962373
  31
0
  0
LINE
  5
1ab
  100
AcDbEntity
  8
1
  100
AcDbLine
  10
92.2
  20
2.962373
  30
0
  11
92.1
  21
2.975662
  31
0
  0
LINE
  5
1ac
  100
AcDbEntity
  8
1
  100
AcDbLine
  10
92.1
  20
2.975662
  30
0
  11
92
  21
2.986077
  31
0
  0
LINE
  5
1ad
  100
AcDbEntity
  8
1
  100
AcDbLine
  10
92
  20
2.986077
  30
0
  11
91.9
  21
2.993607
  31
0
  0
LINE
  5
1ae
  100
AcDbEntity
  8
1
  100
AcDbLine
  10
91.9
  20
2.993607
  30
0
  11
91.8
  21
2.998244
  31
0
  0
LINE
  5
1af
  100
AcDbEntity
  8
1
  100
AcDbLine
  10
91.8
  20
2.998244
  30
0
  11
91.7
  21
2.999985
  31
0
  0
LINE
  5
1b0
  100
AcDbEntity
  8
1
  100
AcDbLine
  10
91.7
  20
2.999985
  30
0
  11
91.689933
  21
3
  31
0
  0
LINE
  5
1b1
  100
AcDbEntity
  8
1
  100
AcDbLine
  10
93.262108
  20
-3
  30
0
  11
93.2
  21
-2.999441
  31
0
  0
LINE
  5
1b2
  100
AcDbEntity
  8
1
  100
AcDbLine
  10
93.2
  20
-2.999441
  30
0
  11
93.1
  21
-2.996192
  31
0
  0
LINE
  5
1b3
  100
AcDbEntity
  8
1
  100
AcDbLine
  10
93.1
  20
-2.996192
  30
0
  11
93
  21
-2.990049
  31
0
  0
LINE
  5
1b4
  100
AcDbEntity
  8
1
  100
AcDbLine
  10
93
  20
-2.990049
  30
0
  11
92.9
  21
-2.981016
  31
0
  0
LINE
  5
1b5
  100
AcDbEntity
  8
1
  100
AcDbLine
  10
92.9
  20
-2.981016
  30
0
  11
92.8
  21
-2.969104
  31
0
  0
LINE
  5
1b6
  100
AcDbEntity
  8
1
  100
AcDbLine
  10
92.8
  20
-2.969104
  30
0
  11
92.7
  21
-2.954323
  31
0
  0
LINE
  5
1b7
  100
AcDbEntity
  8
1
  100
AcDbLine
  10
92.7
  20
-2.954323
  30
0
  11
92.6
  21
-2.936688
  31
0
  0
LINE
  5
1b8
  100
AcDbEntity
  8
1
  100
AcDbLine
  10
92.6
  20
-2.936688
  30
0
  11
92.5
  21
-2.916216
  31
0
  0
LINE
  5
1b9
  100
AcDbEntity
  8
1
  100
AcDbLine
  10
92.5
  20
-2.916216
  30
0
  11
92.4
  21
-2.892926
  31
0
  0
LINE
  5
1ba
  100
AcDbEntity
  8
1
  100
AcDbLine
  10
92.4
  20
-2.892926
  30
0
  11
92.3
  21
-2.866841
  31
0
  0
LINE
  5
1bb
  100
AcDbEntity
  8
1
  100
AcDbLine
  10
92.3
  20
-2.866841
  30
0
  11
92.2
  21
-2.837987
  31
0
  0
LINE
  5
1bc
  100
AcDbEntity
  8
1
  100
AcDbLine
  10
92.2
  20
-2.837987
  30
0
  11
92.1
  21
-2.806391
  31
0
  0
LINE
  5
1bd
  100
AcDbEntity
  8
1
  100
AcDbLine
  10
92.1
  20
-2.806391
  30
0
  11
92
  21
-2.772083
  31
0
  0
LINE
  5
1be
  100
AcDbEntity
  8
1
  100
AcDbLine
  10
92
  20
-2.772083
  30
0
  11
91.9
  21
-2.735097
  31
0
  0
LINE
  5
1bf
  100
AcDbEntity
  8
1
  100
AcDbLine
  10
91.9
  20
-2.735097
  30
0
  11
91.8
  21
-2.695469
  31
0
  0
LINE
  5
1c0
  100
AcDbEntity
  8
1
  100
AcDbLine
  10
91.8
  20
-2.695469
  30
0
  11
91.7
  21
-2.653237
  31
0
  0
LINE
  5
1c1
  100
AcDbEntity
  8
1
  100
AcDbLine
  10
91.7
  20
-2.653237
  30
0
  11
91.6
  21
-2.608441
  31
0
  0
LINE
  5
1c2
  100
AcDbEntity
  8
1
  100
AcDbLine
  10
91.6
  20
-2.608441
  30
0
  11
91.5
  21
-2.561125
  31
0
  0
LINE
  5
1c3
  100
AcDbEntity
  8
1
  100
AcDbLine
  10
91.5
  20
-2.561125
  30
0
  11
91.4
  21
-2.511335
  31
0
  0
LINE
  5
1c4
  100
AcDbEntity
  8
1
  100
AcDbLine
  10
91.4
  20
-2.511335
  30
0
  11
91.3
  21
-2.459118
  31
0
  0
LINE
  5
1c5
  100
AcDbEntity
  8
1
  100
AcDbLine
  10
91.3
  20
-2.459118
  30
0
  11
91.2
  21
-2.404526
  31
0
  0
LINE
  5
1c6
  100
AcDbEntity
  8
1
  100
AcDbLine
  10
91.2
  20
-2.404526
  30
0
  11
91.1
  21
-2.347611
  31
0
  0
LINE
  5
1c7
  100
AcDbEntity
  8
1
  100
AcDbLine
  10
91.1
  20
-2.347611
  30
0
  11
91
  21
-2.288427
  31
0
  0
LINE
  5
1c8
  100
AcDbEntity
  8
1
  100
AcDbLine
  10
91
  20
-2.288427
  30
0
  11
90.9
  21
-2.227033
  31
0
  0
LINE
  5
1c9
  100
AcDbEntity
  8
1
  100
AcDbLine
  10
90.9
  20
-2.227033
  30
0
  11
90.8
  21
-2.163487
  31
0
  0
LINE
  5
1ca
  100
AcDbEntity
  8
1
  100
AcDbLine
  10
90.8
  20
-2.163487
  30
0
  11
90.7
  21
-2.09785
  31
0
  0
LINE
  5
1cb
  100
AcDbEntity
  8
1
  100
AcDbLine
  10
90.7
  20
-2.09785
  30
0
  11
90.6
  21
-2.030187
  31
0
  0
LINE
  5
1cc
  100
AcDbEntity
  8
1
  100
AcDbLine
  10
90.6
  20
-2.030187
  30
0
  11
90.5
  21
-1.960563
  31
0
  0
LINE
  5
1cd
  100
AcDbEntity
  8
1
  100
AcDbLine
  10
90.5
  20
-1.960563
  30
0
  11
90.4
  21
-1.889044
  31
0
  0
LINE
  5
1ce
  100
AcDbEntity
  8
1
  100
AcDbLine
  10
90.4
  20
-1.889044
  30
0
  11
90.3
  21
-1.815701
  31
0
  0
LINE
  5
1cf
  100
AcDbEntity
  8
1
  100
AcDbLine
  10
90.3
  20
-1.815701
  30
0
  11
90.2
  21
-1.740603
  31
0
  0
LINE
  5
1d0
  100
AcDbEntity
  8
1
  100
AcDbLine
  10
90.2
  20
-1.740603
  30
0
  11
90.1
  21
-1.663824
  31
0
  0
LINE
  5
1d1
  100
AcDbEntity
  8
1
  100
AcDbLine
  10
90.1
  20
-1.663824
  30
0
  11
90
  21
-1.585437
  31
0
  0
LINE
  5
1d2
  100
AcDbEntity
  8
1
  100
AcDbLine
  10
90
  20
-1.585437
  30
0
  11
89.9
  21
-1.505518
  31
0
  0
LINE
  5
1d3
  100
AcDbEntity
  8
1
  100
AcDbLine
  10
89.9
  20
-1.505518
  30
0
  11
89.8
  21
-1.424145
  31
0
  0
LINE
  5
1d4
  100
AcDbEntity
  8
1
  100
AcDbLine
  10
89.8
  20
-1.424145
  30
0
  11
89.7
  21
-1.341396
  31
0
  0
LINE
  5
1d5
  100
AcDbEntity
  8
1
  100
AcDbLine
  10
89.7
  20
-1.341396
  30
0
  11
89.6
  21
-1.257351
  31
0
  0
LINE
  5
1d6
  100
AcDbEntity
  8
1
  100
AcDbLine
  10
89.6
  20
-1.257351
  30
0
  11
89.5
  21
-1.172091
  31
0
  0
LINE
  5
1d7
  100
AcDbEntity
  8
1
  100
AcDbLine
  10
89.5
  20
-1.172091
  30
0
  11
89.4
  21
-1.085699
  31
0
  0
LINE
  5
1d8
  100
AcDbEntity
  8
1
  100
AcDbLine
  10
89.4
  20
-1.085699
  30
0
  11
89.3
  21
-0.998258
  31
0
  0
LINE
  5
1d9
  100
AcDbEntity
  8
1
  100
AcDbLine
  10
89.3
  20
-0.998258
  30
0
  11
89.2
  21
-0.909852
  31
0
  0
LINE
  5
1da
  100
AcDbEntity
  8
1
  100
AcDbLine
  10
89.2
  20
-0.909852
  30
0
  11
89.1
  21
-0.820567
  31
0
  0
LINE
  5
1db
  100
AcDbEntity
  8
1
  100
AcDbLine
  10
89.1
  20
-0.820567
  30
0
  11
89
  21
-0.73049
  31
0
  0
LINE
  5
1dc
  100
AcDbEntity
  8
1
  100
AcDbLine
  10
89
  20
-0.73049
  30
0
  11
88.9
  21
-0.639707
  31
0
  0
LINE
  5
1dd
  100
AcDbEntity
  8
1
  100
AcDbLine
  10
88.9
  20
-0.639707
  30
0
  11
88.8
  21
-0.548306
  31
0
  0
LINE
  5
1de
  100
AcDbEntity
  8
1
  100
AcDbLine
  10
88.8
  20
-0.548306
  30
0
  11
88.7
  21
-0.456375
  31
0
  0
LINE
  5
1df
  100
AcDbEntity
  8
1
  100
AcDbLine
  10
88.7
  20
-0.456375
  30
0
  11
88.6
  21
-0.364003
  31
0
  0
LINE
  5
1e0
  100
AcDbEntity
  8
1
  100
AcDbLine
  10
88.6
  20
-0.364003
  30
0
  11
88.5
  21
-0.27128
  31
0
  0
LINE
  5
1e1
  100
AcDbEntity
  8
1
  100
AcDbLine
  10
88.5
  20
-0.27128
  30
0
  11
88.4
  21
-0.178294
  31
0
  0
LINE
  5
1e2
  100
AcDbEntity
  8
1
  100
AcDbLine
  10
88.4
  20
-0.178294
  30
0
  11
88.3
  21
-0.085136
  31
0
  0
LINE
  5
1e3
  100
AcDbEntity
  8
1
  100
AcDbLine
  10
88.3
  20
-0.085136
  30
0
  11
88.2
  21
0.008104
  31
0
  0
LINE
  5
1e4
  100
AcDbEntity
  8
1
  100
AcDbLine
  10
88.2
  20
0.008104
  30
0
  11
88.1
  21
0.101336
  31
0
  0
LINE
  5
1e5
  100
AcDbEntity
  8
1
  100
AcDbLine
  10
88.1
  20
0.101336
  30
0
  11
88
  21
0.19447
  31
0
  0
LINE
  5
1e6
  100
AcDbEntity
  8
1
  100
AcDbLine
  10
88
  20
0.19447
  30
0
  11
87.9
  21
0.287417
  31
0
  0
LINE
  5
1e7
  100
AcDbEntity
  8
1
  100
AcDbLine
  10
87.9
  20
0.287417
  30
0
  11
87.8
  21
0.380086
  31
0
  0
LINE
  5
1e8
  100
AcDbEntity
  8
1
  100
AcDbLine
  10
87.8
  20
0.380086
  30
0
  11
87.7
  21
0.472387
  31
0
  0
LINE
  5
1e9
  100
AcDbEntity
  8
1
  100
AcDbLine
  10
87.7
  20
0.472387
  30
0
  11
87.6
  21
0.564232
  31
0
  0
LINE
  5
1ea
  100
AcDbEntity
  8
1
  100
AcDbLine
  10
87.6
  20
0.564232
  30
0
  11
87.5
  21
0.655532
  31
0
  0
LINE
  5
1eb
  100
AcDbEntity
  8
1
  100
AcDbLine
  10
87.5
  20
0.655532
  30
0
  11
87.4
  21
0.746199
  31
0
  0
LINE
  5
1ec
  100
AcDbEntity
  8
1
  100
AcDbLine
  10
87.4
  20
0.746199
  30
0
  11
87.3
  21
0.836145
  31
0
  0
LINE
  5
1ed
  100
AcDbEntity
  8
1
  100
AcDbLine
  10
87.3
  20
0.836145
  30
0
  11
87.2
  21
0.925283
  31
0
  0
LINE
  5
1ee
  100
AcDbEntity
  8
1
  100
AcDbLine
  10
87.2
  20
0.925283
  30
0
  11
87.1
  21
1.013527
  31
0
  0
LINE
  5
1ef
  100
AcDbEntity
  8
1
  100
AcDbLine
  10
87.1
  20
1.013527
  30
0
  11
87
  21
1.100792
  31
0
  0
LINE
  5
1f0
  100
AcDbEntity
  8
1
  100
AcDbLine
  10
87
  20
1.100792
  30
0
  11
86.9
  21
1.186993
  31
0
  0
LINE
  5
1f1
  100
AcDbEntity
  8
1
  100
AcDbLine
  10
86.9
  20
1.186993
  30
0
  11
86.8
  21
1.272048
  31
0
  0
LINE
  5
1f2
  100
AcDbEntity
  8
1
  100
AcDbLine
  10
86.8
  20
1.272048
  30
0
  11
86.7
  21
1.355873
  31
0
  0
LINE
  5
1f3
  100
AcDbEntity
  8
1
  100
AcDbLine
  10
86.7
  20
1.355873
  30
0
  11
86.6
  21
1.438389
  31
0
  0
LINE
  5
1f4
  100
AcDbEntity
  8
1
  100
AcDbLine
  10
86.6
  20
1.438389
  30
0
  11
86.5
  21
1.519515
  31
0
  0
LINE
  5
1f5
  100
AcDbEntity
  8
1
  100
AcDbLine
  10
86.5
  20
1.519515
  30
0
  11
86.4
  21
1.599173
  31
0
  0
LINE
  5
1f6
  100
AcDbEntity
  8
1
  100
AcDbLine
  10
86.4
  20
1.599173
  30
0
  11
86.3
  21
1.677286
  31
0
  0
LINE
  5
1f7
  100
AcDbEntity
  8
1
  100
AcDbLine
  10
86.3
  20
1.677286
  30
0
  11
86.2
  21
1.753778
  31
0
  0
LINE
  5
1f8
  100
AcDbEntity
  8
1
  100
AcDbLine
  10
86.2
  20
1.753778
  30
0
  11
86.1
  21
1.828576
  31
0
  0
LINE
  5
1f9
  100
AcDbEntity
  8
1
  100
AcDbLine
  10
86.1
  20
1.828576
  30
0
  11
86
  21
1.901608
  31
0
  0
LINE
  5
1fa
  100
AcDbEntity
  8
1
  100
AcDbLine
  10
86
  20
1.901608
  30
0
  11
85.9
  21
1.972802
  31
0
  0
LINE
  5
1fb
  100
AcDbEntity
  8
1
  100
AcDbLine
  10
85.9
  20
1.972802
  30
0
  11
85.8
  21
2.04209
  31
0
  0
LINE
  5
1fc
  100
AcDbEntity
  8
1
  100
AcDbLine
  10
85.8
  20
2.04209
  30
0
  11
85.7
  21
2.109406
  31
0
  0
LINE
  5
1fd
  100
AcDbEntity
  8
1
  100
AcDbLine
  10
85.7
  20
2.109406
  30
0
  11
85.6
  21
2.174683
  31
0
  0
LINE
  5
1fe
  100
AcDbEntity
  8
1
  100
AcDbLine
  10
85.6
  20
2.174683
  30
0
  11
85.5
  21
2.237859
  31
0
  0
LINE
  5
1ff
  100
AcDbEntity
  8
1
  100
AcDbLine
  10
85.5
  20
2.237859
  30
0
  11
85.4
  21
2.292045
  31
0
  0
LINE
  5
200
  100
AcDbEntity
  8
1
  100
AcDbLine
  10
85.4
  20
2.292045
  30
0
  11
85.3
  21
2.328486
  31
0
  0
LINE
  5
201
  100
AcDbEntity
  8
1
  100
AcDbLine
  10
85.3
  20
2.328486
  30
0
  11
85.2
  21
2.342028
  31
0
  0
LINE
  5
202
  100
AcDbEntity
  8
1
  100
AcDbLine
  10
85.2
  20
2.342028
  30
0
  11
85.1
  21
2.319678
  31
0
  0
LINE
  5
203
  100
AcDbEntity
  8
1
  100
AcDbLine
  10
85.1
  20
2.319678
  30
0
  11
85
  21
2.137501
  31
0
  0
LINE
  5
204
  100
AcDbEntity
  8
1
  100
AcDbLine
  10
85
  20
2.137501
  30
0
  11
85
  21
1.745097
  31
0
  0
LINE
  5
205
  100
AcDbEntity
  8
1
  100
AcDbLine
  10
85
  20
1.843974
  30
0
  11
85
  21
2.246185
  31
0
  0
LINE
  5
206
  100
AcDbEntity
  8
1
  100
AcDbLine
  10
85
  20
2.246185
  30
0
  11
85.1
  21
2.441984
  31
0
  0
LINE
  5
207
  100
AcDbEntity
  8
1
  100
AcDbLine
  10
85.1
  20
2.441984
  30
0
  11
85.2
  21
2.47419
  31
0
  0
LINE
  5
208
  100
AcDbEntity
  8
1
  100
AcDbLine
  10
85.2
  20
2.47419
  30
0
  11
85.3
  21
2.469713
  31
0
  0
LINE
  5
209
  100
AcDbEntity
  8
1
  100
AcDbLine
  10
85.3
  20
2.469713
  30
0
  11
85.4
  21
2.441821
  31
0
  0
LINE
  5
20a
  100
AcDbEntity
  8
1
  100
AcDbLine
  10
85.4
  20
2.441821
  30
0
  11
85.5
  21
2.395763
  31
0
  0
LINE
  5
20b
  100
AcDbEntity
  8
1
  100
AcDbLine
  10
85.5
  20
2.395763
  30
0
  11
85.6
  21
2.340438
  31
0
  0
LINE
  5
20c
  100
AcDbEntity
  8
1
  100
AcDbLine
  10
85.6
  20
2.340438
  30
0
  11
85.7
  21
2.282852
  31
0
  0
LINE
  5
20d
  100
AcDbEntity
  8
1
  100
AcDbLine
  10
85.7
  20
2.282852
  30
0
  11
85.8
  21
2.22306
  31
0
  0
LINE
  5
20e
  100
AcDbEntity
  8
1
  100
AcDbLine
  10
85.8
  20
2.22306
  30
0
  11
85.9
  21
2.161121
  31
0
  0
LINE
  5
20f
  100
AcDbEntity
  8
1
  100
AcDbLine
  10
85.9
  20
2.161121
  30
0
  11
86
  21
2.097094
  31
0
  0
LINE
  5
210
  100
AcDbEntity
  8
1
  100
AcDbLine
  10
86
  20
2.097094
  30
0
  11
86.1
  21
2.03104
  31
0
  0
LINE
  5
211
  100
AcDbEntity
  8
1
  100
AcDbLine
  10
86.1
  20
2.03104
  30
0
  11
86.2
  21
1.963024
  31
0
  0
LINE
  5
212
  100
AcDbEntity
  8
1
  100
AcDbLine
  10
86.2
  20
1.963024
  30
0
  11
86.3
  21
1.893112
  31
0
  0
LINE
  5
213
  100
AcDbEntity
  8
1
  100
AcDbLine
  10
86.3
  20
1.893112
  30
0
  11
86.4
  21
1.821371
  31
0
  0
LINE
  5
214
  100
AcDbEntity
  8
1
  100
AcDbLine
  10
86.4
  20
1.821371
  30
0
  11
86.5
  21
1.74787
  31
0
  0
LINE
  5
215
  100
AcDbEntity
  8
1
  100
AcDbLine
  10
86.5
  20
1.74787
  30
0
  11
86.6
  21
1.67268
  31
0
  0
LINE
  5
216
  100
AcDbEntity
  8
1
  100
AcDbLine
  10
86.6
  20
1.67268
  30
0
  11
86.7
  21
1.595875
  31
0
  0
LINE
  5
217
  100
AcDbEntity
  8
1
  100
AcDbLine
  10
86.7
  20
1.595875
  30
0
  11
86.8
  21
1.517527
  31
0
  0
LINE
  5
218
  100
AcDbEntity
  8
1
  100
AcDbLine
  10
86.8
  20
1.517527
  30
0
  11
86.9
  21
1.437714
  31
0
  0
LINE
  5
219
  100
AcDbEntity
  8
1
  100
AcDbLine
  10
86.9
  20
1.437714
  30
0
  11
87
  21
1.356511
  31
0
  0
LINE
  5
21a
  100
AcDbEntity
  8
1
  100
AcDbLine
  10
87
  20
1.356511
  30
0
  11
87.1
  21
1.273998
  31
0
  0
LINE
  5
21b
  100
AcDbEntity
  8
1
  100
AcDbLine
  10
87.1
  20
1.273998
  30
0
  11
87.2
  21
1.190254
  31
0
  0
LINE
  5
21c
  100
AcDbEntity
  8
1
  100
AcDbLine
  10
87.2
  20
1.190254
  30
0
  11
87.3
  21
1.10536
  31
0
  0
LINE
  5
21d
  100
AcDbEntity
  8
1
  100
AcDbLine
  10
87.3
  20
1.10536
  30
0
  11
87.4
  21
1.019399
  31
0
  0
LINE
  5
21e
  100
AcDbEntity
  8
1
  100
AcDbLine
  10
87.4
  20
1.019399
  30
0
  11
87.5
  21
0.932452
  31
0
  0
LINE
  5
21f
  100
AcDbEntity
  8
1
  100
AcDbLine
  10
87.5
  20
0.932452
  30
0
  11
87.6
  21
0.844604
  31
0
  0
LINE
  5
220
  100
AcDbEntity
  8
1
  100
AcDbLine
  10
87.6
  20
0.844604
  30
0
  11
87.7
  21
0.755941
  31
0
  0
LINE
  5
221
  100
AcDbEntity
  8
1
  100
AcDbLine
  10
87.7
  20
0.755941
  30
0
  11
87.8
  21
0.666547
  31
0
  0
LINE
  5
222
  100
AcDbEntity
  8
1
  100
AcDbLine
  10
87.8
  20
0.666547
  30
0
  11
87.9
  21
0.576509
  31
0
  0
LINE
  5
223
  100
AcDbEntity
  8
1
  100
AcDbLine
  10
87.9
  20
0.576509
  30
0
  11
88
  21
0.485914
  31
0
  0
LINE
  5
224
  100
AcDbEntity
  8
1
  100
AcDbLine
  10
88
  20
0.485914
  30
0
  11
88.1
  21
0.39485
  31
0
  0
LINE
  5
225
  100
AcDbEntity
  8
1
  100
AcDbLine
  10
88.1
  20
0.39485
  30
0
  11
88.2
  21
0.303404
  31
0
  0
LINE
  5
226
  100
AcDbEntity
  8
1
  100
AcDbLine
  10
88.2
  20
0.303404
  30
0
  11
88.3
  21
0.211665
  31
0
  0
LINE
  5
227
  100
AcDbEntity
  8
1
  100
AcDbLine
  10
88.3
  20
0.211665
  30
0
  11
88.4
  21
0.119722
  31
0
  0
LINE
  5
228
  100
AcDbEntity
  8
1
  100
AcDbLine
  10
88.4
  20
0.119722
  30
0
  11
88.5
  21
0.027663
  31
0
  0
LINE
  5
229
  100
AcDbEntity
  8
1
  100
AcDbLine
  10
88.5
  20
0.027663
  30
0
  11
88.6
  21
-0.064423
  31
0
  0
LINE
  5
22a
  100
AcDbEntity
  8
1
  100
AcDbLine
  10
88.6
  20
-0.064423
  30
0
  11
88.7
  21
-0.156446
  31
0
  0
LINE
  5
22b
  100
AcDbEntity
  8
1
  100
AcDbLine
  10
88.7
  20
-0.156446
  30
0
  11
88.8
  21
-0.248319
  31
0
  0
LINE
  5
22c
  100
AcDbEntity
  8
1
  100
AcDbLine
  10
88.8
  20
-0.248319
  30
0
  11
88.9
  21
-0.339951
  31
0
  0
LINE
  5
22d
  100
AcDbEntity
  8
1
  100
AcDbLine
  10
88.9
  20
-0.339951
  30
0
  11
89
  21
-0.431255
  31
0
  0
LINE
  5
22e
  100
AcDbEntity
  8
1
  100
AcDbLine
  10
89
  20
-0.431255
  30
0
  11
89.1
  21
-0.522143
  31
0
  0
LINE
  5
22f
  100
AcDbEntity
  8
1
  100
AcDbLine
  10
89.1
  20
-0.522143
  30
0
  11
89.2
  21
-0.612526
  31
0
  0
LINE
  5
230
  100
AcDbEntity
  8
1
  100
AcDbLine
  10
89.2
  20
-0.612526
  30
0
  11
89.3
  21
-0.702317
  31
0
  0
LINE
  5
231
  100
AcDbEntity
  8
1
  100
AcDbLine
  10
89.3
  20
-0.702317
  30
0
  11
89.4
  21
-0.791429
  31
0
  0
LINE
  5
232
  100
AcDbEntity
  8
1
  100
AcDbLine
  10
89.4
  20
-0.791429
  30
0
  11
89.5
  21
-0.879777
  31
0
  0
LINE
  5
233
  100
AcDbEntity
  8
1
  100
AcDbLine
  10
89.5
  20
-0.879777
  30
0
  11
89.6
  21
-0.967275
  31
0
  0
LINE
  5
234
  100
AcDbEntity
  8
1
  100
AcDbLine
  10
89.6
  20
-0.967275
  30
0
  11
89.7
  21
-1.053839
  31
0
  0
LINE
  5
235
  100
AcDbEntity
  8
1
  100
AcDbLine
  10
89.7
  20
-1.053839
  30
0
  11
89.8
  21
-1.139384
  31
0
  0
LINE
  5
236
  100
AcDbEntity
  8
1
  100
AcDbLine
  10
89.8
  20
-1.139384
  30
0
  11
89.9
  21
-1.223829
  31
0
  0
LINE
  5
237
  100
AcDbEntity
  8
1
  100
AcDbLine
  10
89.9
  20
-1.223829
  30
0
  11
90
  21
-1.307091
  31
0
  0
LINE
  5
238
  100
AcDbEntity
  8
1
  100
AcDbLine
  10
90
  20
-1.307091
  30
0
  11
90.1
  21
-1.389091
  31
0
  0
LINE
  5
239
  100
AcDbEntity
  8
1
  100
AcDbLine
  10
90.1
  20
-1.389091
  30
0
  11
90.2
  21
-1.469748
  31
0
  0
LINE
  5
23a
  100
AcDbEntity
  8
1
  100
AcDbLine
  10
90.2
  20
-1.469748
  30
0
  11
90.3
  21
-1.548985
  31
0
  0
LINE
  5
23b
  100
AcDbEntity
  8
1
  100
AcDbLine
  10
90.3
  20
-1.548985
  30
0
  11
90.4
  21
-1.626726
  31
0
  0
LINE
  5
23c
  100
AcDbEntity
  8
1
  100
AcDbLine
  10
90.4
  20
-1.626726
  30
0
  11
90.5
  21
-1.702895
  31
0
  0
LINE
  5
23d
  100
AcDbEntity
  8
1
  100
AcDbLine
  10
90.5
  20
-1.702895
  30
0
  11
90.6
  21
-1.77742
  31
0
  0
LINE
  5
23e
  100
AcDbEntity
  8
1
  100
AcDbLine
  10
90.6
  20
-1.77742
  30
0
  11
90.7
  21
-1.850226
  31
0
  0
LINE
  5
23f
  100
AcDbEntity
  8
1
  100
AcDbLine
  10
90.7
  20
-1.850226
  30
0
  11
90.8
  21
-1.921246
  31
0
  0
LINE
  5
240
  100
AcDbEntity
  8
1
  100
AcDbLine
  10
90.8
  20
-1.921246
  30
0
  11
90.9
  21
-1.990409
  31
0
  0
LINE
  5
241
  100
AcDbEntity
  8
1
  100
AcDbLine
  10
90.9
  20
-1.990409
  30
0
  11
91
  21
-2.057649
  31
0
  0
LINE
  5
242
  100
AcDbEntity
  8
1
  100
AcDbLine
  10
91
  20
-2.057649
  30
0
  11
91.1
  21
-2.122901
  31
0
  0
LINE
  5
243
  100
AcDbEntity
  8
1
  100
AcDbLine
  10
91.1
  20
-2.122901
  30
0
  11
91.2
  21
-2.186102
  31
0
  0
LINE
  5
244
  100
AcDbEntity
  8
1
  100
AcDbLine
  10
91.2
  20
-2.186102
  30
0
  11
91.3
  21
-2.247191
  31
0
  0
LINE
  5
245
  100
AcDbEntity
  8
1
  100
AcDbLine
  10
91.3
  20
-2.247191
  30
0
  11
91.4
  21
-2.306109
  31
0
  0
LINE
  5
246
  100
AcDbEntity
  8
1
  100
AcDbLine
  10
91.4
  20
-2.306109
  30
0
  11
91.5
  21
-2.362799
  31
0
  0
LINE
  5
247
  100
AcDbEntity
  8
1
  100
AcDbLine
  10
91.5
  20
-2.362799
  30
0
  11
91.6
  21
-2.417207
  31
0
  0
LINE
  5
248
  100
AcDbEntity
  8
1
  100
AcDbLine
  10
91.6
  20
-2.417207
  30
0
  11
91.7
  21
-2.469279
  31
0
  0
LINE
  5
249
  100
AcDbEntity
  8
1
  100
AcDbLine
  10
91.7
  20
-2.469279
  30
0
  11
91.8
  21
-2.518965
  31
0
  0
LINE
  5
24a
  100
AcDbEntity
  8
1
  100
AcDbLine
  10
91.8
  20
-2.518965
  30
0
  11
91.9
  21
-2.566218
  31
0
  0
LINE
  5
24b
  100
AcDbEntity
  8
1
  100
AcDbLine
  10
91.9
  20
-2.566218
  30
0
  11
92
  21
-2.610991
  31
0
  0
LINE
  5
24c
  100
AcDbEntity
  8
1
  100
AcDbLine
  10
92
  20
-2.610991
  30
0
  11
92.1
  21
-2.653242
  31
0
  0
LINE
  5
24d
  100
AcDbEntity
  8
1
  100
AcDbLine
  10
92.1
  20
-2.653242
  30
0
  11
92.2
  21
-2.692929
  31
0
  0
LINE
  5
24e
  100
AcDbEntity
  8
1
  100
AcDbLine
  10
92.2
  20
-2.692929
  30
0
  11
92.3
  21
-2.730015
  31
0
  0
LINE
  5
24f
  100
AcDbEntity
  8
1
  100
AcDbLine
  10
92.3
  20
-2.730015
  30
0
  11
92.4
  21
-2.764463
  31
0
  0
LINE
  5
250
  100
AcDbEntity
  8
1
  100
AcDbLine
  10
92.4
  20
-2.764463
  30
0
  11
92.5
  21
-2.796241
  31
0
  0
LINE
  5
251
  100
AcDbEntity
  8
1
  100
AcDbLine
  10
92.5
  20
-2.796241
  30
0
  11
92.6
  21
-2.825317
  31
0
  0
LINE
  5
252
  100
AcDbEntity
  8
1
  100
AcDbLine
  10
92.6
  20
-2.825317
  30
0
  11
92.7
  21
-2.851663
  31
0
  0
LINE
  5
253
  100
AcDbEntity
  8
1
  100
AcDbLine
  10
92.7
  20
-2.851663
  30
0
  11
92.8
  21
-2.875254
  31
0
  0
LINE
  5
254
  100
AcDbEntity
  8
1
  100
AcDbLine
  10
92.8
  20
-2.875254
  30
0
  11
92.9
  21
-2.896068
  31
0
  0
LINE
  5
255
  100
AcDbEntity
  8
1
  100
AcDbLine
  10
92.9
  20
-2.896068
  30
0
  11
93
  21
-2.914083
  31
0
  0
LINE
  5
256
  100
AcDbEntity
  8
1
  100
AcDbLine
  10
93
  20
-2.914083
  30
0
  11
93.1
  21
-2.929283
  31
0
  0
LINE
  5
257
  100
AcDbEntity
  8
1
  100
AcDbLine
  10
93.1
  20
-2.929283
  30
0
  11
93.2
  21
-2.941653
  31
0
  0
LINE
  5
258
  100
AcDbEntity
  8
1
  100
AcDbLine
  10
93.2
  20
-2.941653
  30
0
  11
93.3
  21
-2.951181
  31
0
  0
LINE
  5
259
  100
AcDbEntity
  8
1
  100
AcDbLine
  10
93.3
  20
-2.951181
  30
0
  11
93.4
  21
-2.957857
  31
0
  0
LINE
  5
25a
  100
AcDbEntity
  8
1
  100
AcDbLine
  10
93.4
  20
-2.957857
  30
0
  11
93.5
  21
-2.961676
  31
0
  0
LINE
  5
25b
  100
AcDbEntity
  8
1
  100
AcDbLine
  10
93.5
  20
-2.961676
  30
0
  11
93.583456
  21
-3
  31
0
  0
LINE
  5
25c
  100
AcDbEntity
  8
1
  100
AcDbLine
  10
95.058879
  20
-3
  30
0
  11
95
  21
-2.999498
  31
0
  0
LINE
  5
25d
  100
AcDbEntity
  8
1
  100
AcDbLine
  10
95
  20
-2.999498
  30
0
  11
94.9
  21
-2.996342
  31
0
  0
LINE
  5
25e
  100
AcDbEntity
  8
1
  100
AcDbLine
  10
94.9
  20
-2.996342
  30
0
  11
94.8
  21
-2.990292
  31
0
  0
LINE
  5
25f
  100
AcDbEntity
  8
1
  100
AcDbLine
  10
94.8
  20
-2.990292
  30
0
  11
94.7
  21
-2.981353
  31
0
  0
LINE
  5
260
  100
AcDbEntity
  8
1
  100
AcDbLine
  10
94.7
  20
-2.981353
  30
0
  11
94.6
  21
-2.969534
  31
0
  0
LINE
  5
261
  100
AcDbEntity
  8
1
  100
AcDbLine
  10
94.6
  20
-2.969534
  30
0
  11
94.5
  21
-2.954845
  31
0
  0
LINE
  5
262
  100
AcDbEntity
  8
1
  100
AcDbLine
  10
94.5
  20
-2.954845
  30
0
  11
94.4
  21
-2.937302
  31
0
  0
LINE
  5
263
  100
AcDbEntity
  8
1
  100
AcDbLine
  10
94.4
  20
-2.937302
  30
0
  11
94.3
  21
-2.916921
  31
0
  0
LINE
  5
264
  100
AcDbEntity
  8
1
  100
AcDbLine
  10
94.3
  20
-2.916921
  30
0
  11
94.2
  21
-2.893722
  31
0
  0
LINE
  5
265
  100
AcDbEntity
  8
1
  100
AcDbLine
  10
94.2
  20
-2.893722
  30
0
  11
94.1
  21
-2.867727
  31
0
  0
LINE
  5
266
  100
AcDbEntity
  8
1
  100
AcDbLine
  10
94.1
  20
-2.867727
  30
0
  11
94
  21
-2.838962
  31
0
  0
LINE
  5
267
  100
AcDbEntity
  8
1
  100
AcDbLine
  10
94
  20
-2.838962
  30
0
  11
93.9
  21
-2.807453
  31
0
  0
LINE
  5
268
  100
AcDbEntity
  8
1
  100
AcDbLine
  10
93.9
  20
-2.807453
  30
0
  11
93.8
  21
-2.773233
  31
0
  0
LINE
  5
269
  100
AcDbEntity
  8
1
  100
AcDbLine
  10
93.8
  20
-2.773233
  30
0
  11
93.7
  21
-2.736333
  31
0
  0
LINE
  5
26a
  100
AcDbEntity
  8
1
  100
AcDbLine
  10
93.7
  20
-2.736333
  30
0
  11
93.6
  21
-2.696789
  31
0
  0
LINE
  5
26b
  100
AcDbEntity
  8
1
  100
AcDbLine
  10
93.6
  20
-2.696789
  30
0
  11
93.5
  21
-2.654641
  31
0
  0
LINE
  5
26c
  100
AcDbEntity
  8
1
  100
AcDbLine
  10
93.5
  20
-2.654641
  30
0
  11
93.4
  21
-2.609927
  31
0
  0
LINE
  5
26d
  100
AcDbEntity
  8
1
  100
AcDbLine
  10
93.4
  20
-2.609927
  30
0
  11
93.3
  21
-2.562692
  31
0
  0
LINE
  5
26e
  100
AcDbEntity
  8
1
  100
AcDbLine
  10
93.3
  20
-2.562692
  30
0
  11
93.2
  21
-2.512981
  31
0
  0
LINE
  5
26f
  100
AcDbEntity
  8
1
  100
AcDbLine
  10
93.2
  20
-2.512981
  30
0
  11
93.1
  21
-2.460842
  31
0
  0
LINE
  5
270
  100
AcDbEntity
  8
1
  100
AcDbLine
  10
93.1
  20
-2.460842
  30
0
  11
93
  21
-2.406325
  31
0
  0
LINE
  5
271
  100
AcDbEntity
  8
1
  100
AcDbLine
  10
93
  20
-2.406325
  30
0
  11
92.9
  21
-2.349484
  31
0
  0
LINE
  5
272
  100
AcDbEntity
  8
1
  100
AcDbLine
  10
92.9
  20
-2.349484
  30
0
  11
92.8
  21
-2.290373
  31
0
  0
LINE
  5
273
  100
AcDbEntity
  8
1
  100
AcDbLine
  10
92.8
  20
-2.290373
  30
0
  11
92.7
  21
-2.229049
  31
0
  0
LINE
  5
274
  100
AcDbEntity
  8
1
  100
AcDbLine
  10
92.7
  20
-2.229049
  30
0
  11
92.6
  21
-2.165572
  31
0
  0
LINE
  5
275
  100
AcDbEntity
  8
1
  100
AcDbLine
  10
92.6
  20
-2.165572
  30
0
  11
92.5
  21
-2.100002
  31
0
  0
LINE
  5
276
  100
AcDbEntity
  8
1
  100
AcDbLine
  10
92.5
  20
-2.100002
  30
0
  11
92.4
  21
-2.032403
  31
0
  0
LINE
  5
277
  100
AcDbEntity
  8
1
  100
AcDbLine
  10
92.4
  20
-2.032403
  30
0
  11
92.3
  21
-1.962841
  31
0
  0
LINE
  5
278
  100
AcDbEntity
  8
1
  100
AcDbLine
  10
92.3
  20
-1.962841
  30
0
  11
92.2
  21
-1.891383
  31
0
  0
LINE
  5
279
  100
AcDbEntity
  8
1
  100
AcDbLine
  10
92.2
  20
-1.891383
  30
0
  11
92.1
  21
-1.818097
  31
0
  0
LINE
  5
27a
  100
AcDbEntity
  8
1
  100
AcDbLine
  10
92.1
  20
-1.818097
  30
0
  11
92
  21
-1.743055
  31
0
  0
LINE
  5
27b
  100
AcDbEntity
  8
1
  100
AcDbLine
  10
92
  20
-1.743055
  30
0
  11
91.9
  21
-1.666328
  31
0
  0
LINE
  5
27c
  100
AcDbEntity
  8
1
  100
AcDbLine
  10
91.9
  20
-1.666328
  30
0
  11
91.8
  21
-1.587992
  31
0
  0
LINE
  5
27d
  100
AcDbEntity
  8
1
  100
AcDbLine
  10
91.8
  20
-1.587992
  30
0
  11
91.7
  21
-1.508122
  31
0
  0
LINE
  5
27e
  100
AcDbEntity
  8
1
  100
AcDbLine
  10
91.7
  20
-1.508122
  30
0
  11
91.6
  21
-1.426794
  31
0
  0
LINE
  5
27f
  100
AcDbEntity
  8
1
  100
AcDbLine
  10
91.6
  20
-1.426794
  30
0
  11
91.5
  21
-1.344088
  31
0
  0
LINE
  5
280
  100
AcDbEntity
  8
1
  100
AcDbLine
  10
91.5
  20
-1.344088
  30
0
  11
91.4
  21
-1.260084
  31
0
  0
LINE
  5
281
  100
AcDbEntity
  8
1
  100
AcDbLine
  10
91.4
  20
-1.260084
  30
0
  11
91.3
  21
-1.174862
  31
0
  0
LINE
  5
282
  100
AcDbEntity
  8
1
  100
AcDbLine
  10
91.3
  20
-1.174862
  30
0
  11
91.2
  21
-1.088505
  31
0
  0
LINE
  5
283
  100
AcDbEntity
  8
1
  100
AcDbLine
  10
91.2
  20
-1.088505
  30
0
  11
91.1
  21
-1.001097
  31
0
  0
LINE
  5
284
  100
AcDbEntity
  8
1
  100
AcDbLine
  10
91.1
  20
-1.001097
  30
0
  11
91
  21
-0.912721
  31
0
  0
LINE
  5
285
  100
AcDbEntity
  8
1
  100
AcDbLine
  10
91
  20
-0.912721
  30
0
  11
90.9
  21
-0.823463
  31
0
  0
LINE
  5
286
  100
AcDbEntity
  8
1
  100
AcDbLine
  10
90.9
  20
-0.823463
  30
0
  11
90.8
  21
-0.73341
  31
0
  0
LINE
  5
287
  100
AcDbEntity
  8
1
  100
AcDbLine
  10
90.8
  20
-0.73341
  30
0
  11
90.7
  21
-0.642649
  31
0
  0
LINE
  5
288
  100
AcDbEntity
  8
1
  100
AcDbLine
  10
90.7
  20
-0.642649
  30
0
  11
90.6
  21
-0.551266
  31
0
  0
LINE
  5
289
  100
AcDbEntity
  8
1
  100
AcDbLine
  10
90.6
  20
-0.551266
  30
0
  11
90.5
  21
-0.459351
  31
0
  0
LINE
  5
28a
  100
AcDbEntity
  8
1
  100
AcDbLine
  10
90.5
  20
-0.459351
  30
0
  11
90.4
  21
-0.366992
  31
0
  0
LINE
  5
28b
  100
AcDbEntity
  8
1
  100
AcDbLine
  10
90.4
  20
-0.366992
  30
0
  11
90.3
  21
-0.274278
  31
0
  0
LINE
  5
28c
  100
AcDbEntity
  8
1
  100
AcDbLine
  10
90.3
  20
-0.274278
  30
0
  11
90.2
  21
-0.1813
  31
0
  0
LINE
  5
28d
  100
AcDbEntity
  8
1
  100
AcDbLine
  10
90.2
  20
-0.1813
  30
0
  11
90.1
  21
-0.088146
  31
0
  0
LINE
  5
28e
  100
AcDbEntity
  8
1
  100
AcDbLine
  10
90.1
  20
-0.088146
  30
0
  11
90
  21
0.005093
  31
0
  0
LINE
  5
28f
  100
AcDbEntity
  8
1
  100
AcDbLine
  10
90
  20
0.005093
  30
0
  11
89.9
  21
0.098327
  31
0
  0
LINE
  5
290
  100
AcDbEntity
  8
1
  100
AcDbLine
  10
89.9
  20
0.098327
  30
0
  11
89.8
  21
0.191465
  31
0
  0
LINE
  5
291
  100
AcDbEntity
  8
1
  100
AcDbLine
  10
89.8
  20
0.191465
  30
0
  11
89.7
  21
0.284419
  31
0
  0
LINE
  5
292
  100
AcDbEntity
  8
1
  100
AcDbLine
  10
89.7
  20
0.284419
  30
0
  11
89.6
  21
0.377099
  31
0
  0
LINE
  5
293
  100
AcDbEntity
  8
1
  100
AcDbLine
  10
89.6
  20
0.377099
  30
0
  11
89.5
  21
0.469413
  31
0
  0
LINE
  5
294
  100
AcDbEntity
  8
1
  100
AcDbLine
  10
89.5
  20
0.469413
  30
0
  11
89.4
  21
0.561275
  31
0
  0
LINE
  5
295
  100
AcDbEntity
  8
1
  100
AcDbLine
  10
89.4
  20
0.561275
  30
0
  11
89.3
  21
0.652594
  31
0
  0
LINE
  5
296
  100
AcDbEntity
  8
1
  100
AcDbLine
  10
89.3
  20
0.652594
  30
0
  11
89.2
  21
0.743282
  31
0
  0
LINE
  5
297
  100
AcDbEntity
  8
1
  100
AcDbLine
  10
89.2
  20
0.743282
  30
0
  11
89.1
  21
0.833253
  31
0
  0
LINE
  5
298
  100
AcDbEntity
  8
1
  100
AcDbLine
  10
89.1
  20
0.833253
  30
0
  11
89
  21
0.922418
  31
0
  0
LINE
  5
299
  100
AcDbEntity
  8
1
  100
AcDbLine
  10
89
  20
0.922418
  30
0
  11
88.9
  21
1.010692
  31
0
  0
LINE
  5
29a
  100
AcDbEntity
  8
1
  100
AcDbLine
  10
88.9
  20
1.010692
  30
0
  11
88.8
  21
1.09799
  31
0
  0
LINE
  5
29b
  100
AcDbEntity
  8
1
  100
AcDbLine
  10
88.8
  20
1.09799
  30
0
  11
88.7
  21
1.184227
  31
0
  0
LINE
  5
29c
  100
AcDbEntity
  8
1
  100
AcDbLine
  10
88.7
  20
1.184227
  30
0
  11
88.6
  21
1.26932
  31
0
  0
LINE
  5
29d
  100
AcDbEntity
  8
1
  100
AcDbLine
  10
88.6
  20
1.26932
  30
0
  11
88.5
  21
1.353187
  31
0
  0
LINE
  5
29e
  100
AcDbEntity
  8
1
  100
AcDbLine
  10
88.5
  20
1.353187
  30
0
  11
88.4
  21
1.435746
  31
0
  0
LINE
  5
29f
  100
AcDbEntity
  8
1
  100
AcDbLine
  10
88.4
  20
1.435746
  30
0
  11
88.3
  21
1.516918
  31
0
  0
LINE
  5
2a0
  100
AcDbEntity
  8
1
  100
AcDbLine
  10
88.3
  20
1.516918
  30
0
  11
88.2
  21
1.596624
  31
0
  0
LINE
  5
2a1
  100
AcDbEntity
  8
1
  100
AcDbLine
  10
88.2
  20
1.596624
  30
0
  11
88.1
  21
1.674788
  31
0
  0
LINE
  5
2a2
  100
AcDbEntity
  8
1
  100
AcDbLine
  10
88.1
  20
1.674788
  30
0
  11
88
  21
1.751334
  31
0
  0
LINE
  5
2a3
  100
AcDbEntity
  8
1
  100
AcDbLine
  10
88
  20
1.751334
  30
0
  11
87.9
  21
1.826188
  31
0
  0
LINE
  5
2a4
  100
AcDbEntity
  8
1
  100
AcDbLine
  10
87.9
  20
1.826188
  30
0
  11
87.8
  21
1.899278
  31
0
  0
LINE
  5
2a5
  100
AcDbEntity
  8
1
  100
AcDbLine
  10
87.8
  20
1.899278
  30
0
  11
87.7
  21
1.970533
  31
0
  0
LINE
  5
2a6
  100
AcDbEntity
  8
1
  100
AcDbLine
  10
87.7
  20
1.970533
  30
0
  11
87.6
  21
2.039883
  31
0
  0
LINE
  5
2a7
  100
AcDbEntity
  8
1
  100
AcDbLine
  10
87.6
  20
2.039883
  30
0
  11
87.5
  21
2.107263
  31
0
  0
LINE
  5
2a8
  100
AcDbEntity
  8
1
  100
AcDbLine
  10
87.5
  20
2.107263
  30
0
  11
87.4
  21
2.172608
  31
0
  0
LINE
  5
2a9
  100
AcDbEntity
  8
1
  100
AcDbLine
  10
87.4
  20
2.172608
  30
0
  11
87.3
  21
2.235853
  31
0
  0
LINE
  5
2aa
  100
AcDbEntity
  8
1
  100
AcDbLine
  10
87.3
  20
2.235853
  30
0
  11
87.2
  21
2.296938
  31
0
  0
LINE
  5
2ab
  100
AcDbEntity
  8
1
  100
AcDbLine
  10
87.2
  20
2.296938
  30
0
  11
87.1
  21
2.355804
  31
0
  0
LINE
  5
2ac
  100
AcDbEntity
  8
1
  100
AcDbLine
  10
87.1
  20
2.355804
  30
0
  11
87
  21
2.412394
  31
0
  0
LINE
  5
2ad
  100
AcDbEntity
  8
1
  100
AcDbLine
  10
87
  20
2.412394
  30
0
  11
86.9
  21
2.466653
  31
0
  0
LINE
  5
2ae
  100
AcDbEntity
  8
1
  100
AcDbLine
  10
86.9
  20
2.466653
  30
0
  11
86.8
  21
2.518529
  31
0
  0
LINE
  5
2af
  100
AcDbEntity
  8
1
  100
AcDbLine
  10
86.8
  20
2.518529
  30
0
  11
86.7
  21
2.567972
  31
0
  0
LINE
  5
2b0
  100
AcDbEntity
  8
1
  100
AcDbLine
  10
86.7
  20
2.567972
  30
0
  11
86.6
  21
2.614934
  31
0
  0
LINE
  5
2b1
  100
AcDbEntity
  8
1
  100
AcDbLine
  10
86.6
  20
2.614934
  30
0
  11
86.5
  21
2.65937
  31
0
  0
LINE
  5
2b2
  100
AcDbEntity
  8
1
  100
AcDbLine
  10
86.5
  20
2.65937
  30
0
  11
86.4
  21
2.701236
  31
0
  0
LINE
  5
2b3
  100
AcDbEntity
  8
1
  100
AcDbLine
  10
86.4
  20
2.701236
  30
0
  11
86.3
  21
2.740493
  31
0
  0
LINE
  5
2b4
  100
AcDbEntity
  8
1
  100
AcDbLine
  10
86.3
  20
2.740493
  30
0
  11
86.2
  21
2.777101
  31
0
  0
LINE
  5
2b5
  100
AcDbEntity
  8
1
  100
AcDbLine
  10
86.2
  20
2.777101
  30
0
  11
86.1
  21
2.811027
  31
0
  0
LINE
  5
2b6
  100
AcDbEntity
  8
1
  100
AcDbLine
  10
86.1
  20
2.811027
  30
0
  11
86
  21
2.842237
  31
0
  0
LINE
  5
2b7
  100
AcDbEntity
  8
1
  100
AcDbLine
  10
86
  20
2.842237
  30
0
  11
85.9
  21
2.870702
  31
0
  0
LINE
  5
2b8
  100
AcDbEntity
  8
1
  100
AcDbLine
  10
85.9
  20
2.870702
  30
0
  11
85.8
  21
2.896392
  31
0
  0
LINE
  5
2b9
  100
AcDbEntity
  8
1
  100
AcDbLine
  10
85.8
  20
2.896392
  30
0
  11
85.7
  21
2.919285
  31
0
  0
LINE
  5
2ba
  100
AcDbEntity
  8
1
  100
AcDbLine
  10
85.7
  20
2.919285
  30
0
  11
85.6
  21
2.939356
  31
0
  0
LINE
  5
2bb
  100
AcDbEntity
  8
1
  100
AcDbLine
  10
85.6
  20
2.939356
  30
0
  11
85.5
  21
2.956589
  31
0
  0
LINE
  5
2bc
  100
AcDbEntity
  8
1
  100
AcDbLine
  10
85.5
  20
2.956589
  30
0
  11
85.4
  21
2.961764
  31
0
  0
LINE
  5
2bd
  100
AcDbEntity
  8
1
  100
AcDbLine
  10
85.4
  20
2.961764
  30
0
  11
85.3
  21
2.943481
  31
0
  0
LINE
  5
2be
  100
AcDbEntity
  8
1
  100
AcDbLine
  10
85.3
  20
2.943481
  30
0
  11
85.2
  21
2.895282
  31
0
  0
LINE
  5
2bf
  100
AcDbEntity
  8
1
  100
AcDbLine
  10
85.2
  20
2.895282
  30
0
  11
85.1
  21
2.799975
  31
0
  0
LINE
  5
2c0
  100
AcDbEntity
  8
1
  100
AcDbLine
  10
85.1
  20
2.799975
  30
0
  11
85.095669
  21
2.794137
  31
0
  0
LINE
  5
2c1
  100
AcDbEntity
  8
1
  100
AcDbLine
  10
88.32099
  20
-3
  30
0
  11
88.3
  21
-2.999936
  31
0
  0
LINE
  5
2c2
  100
AcDbEntity
  8
1
  100
AcDbLine
  10
88.3
  20
-2.999936
  30
0
  11
88.2
  21
-2.997879
  31
0
  0
LINE
  5
2c3
  100
AcDbEntity
  8
1
  100
AcDbLine
  10
88.2
  20
-2.997879
  30
0
  11
88.1
  21
-2.992925
  31
0
  0
LINE
  5
2c4
  100
AcDbEntity
  8
1
  100
AcDbLine
  10
88.1
  20
-2.992925
  30
0
  11
88
  21
-2.98508
  31
0
  0
LINE
  5
2c5
  100
AcDbEntity
  8
1
  100
AcDbLine
  10
88
  20
-2.98508
  30
0
  11
87.9
  21
-2.97435
  31
0
  0
LINE
  5
2c6
  100
AcDbEntity
  8
1
  100
AcDbLine
  10
87.9
  20
-2.97435
  30
0
  11
87.8
  21
-2.960748
  31
0
  0
LINE
  5
2c7
  100
AcDbEntity
  8
1
  100
AcDbLine
  10
87.8
  20
-2.960748
  30
0
  11
87.7
  21
-2.944284
  31
0
  0
LINE
  5
2c8
  100
AcDbEntity
  8
1
  100
AcDbLine
  10
87.7
  20
-2.944284
  30
0
  11
87.6
  21
-2.924976
  31
0
  0
LINE
  5
2c9
  100
AcDbEntity
  8
1
  100
AcDbLine
  10
87.6
  20
-2.924976
  30
0
  11
87.5
  21
-2.902843
  31
0
  0
LINE
  5
2ca
  100
AcDbEntity
  8
1
  100
AcDbLine
  10
87.5
  20
-2.902843
  30
0
  11
87.4
  21
-2.877904
  31
0
  0
LINE
  5
2cb
  100
AcDbEntity
  8
1
  100
AcDbLine
  10
87.4
  20
-2.877904
  30
0
  11
87.3
  21
-2.850185
  31
0
  0
LINE
  5
2cc
  100
AcDbEntity
  8
1
  100
AcDbLine
  10
87.3
  20
-2.850185
  30
0
  11
87.2
  21
-2.819713
  31
0
  0
LINE
  5
2cd
  100
AcDbEntity
  8
1
  100
AcDbLine
  10
87.2
  20
-2.819713
  30
0
  11
87.1
  21
-2.786517
  31
0
  0
LINE
  5
2ce
  100
AcDbEntity
  8
1
  100
AcDbLine
  10
87.1
  20
-2.786517
  30
0
  11
87
  21
-2.750628
  31
0
  0
LINE
  5
2cf
  100
AcDbEntity
  8
1
  100
AcDbLine
  10
87
  20
-2.750628
  30
0
  11
86.9
  21
-2.712082
  31
0
  0
LINE
  5
2d0
  100
AcDbEntity
  8
1
  100
AcDbLine
  10
86.9
  20
-2.712082
  30
0
  11
86.8
  21
-2.670915
  31
0
  0
LINE
  5
2d1
  100
AcDbEntity
  8
1
  100
AcDbLine
  10
86.8
  20
-2.670915
  30
0
  11
86.7
  21
-2.627169
  31
0
  0
LINE
  5
2d2
  100
AcDbEntity
  8
1
  100
AcDbLine
  10
86.7
  20
-2.627169
  30
0
  11
86.6
  21
-2.580884
  31
0
  0
LINE
  5
2d3
  100
AcDbEntity
  8
1
  100
AcDbLine
  10
86.6
  20
-2.580884
  30
0
  11
86.5
  21
-2.532105
  31
0
  0
LINE
  5
2d4
  100
AcDbEntity
  8
1
  100
AcDbLine
  10
86.5
  20
-2.532105
  30
0
  11
86.4
  21
-2.48088
  31
0
  0
LINE
  5
2d5
  100
AcDbEntity
  8
1
  100
AcDbLine
  10
86.4
  20
-2.48088
  30
0
  11
86.3
  21
-2.427259
  31
0
  0
LINE
  5
2d6
  100
AcDbEntity
  8
1
  100
AcDbLine
  10
86.3
  20
-2.427259
  30
0
  11
86.2
  21
-2.371292
  31
0
  0
LINE
  5
2d7
  100
AcDbEntity
  8
1
  100
AcDbLine
  10
86.2
  20
-2.371292
  30
0
  11
86.1
  21
-2.313034
  31
0
  0
LINE
  5
2d8
  100
AcDbEntity
  8
1
  100
AcDbLine
  10
86.1
  20
-2.313034
  30
0
  11
86
  21
-2.252542
  31
0
  0
LINE
  5
2d9
  100
AcDbEntity
  8
1
  100
AcDbLine
  10
86
  20
-2.252542
  30
0
  11
85.9
  21
-2.189874
  31
0
  0
LINE
  5
2da
  100
AcDbEntity
  8
1
  100
AcDbLine
  10
85.9
  20
-2.189874
  30
0
  11
85.8
  21
-2.125089
  31
0
  0
LINE
  5
2db
  100
AcDbEntity
  8
1
  100
AcDbLine
  10
85.8
  20
-2.125089
  30
0
  11
85.7
  21
-2.058252
  31
0
  0
LINE
  5
2dc
  100
AcDbEntity
  8
1
  100
AcDbLine
  10
85.7
  20
-2.058252
  30
0
  11
85.6
  21
-1.989426
  31
0
  0
LINE
  5
2dd
  100
AcDbEntity
  8
1
  100
AcDbLine
  10
85.6
  20
-1.989426
  30
0
  11
85.5
  21
-1.918678
  31
0
  0
LINE
  5
2de
  100
AcDbEntity
  8
1
  100
AcDbLine
  10
85.5
  20
-1.918678
  30
0
  11
85.4
  21
-1.835257
  31
0
  0
LINE
  5
2df
  100
AcDbEntity
  8
1
  100
AcDbLine
  10
85.4
  20
-1.835257
  30
0
  11
85.3
  21
-1.727487
  31
0
  0
LINE
  5
2e0
  100
AcDbEntity
  8
1
  100
AcDbLine
  10
85.3
  20
-1.727487
  30
0
  11
85.2
  21
-1.59084
  31
0
  0
LINE
  5
2e1
  100
AcDbEntity
  8
1
  100
AcDbLine
  10
85.2
  20
-1.59084
  30
0
  11
85.1
  21
-1.41026
  31
0
  0
LINE
  5
2e2
  100
AcDbEntity
  8
1
  100
AcDbLine
  10
85.1
  20
-1.41026
  30
0
  11
85
  21
-1.016212
  31
0
  0
LINE
  5
2e3
  100
AcDbEntity
  8
1
  100
AcDbLine
  10
85
  20
-1.016212
  30
0
  11
85
  21
-0.424824
  31
0
  0
LINE
  5
2e4
  100
AcDbEntity
  8
1
  100
AcDbLine
  10
86.845567
  20
-3
  30
0
  11
86.8
  21
-2.962376
  31
0
  0
LINE
  5
2e5
  100
AcDbEntity
  8
1
  100
AcDbLine
  10
86.8
  20
-2.962376
  30
0
  11
86.7
  21
-2.959641
  31
0
  0
LINE
  5
2e6
  100
AcDbEntity
  8
1
  100
AcDbLine
  10
86.7
  20
-2.959641
  30
0
  11
86.6
  21
-2.954047
  31
0
  0
LINE
  5
2e7
  100
AcDbEntity
  8
1
  100
AcDbLine
  10
86.6
  20
-2.954047
  30
0
  11
86.5
  21
-2.945598
  31
0
  0
LINE
  5
2e8
  100
AcDbEntity
  8
1
  100
AcDbLine
  10
86.5
  20
-2.945598
  30
0
  11
86.4
  21
-2.934304
  31
0
  0
LINE
  5
2e9
  100
AcDbEntity
  8
1
  100
AcDbLine
  10
86.4
  20
-2.934304
  30
0
  11
86.3
  21
-2.920175
  31
0
  0
LINE
  5
2ea
  100
AcDbEntity
  8
1
  100
AcDbLine
  10
86.3
  20
-2.920175
  30
0
  11
86.2
  21
-2.903224
  31
0
  0
LINE
  5
2eb
  100
AcDbEntity
  8
1
  100
AcDbLine
  10
86.2
  20
-2.903224
  30
0
  11
86.1
  21
-2.883469
  31
0
  0
LINE
  5
2ec
  100
AcDbEntity
  8
1
  100
AcDbLine
  10
86.1
  20
-2.883469
  30
0
  11
86
  21
-2.860927
  31
0
  0
LINE
  5
2ed
  100
AcDbEntity
  8
1
  100
AcDbLine
  10
86
  20
-2.860927
  30
0
  11
85.9
  21
-2.835622
  31
0
  0
LINE
  5
2ee
  100
AcDbEntity
  8
1
  100
AcDbLine
  10
85.9
  20
-2.835622
  30
0
  11
85.8
  21
-2.807578
  31
0
  0
LINE
  5
2ef
  100
AcDbEntity
  8
1
  100
AcDbLine
  10
85.8
  20
-2.807578
  30
0
  11
85.7
  21
-2.77682
  31
0
  0
LINE
  5
2f0
  100
AcDbEntity
  8
1
  100
AcDbLine
  10
85.7
  20
-2.77682
  30
0
  11
85.6
  21
-2.74338
  31
0
  0
LINE
  5
2f1
  100
AcDbEntity
  8
1
  100
AcDbLine
  10
85.6
  20
-2.74338
  30
0
  11
85.5
  21
-2.70729
  31
0
  0
LINE
  5
2f2
  100
AcDbEntity
  8
1
  100
AcDbLine
  10
85.5
  20
-2.70729
  30
0
  11
85.4
  21
-2.658483
  31
0
  0
LINE
  5
2f3
  100
AcDbEntity
  8
1
  100
AcDbLine
  10
85.4
  20
-2.658483
  30
0
  11
85.3
  21
-2.585853
  31
0
  0
LINE
  5
2f4
  100
AcDbEntity
  8
1
  100
AcDbLine
  10
85.3
  20
-2.585853
  30
0
  11
85.2
  21
-2.484964
  31
0
  0
LINE
  5
2f5
  100
AcDbEntity
  8
1
  100
AcDbLine
  10
85.2
  20
-2.484964
  30
0
  11
85.1
  21
-2.341813
  31
0
  0
LINE
  5
2f6
  100
AcDbEntity
  8
1
  100
AcDbLine
  10
85.1
  20
-2.341813
  30
0
  11
85
  21
-2.003795
  31
0
  0
LINE
  5
2f7
  100
AcDbEntity
  8
1
  100
AcDbLine
  10
85
  20
-2.003795
  30
0
  11
85
  21
-1.522851
  31
0
  0
LINE
  5
2f8
  100
AcDbEntity
  8
1
  100
AcDbLine
  10
86.524219
  20
-3
  30
0
  11
86.5
  21
-2.999915
  31
0
  0
LINE
  5
2f9
  100
AcDbEntity
  8
1
  100
AcDbLine
  10
86.5
  20
-2.999915
  30
0
  11
86.4
  21
-2.997764
  31
0
  0
LINE
  5
2fa
  100
AcDbEntity
  8
1
  100
AcDbLine
  10
86.4
  20
-2.997764
  30
0
  11
86.3
  21
-2.992717
  31
0
  0
LINE
  5
2fb
  100
AcDbEntity
  8
1
  100
AcDbLine
  10
86.3
  20
-2.992717
  30
0
  11
86.2
  21
-2.984778
  31
0
  0
LINE
  5
2fc
  100
AcDbEntity
  8
1
  100
AcDbLine
  10
86.2
  20
-2.984778
  30
0
  11
86.1
  21
-2.973956
  31
0
  0
LINE
  5
2fd
  100
AcDbEntity
  8
1
  100
AcDbLine
  10
86.1
  20
-2.973956
  30
0
  11
86
  21
-2.960261
  31
0
  0
LINE
  5
2fe
  100
AcDbEntity
  8
1
  100
AcDbLine
  10
86
  20
-2.960261
  30
0
  11
85.9
  21
-2.943705
  31
0
  0
LINE
  5
2ff
  100
AcDbEntity
  8
1
  100
AcDbLine
  10
85.9
  20
-2.943705
  30
0
  11
85.8
  21
-2.924306
  31
0
  0
LINE
  5
300
  100
AcDbEntity
  8
1
  100
AcDbLine
  10
85.8
  20
-2.924306
  30
0
  11
85.7
  21
-2.902081
  31
0
  0
LINE
  5
301
  100
AcDbEntity
  8
1
  100
AcDbLine
  10
85.7
  20
-2.902081
  30
0
  11
85.6
  21
-2.877052
  31
0
  0
LINE
  5
302
  100
AcDbEntity
  8
1
  100
AcDbLine
  10
85.6
  20
-2.877052
  30
0
  11
85.5
  21
-2.849244
  31
0
  0
LINE
  5
303
  100
AcDbEntity
  8
1
  100
AcDbLine
  10
85.5
  20
-2.849244
  30
0
  11
85.4
  21
-2.808706
  31
0
  0
LINE
  5
304
  100
AcDbEntity
  8
1
  100
AcDbLine
  10
85.4
  20
-2.808706
  30
0
  11
85.3
  21
-2.744459
  31
0
  0
LINE
  5
305
  100
AcDbEntity
  8
1
  100
AcDbLine
  10
85.3
  20
-2.744459
  30
0
  11
85.2
  21
-2.652121
  31
0
  0
LINE
  5
306
  100
AcDbEntity
  8
1
  100
AcDbLine
  10
85.2
  20
-2.652121
  30
0
  11
85.1
  21
-2.517896
  31
0
  0
LINE
  5
307
  100
AcDbEntity
  8
1
  100
AcDbLine
  10
85.1
  20
-2.517896
  30
0
  11
85
  21
-2.191612
  31
0
  0
LINE
  5
308
  100
AcDbEntity
  8
1
  100
AcDbLine
  10
85
  20
-2.191612
  30
0
  11
85
  21
-1.718703
  31
0
  0
LINE
  5
309
  100
AcDbEntity
  8
1
  100
AcDbLine
  10
85
  20
-2.5
  30
0
  11
85
  21
2.5
  31
0
  0
LINE
  5
30a
  100
AcDbEntity
  8
1
  100
AcDbLine
  10
85
  20
2
  30
0
  11
85
  21
-2
  31
0
  0
LINE
  5
30b
  100
AcDbEntity
  8
SK1
  100
AcDbLine
  10
28
  20
2
  30
0
  11
0.7
  21
2
  31
0
  0
LINE
  5
30c
  100
AcDbEntity
  8
SK1
  100
AcDbLine
  10
0.7
  20
2
  30
0
  11
0
  21
1.3
  31
0
  0
LINE
  5
30d
  100
AcDbEntity
  8
SK1
  100
AcDbLine
  10
28
  20
-2
  30
0
  11
0.7
  21
-2
  31
0
  0
LINE
  5
30e
  100
AcDbEntity
  8
SK1
  100
AcDbLine
  10
0.7
  20
-2
  30
0
  11
0
  21
-1.3
  31
0
  0
LINE
  5
30f
  100
AcDbEntity
  8
SK1
  100
AcDbLine
  10
0.7
  20
2
  30
0
  11
0.7
  21
-2
  31
0
  0
LINE
  5
310
  100
AcDbEntity
  8
SK1
  100
AcDbLine
  10
0
  20
1.3
  30
0
  11
0
  21
-1.3
  31
0
  0
LINE
  5
311
  100
AcDbEntity
  8
SK1
  100
AcDbLine
  10
29.0401
  20
1.40688
  30
0
  11
29.4069
  21
1.0401
  31
0
  0
LINE
  5
312
  100
AcDbEntity
  8
SK1
  100
AcDbLine
  10
28.5328
  20
1.66666
  30
0
  11
29.6667
  21
0.532833
  31
0
  0
LINE
  5
313
  100
AcDbEntity
  8
SK1
  100
AcDbLine
  10
28.2154
  20
1.73657
  30
0
  11
29.7366
  21
0.215434
  31
0
  0
LINE
  5
314
  100
AcDbEntity
  8
SK1
  100
AcDbLine
  10
28
  20
1.70452
  30
0
  11
29.7045
  21
0
  31
0
  0
LINE
  5
315
  100
AcDbEntity
  8
SK1
  100
AcDbLine
  10
28
  20
1.45703
  30
0
  11
29.457
  21
0
  31
0
  0
LINE
  5
316
  100
AcDbEntity
  8
SK1
  100
AcDbLine
  10
28
  20
1.20954
  30
0
  11
29.2095
  21
0
  31
0
  0
LINE
  5
317
  100
AcDbEntity
  8
SK1
  100
AcDbLine
  10
28
  20
0.962054
  30
0
  11
28.9621
  21
0
  31
0
  0
LINE
  5
318
  100
AcDbEntity
  8
SK1
  100
AcDbLine
  10
28
  20
0.714566
  30
0
  11
28.7146
  21
0
  31
0
  0
LINE
  5
319
  100
AcDbEntity
  8
SK1
  100
AcDbLine
  10
28
  20
0.467079
  30
0
  11
28.4671
  21
0
  31
0
  0
LINE
  5
31a
  100
AcDbEntity
  8
SK1
  100
AcDbLine
  10
28
  20
0.219592
  30
0
  11
28.2196
  21
0
  31
0
  0
LINE
  5
31b
  100
AcDbEntity
  8
SK1
  100
AcDbLine
  10
28
  20
1.70452
  30
0
  11
28.0441
  21
1.74861
  31
0
  0
LINE
  5
31c
  100
AcDbEntity
  8
SK1
  100
AcDbLine
  10
28
  20
1.45703
  30
0
  11
28.271
  21
1.72802
  31
0
  0
LINE
  5
31d
  100
AcDbEntity
  8
SK1
  100
AcDbLine
  10
28
  20
1.20954
  30
0
  11
28.4742
  21
1.6837
  31
0
  0
LINE
  5
31e
  100
AcDbEntity
  8
SK1
  100
AcDbLine
  10
28
  20
0.962054
  30
0
  11
28.6588
  21
1.62082
  31
0
  0
LINE
  5
31f
  100
AcDbEntity
  8
SK1
  100
AcDbLine
  10
28
  20
0.714566
  30
0
  11
28.8271
  21
1.54167
  31
0
  0
LINE
  5
320
  100
AcDbEntity
  8
SK1
  100
AcDbLine
  10
28
  20
0.467079
  30
0
  11
28.981
  21
1.44812
  31
0
  0
LINE
  5
321
  100
AcDbEntity
  8
SK1
  100
AcDbLine
  10
28
  20
0.219592
  30
0
  11
29.1226
  21
1.34216
  31
0
  0
LINE
  5
322
  100
AcDbEntity
  8
SK1
  100
AcDbLine
  10
28.0279
  20
0
  30
0
  11
29.2508
  21
1.22288
  31
0
  0
LINE
  5
323
  100
AcDbEntity
  8
SK1
  100
AcDbLine
  10
28.2754
  20
0
  30
0
  11
29.367
  21
1.09157
  31
0
  0
LINE
  5
324
  100
AcDbEntity
  8
SK1
  100
AcDbLine
  10
28.5229
  20
0
  30
0
  11
29.4707
  21
0.947822
  31
0
  0
LINE
  5
325
  100
AcDbEntity
  8
SK1
  100
AcDbLine
  10
28.7704
  20
0
  30
0
  11
29.5605
  21
0.790145
  31
0
  0
LINE
  5
326
  100
AcDbEntity
  8
SK1
  100
AcDbLine
  10
29.0178
  20
0
  30
0
  11
29.6364
  21
0.618517
  31
0
  0
LINE
  5
327
  100
AcDbEntity
  8
SK1
  100
AcDbLine
  10
29.2653
  20
0
  30
0
  11
29.696
  21
0.430696
  31
0
  0
LINE
  5
328
  100
AcDbEntity
  8
SK1
  100
AcDbLine
  10
29.5128
  20
0
  30
0
  11
29.7356
  21
0.222827
  31
0
  0
LINE
  5
329
  100
AcDbEntity
  8
SK1
  100
AcDbLine
  10
28
  20
0
  30
0
  11
28
  21
1.75
  31
0
  0
LINE
  5
32a
  100
AcDbEntity
  8
SK1
  100
AcDbLine
  10
28
  20
0
  30
0
  11
29.75
  21
0
  31
0
  0
ARC
  5
32b
  100
AcDbEntity
  8
SK1
  100
AcDbCircle
  10
28
  20
0
  30
0
  40
1.75
  100
AcDbArc
  50
0
  51
90
  0
ARC
  5
32c
  100
AcDbEntity
  8
SK1
  100
AcDbCircle
  10
28
  20
0
  30
0
  40
1.75
  100
AcDbArc
  50
90
  51
180
  0
LINE
  5
32d
  100
AcDbEntity
  8
SK1
  100
AcDbLine
  10
27.9721
  20
0
  30
0
  11
28
  21
-0.027896
  31
0
  0
LINE
  5
32e
  100
AcDbEntity
  8
SK1
  100
AcDbLine
  10
27.7246
  20
0
  30
0
  11
28
  21
-0.275383
  31
0
  0
LINE
  5
32f
  100
AcDbEntity
  8
SK1
  100
AcDbLine
  10
27.4771
  20
0
  30
0
  11
28
  21
-0.522871
  31
0
  0
LINE
  5
330
  100
AcDbEntity
  8
SK1
  100
AcDbLine
  10
27.2296
  20
0
  30
0
  11
28
  21
-0.770358
  31
0
  0
LINE
  5
331
  100
AcDbEntity
  8
SK1
  100
AcDbLine
  10
26.9822
  20
0
  30
0
  11
28
  21
-1.01785
  31
0
  0
LINE
  5
332
  100
AcDbEntity
  8
SK1
  100
AcDbLine
  10
26.7347
  20
0
  30
0
  11
28
  21
-1.26533
  31
0
  0
LINE
  5
333
  100
AcDbEntity
  8
SK1
  100
AcDbLine
  10
26.4872
  20
0
  30
0
  11
28
  21
-1.51282
  31
0
  0
LINE
  5
334
  100
AcDbEntity
  8
SK1
  100
AcDbLine
  10
26.2503
  20
-0.010642
  30
0
  11
27.9894
  21
-1.74967
  31
0
  0
LINE
  5
335
  100
AcDbEntity
  8
SK1
  100
AcDbLine
  10
26.2736
  20
-0.281429
  30
0
  11
27.7186
  21
-1.72637
  31
0
  0
LINE
  5
336
  100
AcDbEntity
  8
SK1
  100
AcDbLine
  10
26.3639
  20
-0.619147
  30
0
  11
27.3809
  21
-1.63613
  31
0
  0
LINE
  5
337
  100
AcDbEntity
  8
SK1
  100
AcDbLine
  10
26.2514
  20
-0.044098
  30
0
  11
26.2955
  21
0
  31
0
  0
LINE
  5
338
  100
AcDbEntity
  8
SK1
  100
AcDbLine
  10
26.272
  20
-0.270991
  30
0
  11
26.543
  21
0
  31
0
  0
LINE
  5
339
  100
AcDbEntity
  8
SK1
  100
AcDbLine
  10
26.3163
  20
-0.474162
  30
0
  11
26.7905
  21
0
  31
0
  0
LINE
  5
33a
  100
AcDbEntity
  8
SK1
  100
AcDbLine
  10
26.3792
  20
-0.658762
  30
0
  11
27.0379
  21
0
  31
0
  0
LINE
  5
33b
  100
AcDbEntity
  8
SK1
  100
AcDbLine
  10
26.4583
  20
-0.827105
  30
0
  11
27.2854
  21
0
  31
0
  0
LINE
  5
33c
  100
AcDbEntity
  8
SK1
  100
AcDbLine
  10
26.5519
  20
-0.981039
  30
0
  11
27.5329
  21
0
  31
0
  0
LINE
  5
33d
  100
AcDbEntity
  8
SK1
  100
AcDbLine
  10
26.6578
  20
-1.12257
  30
0
  11
27.7804
  21
0
  31
0
  0
LINE
  5
33e
  100
AcDbEntity
  8
SK1
  100
AcDbLine
  10
26.7771
  20
-1.25077
  30
0
  11
28
  21
-0.027896
  31
0
  0
LINE
  5
33f
  100
AcDbEntity
  8
SK1
  100
AcDbLine
  10
26.9084
  20
-1.36695
  30
0
  11
28
  21
-0.275383
  31
0
  0
LINE
  5
340
  100
AcDbEntity
  8
SK1
  100
AcDbLine
  10
27.0522
  20
-1.47069
  30
0
  11
28
  21
-0.522871
  31
0
  0
LINE
  5
341
  100
AcDbEntity
  8
SK1
  100
AcDbLine
  10
27.2099
  20
-1.5605
  30
0
  11
28
  21
-0.770358
  31
0
  0
LINE
  5
342
  100
AcDbEntity
  8
SK1
  100
AcDbLine
  10
27.3815
  20
-1.63636
  30
0
  11
28
  21
-1.01785
  31
0
  0
LINE
  5
343
  100
AcDbEntity
  8
SK1
  100
AcDbLine
  10
27.5693
  20
-1.69603
  30
0
  11
28
  21
-1.26533
  31
0
  0
LINE
  5
344
  100
AcDbEntity
  8
SK1
  100
AcDbLine
  10
27.7772
  20
-1.73565
  30
0
  11
28
  21
-1.51282
  31
0
  0
LINE
  5
345
  100
AcDbEntity
  8
SK1
  100
AcDbLine
  10
28
  20
0
  30
0
  11
26.25
  21
0
  31
0
  0
LINE
  5
346
  100
AcDbEntity
  8
SK1
  100
AcDbLine
  10
28
  20
-1.75
  30
0
  11
28
  21
0
  31
0
  0
ARC
  5
347
  100
AcDbEntity
  8
SK1
  100
AcDbCircle
  10
28
  20
0
  30
0
  40
1.75
  100
AcDbArc
  50
180
  51
270
  0
ARC
  5
348
  100
AcDbEntity
  8
SK1
  100
AcDbCircle
  10
28
  20
0
  30
0
  40
1.75
  100
AcDbArc
  50
270
  51
0
  0
LINE
  5
3b1
  100
AcDbEntity
  8
NOCUT
  100
AcDbLine
  10
85
  20
0
  30
0
  11
85
  21
2
  31
0
  0
LINE
  5
3b2
  100
AcDbEntity
  8
NOCUT
  100
AcDbLine
  10
85
  20
2
  30
0
  11
28
  21
2
  31
0
  0
LINE
  5
3b3
  100
AcDbEntity
  8
NOCUT
  100
AcDbLine
  10
28
  20
2
  30
0
  11
28
  21
0
  31
0
  0
LINE
  5
3b4
  100
AcDbEntity
  8
NOCUT
  100
AcDbLine
  10
28
  20
0
  30
0
  11
85
  21
0
  31
0
  0
LINE
  5
3b5
  100
AcDbEntity
  8
CUT
  100
AcDbLine
  10
100
  20
0
  30
0
  11
100
  21
2.8
  31
0
  0
ARC
  5
3b6
  100
AcDbEntity
  8
CUT
  100
AcDbCircle
  10
99.8
  20
2.8
  30
0
  40
0.2
  100
AcDbArc
  50
0
  51
90
  0
LINE
  5
3b7
  100
AcDbEntity
  8
CUT
  100
AcDbLine
  10
99.8
  20
3
  30
0
  11
85.5
  21
3
  31
0
  0
ARC
  5
3b8
  100
AcDbEntity
  8
CUT
  100
AcDbCircle
  10
85.5
  20
2.5
  30
0
  40
0.5
  100
AcDbArc
  50
90
  51
180
  0
LINE
  5
3b9
  100
AcDbEntity
  8
CUT
  100
AcDbLine
  10
85
  20
2.5
  30
0
  11
85
  21
0
  31
0
  0
LINE
  5
3ba
  100
AcDbEntity
  8
CUT
  100
AcDbLine
  10
85
  20
0
  30
0
  11
100
  21
0
  31
0
  0
LINE
  5
3bb
  100
AcDbEntity
  8
4
  100
AcDbLine
  10
28
  20
0
  30
0
  11
100
  21
0
  31
0
  0
LINE
  5
3bc
  100
AcDbEntity
  8
SK4
  100
AcDbLine
  10
-1
  20
0
  30
0
  11
101
  21
0
  31
0
  0
LINE
  5
3bd
  100
AcDbEntity
  8
INFTOTAL
  100
AcDbLine
  10
-18.2
  20
41.2
  30
0
  11
118.2
  21
41.2
  31
0
  0
LINE
  5
3be
  100
AcDbEntity
  8
INFTOTAL
  100
AcDbLine
  10
118.2
  20
41.2
  30
0
  11
118.2
  21
-31.2
  31
0
  0
LINE
  5
3bf
  100
AcDbEntity
  8
INFTOTAL
  100
AcDbLine
  10
118.2
  20
-31.2
  30
0
  11
-18.2
  21
-31.2
  31
0
  0
LINE
  5
3c0
  100
AcDbEntity
  8
INFTOTAL
  100
AcDbLine
  10
-18.2
  20
-31.2
  30
0
  11
-18.2
  21
41.2
  31
0
  0
ENDSEC
  0
SECTION
  2
OBJECTS
  0
DICTIONARY
  5
3c1
  330
0
100
AcDbDictionary
281
    1
  3
ACAD_GROUP
  350
3c2
  0
DICTIONARY
  5
3c2
102
{ACAD_REACTORS
  330
3c1
102
}
  330
3c1
100
AcDbDictionary
281
    1
  0
ENDSEC
  0
EOF
