  0
SECTION
  2
HEADER
  9
$ACADVER
  1
AC1015
  9
$DWGCODEPAGE
  3
ANSI_932
  9
$HANDSEED
  5
106AB90
  0
ENDSEC
  0
SECTION
  2
CLASSES
  0
CLASS
  1
IMAGEDEF
  2
AcDbRasterImageDef
  3
ISM
  90
0
  91
4
  280
0
  281
0
  0
CLASS
  1
IMAGE
  2
AcDbRasterImage
  3
ISM
  90
127
  91
5
  280
0
  281
1
  0
CLASS
  1
IMAGEDEF_REACTOR
  2
AcDbRasterImageDefReactor
  3
ISM
  90
1
  91
4
  280
0
  281
0
  0
ENDSEC
  0
SECTION
  2
TABLES
  0
TABLE
  2
VPORT
  5
2
  330
0
  100
AcDbSymbolTable
  70
    0
  0
ENDTAB
  0
TABLE
  2
LTYPE
  5
3
  330
0
  100
AcDbSymbolTable
  70
    4
  0
LTYPE
  5
4
  330
3
  100
AcDbSymbolTableRecord
  100
AcDbLinetypeTableRecord
  2
ByBlock
  70
    0
  3

  72
65
  73
    0
  40
0
  0
LTYPE
  5
5
  330
3
  100
AcDbSymbolTableRecord
  100
AcDbLinetypeTableRecord
  2
ByLayer
  70
    0
  3

  72
65
  73
    0
  40
0
  0
LTYPE
  5
6
  330
3
  100
AcDbSymbolTableRecord
  100
AcDbLinetypeTableRecord
  2
CONTINUOUS
  70
    0
  3
Solid Line
  72
65
  73
    0
  40
0
  0
LTYPE
  5
7
  330
3
  100
AcDbSymbolTableRecord
  100
AcDbLinetypeTableRecord
  2
DASH
  70
    0
  3
Hidden
  72
65
  73
2
  40
2.5
  49
1.5
  74
0
  49
-1
  74
0
  0
LTYPE
  5
8
  330
3
  100
AcDbSymbolTableRecord
  100
AcDbLinetypeTableRecord
  2
LONGDASHDASH
  70
    0
  3
__ . __
  72
65
  73
    4
  40
7
  49
4
  74
    0
  49
-1
  74
    0
  49
1
  74
    0
  49
-1
  74
    0
  0
ENDTAB
  0
TABLE
  2
LAYER
  5
9
  330
0
  100
AcDbSymbolTable
  70
    40
  0
LAYER
  5
a
  330
9
  100
AcDbSymbolTableRecord
  100
AcDbLayerTableRecord
  2
0
  70
    0
  62
    0
  6
CONTINUOUS
  390
0
  0
LAYER
  5
c
  330
9
  100
AcDbSymbolTableRecord
  100
AcDbLayerTableRecord
  2
1
  70
    0
  62
    4
  6
CONTINUOUS
  370
50
  390
0
  0
LAYER
  5
d
  330
9
  100
AcDbSymbolTableRecord
  100
AcDbLayerTableRecord
  2
2
  70
    0
  62
    7
  6
CONTINUOUS
  370
25
  390
0
  0
LAYER
  5
f
  330
9
  100
AcDbSymbolTableRecord
  100
AcDbLayerTableRecord
  2
4
  70
    0
  62
    2
  6
LONGDASHDASH
  370
25
  390
0
  0
LAYER
  5
13
  330
9
  100
AcDbSymbolTableRecord
  100
AcDbLayerTableRecord
  2
SK1
  70
    0
  62
    4
  6
CONTINUOUS
  370
50
  390
0
  0
LAYER
  5
14
  330
9
  100
AcDbSymbolTableRecord
  100
AcDbLayerTableRecord
  2
SK2
  70
    0
  62
    7
  6
CONTINUOUS
  370
25
  390
0
  0
LAYER
  5
16
  330
9
  100
AcDbSymbolTableRecord
  100
AcDbLayerTableRecord
  2
SK4
  70
    0
  62
    2
  6
LONGDASHDASH
  370
25
  390
0
  0
LAYER
  5
21
  330
9
  100
AcDbSymbolTableRecord
  100
AcDbLayerTableRecord
  2
NOCUT
  70
    0
  62
    7
  6
CONTINUOUS
  370
25
  390
0
  0
LAYER
  5
22
  330
9
  100
AcDbSymbolTableRecord
  100
AcDbLayerTableRecord
  2
CUT
  70
    0
  62
    1
  6
CONTINUOUS
  370
25
  390
0
  0
LAYER
  5
26
  330
9
  100
AcDbSymbolTableRecord
  100
AcDbLayerTableRecord
  2
INFTOTAL
  70
    0
  62
    9
  6
CONTINUOUS
  370
18
  390
0
  0
ENDTAB
  0
TABLE
  2
STYLE
  5
27
  330
0
  100
AcDbSymbolTable
  70
    1
  0
STYLE
  5
28
  330
27
  100
AcDbSymbolTableRecord
  100
AcDbTextStyleTableRecord
  2
Monospac821 BT
  70
    0
  40
    3.5
  41
1
  50
0
  71
0
  42
3
  3

  4

  1001
ACAD
  1000
Monospac821 BT
  1071
256
  0
ENDTAB
  0
TABLE
  2
VIEW
  5
29
  330
0
  100
AcDbSymbolTable
  70
    0
  0
ENDTAB
  0
TABLE
  2
UCS
  5
2a
  330
0
  100
AcDbSymbolTable
  70
    0
  0
ENDTAB
  0
TABLE
  2
APPID
  5
2b
  330
0
  100
AcDbSymbolTable
  70
    1
  0
APPID
  5
2c
  330
2b
  100
AcDbSymbolTableRecord
  100
AcDbRegAppTableRecord
  2
ACAD
  70
    0
  0
ENDTAB
  0
TABLE
  2
DIMSTYLE
  5
2d
  330
0
  100
AcDbSymbolTable
  70
    1
  100
AcDbDimStyleTable
  0
DIMSTYLE
  105
2e
  330
2d
  100
AcDbSymbolTableRecord
  100
AcDbDimStyleTableRecord
  2
STANDARD
  70
    0
  41
    3
  42
0.5
  44
1
  73
0
  77
1
  78
1
  140
3.5
  141
2.5
  143
0.03937
  147
0.8
  172
1
  174
1
  178
0
  179
1
  271
2
  279
1
  284
1
  340
28
  0
ENDTAB
  0
TABLE
  2
BLOCK_RECORD
  5
2f
  330
0
  100
AcDbSymbolTable
  70
    2
  0
BLOCK_RECORD
  5
30
  330
2f
  100
AcDbSymbolTableRecord
  100
AcDbBlockTableRecord
  2
*Model_Space
  0
BLOCK_RECORD
  5
31
  330
2f
  100
AcDbSymbolTableRecord
  100
AcDbBlockTableRecord
  2
*Paper_Space
  0
BLOCK_RECORD
  5
410
  330
2f
  100
AcDbSymbolTableRecord
  100
AcDbBlockTableRecord
  2
*D40f
  340
0
  0
BLOCK_RECORD
  5
41e
  330
2f
  100
AcDbSymbolTableRecord
  100
AcDbBlockTableRecord
  2
*D41d
  340
0
  0
BLOCK_RECORD
  5
42c
  330
2f
  100
AcDbSymbolTableRecord
  100
AcDbBlockTableRecord
  2
*D42b
  340
0
  0
BLOCK_RECORD
  5
43a
  330
2f
  100
AcDbSymbolTableRecord
  100
AcDbBlockTableRecord
  2
*D439
  340
0
  0
BLOCK_RECORD
  5
448
  330
2f
  100
AcDbSymbolTableRecord
  100
AcDbBlockTableRecord
  2
*D447
  340
0
  0
BLOCK_RECORD
  5
452
  330
2f
  100
AcDbSymbolTableRecord
  100
AcDbBlockTableRecord
  2
*D451
  340
0
  0
BLOCK_RECORD
  5
460
  330
2f
  100
AcDbSymbolTableRecord
  100
AcDbBlockTableRecord
  2
*D45f
  340
0
  0
ENDTAB
  0
ENDSEC
  0
SECTION
  2
BLOCKS
  0
BLOCK
  5
32
  330
30
  100
AcDbEntity
  8
0
  100
AcDbBlockBegin
  2
*Model_Space
  70
    0
  10
0
  20
0
  30
0
  3
*Model_Space
  1

  0
ENDBLK
  5
33
  330
30
  100
AcDbEntity
  8
0
  100
AcDbBlockEnd
  0
BLOCK
  5
34
  330
31
  100
AcDbEntity
  8
0
  100
AcDbBlockBegin
  2
*Paper_Space
  70
    0
  10
0
  20
0
  30
0
  3
*Paper_Space
  1

  0
ENDBLK
  5
35
  330
31
  100
AcDbEntity
  8
0
  100
AcDbBlockEnd
  0
BLOCK
  5
40e
  330
410
  100
AcDbEntity
  8
SK2
  100
AcDbBlockBegin
  2
*D40f
  70
1
  10
0
  20
0
  30
0
  3
*D40f
  1

  0
LINE
  5
411
  330
410
  100
AcDbEntity
  8
SK2
  100
AcDbLine
  10
0
  20
2.3
  30
0
  11
0
  21
30
  31
0
  0
LINE
  5
412
  330
410
  100
AcDbEntity
  8
SK2
  100
AcDbLine
  10
60
  20
-30
  30
0
  11
60
  21
30
  31
0
  0
LINE
  5
413
  330
410
  100
AcDbEntity
  8
SK2
  100
AcDbLine
  10
0
  20
28
  30
0
  11
60
  21
28
  31
0
  0
SOLID
  5
414
  330
410
  100
AcDbEntity
  8
SK2
  100
AcDbTrace
  10
0
  20
28
  30
0
  11
2.478612
  21
28.326315
  31
0
  12
2.478612
  22
27.673685
  32
0
  13
2.478612
  23
27.673685
  33
0
  0
SOLID
  5
415
  330
410
  100
AcDbEntity
  8
SK2
  100
AcDbTrace
  10
60
  20
28
  30
0
  11
57.521388
  21
27.673685
  31
0
  12
57.521388
  22
28.326315
  32
0
  13
57.521388
  23
28.326315
  33
0
  0
MTEXT
  5
416
  330
410
  100
AcDbEntity
  8
SK2
  100
AcDbMText
  10
29.979251
  20
28
  30
0
  11
1
  21
0
  31
0
  40
2
  41
0
  71
8
  72
1
  1
60
  0
POINT
  5
417
  330
410
  100
AcDbEntity
  8
SK2
  62
0
  100
AcDbPoint
  10
0
  20
2.3
  30
0
  0
POINT
  5
418
  330
410
  100
AcDbEntity
  8
SK2
  62
0
  100
AcDbPoint
  10
60
  20
-30
  30
0
  0
POINT
  5
419
  330
410
  100
AcDbEntity
  8
SK2
  62
0
  100
AcDbPoint
  10
60
  20
28
  30
0
  0
ENDBLK
  5
41a
  330
410
  100
AcDbEntity
  8
SK2
  100
AcDbBlockEnd
  0
BLOCK
  5
41c
  330
41e
  100
AcDbEntity
  8
SK2
  100
AcDbBlockBegin
  2
*D41d
  70
1
  10
0
  20
0
  30
0
  3
*D41d
  1

  0
LINE
  5
41f
  330
41e
  100
AcDbEntity
  8
SK2
  100
AcDbLine
  10
39
  20
3
  30
0
  11
39
  21
20
  31
0
  0
LINE
  5
420
  330
41e
  100
AcDbEntity
  8
SK2
  100
AcDbLine
  10
0
  20
2.3
  30
0
  11
0
  21
30
  31
0
  0
LINE
  5
421
  330
41e
  100
AcDbEntity
  8
SK2
  100
AcDbLine
  10
39
  20
18
  30
0
  11
0
  21
18
  31
0
  0
SOLID
  5
422
  330
41e
  100
AcDbEntity
  8
SK2
  100
AcDbTrace
  10
39
  20
18
  30
0
  11
41.478612
  21
18.326315
  31
0
  12
41.478612
  22
17.673685
  32
0
  13
41.478612
  23
17.673685
  33
0
  0
SOLID
  5
423
  330
41e
  100
AcDbEntity
  8
SK2
  100
AcDbTrace
  10
0
  20
18
  30
0
  11
-2.478612
  21
17.673685
  31
0
  12
-2.478612
  22
18.326315
  32
0
  13
-2.478612
  23
18.326315
  33
0
  0
MTEXT
  5
424
  330
41e
  100
AcDbEntity
  8
SK2
  100
AcDbMText
  10
19.670057
  20
18
  30
0
  11
1
  21
-0
  31
0
  40
2
  41
0
  71
8
  72
1
  1
39
  0
POINT
  5
425
  330
41e
  100
AcDbEntity
  8
SK2
  62
0
  100
AcDbPoint
  10
39
  20
3
  30
0
  0
POINT
  5
426
  330
41e
  100
AcDbEntity
  8
SK2
  62
0
  100
AcDbPoint
  10
0
  20
2.3
  30
0
  0
POINT
  5
427
  330
41e
  100
AcDbEntity
  8
SK2
  62
0
  100
AcDbPoint
  10
0
  20
18
  30
0
  0
ENDBLK
  5
428
  330
41e
  100
AcDbEntity
  8
SK2
  100
AcDbBlockEnd
  0
BLOCK
  5
42a
  330
42c
  100
AcDbEntity
  8
SK2
  100
AcDbBlockBegin
  2
*D42b
  70
1
  10
0
  20
0
  30
0
  3
*D42b
  1

  0
LINE
  5
42d
  330
42c
  100
AcDbEntity
  8
SK2
  100
AcDbLine
  10
0.7
  20
-3
  30
0
  11
-12
  21
-3
  31
0
  0
LINE
  5
42e
  330
42c
  100
AcDbEntity
  8
SK2
  100
AcDbLine
  10
0.7
  20
3
  30
0
  11
-12
  21
3
  31
0
  0
LINE
  5
42f
  330
42c
  100
AcDbEntity
  8
SK2
  100
AcDbLine
  10
-10
  20
-3
  30
0
  11
-10
  21
3
  31
0
  0
SOLID
  5
430
  330
42c
  100
AcDbEntity
  8
SK2
  100
AcDbTrace
  10
-10
  20
-3
  30
0
  11
-10.326315
  21
-0.521388
  31
0
  12
-9.673685
  22
-0.521388
  32
0
  13
-9.673685
  23
-0.521388
  33
0
  0
SOLID
  5
431
  330
42c
  100
AcDbEntity
  8
SK2
  100
AcDbTrace
  10
-10
  20
3
  30
0
  11
-9.673685
  21
0.521388
  31
0
  12
-10.326315
  22
0.521388
  32
0
  13
-10.326315
  23
0.521388
  33
0
  0
MTEXT
  5
432
  330
42c
  100
AcDbEntity
  8
SK2
  100
AcDbMText
  10
-10
  20
0
  30
0
  11
0
  21
1
  31
0
  40
2
  41
0
  71
8
  72
1
  1
Ø6
  0
POINT
  5
433
  330
42c
  100
AcDbEntity
  8
SK2
  62
0
  100
AcDbPoint
  10
0.7
  20
-3
  30
0
  0
POINT
  5
434
  330
42c
  100
AcDbEntity
  8
SK2
  62
0
  100
AcDbPoint
  10
0.7
  20
3
  30
0
  0
POINT
  5
435
  330
42c
  100
AcDbEntity
  8
SK2
  62
0
  100
AcDbPoint
  10
-10
  20
3
  30
0
  0
ENDBLK
  5
436
  330
42c
  100
AcDbEntity
  8
SK2
  100
AcDbBlockEnd
  0
BLOCK
  5
438
  330
43a
  100
AcDbEntity
  8
2
  100
AcDbBlockBegin
  2
*D439
  70
1
  10
0
  20
0
  30
0
  3
*D439
  1

  0
LINE
  5
43b
  330
43a
  100
AcDbEntity
  8
2
  100
AcDbLine
  10
59
  20
-3
  30
0
  11
72
  21
-3
  31
0
  0
LINE
  5
43c
  330
43a
  100
AcDbEntity
  8
2
  100
AcDbLine
  10
59
  20
3
  30
0
  11
72
  21
3
  31
0
  0
LINE
  5
43d
  330
43a
  100
AcDbEntity
  8
2
  100
AcDbLine
  10
70
  20
-3
  30
0
  11
70
  21
3
  31
0
  0
SOLID
  5
43e
  330
43a
  100
AcDbEntity
  8
2
  100
AcDbTrace
  10
70
  20
-3
  30
0
  11
69.673685
  21
-0.521388
  31
0
  12
70.326315
  22
-0.521388
  32
0
  13
70.326315
  23
-0.521388
  33
0
  0
SOLID
  5
43f
  330
43a
  100
AcDbEntity
  8
2
  100
AcDbTrace
  10
70
  20
3
  30
0
  11
70.326315
  21
0.521388
  31
0
  12
69.673685
  22
0.521388
  32
0
  13
69.673685
  23
0.521388
  33
0
  0
MTEXT
  5
440
  330
43a
  100
AcDbEntity
  8
2
  100
AcDbMText
  10
70
  20
0
  30
0
  11
0
  21
1
  31
0
  40
2
  41
0
  71
8
  72
1
  1
Ø6
  0
POINT
  5
441
  330
43a
  100
AcDbEntity
  8
2
  62
0
  100
AcDbPoint
  10
59
  20
-3
  30
0
  0
POINT
  5
442
  330
43a
  100
AcDbEntity
  8
2
  62
0
  100
AcDbPoint
  10
59
  20
3
  30
0
  0
POINT
  5
443
  330
43a
  100
AcDbEntity
  8
2
  62
0
  100
AcDbPoint
  10
70
  20
3
  30
0
  0
ENDBLK
  5
444
  330
43a
  100
AcDbEntity
  8
2
  100
AcDbBlockEnd
  0
BLOCK
  5
446
  330
448
  100
AcDbEntity
  8
2
  100
AcDbBlockBegin
  2
*D447
  70
1
  10
0
  20
0
  30
0
  3
*D447
  1

  0
LINE
  5
449
  330
448
  100
AcDbEntity
  8
2
  100
AcDbLine
  10
57.800921
  20
0.800921
  30
0
  11
66.778175
  21
9.778175
  31
0
  0
MTEXT
  5
44a
  330
448
  100
AcDbEntity
  8
2
  100
AcDbMText
  10
59.707107
  20
2.707107
  30
0
  11
0.707107
  21
0.707107
  31
0
  40
2
  41
0
  71
8
  72
1
  1
R1
  0
SOLID
  5
44b
  330
448
  100
AcDbEntity
  8
2
  100
AcDbTrace
  10
59.707107
  20
2.707107
  30
0
  11
61.22901
  21
4.69049
  31
0
  12
61.69049
  22
4.22901
  32
0
  13
61.69049
  23
4.22901
  33
0
  0
POINT
  5
44c
  330
448
  100
AcDbEntity
  8
2
  62
0
  100
AcDbPoint
  10
57.800921
  20
0.800921
  30
0
  0
POINT
  5
44d
  330
448
  100
AcDbEntity
  8
2
  62
0
  100
AcDbPoint
  10
59
  20
2
  30
0
  0
ENDBLK
  5
44e
  330
448
  100
AcDbEntity
  8
2
  100
AcDbBlockEnd
  0
BLOCK
  5
450
  330
452
  100
AcDbEntity
  8
2
  100
AcDbBlockBegin
  2
*D451
  70
1
  10
0
  20
0
  30
0
  3
*D451
  1

  0
LINE
  5
453
  330
452
  100
AcDbEntity
  8
2
  100
AcDbLine
  10
45
  20
-3
  30
0
  11
45
  21
-20
  31
0
  0
LINE
  5
454
  330
452
  100
AcDbEntity
  8
2
  100
AcDbLine
  10
60
  20
-30
  30
0
  11
60
  21
30
  31
0
  0
LINE
  5
455
  330
452
  100
AcDbEntity
  8
2
  100
AcDbLine
  10
45
  20
-18
  30
0
  11
60
  21
-18
  31
0
  0
SOLID
  5
456
  330
452
  100
AcDbEntity
  8
2
  100
AcDbTrace
  10
45
  20
-18
  30
0
  11
47.478612
  21
-17.673685
  31
0
  12
47.478612
  22
-18.326315
  32
0
  13
47.478612
  23
-18.326315
  33
0
  0
SOLID
  5
457
  330
452
  100
AcDbEntity
  8
2
  100
AcDbTrace
  10
60
  20
-18
  30
0
  11
57.521388
  21
-18.326315
  31
0
  12
57.521388
  22
-17.673685
  32
0
  13
57.521388
  23
-17.673685
  33
0
  0
MTEXT
  5
458
  330
452
  100
AcDbEntity
  8
2
  100
AcDbMText
  10
52.591131
  20
-18
  30
0
  11
1
  21
0
  31
0
  40
2
  41
0
  71
8
  72
1
  1
15
  0
POINT
  5
459
  330
452
  100
AcDbEntity
  8
2
  62
0
  100
AcDbPoint
  10
45
  20
-3
  30
0
  0
POINT
  5
45a
  330
452
  100
AcDbEntity
  8
2
  62
0
  100
AcDbPoint
  10
60
  20
30
  30
0
  0
POINT
  5
45b
  330
452
  100
AcDbEntity
  8
2
  62
0
  100
AcDbPoint
  10
60
  20
-18
  30
0
  0
ENDBLK
  5
45c
  330
452
  100
AcDbEntity
  8
2
  100
AcDbBlockEnd
  0
BLOCK
  5
45e
  330
460
  100
AcDbEntity
  8
2
  100
AcDbBlockBegin
  2
*D45f
  70
1
  10
0
  20
0
  30
0
  3
*D45f
  1

  0
LINE
  5
461
  330
460
  100
AcDbEntity
  8
2
  100
AcDbLine
  10
39
  20
-3
  30
0
  11
39
  21
-30
  31
0
  0
LINE
  5
462
  330
460
  100
AcDbEntity
  8
2
  100
AcDbLine
  10
60
  20
-30
  30
0
  11
60
  21
30
  31
0
  0
LINE
  5
463
  330
460
  100
AcDbEntity
  8
2
  100
AcDbLine
  10
39
  20
-28
  30
0
  11
60
  21
-28
  31
0
  0
SOLID
  5
464
  330
460
  100
AcDbEntity
  8
2
  100
AcDbTrace
  10
39
  20
-28
  30
0
  11
41.478612
  21
-27.673685
  31
0
  12
41.478612
  22
-28.326315
  32
0
  13
41.478612
  23
-28.326315
  33
0
  0
SOLID
  5
465
  330
460
  100
AcDbEntity
  8
2
  100
AcDbTrace
  10
60
  20
-28
  30
0
  11
57.521388
  21
-28.326315
  31
0
  12
57.521388
  22
-27.673685
  32
0
  13
57.521388
  23
-27.673685
  33
0
  0
MTEXT
  5
466
  330
460
  100
AcDbEntity
  8
2
  100
AcDbMText
  10
49.458503
  20
-28
  30
0
  11
1
  21
0
  31
0
  40
2
  41
0
  71
8
  72
1
  1
21
  0
POINT
  5
467
  330
460
  100
AcDbEntity
  8
2
  62
0
  100
AcDbPoint
  10
39
  20
-3
  30
0
  0
POINT
  5
468
  330
460
  100
AcDbEntity
  8
2
  62
0
  100
AcDbPoint
  10
60
  20
30
  30
0
  0
POINT
  5
469
  330
460
  100
AcDbEntity
  8
2
  62
0
  100
AcDbPoint
  10
60
  20
-28
  30
0
  0
ENDBLK
  5
46a
  330
460
  100
AcDbEntity
  8
2
  100
AcDbBlockEnd
  0
ENDSEC
  0
SECTION
  2
ENTITIES
  0
DIMENSION
  5
41b
  100
AcDbEntity
  8
SK2
  100
AcDbDimension
  2
*D40f
  10
60
  20
28
  30
0
  11
29.979251
  21
28
  31
0
  70
160
  1
<>
  71
5
  3
STANDARD
  42
60
  100
AcDbAlignedDimension
  13
0
  23
2.3
  33
0
  14
60
  24
-30
  34
0
  50
0
  100
AcDbRotatedDimension
  0
DIMENSION
  5
429
  100
AcDbEntity
  8
SK2
  100
AcDbDimension
  2
*D41d
  10
0
  20
18
  30
0
  11
19.670057
  21
18
  31
0
  70
160
  1
<>
  71
5
  3
STANDARD
  42
39
  100
AcDbAlignedDimension
  13
39
  23
3
  33
0
  14
0
  24
2.3
  34
0
  50
0
  100
AcDbRotatedDimension
  0
DIMENSION
  5
437
  100
AcDbEntity
  8
SK2
  100
AcDbDimension
  2
*D42b
  10
-10
  20
3
  30
0
  11
-10
  21
0
  31
0
  70
160
  1
%%c<>
  71
5
  3
STANDARD
  42
6
  100
AcDbAlignedDimension
  13
0.7
  23
-3
  33
0
  14
0.7
  24
3
  34
0
  50
-90
  100
AcDbRotatedDimension
  0
DIMENSION
  5
445
  100
AcDbEntity
  8
2
  100
AcDbDimension
  2
*D439
  10
70
  20
3
  30
0
  11
70
  21
0
  31
0
  70
160
  1
%%c<>
  71
5
  3
STANDARD
  42
6
  100
AcDbAlignedDimension
  13
59
  23
-3
  33
0
  14
59
  24
3
  34
0
  50
-90
  100
AcDbRotatedDimension
  0
DIMENSION
  5
44f
  100
AcDbEntity
  8
2
  100
AcDbDimension
  2
*D447
  10
59
  20
2
  30
0
  11
59.707107
  21
2.707107
  31
0
  70
164
  1
R1
  71
5
  3
STANDARD
  100
AcDbRadialDimension
  15
59.707107
  25
2.707107
  35
0
  50
45
  0
DIMENSION
  5
45d
  100
AcDbEntity
  8
2
  100
AcDbDimension
  2
*D451
  10
60
  20
-18
  30
0
  11
52.591131
  21
-18
  31
0
  70
160
  1
<>
  71
5
  3
STANDARD
  42
15
  100
AcDbAlignedDimension
  13
45
  23
-3
  33
0
  14
60
  24
30
  34
0
  50
0
  100
AcDbRotatedDimension
  0
DIMENSION
  5
46b
  100
AcDbEntity
  8
2
  100
AcDbDimension
  2
*D45f
  10
60
  20
-28
  30
0
  11
49.458503
  21
-28
  31
0
  70
160
  1
<>
  71
5
  3
STANDARD
  42
21
  100
AcDbAlignedDimension
  13
39
  23
-3
  33
0
  14
60
  24
30
  34
0
  50
0
  100
AcDbRotatedDimension
  0
LINE
  5
36
  100
AcDbEntity
  8
1
  100
AcDbLine
  10
60
  20
0
  30
0
  11
60
  21
2
  31
0
  0
ARC
  5
37
  100
AcDbEntity
  8
1
  100
AcDbCircle
  10
59
  20
2
  30
0
  40
1
  100
AcDbArc
  50
0
  51
90
  0
LINE
  5
38
  100
AcDbEntity
  8
1
  100
AcDbLine
  10
59
  20
3
  30
0
  11
39
  21
3
  31
0
  0
LINE
  5
39
  100
AcDbEntity
  8
1
  100
AcDbLine
  10
39
  20
3
  30
0
  11
39
  21
-3
  31
0
  0
LINE
  5
3a
  100
AcDbEntity
  8
1
  100
AcDbLine
  10
39
  20
-3
  30
0
  11
59
  21
-3
  31
0
  0
ARC
  5
3b
  100
AcDbEntity
  8
1
  100
AcDbCircle
  10
59
  20
-2
  30
0
  40
1
  100
AcDbArc
  50
270
  51
0
  0
LINE
  5
3c
  100
AcDbEntity
  8
1
  100
AcDbLine
  10
60
  20
-2
  30
0
  11
60
  21
0
  31
0
  0
LINE
  5
3d
  100
AcDbEntity
  8
1
  100
AcDbLine
  10
59
  20
3
  30
0
  11
59
  21
-3
  31
0
  0
LINE
  5
3e
  100
AcDbEntity
  8
1
  100
AcDbLine
  10
59
  20
-3
  30
0
  11
59
  21
3
  31
0
  0
LINE
  5
3f
  100
AcDbEntity
  8
1
  100
AcDbLine
  10
60
  20
1.191993
  30
0
  11
59.9
  21
1.135614
  31
0
  0
LINE
  5
40
  100
AcDbEntity
  8
1
  100
AcDbLine
  10
59.9
  20
1.135614
  30
0
  11
59.8
  21
1.172072
  31
0
  0
LINE
  5
41
  100
AcDbEntity
  8
1
  100
AcDbLine
  10
59.8
  20
1.172072
  30
0
  11
59.7
  21
1.227619
  31
0
  0
LINE
  5
42
  100
AcDbEntity
  8
1
  100
AcDbLine
  10
59.7
  20
1.227619
  30
0
  11
59.6
  21
1.293571
  31
0
  0
LINE
  5
43
  100
AcDbEntity
  8
1
  100
AcDbLine
  10
59.6
  20
1.293571
  30
0
  11
59.5
  21
1.365931
  31
0
  0
LINE
  5
44
  100
AcDbEntity
  8
1
  100
AcDbLine
  10
59.5
  20
1.365931
  30
0
  11
59.4
  21
1.44223
  31
0
  0
LINE
  5
45
  100
AcDbEntity
  8
1
  100
AcDbLine
  10
59.4
  20
1.44223
  30
0
  11
59.3
  21
1.520677
  31
0
  0
LINE
  5
46
  100
AcDbEntity
  8
1
  100
AcDbLine
  10
59.3
  20
1.520677
  30
0
  11
59.2
  21
1.599826
  31
0
  0
LINE
  5
47
  100
AcDbEntity
  8
1
  100
AcDbLine
  10
59.2
  20
1.599826
  30
0
  11
59.1
  21
1.678419
  31
0
  0
LINE
  5
48
  100
AcDbEntity
  8
1
  100
AcDbLine
  10
59.1
  20
1.678419
  30
0
  11
59
  21
1.755286
  31
0
  0
LINE
  5
49
  100
AcDbEntity
  8
1
  100
AcDbLine
  10
59
  20
1.755286
  30
0
  11
58.9
  21
1.83005
  31
0
  0
LINE
  5
4a
  100
AcDbEntity
  8
1
  100
AcDbLine
  10
58.9
  20
1.83005
  30
0
  11
58.8
  21
1.903045
  31
0
  0
LINE
  5
4b
  100
AcDbEntity
  8
1
  100
AcDbLine
  10
58.8
  20
1.903045
  30
0
  11
58.7
  21
1.974202
  31
0
  0
LINE
  5
4c
  100
AcDbEntity
  8
1
  100
AcDbLine
  10
58.7
  20
1.974202
  30
0
  11
58.6
  21
2.043452
  31
0
  0
LINE
  5
4d
  100
AcDbEntity
  8
1
  100
AcDbLine
  10
58.6
  20
2.043452
  30
0
  11
58.5
  21
2.110727
  31
0
  0
LINE
  5
4e
  100
AcDbEntity
  8
1
  100
AcDbLine
  10
58.5
  20
2.110727
  30
0
  11
58.4
  21
2.175963
  31
0
  0
LINE
  5
4f
  100
AcDbEntity
  8
1
  100
AcDbLine
  10
58.4
  20
2.175963
  30
0
  11
58.3
  21
2.239097
  31
0
  0
LINE
  5
50
  100
AcDbEntity
  8
1
  100
AcDbLine
  10
58.3
  20
2.239097
  30
0
  11
58.2
  21
2.300068
  31
0
  0
LINE
  5
51
  100
AcDbEntity
  8
1
  100
AcDbLine
  10
58.2
  20
2.300068
  30
0
  11
58.1
  21
2.358816
  31
0
  0
LINE
  5
52
  100
AcDbEntity
  8
1
  100
AcDbLine
  10
58.1
  20
2.358816
  30
0
  11
58
  21
2.415286
  31
0
  0
LINE
  5
53
  100
AcDbEntity
  8
1
  100
AcDbLine
  10
58
  20
2.415286
  30
0
  11
57.9
  21
2.469422
  31
0
  0
LINE
  5
54
  100
AcDbEntity
  8
1
  100
AcDbLine
  10
57.9
  20
2.469422
  30
0
  11
57.8
  21
2.521172
  31
0
  0
LINE
  5
55
  100
AcDbEntity
  8
1
  100
AcDbLine
  10
57.8
  20
2.521172
  30
0
  11
57.7
  21
2.570487
  31
0
  0
LINE
  5
56
  100
AcDbEntity
  8
1
  100
AcDbLine
  10
57.7
  20
2.570487
  30
0
  11
57.6
  21
2.617318
  31
0
  0
LINE
  5
57
  100
AcDbEntity
  8
1
  100
AcDbLine
  10
57.6
  20
2.617318
  30
0
  11
57.5
  21
2.66162
  31
0
  0
LINE
  5
58
  100
AcDbEntity
  8
1
  100
AcDbLine
  10
57.5
  20
2.66162
  30
0
  11
57.4
  21
2.703351
  31
0
  0
LINE
  5
59
  100
AcDbEntity
  8
1
  100
AcDbLine
  10
57.4
  20
2.703351
  30
0
  11
57.3
  21
2.74247
  31
0
  0
LINE
  5
5a
  100
AcDbEntity
  8
1
  100
AcDbLine
  10
57.3
  20
2.74247
  30
0
  11
57.2
  21
2.77894
  31
0
  0
LINE
  5
5b
  100
AcDbEntity
  8
1
  100
AcDbLine
  10
57.2
  20
2.77894
  30
0
  11
57.1
  21
2.812725
  31
0
  0
LINE
  5
5c
  100
AcDbEntity
  8
1
  100
AcDbLine
  10
57.1
  20
2.812725
  30
0
  11
57
  21
2.843792
  31
0
  0
LINE
  5
5d
  100
AcDbEntity
  8
1
  100
AcDbLine
  10
57
  20
2.843792
  30
0
  11
56.9
  21
2.872112
  31
0
  0
LINE
  5
5e
  100
AcDbEntity
  8
1
  100
AcDbLine
  10
56.9
  20
2.872112
  30
0
  11
56.8
  21
2.897657
  31
0
  0
LINE
  5
5f
  100
AcDbEntity
  8
1
  100
AcDbLine
  10
56.8
  20
2.897657
  30
0
  11
56.7
  21
2.920403
  31
0
  0
LINE
  5
60
  100
AcDbEntity
  8
1
  100
AcDbLine
  10
56.7
  20
2.920403
  30
0
  11
56.6
  21
2.940327
  31
0
  0
LINE
  5
61
  100
AcDbEntity
  8
1
  100
AcDbLine
  10
56.6
  20
2.940327
  30
0
  11
56.5
  21
2.95741
  31
0
  0
LINE
  5
62
  100
AcDbEntity
  8
1
  100
AcDbLine
  10
56.5
  20
2.95741
  30
0
  11
56.4
  21
2.971636
  31
0
  0
LINE
  5
63
  100
AcDbEntity
  8
1
  100
AcDbLine
  10
56.4
  20
2.971636
  30
0
  11
56.3
  21
2.982991
  31
0
  0
LINE
  5
64
  100
AcDbEntity
  8
1
  100
AcDbLine
  10
56.3
  20
2.982991
  30
0
  11
56.2
  21
2.991465
  31
0
  0
LINE
  5
65
  100
AcDbEntity
  8
1
  100
AcDbLine
  10
56.2
  20
2.991465
  30
0
  11
56.1
  21
2.997048
  31
0
  0
LINE
  5
66
  100
AcDbEntity
  8
1
  100
AcDbLine
  10
56.1
  20
2.997048
  30
0
  11
56
  21
2.999735
  31
0
  0
LINE
  5
67
  100
AcDbEntity
  8
1
  100
AcDbLine
  10
56
  20
2.999735
  30
0
  11
55.957265
  21
3
  31
0
  0
LINE
  5
68
  100
AcDbEntity
  8
1
  100
AcDbLine
  10
60
  20
0.417514
  30
0
  11
59.9
  21
0.446615
  31
0
  0
LINE
  5
69
  100
AcDbEntity
  8
1
  100
AcDbLine
  10
59.9
  20
0.446615
  30
0
  11
59.8
  21
0.507731
  31
0
  0
LINE
  5
6a
  100
AcDbEntity
  8
1
  100
AcDbLine
  10
59.8
  20
0.507731
  30
0
  11
59.7
  21
0.580845
  31
0
  0
LINE
  5
6b
  100
AcDbEntity
  8
1
  100
AcDbLine
  10
59.7
  20
0.580845
  30
0
  11
59.6
  21
0.660935
  31
0
  0
LINE
  5
6c
  100
AcDbEntity
  8
1
  100
AcDbLine
  10
59.6
  20
0.660935
  30
0
  11
59.5
  21
0.745418
  31
0
  0
LINE
  5
6d
  100
AcDbEntity
  8
1
  100
AcDbLine
  10
59.5
  20
0.745418
  30
0
  11
59.4
  21
0.83255
  31
0
  0
LINE
  5
6e
  100
AcDbEntity
  8
1
  100
AcDbLine
  10
59.4
  20
0.83255
  30
0
  11
59.3
  21
0.920977
  31
0
  0
LINE
  5
6f
  100
AcDbEntity
  8
1
  100
AcDbLine
  10
59.3
  20
0.920977
  30
0
  11
59.2
  21
1.009543
  31
0
  0
LINE
  5
70
  100
AcDbEntity
  8
1
  100
AcDbLine
  10
59.2
  20
1.009543
  30
0
  11
59.1
  21
1.097193
  31
0
  0
LINE
  5
71
  100
AcDbEntity
  8
1
  100
AcDbLine
  10
59.1
  20
1.097193
  30
0
  11
59
  21
1.182921
  31
0
  0
LINE
  5
72
  100
AcDbEntity
  8
1
  100
AcDbLine
  10
59
  20
1.182921
  30
0
  11
58.9
  21
1.266768
  31
0
  0
LINE
  5
73
  100
AcDbEntity
  8
1
  100
AcDbLine
  10
58.9
  20
1.266768
  30
0
  11
58.8
  21
1.349392
  31
0
  0
LINE
  5
74
  100
AcDbEntity
  8
1
  100
AcDbLine
  10
58.8
  20
1.349392
  30
0
  11
58.7
  21
1.430711
  31
0
  0
LINE
  5
75
  100
AcDbEntity
  8
1
  100
AcDbLine
  10
58.7
  20
1.430711
  30
0
  11
58.6
  21
1.510649
  31
0
  0
LINE
  5
76
  100
AcDbEntity
  8
1
  100
AcDbLine
  10
58.6
  20
1.510649
  30
0
  11
58.5
  21
1.589126
  31
0
  0
LINE
  5
77
  100
AcDbEntity
  8
1
  100
AcDbLine
  10
58.5
  20
1.589126
  30
0
  11
58.4
  21
1.666069
  31
0
  0
LINE
  5
78
  100
AcDbEntity
  8
1
  100
AcDbLine
  10
58.4
  20
1.666069
  30
0
  11
58.3
  21
1.741402
  31
0
  0
LINE
  5
79
  100
AcDbEntity
  8
1
  100
AcDbLine
  10
58.3
  20
1.741402
  30
0
  11
58.2
  21
1.815052
  31
0
  0
LINE
  5
7a
  100
AcDbEntity
  8
1
  100
AcDbLine
  10
58.2
  20
1.815052
  30
0
  11
58.1
  21
1.886949
  31
0
  0
LINE
  5
7b
  100
AcDbEntity
  8
1
  100
AcDbLine
  10
58.1
  20
1.886949
  30
0
  11
58
  21
1.957023
  31
0
  0
LINE
  5
7c
  100
AcDbEntity
  8
1
  100
AcDbLine
  10
58
  20
1.957023
  30
0
  11
57.9
  21
2.025206
  31
0
  0
LINE
  5
7d
  100
AcDbEntity
  8
1
  100
AcDbLine
  10
57.9
  20
2.025206
  30
0
  11
57.8
  21
2.091433
  31
0
  0
LINE
  5
7e
  100
AcDbEntity
  8
1
  100
AcDbLine
  10
57.8
  20
2.091433
  30
0
  11
57.7
  21
2.155639
  31
0
  0
LINE
  5
7f
  100
AcDbEntity
  8
1
  100
AcDbLine
  10
57.7
  20
2.155639
  30
0
  11
57.6
  21
2.217762
  31
0
  0
LINE
  5
80
  100
AcDbEntity
  8
1
  100
AcDbLine
  10
57.6
  20
2.217762
  30
0
  11
57.5
  21
2.277743
  31
0
  0
LINE
  5
81
  100
AcDbEntity
  8
1
  100
AcDbLine
  10
57.5
  20
2.277743
  30
0
  11
57.4
  21
2.335523
  31
0
  0
LINE
  5
82
  100
AcDbEntity
  8
1
  100
AcDbLine
  10
57.4
  20
2.335523
  30
0
  11
57.3
  21
2.391047
  31
0
  0
LINE
  5
83
  100
AcDbEntity
  8
1
  100
AcDbLine
  10
57.3
  20
2.391047
  30
0
  11
57.2
  21
2.44426
  31
0
  0
LINE
  5
84
  100
AcDbEntity
  8
1
  100
AcDbLine
  10
57.2
  20
2.44426
  30
0
  11
57.1
  21
2.495113
  31
0
  0
LINE
  5
85
  100
AcDbEntity
  8
1
  100
AcDbLine
  10
57.1
  20
2.495113
  30
0
  11
57
  21
2.543554
  31
0
  0
LINE
  5
86
  100
AcDbEntity
  8
1
  100
AcDbLine
  10
57
  20
2.543554
  30
0
  11
56.9
  21
2.589538
  31
0
  0
LINE
  5
87
  100
AcDbEntity
  8
1
  100
AcDbLine
  10
56.9
  20
2.589538
  30
0
  11
56.8
  21
2.633021
  31
0
  0
LINE
  5
88
  100
AcDbEntity
  8
1
  100
AcDbLine
  10
56.8
  20
2.633021
  30
0
  11
56.7
  21
2.673959
  31
0
  0
LINE
  5
89
  100
AcDbEntity
  8
1
  100
AcDbLine
  10
56.7
  20
2.673959
  30
0
  11
56.6
  21
2.712314
  31
0
  0
LINE
  5
8a
  100
AcDbEntity
  8
1
  100
AcDbLine
  10
56.6
  20
2.712314
  30
0
  11
56.5
  21
2.748049
  31
0
  0
LINE
  5
8b
  100
AcDbEntity
  8
1
  100
AcDbLine
  10
56.5
  20
2.748049
  30
0
  11
56.4
  21
2.781129
  31
0
  0
LINE
  5
8c
  100
AcDbEntity
  8
1
  100
AcDbLine
  10
56.4
  20
2.781129
  30
0
  11
56.3
  21
2.811522
  31
0
  0
LINE
  5
8d
  100
AcDbEntity
  8
1
  100
AcDbLine
  10
56.3
  20
2.811522
  30
0
  11
56.2
  21
2.839198
  31
0
  0
LINE
  5
8e
  100
AcDbEntity
  8
1
  100
AcDbLine
  10
56.2
  20
2.839198
  30
0
  11
56.1
  21
2.864132
  31
0
  0
LINE
  5
8f
  100
AcDbEntity
  8
1
  100
AcDbLine
  10
56.1
  20
2.864132
  30
0
  11
56
  21
2.886298
  31
0
  0
LINE
  5
90
  100
AcDbEntity
  8
1
  100
AcDbLine
  10
56
  20
2.886298
  30
0
  11
55.9
  21
2.905676
  31
0
  0
LINE
  5
91
  100
AcDbEntity
  8
1
  100
AcDbLine
  10
55.9
  20
2.905676
  30
0
  11
55.8
  21
2.922246
  31
0
  0
LINE
  5
92
  100
AcDbEntity
  8
1
  100
AcDbLine
  10
55.8
  20
2.922246
  30
0
  11
55.7
  21
2.935994
  31
0
  0
LINE
  5
93
  100
AcDbEntity
  8
1
  100
AcDbLine
  10
55.7
  20
2.935994
  30
0
  11
55.6
  21
2.946905
  31
0
  0
LINE
  5
94
  100
AcDbEntity
  8
1
  100
AcDbLine
  10
55.6
  20
2.946905
  30
0
  11
55.5
  21
2.954968
  31
0
  0
LINE
  5
95
  100
AcDbEntity
  8
1
  100
AcDbLine
  10
55.5
  20
2.954968
  30
0
  11
55.4
  21
2.960177
  31
0
  0
LINE
  5
96
  100
AcDbEntity
  8
1
  100
AcDbLine
  10
55.4
  20
2.960177
  30
0
  11
55.3
  21
2.962526
  31
0
  0
LINE
  5
97
  100
AcDbEntity
  8
1
  100
AcDbLine
  10
55.3
  20
2.962526
  30
0
  11
55.267929
  21
3
  31
0
  0
LINE
  5
98
  100
AcDbEntity
  8
1
  100
AcDbLine
  10
60
  20
0.125938
  30
0
  11
59.9
  21
0.155089
  31
0
  0
LINE
  5
99
  100
AcDbEntity
  8
1
  100
AcDbLine
  10
59.9
  20
0.155089
  30
0
  11
59.8
  21
0.217687
  31
0
  0
LINE
  5
9a
  100
AcDbEntity
  8
1
  100
AcDbLine
  10
59.8
  20
0.217687
  30
0
  11
59.7
  21
0.292745
  31
0
  0
LINE
  5
9b
  100
AcDbEntity
  8
1
  100
AcDbLine
  10
59.7
  20
0.292745
  30
0
  11
59.6
  21
0.375136
  31
0
  0
LINE
  5
9c
  100
AcDbEntity
  8
1
  100
AcDbLine
  10
59.6
  20
0.375136
  30
0
  11
59.5
  21
0.462245
  31
0
  0
LINE
  5
9d
  100
AcDbEntity
  8
1
  100
AcDbLine
  10
59.5
  20
0.462245
  30
0
  11
59.4
  21
0.552319
  31
0
  0
LINE
  5
9e
  100
AcDbEntity
  8
1
  100
AcDbLine
  10
59.4
  20
0.552319
  30
0
  11
59.3
  21
0.643999
  31
0
  0
LINE
  5
9f
  100
AcDbEntity
  8
1
  100
AcDbLine
  10
59.3
  20
0.643999
  30
0
  11
59.2
  21
0.736127
  31
0
  0
LINE
  5
a0
  100
AcDbEntity
  8
1
  100
AcDbLine
  10
59.2
  20
0.736127
  30
0
  11
59.1
  21
0.827652
  31
0
  0
LINE
  5
a1
  100
AcDbEntity
  8
1
  100
AcDbLine
  10
59.1
  20
0.827652
  30
0
  11
59
  21
0.917571
  31
0
  0
LINE
  5
a2
  100
AcDbEntity
  8
1
  100
AcDbLine
  10
59
  20
0.917571
  30
0
  11
58.9
  21
1.005896
  31
0
  0
LINE
  5
a3
  100
AcDbEntity
  8
1
  100
AcDbLine
  10
58.9
  20
1.005896
  30
0
  11
58.8
  21
1.093249
  31
0
  0
LINE
  5
a4
  100
AcDbEntity
  8
1
  100
AcDbLine
  10
58.8
  20
1.093249
  30
0
  11
58.7
  21
1.179546
  31
0
  0
LINE
  5
a5
  100
AcDbEntity
  8
1
  100
AcDbLine
  10
58.7
  20
1.179546
  30
0
  11
58.6
  21
1.264704
  31
0
  0
LINE
  5
a6
  100
AcDbEntity
  8
1
  100
AcDbLine
  10
58.6
  20
1.264704
  30
0
  11
58.5
  21
1.348639
  31
0
  0
LINE
  5
a7
  100
AcDbEntity
  8
1
  100
AcDbLine
  10
58.5
  20
1.348639
  30
0
  11
58.4
  21
1.431272
  31
0
  0
LINE
  5
a8
  100
AcDbEntity
  8
1
  100
AcDbLine
  10
58.4
  20
1.431272
  30
0
  11
58.3
  21
1.512522
  31
0
  0
LINE
  5
a9
  100
AcDbEntity
  8
1
  100
AcDbLine
  10
58.3
  20
1.512522
  30
0
  11
58.2
  21
1.592311
  31
0
  0
LINE
  5
aa
  100
AcDbEntity
  8
1
  100
AcDbLine
  10
58.2
  20
1.592311
  30
0
  11
58.1
  21
1.670561
  31
0
  0
LINE
  5
ab
  100
AcDbEntity
  8
1
  100
AcDbLine
  10
58.1
  20
1.670561
  30
0
  11
58
  21
1.747197
  31
0
  0
LINE
  5
ac
  100
AcDbEntity
  8
1
  100
AcDbLine
  10
58
  20
1.747197
  30
0
  11
57.9
  21
1.822145
  31
0
  0
LINE
  5
ad
  100
AcDbEntity
  8
1
  100
AcDbLine
  10
57.9
  20
1.822145
  30
0
  11
57.8
  21
1.895333
  31
0
  0
LINE
  5
ae
  100
AcDbEntity
  8
1
  100
AcDbLine
  10
57.8
  20
1.895333
  30
0
  11
57.7
  21
1.96669
  31
0
  0
LINE
  5
af
  100
AcDbEntity
  8
1
  100
AcDbLine
  10
57.7
  20
1.96669
  30
0
  11
57.6
  21
2.036146
  31
0
  0
LINE
  5
b0
  100
AcDbEntity
  8
1
  100
AcDbLine
  10
57.6
  20
2.036146
  30
0
  11
57.5
  21
2.103636
  31
0
  0
LINE
  5
b1
  100
AcDbEntity
  8
1
  100
AcDbLine
  10
57.5
  20
2.103636
  30
0
  11
57.4
  21
2.169093
  31
0
  0
LINE
  5
b2
  100
AcDbEntity
  8
1
  100
AcDbLine
  10
57.4
  20
2.169093
  30
0
  11
57.3
  21
2.232454
  31
0
  0
LINE
  5
b3
  100
AcDbEntity
  8
1
  100
AcDbLine
  10
57.3
  20
2.232454
  30
0
  11
57.2
  21
2.293659
  31
0
  0
LINE
  5
b4
  100
AcDbEntity
  8
1
  100
AcDbLine
  10
57.2
  20
2.293659
  30
0
  11
57.1
  21
2.352647
  31
0
  0
LINE
  5
b5
  100
AcDbEntity
  8
1
  100
AcDbLine
  10
57.1
  20
2.352647
  30
0
  11
57
  21
2.409363
  31
0
  0
LINE
  5
b6
  100
AcDbEntity
  8
1
  100
AcDbLine
  10
57
  20
2.409363
  30
0
  11
56.9
  21
2.463751
  31
0
  0
LINE
  5
b7
  100
AcDbEntity
  8
1
  100
AcDbLine
  10
56.9
  20
2.463751
  30
0
  11
56.8
  21
2.515759
  31
0
  0
LINE
  5
b8
  100
AcDbEntity
  8
1
  100
AcDbLine
  10
56.8
  20
2.515759
  30
0
  11
56.7
  21
2.565336
  31
0
  0
LINE
  5
b9
  100
AcDbEntity
  8
1
  100
AcDbLine
  10
56.7
  20
2.565336
  30
0
  11
56.6
  21
2.612434
  31
0
  0
LINE
  5
ba
  100
AcDbEntity
  8
1
  100
AcDbLine
  10
56.6
  20
2.612434
  30
0
  11
56.5
  21
2.657009
  31
0
  0
LINE
  5
bb
  100
AcDbEntity
  8
1
  100
AcDbLine
  10
56.5
  20
2.657009
  30
0
  11
56.4
  21
2.699017
  31
0
  0
LINE
  5
bc
  100
AcDbEntity
  8
1
  100
AcDbLine
  10
56.4
  20
2.699017
  30
0
  11
56.3
  21
2.738417
  31
0
  0
LINE
  5
bd
  100
AcDbEntity
  8
1
  100
AcDbLine
  10
56.3
  20
2.738417
  30
0
  11
56.2
  21
2.775171
  31
0
  0
LINE
  5
be
  100
AcDbEntity
  8
1
  100
AcDbLine
  10
56.2
  20
2.775171
  30
0
  11
56.1
  21
2.809244
  31
0
  0
LINE
  5
bf
  100
AcDbEntity
  8
1
  100
AcDbLine
  10
56.1
  20
2.809244
  30
0
  11
56
  21
2.840604
  31
0
  0
LINE
  5
c0
  100
AcDbEntity
  8
1
  100
AcDbLine
  10
56
  20
2.840604
  30
0
  11
55.9
  21
2.869218
  31
0
  0
LINE
  5
c1
  100
AcDbEntity
  8
1
  100
AcDbLine
  10
55.9
  20
2.869218
  30
0
  11
55.8
  21
2.895061
  31
0
  0
LINE
  5
c2
  100
AcDbEntity
  8
1
  100
AcDbLine
  10
55.8
  20
2.895061
  30
0
  11
55.7
  21
2.918107
  31
0
  0
LINE
  5
c3
  100
AcDbEntity
  8
1
  100
AcDbLine
  10
55.7
  20
2.918107
  30
0
  11
55.6
  21
2.938333
  31
0
  0
LINE
  5
c4
  100
AcDbEntity
  8
1
  100
AcDbLine
  10
55.6
  20
2.938333
  30
0
  11
55.5
  21
2.955721
  31
0
  0
LINE
  5
c5
  100
AcDbEntity
  8
1
  100
AcDbLine
  10
55.5
  20
2.955721
  30
0
  11
55.4
  21
2.970253
  31
0
  0
LINE
  5
c6
  100
AcDbEntity
  8
1
  100
AcDbLine
  10
55.4
  20
2.970253
  30
0
  11
55.3
  21
2.981916
  31
0
  0
LINE
  5
c7
  100
AcDbEntity
  8
1
  100
AcDbLine
  10
55.3
  20
2.981916
  30
0
  11
55.2
  21
2.990697
  31
0
  0
LINE
  5
c8
  100
AcDbEntity
  8
1
  100
AcDbLine
  10
55.2
  20
2.990697
  30
0
  11
55.1
  21
2.996589
  31
0
  0
LINE
  5
c9
  100
AcDbEntity
  8
1
  100
AcDbLine
  10
55.1
  20
2.996589
  30
0
  11
55
  21
2.999586
  31
0
  0
LINE
  5
ca
  100
AcDbEntity
  8
1
  100
AcDbLine
  10
55
  20
2.999586
  30
0
  11
54.946582
  21
3
  31
0
  0
LINE
  5
cb
  100
AcDbEntity
  8
1
  100
AcDbLine
  10
60
  20
-1.605974
  30
0
  11
59.971446
  21
-1.762739
  31
0
  0
LINE
  5
cc
  100
AcDbEntity
  8
1
  100
AcDbLine
  10
59.971446
  20
-1.762739
  30
0
  11
59.9
  21
-2.15498
  31
0
  0
LINE
  5
cd
  100
AcDbEntity
  8
1
  100
AcDbLine
  10
59.9
  20
-2.15498
  30
0
  11
59.8
  21
-2.320829
  31
0
  0
LINE
  5
ce
  100
AcDbEntity
  8
1
  100
AcDbLine
  10
59.8
  20
-2.320829
  30
0
  11
59.7
  21
-2.420645
  31
0
  0
LINE
  5
cf
  100
AcDbEntity
  8
1
  100
AcDbLine
  10
59.7
  20
-2.420645
  30
0
  11
59.6
  21
-2.483279
  31
0
  0
LINE
  5
d0
  100
AcDbEntity
  8
1
  100
AcDbLine
  10
59.6
  20
-2.483279
  30
0
  11
59.5
  21
-2.51959
  31
0
  0
LINE
  5
d1
  100
AcDbEntity
  8
1
  100
AcDbLine
  10
59.5
  20
-2.51959
  30
0
  11
59.4
  21
-2.534962
  31
0
  0
LINE
  5
d2
  100
AcDbEntity
  8
1
  100
AcDbLine
  10
59.4
  20
-2.534962
  30
0
  11
59.3
  21
-2.532449
  31
0
  0
LINE
  5
d3
  100
AcDbEntity
  8
1
  100
AcDbLine
  10
59.3
  20
-2.532449
  30
0
  11
59.2
  21
-2.513909
  31
0
  0
LINE
  5
d4
  100
AcDbEntity
  8
1
  100
AcDbLine
  10
59.2
  20
-2.513909
  30
0
  11
59.1
  21
-2.480496
  31
0
  0
LINE
  5
d5
  100
AcDbEntity
  8
1
  100
AcDbLine
  10
59.1
  20
-2.480496
  30
0
  11
59
  21
-2.432894
  31
0
  0
LINE
  5
d6
  100
AcDbEntity
  8
1
  100
AcDbLine
  10
59
  20
-2.432894
  30
0
  11
58.9
  21
-2.377166
  31
0
  0
LINE
  5
d7
  100
AcDbEntity
  8
1
  100
AcDbLine
  10
58.9
  20
-2.377166
  30
0
  11
58.8
  21
-2.319142
  31
0
  0
LINE
  5
d8
  100
AcDbEntity
  8
1
  100
AcDbLine
  10
58.8
  20
-2.319142
  30
0
  11
58.7
  21
-2.258877
  31
0
  0
LINE
  5
d9
  100
AcDbEntity
  8
1
  100
AcDbLine
  10
58.7
  20
-2.258877
  30
0
  11
58.6
  21
-2.19643
  31
0
  0
LINE
  5
da
  100
AcDbEntity
  8
1
  100
AcDbLine
  10
58.6
  20
-2.19643
  30
0
  11
58.5
  21
-2.131861
  31
0
  0
LINE
  5
db
  100
AcDbEntity
  8
1
  100
AcDbLine
  10
58.5
  20
-2.131861
  30
0
  11
58.4
  21
-2.065232
  31
0
  0
LINE
  5
dc
  100
AcDbEntity
  8
1
  100
AcDbLine
  10
58.4
  20
-2.065232
  30
0
  11
58.3
  21
-1.996608
  31
0
  0
LINE
  5
dd
  100
AcDbEntity
  8
1
  100
AcDbLine
  10
58.3
  20
-1.996608
  30
0
  11
58.2
  21
-1.926055
  31
0
  0
LINE
  5
de
  100
AcDbEntity
  8
1
  100
AcDbLine
  10
58.2
  20
-1.926055
  30
0
  11
58.1
  21
-1.853641
  31
0
  0
LINE
  5
df
  100
AcDbEntity
  8
1
  100
AcDbLine
  10
58.1
  20
-1.853641
  30
0
  11
58
  21
-1.779437
  31
0
  0
LINE
  5
e0
  100
AcDbEntity
  8
1
  100
AcDbLine
  10
58
  20
-1.779437
  30
0
  11
57.9
  21
-1.703513
  31
0
  0
LINE
  5
e1
  100
AcDbEntity
  8
1
  100
AcDbLine
  10
57.9
  20
-1.703513
  30
0
  11
57.8
  21
-1.625943
  31
0
  0
LINE
  5
e2
  100
AcDbEntity
  8
1
  100
AcDbLine
  10
57.8
  20
-1.625943
  30
0
  11
57.7
  21
-1.546803
  31
0
  0
LINE
  5
e3
  100
AcDbEntity
  8
1
  100
AcDbLine
  10
57.7
  20
-1.546803
  30
0
  11
57.6
  21
-1.466168
  31
0
  0
LINE
  5
e4
  100
AcDbEntity
  8
1
  100
AcDbLine
  10
57.6
  20
-1.466168
  30
0
  11
57.5
  21
-1.384116
  31
0
  0
LINE
  5
e5
  100
AcDbEntity
  8
1
  100
AcDbLine
  10
57.5
  20
-1.384116
  30
0
  11
57.4
  21
-1.300728
  31
0
  0
LINE
  5
e6
  100
AcDbEntity
  8
1
  100
AcDbLine
  10
57.4
  20
-1.300728
  30
0
  11
57.3
  21
-1.216082
  31
0
  0
LINE
  5
e7
  100
AcDbEntity
  8
1
  100
AcDbLine
  10
57.3
  20
-1.216082
  30
0
  11
57.2
  21
-1.130262
  31
0
  0
LINE
  5
e8
  100
AcDbEntity
  8
1
  100
AcDbLine
  10
57.2
  20
-1.130262
  30
0
  11
57.1
  21
-1.04335
  31
0
  0
LINE
  5
e9
  100
AcDbEntity
  8
1
  100
AcDbLine
  10
57.1
  20
-1.04335
  30
0
  11
57
  21
-0.95543
  31
0
  0
LINE
  5
ea
  100
AcDbEntity
  8
1
  100
AcDbLine
  10
57
  20
-0.95543
  30
0
  11
56.9
  21
-0.866587
  31
0
  0
LINE
  5
eb
  100
AcDbEntity
  8
1
  100
AcDbLine
  10
56.9
  20
-0.866587
  30
0
  11
56.8
  21
-0.776906
  31
0
  0
LINE
  5
ec
  100
AcDbEntity
  8
1
  100
AcDbLine
  10
56.8
  20
-0.776906
  30
0
  11
56.7
  21
-0.686475
  31
0
  0
LINE
  5
ed
  100
AcDbEntity
  8
1
  100
AcDbLine
  10
56.7
  20
-0.686475
  30
0
  11
56.6
  21
-0.595381
  31
0
  0
LINE
  5
ee
  100
AcDbEntity
  8
1
  100
AcDbLine
  10
56.6
  20
-0.595381
  30
0
  11
56.5
  21
-0.503711
  31
0
  0
LINE
  5
ef
  100
AcDbEntity
  8
1
  100
AcDbLine
  10
56.5
  20
-0.503711
  30
0
  11
56.4
  21
-0.411555
  31
0
  0
LINE
  5
f0
  100
AcDbEntity
  8
1
  100
AcDbLine
  10
56.4
  20
-0.411555
  30
0
  11
56.3
  21
-0.319001
  31
0
  0
LINE
  5
f1
  100
AcDbEntity
  8
1
  100
AcDbLine
  10
56.3
  20
-0.319001
  30
0
  11
56.2
  21
-0.226139
  31
0
  0
LINE
  5
f2
  100
AcDbEntity
  8
1
  100
AcDbLine
  10
56.2
  20
-0.226139
  30
0
  11
56.1
  21
-0.133059
  31
0
  0
LINE
  5
f3
  100
AcDbEntity
  8
1
  100
AcDbLine
  10
56.1
  20
-0.133059
  30
0
  11
56
  21
-0.03985
  31
0
  0
LINE
  5
f4
  100
AcDbEntity
  8
1
  100
AcDbLine
  10
56
  20
-0.03985
  30
0
  11
55.9
  21
0.053398
  31
0
  0
LINE
  5
f5
  100
AcDbEntity
  8
1
  100
AcDbLine
  10
55.9
  20
0.053398
  30
0
  11
55.8
  21
0.146594
  31
0
  0
LINE
  5
f6
  100
AcDbEntity
  8
1
  100
AcDbLine
  10
55.8
  20
0.146594
  30
0
  11
55.7
  21
0.239648
  31
0
  0
LINE
  5
f7
  100
AcDbEntity
  8
1
  100
AcDbLine
  10
55.7
  20
0.239648
  30
0
  11
55.6
  21
0.332471
  31
0
  0
LINE
  5
f8
  100
AcDbEntity
  8
1
  100
AcDbLine
  10
55.6
  20
0.332471
  30
0
  11
55.5
  21
0.424972
  31
0
  0
LINE
  5
f9
  100
AcDbEntity
  8
1
  100
AcDbLine
  10
55.5
  20
0.424972
  30
0
  11
55.4
  21
0.517063
  31
0
  0
LINE
  5
fa
  100
AcDbEntity
  8
1
  100
AcDbLine
  10
55.4
  20
0.517063
  30
0
  11
55.3
  21
0.608655
  31
0
  0
LINE
  5
fb
  100
AcDbEntity
  8
1
  100
AcDbLine
  10
55.3
  20
0.608655
  30
0
  11
55.2
  21
0.699658
  31
0
  0
LINE
  5
fc
  100
AcDbEntity
  8
1
  100
AcDbLine
  10
55.2
  20
0.699658
  30
0
  11
55.1
  21
0.789986
  31
0
  0
LINE
  5
fd
  100
AcDbEntity
  8
1
  100
AcDbLine
  10
55.1
  20
0.789986
  30
0
  11
55
  21
0.87955
  31
0
  0
LINE
  5
fe
  100
AcDbEntity
  8
1
  100
AcDbLine
  10
55
  20
0.87955
  30
0
  11
54.9
  21
0.968264
  31
0
  0
LINE
  5
ff
  100
AcDbEntity
  8
1
  100
AcDbLine
  10
54.9
  20
0.968264
  30
0
  11
54.8
  21
1.056043
  31
0
  0
LINE
  5
100
  100
AcDbEntity
  8
1
  100
AcDbLine
  10
54.8
  20
1.056043
  30
0
  11
54.7
  21
1.142802
  31
0
  0
LINE
  5
101
  100
AcDbEntity
  8
1
  100
AcDbLine
  10
54.7
  20
1.142802
  30
0
  11
54.6
  21
1.228457
  31
0
  0
LINE
  5
102
  100
AcDbEntity
  8
1
  100
AcDbLine
  10
54.6
  20
1.228457
  30
0
  11
54.5
  21
1.312924
  31
0
  0
LINE
  5
103
  100
AcDbEntity
  8
1
  100
AcDbLine
  10
54.5
  20
1.312924
  30
0
  11
54.4
  21
1.396124
  31
0
  0
LINE
  5
104
  100
AcDbEntity
  8
1
  100
AcDbLine
  10
54.4
  20
1.396124
  30
0
  11
54.3
  21
1.477974
  31
0
  0
LINE
  5
105
  100
AcDbEntity
  8
1
  100
AcDbLine
  10
54.3
  20
1.477974
  30
0
  11
54.2
  21
1.558397
  31
0
  0
LINE
  5
106
  100
AcDbEntity
  8
1
  100
AcDbLine
  10
54.2
  20
1.558397
  30
0
  11
54.1
  21
1.637314
  31
0
  0
LINE
  5
107
  100
AcDbEntity
  8
1
  100
AcDbLine
  10
54.1
  20
1.637314
  30
0
  11
54
  21
1.714649
  31
0
  0
LINE
  5
108
  100
AcDbEntity
  8
1
  100
AcDbLine
  10
54
  20
1.714649
  30
0
  11
53.9
  21
1.790327
  31
0
  0
LINE
  5
109
  100
AcDbEntity
  8
1
  100
AcDbLine
  10
53.9
  20
1.790327
  30
0
  11
53.8
  21
1.864276
  31
0
  0
LINE
  5
10a
  100
AcDbEntity
  8
1
  100
AcDbLine
  10
53.8
  20
1.864276
  30
0
  11
53.7
  21
1.936424
  31
0
  0
LINE
  5
10b
  100
AcDbEntity
  8
1
  100
AcDbLine
  10
53.7
  20
1.936424
  30
0
  11
53.6
  21
2.006701
  31
0
  0
LINE
  5
10c
  100
AcDbEntity
  8
1
  100
AcDbLine
  10
53.6
  20
2.006701
  30
0
  11
53.5
  21
2.075039
  31
0
  0
LINE
  5
10d
  100
AcDbEntity
  8
1
  100
AcDbLine
  10
53.5
  20
2.075039
  30
0
  11
53.4
  21
2.141373
  31
0
  0
LINE
  5
10e
  100
AcDbEntity
  8
1
  100
AcDbLine
  10
53.4
  20
2.141373
  30
0
  11
53.3
  21
2.205637
  31
0
  0
LINE
  5
10f
  100
AcDbEntity
  8
1
  100
AcDbLine
  10
53.3
  20
2.205637
  30
0
  11
53.2
  21
2.267771
  31
0
  0
LINE
  5
110
  100
AcDbEntity
  8
1
  100
AcDbLine
  10
53.2
  20
2.267771
  30
0
  11
53.1
  21
2.327714
  31
0
  0
LINE
  5
111
  100
AcDbEntity
  8
1
  100
AcDbLine
  10
53.1
  20
2.327714
  30
0
  11
53
  21
2.385407
  31
0
  0
LINE
  5
112
  100
AcDbEntity
  8
1
  100
AcDbLine
  10
53
  20
2.385407
  30
0
  11
52.9
  21
2.440797
  31
0
  0
LINE
  5
113
  100
AcDbEntity
  8
1
  100
AcDbLine
  10
52.9
  20
2.440797
  30
0
  11
52.8
  21
2.493828
  31
0
  0
LINE
  5
114
  100
AcDbEntity
  8
1
  100
AcDbLine
  10
52.8
  20
2.493828
  30
0
  11
52.7
  21
2.544449
  31
0
  0
LINE
  5
115
  100
AcDbEntity
  8
1
  100
AcDbLine
  10
52.7
  20
2.544449
  30
0
  11
52.6
  21
2.592613
  31
0
  0
LINE
  5
116
  100
AcDbEntity
  8
1
  100
AcDbLine
  10
52.6
  20
2.592613
  30
0
  11
52.5
  21
2.638272
  31
0
  0
LINE
  5
117
  100
AcDbEntity
  8
1
  100
AcDbLine
  10
52.5
  20
2.638272
  30
0
  11
52.4
  21
2.681382
  31
0
  0
LINE
  5
118
  100
AcDbEntity
  8
1
  100
AcDbLine
  10
52.4
  20
2.681382
  30
0
  11
52.3
  21
2.721901
  31
0
  0
LINE
  5
119
  100
AcDbEntity
  8
1
  100
AcDbLine
  10
52.3
  20
2.721901
  30
0
  11
52.2
  21
2.75979
  31
0
  0
LINE
  5
11a
  100
AcDbEntity
  8
1
  100
AcDbLine
  10
52.2
  20
2.75979
  30
0
  11
52.1
  21
2.795014
  31
0
  0
LINE
  5
11b
  100
AcDbEntity
  8
1
  100
AcDbLine
  10
52.1
  20
2.795014
  30
0
  11
52
  21
2.827536
  31
0
  0
LINE
  5
11c
  100
AcDbEntity
  8
1
  100
AcDbLine
  10
52
  20
2.827536
  30
0
  11
51.9
  21
2.857328
  31
0
  0
LINE
  5
11d
  100
AcDbEntity
  8
1
  100
AcDbLine
  10
51.9
  20
2.857328
  30
0
  11
51.8
  21
2.884358
  31
0
  0
LINE
  5
11e
  100
AcDbEntity
  8
1
  100
AcDbLine
  10
51.8
  20
2.884358
  30
0
  11
51.7
  21
2.908602
  31
0
  0
LINE
  5
11f
  100
AcDbEntity
  8
1
  100
AcDbLine
  10
51.7
  20
2.908602
  30
0
  11
51.6
  21
2.930036
  31
0
  0
LINE
  5
120
  100
AcDbEntity
  8
1
  100
AcDbLine
  10
51.6
  20
2.930036
  30
0
  11
51.5
  21
2.948639
  31
0
  0
LINE
  5
121
  100
AcDbEntity
  8
1
  100
AcDbLine
  10
51.5
  20
2.948639
  30
0
  11
51.4
  21
2.964393
  31
0
  0
LINE
  5
122
  100
AcDbEntity
  8
1
  100
AcDbLine
  10
51.4
  20
2.964393
  30
0
  11
51.3
  21
2.977284
  31
0
  0
LINE
  5
123
  100
AcDbEntity
  8
1
  100
AcDbLine
  10
51.3
  20
2.977284
  30
0
  11
51.2
  21
2.987298
  31
0
  0
LINE
  5
124
  100
AcDbEntity
  8
1
  100
AcDbLine
  10
51.2
  20
2.987298
  30
0
  11
51.1
  21
2.994425
  31
0
  0
LINE
  5
125
  100
AcDbEntity
  8
1
  100
AcDbLine
  10
51.1
  20
2.994425
  30
0
  11
51
  21
2.99866
  31
0
  0
LINE
  5
126
  100
AcDbEntity
  8
1
  100
AcDbLine
  10
51
  20
2.99866
  30
0
  11
50.903847
  21
3
  31
0
  0
LINE
  5
127
  100
AcDbEntity
  8
1
  100
AcDbLine
  10
50.214513
  20
3
  30
0
  11
50.3
  21
2.961627
  31
0
  0
LINE
  5
128
  100
AcDbEntity
  8
1
  100
AcDbLine
  10
50.3
  20
2.961627
  30
0
  11
50.4
  21
2.95775
  31
0
  0
LINE
  5
129
  100
AcDbEntity
  8
1
  100
AcDbLine
  10
50.4
  20
2.95775
  30
0
  11
50.5
  21
2.951016
  31
0
  0
LINE
  5
12a
  100
AcDbEntity
  8
1
  100
AcDbLine
  10
50.5
  20
2.951016
  30
0
  11
50.6
  21
2.94143
  31
0
  0
LINE
  5
12b
  100
AcDbEntity
  8
1
  100
AcDbLine
  10
50.6
  20
2.94143
  30
0
  11
50.7
  21
2.929002
  31
0
  0
LINE
  5
12c
  100
AcDbEntity
  8
1
  100
AcDbLine
  10
50.7
  20
2.929002
  30
0
  11
50.8
  21
2.913745
  31
0
  0
LINE
  5
12d
  100
AcDbEntity
  8
1
  100
AcDbLine
  10
50.8
  20
2.913745
  30
0
  11
50.9
  21
2.895673
  31
0
  0
LINE
  5
12e
  100
AcDbEntity
  8
1
  100
AcDbLine
  10
50.9
  20
2.895673
  30
0
  11
51
  21
2.874803
  31
0
  0
LINE
  5
12f
  100
AcDbEntity
  8
1
  100
AcDbLine
  10
51
  20
2.874803
  30
0
  11
51.1
  21
2.851155
  31
0
  0
LINE
  5
130
  100
AcDbEntity
  8
1
  100
AcDbLine
  10
51.1
  20
2.851155
  30
0
  11
51.2
  21
2.824753
  31
0
  0
LINE
  5
131
  100
AcDbEntity
  8
1
  100
AcDbLine
  10
51.2
  20
2.824753
  30
0
  11
51.3
  21
2.795622
  31
0
  0
LINE
  5
132
  100
AcDbEntity
  8
1
  100
AcDbLine
  10
51.3
  20
2.795622
  30
0
  11
51.4
  21
2.76379
  31
0
  0
LINE
  5
133
  100
AcDbEntity
  8
1
  100
AcDbLine
  10
51.4
  20
2.76379
  30
0
  11
51.5
  21
2.729288
  31
0
  0
LINE
  5
134
  100
AcDbEntity
  8
1
  100
AcDbLine
  10
51.5
  20
2.729288
  30
0
  11
51.6
  21
2.692149
  31
0
  0
LINE
  5
135
  100
AcDbEntity
  8
1
  100
AcDbLine
  10
51.6
  20
2.692149
  30
0
  11
51.7
  21
2.652409
  31
0
  0
LINE
  5
136
  100
AcDbEntity
  8
1
  100
AcDbLine
  10
51.7
  20
2.652409
  30
0
  11
51.8
  21
2.610107
  31
0
  0
LINE
  5
137
  100
AcDbEntity
  8
1
  100
AcDbLine
  10
51.8
  20
2.610107
  30
0
  11
51.9
  21
2.565283
  31
0
  0
LINE
  5
138
  100
AcDbEntity
  8
1
  100
AcDbLine
  10
51.9
  20
2.565283
  30
0
  11
52
  21
2.51798
  31
0
  0
LINE
  5
139
  100
AcDbEntity
  8
1
  100
AcDbLine
  10
52
  20
2.51798
  30
0
  11
52.1
  21
2.468245
  31
0
  0
LINE
  5
13a
  100
AcDbEntity
  8
1
  100
AcDbLine
  10
52.1
  20
2.468245
  30
0
  11
52.2
  21
2.416125
  31
0
  0
LINE
  5
13b
  100
AcDbEntity
  8
1
  100
AcDbLine
  10
52.2
  20
2.416125
  30
0
  11
52.3
  21
2.361671
  31
0
  0
LINE
  5
13c
  100
AcDbEntity
  8
1
  100
AcDbLine
  10
52.3
  20
2.361671
  30
0
  11
52.4
  21
2.304935
  31
0
  0
LINE
  5
13d
  100
AcDbEntity
  8
1
  100
AcDbLine
  10
52.4
  20
2.304935
  30
0
  11
52.5
  21
2.245972
  31
0
  0
LINE
  5
13e
  100
AcDbEntity
  8
1
  100
AcDbLine
  10
52.5
  20
2.245972
  30
0
  11
52.6
  21
2.18484
  31
0
  0
LINE
  5
13f
  100
AcDbEntity
  8
1
  100
AcDbLine
  10
52.6
  20
2.18484
  30
0
  11
52.7
  21
2.121596
  31
0
  0
LINE
  5
140
  100
AcDbEntity
  8
1
  100
AcDbLine
  10
52.7
  20
2.121596
  30
0
  11
52.8
  21
2.056303
  31
0
  0
LINE
  5
141
  100
AcDbEntity
  8
1
  100
AcDbLine
  10
52.8
  20
2.056303
  30
0
  11
52.9
  21
1.989023
  31
0
  0
LINE
  5
142
  100
AcDbEntity
  8
1
  100
AcDbLine
  10
52.9
  20
1.989023
  30
0
  11
53
  21
1.919822
  31
0
  0
LINE
  5
143
  100
AcDbEntity
  8
1
  100
AcDbLine
  10
53
  20
1.919822
  30
0
  11
53.1
  21
1.848765
  31
0
  0
LINE
  5
144
  100
AcDbEntity
  8
1
  100
AcDbLine
  10
53.1
  20
1.848765
  30
0
  11
53.2
  21
1.775923
  31
0
  0
LINE
  5
145
  100
AcDbEntity
  8
1
  100
AcDbLine
  10
53.2
  20
1.775923
  30
0
  11
53.3
  21
1.701365
  31
0
  0
LINE
  5
146
  100
AcDbEntity
  8
1
  100
AcDbLine
  10
53.3
  20
1.701365
  30
0
  11
53.4
  21
1.625163
  31
0
  0
LINE
  5
147
  100
AcDbEntity
  8
1
  100
AcDbLine
  10
53.4
  20
1.625163
  30
0
  11
53.5
  21
1.547391
  31
0
  0
LINE
  5
148
  100
AcDbEntity
  8
1
  100
AcDbLine
  10
53.5
  20
1.547391
  30
0
  11
53.6
  21
1.468124
  31
0
  0
LINE
  5
149
  100
AcDbEntity
  8
1
  100
AcDbLine
  10
53.6
  20
1.468124
  30
0
  11
53.7
  21
1.387439
  31
0
  0
LINE
  5
14a
  100
AcDbEntity
  8
1
  100
AcDbLine
  10
53.7
  20
1.387439
  30
0
  11
53.8
  21
1.305413
  31
0
  0
LINE
  5
14b
  100
AcDbEntity
  8
1
  100
AcDbLine
  10
53.8
  20
1.305413
  30
0
  11
53.9
  21
1.222126
  31
0
  0
LINE
  5
14c
  100
AcDbEntity
  8
1
  100
AcDbLine
  10
53.9
  20
1.222126
  30
0
  11
54
  21
1.137658
  31
0
  0
LINE
  5
14d
  100
AcDbEntity
  8
1
  100
AcDbLine
  10
54
  20
1.137658
  30
0
  11
54.1
  21
1.052091
  31
0
  0
LINE
  5
14e
  100
AcDbEntity
  8
1
  100
AcDbLine
  10
54.1
  20
1.052091
  30
0
  11
54.2
  21
0.965508
  31
0
  0
LINE
  5
14f
  100
AcDbEntity
  8
1
  100
AcDbLine
  10
54.2
  20
0.965508
  30
0
  11
54.3
  21
0.877992
  31
0
  0
LINE
  5
150
  100
AcDbEntity
  8
1
  100
AcDbLine
  10
54.3
  20
0.877992
  30
0
  11
54.4
  21
0.789627
  31
0
  0
LINE
  5
151
  100
AcDbEntity
  8
1
  100
AcDbLine
  10
54.4
  20
0.789627
  30
0
  11
54.5
  21
0.7005
  31
0
  0
LINE
  5
152
  100
AcDbEntity
  8
1
  100
AcDbLine
  10
54.5
  20
0.7005
  30
0
  11
54.6
  21
0.610696
  31
0
  0
LINE
  5
153
  100
AcDbEntity
  8
1
  100
AcDbLine
  10
54.6
  20
0.610696
  30
0
  11
54.7
  21
0.520302
  31
0
  0
LINE
  5
154
  100
AcDbEntity
  8
1
  100
AcDbLine
  10
54.7
  20
0.520302
  30
0
  11
54.8
  21
0.429405
  31
0
  0
LINE
  5
155
  100
AcDbEntity
  8
1
  100
AcDbLine
  10
54.8
  20
0.429405
  30
0
  11
54.9
  21
0.338094
  31
0
  0
LINE
  5
156
  100
AcDbEntity
  8
1
  100
AcDbLine
  10
54.9
  20
0.338094
  30
0
  11
55
  21
0.246455
  31
0
  0
LINE
  5
157
  100
AcDbEntity
  8
1
  100
AcDbLine
  10
55
  20
0.246455
  30
0
  11
55.1
  21
0.154579
  31
0
  0
LINE
  5
158
  100
AcDbEntity
  8
1
  100
AcDbLine
  10
55.1
  20
0.154579
  30
0
  11
55.2
  21
0.062553
  31
0
  0
LINE
  5
159
  100
AcDbEntity
  8
1
  100
AcDbLine
  10
55.2
  20
0.062553
  30
0
  11
55.3
  21
-0.029533
  31
0
  0
LINE
  5
15a
  100
AcDbEntity
  8
1
  100
AcDbLine
  10
55.3
  20
-0.029533
  30
0
  11
55.4
  21
-0.12159
  31
0
  0
LINE
  5
15b
  100
AcDbEntity
  8
1
  100
AcDbLine
  10
55.4
  20
-0.12159
  30
0
  11
55.5
  21
-0.213531
  31
0
  0
LINE
  5
15c
  100
AcDbEntity
  8
1
  100
AcDbLine
  10
55.5
  20
-0.213531
  30
0
  11
55.6
  21
-0.305264
  31
0
  0
LINE
  5
15d
  100
AcDbEntity
  8
1
  100
AcDbLine
  10
55.6
  20
-0.305264
  30
0
  11
55.7
  21
-0.396703
  31
0
  0
LINE
  5
15e
  100
AcDbEntity
  8
1
  100
AcDbLine
  10
55.7
  20
-0.396703
  30
0
  11
55.8
  21
-0.487759
  31
0
  0
LINE
  5
15f
  100
AcDbEntity
  8
1
  100
AcDbLine
  10
55.8
  20
-0.487759
  30
0
  11
55.9
  21
-0.578343
  31
0
  0
LINE
  5
160
  100
AcDbEntity
  8
1
  100
AcDbLine
  10
55.9
  20
-0.578343
  30
0
  11
56
  21
-0.668369
  31
0
  0
LINE
  5
161
  100
AcDbEntity
  8
1
  100
AcDbLine
  10
56
  20
-0.668369
  30
0
  11
56.1
  21
-0.757749
  31
0
  0
LINE
  5
162
  100
AcDbEntity
  8
1
  100
AcDbLine
  10
56.1
  20
-0.757749
  30
0
  11
56.2
  21
-0.846397
  31
0
  0
LINE
  5
163
  100
AcDbEntity
  8
1
  100
AcDbLine
  10
56.2
  20
-0.846397
  30
0
  11
56.3
  21
-0.934227
  31
0
  0
LINE
  5
164
  100
AcDbEntity
  8
1
  100
AcDbLine
  10
56.3
  20
-0.934227
  30
0
  11
56.4
  21
-1.021154
  31
0
  0
LINE
  5
165
  100
AcDbEntity
  8
1
  100
AcDbLine
  10
56.4
  20
-1.021154
  30
0
  11
56.5
  21
-1.107095
  31
0
  0
LINE
  5
166
  100
AcDbEntity
  8
1
  100
AcDbLine
  10
56.5
  20
-1.107095
  30
0
  11
56.6
  21
-1.191967
  31
0
  0
LINE
  5
167
  100
AcDbEntity
  8
1
  100
AcDbLine
  10
56.6
  20
-1.191967
  30
0
  11
56.7
  21
-1.275686
  31
0
  0
LINE
  5
168
  100
AcDbEntity
  8
1
  100
AcDbLine
  10
56.7
  20
-1.275686
  30
0
  11
56.8
  21
-1.358174
  31
0
  0
LINE
  5
169
  100
AcDbEntity
  8
1
  100
AcDbLine
  10
56.8
  20
-1.358174
  30
0
  11
56.9
  21
-1.439349
  31
0
  0
LINE
  5
16a
  100
AcDbEntity
  8
1
  100
AcDbLine
  10
56.9
  20
-1.439349
  30
0
  11
57
  21
-1.519133
  31
0
  0
LINE
  5
16b
  100
AcDbEntity
  8
1
  100
AcDbLine
  10
57
  20
-1.519133
  30
0
  11
57.1
  21
-1.59745
  31
0
  0
LINE
  5
16c
  100
AcDbEntity
  8
1
  100
AcDbLine
  10
57.1
  20
-1.59745
  30
0
  11
57.2
  21
-1.674224
  31
0
  0
LINE
  5
16d
  100
AcDbEntity
  8
1
  100
AcDbLine
  10
57.2
  20
-1.674224
  30
0
  11
57.3
  21
-1.74938
  31
0
  0
LINE
  5
16e
  100
AcDbEntity
  8
1
  100
AcDbLine
  10
57.3
  20
-1.74938
  30
0
  11
57.4
  21
-1.822845
  31
0
  0
LINE
  5
16f
  100
AcDbEntity
  8
1
  100
AcDbLine
  10
57.4
  20
-1.822845
  30
0
  11
57.5
  21
-1.89455
  31
0
  0
LINE
  5
170
  100
AcDbEntity
  8
1
  100
AcDbLine
  10
57.5
  20
-1.89455
  30
0
  11
57.6
  21
-1.964425
  31
0
  0
LINE
  5
171
  100
AcDbEntity
  8
1
  100
AcDbLine
  10
57.6
  20
-1.964425
  30
0
  11
57.7
  21
-2.032401
  31
0
  0
LINE
  5
172
  100
AcDbEntity
  8
1
  100
AcDbLine
  10
57.7
  20
-2.032401
  30
0
  11
57.8
  21
-2.098414
  31
0
  0
LINE
  5
173
  100
AcDbEntity
  8
1
  100
AcDbLine
  10
57.8
  20
-2.098414
  30
0
  11
57.9
  21
-2.1624
  31
0
  0
LINE
  5
174
  100
AcDbEntity
  8
1
  100
AcDbLine
  10
57.9
  20
-2.1624
  30
0
  11
58
  21
-2.224296
  31
0
  0
LINE
  5
175
  100
AcDbEntity
  8
1
  100
AcDbLine
  10
58
  20
-2.224296
  30
0
  11
58.1
  21
-2.284044
  31
0
  0
LINE
  5
176
  100
AcDbEntity
  8
1
  100
AcDbLine
  10
58.1
  20
-2.284044
  30
0
  11
58.2
  21
-2.341585
  31
0
  0
LINE
  5
177
  100
AcDbEntity
  8
1
  100
AcDbLine
  10
58.2
  20
-2.341585
  30
0
  11
58.3
  21
-2.396863
  31
0
  0
LINE
  5
178
  100
AcDbEntity
  8
1
  100
AcDbLine
  10
58.3
  20
-2.396863
  30
0
  11
58.4
  21
-2.449826
  31
0
  0
LINE
  5
179
  100
AcDbEntity
  8
1
  100
AcDbLine
  10
58.4
  20
-2.449826
  30
0
  11
58.5
  21
-2.500422
  31
0
  0
LINE
  5
17a
  100
AcDbEntity
  8
1
  100
AcDbLine
  10
58.5
  20
-2.500422
  30
0
  11
58.6
  21
-2.548602
  31
0
  0
LINE
  5
17b
  100
AcDbEntity
  8
1
  100
AcDbLine
  10
58.6
  20
-2.548602
  30
0
  11
58.7
  21
-2.59432
  31
0
  0
LINE
  5
17c
  100
AcDbEntity
  8
1
  100
AcDbLine
  10
58.7
  20
-2.59432
  30
0
  11
58.8
  21
-2.637532
  31
0
  0
LINE
  5
17d
  100
AcDbEntity
  8
1
  100
AcDbLine
  10
58.8
  20
-2.637532
  30
0
  11
58.9
  21
-2.678195
  31
0
  0
LINE
  5
17e
  100
AcDbEntity
  8
1
  100
AcDbLine
  10
58.9
  20
-2.678195
  30
0
  11
59
  21
-2.716271
  31
0
  0
LINE
  5
17f
  100
AcDbEntity
  8
1
  100
AcDbLine
  10
59
  20
-2.716271
  30
0
  11
59.1
  21
-2.746647
  31
0
  0
LINE
  5
180
  100
AcDbEntity
  8
1
  100
AcDbLine
  10
59.1
  20
-2.746647
  30
0
  11
59.2
  21
-2.763973
  31
0
  0
LINE
  5
181
  100
AcDbEntity
  8
1
  100
AcDbLine
  10
59.2
  20
-2.763973
  30
0
  11
59.3
  21
-2.767633
  31
0
  0
LINE
  5
182
  100
AcDbEntity
  8
1
  100
AcDbLine
  10
59.3
  20
-2.767633
  30
0
  11
59.4
  21
-2.756638
  31
0
  0
LINE
  5
183
  100
AcDbEntity
  8
1
  100
AcDbLine
  10
59.4
  20
-2.756638
  30
0
  11
59.5
  21
-2.729441
  31
0
  0
LINE
  5
184
  100
AcDbEntity
  8
1
  100
AcDbLine
  10
59.5
  20
-2.729441
  30
0
  11
59.6
  21
-2.683549
  31
0
  0
LINE
  5
185
  100
AcDbEntity
  8
1
  100
AcDbLine
  10
59.6
  20
-2.683549
  30
0
  11
59.7
  21
-2.614652
  31
0
  0
LINE
  5
186
  100
AcDbEntity
  8
1
  100
AcDbLine
  10
59.7
  20
-2.614652
  30
0
  11
59.8
  21
-2.514223
  31
0
  0
LINE
  5
187
  100
AcDbEntity
  8
1
  100
AcDbLine
  10
59.8
  20
-2.514223
  30
0
  11
59.9
  21
-2.360149
  31
0
  0
LINE
  5
188
  100
AcDbEntity
  8
1
  100
AcDbLine
  10
59.9
  20
-2.360149
  30
0
  11
59.997866
  21
-1.934711
  31
0
  0
LINE
  5
189
  100
AcDbEntity
  8
1
  100
AcDbLine
  10
59.997866
  20
-1.934711
  30
0
  11
60
  21
-1.925436
  31
0
  0
LINE
  5
18a
  100
AcDbEntity
  8
1
  100
AcDbLine
  10
60
  20
-1.996031
  30
0
  11
59.999992
  21
-1.996065
  31
0
  0
LINE
  5
18b
  100
AcDbEntity
  8
1
  100
AcDbLine
  10
59.999992
  20
-1.996065
  30
0
  11
59.9
  21
-2.430948
  31
0
  0
LINE
  5
18c
  100
AcDbEntity
  8
1
  100
AcDbLine
  10
59.9
  20
-2.430948
  30
0
  11
59.8
  21
-2.590871
  31
0
  0
LINE
  5
18d
  100
AcDbEntity
  8
1
  100
AcDbLine
  10
59.8
  20
-2.590871
  30
0
  11
59.7
  21
-2.698309
  31
0
  0
LINE
  5
18e
  100
AcDbEntity
  8
1
  100
AcDbLine
  10
59.7
  20
-2.698309
  30
0
  11
59.6
  21
-2.774756
  31
0
  0
LINE
  5
18f
  100
AcDbEntity
  8
1
  100
AcDbLine
  10
59.6
  20
-2.774756
  30
0
  11
59.5
  21
-2.828503
  31
0
  0
LINE
  5
190
  100
AcDbEntity
  8
1
  100
AcDbLine
  10
59.5
  20
-2.828503
  30
0
  11
59.4
  21
-2.863739
  31
0
  0
LINE
  5
191
  100
AcDbEntity
  8
1
  100
AcDbLine
  10
59.4
  20
-2.863739
  30
0
  11
59.3
  21
-2.882884
  31
0
  0
LINE
  5
192
  100
AcDbEntity
  8
1
  100
AcDbLine
  10
59.3
  20
-2.882884
  30
0
  11
59.2
  21
-2.887438
  31
0
  0
LINE
  5
193
  100
AcDbEntity
  8
1
  100
AcDbLine
  10
59.2
  20
-2.887438
  30
0
  11
59.1
  21
-2.878357
  31
0
  0
LINE
  5
194
  100
AcDbEntity
  8
1
  100
AcDbLine
  10
59.1
  20
-2.878357
  30
0
  11
59
  21
-2.856232
  31
0
  0
LINE
  5
195
  100
AcDbEntity
  8
1
  100
AcDbLine
  10
59
  20
-2.856232
  30
0
  11
58.9
  21
-2.826336
  31
0
  0
LINE
  5
196
  100
AcDbEntity
  8
1
  100
AcDbLine
  10
58.9
  20
-2.826336
  30
0
  11
58.8
  21
-2.793708
  31
0
  0
LINE
  5
197
  100
AcDbEntity
  8
1
  100
AcDbLine
  10
58.8
  20
-2.793708
  30
0
  11
58.7
  21
-2.758382
  31
0
  0
LINE
  5
198
  100
AcDbEntity
  8
1
  100
AcDbLine
  10
58.7
  20
-2.758382
  30
0
  11
58.6
  21
-2.72039
  31
0
  0
LINE
  5
199
  100
AcDbEntity
  8
1
  100
AcDbLine
  10
58.6
  20
-2.72039
  30
0
  11
58.5
  21
-2.679771
  31
0
  0
LINE
  5
19a
  100
AcDbEntity
  8
1
  100
AcDbLine
  10
58.5
  20
-2.679771
  30
0
  11
58.4
  21
-2.636562
  31
0
  0
LINE
  5
19b
  100
AcDbEntity
  8
1
  100
AcDbLine
  10
58.4
  20
-2.636562
  30
0
  11
58.3
  21
-2.590806
  31
0
  0
LINE
  5
19c
  100
AcDbEntity
  8
1
  100
AcDbLine
  10
58.3
  20
-2.590806
  30
0
  11
58.2
  21
-2.542547
  31
0
  0
LINE
  5
19d
  100
AcDbEntity
  8
1
  100
AcDbLine
  10
58.2
  20
-2.542547
  30
0
  11
58.1
  21
-2.491832
  31
0
  0
LINE
  5
19e
  100
AcDbEntity
  8
1
  100
AcDbLine
  10
58.1
  20
-2.491832
  30
0
  11
58
  21
-2.438709
  31
0
  0
LINE
  5
19f
  100
AcDbEntity
  8
1
  100
AcDbLine
  10
58
  20
-2.438709
  30
0
  11
57.9
  21
-2.38323
  31
0
  0
LINE
  5
1a0
  100
AcDbEntity
  8
1
  100
AcDbLine
  10
57.9
  20
-2.38323
  30
0
  11
57.8
  21
-2.325449
  31
0
  0
LINE
  5
1a1
  100
AcDbEntity
  8
1
  100
AcDbLine
  10
57.8
  20
-2.325449
  30
0
  11
57.7
  21
-2.265421
  31
0
  0
LINE
  5
1a2
  100
AcDbEntity
  8
1
  100
AcDbLine
  10
57.7
  20
-2.265421
  30
0
  11
57.6
  21
-2.203204
  31
0
  0
LINE
  5
1a3
  100
AcDbEntity
  8
1
  100
AcDbLine
  10
57.6
  20
-2.203204
  30
0
  11
57.5
  21
-2.138859
  31
0
  0
LINE
  5
1a4
  100
AcDbEntity
  8
1
  100
AcDbLine
  10
57.5
  20
-2.138859
  30
0
  11
57.4
  21
-2.072447
  31
0
  0
LINE
  5
1a5
  100
AcDbEntity
  8
1
  100
AcDbLine
  10
57.4
  20
-2.072447
  30
0
  11
57.3
  21
-2.004033
  31
0
  0
LINE
  5
1a6
  100
AcDbEntity
  8
1
  100
AcDbLine
  10
57.3
  20
-2.004033
  30
0
  11
57.2
  21
-1.933683
  31
0
  0
LINE
  5
1a7
  100
AcDbEntity
  8
1
  100
AcDbLine
  10
57.2
  20
-1.933683
  30
0
  11
57.1
  21
-1.861465
  31
0
  0
LINE
  5
1a8
  100
AcDbEntity
  8
1
  100
AcDbLine
  10
57.1
  20
-1.861465
  30
0
  11
57
  21
-1.787448
  31
0
  0
LINE
  5
1a9
  100
AcDbEntity
  8
1
  100
AcDbLine
  10
57
  20
-1.787448
  30
0
  11
56.9
  21
-1.711704
  31
0
  0
LINE
  5
1aa
  100
AcDbEntity
  8
1
  100
AcDbLine
  10
56.9
  20
-1.711704
  30
0
  11
56.8
  21
-1.634307
  31
0
  0
LINE
  5
1ab
  100
AcDbEntity
  8
1
  100
AcDbLine
  10
56.8
  20
-1.634307
  30
0
  11
56.7
  21
-1.555331
  31
0
  0
LINE
  5
1ac
  100
AcDbEntity
  8
1
  100
AcDbLine
  10
56.7
  20
-1.555331
  30
0
  11
56.6
  21
-1.474852
  31
0
  0
LINE
  5
1ad
  100
AcDbEntity
  8
1
  100
AcDbLine
  10
56.6
  20
-1.474852
  30
0
  11
56.5
  21
-1.392948
  31
0
  0
LINE
  5
1ae
  100
AcDbEntity
  8
1
  100
AcDbLine
  10
56.5
  20
-1.392948
  30
0
  11
56.4
  21
-1.309698
  31
0
  0
LINE
  5
1af
  100
AcDbEntity
  8
1
  100
AcDbLine
  10
56.4
  20
-1.309698
  30
0
  11
56.3
  21
-1.225183
  31
0
  0
LINE
  5
1b0
  100
AcDbEntity
  8
1
  100
AcDbLine
  10
56.3
  20
-1.225183
  30
0
  11
56.2
  21
-1.139485
  31
0
  0
LINE
  5
1b1
  100
AcDbEntity
  8
1
  100
AcDbLine
  10
56.2
  20
-1.139485
  30
0
  11
56.1
  21
-1.052685
  31
0
  0
LINE
  5
1b2
  100
AcDbEntity
  8
1
  100
AcDbLine
  10
56.1
  20
-1.052685
  30
0
  11
56
  21
-0.964868
  31
0
  0
LINE
  5
1b3
  100
AcDbEntity
  8
1
  100
AcDbLine
  10
56
  20
-0.964868
  30
0
  11
55.9
  21
-0.87612
  31
0
  0
LINE
  5
1b4
  100
AcDbEntity
  8
1
  100
AcDbLine
  10
55.9
  20
-0.87612
  30
0
  11
55.8
  21
-0.786525
  31
0
  0
LINE
  5
1b5
  100
AcDbEntity
  8
1
  100
AcDbLine
  10
55.8
  20
-0.786525
  30
0
  11
55.7
  21
-0.69617
  31
0
  0
LINE
  5
1b6
  100
AcDbEntity
  8
1
  100
AcDbLine
  10
55.7
  20
-0.69617
  30
0
  11
55.6
  21
-0.605142
  31
0
  0
LINE
  5
1b7
  100
AcDbEntity
  8
1
  100
AcDbLine
  10
55.6
  20
-0.605142
  30
0
  11
55.5
  21
-0.51353
  31
0
  0
LINE
  5
1b8
  100
AcDbEntity
  8
1
  100
AcDbLine
  10
55.5
  20
-0.51353
  30
0
  11
55.4
  21
-0.421421
  31
0
  0
LINE
  5
1b9
  100
AcDbEntity
  8
1
  100
AcDbLine
  10
55.4
  20
-0.421421
  30
0
  11
55.3
  21
-0.328906
  31
0
  0
LINE
  5
1ba
  100
AcDbEntity
  8
1
  100
AcDbLine
  10
55.3
  20
-0.328906
  30
0
  11
55.2
  21
-0.236072
  31
0
  0
LINE
  5
1bb
  100
AcDbEntity
  8
1
  100
AcDbLine
  10
55.2
  20
-0.236072
  30
0
  11
55.1
  21
-0.143011
  31
0
  0
LINE
  5
1bc
  100
AcDbEntity
  8
1
  100
AcDbLine
  10
55.1
  20
-0.143011
  30
0
  11
55
  21
-0.049811
  31
0
  0
LINE
  5
1bd
  100
AcDbEntity
  8
1
  100
AcDbLine
  10
55
  20
-0.049811
  30
0
  11
54.9
  21
0.043436
  31
0
  0
LINE
  5
1be
  100
AcDbEntity
  8
1
  100
AcDbLine
  10
54.9
  20
0.043436
  30
0
  11
54.8
  21
0.136642
  31
0
  0
LINE
  5
1bf
  100
AcDbEntity
  8
1
  100
AcDbLine
  10
54.8
  20
0.136642
  30
0
  11
54.7
  21
0.229716
  31
0
  0
LINE
  5
1c0
  100
AcDbEntity
  8
1
  100
AcDbLine
  10
54.7
  20
0.229716
  30
0
  11
54.6
  21
0.322568
  31
0
  0
LINE
  5
1c1
  100
AcDbEntity
  8
1
  100
AcDbLine
  10
54.6
  20
0.322568
  30
0
  11
54.5
  21
0.415108
  31
0
  0
LINE
  5
1c2
  100
AcDbEntity
  8
1
  100
AcDbLine
  10
54.5
  20
0.415108
  30
0
  11
54.4
  21
0.507247
  31
0
  0
LINE
  5
1c3
  100
AcDbEntity
  8
1
  100
AcDbLine
  10
54.4
  20
0.507247
  30
0
  11
54.3
  21
0.598896
  31
0
  0
LINE
  5
1c4
  100
AcDbEntity
  8
1
  100
AcDbLine
  10
54.3
  20
0.598896
  30
0
  11
54.2
  21
0.689966
  31
0
  0
LINE
  5
1c5
  100
AcDbEntity
  8
1
  100
AcDbLine
  10
54.2
  20
0.689966
  30
0
  11
54.1
  21
0.78037
  31
0
  0
LINE
  5
1c6
  100
AcDbEntity
  8
1
  100
AcDbLine
  10
54.1
  20
0.78037
  30
0
  11
54
  21
0.87002
  31
0
  0
LINE
  5
1c7
  100
AcDbEntity
  8
1
  100
AcDbLine
  10
54
  20
0.87002
  30
0
  11
53.9
  21
0.958829
  31
0
  0
LINE
  5
1c8
  100
AcDbEntity
  8
1
  100
AcDbLine
  10
53.9
  20
0.958829
  30
0
  11
53.8
  21
1.046712
  31
0
  0
LINE
  5
1c9
  100
AcDbEntity
  8
1
  100
AcDbLine
  10
53.8
  20
1.046712
  30
0
  11
53.7
  21
1.133584
  31
0
  0
LINE
  5
1ca
  100
AcDbEntity
  8
1
  100
AcDbLine
  10
53.7
  20
1.133584
  30
0
  11
53.6
  21
1.219361
  31
0
  0
LINE
  5
1cb
  100
AcDbEntity
  8
1
  100
AcDbLine
  10
53.6
  20
1.219361
  30
0
  11
53.5
  21
1.303959
  31
0
  0
LINE
  5
1cc
  100
AcDbEntity
  8
1
  100
AcDbLine
  10
53.5
  20
1.303959
  30
0
  11
53.4
  21
1.387298
  31
0
  0
LINE
  5
1cd
  100
AcDbEntity
  8
1
  100
AcDbLine
  10
53.4
  20
1.387298
  30
0
  11
53.3
  21
1.469296
  31
0
  0
LINE
  5
1ce
  100
AcDbEntity
  8
1
  100
AcDbLine
  10
53.3
  20
1.469296
  30
0
  11
53.2
  21
1.549875
  31
0
  0
LINE
  5
1cf
  100
AcDbEntity
  8
1
  100
AcDbLine
  10
53.2
  20
1.549875
  30
0
  11
53.1
  21
1.628957
  31
0
  0
LINE
  5
1d0
  100
AcDbEntity
  8
1
  100
AcDbLine
  10
53.1
  20
1.628957
  30
0
  11
53
  21
1.706464
  31
0
  0
LINE
  5
1d1
  100
AcDbEntity
  8
1
  100
AcDbLine
  10
53
  20
1.706464
  30
0
  11
52.9
  21
1.782323
  31
0
  0
LINE
  5
1d2
  100
AcDbEntity
  8
1
  100
AcDbLine
  10
52.9
  20
1.782323
  30
0
  11
52.8
  21
1.856461
  31
0
  0
LINE
  5
1d3
  100
AcDbEntity
  8
1
  100
AcDbLine
  10
52.8
  20
1.856461
  30
0
  11
52.7
  21
1.928804
  31
0
  0
LINE
  5
1d4
  100
AcDbEntity
  8
1
  100
AcDbLine
  10
52.7
  20
1.928804
  30
0
  11
52.6
  21
1.999284
  31
0
  0
LINE
  5
1d5
  100
AcDbEntity
  8
1
  100
AcDbLine
  10
52.6
  20
1.999284
  30
0
  11
52.5
  21
2.067833
  31
0
  0
LINE
  5
1d6
  100
AcDbEntity
  8
1
  100
AcDbLine
  10
52.5
  20
2.067833
  30
0
  11
52.4
  21
2.134383
  31
0
  0
LINE
  5
1d7
  100
AcDbEntity
  8
1
  100
AcDbLine
  10
52.4
  20
2.134383
  30
0
  11
52.3
  21
2.198872
  31
0
  0
LINE
  5
1d8
  100
AcDbEntity
  8
1
  100
AcDbLine
  10
52.3
  20
2.198872
  30
0
  11
52.2
  21
2.261236
  31
0
  0
LINE
  5
1d9
  100
AcDbEntity
  8
1
  100
AcDbLine
  10
52.2
  20
2.261236
  30
0
  11
52.1
  21
2.321416
  31
0
  0
LINE
  5
1da
  100
AcDbEntity
  8
1
  100
AcDbLine
  10
52.1
  20
2.321416
  30
0
  11
52
  21
2.379353
  31
0
  0
LINE
  5
1db
  100
AcDbEntity
  8
1
  100
AcDbLine
  10
52
  20
2.379353
  30
0
  11
51.9
  21
2.434991
  31
0
  0
LINE
  5
1dc
  100
AcDbEntity
  8
1
  100
AcDbLine
  10
51.9
  20
2.434991
  30
0
  11
51.8
  21
2.488276
  31
0
  0
LINE
  5
1dd
  100
AcDbEntity
  8
1
  100
AcDbLine
  10
51.8
  20
2.488276
  30
0
  11
51.7
  21
2.539158
  31
0
  0
LINE
  5
1de
  100
AcDbEntity
  8
1
  100
AcDbLine
  10
51.7
  20
2.539158
  30
0
  11
51.6
  21
2.587586
  31
0
  0
LINE
  5
1df
  100
AcDbEntity
  8
1
  100
AcDbLine
  10
51.6
  20
2.587586
  30
0
  11
51.5
  21
2.633515
  31
0
  0
LINE
  5
1e0
  100
AcDbEntity
  8
1
  100
AcDbLine
  10
51.5
  20
2.633515
  30
0
  11
51.4
  21
2.676899
  31
0
  0
LINE
  5
1e1
  100
AcDbEntity
  8
1
  100
AcDbLine
  10
51.4
  20
2.676899
  30
0
  11
51.3
  21
2.717697
  31
0
  0
LINE
  5
1e2
  100
AcDbEntity
  8
1
  100
AcDbLine
  10
51.3
  20
2.717697
  30
0
  11
51.2
  21
2.755869
  31
0
  0
LINE
  5
1e3
  100
AcDbEntity
  8
1
  100
AcDbLine
  10
51.2
  20
2.755869
  30
0
  11
51.1
  21
2.791379
  31
0
  0
LINE
  5
1e4
  100
AcDbEntity
  8
1
  100
AcDbLine
  10
51.1
  20
2.791379
  30
0
  11
51
  21
2.824192
  31
0
  0
LINE
  5
1e5
  100
AcDbEntity
  8
1
  100
AcDbLine
  10
51
  20
2.824192
  30
0
  11
50.9
  21
2.854276
  31
0
  0
LINE
  5
1e6
  100
AcDbEntity
  8
1
  100
AcDbLine
  10
50.9
  20
2.854276
  30
0
  11
50.8
  21
2.881603
  31
0
  0
LINE
  5
1e7
  100
AcDbEntity
  8
1
  100
AcDbLine
  10
50.8
  20
2.881603
  30
0
  11
50.7
  21
2.906146
  31
0
  0
LINE
  5
1e8
  100
AcDbEntity
  8
1
  100
AcDbLine
  10
50.7
  20
2.906146
  30
0
  11
50.6
  21
2.927881
  31
0
  0
LINE
  5
1e9
  100
AcDbEntity
  8
1
  100
AcDbLine
  10
50.6
  20
2.927881
  30
0
  11
50.5
  21
2.946787
  31
0
  0
LINE
  5
1ea
  100
AcDbEntity
  8
1
  100
AcDbLine
  10
50.5
  20
2.946787
  30
0
  11
50.4
  21
2.962847
  31
0
  0
LINE
  5
1eb
  100
AcDbEntity
  8
1
  100
AcDbLine
  10
50.4
  20
2.962847
  30
0
  11
50.3
  21
2.976044
  31
0
  0
LINE
  5
1ec
  100
AcDbEntity
  8
1
  100
AcDbLine
  10
50.3
  20
2.976044
  30
0
  11
50.2
  21
2.986365
  31
0
  0
LINE
  5
1ed
  100
AcDbEntity
  8
1
  100
AcDbLine
  10
50.2
  20
2.986365
  30
0
  11
50.1
  21
2.993802
  31
0
  0
LINE
  5
1ee
  100
AcDbEntity
  8
1
  100
AcDbLine
  10
50.1
  20
2.993802
  30
0
  11
50
  21
2.998346
  31
0
  0
LINE
  5
1ef
  100
AcDbEntity
  8
1
  100
AcDbLine
  10
50
  20
2.998346
  30
0
  11
49.9
  21
2.999993
  31
0
  0
LINE
  5
1f0
  100
AcDbEntity
  8
1
  100
AcDbLine
  10
49.9
  20
2.999993
  30
0
  11
49.893162
  21
3
  31
0
  0
LINE
  5
1f1
  100
AcDbEntity
  8
1
  100
AcDbLine
  10
45.850428
  20
3
  30
0
  11
45.9
  21
2.999644
  31
0
  0
LINE
  5
1f2
  100
AcDbEntity
  8
1
  100
AcDbLine
  10
45.9
  20
2.999644
  30
0
  11
46
  21
2.996758
  31
0
  0
LINE
  5
1f3
  100
AcDbEntity
  8
1
  100
AcDbLine
  10
46
  20
2.996758
  30
0
  11
46.1
  21
2.990977
  31
0
  0
LINE
  5
1f4
  100
AcDbEntity
  8
1
  100
AcDbLine
  10
46.1
  20
2.990977
  30
0
  11
46.2
  21
2.982307
  31
0
  0
LINE
  5
1f5
  100
AcDbEntity
  8
1
  100
AcDbLine
  10
46.2
  20
2.982307
  30
0
  11
46.3
  21
2.970755
  31
0
  0
LINE
  5
1f6
  100
AcDbEntity
  8
1
  100
AcDbLine
  10
46.3
  20
2.970755
  30
0
  11
46.4
  21
2.956333
  31
0
  0
LINE
  5
1f7
  100
AcDbEntity
  8
1
  100
AcDbLine
  10
46.4
  20
2.956333
  30
0
  11
46.5
  21
2.939055
  31
0
  0
LINE
  5
1f8
  100
AcDbEntity
  8
1
  100
AcDbLine
  10
46.5
  20
2.939055
  30
0
  11
46.6
  21
2.918937
  31
0
  0
LINE
  5
1f9
  100
AcDbEntity
  8
1
  100
AcDbLine
  10
46.6
  20
2.918937
  30
0
  11
46.7
  21
2.896
  31
0
  0
LINE
  5
1fa
  100
AcDbEntity
  8
1
  100
AcDbLine
  10
46.7
  20
2.896
  30
0
  11
46.8
  21
2.870264
  31
0
  0
LINE
  5
1fb
  100
AcDbEntity
  8
1
  100
AcDbLine
  10
46.8
  20
2.870264
  30
0
  11
46.9
  21
2.841755
  31
0
  0
LINE
  5
1fc
  100
AcDbEntity
  8
1
  100
AcDbLine
  10
46.9
  20
2.841755
  30
0
  11
47
  21
2.810501
  31
0
  0
LINE
  5
1fd
  100
AcDbEntity
  8
1
  100
AcDbLine
  10
47
  20
2.810501
  30
0
  11
47.1
  21
2.776532
  31
0
  0
LINE
  5
1fe
  100
AcDbEntity
  8
1
  100
AcDbLine
  10
47.1
  20
2.776532
  30
0
  11
47.2
  21
2.73988
  31
0
  0
LINE
  5
1ff
  100
AcDbEntity
  8
1
  100
AcDbLine
  10
47.2
  20
2.73988
  30
0
  11
47.3
  21
2.700581
  31
0
  0
LINE
  5
200
  100
AcDbEntity
  8
1
  100
AcDbLine
  10
47.3
  20
2.700581
  30
0
  11
47.4
  21
2.658673
  31
0
  0
LINE
  5
201
  100
AcDbEntity
  8
1
  100
AcDbLine
  10
47.4
  20
2.658673
  30
0
  11
47.5
  21
2.614196
  31
0
  0
LINE
  5
202
  100
AcDbEntity
  8
1
  100
AcDbLine
  10
47.5
  20
2.614196
  30
0
  11
47.6
  21
2.567194
  31
0
  0
LINE
  5
203
  100
AcDbEntity
  8
1
  100
AcDbLine
  10
47.6
  20
2.567194
  30
0
  11
47.7
  21
2.517711
  31
0
  0
LINE
  5
204
  100
AcDbEntity
  8
1
  100
AcDbLine
  10
47.7
  20
2.517711
  30
0
  11
47.8
  21
2.465796
  31
0
  0
LINE
  5
205
  100
AcDbEntity
  8
1
  100
AcDbLine
  10
47.8
  20
2.465796
  30
0
  11
47.9
  21
2.411499
  31
0
  0
LINE
  5
206
  100
AcDbEntity
  8
1
  100
AcDbLine
  10
47.9
  20
2.411499
  30
0
  11
48
  21
2.354871
  31
0
  0
LINE
  5
207
  100
AcDbEntity
  8
1
  100
AcDbLine
  10
48
  20
2.354871
  30
0
  11
48.1
  21
2.295969
  31
0
  0
LINE
  5
208
  100
AcDbEntity
  8
1
  100
AcDbLine
  10
48.1
  20
2.295969
  30
0
  11
48.2
  21
2.234849
  31
0
  0
LINE
  5
209
  100
AcDbEntity
  8
1
  100
AcDbLine
  10
48.2
  20
2.234849
  30
0
  11
48.3
  21
2.171569
  31
0
  0
LINE
  5
20a
  100
AcDbEntity
  8
1
  100
AcDbLine
  10
48.3
  20
2.171569
  30
0
  11
48.4
  21
2.106192
  31
0
  0
LINE
  5
20b
  100
AcDbEntity
  8
1
  100
AcDbLine
  10
48.4
  20
2.106192
  30
0
  11
48.5
  21
2.038779
  31
0
  0
LINE
  5
20c
  100
AcDbEntity
  8
1
  100
AcDbLine
  10
48.5
  20
2.038779
  30
0
  11
48.6
  21
1.969397
  31
0
  0
LINE
  5
20d
  100
AcDbEntity
  8
1
  100
AcDbLine
  10
48.6
  20
1.969397
  30
0
  11
48.7
  21
1.898112
  31
0
  0
LINE
  5
20e
  100
AcDbEntity
  8
1
  100
AcDbLine
  10
48.7
  20
1.898112
  30
0
  11
48.8
  21
1.824994
  31
0
  0
LINE
  5
20f
  100
AcDbEntity
  8
1
  100
AcDbLine
  10
48.8
  20
1.824994
  30
0
  11
48.9
  21
1.750112
  31
0
  0
LINE
  5
210
  100
AcDbEntity
  8
1
  100
AcDbLine
  10
48.9
  20
1.750112
  30
0
  11
49
  21
1.673539
  31
0
  0
LINE
  5
211
  100
AcDbEntity
  8
1
  100
AcDbLine
  10
49
  20
1.673539
  30
0
  11
49.1
  21
1.59535
  31
0
  0
LINE
  5
212
  100
AcDbEntity
  8
1
  100
AcDbLine
  10
49.1
  20
1.59535
  30
0
  11
49.2
  21
1.515619
  31
0
  0
LINE
  5
213
  100
AcDbEntity
  8
1
  100
AcDbLine
  10
49.2
  20
1.515619
  30
0
  11
49.3
  21
1.434424
  31
0
  0
LINE
  5
214
  100
AcDbEntity
  8
1
  100
AcDbLine
  10
49.3
  20
1.434424
  30
0
  11
49.4
  21
1.351843
  31
0
  0
LINE
  5
215
  100
AcDbEntity
  8
1
  100
AcDbLine
  10
49.4
  20
1.351843
  30
0
  11
49.5
  21
1.267956
  31
0
  0
LINE
  5
216
  100
AcDbEntity
  8
1
  100
AcDbLine
  10
49.5
  20
1.267956
  30
0
  11
49.6
  21
1.182844
  31
0
  0
LINE
  5
217
  100
AcDbEntity
  8
1
  100
AcDbLine
  10
49.6
  20
1.182844
  30
0
  11
49.7
  21
1.096589
  31
0
  0
LINE
  5
218
  100
AcDbEntity
  8
1
  100
AcDbLine
  10
49.7
  20
1.096589
  30
0
  11
49.8
  21
1.009275
  31
0
  0
LINE
  5
219
  100
AcDbEntity
  8
1
  100
AcDbLine
  10
49.8
  20
1.009275
  30
0
  11
49.9
  21
0.920985
  31
0
  0
LINE
  5
21a
  100
AcDbEntity
  8
1
  100
AcDbLine
  10
49.9
  20
0.920985
  30
0
  11
50
  21
0.831806
  31
0
  0
LINE
  5
21b
  100
AcDbEntity
  8
1
  100
AcDbLine
  10
50
  20
0.831806
  30
0
  11
50.1
  21
0.741824
  31
0
  0
LINE
  5
21c
  100
AcDbEntity
  8
1
  100
AcDbLine
  10
50.1
  20
0.741824
  30
0
  11
50.2
  21
0.651124
  31
0
  0
LINE
  5
21d
  100
AcDbEntity
  8
1
  100
AcDbLine
  10
50.2
  20
0.651124
  30
0
  11
50.3
  21
0.559796
  31
0
  0
LINE
  5
21e
  100
AcDbEntity
  8
1
  100
AcDbLine
  10
50.3
  20
0.559796
  30
0
  11
50.4
  21
0.467926
  31
0
  0
LINE
  5
21f
  100
AcDbEntity
  8
1
  100
AcDbLine
  10
50.4
  20
0.467926
  30
0
  11
50.5
  21
0.375605
  31
0
  0
LINE
  5
220
  100
AcDbEntity
  8
1
  100
AcDbLine
  10
50.5
  20
0.375605
  30
0
  11
50.6
  21
0.282921
  31
0
  0
LINE
  5
221
  100
AcDbEntity
  8
1
  100
AcDbLine
  10
50.6
  20
0.282921
  30
0
  11
50.7
  21
0.189963
  31
0
  0
LINE
  5
222
  100
AcDbEntity
  8
1
  100
AcDbLine
  10
50.7
  20
0.189963
  30
0
  11
50.8
  21
0.096822
  31
0
  0
LINE
  5
223
  100
AcDbEntity
  8
1
  100
AcDbLine
  10
50.8
  20
0.096822
  30
0
  11
50.9
  21
0.003587
  31
0
  0
LINE
  5
224
  100
AcDbEntity
  8
1
  100
AcDbLine
  10
50.9
  20
0.003587
  30
0
  11
51
  21
-0.089651
  31
0
  0
LINE
  5
225
  100
AcDbEntity
  8
1
  100
AcDbLine
  10
51
  20
-0.089651
  30
0
  11
51.1
  21
-0.182803
  31
0
  0
LINE
  5
226
  100
AcDbEntity
  8
1
  100
AcDbLine
  10
51.1
  20
-0.182803
  30
0
  11
51.2
  21
-0.275778
  31
0
  0
LINE
  5
227
  100
AcDbEntity
  8
1
  100
AcDbLine
  10
51.2
  20
-0.275778
  30
0
  11
51.3
  21
-0.368486
  31
0
  0
LINE
  5
228
  100
AcDbEntity
  8
1
  100
AcDbLine
  10
51.3
  20
-0.368486
  30
0
  11
51.4
  21
-0.460839
  31
0
  0
LINE
  5
229
  100
AcDbEntity
  8
1
  100
AcDbLine
  10
51.4
  20
-0.460839
  30
0
  11
51.5
  21
-0.552746
  31
0
  0
LINE
  5
22a
  100
AcDbEntity
  8
1
  100
AcDbLine
  10
51.5
  20
-0.552746
  30
0
  11
51.6
  21
-0.644119
  31
0
  0
LINE
  5
22b
  100
AcDbEntity
  8
1
  100
AcDbLine
  10
51.6
  20
-0.644119
  30
0
  11
51.7
  21
-0.73487
  31
0
  0
LINE
  5
22c
  100
AcDbEntity
  8
1
  100
AcDbLine
  10
51.7
  20
-0.73487
  30
0
  11
51.8
  21
-0.824911
  31
0
  0
LINE
  5
22d
  100
AcDbEntity
  8
1
  100
AcDbLine
  10
51.8
  20
-0.824911
  30
0
  11
51.9
  21
-0.914155
  31
0
  0
LINE
  5
22e
  100
AcDbEntity
  8
1
  100
AcDbLine
  10
51.9
  20
-0.914155
  30
0
  11
52
  21
-1.002516
  31
0
  0
LINE
  5
22f
  100
AcDbEntity
  8
1
  100
AcDbLine
  10
52
  20
-1.002516
  30
0
  11
52.1
  21
-1.089908
  31
0
  0
LINE
  5
230
  100
AcDbEntity
  8
1
  100
AcDbLine
  10
52.1
  20
-1.089908
  30
0
  11
52.2
  21
-1.176247
  31
0
  0
LINE
  5
231
  100
AcDbEntity
  8
1
  100
AcDbLine
  10
52.2
  20
-1.176247
  30
0
  11
52.3
  21
-1.26145
  31
0
  0
LINE
  5
232
  100
AcDbEntity
  8
1
  100
AcDbLine
  10
52.3
  20
-1.26145
  30
0
  11
52.4
  21
-1.345434
  31
0
  0
LINE
  5
233
  100
AcDbEntity
  8
1
  100
AcDbLine
  10
52.4
  20
-1.345434
  30
0
  11
52.5
  21
-1.428118
  31
0
  0
LINE
  5
234
  100
AcDbEntity
  8
1
  100
AcDbLine
  10
52.5
  20
-1.428118
  30
0
  11
52.6
  21
-1.509423
  31
0
  0
LINE
  5
235
  100
AcDbEntity
  8
1
  100
AcDbLine
  10
52.6
  20
-1.509423
  30
0
  11
52.7
  21
-1.589269
  31
0
  0
LINE
  5
236
  100
AcDbEntity
  8
1
  100
AcDbLine
  10
52.7
  20
-1.589269
  30
0
  11
52.8
  21
-1.66758
  31
0
  0
LINE
  5
237
  100
AcDbEntity
  8
1
  100
AcDbLine
  10
52.8
  20
-1.66758
  30
0
  11
52.9
  21
-1.74428
  31
0
  0
LINE
  5
238
  100
AcDbEntity
  8
1
  100
AcDbLine
  10
52.9
  20
-1.74428
  30
0
  11
53
  21
-1.819294
  31
0
  0
LINE
  5
239
  100
AcDbEntity
  8
1
  100
AcDbLine
  10
53
  20
-1.819294
  30
0
  11
53.1
  21
-1.892551
  31
0
  0
LINE
  5
23a
  100
AcDbEntity
  8
1
  100
AcDbLine
  10
53.1
  20
-1.892551
  30
0
  11
53.2
  21
-1.963979
  31
0
  0
LINE
  5
23b
  100
AcDbEntity
  8
1
  100
AcDbLine
  10
53.2
  20
-1.963979
  30
0
  11
53.3
  21
-2.03351
  31
0
  0
LINE
  5
23c
  100
AcDbEntity
  8
1
  100
AcDbLine
  10
53.3
  20
-2.03351
  30
0
  11
53.4
  21
-2.101077
  31
0
  0
LINE
  5
23d
  100
AcDbEntity
  8
1
  100
AcDbLine
  10
53.4
  20
-2.101077
  30
0
  11
53.5
  21
-2.166613
  31
0
  0
LINE
  5
23e
  100
AcDbEntity
  8
1
  100
AcDbLine
  10
53.5
  20
-2.166613
  30
0
  11
53.6
  21
-2.230056
  31
0
  0
LINE
  5
23f
  100
AcDbEntity
  8
1
  100
AcDbLine
  10
53.6
  20
-2.230056
  30
0
  11
53.7
  21
-2.291345
  31
0
  0
LINE
  5
240
  100
AcDbEntity
  8
1
  100
AcDbLine
  10
53.7
  20
-2.291345
  30
0
  11
53.8
  21
-2.35042
  31
0
  0
LINE
  5
241
  100
AcDbEntity
  8
1
  100
AcDbLine
  10
53.8
  20
-2.35042
  30
0
  11
53.9
  21
-2.407224
  31
0
  0
LINE
  5
242
  100
AcDbEntity
  8
1
  100
AcDbLine
  10
53.9
  20
-2.407224
  30
0
  11
54
  21
-2.461702
  31
0
  0
LINE
  5
243
  100
AcDbEntity
  8
1
  100
AcDbLine
  10
54
  20
-2.461702
  30
0
  11
54.1
  21
-2.513803
  31
0
  0
LINE
  5
244
  100
AcDbEntity
  8
1
  100
AcDbLine
  10
54.1
  20
-2.513803
  30
0
  11
54.2
  21
-2.563474
  31
0
  0
LINE
  5
245
  100
AcDbEntity
  8
1
  100
AcDbLine
  10
54.2
  20
-2.563474
  30
0
  11
54.3
  21
-2.610669
  31
0
  0
LINE
  5
246
  100
AcDbEntity
  8
1
  100
AcDbLine
  10
54.3
  20
-2.610669
  30
0
  11
54.4
  21
-2.655342
  31
0
  0
LINE
  5
247
  100
AcDbEntity
  8
1
  100
AcDbLine
  10
54.4
  20
-2.655342
  30
0
  11
54.5
  21
-2.697449
  31
0
  0
LINE
  5
248
  100
AcDbEntity
  8
1
  100
AcDbLine
  10
54.5
  20
-2.697449
  30
0
  11
54.6
  21
-2.73695
  31
0
  0
LINE
  5
249
  100
AcDbEntity
  8
1
  100
AcDbLine
  10
54.6
  20
-2.73695
  30
0
  11
54.7
  21
-2.773807
  31
0
  0
LINE
  5
24a
  100
AcDbEntity
  8
1
  100
AcDbLine
  10
54.7
  20
-2.773807
  30
0
  11
54.8
  21
-2.807984
  31
0
  0
LINE
  5
24b
  100
AcDbEntity
  8
1
  100
AcDbLine
  10
54.8
  20
-2.807984
  30
0
  11
54.9
  21
-2.839448
  31
0
  0
LINE
  5
24c
  100
AcDbEntity
  8
1
  100
AcDbLine
  10
54.9
  20
-2.839448
  30
0
  11
55
  21
-2.868169
  31
0
  0
LINE
  5
24d
  100
AcDbEntity
  8
1
  100
AcDbLine
  10
55
  20
-2.868169
  30
0
  11
55.1
  21
-2.894119
  31
0
  0
LINE
  5
24e
  100
AcDbEntity
  8
1
  100
AcDbLine
  10
55.1
  20
-2.894119
  30
0
  11
55.2
  21
-2.917272
  31
0
  0
LINE
  5
24f
  100
AcDbEntity
  8
1
  100
AcDbLine
  10
55.2
  20
-2.917272
  30
0
  11
55.3
  21
-2.937608
  31
0
  0
LINE
  5
250
  100
AcDbEntity
  8
1
  100
AcDbLine
  10
55.3
  20
-2.937608
  30
0
  11
55.4
  21
-2.955105
  31
0
  0
LINE
  5
251
  100
AcDbEntity
  8
1
  100
AcDbLine
  10
55.4
  20
-2.955105
  30
0
  11
55.5
  21
-2.969747
  31
0
  0
LINE
  5
252
  100
AcDbEntity
  8
1
  100
AcDbLine
  10
55.5
  20
-2.969747
  30
0
  11
55.6
  21
-2.98152
  31
0
  0
LINE
  5
253
  100
AcDbEntity
  8
1
  100
AcDbLine
  10
55.6
  20
-2.98152
  30
0
  11
55.7
  21
-2.990413
  31
0
  0
LINE
  5
254
  100
AcDbEntity
  8
1
  100
AcDbLine
  10
55.7
  20
-2.990413
  30
0
  11
55.8
  21
-2.996416
  31
0
  0
LINE
  5
255
  100
AcDbEntity
  8
1
  100
AcDbLine
  10
55.8
  20
-2.996416
  30
0
  11
55.9
  21
-2.999525
  31
0
  0
LINE
  5
256
  100
AcDbEntity
  8
1
  100
AcDbLine
  10
55.9
  20
-2.999525
  30
0
  11
55.957265
  21
-3
  31
0
  0
LINE
  5
257
  100
AcDbEntity
  8
1
  100
AcDbLine
  10
55.267929
  20
-3
  30
0
  11
55.2
  21
-2.962013
  31
0
  0
LINE
  5
258
  100
AcDbEntity
  8
1
  100
AcDbLine
  10
55.2
  20
-2.962013
  30
0
  11
55.1
  21
-2.958638
  31
0
  0
LINE
  5
259
  100
AcDbEntity
  8
1
  100
AcDbLine
  10
55.1
  20
-2.958638
  30
0
  11
55
  21
-2.952405
  31
0
  0
LINE
  5
25a
  100
AcDbEntity
  8
1
  100
AcDbLine
  10
55
  20
-2.952405
  30
0
  11
54.9
  21
-2.943319
  31
0
  0
LINE
  5
25b
  100
AcDbEntity
  8
1
  100
AcDbLine
  10
54.9
  20
-2.943319
  30
0
  11
54.8
  21
-2.93139
  31
0
  0
LINE
  5
25c
  100
AcDbEntity
  8
1
  100
AcDbLine
  10
54.8
  20
-2.93139
  30
0
  11
54.7
  21
-2.916628
  31
0
  0
LINE
  5
25d
  100
AcDbEntity
  8
1
  100
AcDbLine
  10
54.7
  20
-2.916628
  30
0
  11
54.6
  21
-2.899049
  31
0
  0
LINE
  5
25e
  100
AcDbEntity
  8
1
  100
AcDbLine
  10
54.6
  20
-2.899049
  30
0
  11
54.5
  21
-2.878669
  31
0
  0
LINE
  5
25f
  100
AcDbEntity
  8
1
  100
AcDbLine
  10
54.5
  20
-2.878669
  30
0
  11
54.4
  21
-2.855507
  31
0
  0
LINE
  5
260
  100
AcDbEntity
  8
1
  100
AcDbLine
  10
54.4
  20
-2.855507
  30
0
  11
54.3
  21
-2.829587
  31
0
  0
LINE
  5
261
  100
AcDbEntity
  8
1
  100
AcDbLine
  10
54.3
  20
-2.829587
  30
0
  11
54.2
  21
-2.800933
  31
0
  0
LINE
  5
262
  100
AcDbEntity
  8
1
  100
AcDbLine
  10
54.2
  20
-2.800933
  30
0
  11
54.1
  21
-2.769574
  31
0
  0
LINE
  5
263
  100
AcDbEntity
  8
1
  100
AcDbLine
  10
54.1
  20
-2.769574
  30
0
  11
54
  21
-2.735538
  31
0
  0
LINE
  5
264
  100
AcDbEntity
  8
1
  100
AcDbLine
  10
54
  20
-2.735538
  30
0
  11
53.9
  21
-2.698859
  31
0
  0
LINE
  5
265
  100
AcDbEntity
  8
1
  100
AcDbLine
  10
53.9
  20
-2.698859
  30
0
  11
53.8
  21
-2.659573
  31
0
  0
LINE
  5
266
  100
AcDbEntity
  8
1
  100
AcDbLine
  10
53.8
  20
-2.659573
  30
0
  11
53.7
  21
-2.617718
  31
0
  0
LINE
  5
267
  100
AcDbEntity
  8
1
  100
AcDbLine
  10
53.7
  20
-2.617718
  30
0
  11
53.6
  21
-2.573333
  31
0
  0
LINE
  5
268
  100
AcDbEntity
  8
1
  100
AcDbLine
  10
53.6
  20
-2.573333
  30
0
  11
53.5
  21
-2.526463
  31
0
  0
LINE
  5
269
  100
AcDbEntity
  8
1
  100
AcDbLine
  10
53.5
  20
-2.526463
  30
0
  11
53.4
  21
-2.477151
  31
0
  0
LINE
  5
26a
  100
AcDbEntity
  8
1
  100
AcDbLine
  10
53.4
  20
-2.477151
  30
0
  11
53.3
  21
-2.425447
  31
0
  0
LINE
  5
26b
  100
AcDbEntity
  8
1
  100
AcDbLine
  10
53.3
  20
-2.425447
  30
0
  11
53.2
  21
-2.371398
  31
0
  0
LINE
  5
26c
  100
AcDbEntity
  8
1
  100
AcDbLine
  10
53.2
  20
-2.371398
  30
0
  11
53.1
  21
-2.315059
  31
0
  0
LINE
  5
26d
  100
AcDbEntity
  8
1
  100
AcDbLine
  10
53.1
  20
-2.315059
  30
0
  11
53
  21
-2.256483
  31
0
  0
LINE
  5
26e
  100
AcDbEntity
  8
1
  100
AcDbLine
  10
53
  20
-2.256483
  30
0
  11
52.9
  21
-2.195728
  31
0
  0
LINE
  5
26f
  100
AcDbEntity
  8
1
  100
AcDbLine
  10
52.9
  20
-2.195728
  30
0
  11
52.8
  21
-2.13285
  31
0
  0
LINE
  5
270
  100
AcDbEntity
  8
1
  100
AcDbLine
  10
52.8
  20
-2.13285
  30
0
  11
52.7
  21
-2.067913
  31
0
  0
LINE
  5
271
  100
AcDbEntity
  8
1
  100
AcDbLine
  10
52.7
  20
-2.067913
  30
0
  11
52.6
  21
-2.000977
  31
0
  0
LINE
  5
272
  100
AcDbEntity
  8
1
  100
AcDbLine
  10
52.6
  20
-2.000977
  30
0
  11
52.5
  21
-1.932108
  31
0
  0
LINE
  5
273
  100
AcDbEntity
  8
1
  100
AcDbLine
  10
52.5
  20
-1.932108
  30
0
  11
52.4
  21
-1.861373
  31
0
  0
LINE
  5
274
  100
AcDbEntity
  8
1
  100
AcDbLine
  10
52.4
  20
-1.861373
  30
0
  11
52.3
  21
-1.788839
  31
0
  0
LINE
  5
275
  100
AcDbEntity
  8
1
  100
AcDbLine
  10
52.3
  20
-1.788839
  30
0
  11
52.2
  21
-1.714577
  31
0
  0
LINE
  5
276
  100
AcDbEntity
  8
1
  100
AcDbLine
  10
52.2
  20
-1.714577
  30
0
  11
52.1
  21
-1.638658
  31
0
  0
LINE
  5
277
  100
AcDbEntity
  8
1
  100
AcDbLine
  10
52.1
  20
-1.638658
  30
0
  11
52
  21
-1.561156
  31
0
  0
LINE
  5
278
  100
AcDbEntity
  8
1
  100
AcDbLine
  10
52
  20
-1.561156
  30
0
  11
51.9
  21
-1.482146
  31
0
  0
LINE
  5
279
  100
AcDbEntity
  8
1
  100
AcDbLine
  10
51.9
  20
-1.482146
  30
0
  11
51.8
  21
-1.401704
  31
0
  0
LINE
  5
27a
  100
AcDbEntity
  8
1
  100
AcDbLine
  10
51.8
  20
-1.401704
  30
0
  11
51.7
  21
-1.319908
  31
0
  0
LINE
  5
27b
  100
AcDbEntity
  8
1
  100
AcDbLine
  10
51.7
  20
-1.319908
  30
0
  11
51.6
  21
-1.236837
  31
0
  0
LINE
  5
27c
  100
AcDbEntity
  8
1
  100
AcDbLine
  10
51.6
  20
-1.236837
  30
0
  11
51.5
  21
-1.15257
  31
0
  0
LINE
  5
27d
  100
AcDbEntity
  8
1
  100
AcDbLine
  10
51.5
  20
-1.15257
  30
0
  11
51.4
  21
-1.067191
  31
0
  0
LINE
  5
27e
  100
AcDbEntity
  8
1
  100
AcDbLine
  10
51.4
  20
-1.067191
  30
0
  11
51.3
  21
-0.98078
  31
0
  0
LINE
  5
27f
  100
AcDbEntity
  8
1
  100
AcDbLine
  10
51.3
  20
-0.98078
  30
0
  11
51.2
  21
-0.893421
  31
0
  0
LINE
  5
280
  100
AcDbEntity
  8
1
  100
AcDbLine
  10
51.2
  20
-0.893421
  30
0
  11
51.1
  21
-0.8052
  31
0
  0
LINE
  5
281
  100
AcDbEntity
  8
1
  100
AcDbLine
  10
51.1
  20
-0.8052
  30
0
  11
51
  21
-0.7162
  31
0
  0
LINE
  5
282
  100
AcDbEntity
  8
1
  100
AcDbLine
  10
51
  20
-0.7162
  30
0
  11
50.9
  21
-0.626509
  31
0
  0
LINE
  5
283
  100
AcDbEntity
  8
1
  100
AcDbLine
  10
50.9
  20
-0.626509
  30
0
  11
50.8
  21
-0.536212
  31
0
  0
LINE
  5
284
  100
AcDbEntity
  8
1
  100
AcDbLine
  10
50.8
  20
-0.536212
  30
0
  11
50.7
  21
-0.445397
  31
0
  0
LINE
  5
285
  100
AcDbEntity
  8
1
  100
AcDbLine
  10
50.7
  20
-0.445397
  30
0
  11
50.6
  21
-0.354152
  31
0
  0
LINE
  5
286
  100
AcDbEntity
  8
1
  100
AcDbLine
  10
50.6
  20
-0.354152
  30
0
  11
50.5
  21
-0.262565
  31
0
  0
LINE
  5
287
  100
AcDbEntity
  8
1
  100
AcDbLine
  10
50.5
  20
-0.262565
  30
0
  11
50.4
  21
-0.170724
  31
0
  0
LINE
  5
288
  100
AcDbEntity
  8
1
  100
AcDbLine
  10
50.4
  20
-0.170724
  30
0
  11
50.3
  21
-0.078718
  31
0
  0
LINE
  5
289
  100
AcDbEntity
  8
1
  100
AcDbLine
  10
50.3
  20
-0.078718
  30
0
  11
50.2
  21
0.013364
  31
0
  0
LINE
  5
28a
  100
AcDbEntity
  8
1
  100
AcDbLine
  10
50.2
  20
0.013364
  30
0
  11
50.1
  21
0.105433
  31
0
  0
LINE
  5
28b
  100
AcDbEntity
  8
1
  100
AcDbLine
  10
50.1
  20
0.105433
  30
0
  11
50
  21
0.1974
  31
0
  0
LINE
  5
28c
  100
AcDbEntity
  8
1
  100
AcDbLine
  10
50
  20
0.1974
  30
0
  11
49.9
  21
0.289177
  31
0
  0
LINE
  5
28d
  100
AcDbEntity
  8
1
  100
AcDbLine
  10
49.9
  20
0.289177
  30
0
  11
49.8
  21
0.380674
  31
0
  0
LINE
  5
28e
  100
AcDbEntity
  8
1
  100
AcDbLine
  10
49.8
  20
0.380674
  30
0
  11
49.7
  21
0.471803
  31
0
  0
LINE
  5
28f
  100
AcDbEntity
  8
1
  100
AcDbLine
  10
49.7
  20
0.471803
  30
0
  11
49.6
  21
0.562477
  31
0
  0
LINE
  5
290
  100
AcDbEntity
  8
1
  100
AcDbLine
  10
49.6
  20
0.562477
  30
0
  11
49.5
  21
0.652607
  31
0
  0
LINE
  5
291
  100
AcDbEntity
  8
1
  100
AcDbLine
  10
49.5
  20
0.652607
  30
0
  11
49.4
  21
0.742106
  31
0
  0
LINE
  5
292
  100
AcDbEntity
  8
1
  100
AcDbLine
  10
49.4
  20
0.742106
  30
0
  11
49.3
  21
0.830889
  31
0
  0
LINE
  5
293
  100
AcDbEntity
  8
1
  100
AcDbLine
  10
49.3
  20
0.830889
  30
0
  11
49.2
  21
0.918869
  31
0
  0
LINE
  5
294
  100
AcDbEntity
  8
1
  100
AcDbLine
  10
49.2
  20
0.918869
  30
0
  11
49.1
  21
1.005961
  31
0
  0
LINE
  5
295
  100
AcDbEntity
  8
1
  100
AcDbLine
  10
49.1
  20
1.005961
  30
0
  11
49
  21
1.092081
  31
0
  0
LINE
  5
296
  100
AcDbEntity
  8
1
  100
AcDbLine
  10
49
  20
1.092081
  30
0
  11
48.9
  21
1.177146
  31
0
  0
LINE
  5
297
  100
AcDbEntity
  8
1
  100
AcDbLine
  10
48.9
  20
1.177146
  30
0
  11
48.8
  21
1.261074
  31
0
  0
LINE
  5
298
  100
AcDbEntity
  8
1
  100
AcDbLine
  10
48.8
  20
1.261074
  30
0
  11
48.7
  21
1.343783
  31
0
  0
LINE
  5
299
  100
AcDbEntity
  8
1
  100
AcDbLine
  10
48.7
  20
1.343783
  30
0
  11
48.6
  21
1.425195
  31
0
  0
LINE
  5
29a
  100
AcDbEntity
  8
1
  100
AcDbLine
  10
48.6
  20
1.425195
  30
0
  11
48.5
  21
1.505229
  31
0
  0
LINE
  5
29b
  100
AcDbEntity
  8
1
  100
AcDbLine
  10
48.5
  20
1.505229
  30
0
  11
48.4
  21
1.583809
  31
0
  0
LINE
  5
29c
  100
AcDbEntity
  8
1
  100
AcDbLine
  10
48.4
  20
1.583809
  30
0
  11
48.3
  21
1.660859
  31
0
  0
LINE
  5
29d
  100
AcDbEntity
  8
1
  100
AcDbLine
  10
48.3
  20
1.660859
  30
0
  11
48.2
  21
1.736304
  31
0
  0
LINE
  5
29e
  100
AcDbEntity
  8
1
  100
AcDbLine
  10
48.2
  20
1.736304
  30
0
  11
48.1
  21
1.810072
  31
0
  0
LINE
  5
29f
  100
AcDbEntity
  8
1
  100
AcDbLine
  10
48.1
  20
1.810072
  30
0
  11
48
  21
1.882091
  31
0
  0
LINE
  5
2a0
  100
AcDbEntity
  8
1
  100
AcDbLine
  10
48
  20
1.882091
  30
0
  11
47.9
  21
1.952292
  31
0
  0
LINE
  5
2a1
  100
AcDbEntity
  8
1
  100
AcDbLine
  10
47.9
  20
1.952292
  30
0
  11
47.8
  21
2.020606
  31
0
  0
LINE
  5
2a2
  100
AcDbEntity
  8
1
  100
AcDbLine
  10
47.8
  20
2.020606
  30
0
  11
47.7
  21
2.086969
  31
0
  0
LINE
  5
2a3
  100
AcDbEntity
  8
1
  100
AcDbLine
  10
47.7
  20
2.086969
  30
0
  11
47.6
  21
2.151315
  31
0
  0
LINE
  5
2a4
  100
AcDbEntity
  8
1
  100
AcDbLine
  10
47.6
  20
2.151315
  30
0
  11
47.5
  21
2.213582
  31
0
  0
LINE
  5
2a5
  100
AcDbEntity
  8
1
  100
AcDbLine
  10
47.5
  20
2.213582
  30
0
  11
47.4
  21
2.273711
  31
0
  0
LINE
  5
2a6
  100
AcDbEntity
  8
1
  100
AcDbLine
  10
47.4
  20
2.273711
  30
0
  11
47.3
  21
2.331644
  31
0
  0
LINE
  5
2a7
  100
AcDbEntity
  8
1
  100
AcDbLine
  10
47.3
  20
2.331644
  30
0
  11
47.2
  21
2.387324
  31
0
  0
LINE
  5
2a8
  100
AcDbEntity
  8
1
  100
AcDbLine
  10
47.2
  20
2.387324
  30
0
  11
47.1
  21
2.440697
  31
0
  0
LINE
  5
2a9
  100
AcDbEntity
  8
1
  100
AcDbLine
  10
47.1
  20
2.440697
  30
0
  11
47
  21
2.491712
  31
0
  0
LINE
  5
2aa
  100
AcDbEntity
  8
1
  100
AcDbLine
  10
47
  20
2.491712
  30
0
  11
46.9
  21
2.54032
  31
0
  0
LINE
  5
2ab
  100
AcDbEntity
  8
1
  100
AcDbLine
  10
46.9
  20
2.54032
  30
0
  11
46.8
  21
2.586474
  31
0
  0
LINE
  5
2ac
  100
AcDbEntity
  8
1
  100
AcDbLine
  10
46.8
  20
2.586474
  30
0
  11
46.7
  21
2.630128
  31
0
  0
LINE
  5
2ad
  100
AcDbEntity
  8
1
  100
AcDbLine
  10
46.7
  20
2.630128
  30
0
  11
46.6
  21
2.671242
  31
0
  0
LINE
  5
2ae
  100
AcDbEntity
  8
1
  100
AcDbLine
  10
46.6
  20
2.671242
  30
0
  11
46.5
  21
2.709775
  31
0
  0
LINE
  5
2af
  100
AcDbEntity
  8
1
  100
AcDbLine
  10
46.5
  20
2.709775
  30
0
  11
46.4
  21
2.74569
  31
0
  0
LINE
  5
2b0
  100
AcDbEntity
  8
1
  100
AcDbLine
  10
46.4
  20
2.74569
  30
0
  11
46.3
  21
2.778952
  31
0
  0
LINE
  5
2b1
  100
AcDbEntity
  8
1
  100
AcDbLine
  10
46.3
  20
2.778952
  30
0
  11
46.2
  21
2.80953
  31
0
  0
LINE
  5
2b2
  100
AcDbEntity
  8
1
  100
AcDbLine
  10
46.2
  20
2.80953
  30
0
  11
46.1
  21
2.837393
  31
0
  0
LINE
  5
2b3
  100
AcDbEntity
  8
1
  100
AcDbLine
  10
46.1
  20
2.837393
  30
0
  11
46
  21
2.862515
  31
0
  0
LINE
  5
2b4
  100
AcDbEntity
  8
1
  100
AcDbLine
  10
46
  20
2.862515
  30
0
  11
45.9
  21
2.884871
  31
0
  0
LINE
  5
2b5
  100
AcDbEntity
  8
1
  100
AcDbLine
  10
45.9
  20
2.884871
  30
0
  11
45.8
  21
2.90444
  31
0
  0
LINE
  5
2b6
  100
AcDbEntity
  8
1
  100
AcDbLine
  10
45.8
  20
2.90444
  30
0
  11
45.7
  21
2.921203
  31
0
  0
LINE
  5
2b7
  100
AcDbEntity
  8
1
  100
AcDbLine
  10
45.7
  20
2.921203
  30
0
  11
45.6
  21
2.935144
  31
0
  0
LINE
  5
2b8
  100
AcDbEntity
  8
1
  100
AcDbLine
  10
45.6
  20
2.935144
  30
0
  11
45.5
  21
2.946249
  31
0
  0
LINE
  5
2b9
  100
AcDbEntity
  8
1
  100
AcDbLine
  10
45.5
  20
2.946249
  30
0
  11
45.4
  21
2.954508
  31
0
  0
LINE
  5
2ba
  100
AcDbEntity
  8
1
  100
AcDbLine
  10
45.4
  20
2.954508
  30
0
  11
45.3
  21
2.959912
  31
0
  0
LINE
  5
2bb
  100
AcDbEntity
  8
1
  100
AcDbLine
  10
45.3
  20
2.959912
  30
0
  11
45.2
  21
2.962457
  31
0
  0
LINE
  5
2bc
  100
AcDbEntity
  8
1
  100
AcDbLine
  10
45.2
  20
2.962457
  30
0
  11
45.161093
  21
3
  31
0
  0
LINE
  5
2bd
  100
AcDbEntity
  8
1
  100
AcDbLine
  10
45
  20
2.996279
  30
0
  11
45.1
  21
2.990189
  31
0
  0
LINE
  5
2be
  100
AcDbEntity
  8
1
  100
AcDbLine
  10
45.1
  20
2.990189
  30
0
  11
45.2
  21
2.98121
  31
0
  0
LINE
  5
2bf
  100
AcDbEntity
  8
1
  100
AcDbLine
  10
45.2
  20
2.98121
  30
0
  11
45.3
  21
2.969351
  31
0
  0
LINE
  5
2c0
  100
AcDbEntity
  8
1
  100
AcDbLine
  10
45.3
  20
2.969351
  30
0
  11
45.4
  21
2.954623
  31
0
  0
LINE
  5
2c1
  100
AcDbEntity
  8
1
  100
AcDbLine
  10
45.4
  20
2.954623
  30
0
  11
45.5
  21
2.937041
  31
0
  0
LINE
  5
2c2
  100
AcDbEntity
  8
1
  100
AcDbLine
  10
45.5
  20
2.937041
  30
0
  11
45.6
  21
2.916621
  31
0
  0
LINE
  5
2c3
  100
AcDbEntity
  8
1
  100
AcDbLine
  10
45.6
  20
2.916621
  30
0
  11
45.7
  21
2.893383
  31
0
  0
LINE
  5
2c4
  100
AcDbEntity
  8
1
  100
AcDbLine
  10
45.7
  20
2.893383
  30
0
  11
45.8
  21
2.86735
  31
0
  0
LINE
  5
2c5
  100
AcDbEntity
  8
1
  100
AcDbLine
  10
45.8
  20
2.86735
  30
0
  11
45.9
  21
2.838547
  31
0
  0
LINE
  5
2c6
  100
AcDbEntity
  8
1
  100
AcDbLine
  10
45.9
  20
2.838547
  30
0
  11
46
  21
2.807001
  31
0
  0
LINE
  5
2c7
  100
AcDbEntity
  8
1
  100
AcDbLine
  10
46
  20
2.807001
  30
0
  11
46.1
  21
2.772743
  31
0
  0
LINE
  5
2c8
  100
AcDbEntity
  8
1
  100
AcDbLine
  10
46.1
  20
2.772743
  30
0
  11
46.2
  21
2.735807
  31
0
  0
LINE
  5
2c9
  100
AcDbEntity
  8
1
  100
AcDbLine
  10
46.2
  20
2.735807
  30
0
  11
46.3
  21
2.696227
  31
0
  0
LINE
  5
2ca
  100
AcDbEntity
  8
1
  100
AcDbLine
  10
46.3
  20
2.696227
  30
0
  11
46.4
  21
2.654043
  31
0
  0
LINE
  5
2cb
  100
AcDbEntity
  8
1
  100
AcDbLine
  10
46.4
  20
2.654043
  30
0
  11
46.5
  21
2.609294
  31
0
  0
LINE
  5
2cc
  100
AcDbEntity
  8
1
  100
AcDbLine
  10
46.5
  20
2.609294
  30
0
  11
46.6
  21
2.562024
  31
0
  0
LINE
  5
2cd
  100
AcDbEntity
  8
1
  100
AcDbLine
  10
46.6
  20
2.562024
  30
0
  11
46.7
  21
2.51228
  31
0
  0
LINE
  5
2ce
  100
AcDbEntity
  8
1
  100
AcDbLine
  10
46.7
  20
2.51228
  30
0
  11
46.8
  21
2.460108
  31
0
  0
LINE
  5
2cf
  100
AcDbEntity
  8
1
  100
AcDbLine
  10
46.8
  20
2.460108
  30
0
  11
46.9
  21
2.405559
  31
0
  0
LINE
  5
2d0
  100
AcDbEntity
  8
1
  100
AcDbLine
  10
46.9
  20
2.405559
  30
0
  11
47
  21
2.348686
  31
0
  0
LINE
  5
2d1
  100
AcDbEntity
  8
1
  100
AcDbLine
  10
47
  20
2.348686
  30
0
  11
47.1
  21
2.289544
  31
0
  0
LINE
  5
2d2
  100
AcDbEntity
  8
1
  100
AcDbLine
  10
47.1
  20
2.289544
  30
0
  11
47.2
  21
2.22819
  31
0
  0
LINE
  5
2d3
  100
AcDbEntity
  8
1
  100
AcDbLine
  10
47.2
  20
2.22819
  30
0
  11
47.3
  21
2.164683
  31
0
  0
LINE
  5
2d4
  100
AcDbEntity
  8
1
  100
AcDbLine
  10
47.3
  20
2.164683
  30
0
  11
47.4
  21
2.099085
  31
0
  0
LINE
  5
2d5
  100
AcDbEntity
  8
1
  100
AcDbLine
  10
47.4
  20
2.099085
  30
0
  11
47.5
  21
2.031459
  31
0
  0
LINE
  5
2d6
  100
AcDbEntity
  8
1
  100
AcDbLine
  10
47.5
  20
2.031459
  30
0
  11
47.6
  21
1.961871
  31
0
  0
LINE
  5
2d7
  100
AcDbEntity
  8
1
  100
AcDbLine
  10
47.6
  20
1.961871
  30
0
  11
47.7
  21
1.890387
  31
0
  0
LINE
  5
2d8
  100
AcDbEntity
  8
1
  100
AcDbLine
  10
47.7
  20
1.890387
  30
0
  11
47.8
  21
1.817076
  31
0
  0
LINE
  5
2d9
  100
AcDbEntity
  8
1
  100
AcDbLine
  10
47.8
  20
1.817076
  30
0
  11
47.9
  21
1.74201
  31
0
  0
LINE
  5
2da
  100
AcDbEntity
  8
1
  100
AcDbLine
  10
47.9
  20
1.74201
  30
0
  11
48
  21
1.665261
  31
0
  0
LINE
  5
2db
  100
AcDbEntity
  8
1
  100
AcDbLine
  10
48
  20
1.665261
  30
0
  11
48.1
  21
1.586904
  31
0
  0
LINE
  5
2dc
  100
AcDbEntity
  8
1
  100
AcDbLine
  10
48.1
  20
1.586904
  30
0
  11
48.2
  21
1.507013
  31
0
  0
LINE
  5
2dd
  100
AcDbEntity
  8
1
  100
AcDbLine
  10
48.2
  20
1.507013
  30
0
  11
48.3
  21
1.425666
  31
0
  0
LINE
  5
2de
  100
AcDbEntity
  8
1
  100
AcDbLine
  10
48.3
  20
1.425666
  30
0
  11
48.4
  21
1.342941
  31
0
  0
LINE
  5
2df
  100
AcDbEntity
  8
1
  100
AcDbLine
  10
48.4
  20
1.342941
  30
0
  11
48.5
  21
1.25892
  31
0
  0
LINE
  5
2e0
  100
AcDbEntity
  8
1
  100
AcDbLine
  10
48.5
  20
1.25892
  30
0
  11
48.6
  21
1.173682
  31
0
  0
LINE
  5
2e1
  100
AcDbEntity
  8
1
  100
AcDbLine
  10
48.6
  20
1.173682
  30
0
  11
48.7
  21
1.08731
  31
0
  0
LINE
  5
2e2
  100
AcDbEntity
  8
1
  100
AcDbLine
  10
48.7
  20
1.08731
  30
0
  11
48.8
  21
0.999887
  31
0
  0
LINE
  5
2e3
  100
AcDbEntity
  8
1
  100
AcDbLine
  10
48.8
  20
0.999887
  30
0
  11
48.9
  21
0.911499
  31
0
  0
LINE
  5
2e4
  100
AcDbEntity
  8
1
  100
AcDbLine
  10
48.9
  20
0.911499
  30
0
  11
49
  21
0.82223
  31
0
  0
LINE
  5
2e5
  100
AcDbEntity
  8
1
  100
AcDbLine
  10
49
  20
0.82223
  30
0
  11
49.1
  21
0.732166
  31
0
  0
LINE
  5
2e6
  100
AcDbEntity
  8
1
  100
AcDbLine
  10
49.1
  20
0.732166
  30
0
  11
49.2
  21
0.641395
  31
0
  0
LINE
  5
2e7
  100
AcDbEntity
  8
1
  100
AcDbLine
  10
49.2
  20
0.641395
  30
0
  11
49.3
  21
0.550005
  31
0
  0
LINE
  5
2e8
  100
AcDbEntity
  8
1
  100
AcDbLine
  10
49.3
  20
0.550005
  30
0
  11
49.4
  21
0.458083
  31
0
  0
LINE
  5
2e9
  100
AcDbEntity
  8
1
  100
AcDbLine
  10
49.4
  20
0.458083
  30
0
  11
49.5
  21
0.365719
  31
0
  0
LINE
  5
2ea
  100
AcDbEntity
  8
1
  100
AcDbLine
  10
49.5
  20
0.365719
  30
0
  11
49.6
  21
0.273001
  31
0
  0
LINE
  5
2eb
  100
AcDbEntity
  8
1
  100
AcDbLine
  10
49.6
  20
0.273001
  30
0
  11
49.7
  21
0.180019
  31
0
  0
LINE
  5
2ec
  100
AcDbEntity
  8
1
  100
AcDbLine
  10
49.7
  20
0.180019
  30
0
  11
49.8
  21
0.086864
  31
0
  0
LINE
  5
2ed
  100
AcDbEntity
  8
1
  100
AcDbLine
  10
49.8
  20
0.086864
  30
0
  11
49.9
  21
-0.006376
  31
0
  0
LINE
  5
2ee
  100
AcDbEntity
  8
1
  100
AcDbLine
  10
49.9
  20
-0.006376
  30
0
  11
50
  21
-0.099609
  31
0
  0
LINE
  5
2ef
  100
AcDbEntity
  8
1
  100
AcDbLine
  10
50
  20
-0.099609
  30
0
  11
50.1
  21
-0.192746
  31
0
  0
LINE
  5
2f0
  100
AcDbEntity
  8
1
  100
AcDbLine
  10
50.1
  20
-0.192746
  30
0
  11
50.2
  21
-0.285697
  31
0
  0
LINE
  5
2f1
  100
AcDbEntity
  8
1
  100
AcDbLine
  10
50.2
  20
-0.285697
  30
0
  11
50.3
  21
-0.378371
  31
0
  0
LINE
  5
2f2
  100
AcDbEntity
  8
1
  100
AcDbLine
  10
50.3
  20
-0.378371
  30
0
  11
50.4
  21
-0.47068
  31
0
  0
LINE
  5
2f3
  100
AcDbEntity
  8
1
  100
AcDbLine
  10
50.4
  20
-0.47068
  30
0
  11
50.5
  21
-0.562535
  31
0
  0
LINE
  5
2f4
  100
AcDbEntity
  8
1
  100
AcDbLine
  10
50.5
  20
-0.562535
  30
0
  11
50.6
  21
-0.653846
  31
0
  0
LINE
  5
2f5
  100
AcDbEntity
  8
1
  100
AcDbLine
  10
50.6
  20
-0.653846
  30
0
  11
50.7
  21
-0.744525
  31
0
  0
LINE
  5
2f6
  100
AcDbEntity
  8
1
  100
AcDbLine
  10
50.7
  20
-0.744525
  30
0
  11
50.8
  21
-0.834485
  31
0
  0
LINE
  5
2f7
  100
AcDbEntity
  8
1
  100
AcDbLine
  10
50.8
  20
-0.834485
  30
0
  11
50.9
  21
-0.923639
  31
0
  0
LINE
  5
2f8
  100
AcDbEntity
  8
1
  100
AcDbLine
  10
50.9
  20
-0.923639
  30
0
  11
51
  21
-1.0119
  31
0
  0
LINE
  5
2f9
  100
AcDbEntity
  8
1
  100
AcDbLine
  10
51
  20
-1.0119
  30
0
  11
51.1
  21
-1.099184
  31
0
  0
LINE
  5
2fa
  100
AcDbEntity
  8
1
  100
AcDbLine
  10
51.1
  20
-1.099184
  30
0
  11
51.2
  21
-1.185406
  31
0
  0
LINE
  5
2fb
  100
AcDbEntity
  8
1
  100
AcDbLine
  10
51.2
  20
-1.185406
  30
0
  11
51.3
  21
-1.270482
  31
0
  0
LINE
  5
2fc
  100
AcDbEntity
  8
1
  100
AcDbLine
  10
51.3
  20
-1.270482
  30
0
  11
51.4
  21
-1.354331
  31
0
  0
LINE
  5
2fd
  100
AcDbEntity
  8
1
  100
AcDbLine
  10
51.4
  20
-1.354331
  30
0
  11
51.5
  21
-1.436872
  31
0
  0
LINE
  5
2fe
  100
AcDbEntity
  8
1
  100
AcDbLine
  10
51.5
  20
-1.436872
  30
0
  11
51.6
  21
-1.518024
  31
0
  0
LINE
  5
2ff
  100
AcDbEntity
  8
1
  100
AcDbLine
  10
51.6
  20
-1.518024
  30
0
  11
51.7
  21
-1.59771
  31
0
  0
LINE
  5
300
  100
AcDbEntity
  8
1
  100
AcDbLine
  10
51.7
  20
-1.59771
  30
0
  11
51.8
  21
-1.675853
  31
0
  0
LINE
  5
301
  100
AcDbEntity
  8
1
  100
AcDbLine
  10
51.8
  20
-1.675853
  30
0
  11
51.9
  21
-1.752376
  31
0
  0
LINE
  5
302
  100
AcDbEntity
  8
1
  100
AcDbLine
  10
51.9
  20
-1.752376
  30
0
  11
52
  21
-1.827206
  31
0
  0
LINE
  5
303
  100
AcDbEntity
  8
1
  100
AcDbLine
  10
52
  20
-1.827206
  30
0
  11
52.1
  21
-1.900271
  31
0
  0
LINE
  5
304
  100
AcDbEntity
  8
1
  100
AcDbLine
  10
52.1
  20
-1.900271
  30
0
  11
52.2
  21
-1.9715
  31
0
  0
LINE
  5
305
  100
AcDbEntity
  8
1
  100
AcDbLine
  10
52.2
  20
-1.9715
  30
0
  11
52.3
  21
-2.040824
  31
0
  0
LINE
  5
306
  100
AcDbEntity
  8
1
  100
AcDbLine
  10
52.3
  20
-2.040824
  30
0
  11
52.4
  21
-2.108176
  31
0
  0
LINE
  5
307
  100
AcDbEntity
  8
1
  100
AcDbLine
  10
52.4
  20
-2.108176
  30
0
  11
52.5
  21
-2.173492
  31
0
  0
LINE
  5
308
  100
AcDbEntity
  8
1
  100
AcDbLine
  10
52.5
  20
-2.173492
  30
0
  11
52.6
  21
-2.236708
  31
0
  0
LINE
  5
309
  100
AcDbEntity
  8
1
  100
AcDbLine
  10
52.6
  20
-2.236708
  30
0
  11
52.7
  21
-2.297763
  31
0
  0
LINE
  5
30a
  100
AcDbEntity
  8
1
  100
AcDbLine
  10
52.7
  20
-2.297763
  30
0
  11
52.8
  21
-2.356598
  31
0
  0
LINE
  5
30b
  100
AcDbEntity
  8
1
  100
AcDbLine
  10
52.8
  20
-2.356598
  30
0
  11
52.9
  21
-2.413156
  31
0
  0
LINE
  5
30c
  100
AcDbEntity
  8
1
  100
AcDbLine
  10
52.9
  20
-2.413156
  30
0
  11
53
  21
-2.467383
  31
0
  0
LINE
  5
30d
  100
AcDbEntity
  8
1
  100
AcDbLine
  10
53
  20
-2.467383
  30
0
  11
53.1
  21
-2.519226
  31
0
  0
LINE
  5
30e
  100
AcDbEntity
  8
1
  100
AcDbLine
  10
53.1
  20
-2.519226
  30
0
  11
53.2
  21
-2.568635
  31
0
  0
LINE
  5
30f
  100
AcDbEntity
  8
1
  100
AcDbLine
  10
53.2
  20
-2.568635
  30
0
  11
53.3
  21
-2.615563
  31
0
  0
LINE
  5
310
  100
AcDbEntity
  8
1
  100
AcDbLine
  10
53.3
  20
-2.615563
  30
0
  11
53.4
  21
-2.659963
  31
0
  0
LINE
  5
311
  100
AcDbEntity
  8
1
  100
AcDbLine
  10
53.4
  20
-2.659963
  30
0
  11
53.5
  21
-2.701794
  31
0
  0
LINE
  5
312
  100
AcDbEntity
  8
1
  100
AcDbLine
  10
53.5
  20
-2.701794
  30
0
  11
53.6
  21
-2.741014
  31
0
  0
LINE
  5
313
  100
AcDbEntity
  8
1
  100
AcDbLine
  10
53.6
  20
-2.741014
  30
0
  11
53.7
  21
-2.777587
  31
0
  0
LINE
  5
314
  100
AcDbEntity
  8
1
  100
AcDbLine
  10
53.7
  20
-2.777587
  30
0
  11
53.8
  21
-2.811475
  31
0
  0
LINE
  5
315
  100
AcDbEntity
  8
1
  100
AcDbLine
  10
53.8
  20
-2.811475
  30
0
  11
53.9
  21
-2.842648
  31
0
  0
LINE
  5
316
  100
AcDbEntity
  8
1
  100
AcDbLine
  10
53.9
  20
-2.842648
  30
0
  11
54
  21
-2.871074
  31
0
  0
LINE
  5
317
  100
AcDbEntity
  8
1
  100
AcDbLine
  10
54
  20
-2.871074
  30
0
  11
54.1
  21
-2.896726
  31
0
  0
LINE
  5
318
  100
AcDbEntity
  8
1
  100
AcDbLine
  10
54.1
  20
-2.896726
  30
0
  11
54.2
  21
-2.91958
  31
0
  0
LINE
  5
319
  100
AcDbEntity
  8
1
  100
AcDbLine
  10
54.2
  20
-2.91958
  30
0
  11
54.3
  21
-2.939613
  31
0
  0
LINE
  5
31a
  100
AcDbEntity
  8
1
  100
AcDbLine
  10
54.3
  20
-2.939613
  30
0
  11
54.4
  21
-2.956806
  31
0
  0
LINE
  5
31b
  100
AcDbEntity
  8
1
  100
AcDbLine
  10
54.4
  20
-2.956806
  30
0
  11
54.5
  21
-2.971142
  31
0
  0
LINE
  5
31c
  100
AcDbEntity
  8
1
  100
AcDbLine
  10
54.5
  20
-2.971142
  30
0
  11
54.6
  21
-2.982608
  31
0
  0
LINE
  5
31d
  100
AcDbEntity
  8
1
  100
AcDbLine
  10
54.6
  20
-2.982608
  30
0
  11
54.7
  21
-2.991192
  31
0
  0
LINE
  5
31e
  100
AcDbEntity
  8
1
  100
AcDbLine
  10
54.7
  20
-2.991192
  30
0
  11
54.8
  21
-2.996887
  31
0
  0
LINE
  5
31f
  100
AcDbEntity
  8
1
  100
AcDbLine
  10
54.8
  20
-2.996887
  30
0
  11
54.9
  21
-2.999686
  31
0
  0
LINE
  5
320
  100
AcDbEntity
  8
1
  100
AcDbLine
  10
54.9
  20
-2.999686
  30
0
  11
54.946582
  21
-3
  31
0
  0
LINE
  5
321
  100
AcDbEntity
  8
1
  100
AcDbLine
  10
50.903847
  20
-3
  30
0
  11
50.9
  21
-2.999998
  31
0
  0
LINE
  5
322
  100
AcDbEntity
  8
1
  100
AcDbLine
  10
50.9
  20
-2.999998
  30
0
  11
50.8
  21
-2.998437
  31
0
  0
LINE
  5
323
  100
AcDbEntity
  8
1
  100
AcDbLine
  10
50.8
  20
-2.998437
  30
0
  11
50.7
  21
-2.99398
  31
0
  0
LINE
  5
324
  100
AcDbEntity
  8
1
  100
AcDbLine
  10
50.7
  20
-2.99398
  30
0
  11
50.6
  21
-2.98663
  31
0
  0
LINE
  5
325
  100
AcDbEntity
  8
1
  100
AcDbLine
  10
50.6
  20
-2.98663
  30
0
  11
50.5
  21
-2.976394
  31
0
  0
LINE
  5
326
  100
AcDbEntity
  8
1
  100
AcDbLine
  10
50.5
  20
-2.976394
  30
0
  11
50.4
  21
-2.963283
  31
0
  0
LINE
  5
327
  100
AcDbEntity
  8
1
  100
AcDbLine
  10
50.4
  20
-2.963283
  30
0
  11
50.3
  21
-2.947309
  31
0
  0
LINE
  5
328
  100
AcDbEntity
  8
1
  100
AcDbLine
  10
50.3
  20
-2.947309
  30
0
  11
50.2
  21
-2.928487
  31
0
  0
LINE
  5
329
  100
AcDbEntity
  8
1
  100
AcDbLine
  10
50.2
  20
-2.928487
  30
0
  11
50.1
  21
-2.906836
  31
0
  0
LINE
  5
32a
  100
AcDbEntity
  8
1
  100
AcDbLine
  10
50.1
  20
-2.906836
  30
0
  11
50
  21
-2.882377
  31
0
  0
LINE
  5
32b
  100
AcDbEntity
  8
1
  100
AcDbLine
  10
50
  20
-2.882377
  30
0
  11
49.9
  21
-2.855133
  31
0
  0
LINE
  5
32c
  100
AcDbEntity
  8
1
  100
AcDbLine
  10
49.9
  20
-2.855133
  30
0
  11
49.8
  21
-2.825131
  31
0
  0
LINE
  5
32d
  100
AcDbEntity
  8
1
  100
AcDbLine
  10
49.8
  20
-2.825131
  30
0
  11
49.7
  21
-2.792399
  31
0
  0
LINE
  5
32e
  100
AcDbEntity
  8
1
  100
AcDbLine
  10
49.7
  20
-2.792399
  30
0
  11
49.6
  21
-2.75697
  31
0
  0
LINE
  5
32f
  100
AcDbEntity
  8
1
  100
AcDbLine
  10
49.6
  20
-2.75697
  30
0
  11
49.5
  21
-2.718876
  31
0
  0
LINE
  5
330
  100
AcDbEntity
  8
1
  100
AcDbLine
  10
49.5
  20
-2.718876
  30
0
  11
49.4
  21
-2.678156
  31
0
  0
LINE
  5
331
  100
AcDbEntity
  8
1
  100
AcDbLine
  10
49.4
  20
-2.678156
  30
0
  11
49.3
  21
-2.634849
  31
0
  0
LINE
  5
332
  100
AcDbEntity
  8
1
  100
AcDbLine
  10
49.3
  20
-2.634849
  30
0
  11
49.2
  21
-2.588996
  31
0
  0
LINE
  5
333
  100
AcDbEntity
  8
1
  100
AcDbLine
  10
49.2
  20
-2.588996
  30
0
  11
49.1
  21
-2.540642
  31
0
  0
LINE
  5
334
  100
AcDbEntity
  8
1
  100
AcDbLine
  10
49.1
  20
-2.540642
  30
0
  11
49
  21
-2.489833
  31
0
  0
LINE
  5
335
  100
AcDbEntity
  8
1
  100
AcDbLine
  10
49
  20
-2.489833
  30
0
  11
48.9
  21
-2.436618
  31
0
  0
LINE
  5
336
  100
AcDbEntity
  8
1
  100
AcDbLine
  10
48.9
  20
-2.436618
  30
0
  11
48.8
  21
-2.38105
  31
0
  0
LINE
  5
337
  100
AcDbEntity
  8
1
  100
AcDbLine
  10
48.8
  20
-2.38105
  30
0
  11
48.7
  21
-2.323181
  31
0
  0
LINE
  5
338
  100
AcDbEntity
  8
1
  100
AcDbLine
  10
48.7
  20
-2.323181
  30
0
  11
48.6
  21
-2.263068
  31
0
  0
LINE
  5
339
  100
AcDbEntity
  8
1
  100
AcDbLine
  10
48.6
  20
-2.263068
  30
0
  11
48.5
  21
-2.200768
  31
0
  0
LINE
  5
33a
  100
AcDbEntity
  8
1
  100
AcDbLine
  10
48.5
  20
-2.200768
  30
0
  11
48.4
  21
-2.136342
  31
0
  0
LINE
  5
33b
  100
AcDbEntity
  8
1
  100
AcDbLine
  10
48.4
  20
-2.136342
  30
0
  11
48.3
  21
-2.069852
  31
0
  0
LINE
  5
33c
  100
AcDbEntity
  8
1
  100
AcDbLine
  10
48.3
  20
-2.069852
  30
0
  11
48.2
  21
-2.001362
  31
0
  0
LINE
  5
33d
  100
AcDbEntity
  8
1
  100
AcDbLine
  10
48.2
  20
-2.001362
  30
0
  11
48.1
  21
-1.930939
  31
0
  0
LINE
  5
33e
  100
AcDbEntity
  8
1
  100
AcDbLine
  10
48.1
  20
-1.930939
  30
0
  11
48
  21
-1.85865
  31
0
  0
LINE
  5
33f
  100
AcDbEntity
  8
1
  100
AcDbLine
  10
48
  20
-1.85865
  30
0
  11
47.9
  21
-1.784566
  31
0
  0
LINE
  5
340
  100
AcDbEntity
  8
1
  100
AcDbLine
  10
47.9
  20
-1.784566
  30
0
  11
47.8
  21
-1.708757
  31
0
  0
LINE
  5
341
  100
AcDbEntity
  8
1
  100
AcDbLine
  10
47.8
  20
-1.708757
  30
0
  11
47.7
  21
-1.631298
  31
0
  0
LINE
  5
342
  100
AcDbEntity
  8
1
  100
AcDbLine
  10
47.7
  20
-1.631298
  30
0
  11
47.6
  21
-1.552262
  31
0
  0
LINE
  5
343
  100
AcDbEntity
  8
1
  100
AcDbLine
  10
47.6
  20
-1.552262
  30
0
  11
47.5
  21
-1.471727
  31
0
  0
LINE
  5
344
  100
AcDbEntity
  8
1
  100
AcDbLine
  10
47.5
  20
-1.471727
  30
0
  11
47.4
  21
-1.38977
  31
0
  0
LINE
  5
345
  100
AcDbEntity
  8
1
  100
AcDbLine
  10
47.4
  20
-1.38977
  30
0
  11
47.3
  21
-1.30647
  31
0
  0
LINE
  5
346
  100
AcDbEntity
  8
1
  100
AcDbLine
  10
47.3
  20
-1.30647
  30
0
  11
47.2
  21
-1.221908
  31
0
  0
LINE
  5
347
  100
AcDbEntity
  8
1
  100
AcDbLine
  10
47.2
  20
-1.221908
  30
0
  11
47.1
  21
-1.136165
  31
0
  0
LINE
  5
348
  100
AcDbEntity
  8
1
  100
AcDbLine
  10
47.1
  20
-1.136165
  30
0
  11
47
  21
-1.049325
  31
0
  0
LINE
  5
349
  100
AcDbEntity
  8
1
  100
AcDbLine
  10
47
  20
-1.049325
  30
0
  11
46.9
  21
-0.961471
  31
0
  0
LINE
  5
34a
  100
AcDbEntity
  8
1
  100
AcDbLine
  10
46.9
  20
-0.961471
  30
0
  11
46.8
  21
-0.872688
  31
0
  0
LINE
  5
34b
  100
AcDbEntity
  8
1
  100
AcDbLine
  10
46.8
  20
-0.872688
  30
0
  11
46.7
  21
-0.783062
  31
0
  0
LINE
  5
34c
  100
AcDbEntity
  8
1
  100
AcDbLine
  10
46.7
  20
-0.783062
  30
0
  11
46.6
  21
-0.69268
  31
0
  0
LINE
  5
34d
  100
AcDbEntity
  8
1
  100
AcDbLine
  10
46.6
  20
-0.69268
  30
0
  11
46.5
  21
-0.601628
  31
0
  0
LINE
  5
34e
  100
AcDbEntity
  8
1
  100
AcDbLine
  10
46.5
  20
-0.601628
  30
0
  11
46.4
  21
-0.509995
  31
0
  0
LINE
  5
34f
  100
AcDbEntity
  8
1
  100
AcDbLine
  10
46.4
  20
-0.509995
  30
0
  11
46.3
  21
-0.417869
  31
0
  0
LINE
  5
350
  100
AcDbEntity
  8
1
  100
AcDbLine
  10
46.3
  20
-0.417869
  30
0
  11
46.2
  21
-0.32534
  31
0
  0
LINE
  5
351
  100
AcDbEntity
  8
1
  100
AcDbLine
  10
46.2
  20
-0.32534
  30
0
  11
46.1
  21
-0.232496
  31
0
  0
LINE
  5
352
  100
AcDbEntity
  8
1
  100
AcDbLine
  10
46.1
  20
-0.232496
  30
0
  11
46
  21
-0.139428
  31
0
  0
LINE
  5
353
  100
AcDbEntity
  8
1
  100
AcDbLine
  10
46
  20
-0.139428
  30
0
  11
45.9
  21
-0.046225
  31
0
  0
LINE
  5
354
  100
AcDbEntity
  8
1
  100
AcDbLine
  10
45.9
  20
-0.046225
  30
0
  11
45.8
  21
0.047023
  31
0
  0
LINE
  5
355
  100
AcDbEntity
  8
1
  100
AcDbLine
  10
45.8
  20
0.047023
  30
0
  11
45.7
  21
0.140225
  31
0
  0
LINE
  5
356
  100
AcDbEntity
  8
1
  100
AcDbLine
  10
45.7
  20
0.140225
  30
0
  11
45.6
  21
0.233292
  31
0
  0
LINE
  5
357
  100
AcDbEntity
  8
1
  100
AcDbLine
  10
45.6
  20
0.233292
  30
0
  11
45.5
  21
0.326134
  31
0
  0
LINE
  5
358
  100
AcDbEntity
  8
1
  100
AcDbLine
  10
45.5
  20
0.326134
  30
0
  11
45.4
  21
0.41866
  31
0
  0
LINE
  5
359
  100
AcDbEntity
  8
1
  100
AcDbLine
  10
45.4
  20
0.41866
  30
0
  11
45.3
  21
0.510782
  31
0
  0
LINE
  5
35a
  100
AcDbEntity
  8
1
  100
AcDbLine
  10
45.3
  20
0.510782
  30
0
  11
45.2
  21
0.60241
  31
0
  0
LINE
  5
35b
  100
AcDbEntity
  8
1
  100
AcDbLine
  10
45.2
  20
0.60241
  30
0
  11
45.1
  21
0.693457
  31
0
  0
LINE
  5
35c
  100
AcDbEntity
  8
1
  100
AcDbLine
  10
45.1
  20
0.693457
  30
0
  11
45
  21
0.783833
  31
0
  0
LINE
  5
35d
  100
AcDbEntity
  8
1
  100
AcDbLine
  10
50.214513
  20
-3
  30
0
  11
50.2
  21
-2.962643
  31
0
  0
LINE
  5
35e
  100
AcDbEntity
  8
1
  100
AcDbLine
  10
50.2
  20
-2.962643
  30
0
  11
50.1
  21
-2.960797
  31
0
  0
LINE
  5
35f
  100
AcDbEntity
  8
1
  100
AcDbLine
  10
50.1
  20
-2.960797
  30
0
  11
50
  21
-2.95609
  31
0
  0
LINE
  5
360
  100
AcDbEntity
  8
1
  100
AcDbLine
  10
50
  20
-2.95609
  30
0
  11
49.9
  21
-2.948527
  31
0
  0
LINE
  5
361
  100
AcDbEntity
  8
1
  100
AcDbLine
  10
49.9
  20
-2.948527
  30
0
  11
49.8
  21
-2.938115
  31
0
  0
LINE
  5
362
  100
AcDbEntity
  8
1
  100
AcDbLine
  10
49.8
  20
-2.938115
  30
0
  11
49.7
  21
-2.924865
  31
0
  0
LINE
  5
363
  100
AcDbEntity
  8
1
  100
AcDbLine
  10
49.7
  20
-2.924865
  30
0
  11
49.6
  21
-2.908789
  31
0
  0
LINE
  5
364
  100
AcDbEntity
  8
1
  100
AcDbLine
  10
49.6
  20
-2.908789
  30
0
  11
49.5
  21
-2.889903
  31
0
  0
LINE
  5
365
  100
AcDbEntity
  8
1
  100
AcDbLine
  10
49.5
  20
-2.889903
  30
0
  11
49.4
  21
-2.868224
  31
0
  0
LINE
  5
366
  100
AcDbEntity
  8
1
  100
AcDbLine
  10
49.4
  20
-2.868224
  30
0
  11
49.3
  21
-2.843775
  31
0
  0
LINE
  5
367
  100
AcDbEntity
  8
1
  100
AcDbLine
  10
49.3
  20
-2.843775
  30
0
  11
49.2
  21
-2.816578
  31
0
  0
LINE
  5
368
  100
AcDbEntity
  8
1
  100
AcDbLine
  10
49.2
  20
-2.816578
  30
0
  11
49.1
  21
-2.78666
  31
0
  0
LINE
  5
369
  100
AcDbEntity
  8
1
  100
AcDbLine
  10
49.1
  20
-2.78666
  30
0
  11
49
  21
-2.75405
  31
0
  0
LINE
  5
36a
  100
AcDbEntity
  8
1
  100
AcDbLine
  10
49
  20
-2.75405
  30
0
  11
48.9
  21
-2.718779
  31
0
  0
LINE
  5
36b
  100
AcDbEntity
  8
1
  100
AcDbLine
  10
48.9
  20
-2.718779
  30
0
  11
48.8
  21
-2.680882
  31
0
  0
LINE
  5
36c
  100
AcDbEntity
  8
1
  100
AcDbLine
  10
48.8
  20
-2.680882
  30
0
  11
48.7
  21
-2.640394
  31
0
  0
LINE
  5
36d
  100
AcDbEntity
  8
1
  100
AcDbLine
  10
48.7
  20
-2.640394
  30
0
  11
48.6
  21
-2.597355
  31
0
  0
LINE
  5
36e
  100
AcDbEntity
  8
1
  100
AcDbLine
  10
48.6
  20
-2.597355
  30
0
  11
48.5
  21
-2.551807
  31
0
  0
LINE
  5
36f
  100
AcDbEntity
  8
1
  100
AcDbLine
  10
48.5
  20
-2.551807
  30
0
  11
48.4
  21
-2.503794
  31
0
  0
LINE
  5
370
  100
AcDbEntity
  8
1
  100
AcDbLine
  10
48.4
  20
-2.503794
  30
0
  11
48.3
  21
-2.453361
  31
0
  0
LINE
  5
371
  100
AcDbEntity
  8
1
  100
AcDbLine
  10
48.3
  20
-2.453361
  30
0
  11
48.2
  21
-2.400559
  31
0
  0
LINE
  5
372
  100
AcDbEntity
  8
1
  100
AcDbLine
  10
48.2
  20
-2.400559
  30
0
  11
48.1
  21
-2.345437
  31
0
  0
LINE
  5
373
  100
AcDbEntity
  8
1
  100
AcDbLine
  10
48.1
  20
-2.345437
  30
0
  11
48
  21
-2.288049
  31
0
  0
LINE
  5
374
  100
AcDbEntity
  8
1
  100
AcDbLine
  10
48
  20
-2.288049
  30
0
  11
47.9
  21
-2.22845
  31
0
  0
LINE
  5
375
  100
AcDbEntity
  8
1
  100
AcDbLine
  10
47.9
  20
-2.22845
  30
0
  11
47.8
  21
-2.166699
  31
0
  0
LINE
  5
376
  100
AcDbEntity
  8
1
  100
AcDbLine
  10
47.8
  20
-2.166699
  30
0
  11
47.7
  21
-2.102854
  31
0
  0
LINE
  5
377
  100
AcDbEntity
  8
1
  100
AcDbLine
  10
47.7
  20
-2.102854
  30
0
  11
47.6
  21
-2.036978
  31
0
  0
LINE
  5
378
  100
AcDbEntity
  8
1
  100
AcDbLine
  10
47.6
  20
-2.036978
  30
0
  11
47.5
  21
-1.969133
  31
0
  0
LINE
  5
379
  100
AcDbEntity
  8
1
  100
AcDbLine
  10
47.5
  20
-1.969133
  30
0
  11
47.4
  21
-1.899387
  31
0
  0
LINE
  5
37a
  100
AcDbEntity
  8
1
  100
AcDbLine
  10
47.4
  20
-1.899387
  30
0
  11
47.3
  21
-1.827805
  31
0
  0
LINE
  5
37b
  100
AcDbEntity
  8
1
  100
AcDbLine
  10
47.3
  20
-1.827805
  30
0
  11
47.2
  21
-1.754457
  31
0
  0
LINE
  5
37c
  100
AcDbEntity
  8
1
  100
AcDbLine
  10
47.2
  20
-1.754457
  30
0
  11
47.1
  21
-1.679414
  31
0
  0
LINE
  5
37d
  100
AcDbEntity
  8
1
  100
AcDbLine
  10
47.1
  20
-1.679414
  30
0
  11
47
  21
-1.602749
  31
0
  0
LINE
  5
37e
  100
AcDbEntity
  8
1
  100
AcDbLine
  10
47
  20
-1.602749
  30
0
  11
46.9
  21
-1.524535
  31
0
  0
LINE
  5
37f
  100
AcDbEntity
  8
1
  100
AcDbLine
  10
46.9
  20
-1.524535
  30
0
  11
46.8
  21
-1.444849
  31
0
  0
LINE
  5
380
  100
AcDbEntity
  8
1
  100
AcDbLine
  10
46.8
  20
-1.444849
  30
0
  11
46.7
  21
-1.363766
  31
0
  0
LINE
  5
381
  100
AcDbEntity
  8
1
  100
AcDbLine
  10
46.7
  20
-1.363766
  30
0
  11
46.6
  21
-1.281366
  31
0
  0
LINE
  5
382
  100
AcDbEntity
  8
1
  100
AcDbLine
  10
46.6
  20
-1.281366
  30
0
  11
46.5
  21
-1.197728
  31
0
  0
LINE
  5
383
  100
AcDbEntity
  8
1
  100
AcDbLine
  10
46.5
  20
-1.197728
  30
0
  11
46.4
  21
-1.112933
  31
0
  0
LINE
  5
384
  100
AcDbEntity
  8
1
  100
AcDbLine
  10
46.4
  20
-1.112933
  30
0
  11
46.3
  21
-1.027062
  31
0
  0
LINE
  5
385
  100
AcDbEntity
  8
1
  100
AcDbLine
  10
46.3
  20
-1.027062
  30
0
  11
46.2
  21
-0.9402
  31
0
  0
LINE
  5
386
  100
AcDbEntity
  8
1
  100
AcDbLine
  10
46.2
  20
-0.9402
  30
0
  11
46.1
  21
-0.852429
  31
0
  0
LINE
  5
387
  100
AcDbEntity
  8
1
  100
AcDbLine
  10
46.1
  20
-0.852429
  30
0
  11
46
  21
-0.763834
  31
0
  0
LINE
  5
388
  100
AcDbEntity
  8
1
  100
AcDbLine
  10
46
  20
-0.763834
  30
0
  11
45.9
  21
-0.674501
  31
0
  0
LINE
  5
389
  100
AcDbEntity
  8
1
  100
AcDbLine
  10
45.9
  20
-0.674501
  30
0
  11
45.8
  21
-0.584517
  31
0
  0
LINE
  5
38a
  100
AcDbEntity
  8
1
  100
AcDbLine
  10
45.8
  20
-0.584517
  30
0
  11
45.7
  21
-0.493968
  31
0
  0
LINE
  5
38b
  100
AcDbEntity
  8
1
  100
AcDbLine
  10
45.7
  20
-0.493968
  30
0
  11
45.6
  21
-0.402942
  31
0
  0
LINE
  5
38c
  100
AcDbEntity
  8
1
  100
AcDbLine
  10
45.6
  20
-0.402942
  30
0
  11
45.5
  21
-0.311526
  31
0
  0
LINE
  5
38d
  100
AcDbEntity
  8
1
  100
AcDbLine
  10
45.5
  20
-0.311526
  30
0
  11
45.4
  21
-0.21981
  31
0
  0
LINE
  5
38e
  100
AcDbEntity
  8
1
  100
AcDbLine
  10
45.4
  20
-0.21981
  30
0
  11
45.3
  21
-0.127881
  31
0
  0
LINE
  5
38f
  100
AcDbEntity
  8
1
  100
AcDbLine
  10
45.3
  20
-0.127881
  30
0
  11
45.2
  21
-0.035829
  31
0
  0
LINE
  5
390
  100
AcDbEntity
  8
1
  100
AcDbLine
  10
45.2
  20
-0.035829
  30
0
  11
45.1
  21
0.056258
  31
0
  0
LINE
  5
391
  100
AcDbEntity
  8
1
  100
AcDbLine
  10
45.1
  20
0.056258
  30
0
  11
45
  21
0.148291
  31
0
  0
LINE
  5
392
  100
AcDbEntity
  8
1
  100
AcDbLine
  10
49.893162
  20
-3
  30
0
  11
49.8
  21
-2.998742
  31
0
  0
LINE
  5
393
  100
AcDbEntity
  8
1
  100
AcDbLine
  10
49.8
  20
-2.998742
  30
0
  11
49.7
  21
-2.994594
  31
0
  0
LINE
  5
394
  100
AcDbEntity
  8
1
  100
AcDbLine
  10
49.7
  20
-2.994594
  30
0
  11
49.6
  21
-2.987553
  31
0
  0
LINE
  5
395
  100
AcDbEntity
  8
1
  100
AcDbLine
  10
49.6
  20
-2.987553
  30
0
  11
49.5
  21
-2.977625
  31
0
  0
LINE
  5
396
  100
AcDbEntity
  8
1
  100
AcDbLine
  10
49.5
  20
-2.977625
  30
0
  11
49.4
  21
-2.96482
  31
0
  0
LINE
  5
397
  100
AcDbEntity
  8
1
  100
AcDbLine
  10
49.4
  20
-2.96482
  30
0
  11
49.3
  21
-2.949152
  31
0
  0
LINE
  5
398
  100
AcDbEntity
  8
1
  100
AcDbLine
  10
49.3
  20
-2.949152
  30
0
  11
49.2
  21
-2.930633
  31
0
  0
LINE
  5
399
  100
AcDbEntity
  8
1
  100
AcDbLine
  10
49.2
  20
-2.930633
  30
0
  11
49.1
  21
-2.909284
  31
0
  0
LINE
  5
39a
  100
AcDbEntity
  8
1
  100
AcDbLine
  10
49.1
  20
-2.909284
  30
0
  11
49
  21
-2.885124
  31
0
  0
LINE
  5
39b
  100
AcDbEntity
  8
1
  100
AcDbLine
  10
49
  20
-2.885124
  30
0
  11
48.9
  21
-2.858176
  31
0
  0
LINE
  5
39c
  100
AcDbEntity
  8
1
  100
AcDbLine
  10
48.9
  20
-2.858176
  30
0
  11
48.8
  21
-2.828467
  31
0
  0
LINE
  5
39d
  100
AcDbEntity
  8
1
  100
AcDbLine
  10
48.8
  20
-2.828467
  30
0
  11
48.7
  21
-2.796025
  31
0
  0
LINE
  5
39e
  100
AcDbEntity
  8
1
  100
AcDbLine
  10
48.7
  20
-2.796025
  30
0
  11
48.6
  21
-2.760882
  31
0
  0
LINE
  5
39f
  100
AcDbEntity
  8
1
  100
AcDbLine
  10
48.6
  20
-2.760882
  30
0
  11
48.5
  21
-2.723072
  31
0
  0
LINE
  5
3a0
  100
AcDbEntity
  8
1
  100
AcDbLine
  10
48.5
  20
-2.723072
  30
0
  11
48.4
  21
-2.682631
  31
0
  0
LINE
  5
3a1
  100
AcDbEntity
  8
1
  100
AcDbLine
  10
48.4
  20
-2.682631
  30
0
  11
48.3
  21
-2.639598
  31
0
  0
LINE
  5
3a2
  100
AcDbEntity
  8
1
  100
AcDbLine
  10
48.3
  20
-2.639598
  30
0
  11
48.2
  21
-2.594015
  31
0
  0
LINE
  5
3a3
  100
AcDbEntity
  8
1
  100
AcDbLine
  10
48.2
  20
-2.594015
  30
0
  11
48.1
  21
-2.545926
  31
0
  0
LINE
  5
3a4
  100
AcDbEntity
  8
1
  100
AcDbLine
  10
48.1
  20
-2.545926
  30
0
  11
48
  21
-2.495377
  31
0
  0
LINE
  5
3a5
  100
AcDbEntity
  8
1
  100
AcDbLine
  10
48
  20
-2.495377
  30
0
  11
47.9
  21
-2.442417
  31
0
  0
LINE
  5
3a6
  100
AcDbEntity
  8
1
  100
AcDbLine
  10
47.9
  20
-2.442417
  30
0
  11
47.8
  21
-2.387097
  31
0
  0
LINE
  5
3a7
  100
AcDbEntity
  8
1
  100
AcDbLine
  10
47.8
  20
-2.387097
  30
0
  11
47.7
  21
-2.329472
  31
0
  0
LINE
  5
3a8
  100
AcDbEntity
  8
1
  100
AcDbLine
  10
47.7
  20
-2.329472
  30
0
  11
47.6
  21
-2.269595
  31
0
  0
LINE
  5
3a9
  100
AcDbEntity
  8
1
  100
AcDbLine
  10
47.6
  20
-2.269595
  30
0
  11
47.5
  21
-2.207526
  31
0
  0
LINE
  5
3aa
  100
AcDbEntity
  8
1
  100
AcDbLine
  10
47.5
  20
-2.207526
  30
0
  11
47.4
  21
-2.143325
  31
0
  0
LINE
  5
3ab
  100
AcDbEntity
  8
1
  100
AcDbLine
  10
47.4
  20
-2.143325
  30
0
  11
47.3
  21
-2.077052
  31
0
  0
LINE
  5
3ac
  100
AcDbEntity
  8
1
  100
AcDbLine
  10
47.3
  20
-2.077052
  30
0
  11
47.2
  21
-2.008773
  31
0
  0
LINE
  5
3ad
  100
AcDbEntity
  8
1
  100
AcDbLine
  10
47.2
  20
-2.008773
  30
0
  11
47.1
  21
-1.938553
  31
0
  0
LINE
  5
3ae
  100
AcDbEntity
  8
1
  100
AcDbLine
  10
47.1
  20
-1.938553
  30
0
  11
47
  21
-1.86646
  31
0
  0
LINE
  5
3af
  100
AcDbEntity
  8
1
  100
AcDbLine
  10
47
  20
-1.86646
  30
0
  11
46.9
  21
-1.792564
  31
0
  0
LINE
  5
3b0
  100
AcDbEntity
  8
1
  100
AcDbLine
  10
46.9
  20
-1.792564
  30
0
  11
46.8
  21
-1.716936
  31
0
  0
LINE
  5
3b1
  100
AcDbEntity
  8
1
  100
AcDbLine
  10
46.8
  20
-1.716936
  30
0
  11
46.7
  21
-1.63965
  31
0
  0
LINE
  5
3b2
  100
AcDbEntity
  8
1
  100
AcDbLine
  10
46.7
  20
-1.63965
  30
0
  11
46.6
  21
-1.560779
  31
0
  0
LINE
  5
3b3
  100
AcDbEntity
  8
1
  100
AcDbLine
  10
46.6
  20
-1.560779
  30
0
  11
46.5
  21
-1.4804
  31
0
  0
LINE
  5
3b4
  100
AcDbEntity
  8
1
  100
AcDbLine
  10
46.5
  20
-1.4804
  30
0
  11
46.4
  21
-1.398591
  31
0
  0
LINE
  5
3b5
  100
AcDbEntity
  8
1
  100
AcDbLine
  10
46.4
  20
-1.398591
  30
0
  11
46.3
  21
-1.315431
  31
0
  0
LINE
  5
3b6
  100
AcDbEntity
  8
1
  100
AcDbLine
  10
46.3
  20
-1.315431
  30
0
  11
46.2
  21
-1.231
  31
0
  0
LINE
  5
3b7
  100
AcDbEntity
  8
1
  100
AcDbLine
  10
46.2
  20
-1.231
  30
0
  11
46.1
  21
-1.14538
  31
0
  0
LINE
  5
3b8
  100
AcDbEntity
  8
1
  100
AcDbLine
  10
46.1
  20
-1.14538
  30
0
  11
46
  21
-1.058653
  31
0
  0
LINE
  5
3b9
  100
AcDbEntity
  8
1
  100
AcDbLine
  10
46
  20
-1.058653
  30
0
  11
45.9
  21
-0.970903
  31
0
  0
LINE
  5
3ba
  100
AcDbEntity
  8
1
  100
AcDbLine
  10
45.9
  20
-0.970903
  30
0
  11
45.8
  21
-0.882215
  31
0
  0
LINE
  5
3bb
  100
AcDbEntity
  8
1
  100
AcDbLine
  10
45.8
  20
-0.882215
  30
0
  11
45.7
  21
-0.792675
  31
0
  0
LINE
  5
3bc
  100
AcDbEntity
  8
1
  100
AcDbLine
  10
45.7
  20
-0.792675
  30
0
  11
45.6
  21
-0.702369
  31
0
  0
LINE
  5
3bd
  100
AcDbEntity
  8
1
  100
AcDbLine
  10
45.6
  20
-0.702369
  30
0
  11
45.5
  21
-0.611385
  31
0
  0
LINE
  5
3be
  100
AcDbEntity
  8
1
  100
AcDbLine
  10
45.5
  20
-0.611385
  30
0
  11
45.4
  21
-0.51981
  31
0
  0
LINE
  5
3bf
  100
AcDbEntity
  8
1
  100
AcDbLine
  10
45.4
  20
-0.51981
  30
0
  11
45.3
  21
-0.427733
  31
0
  0
LINE
  5
3c0
  100
AcDbEntity
  8
1
  100
AcDbLine
  10
45.3
  20
-0.427733
  30
0
  11
45.2
  21
-0.335242
  31
0
  0
LINE
  5
3c1
  100
AcDbEntity
  8
1
  100
AcDbLine
  10
45.2
  20
-0.335242
  30
0
  11
45.1
  21
-0.242428
  31
0
  0
LINE
  5
3c2
  100
AcDbEntity
  8
1
  100
AcDbLine
  10
45.1
  20
-0.242428
  30
0
  11
45
  21
-0.149379
  31
0
  0
LINE
  5
3c3
  100
AcDbEntity
  8
1
  100
AcDbLine
  10
45.850428
  20
-3
  30
0
  11
45.8
  21
-2.999631
  31
0
  0
LINE
  5
3c4
  100
AcDbEntity
  8
1
  100
AcDbLine
  10
45.8
  20
-2.999631
  30
0
  11
45.7
  21
-2.996721
  31
0
  0
LINE
  5
3c5
  100
AcDbEntity
  8
1
  100
AcDbLine
  10
45.7
  20
-2.996721
  30
0
  11
45.6
  21
-2.990915
  31
0
  0
LINE
  5
3c6
  100
AcDbEntity
  8
1
  100
AcDbLine
  10
45.6
  20
-2.990915
  30
0
  11
45.5
  21
-2.98222
  31
0
  0
LINE
  5
3c7
  100
AcDbEntity
  8
1
  100
AcDbLine
  10
45.5
  20
-2.98222
  30
0
  11
45.4
  21
-2.970644
  31
0
  0
LINE
  5
3c8
  100
AcDbEntity
  8
1
  100
AcDbLine
  10
45.4
  20
-2.970644
  30
0
  11
45.3
  21
-2.956197
  31
0
  0
LINE
  5
3c9
  100
AcDbEntity
  8
1
  100
AcDbLine
  10
45.3
  20
-2.956197
  30
0
  11
45.2
  21
-2.938895
  31
0
  0
LINE
  5
3ca
  100
AcDbEntity
  8
1
  100
AcDbLine
  10
45.2
  20
-2.938895
  30
0
  11
45.1
  21
-2.918753
  31
0
  0
LINE
  5
3cb
  100
AcDbEntity
  8
1
  100
AcDbLine
  10
45.1
  20
-2.918753
  30
0
  11
45
  21
-2.895791
  31
0
  0
LINE
  5
3cc
  100
AcDbEntity
  8
1
  100
AcDbLine
  10
45.161093
  20
-3
  30
0
  11
45.1
  21
-2.962139
  31
0
  0
LINE
  5
3cd
  100
AcDbEntity
  8
1
  100
AcDbLine
  10
45.1
  20
-2.962139
  30
0
  11
45
  21
-2.95896
  31
0
  0
LINE
  5
3ce
  100
AcDbEntity
  8
1
  100
AcDbLine
  10
39
  20
3
  30
0
  11
39
  21
-3
  31
0
  0
LINE
  5
3cf
  100
AcDbEntity
  8
1
  100
AcDbLine
  10
39
  20
-3
  30
0
  11
39
  21
3
  31
0
  0
LINE
  5
3d0
  100
AcDbEntity
  8
SK1
  100
AcDbLine
  10
39
  20
3
  30
0
  11
0.7
  21
3
  31
0
  0
LINE
  5
3d1
  100
AcDbEntity
  8
SK1
  100
AcDbLine
  10
0.7
  20
3
  30
0
  11
0
  21
2.3
  31
0
  0
LINE
  5
3d2
  100
AcDbEntity
  8
SK1
  100
AcDbLine
  10
39
  20
-3
  30
0
  11
0.7
  21
-3
  31
0
  0
LINE
  5
3d3
  100
AcDbEntity
  8
SK1
  100
AcDbLine
  10
0.7
  20
-3
  30
0
  11
0
  21
-2.3
  31
0
  0
LINE
  5
3d4
  100
AcDbEntity
  8
SK1
  100
AcDbLine
  10
0.7
  20
3
  30
0
  11
0.7
  21
-3
  31
0
  0
LINE
  5
3d5
  100
AcDbEntity
  8
SK1
  100
AcDbLine
  10
0
  20
2.3
  30
0
  11
0
  21
-2.3
  31
0
  0
LINE
  5
3d6
  100
AcDbEntity
  8
SK1
  100
AcDbLine
  10
40.0401
  20
1.40688
  30
0
  11
40.4069
  21
1.0401
  31
0
  0
LINE
  5
3d7
  100
AcDbEntity
  8
SK1
  100
AcDbLine
  10
39.5328
  20
1.66666
  30
0
  11
40.6667
  21
0.532833
  31
0
  0
LINE
  5
3d8
  100
AcDbEntity
  8
SK1
  100
AcDbLine
  10
39.2154
  20
1.73657
  30
0
  11
40.7366
  21
0.215434
  31
0
  0
LINE
  5
3d9
  100
AcDbEntity
  8
SK1
  100
AcDbLine
  10
39
  20
1.70452
  30
0
  11
40.7045
  21
0
  31
0
  0
LINE
  5
3da
  100
AcDbEntity
  8
SK1
  100
AcDbLine
  10
39
  20
1.45703
  30
0
  11
40.457
  21
0
  31
0
  0
LINE
  5
3db
  100
AcDbEntity
  8
SK1
  100
AcDbLine
  10
39
  20
1.20954
  30
0
  11
40.2095
  21
0
  31
0
  0
LINE
  5
3dc
  100
AcDbEntity
  8
SK1
  100
AcDbLine
  10
39
  20
0.962054
  30
0
  11
39.9621
  21
0
  31
0
  0
LINE
  5
3dd
  100
AcDbEntity
  8
SK1
  100
AcDbLine
  10
39
  20
0.714566
  30
0
  11
39.7146
  21
0
  31
0
  0
LINE
  5
3de
  100
AcDbEntity
  8
SK1
  100
AcDbLine
  10
39
  20
0.467079
  30
0
  11
39.4671
  21
0
  31
0
  0
LINE
  5
3df
  100
AcDbEntity
  8
SK1
  100
AcDbLine
  10
39
  20
0.219592
  30
0
  11
39.2196
  21
0
  31
0
  0
LINE
  5
3e0
  100
AcDbEntity
  8
SK1
  100
AcDbLine
  10
39
  20
1.70452
  30
0
  11
39.0441
  21
1.74861
  31
0
  0
LINE
  5
3e1
  100
AcDbEntity
  8
SK1
  100
AcDbLine
  10
39
  20
1.45703
  30
0
  11
39.271
  21
1.72802
  31
0
  0
LINE
  5
3e2
  100
AcDbEntity
  8
SK1
  100
AcDbLine
  10
39
  20
1.20954
  30
0
  11
39.4742
  21
1.6837
  31
0
  0
LINE
  5
3e3
  100
AcDbEntity
  8
SK1
  100
AcDbLine
  10
39
  20
0.962054
  30
0
  11
39.6588
  21
1.62082
  31
0
  0
LINE
  5
3e4
  100
AcDbEntity
  8
SK1
  100
AcDbLine
  10
39
  20
0.714566
  30
0
  11
39.8271
  21
1.54167
  31
0
  0
LINE
  5
3e5
  100
AcDbEntity
  8
SK1
  100
AcDbLine
  10
39
  20
0.467079
  30
0
  11
39.981
  21
1.44812
  31
0
  0
LINE
  5
3e6
  100
AcDbEntity
  8
SK1
  100
AcDbLine
  10
39
  20
0.219592
  30
0
  11
40.1226
  21
1.34216
  31
0
  0
LINE
  5
3e7
  100
AcDbEntity
  8
SK1
  100
AcDbLine
  10
39.0279
  20
0
  30
0
  11
40.2508
  21
1.22288
  31
0
  0
LINE
  5
3e8
  100
AcDbEntity
  8
SK1
  100
AcDbLine
  10
39.2754
  20
0
  30
0
  11
40.367
  21
1.09157
  31
0
  0
LINE
  5
3e9
  100
AcDbEntity
  8
SK1
  100
AcDbLine
  10
39.5229
  20
0
  30
0
  11
40.4707
  21
0.947822
  31
0
  0
LINE
  5
3ea
  100
AcDbEntity
  8
SK1
  100
AcDbLine
  10
39.7704
  20
0
  30
0
  11
40.5605
  21
0.790145
  31
0
  0
LINE
  5
3eb
  100
AcDbEntity
  8
SK1
  100
AcDbLine
  10
40.0178
  20
0
  30
0
  11
40.6364
  21
0.618517
  31
0
  0
LINE
  5
3ec
  100
AcDbEntity
  8
SK1
  100
AcDbLine
  10
40.2653
  20
0
  30
0
  11
40.696
  21
0.430696
  31
0
  0
LINE
  5
3ed
  100
AcDbEntity
  8
SK1
  100
AcDbLine
  10
40.5128
  20
0
  30
0
  11
40.7356
  21
0.222827
  31
0
  0
LINE
  5
3ee
  100
AcDbEntity
  8
SK1
  100
AcDbLine
  10
39
  20
0
  30
0
  11
39
  21
1.75
  31
0
  0
LINE
  5
3ef
  100
AcDbEntity
  8
SK1
  100
AcDbLine
  10
39
  20
0
  30
0
  11
40.75
  21
0
  31
0
  0
ARC
  5
3f0
  100
AcDbEntity
  8
SK1
  100
AcDbCircle
  10
39
  20
0
  30
0
  40
1.75
  100
AcDbArc
  50
0
  51
90
  0
ARC
  5
3f1
  100
AcDbEntity
  8
SK1
  100
AcDbCircle
  10
39
  20
0
  30
0
  40
1.75
  100
AcDbArc
  50
90
  51
180
  0
LINE
  5
3f2
  100
AcDbEntity
  8
SK1
  100
AcDbLine
  10
38.9721
  20
0
  30
0
  11
39
  21
-0.027896
  31
0
  0
LINE
  5
3f3
  100
AcDbEntity
  8
SK1
  100
AcDbLine
  10
38.7246
  20
0
  30
0
  11
39
  21
-0.275383
  31
0
  0
LINE
  5
3f4
  100
AcDbEntity
  8
SK1
  100
AcDbLine
  10
38.4771
  20
0
  30
0
  11
39
  21
-0.522871
  31
0
  0
LINE
  5
3f5
  100
AcDbEntity
  8
SK1
  100
AcDbLine
  10
38.2296
  20
0
  30
0
  11
39
  21
-0.770358
  31
0
  0
LINE
  5
3f6
  100
AcDbEntity
  8
SK1
  100
AcDbLine
  10
37.9822
  20
0
  30
0
  11
39
  21
-1.01785
  31
0
  0
LINE
  5
3f7
  100
AcDbEntity
  8
SK1
  100
AcDbLine
  10
37.7347
  20
0
  30
0
  11
39
  21
-1.26533
  31
0
  0
LINE
  5
3f8
  100
AcDbEntity
  8
SK1
  100
AcDbLine
  10
37.4872
  20
0
  30
0
  11
39
  21
-1.51282
  31
0
  0
LINE
  5
3f9
  100
AcDbEntity
  8
SK1
  100
AcDbLine
  10
37.2503
  20
-0.010642
  30
0
  11
38.9894
  21
-1.74967
  31
0
  0
LINE
  5
3fa
  100
AcDbEntity
  8
SK1
  100
AcDbLine
  10
37.2736
  20
-0.281429
  30
0
  11
38.7186
  21
-1.72637
  31
0
  0
LINE
  5
3fb
  100
AcDbEntity
  8
SK1
  100
AcDbLine
  10
37.3639
  20
-0.619147
  30
0
  11
38.3809
  21
-1.63613
  31
0
  0
LINE
  5
3fc
  100
AcDbEntity
  8
SK1
  100
AcDbLine
  10
37.2514
  20
-0.044098
  30
0
  11
37.2955
  21
0
  31
0
  0
LINE
  5
3fd
  100
AcDbEntity
  8
SK1
  100
AcDbLine
  10
37.272
  20
-0.270991
  30
0
  11
37.543
  21
0
  31
0
  0
LINE
  5
3fe
  100
AcDbEntity
  8
SK1
  100
AcDbLine
  10
37.3163
  20
-0.474162
  30
0
  11
37.7905
  21
0
  31
0
  0
LINE
  5
3ff
  100
AcDbEntity
  8
SK1
  100
AcDbLine
  10
37.3792
  20
-0.658762
  30
0
  11
38.0379
  21
0
  31
0
  0
LINE
  5
400
  100
AcDbEntity
  8
SK1
  100
AcDbLine
  10
37.4583
  20
-0.827105
  30
0
  11
38.2854
  21
0
  31
0
  0
LINE
  5
401
  100
AcDbEntity
  8
SK1
  100
AcDbLine
  10
37.5519
  20
-0.981039
  30
0
  11
38.5329
  21
0
  31
0
  0
LINE
  5
402
  100
AcDbEntity
  8
SK1
  100
AcDbLine
  10
37.6578
  20
-1.12257
  30
0
  11
38.7804
  21
0
  31
0
  0
LINE
  5
403
  100
AcDbEntity
  8
SK1
  100
AcDbLine
  10
37.7771
  20
-1.25077
  30
0
  11
39
  21
-0.027896
  31
0
  0
LINE
  5
404
  100
AcDbEntity
  8
SK1
  100
AcDbLine
  10
37.9084
  20
-1.36695
  30
0
  11
39
  21
-0.275383
  31
0
  0
LINE
  5
405
  100
AcDbEntity
  8
SK1
  100
AcDbLine
  10
38.0522
  20
-1.47069
  30
0
  11
39
  21
-0.522871
  31
0
  0
LINE
  5
406
  100
AcDbEntity
  8
SK1
  100
AcDbLine
  10
38.2099
  20
-1.5605
  30
0
  11
39
  21
-0.770358
  31
0
  0
LINE
  5
407
  100
AcDbEntity
  8
SK1
  100
AcDbLine
  10
38.3815
  20
-1.63636
  30
0
  11
39
  21
-1.01785
  31
0
  0
LINE
  5
408
  100
AcDbEntity
  8
SK1
  100
AcDbLine
  10
38.5693
  20
-1.69603
  30
0
  11
39
  21
-1.26533
  31
0
  0
LINE
  5
409
  100
AcDbEntity
  8
SK1
  100
AcDbLine
  10
38.7772
  20
-1.73565
  30
0
  11
39
  21
-1.51282
  31
0
  0
LINE
  5
40a
  100
AcDbEntity
  8
SK1
  100
AcDbLine
  10
39
  20
0
  30
0
  11
37.25
  21
0
  31
0
  0
LINE
  5
40b
  100
AcDbEntity
  8
SK1
  100
AcDbLine
  10
39
  20
-1.75
  30
0
  11
39
  21
0
  31
0
  0
ARC
  5
40c
  100
AcDbEntity
  8
SK1
  100
AcDbCircle
  10
39
  20
0
  30
0
  40
1.75
  100
AcDbArc
  50
180
  51
270
  0
ARC
  5
40d
  100
AcDbEntity
  8
SK1
  100
AcDbCircle
  10
39
  20
0
  30
0
  40
1.75
  100
AcDbArc
  50
270
  51
0
  0
LINE
  5
46c
  100
AcDbEntity
  8
NOCUT
  100
AcDbLine
  10
45
  20
0
  30
0
  11
45
  21
3
  31
0
  0
LINE
  5
46d
  100
AcDbEntity
  8
NOCUT
  100
AcDbLine
  10
45
  20
3
  30
0
  11
39
  21
3
  31
0
  0
LINE
  5
46e
  100
AcDbEntity
  8
NOCUT
  100
AcDbLine
  10
39
  20
3
  30
0
  11
39
  21
0
  31
0
  0
LINE
  5
46f
  100
AcDbEntity
  8
NOCUT
  100
AcDbLine
  10
39
  20
0
  30
0
  11
45
  21
0
  31
0
  0
LINE
  5
470
  100
AcDbEntity
  8
CUT
  100
AcDbLine
  10
60
  20
0
  30
0
  11
60
  21
2
  31
0
  0
ARC
  5
471
  100
AcDbEntity
  8
CUT
  100
AcDbCircle
  10
59
  20
2
  30
0
  40
1
  100
AcDbArc
  50
0
  51
90
  0
LINE
  5
472
  100
AcDbEntity
  8
CUT
  100
AcDbLine
  10
59
  20
3
  30
0
  11
45
  21
3
  31
0
  0
LINE
  5
473
  100
AcDbEntity
  8
CUT
  100
AcDbLine
  10
45
  20
3
  30
0
  11
45
  21
0
  31
0
  0
LINE
  5
474
  100
AcDbEntity
  8
CUT
  100
AcDbLine
  10
45
  20
0
  30
0
  11
60
  21
0
  31
0
  0
LINE
  5
475
  100
AcDbEntity
  8
4
  100
AcDbLine
  10
39
  20
0
  30
0
  11
60
  21
0
  31
0
  0
LINE
  5
476
  100
AcDbEntity
  8
SK4
  100
AcDbLine
  10
-1
  20
0
  30
0
  11
61
  21
0
  31
0
  0
LINE
  5
477
  100
AcDbEntity
  8
INFTOTAL
  100
AcDbLine
  10
-16.2
  20
34.2
  30
0
  11
76.2
  21
34.2
  31
0
  0
LINE
  5
478
  100
AcDbEntity
  8
INFTOTAL
  100
AcDbLine
  10
76.2
  20
34.2
  30
0
  11
76.2
  21
-34.2
  31
0
  0
LINE
  5
479
  100
AcDbEntity
  8
INFTOTAL
  100
AcDbLine
  10
76.2
  20
-34.2
  30
0
  11
-16.2
  21
-34.2
  31
0
  0
LINE
  5
47a
  100
AcDbEntity
  8
INFTOTAL
  100
AcDbLine
  10
-16.2
  20
-34.2
  30
0
  11
-16.2
  21
34.2
  31
0
  0
ENDSEC
  0
SECTION
  2
OBJECTS
  0
DICTIONARY
  5
47b
  330
0
100
AcDbDictionary
281
    1
  3
ACAD_GROUP
  350
47c
  0
DICTIONARY
  5
47c
102
{ACAD_REACTORS
  330
47b
102
}
  330
47b
100
AcDbDictionary
281
    1
  0
ENDSEC
  0
EOF
