  0
SECTION
  2
HEADER
  9
$ACADVER
  1
AC1014
  9
$ACADMAINTVER
 70
     0
  9
$DWGCODEPAGE
  3
ANSI_950
  9
$INSBASE
 10
0.0
 20
0.0
 30
0.0
  9
$EXTMIN
 10
0.196964
 20
-0.001831
 30
-0.001526
  9
$EXTMAX
 10
38.604827
 20
56.403809
 30
0.0
  9
$LIMMIN
 10
0.0
 20
0.0
  9
$LIMMAX
 10
42.0
 20
60.0
  9
$ORTHOMODE
 70
     1
  9
$REGENMODE
 70
     1
  9
$FILLMODE
 70
     1
  9
$QTEXTMODE
 70
     0
  9
$MIRRTEXT
 70
     1
  9
$DRAGMODE
 70
     2
  9
$LTSCALE
 40
6.0
  9
$OSMODE
 70
    59
  9
$ATTMODE
 70
     1
  9
$TEXTSIZE
 40
1.5
  9
$TRACEWID
 40
0.05
  9
$TEXTSTYLE
  7
STYLE1
  9
$CLAYER
  8
0
  9
$CELTYPE
  6
BYLAYER
  9
$CECOLOR
 62
   256
  9
$CELTSCALE
 40
1.0
  9
$DELOBJ
 70
     1
  9
$DISPSILH
 70
     0
  9
$DIMSCALE
 40
0.0
  9
$DIMASZ
 40
0.5
  9
$DIMEXO
 40
0.15
  9
$DIMDLI
 40
0.15
  9
$DIMRND
 40
0.0
  9
$DIMDLE
 40
0.0
  9
$DIMEXE
 40
0.15
  9
$DIMTP
 40
0.0
  9
$DIMTM
 40
0.0
  9
$DIMTXT
 40
0.5
  9
$DIMCEN
 40
0.09
  9
$DIMTSZ
 40
0.0
  9
$DIMTOL
 70
     0
  9
$DIMLIM
 70
     0
  9
$DIMTIH
 70
     0
  9
$DIMTOH
 70
     0
  9
$DIMSE1
 70
     0
  9
$DIMSE2
 70
     0
  9
$DIMTAD
 70
     1
  9
$DIMZIN
 70
     8
  9
$DIMBLK
  1

  9
$DIMASO
 70
     1
  9
$DIMSHO
 70
     1
  9
$DIMPOST
  1

  9
$DIMAPOST
  1

  9
$DIMALT
 70
     0
  9
$DIMALTD
 70
     2
  9
$DIMALTF
 40
25.4
  9
$DIMLFAC
 40
1.0
  9
$DIMTOFL
 70
     1
  9
$DIMTVP
 40
0.0
  9
$DIMTIX
 70
     0
  9
$DIMSOXD
 70
     0
  9
$DIMSAH
 70
     0
  9
$DIMBLK1
  1

  9
$DIMBLK2
  1

  9
$DIMSTYLE
  2
STANDARD
  9
$DIMCLRD
 70
     0
  9
$DIMCLRE
 70
     0
  9
$DIMCLRT
 70
     0
  9
$DIMTFAC
 40
0.5
  9
$DIMGAP
 40
0.15
  9
$DIMJUST
 70
     0
  9
$DIMSD1
 70
     0
  9
$DIMSD2
 70
     0
  9
$DIMTOLJ
 70
     1
  9
$DIMTZIN
 70
     8
  9
$DIMALTZ
 70
     0
  9
$DIMALTTZ
 70
     0
  9
$DIMFIT
 70
     3
  9
$DIMUPT
 70
     0
  9
$DIMUNIT
 70
     2
  9
$DIMDEC
 70
     2
  9
$DIMTDEC
 70
     2
  9
$DIMALTU
 70
     2
  9
$DIMALTTD
 70
     2
  9
$DIMTXSTY
  7
STANDARD
  9
$DIMAUNIT
 70
     0
  9
$LUNITS
 70
     2
  9
$LUPREC
 70
     2
  9
$SKETCHINC
 40
0.1
  9
$FILLETRAD
 40
0.8
  9
$AUNITS
 70
     0
  9
$AUPREC
 70
     2
  9
$MENU
  1
acad
  9
$ELEVATION
 40
0.0
  9
$PELEVATION
 40
0.0
  9
$THICKNESS
 40
0.0
  9
$LIMCHECK
 70
     0
  9
$BLIPMODE
 70
     1
  9
$CHAMFERA
 40
0.0
  9
$CHAMFERB
 40
0.0
  9
$CHAMFERC
 40
0.0
  9
$CHAMFERD
 40
0.0
  9
$SKPOLY
 70
     0
  9
$TDCREATE
 40
2450670.354217245
  9
$TDUPDATE
 40
2456177.432376111
  9
$TDINDWG
 40
6.7737943056
  9
$TDUSRTIMER
 40
6.7737943056
  9
$USRTIMER
 70
     1
  9
$ANGBASE
 50
0.0
  9
$ANGDIR
 70
     0
  9
$PDMODE
 70
     0
  9
$PDSIZE
 40
0.0
  9
$PLINEWID
 40
0.0
  9
$COORDS
 70
     1
  9
$SPLFRAME
 70
     0
  9
$SPLINETYPE
 70
     6
  9
$SPLINESEGS
 70
     8
  9
$ATTDIA
 70
     0
  9
$ATTREQ
 70
     1
  9
$HANDLING
 70
     1
  9
$HANDSEED
  5
1E2A0
  9
$SURFTAB1
 70
     6
  9
$SURFTAB2
 70
     6
  9
$SURFTYPE
 70
     6
  9
$SURFU
 70
     6
  9
$SURFV
 70
     6
  9
$UCSNAME
  2

  9
$UCSORG
 10
0.0
 20
0.0
 30
0.0
  9
$UCSXDIR
 10
1.0
 20
0.0
 30
0.0
  9
$UCSYDIR
 10
0.0
 20
1.0
 30
0.0
  9
$PUCSNAME
  2

  9
$PUCSORG
 10
0.0
 20
0.0
 30
0.0
  9
$PUCSXDIR
 10
1.0
 20
0.0
 30
0.0
  9
$PUCSYDIR
 10
0.0
 20
1.0
 30
0.0
  9
$USERI1
 70
     0
  9
$USERI2
 70
     0
  9
$USERI3
 70
     0
  9
$USERI4
 70
     0
  9
$USERI5
 70
     0
  9
$USERR1
 40
0.0
  9
$USERR2
 40
0.0
  9
$USERR3
 40
0.0
  9
$USERR4
 40
0.0
  9
$USERR5
 40
0.0
  9
$WORLDVIEW
 70
     1
  9
$SHADEDGE
 70
     3
  9
$SHADEDIF
 70
    70
  9
$TILEMODE
 70
     1
  9
$MAXACTVP
 70
    16
  9
$PINSBASE
 10
0.0
 20
0.0
 30
0.0
  9
$PLIMCHECK
 70
     0
  9
$PEXTMIN
 10
1.000000E+20
 20
1.000000E+20
 30
1.000000E+20
  9
$PEXTMAX
 10
-1.000000E+20
 20
-1.000000E+20
 30
-1.000000E+20
  9
$PLIMMIN
 10
0.0
 20
0.0
  9
$PLIMMAX
 10
12.0
 20
9.0
  9
$UNITMODE
 70
     0
  9
$VISRETAIN
 70
     0
  9
$PLINEGEN
 70
     0
  9
$PSLTSCALE
 70
     1
  9
$TREEDEPTH
 70
  3020
  9
$PICKSTYLE
 70
     0
  9
$CMLSTYLE
  2
STANDARD
  9
$CMLJUST
 70
     0
  9
$CMLSCALE
 40
1.0
  9
$PROXYGRAPHICS
 70
     1
  9
$MEASUREMENT
 70
     0
  0
ENDSEC
  0
SECTION
  2
CLASSES
  0
CLASS
  1
DICTIONARYVAR
  2
AcDbDictionaryVar
  3
"AutoCAD"
 90
        0
280
     0
281
     0
  0
CLASS
  1
LWPOLYLINE
  2
AcDbPolyline
  3
"AutoCAD"
 90
        0
280
     0
281
     1
  0
CLASS
  1
HATCH
  2
AcDbHatch
  3
"ACAD_SEDONA"
 90
        0
280
     0
281
     1
  0
ENDSEC
  0
SECTION
  2
TABLES
  0
TABLE
  2
VPORT
  5
8
100
AcDbSymbolTable
 70
     5
  0
VPORT
  5
1E29F
100
AcDbSymbolTableRecord
100
AcDbViewportTableRecord
  2
*ACTIVE
 70
     0
 10
0.0
 20
0.0
 11
1.0
 21
1.0
 12
19.400896
 22
28.200989
 13
0.0
 23
0.0
 14
1.0
 24
1.0
 15
0.0
 25
0.0
 16
0.0
 26
0.0
 36
1.0
 17
0.0
 27
0.0
 37
0.0
 40
56.860524
 41
1.588156
 42
50.0
 43
0.0
 44
0.0
 50
0.0
 51
0.0
 71
     0
 72
   300
 73
     1
 74
     1
 75
     0
 76
     0
 77
     0
 78
     0
  0
ENDTAB
  0
TABLE
  2
LTYPE
  5
5
100
AcDbSymbolTable
 70
     5
  0
LTYPE
  5
11
100
AcDbSymbolTableRecord
100
AcDbLinetypeTableRecord
  2
BYBLOCK
 70
     0
  3

 72
    65
 73
     0
 40
0.0
  0
LTYPE
  5
12
100
AcDbSymbolTableRecord
100
AcDbLinetypeTableRecord
  2
BYLAYER
 70
     0
  3

 72
    65
 73
     0
 40
0.0
  0
LTYPE
  5
13
100
AcDbSymbolTableRecord
100
AcDbLinetypeTableRecord
  2
CONTINUOUS
 70
     0
  3
實線
 72
    65
 73
     0
 40
0.0
  0
LTYPE
  5
2E
100
AcDbSymbolTableRecord
100
AcDbLinetypeTableRecord
  2
CENTER
 70
     0
  3
____ _ ____ _ ____ _ ____ _ ____ _ ____ _ ____ 
 72
    65
 73
     4
 40
2.0
 49
1.25
 74
     0
 49
-0.25
 74
     0
 49
0.25
 74
     0
 49
-0.25
 74
     0
  0
LTYPE
  5
41F
100
AcDbSymbolTableRecord
100
AcDbLinetypeTableRecord
  2
HIDDEN
 70
     0
  3
Hidden __ __ __ __ __ __ __ __ __ __ __ __ __ _
 72
    65
 73
     2
 40
0.375
 49
0.25
 74
     0
 49
-0.125
 74
     0
  0
LTYPE
  5
188B4
100
AcDbSymbolTableRecord
100
AcDbLinetypeTableRecord
  2
PHANTOM2
 70
     0
  3
Phantom (.5x) ___ _ _ ___ _ _ ___ _ _ ___ _ _
 72
    65
 73
     6
 40
1.25
 49
0.625
 74
     0
 49
-0.125
 74
     0
 49
0.125
 74
     0
 49
-0.125
 74
     0
 49
0.125
 74
     0
 49
-0.125
 74
     0
  0
LTYPE
  5
18E12
100
AcDbSymbolTableRecord
100
AcDbLinetypeTableRecord
  2
HIDDEN2
 70
     0
  3
Hidden (.5x) _ _ _ _ _ _ _ _ _ _ _ _ _ _ _ _ _
 72
    65
 73
     2
 40
4.7625
 49
3.175
 74
     0
 49
-1.5875
 74
     0
  0
ENDTAB
  0
TABLE
  2
LAYER
  5
2
100
AcDbSymbolTable
 70
    10
  0
LAYER
  5
E
100
AcDbSymbolTableRecord
100
AcDbLayerTableRecord
  2
0
 70
     0
 62
     7
  6
CONTINUOUS
  0
LAYER
  5
31
100
AcDbSymbolTableRecord
100
AcDbLayerTableRecord
  2
BODY
 70
     0
 62
     7
  6
CONTINUOUS
  0
LAYER
  5
32
100
AcDbSymbolTableRecord
100
AcDbLayerTableRecord
  2
CEN
 70
     0
 62
     4
  6
CENTER
  0
LAYER
  5
33
100
AcDbSymbolTableRecord
100
AcDbLayerTableRecord
  2
DIM
 70
     0
 62
     2
  6
CONTINUOUS
  0
LAYER
  5
34
100
AcDbSymbolTableRecord
100
AcDbLayerTableRecord
  2
TEXT
 70
     0
 62
     4
  6
CONTINUOUS
  0
LAYER
  5
35
100
AcDbSymbolTableRecord
100
AcDbLayerTableRecord
  2
INSERT
 70
     0
 62
     6
  6
CONTINUOUS
  0
LAYER
  5
36
100
AcDbSymbolTableRecord
100
AcDbLayerTableRecord
  2
DEFPOINTS
 70
     0
 62
     7
  6
CONTINUOUS
  0
LAYER
  5
41C
100
AcDbSymbolTableRecord
100
AcDbLayerTableRecord
  2
HI
 70
     0
 62
     3
  6
HIDDEN
  0
LAYER
  5
3BEB
100
AcDbSymbolTableRecord
100
AcDbLayerTableRecord
  2
HA
 70
     0
 62
     5
  6
CONTINUOUS
  0
LAYER
  5
3EA8
100
AcDbSymbolTableRecord
100
AcDbLayerTableRecord
  2
BODY1
 70
     0
 62
     1
  6
CONTINUOUS
  0
ENDTAB
  0
TABLE
  2
STYLE
  5
3
100
AcDbSymbolTable
 70
     4
  0
STYLE
  5
F
100
AcDbSymbolTableRecord
100
AcDbTextStyleTableRecord
  2
STANDARD
 70
     0
 40
0.0
 41
1.0
 50
0.0
 71
     0
 42
3.5
  3
txt
  4

  0
STYLE
  5
2D
100
AcDbSymbolTableRecord
100
AcDbTextStyleTableRecord
  2
MONOTXT
 70
     0
 40
0.0
 41
1.0
 50
0.0
 71
     0
 42
1.5
  3
monotxt
  4

  0
STYLE
  5
32B1
100
AcDbSymbolTableRecord
100
AcDbTextStyleTableRecord
  2
STYLE1
 70
     0
 40
3.0
 41
1.0
 50
0.0
 71
     0
 42
3.0
  3

  4

1001
ACAD
1000
標楷體
1071
    34881
  0
STYLE
  5
11534
100
AcDbSymbolTableRecord
100
AcDbTextStyleTableRecord
  2
CHINA
 70
     0
 40
0.0
 41
1.0
 50
0.0
 71
     0
 42
4.0
  3
ROMANC.SHX
  4
CHINESET.SHX
  0
ENDTAB
  0
TABLE
  2
VIEW
  5
6
100
AcDbSymbolTable
 70
     0
  0
ENDTAB
  0
TABLE
  2
UCS
  5
7
100
AcDbSymbolTable
 70
     0
  0
ENDTAB
  0
TABLE
  2
APPID
  5
9
100
AcDbSymbolTable
 70
     1
  0
APPID
  5
10
100
AcDbSymbolTableRecord
100
AcDbRegAppTableRecord
  2
ACAD
 70
     0
  0
ENDTAB
  0
TABLE
  2
DIMSTYLE
  5
A
100
AcDbSymbolTable
 70
    11
  0
DIMSTYLE
105
1A2
102
{ACAD_REACTORS
330
1CE57
330
1CEBF
330
1D2DC
330
1D38A
330
1D3F3
330
1D45E
102
}
100
AcDbSymbolTableRecord
100
AcDbDimStyleTableRecord
  2
STANDARD
 70
     0
  3

  4

  5

  6

  7

 40
1.0
 41
0.18
 42
0.0625
 43
0.38
 44
0.18
 45
0.0
 46
0.0
 47
0.0
 48
0.0
140
0.18
141
0.09
142
0.0
143
25.4
144
1.0
145
0.0
146
1.0
147
0.09
 71
     0
 72
     0
 73
     1
 74
     1
 75
     0
 76
     0
 77
     0
 78
     0
170
     0
171
     2
172
     0
173
     0
174
     0
175
     0
176
     0
177
     0
178
     0
270
     2
271
     4
272
     4
273
     2
274
     2
340
F
275
     0
280
     0
281
     0
282
     0
283
     1
284
     0
285
     0
286
     0
287
     3
288
     0
  0
DIMSTYLE
105
32B2
100
AcDbSymbolTableRecord
100
AcDbDimStyleTableRecord
  2
ISO-35
 70
     0
  3

  4

  5

  6

  7

 40
1.0
 41
3.5
 42
0.875
 43
5.25
 44
1.75
 45
0.0
 46
0.0
 47
0.0
 48
0.0
140
3.5
141
3.5
142
0.0
143
0.0394
144
1.0
145
0.0
146
1.0
147
0.875
 71
     0
 72
     0
 73
     0
 74
     0
 75
     0
 76
     0
 77
     1
 78
     8
170
     0
171
     4
172
     1
173
     0
174
     0
175
     0
176
     0
177
     0
178
     0
270
     8
271
     4
272
     4
273
     8
274
     4
340
F
275
     0
280
     0
281
     0
282
     0
283
     1
284
     0
285
     0
286
     0
287
     3
288
     0
  0
DIMSTYLE
105
32B3
100
AcDbSymbolTableRecord
100
AcDbDimStyleTableRecord
  2
ISO-5
 70
     0
  3

  4

  5

  6

  7

 40
1.0
 41
5.0
 42
1.25
 43
7.5
 44
2.5
 45
0.0
 46
0.0
 47
0.0
 48
0.0
140
5.0
141
5.0
142
0.0
143
0.0394
144
1.0
145
0.0
146
1.0
147
1.25
 71
     0
 72
     0
 73
     0
 74
     0
 75
     0
 76
     0
 77
     1
 78
     8
170
     0
171
     4
172
     1
173
     0
174
     0
175
     0
176
     0
177
     0
178
     0
270
     8
271
     4
272
     4
273
     8
274
     4
340
F
275
     0
280
     0
281
     0
282
     0
283
     1
284
     0
285
     0
286
     0
287
     3
288
     0
  0
DIMSTYLE
105
32B4
100
AcDbSymbolTableRecord
100
AcDbDimStyleTableRecord
  2
ISO-7
 70
     0
  3

  4

  5

  6

  7

 40
1.0
 41
7.0
 42
1.75
 43
10.5
 44
3.5
 45
0.0
 46
0.0
 47
0.0
 48
0.0
140
7.0
141
7.0
142
0.0
143
0.0394
144
1.0
145
0.0
146
1.0
147
1.75
 71
     0
 72
     0
 73
     0
 74
     0
 75
     0
 76
     0
 77
     1
 78
     8
170
     0
171
     4
172
     1
173
     0
174
     0
175
     0
176
     0
177
     0
178
     0
270
     8
271
     4
272
     4
273
     8
274
     4
340
F
275
     0
280
     0
281
     0
282
     0
283
     1
284
     0
285
     0
286
     0
287
     3
288
     0
  0
DIMSTYLE
105
32B5
100
AcDbSymbolTableRecord
100
AcDbDimStyleTableRecord
  2
ISO1
 70
     0
  3

  4

  5

  6

  7

 40
1.0
 41
10.0
 42
2.5
 43
15.0
 44
5.0
 45
0.0
 46
0.0
 47
0.0
 48
0.0
140
10.0
141
10.0
142
0.0
143
0.0394
144
1.0
145
0.0
146
1.0
147
2.5
 71
     0
 72
     0
 73
     0
 74
     0
 75
     0
 76
     0
 77
     1
 78
     8
170
     0
171
     4
172
     1
173
     0
174
     0
175
     0
176
     0
177
     0
178
     0
270
     8
271
     4
272
     4
273
     8
274
     4
340
F
275
     0
280
     0
281
     0
282
     0
283
     1
284
     0
285
     0
286
     0
287
     3
288
     0
  0
DIMSTYLE
105
32B6
100
AcDbSymbolTableRecord
100
AcDbDimStyleTableRecord
  2
ISO1-4
 70
     0
  3

  4

  5

  6

  7

 40
1.0
 41
14.0
 42
3.5
 43
21.0
 44
7.0
 45
0.0
 46
0.0
 47
0.0
 48
0.0
140
14.0
141
14.0
142
0.0
143
0.0394
144
1.0
145
5.6
146
1.0
147
3.5
 71
     0
 72
     0
 73
     1
 74
     0
 75
     0
 76
     0
 77
     1
 78
     8
170
     0
171
     2
172
     1
173
     0
174
     0
175
     0
176
     0
177
     0
178
     0
270
     8
271
     4
272
     4
273
     8
274
     2
340
F
275
     0
280
     0
281
     0
282
     0
283
     1
284
     0
285
     0
286
     0
287
     3
288
     0
  0
DIMSTYLE
105
32B7
100
AcDbSymbolTableRecord
100
AcDbDimStyleTableRecord
  2
ISO2
 70
     0
  3

  4

  5

  6

  7

 40
1.0
 41
20.0
 42
5.0
 43
30.0
 44
10.0
 45
0.0
 46
0.0
 47
0.0
 48
0.0
140
20.0
141
20.0
142
0.0
143
0.0394
144
1.0
145
0.0
146
1.0
147
5.0
 71
     0
 72
     0
 73
     0
 74
     0
 75
     0
 76
     0
 77
     1
 78
     8
170
     0
171
     4
172
     1
173
     0
174
     0
175
     0
176
     0
177
     0
178
     0
270
     8
271
     4
272
     4
273
     8
274
     4
340
F
275
     0
280
     0
281
     0
282
     0
283
     1
284
     0
285
     0
286
     0
287
     3
288
     0
  0
DIMSTYLE
105
32B8
100
AcDbSymbolTableRecord
100
AcDbDimStyleTableRecord
  2
ISO-4
 70
     0
  3

  4

  5

  6

  7

 40
1.0
 41
14.0
 42
3.5
 43
21.0
 44
7.0
 45
0.0
 46
0.0
 47
0.0
 48
0.0
140
14.0
141
14.0
142
0.0
143
0.0394
144
1.0
145
0.0
146
1.0
147
3.5
 71
     0
 72
     0
 73
     0
 74
     0
 75
     0
 76
     0
 77
     1
 78
     8
170
     0
171
     4
172
     1
173
     0
174
     0
175
     0
176
     0
177
     0
178
     0
270
     8
271
     4
272
     4
273
     8
274
     4
340
F
275
     0
280
     0
281
     0
282
     0
283
     1
284
     0
285
     0
286
     0
287
     3
288
     0
  0
DIMSTYLE
105
32B9
100
AcDbSymbolTableRecord
100
AcDbDimStyleTableRecord
  2
ISO-25
 70
     0
  3

  4

  5

  6

  7

 40
1.0
 41
2.5
 42
0.625
 43
3.75
 44
1.25
 45
0.0
 46
0.0
 47
0.0
 48
0.0
140
2.5
141
2.5
142
0.0
143
0.0394
144
1.0
145
0.0
146
1.0
147
0.625
 71
     0
 72
     0
 73
     0
 74
     0
 75
     0
 76
     0
 77
     1
 78
     8
170
     0
171
     4
172
     1
173
     0
174
     0
175
     0
176
     0
177
     0
178
     0
270
     8
271
     4
272
     4
273
     8
274
     4
340
F
275
     0
280
     0
281
     0
282
     0
283
     1
284
     0
285
     0
286
     0
287
     3
288
     0
  0
DIMSTYLE
105
32BA
100
AcDbSymbolTableRecord
100
AcDbDimStyleTableRecord
  2
ISO-25_WS
 70
     0
  3

  4

  5

  6

  7

 40
1.0
 41
2.5
 42
0.625
 43
3.75
 44
1.25
 45
0.0
 46
0.0
 47
0.0
 48
0.0
140
2.5
141
2.5
142
0.0
143
0.0394
144
1.0
145
0.0
146
1.0
147
0.625
 71
     0
 72
     0
 73
     0
 74
     0
 75
     0
 76
     0
 77
     1
 78
     8
170
     0
171
     4
172
     1
173
     0
174
     0
175
     0
176
     0
177
     0
178
     0
270
     2
271
     4
272
     4
273
     8
274
     4
340
F
275
     0
280
     0
281
     0
282
     0
283
     1
284
     0
285
     0
286
     0
287
     3
288
     0
  0
DIMSTYLE
105
18E13
100
AcDbSymbolTableRecord
100
AcDbDimStyleTableRecord
  2
ISO-251
 70
     0
  3

  4

  5

  6

  7

 40
1.0
 41
2.5
 42
0.625
 43
3.75
 44
1.25
 45
0.0
 46
0.0
 47
0.05
 48
0.05
140
2.5
141
-2.0
142
0.0
143
0.0394
144
1.0
145
0.0
146
1.0
147
0.625
 71
     1
 72
     0
 73
     0
 74
     0
 75
     0
 76
     0
 77
     1
 78
     8
170
     0
171
     4
172
     1
173
     0
174
     0
175
     0
176
     0
177
     0
178
     0
270
     8
271
     4
272
     2
273
     8
274
     4
340
F
275
     0
280
     0
281
     0
282
     0
283
     1
284
     0
285
     0
286
     0
287
     3
288
     0
  0
ENDTAB
  0
TABLE
  2
BLOCK_RECORD
  5
1
100
AcDbSymbolTable
 70
    56
  0
BLOCK_RECORD
  5
17
100
AcDbSymbolTableRecord
100
AcDbBlockTableRecord
  2
*MODEL_SPACE
  0
BLOCK_RECORD
  5
14
100
AcDbSymbolTableRecord
100
AcDbBlockTableRecord
  2
*PAPER_SPACE
  0
BLOCK_RECORD
  5
1CB7D
100
AcDbSymbolTableRecord
100
AcDbBlockTableRecord
  2
*D0
  0
BLOCK_RECORD
  5
1CBB2
100
AcDbSymbolTableRecord
100
AcDbBlockTableRecord
  2
*D1
  0
BLOCK_RECORD
  5
1CDB0
100
AcDbSymbolTableRecord
100
AcDbBlockTableRecord
  2
*D2
  0
BLOCK_RECORD
  5
1CDC1
100
AcDbSymbolTableRecord
100
AcDbBlockTableRecord
  2
*D3
  0
BLOCK_RECORD
  5
1CDCE
100
AcDbSymbolTableRecord
100
AcDbBlockTableRecord
  2
*D4
  0
BLOCK_RECORD
  5
1CE4B
100
AcDbSymbolTableRecord
100
AcDbBlockTableRecord
  2
*D5
  0
BLOCK_RECORD
  5
1CEB3
100
AcDbSymbolTableRecord
100
AcDbBlockTableRecord
  2
*D6
  0
BLOCK_RECORD
  5
1D24D
100
AcDbSymbolTableRecord
100
AcDbBlockTableRecord
  2
*D7
  0
BLOCK_RECORD
  5
1D28A
100
AcDbSymbolTableRecord
100
AcDbBlockTableRecord
  2
*D8
  0
BLOCK_RECORD
  5
1D297
100
AcDbSymbolTableRecord
100
AcDbBlockTableRecord
  2
*D9
  0
BLOCK_RECORD
  5
1D2D0
100
AcDbSymbolTableRecord
100
AcDbBlockTableRecord
  2
*D10
  0
BLOCK_RECORD
  5
1D338
100
AcDbSymbolTableRecord
100
AcDbBlockTableRecord
  2
*D11
  0
BLOCK_RECORD
  5
1D345
100
AcDbSymbolTableRecord
100
AcDbBlockTableRecord
  2
*D12
  0
BLOCK_RECORD
  5
1D37E
100
AcDbSymbolTableRecord
100
AcDbBlockTableRecord
  2
*D13
  0
BLOCK_RECORD
  5
1D3E5
100
AcDbSymbolTableRecord
100
AcDbBlockTableRecord
  2
*D14
  0
BLOCK_RECORD
  5
1D410
100
AcDbSymbolTableRecord
100
AcDbBlockTableRecord
  2
*D15
  0
BLOCK_RECORD
  5
1D448
100
AcDbSymbolTableRecord
100
AcDbBlockTableRecord
  2
*D16
  0
BLOCK_RECORD
  5
1D455
100
AcDbSymbolTableRecord
100
AcDbBlockTableRecord
  2
*D17
  0
BLOCK_RECORD
  5
1D4C3
100
AcDbSymbolTableRecord
100
AcDbBlockTableRecord
  2
*D18
  0
BLOCK_RECORD
  5
1DBBD
100
AcDbSymbolTableRecord
100
AcDbBlockTableRecord
  2
*D19
  0
BLOCK_RECORD
  5
1DBE3
100
AcDbSymbolTableRecord
100
AcDbBlockTableRecord
  2
*D20
  0
BLOCK_RECORD
  5
1DC07
100
AcDbSymbolTableRecord
100
AcDbBlockTableRecord
  2
*D21
  0
BLOCK_RECORD
  5
1DC13
100
AcDbSymbolTableRecord
100
AcDbBlockTableRecord
  2
*D22
  0
BLOCK_RECORD
  5
1DC21
100
AcDbSymbolTableRecord
100
AcDbBlockTableRecord
  2
*D23
  0
BLOCK_RECORD
  5
1DC49
100
AcDbSymbolTableRecord
100
AcDbBlockTableRecord
  2
*D24
  0
BLOCK_RECORD
  5
1DCB3
100
AcDbSymbolTableRecord
100
AcDbBlockTableRecord
  2
*D25
  0
BLOCK_RECORD
  5
1DD7A
100
AcDbSymbolTableRecord
100
AcDbBlockTableRecord
  2
*D26
  0
BLOCK_RECORD
  5
1DD96
100
AcDbSymbolTableRecord
100
AcDbBlockTableRecord
  2
_DOTSMALL
  0
BLOCK_RECORD
  5
1DDC9
100
AcDbSymbolTableRecord
100
AcDbBlockTableRecord
  2
*D28
  0
BLOCK_RECORD
  5
1DECD
100
AcDbSymbolTableRecord
100
AcDbBlockTableRecord
  2
*D29
  0
BLOCK_RECORD
  5
1DED8
100
AcDbSymbolTableRecord
100
AcDbBlockTableRecord
  2
*D30
  0
BLOCK_RECORD
  5
1DEE4
100
AcDbSymbolTableRecord
100
AcDbBlockTableRecord
  2
*D31
  0
BLOCK_RECORD
  5
1DEF4
100
AcDbSymbolTableRecord
100
AcDbBlockTableRecord
  2
*D32
  0
BLOCK_RECORD
  5
1DF00
100
AcDbSymbolTableRecord
100
AcDbBlockTableRecord
  2
*D33
  0
BLOCK_RECORD
  5
1DF0E
100
AcDbSymbolTableRecord
100
AcDbBlockTableRecord
  2
*D34
  0
BLOCK_RECORD
  5
1DF1A
100
AcDbSymbolTableRecord
100
AcDbBlockTableRecord
  2
*D35
  0
BLOCK_RECORD
  5
1DF27
100
AcDbSymbolTableRecord
100
AcDbBlockTableRecord
  2
*D36
  0
BLOCK_RECORD
  5
1DF35
100
AcDbSymbolTableRecord
100
AcDbBlockTableRecord
  2
*D37
  0
BLOCK_RECORD
  5
1DF41
100
AcDbSymbolTableRecord
100
AcDbBlockTableRecord
  2
*D38
  0
BLOCK_RECORD
  5
1DF4D
100
AcDbSymbolTableRecord
100
AcDbBlockTableRecord
  2
*D39
  0
BLOCK_RECORD
  5
1DF59
100
AcDbSymbolTableRecord
100
AcDbBlockTableRecord
  2
*D40
  0
BLOCK_RECORD
  5
1DF65
100
AcDbSymbolTableRecord
100
AcDbBlockTableRecord
  2
*D41
  0
BLOCK_RECORD
  5
1DF71
100
AcDbSymbolTableRecord
100
AcDbBlockTableRecord
  2
*D42
  0
BLOCK_RECORD
  5
1DF7D
100
AcDbSymbolTableRecord
100
AcDbBlockTableRecord
  2
*D43
  0
BLOCK_RECORD
  5
1DF8B
100
AcDbSymbolTableRecord
100
AcDbBlockTableRecord
  2
*D44
  0
BLOCK_RECORD
  5
1DF99
100
AcDbSymbolTableRecord
100
AcDbBlockTableRecord
  2
*D45
  0
BLOCK_RECORD
  5
1DFA7
100
AcDbSymbolTableRecord
100
AcDbBlockTableRecord
  2
*D46
  0
BLOCK_RECORD
  5
1DFB3
100
AcDbSymbolTableRecord
100
AcDbBlockTableRecord
  2
*D47
  0
BLOCK_RECORD
  5
1DFBC
100
AcDbSymbolTableRecord
100
AcDbBlockTableRecord
  2
*D48
  0
BLOCK_RECORD
  5
1DFCB
100
AcDbSymbolTableRecord
100
AcDbBlockTableRecord
  2
*D49
  0
BLOCK_RECORD
  5
1DFD9
100
AcDbSymbolTableRecord
100
AcDbBlockTableRecord
  2
*D50
  0
BLOCK_RECORD
  5
1DFE5
100
AcDbSymbolTableRecord
100
AcDbBlockTableRecord
  2
*D51
  0
BLOCK_RECORD
  5
1DFF1
100
AcDbSymbolTableRecord
100
AcDbBlockTableRecord
  2
*D52
  0
BLOCK_RECORD
  5
1DFFF
100
AcDbSymbolTableRecord
100
AcDbBlockTableRecord
  2
*D53
  0
BLOCK_RECORD
  5
1E00D
100
AcDbSymbolTableRecord
100
AcDbBlockTableRecord
  2
*D54
  0
BLOCK_RECORD
  5
1E07F
100
AcDbSymbolTableRecord
100
AcDbBlockTableRecord
  2
*D55
  0
ENDTAB
  0
ENDSEC
  0
SECTION
  2
BLOCKS
  0
BLOCK
  5
39
100
AcDbEntity
  8
0
100
AcDbBlockBegin
  2
*MODEL_SPACE
 70
     0
 10
0.0
 20
0.0
 30
0.0
  3
*MODEL_SPACE
  1

  0
ENDBLK
  5
3A
100
AcDbEntity
  8
0
100
AcDbBlockEnd
  0
BLOCK
  5
37
100
AcDbEntity
 67
     1
  8
0
100
AcDbBlockBegin
  2
*PAPER_SPACE
 70
     0
 10
0.0
 20
0.0
 30
0.0
  3
*PAPER_SPACE
  1

  0
ENDBLK
  5
38
100
AcDbEntity
 67
     1
  8
0
100
AcDbBlockEnd
  0
BLOCK
  5
1D155
100
AcDbEntity
  8
0
100
AcDbBlockBegin
  2
*D0
 70
     1
 10
0.0
 20
0.0
 30
0.0
  3
*D0
  1

  0
LINE
  5
1D156
100
AcDbEntity
  8
0
  6
BYBLOCK
 62
     0
100
AcDbLine
 10
15.998155
 20
29.631749
 30
0.0
 11
18.298064
 21
29.611323
 31
0.0
  0
LINE
  5
1D157
100
AcDbEntity
  8
0
  6
BYBLOCK
 62
     0
100
AcDbLine
 10
22.797887
 20
29.571358
 30
0.0
 11
23.297867
 21
29.566918
 31
0.0
  0
MTEXT
  5
1D158
100
AcDbEntity
  8
0
  6
BYBLOCK
 62
     0
100
AcDbMText
 10
16.901672
 20
30.02374
 30
0.0
 40
0.5
 41
0.0
 71
     5
 72
     1
  1
\A1;\U+22053.5
 11
0.999961
 21
-0.008881
 31
0.0
  0
LINE
  5
1D159
100
AcDbEntity
  8
0
  6
BYBLOCK
 62
     0
100
AcDbLine
 10
22.297906
 20
29.575799
 30
0.0
 11
18.798044
 21
29.606882
 31
0.0
  0
SOLID
  5
1D15A
100
AcDbEntity
  8
0
  6
BYBLOCK
 62
     0
100
AcDbTrace
 10
22.798627
 20
29.654689
 30
0.0
 11
22.797147
 21
29.488028
 31
0.0
 12
22.297906
 22
29.575799
 32
0.0
 13
22.297906
 23
29.575799
 33
0.0
  0
SOLID
  5
1D15B
100
AcDbEntity
  8
0
  6
BYBLOCK
 62
     0
100
AcDbTrace
 10
18.298804
 20
29.694653
 30
0.0
 11
18.297324
 21
29.527993
 31
0.0
 12
18.798044
 22
29.606882
 32
0.0
 13
18.798044
 23
29.606882
 33
0.0
  0
POINT
  5
1D15C
100
AcDbEntity
  8
DEFPOINTS
  6
BYBLOCK
 62
     0
100
AcDbPoint
 10
18.798044
 20
29.606882
 30
0.0
  0
POINT
  5
1D15D
100
AcDbEntity
  8
DEFPOINTS
  6
BYBLOCK
 62
     0
100
AcDbPoint
 10
22.297906
 20
29.575799
 30
0.0
  0
ENDBLK
  5
1D15E
100
AcDbEntity
  8
0
100
AcDbBlockEnd
  0
BLOCK
  5
1D242
100
AcDbEntity
  8
0
100
AcDbBlockBegin
  2
*D1
 70
     1
 10
0.0
 20
0.0
 30
0.0
  3
*D1
  1

  0
LINE
  5
1D243
100
AcDbEntity
  8
0
  6
BYBLOCK
 62
     0
100
AcDbLine
 10
24.197444
 20
29.142754
 30
0.0
 11
26.45708
 21
30.447355
 31
0.0
  0
LINE
  5
1D244
100
AcDbEntity
  8
0
  6
BYBLOCK
 62
     0
100
AcDbLine
 10
19.802879
 20
31.181885
 30
0.0
 11
24.475468
 21
33.879606
 31
0.0
  0
LINE
  5
1D245
100
AcDbEntity
  8
0
  6
BYBLOCK
 62
     0
100
AcDbLine
 10
26.077176
 20
30.805367
 30
0.0
 11
24.595565
 21
33.371593
 31
0.0
  0
SOLID
  5
1D246
100
AcDbEntity
  8
0
  6
BYBLOCK
 62
     0
100
AcDbTrace
 10
26.149345
 20
30.847034
 30
0.0
 11
26.005007
 21
30.763701
 31
0.0
 12
26.327176
 22
30.372355
 32
0.0
 13
26.327176
 23
30.372355
 33
0.0
  0
SOLID
  5
1D247
100
AcDbEntity
  8
0
  6
BYBLOCK
 62
     0
100
AcDbTrace
 10
24.667733
 20
33.41326
 30
0.0
 11
24.523396
 21
33.329926
 31
0.0
 12
24.345565
 22
33.804606
 32
0.0
 13
24.345565
 23
33.804606
 33
0.0
  0
MTEXT
  5
1D248
100
AcDbEntity
  8
0
  6
BYBLOCK
 62
     0
100
AcDbMText
 10
25.718865
 20
32.309314
 30
0.0
 40
0.5
 41
0.0
 71
     5
 72
     1
  1
\A1;3.96{\H0.250000;\S+0.1^ -0;}
 11
0.5
 21
-0.866025
 31
0.0
  0
POINT
  5
1D249
100
AcDbEntity
  8
DEFPOINTS
  6
BYBLOCK
 62
     0
100
AcDbPoint
 10
24.067541
 20
29.067754
 30
0.0
  0
POINT
  5
1D24A
100
AcDbEntity
  8
DEFPOINTS
  6
BYBLOCK
 62
     0
100
AcDbPoint
 10
19.672975
 20
31.106885
 30
0.0
  0
POINT
  5
1D24B
100
AcDbEntity
  8
DEFPOINTS
  6
BYBLOCK
 62
     0
100
AcDbPoint
 10
24.345565
 20
33.804606
 30
0.0
  0
ENDBLK
  5
1D24C
100
AcDbEntity
  8
0
100
AcDbBlockEnd
  0
BLOCK
  5
1CDB1
100
AcDbEntity
  8
0
100
AcDbBlockBegin
  2
*D2
 70
     1
 10
0.0
 20
0.0
 30
0.0
  3
*D2
  1

  0
LINE
  5
1CDB2
100
AcDbEntity
  8
0
  6
BYBLOCK
 62
     0
100
AcDbLine
 10
29.138873
 20
38.817615
 30
0.0
 11
26.68976
 21
38.945967
 31
0.0
  0
LINE
  5
1CDB3
100
AcDbEntity
  8
0
  6
BYBLOCK
 62
     0
100
AcDbLine
 10
28.138667
 20
37.04722
 30
0.0
 11
26.64004
 21
37.04722
 31
0.0
  0
ARC
  5
1CDB4
100
AcDbEntity
  8
0
  6
BYBLOCK
 62
     0
100
AcDbCircle
 10
62.920015
 20
37.04722
 30
0.0
 40
36.129976
100
AcDbArc
 50
176.207082
 51
177.0
  0
LINE
  5
1CDB5
100
AcDbEntity
  8
0
  6
BYBLOCK
 62
     0
100
AcDbLine
 10
26.869177
 20
39.437239
 30
0.0
 11
26.933122
 21
40.401788
 31
0.0
  0
ARC
  5
1CDB6
100
AcDbEntity
  8
0
  6
BYBLOCK
 62
     0
100
AcDbCircle
 10
62.920015
 20
37.04722
 30
0.0
 40
36.129976
100
AcDbArc
 50
177.792918
 51
179.207082
  0
SOLID
  5
1CDB7
100
AcDbEntity
  8
0
  6
BYBLOCK
 62
     0
100
AcDbTrace
 10
26.733595
 20
38.442418
 30
0.0
 11
26.900089
 21
38.434848
 31
0.0
 12
26.839554
 22
38.938117
 32
0.0
 13
26.839554
 23
38.938117
 33
0.0
  0
SOLID
  5
1CDB8
100
AcDbEntity
  8
0
  6
BYBLOCK
 62
     0
100
AcDbTrace
 10
26.876831
 20
37.546632
 30
0.0
 11
26.710168
 21
37.547785
 31
0.0
 12
26.79004
 22
37.04722
 32
0.0
 13
26.79004
 23
37.04722
 33
0.0
  0
MTEXT
  5
1CDB9
100
AcDbEntity
  8
0
  6
BYBLOCK
 62
     0
100
AcDbMText
 10
26.502026
 20
39.945974
 30
0.0
 40
0.5
 41
0.0
 71
     5
 72
     1
  1
\A1;3°
 11
0.066151
 21
0.99781
 31
0.0
  0
POINT
  5
1CDBA
100
AcDbEntity
  8
DEFPOINTS
  6
BYBLOCK
 62
     0
100
AcDbPoint
 10
26.795542
 20
37.677775
 30
0.0
  0
POINT
  5
1CDBB
100
AcDbEntity
  8
DEFPOINTS
  6
BYBLOCK
 62
     0
100
AcDbPoint
 10
29.528026
 20
38.79722
 30
0.0
  0
POINT
  5
1CDBC
100
AcDbEntity
  8
DEFPOINTS
  6
BYBLOCK
 62
     0
100
AcDbPoint
 10
28.288667
 20
37.04722
 30
0.0
  0
POINT
  5
1CDBD
100
AcDbEntity
  8
DEFPOINTS
  6
BYBLOCK
 62
     0
100
AcDbPoint
 10
32.288667
 20
37.04722
 30
0.0
  0
POINT
  5
1CDBE
100
AcDbEntity
  8
DEFPOINTS
  6
BYBLOCK
 62
     0
100
AcDbPoint
 10
29.288667
 20
38.809764
 30
0.0
  0
ENDBLK
  5
1CDBF
100
AcDbEntity
  8
0
100
AcDbBlockEnd
  0
BLOCK
  5
1CDE8
100
AcDbEntity
  8
0
100
AcDbBlockBegin
  2
*D3
 70
     1
 10
0.0
 20
0.0
 30
0.0
  3
*D3
  1

  0
LINE
  5
1CDE9
100
AcDbEntity
  8
0
  6
BYBLOCK
 62
     0
100
AcDbLine
 10
29.378026
 20
38.79722
 30
0.0
 11
25.138667
 21
38.79722
 31
0.0
  0
LINE
  5
1CDEA
100
AcDbEntity
  8
0
  6
BYBLOCK
 62
     0
100
AcDbLine
 10
29.378026
 20
35.29722
 30
0.0
 11
25.138667
 21
35.29722
 31
0.0
  0
LINE
  5
1CDEB
100
AcDbEntity
  8
0
  6
BYBLOCK
 62
     0
100
AcDbLine
 10
25.288667
 20
38.29722
 30
0.0
 11
25.288667
 21
35.79722
 31
0.0
  0
SOLID
  5
1CDEC
100
AcDbEntity
  8
0
  6
BYBLOCK
 62
     0
100
AcDbTrace
 10
25.205334
 20
38.29722
 30
0.0
 11
25.372001
 21
38.29722
 31
0.0
 12
25.288667
 22
38.79722
 32
0.0
 13
25.288667
 23
38.79722
 33
0.0
  0
SOLID
  5
1CDED
100
AcDbEntity
  8
0
  6
BYBLOCK
 62
     0
100
AcDbTrace
 10
25.205334
 20
35.79722
 30
0.0
 11
25.372001
 21
35.79722
 31
0.0
 12
25.288667
 22
35.29722
 32
0.0
 13
25.288667
 23
35.29722
 33
0.0
  0
MTEXT
  5
1CDEE
100
AcDbEntity
  8
0
  6
BYBLOCK
 62
     0
100
AcDbMText
 10
24.847001
 20
37.04722
 30
0.0
 40
0.5
 41
0.0
 71
     5
 72
     1
  1
\A1;\U+22053.5{\H0.250000;\S+0.1^ -0;}
 11
0.0
 21
1.0
 31
0.0
  0
POINT
  5
1CDEF
100
AcDbEntity
  8
DEFPOINTS
  6
BYBLOCK
 62
     0
100
AcDbPoint
 10
29.528026
 20
38.79722
 30
0.0
  0
POINT
  5
1CDF0
100
AcDbEntity
  8
DEFPOINTS
  6
BYBLOCK
 62
     0
100
AcDbPoint
 10
29.528026
 20
35.29722
 30
0.0
  0
POINT
  5
1CDF1
100
AcDbEntity
  8
DEFPOINTS
  6
BYBLOCK
 62
     0
100
AcDbPoint
 10
25.288667
 20
35.29722
 30
0.0
  0
ENDBLK
  5
1CDF2
100
AcDbEntity
  8
0
100
AcDbBlockEnd
  0
BLOCK
  5
1CE00
100
AcDbEntity
  8
0
100
AcDbBlockBegin
  2
*D4
 70
     1
 10
0.0
 20
0.0
 30
0.0
  3
*D4
  1

  0
LINE
  5
1CE01
100
AcDbEntity
  8
0
  6
BYBLOCK
 62
     0
100
AcDbLine
 10
29.396833
 20
38.869942
 30
0.0
 11
24.772913
 21
41.433022
 31
0.0
  0
LINE
  5
1CE02
100
AcDbEntity
  8
0
  6
BYBLOCK
 62
     0
100
AcDbLine
 10
29.396833
 20
35.224499
 30
0.0
 11
24.772913
 21
32.661418
 31
0.0
  0
ARC
  5
1CE03
100
AcDbEntity
  8
0
  6
BYBLOCK
 62
     0
100
AcDbCircle
 10
32.685109
 20
37.04722
 30
0.0
 40
8.896442
100
AcDbArc
 50
154.220575
 51
205.779425
  0
SOLID
  5
1CE04
100
AcDbEntity
  8
0
  6
BYBLOCK
 62
     0
100
AcDbTrace
 10
24.600094
 20
40.954689
 30
0.0
 11
24.748077
 21
40.878015
 31
0.0
 12
24.904106
 22
41.360301
 32
0.0
 13
24.904106
 23
41.360301
 33
0.0
  0
SOLID
  5
1CE05
100
AcDbEntity
  8
0
  6
BYBLOCK
 62
     0
100
AcDbTrace
 10
24.748077
 20
33.216425
 30
0.0
 11
24.600094
 21
33.139752
 31
0.0
 12
24.904106
 22
32.734139
 32
0.0
 13
24.904106
 23
32.734139
 33
0.0
  0
MTEXT
  5
1CE06
100
AcDbEntity
  8
0
  6
BYBLOCK
 62
     0
100
AcDbMText
 10
23.347001
 20
37.04722
 30
0.0
 40
0.5
 41
0.0
 71
     5
 72
     1
  1
\A1;58°{\H0.250000;\S+1°^ -0°;}
 11
0.0
 21
1.0
 31
0.0
  0
POINT
  5
1CE07
100
AcDbEntity
  8
DEFPOINTS
  6
BYBLOCK
 62
     0
100
AcDbPoint
 10
23.914985
 20
38.541074
 30
0.0
  0
POINT
  5
1CE08
100
AcDbEntity
  8
DEFPOINTS
  6
BYBLOCK
 62
     0
100
AcDbPoint
 10
30.203858
 20
38.4226
 30
0.0
  0
POINT
  5
1CE09
100
AcDbEntity
  8
DEFPOINTS
  6
BYBLOCK
 62
     0
100
AcDbPoint
 10
30.203858
 20
35.67184
 30
0.0
  0
POINT
  5
1CE0A
100
AcDbEntity
  8
DEFPOINTS
  6
BYBLOCK
 62
     0
100
AcDbPoint
 10
29.528026
 20
35.29722
 30
0.0
  0
POINT
  5
1CE0B
100
AcDbEntity
  8
DEFPOINTS
  6
BYBLOCK
 62
     0
100
AcDbPoint
 10
29.528026
 20
38.79722
 30
0.0
  0
ENDBLK
  5
1CE0C
100
AcDbEntity
  8
0
100
AcDbBlockEnd
  0
BLOCK
  5
1E221
100
AcDbEntity
  8
0
100
AcDbBlockBegin
  2
*D5
 70
     1
 10
0.0
 20
0.0
 30
0.0
  3
*D5
  1

  0
LINE
  5
1E222
100
AcDbEntity
  8
0
  6
BYBLOCK
 62
     0
100
AcDbLine
 10
26.012941
 20
35.364888
 30
0.0
 11
26.012941
 21
31.260675
 31
0.0
  0
LINE
  5
1E223
100
AcDbEntity
  8
0
  6
BYBLOCK
 62
     0
100
AcDbLine
 10
24.012941
 20
32.760675
 30
0.0
 11
24.012941
 21
31.260675
 31
0.0
  0
LINE
  5
1E224
100
AcDbEntity
  8
0
  6
BYBLOCK
 62
     0
100
AcDbLine
 10
25.512941
 20
31.410675
 30
0.0
 11
24.512941
 21
31.410675
 31
0.0
  0
SOLID
  5
1E225
100
AcDbEntity
  8
0
  6
BYBLOCK
 62
     0
100
AcDbTrace
 10
25.512941
 20
31.494008
 30
0.0
 11
25.512941
 21
31.327342
 31
0.0
 12
26.012941
 22
31.410675
 32
0.0
 13
26.012941
 23
31.410675
 33
0.0
  0
SOLID
  5
1E226
100
AcDbEntity
  8
0
  6
BYBLOCK
 62
     0
100
AcDbTrace
 10
24.512941
 20
31.494008
 30
0.0
 11
24.512941
 21
31.327342
 31
0.0
 12
24.012941
 22
31.410675
 32
0.0
 13
24.012941
 23
31.410675
 33
0.0
  0
MTEXT
  5
1E227
100
AcDbEntity
  8
0
  6
BYBLOCK
 62
     0
100
AcDbMText
 10
25.012941
 20
31.810675
 30
0.0
 40
0.5
 41
0.0
 71
     5
 72
     1
  1
\A1;2{\H0.250000;±0.01}
  0
POINT
  5
1E228
100
AcDbEntity
  8
DEFPOINTS
  6
BYBLOCK
 62
     0
100
AcDbPoint
 10
26.012941
 20
35.514888
 30
0.0
  0
POINT
  5
1E229
100
AcDbEntity
  8
DEFPOINTS
  6
BYBLOCK
 62
     0
100
AcDbPoint
 10
24.012941
 20
32.910675
 30
0.0
  0
POINT
  5
1E22A
100
AcDbEntity
  8
DEFPOINTS
  6
BYBLOCK
 62
     0
100
AcDbPoint
 10
24.012941
 20
31.410675
 30
0.0
  0
ENDBLK
  5
1E22B
100
AcDbEntity
  8
0
100
AcDbBlockEnd
  0
BLOCK
  5
1E242
100
AcDbEntity
  8
0
100
AcDbBlockBegin
  2
*D6
 70
     1
 10
0.0
 20
0.0
 30
0.0
  3
*D6
  1

  0
LINE
  5
1E243
100
AcDbEntity
  8
0
  6
BYBLOCK
 62
     0
100
AcDbLine
 10
26.062941
 20
37.810675
 30
0.0
 11
28.417595
 21
37.810675
 31
0.0
  0
LINE
  5
1E244
100
AcDbEntity
  8
0
  6
BYBLOCK
 62
     0
100
AcDbLine
 10
26.062941
 20
40.310675
 30
0.0
 11
28.417595
 21
40.310675
 31
0.0
  0
LINE
  5
1E245
100
AcDbEntity
  8
0
  6
BYBLOCK
 62
     0
100
AcDbLine
 10
28.267595
 20
38.310675
 30
0.0
 11
28.267595
 21
39.810675
 31
0.0
  0
SOLID
  5
1E246
100
AcDbEntity
  8
0
  6
BYBLOCK
 62
     0
100
AcDbTrace
 10
28.184261
 20
38.310675
 30
0.0
 11
28.350928
 21
38.310675
 31
0.0
 12
28.267595
 22
37.810675
 32
0.0
 13
28.267595
 23
37.810675
 33
0.0
  0
SOLID
  5
1E247
100
AcDbEntity
  8
0
  6
BYBLOCK
 62
     0
100
AcDbTrace
 10
28.184261
 20
39.810675
 30
0.0
 11
28.350928
 21
39.810675
 31
0.0
 12
28.267595
 22
40.310675
 32
0.0
 13
28.267595
 23
40.310675
 33
0.0
  0
MTEXT
  5
1E248
100
AcDbEntity
  8
0
  6
BYBLOCK
 62
     0
100
AcDbMText
 10
27.867595
 20
39.060675
 30
0.0
 40
0.5
 41
0.0
 71
     5
 72
     1
  1
\A1;\U+22052.5
 11
0.0
 21
1.0
 31
0.0
  0
POINT
  5
1E249
100
AcDbEntity
  8
DEFPOINTS
  6
BYBLOCK
 62
     0
100
AcDbPoint
 10
25.912941
 20
37.810675
 30
0.0
  0
POINT
  5
1E24A
100
AcDbEntity
  8
DEFPOINTS
  6
BYBLOCK
 62
     0
100
AcDbPoint
 10
25.912941
 20
40.310675
 30
0.0
  0
POINT
  5
1E24B
100
AcDbEntity
  8
DEFPOINTS
  6
BYBLOCK
 62
     0
100
AcDbPoint
 10
28.267595
 20
40.310675
 30
0.0
  0
ENDBLK
  5
1E24C
100
AcDbEntity
  8
0
100
AcDbBlockEnd
  0
BLOCK
  5
1D269
100
AcDbEntity
  8
0
100
AcDbBlockBegin
  2
*D7
 70
     1
 10
0.0
 20
0.0
 30
0.0
  3
*D7
  1

  0
LINE
  5
1D26A
100
AcDbEntity
  8
0
  6
BYBLOCK
 62
     0
100
AcDbLine
 10
23.355382
 20
31.136013
 30
0.0
 11
22.362656
 21
34.019097
 31
0.0
  0
LINE
  5
1D26B
100
AcDbEntity
  8
0
  6
BYBLOCK
 62
     0
100
AcDbLine
 10
20.079586
 20
30.402614
 30
0.0
 11
18.902123
 21
32.442041
 31
0.0
  0
ARC
  5
1D26C
100
AcDbEntity
  8
0
  6
BYBLOCK
 62
     0
100
AcDbCircle
 10
28.821566
 20
15.261061
 30
0.0
 40
19.688887
100
AcDbArc
 50
110.455068
 51
118.544932
  0
SOLID
  5
1D26D
100
AcDbEntity
  8
0
  6
BYBLOCK
 62
     0
100
AcDbTrace
 10
21.912708
 20
33.786938
 30
0.0
 11
21.968966
 21
33.630053
 31
0.0
 12
22.411492
 22
33.877269
 32
0.0
 13
22.411492
 23
33.877269
 33
0.0
  0
SOLID
  5
1D26E
100
AcDbEntity
  8
0
  6
BYBLOCK
 62
     0
100
AcDbTrace
 10
19.454022
 20
32.483927
 30
0.0
 11
19.372528
 21
32.629311
 31
0.0
 12
18.977123
 22
32.312137
 32
0.0
 13
18.977123
 23
32.312137
 33
0.0
  0
MTEXT
  5
1D26F
100
AcDbEntity
  8
0
  6
BYBLOCK
 62
     0
100
AcDbMText
 10
20.473562
 20
33.579085
 30
0.0
 40
0.5
 41
0.0
 71
     5
 72
     1
  1
\A1;11°{\H0.250000;\S+0.1°^ -0°;}
 11
0.909961
 21
0.414693
 31
0.0
  0
POINT
  5
1D270
100
AcDbEntity
  8
DEFPOINTS
  6
BYBLOCK
 62
     0
100
AcDbPoint
 10
21.234074
 20
33.429226
 30
0.0
  0
POINT
  5
1D271
100
AcDbEntity
  8
DEFPOINTS
  6
BYBLOCK
 62
     0
100
AcDbPoint
 10
20.154586
 20
30.27271
 30
0.0
  0
POINT
  5
1D272
100
AcDbEntity
  8
DEFPOINTS
  6
BYBLOCK
 62
     0
100
AcDbPoint
 10
23.404217
 20
30.994185
 30
0.0
  0
POINT
  5
1D273
100
AcDbEntity
  8
DEFPOINTS
  6
BYBLOCK
 62
     0
100
AcDbPoint
 10
24.067541
 20
29.067754
 30
0.0
  0
POINT
  5
1D274
100
AcDbEntity
  8
DEFPOINTS
  6
BYBLOCK
 62
     0
100
AcDbPoint
 10
22.154586
 20
26.808609
 30
0.0
  0
ENDBLK
  5
1D275
100
AcDbEntity
  8
0
100
AcDbBlockEnd
  0
BLOCK
  5
1D3AC
100
AcDbEntity
  8
0
100
AcDbBlockBegin
  2
*D8
 70
     1
 10
0.0
 20
0.0
 30
0.0
  3
*D8
  1

  0
LINE
  5
1D3AD
100
AcDbEntity
  8
0
  6
BYBLOCK
 62
     0
100
AcDbLine
 10
15.369112
 20
46.171203
 30
0.0
 11
16.876884
 21
48.782741
 31
0.0
  0
LINE
  5
1D3AE
100
AcDbEntity
  8
0
  6
BYBLOCK
 62
     0
100
AcDbLine
 10
16.682584
 20
42.096203
 30
0.0
 11
19.626515
 21
47.195241
 31
0.0
  0
LINE
  5
1D3AF
100
AcDbEntity
  8
0
  6
BYBLOCK
 62
     0
100
AcDbLine
 10
17.234897
 20
48.402838
 30
0.0
 11
19.118502
 21
47.315338
 31
0.0
  0
SOLID
  5
1D3B0
100
AcDbEntity
  8
0
  6
BYBLOCK
 62
     0
100
AcDbTrace
 10
17.276563
 20
48.475006
 30
0.0
 11
17.19323
 21
48.330669
 31
0.0
 12
16.801884
 22
48.652838
 32
0.0
 13
16.801884
 23
48.652838
 33
0.0
  0
SOLID
  5
1D3B1
100
AcDbEntity
  8
0
  6
BYBLOCK
 62
     0
100
AcDbTrace
 10
19.160169
 20
47.387506
 30
0.0
 11
19.076835
 21
47.243169
 31
0.0
 12
19.551515
 22
47.065338
 32
0.0
 13
19.551515
 23
47.065338
 33
0.0
  0
MTEXT
  5
1D3B2
100
AcDbEntity
  8
0
  6
BYBLOCK
 62
     0
100
AcDbMText
 10
18.376699
 20
48.205498
 30
0.0
 40
0.5
 41
0.0
 71
     5
 72
     1
  1
\A1;3.175{\H0.250000;±0.01}
 11
0.866025
 21
-0.5
 31
0.0
  0
POINT
  5
1D3B3
100
AcDbEntity
  8
DEFPOINTS
  6
BYBLOCK
 62
     0
100
AcDbPoint
 10
15.294112
 20
46.0413
 30
0.0
  0
POINT
  5
1D3B4
100
AcDbEntity
  8
DEFPOINTS
  6
BYBLOCK
 62
     0
100
AcDbPoint
 10
16.607584
 20
41.9663
 30
0.0
  0
POINT
  5
1D3B5
100
AcDbEntity
  8
DEFPOINTS
  6
BYBLOCK
 62
     0
100
AcDbPoint
 10
19.551515
 20
47.065338
 30
0.0
  0
ENDBLK
  5
1D3B6
100
AcDbEntity
  8
0
100
AcDbBlockEnd
  0
BLOCK
  5
1D3D8
100
AcDbEntity
  8
0
100
AcDbBlockBegin
  2
*D9
 70
     1
 10
0.0
 20
0.0
 30
0.0
  3
*D9
  1

  0
LINE
  5
1D3D9
100
AcDbEntity
  8
0
  6
BYBLOCK
 62
     0
100
AcDbLine
 10
15.369112
 20
46.171203
 30
0.0
 11
16.876884
 21
48.782741
 31
0.0
  0
LINE
  5
1D3DA
100
AcDbEntity
  8
0
  6
BYBLOCK
 62
     0
100
AcDbLine
 10
13.074144
 20
48.546203
 30
0.0
 11
14.127253
 21
50.370241
 31
0.0
  0
LINE
  5
1D3DB
100
AcDbEntity
  8
0
  6
BYBLOCK
 62
     0
100
AcDbLine
 10
16.368871
 20
48.902838
 30
0.0
 11
14.485266
 21
49.990338
 31
0.0
  0
SOLID
  5
1D3DC
100
AcDbEntity
  8
0
  6
BYBLOCK
 62
     0
100
AcDbTrace
 10
16.410538
 20
48.975006
 30
0.0
 11
16.327205
 21
48.830669
 31
0.0
 12
16.801884
 22
48.652838
 32
0.0
 13
16.801884
 23
48.652838
 33
0.0
  0
SOLID
  5
1D3DD
100
AcDbEntity
  8
0
  6
BYBLOCK
 62
     0
100
AcDbTrace
 10
14.526933
 20
50.062506
 30
0.0
 11
14.443599
 21
49.918169
 31
0.0
 12
14.052253
 22
50.240338
 32
0.0
 13
14.052253
 23
50.240338
 33
0.0
  0
MTEXT
  5
1D3DE
100
AcDbEntity
  8
0
  6
BYBLOCK
 62
     0
100
AcDbMText
 10
15.627069
 20
49.792998
 30
0.0
 40
0.5
 41
0.0
 71
     5
 72
     1
  1
\A1;3.175{\H0.250000;±0.01}
 11
0.866025
 21
-0.5
 31
0.0
  0
POINT
  5
1D3DF
100
AcDbEntity
  8
DEFPOINTS
  6
BYBLOCK
 62
     0
100
AcDbPoint
 10
15.294112
 20
46.0413
 30
0.0
  0
POINT
  5
1D3E0
100
AcDbEntity
  8
DEFPOINTS
  6
BYBLOCK
 62
     0
100
AcDbPoint
 10
12.999144
 20
48.4163
 30
0.0
  0
POINT
  5
1D3E1
100
AcDbEntity
  8
DEFPOINTS
  6
BYBLOCK
 62
     0
100
AcDbPoint
 10
14.052253
 20
50.240338
 30
0.0
  0
ENDBLK
  5
1D3E2
100
AcDbEntity
  8
0
100
AcDbBlockEnd
  0
BLOCK
  5
1E26F
100
AcDbEntity
  8
0
100
AcDbBlockBegin
  2
*D10
 70
     1
 10
0.0
 20
0.0
 30
0.0
  3
*D10
  1

  0
LINE
  5
1E270
100
AcDbEntity
  8
0
  6
BYBLOCK
 62
     0
100
AcDbLine
 10
10.097711
 20
45.240579
 30
0.0
 11
10.761723
 21
46.390681
 31
0.0
  0
LINE
  5
1E271
100
AcDbEntity
  8
0
  6
BYBLOCK
 62
     0
100
AcDbLine
 10
13.70615
 20
38.790579
 30
0.0
 11
16.260984
 21
43.215681
 31
0.0
  0
LINE
  5
1E272
100
AcDbEntity
  8
0
  6
BYBLOCK
 62
     0
100
AcDbLine
 10
11.119736
 20
46.010778
 30
0.0
 11
15.752971
 21
43.335778
 31
0.0
  0
SOLID
  5
1E273
100
AcDbEntity
  8
0
  6
BYBLOCK
 62
     0
100
AcDbTrace
 10
11.161402
 20
46.082946
 30
0.0
 11
11.078069
 21
45.938609
 31
0.0
 12
10.686723
 22
46.260778
 32
0.0
 13
10.686723
 23
46.260778
 33
0.0
  0
SOLID
  5
1E274
100
AcDbEntity
  8
0
  6
BYBLOCK
 62
     0
100
AcDbTrace
 10
15.794638
 20
43.407946
 30
0.0
 11
15.711305
 21
43.263609
 31
0.0
 12
16.185984
 22
43.085778
 32
0.0
 13
16.185984
 23
43.085778
 33
0.0
  0
MTEXT
  5
1E275
100
AcDbEntity
  8
0
  6
BYBLOCK
 62
     0
100
AcDbMText
 10
13.636354
 20
45.019688
 30
0.0
 40
0.5
 41
0.0
 71
     5
 72
     1
  1
\A1;6.35
 11
0.866025
 21
-0.5
 31
0.0
  0
POINT
  5
1E276
100
AcDbEntity
  8
DEFPOINTS
  6
BYBLOCK
 62
     0
100
AcDbPoint
 10
10.022711
 20
45.110675
 30
0.0
  0
POINT
  5
1E277
100
AcDbEntity
  8
DEFPOINTS
  6
BYBLOCK
 62
     0
100
AcDbPoint
 10
13.63115
 20
38.660675
 30
0.0
  0
POINT
  5
1E278
100
AcDbEntity
  8
DEFPOINTS
  6
BYBLOCK
 62
     0
100
AcDbPoint
 10
16.185984
 20
43.085778
 30
0.0
  0
ENDBLK
  5
1E279
100
AcDbEntity
  8
0
100
AcDbBlockEnd
  0
BLOCK
  5
1D3CD
100
AcDbEntity
  8
0
100
AcDbBlockBegin
  2
*D11
 70
     1
 10
0.0
 20
0.0
 30
0.0
  3
*D11
  1

  0
LINE
  5
1D3CE
100
AcDbEntity
  8
0
  6
BYBLOCK
 62
     0
100
AcDbLine
 10
10.975587
 20
46.171203
 30
0.0
 11
9.467815
 21
48.782741
 31
0.0
  0
LINE
  5
1D3CF
100
AcDbEntity
  8
0
  6
BYBLOCK
 62
     0
100
AcDbLine
 10
13.270555
 20
48.546203
 30
0.0
 11
12.217446
 21
50.370241
 31
0.0
  0
LINE
  5
1D3D0
100
AcDbEntity
  8
0
  6
BYBLOCK
 62
     0
100
AcDbLine
 10
9.975828
 20
48.902838
 30
0.0
 11
11.859433
 21
49.990338
 31
0.0
  0
SOLID
  5
1D3D1
100
AcDbEntity
  8
0
  6
BYBLOCK
 62
     0
100
AcDbTrace
 10
9.934161
 20
48.975006
 30
0.0
 11
10.017494
 21
48.830669
 31
0.0
 12
9.542815
 22
48.652838
 32
0.0
 13
9.542815
 23
48.652838
 33
0.0
  0
SOLID
  5
1D3D2
100
AcDbEntity
  8
0
  6
BYBLOCK
 62
     0
100
AcDbTrace
 10
11.817766
 20
50.062506
 30
0.0
 11
11.9011
 21
49.918169
 31
0.0
 12
12.292446
 22
50.240338
 32
0.0
 13
12.292446
 23
50.240338
 33
0.0
  0
MTEXT
  5
1D3D3
100
AcDbEntity
  8
0
  6
BYBLOCK
 62
     0
100
AcDbMText
 10
10.71763
 20
49.792998
 30
0.0
 40
0.5
 41
0.0
 71
     5
 72
     1
  1
\A1;3.175{\H0.250000;±0.01}
 11
0.866025
 21
0.5
 31
0.0
  0
POINT
  5
1D3D4
100
AcDbEntity
  8
DEFPOINTS
  6
BYBLOCK
 62
     0
100
AcDbPoint
 10
11.050587
 20
46.0413
 30
0.0
  0
POINT
  5
1D3D5
100
AcDbEntity
  8
DEFPOINTS
  6
BYBLOCK
 62
     0
100
AcDbPoint
 10
13.345555
 20
48.4163
 30
0.0
  0
POINT
  5
1D3D6
100
AcDbEntity
  8
DEFPOINTS
  6
BYBLOCK
 62
     0
100
AcDbPoint
 10
12.292446
 20
50.240338
 30
0.0
  0
ENDBLK
  5
1D3D7
100
AcDbEntity
  8
0
100
AcDbBlockEnd
  0
BLOCK
  5
1D3C2
100
AcDbEntity
  8
0
100
AcDbBlockBegin
  2
*D12
 70
     1
 10
0.0
 20
0.0
 30
0.0
  3
*D12
  1

  0
LINE
  5
1D3C3
100
AcDbEntity
  8
0
  6
BYBLOCK
 62
     0
100
AcDbLine
 10
10.975587
 20
46.171203
 30
0.0
 11
9.467815
 21
48.782741
 31
0.0
  0
LINE
  5
1D3C4
100
AcDbEntity
  8
0
  6
BYBLOCK
 62
     0
100
AcDbLine
 10
9.662115
 20
42.096203
 30
0.0
 11
6.718184
 21
47.195241
 31
0.0
  0
LINE
  5
1D3C5
100
AcDbEntity
  8
0
  6
BYBLOCK
 62
     0
100
AcDbLine
 10
9.109802
 20
48.402838
 30
0.0
 11
7.226197
 21
47.315338
 31
0.0
  0
SOLID
  5
1D3C6
100
AcDbEntity
  8
0
  6
BYBLOCK
 62
     0
100
AcDbTrace
 10
9.068136
 20
48.475006
 30
0.0
 11
9.151469
 21
48.330669
 31
0.0
 12
9.542815
 22
48.652838
 32
0.0
 13
9.542815
 23
48.652838
 33
0.0
  0
SOLID
  5
1D3C7
100
AcDbEntity
  8
0
  6
BYBLOCK
 62
     0
100
AcDbTrace
 10
7.18453
 20
47.387506
 30
0.0
 11
7.267864
 21
47.243169
 31
0.0
 12
6.793184
 22
47.065338
 32
0.0
 13
6.793184
 23
47.065338
 33
0.0
  0
MTEXT
  5
1D3C8
100
AcDbEntity
  8
0
  6
BYBLOCK
 62
     0
100
AcDbMText
 10
7.968
 20
48.205498
 30
0.0
 40
0.5
 41
0.0
 71
     5
 72
     1
  1
\A1;3.175{\H0.250000;±0.01}
 11
0.866025
 21
0.5
 31
0.0
  0
POINT
  5
1D3C9
100
AcDbEntity
  8
DEFPOINTS
  6
BYBLOCK
 62
     0
100
AcDbPoint
 10
11.050587
 20
46.0413
 30
0.0
  0
POINT
  5
1D3CA
100
AcDbEntity
  8
DEFPOINTS
  6
BYBLOCK
 62
     0
100
AcDbPoint
 10
9.737115
 20
41.9663
 30
0.0
  0
POINT
  5
1D3CB
100
AcDbEntity
  8
DEFPOINTS
  6
BYBLOCK
 62
     0
100
AcDbPoint
 10
6.793184
 20
47.065338
 30
0.0
  0
ENDBLK
  5
1D3CC
100
AcDbEntity
  8
0
100
AcDbBlockEnd
  0
BLOCK
  5
1E27A
100
AcDbEntity
  8
0
100
AcDbBlockBegin
  2
*D13
 70
     1
 10
0.0
 20
0.0
 30
0.0
  3
*D13
  1

  0
LINE
  5
1E27B
100
AcDbEntity
  8
0
  6
BYBLOCK
 62
     0
100
AcDbLine
 10
10.294121
 20
45.240579
 30
0.0
 11
9.529485
 21
46.564967
 31
0.0
  0
LINE
  5
1E27C
100
AcDbEntity
  8
0
  6
BYBLOCK
 62
     0
100
AcDbLine
 10
6.685682
 20
38.790579
 30
0.0
 11
4.030224
 21
43.389967
 31
0.0
  0
LINE
  5
1E27D
100
AcDbEntity
  8
0
  6
BYBLOCK
 62
     0
100
AcDbLine
 10
9.171472
 20
46.185063
 30
0.0
 11
4.538236
 21
43.510063
 31
0.0
  0
SOLID
  5
1E27E
100
AcDbEntity
  8
0
  6
BYBLOCK
 62
     0
100
AcDbTrace
 10
9.129806
 20
46.257232
 30
0.0
 11
9.213139
 21
46.112894
 31
0.0
 12
9.604485
 22
46.435063
 32
0.0
 13
9.604485
 23
46.435063
 33
0.0
  0
SOLID
  5
1E27F
100
AcDbEntity
  8
0
  6
BYBLOCK
 62
     0
100
AcDbTrace
 10
4.49657
 20
43.582232
 30
0.0
 11
4.579903
 21
43.437894
 31
0.0
 12
4.105224
 22
43.260063
 32
0.0
 13
4.105224
 23
43.260063
 33
0.0
  0
MTEXT
  5
1E280
100
AcDbEntity
  8
0
  6
BYBLOCK
 62
     0
100
AcDbMText
 10
6.654854
 20
45.193973
 30
0.0
 40
0.5
 41
0.0
 71
     5
 72
     1
  1
\A1;6.35
 11
0.866025
 21
0.5
 31
0.0
  0
POINT
  5
1E281
100
AcDbEntity
  8
DEFPOINTS
  6
BYBLOCK
 62
     0
100
AcDbPoint
 10
10.369121
 20
45.110675
 30
0.0
  0
POINT
  5
1E282
100
AcDbEntity
  8
DEFPOINTS
  6
BYBLOCK
 62
     0
100
AcDbPoint
 10
6.760682
 20
38.660675
 30
0.0
  0
POINT
  5
1E283
100
AcDbEntity
  8
DEFPOINTS
  6
BYBLOCK
 62
     0
100
AcDbPoint
 10
4.105224
 20
43.260063
 30
0.0
  0
ENDBLK
  5
1E284
100
AcDbEntity
  8
0
100
AcDbBlockEnd
  0
BLOCK
  5
1E292
100
AcDbEntity
  8
0
100
AcDbBlockBegin
  2
*D14
 70
     1
 10
0.0
 20
0.0
 30
0.0
  3
*D14
  1

  0
LINE
  5
1E293
100
AcDbEntity
  8
0
  6
BYBLOCK
 62
     0
100
AcDbLine
 10
13.70615
 20
38.790579
 30
0.0
 11
17.580266
 21
45.500744
 31
0.0
  0
LINE
  5
1E294
100
AcDbEntity
  8
0
  6
BYBLOCK
 62
     0
100
AcDbLine
 10
6.685682
 20
38.790579
 30
0.0
 11
2.811566
 21
45.500744
 31
0.0
  0
ARC
  5
1E295
100
AcDbEntity
  8
0
  6
BYBLOCK
 62
     0
100
AcDbCircle
 10
10.195916
 20
32.710675
 30
0.0
 40
14.6187
100
AcDbArc
 50
61.95977
 51
118.04023
  0
SOLID
  5
1E296
100
AcDbEntity
  8
0
  6
BYBLOCK
 62
     0
100
AcDbTrace
 10
17.108467
 20
45.686269
 30
0.0
 11
17.027615
 21
45.540528
 31
0.0
 12
17.505266
 22
45.37084
 32
0.0
 13
17.505266
 23
45.37084
 33
0.0
  0
SOLID
  5
1E297
100
AcDbEntity
  8
0
  6
BYBLOCK
 62
     0
100
AcDbTrace
 10
3.364217
 20
45.540528
 30
0.0
 11
3.283364
 21
45.686269
 31
0.0
 12
2.886566
 22
45.37084
 32
0.0
 13
2.886566
 23
45.37084
 33
0.0
  0
MTEXT
  5
1E298
100
AcDbEntity
  8
0
  6
BYBLOCK
 62
     0
100
AcDbMText
 10
10.195916
 20
47.729375
 30
0.0
 40
0.5
 41
0.0
 71
     5
 72
     1
  1
\A1;60°
  0
POINT
  5
1E299
100
AcDbEntity
  8
DEFPOINTS
  6
BYBLOCK
 62
     0
100
AcDbPoint
 10
7.657405
 20
47.107284
 30
0.0
  0
POINT
  5
1E29A
100
AcDbEntity
  8
DEFPOINTS
  6
BYBLOCK
 62
     0
100
AcDbPoint
 10
6.760682
 20
38.660675
 30
0.0
  0
POINT
  5
1E29B
100
AcDbEntity
  8
DEFPOINTS
  6
BYBLOCK
 62
     0
100
AcDbPoint
 10
10.369121
 20
33.010675
 30
0.0
  0
POINT
  5
1E29C
100
AcDbEntity
  8
DEFPOINTS
  6
BYBLOCK
 62
     0
100
AcDbPoint
 10
13.63115
 20
38.660675
 30
0.0
  0
POINT
  5
1E29D
100
AcDbEntity
  8
DEFPOINTS
  6
BYBLOCK
 62
     0
100
AcDbPoint
 10
10.022711
 20
33.010675
 30
0.0
  0
ENDBLK
  5
1E29E
100
AcDbEntity
  8
0
100
AcDbBlockEnd
  0
BLOCK
  5
1D42C
100
AcDbEntity
  8
0
100
AcDbBlockBegin
  2
*D15
 70
     1
 10
0.0
 20
0.0
 30
0.0
  3
*D15
  1

  0
ARC
  5
1D42D
100
AcDbEntity
  8
0
  6
BYBLOCK
 62
     0
100
AcDbCircle
 10
13.172349
 20
36.0163
 30
0.0
 40
2.52437
100
AcDbArc
 50
48.632838
 51
60.0
  0
LINE
  5
1D42E
100
AcDbEntity
  8
0
  6
BYBLOCK
 62
     0
100
AcDbLine
 10
14.84066
 20
37.910814
 30
0.0
 11
16.598057
 21
36.363249
 31
0.0
  0
ARC
  5
1D42F
100
AcDbEntity
  8
0
  6
BYBLOCK
 62
     0
100
AcDbCircle
 10
13.172349
 20
36.0163
 30
0.0
 40
2.52437
100
AcDbArc
 50
71.367162
 51
78.632838
  0
SOLID
  5
1D430
100
AcDbEntity
  8
0
  6
BYBLOCK
 62
     0
100
AcDbTrace
 10
14.013207
 20
38.484297
 30
0.0
 11
13.944577
 21
38.332416
 31
0.0
 12
14.434535
 22
38.202468
 32
0.0
 13
14.434535
 23
38.202468
 33
0.0
  0
SOLID
  5
1D431
100
AcDbEntity
  8
0
  6
BYBLOCK
 62
     0
100
AcDbTrace
 10
13.661639
 20
38.408229
 30
0.0
 11
13.678144
 21
38.574076
 31
0.0
 12
13.172349
 22
38.54067
 32
0.0
 13
13.172349
 23
38.54067
 33
0.0
  0
MTEXT
  5
1D432
100
AcDbEntity
  8
0
  6
BYBLOCK
 62
     0
100
AcDbMText
 10
15.983711
 20
37.437228
 30
0.0
 40
0.5
 41
0.0
 71
     5
 72
     1
  1
\A1;30°{\H0.250000;±0.1°}
 11
0.75049
 21
-0.660882
 31
0.0
  0
POINT
  5
1D433
100
AcDbEntity
  8
DEFPOINTS
  6
BYBLOCK
 62
     0
100
AcDbPoint
 10
13.610702
 20
38.502319
 30
0.0
  0
POINT
  5
1D434
100
AcDbEntity
  8
DEFPOINTS
  6
BYBLOCK
 62
     0
100
AcDbPoint
 10
13.172349
 20
49.0163
 30
0.0
  0
POINT
  5
1D435
100
AcDbEntity
  8
DEFPOINTS
  6
BYBLOCK
 62
     0
100
AcDbPoint
 10
15.500858
 20
40.049395
 30
0.0
  0
POINT
  5
1D436
100
AcDbEntity
  8
DEFPOINTS
  6
BYBLOCK
 62
     0
100
AcDbPoint
 10
13.365762
 20
36.3513
 30
0.0
  0
POINT
  5
1D437
100
AcDbEntity
  8
DEFPOINTS
  6
BYBLOCK
 62
     0
100
AcDbPoint
 10
13.172349
 20
35.7163
 30
0.0
  0
ENDBLK
  5
1D438
100
AcDbEntity
  8
0
100
AcDbBlockEnd
  0
BLOCK
  5
1D449
100
AcDbEntity
  8
0
100
AcDbBlockBegin
  2
*D16
 70
     1
 10
0.0
 20
0.0
 30
0.0
  3
*D16
  1

  0
LINE
  5
1D44A
100
AcDbEntity
  8
0
  6
BYBLOCK
 62
     0
100
AcDbLine
 10
17.364763
 20
42.3663
 30
0.0
 11
18.864763
 21
42.3663
 31
0.0
  0
LINE
  5
1D44B
100
AcDbEntity
  8
0
  6
BYBLOCK
 62
     0
100
AcDbLine
 10
13.322349
 20
36.2163
 30
0.0
 11
18.864763
 21
36.2163
 31
0.0
  0
LINE
  5
1D44C
100
AcDbEntity
  8
0
  6
BYBLOCK
 62
     0
100
AcDbLine
 10
18.714763
 20
41.8663
 30
0.0
 11
18.714763
 21
36.7163
 31
0.0
  0
SOLID
  5
1D44D
100
AcDbEntity
  8
0
  6
BYBLOCK
 62
     0
100
AcDbTrace
 10
18.63143
 20
41.8663
 30
0.0
 11
18.798097
 21
41.8663
 31
0.0
 12
18.714763
 22
42.3663
 32
0.0
 13
18.714763
 23
42.3663
 33
0.0
  0
SOLID
  5
1D44E
100
AcDbEntity
  8
0
  6
BYBLOCK
 62
     0
100
AcDbTrace
 10
18.63143
 20
36.7163
 30
0.0
 11
18.798097
 21
36.7163
 31
0.0
 12
18.714763
 22
36.2163
 32
0.0
 13
18.714763
 23
36.2163
 33
0.0
  0
MTEXT
  5
1D44F
100
AcDbEntity
  8
0
  6
BYBLOCK
 62
     0
100
AcDbMText
 10
18.314763
 20
39.2913
 30
0.0
 40
0.5
 41
0.0
 71
     5
 72
     1
  1
\A1;6.15
 11
0.0
 21
1.0
 31
0.0
  0
POINT
  5
1D450
100
AcDbEntity
  8
DEFPOINTS
  6
BYBLOCK
 62
     0
100
AcDbPoint
 10
17.214763
 20
42.3663
 30
0.0
  0
POINT
  5
1D451
100
AcDbEntity
  8
DEFPOINTS
  6
BYBLOCK
 62
     0
100
AcDbPoint
 10
13.172349
 20
36.2163
 30
0.0
  0
POINT
  5
1D452
100
AcDbEntity
  8
DEFPOINTS
  6
BYBLOCK
 62
     0
100
AcDbPoint
 10
18.714763
 20
36.2163
 30
0.0
  0
ENDBLK
  5
1D453
100
AcDbEntity
  8
0
100
AcDbBlockEnd
  0
BLOCK
  5
1D456
100
AcDbEntity
  8
0
100
AcDbBlockBegin
  2
*D17
 70
     1
 10
0.0
 20
0.0
 30
0.0
  3
*D17
  1

  0
LINE
  5
1D457
100
AcDbEntity
  8
0
  6
BYBLOCK
 62
     0
100
AcDbLine
 10
12.423515
 20
33.5974
 30
0.0
 11
13.121001
 21
36.223004
 31
0.0
  0
MTEXT
  5
1D458
100
AcDbEntity
  8
0
  6
BYBLOCK
 62
     0
100
AcDbMText
 10
12.257295
 20
34.529659
 30
0.0
 40
0.5
 41
0.0
 71
     5
 72
     1
  1
\A1;R0.2
 11
0.256743
 21
0.96648
 31
0.0
  0
LINE
  5
1D459
100
AcDbEntity
  8
0
  6
BYBLOCK
 62
     0
100
AcDbLine
 10
13.172349
 20
36.4163
 30
0.0
 11
13.121001
 21
36.223004
 31
0.0
  0
SOLID
  5
1D45A
100
AcDbEntity
  8
0
  6
BYBLOCK
 62
     0
100
AcDbTrace
 10
12.912089
 20
35.761159
 30
0.0
 11
13.073169
 21
35.718369
 31
0.0
 12
13.121001
 22
36.223004
 32
0.0
 13
13.121001
 23
36.223004
 33
0.0
  0
POINT
  5
1D45B
100
AcDbEntity
  8
DEFPOINTS
  6
BYBLOCK
 62
     0
100
AcDbPoint
 10
13.121001
 20
36.223004
 30
0.0
  0
POINT
  5
1D45C
100
AcDbEntity
  8
DEFPOINTS
  6
BYBLOCK
 62
     0
100
AcDbPoint
 10
13.172349
 20
36.4163
 30
0.0
  0
ENDBLK
  5
1D45D
100
AcDbEntity
  8
0
100
AcDbBlockEnd
  0
BLOCK
  5
1D4E1
100
AcDbEntity
  8
0
100
AcDbBlockBegin
  2
*D18
 70
     1
 10
0.0
 20
0.0
 30
0.0
  3
*D18
  1

  0
LINE
  5
1D4E2
100
AcDbEntity
  8
0
  6
BYBLOCK
 62
     0
100
AcDbLine
 10
26.404121
 20
36.034001
 30
0.0
 11
27.225236
 21
37.123658
 31
0.0
  0
ARC
  5
1D4E3
100
AcDbEntity
  8
0
  6
BYBLOCK
 62
     0
100
AcDbCircle
 10
26.012941
 20
35.514888
 30
0.0
 40
1.864398
100
AcDbArc
 50
37.587816
 51
53.0
  0
LINE
  5
1D4E4
100
AcDbEntity
  8
0
  6
BYBLOCK
 62
     0
100
AcDbLine
 10
27.490326
 20
36.652127
 30
0.0
 11
29.020351
 21
34.664475
 31
0.0
  0
ARC
  5
1D4E5
100
AcDbEntity
  8
0
  6
BYBLOCK
 62
     0
100
AcDbCircle
 10
26.012941
 20
35.514888
 30
0.0
 40
1.864398
100
AcDbArc
 50
68.412184
 51
74.587816
  0
SOLID
  5
1D4E6
100
AcDbEntity
  8
0
  6
BYBLOCK
 62
     0
100
AcDbTrace
 10
26.739677
 20
37.321184
 30
0.0
 11
26.658129
 21
37.175831
 31
0.0
 12
27.134963
 22
37.003862
 32
0.0
 13
27.134963
 23
37.003862
 33
0.0
  0
SOLID
  5
1D4E7
100
AcDbEntity
  8
0
  6
BYBLOCK
 62
     0
100
AcDbTrace
 10
26.497251
 20
37.229659
 30
0.0
 11
26.5196
 21
37.394821
 31
0.0
 12
26.012941
 22
37.379286
 32
0.0
 13
26.012941
 23
37.379286
 33
0.0
  0
MTEXT
  5
1D4E8
100
AcDbEntity
  8
0
  6
BYBLOCK
 62
     0
100
AcDbMText
 10
28.572306
 20
35.902292
 30
0.0
 40
0.5
 41
0.0
 71
     5
 72
     1
  1
\A1;37°{\H0.250000;±0.5°}
 11
0.609977
 21
-0.792419
 31
0.0
  0
POINT
  5
1D4E9
100
AcDbEntity
  8
DEFPOINTS
  6
BYBLOCK
 62
     0
100
AcDbPoint
 10
26.411174
 20
37.336258
 30
0.0
  0
POINT
  5
1D4EA
100
AcDbEntity
  8
DEFPOINTS
  6
BYBLOCK
 62
     0
100
AcDbPoint
 10
23.760071
 20
32.525228
 30
0.0
  0
POINT
  5
1D4EB
100
AcDbEntity
  8
DEFPOINTS
  6
BYBLOCK
 62
     0
100
AcDbPoint
 10
26.012941
 20
35.514888
 30
0.0
  0
POINT
  5
1D4EC
100
AcDbEntity
  8
DEFPOINTS
  6
BYBLOCK
 62
     0
100
AcDbPoint
 10
26.012941
 20
42.606462
 30
0.0
  0
POINT
  5
1D4ED
100
AcDbEntity
  8
DEFPOINTS
  6
BYBLOCK
 62
     0
100
AcDbPoint
 10
26.313848
 20
35.914206
 30
0.0
  0
ENDBLK
  5
1D4EE
100
AcDbEntity
  8
0
100
AcDbBlockEnd
  0
BLOCK
  5
1DBBE
100
AcDbEntity
  8
0
100
AcDbBlockBegin
  2
*D19
 70
     1
 10
0.0
 20
0.0
 30
0.0
  3
*D19
  1

  0
LINE
  5
1DBBF
100
AcDbEntity
  8
0
  6
BYBLOCK
 62
     0
100
AcDbLine
 10
22.378948
 20
24.366286
 30
0.0
 11
21.386223
 21
27.249371
 31
0.0
  0
LINE
  5
1DBC0
100
AcDbEntity
  8
0
  6
BYBLOCK
 62
     0
100
AcDbLine
 10
19.103153
 20
23.632888
 30
0.0
 11
17.925689
 21
25.672315
 31
0.0
  0
ARC
  5
1DBC1
100
AcDbEntity
  8
0
  6
BYBLOCK
 62
     0
100
AcDbCircle
 10
27.845132
 20
8.491335
 30
0.0
 40
19.688887
100
AcDbArc
 50
110.455068
 51
118.544932
  0
SOLID
  5
1DBC2
100
AcDbEntity
  8
0
  6
BYBLOCK
 62
     0
100
AcDbTrace
 10
20.936275
 20
27.017212
 30
0.0
 11
20.992533
 21
26.860327
 31
0.0
 12
21.435058
 22
27.107543
 32
0.0
 13
21.435058
 23
27.107543
 33
0.0
  0
SOLID
  5
1DBC3
100
AcDbEntity
  8
0
  6
BYBLOCK
 62
     0
100
AcDbTrace
 10
18.477588
 20
25.714201
 30
0.0
 11
18.396094
 21
25.859585
 31
0.0
 12
18.000689
 22
25.542411
 32
0.0
 13
18.000689
 23
25.542411
 33
0.0
  0
MTEXT
  5
1DBC4
100
AcDbEntity
  8
0
  6
BYBLOCK
 62
     0
100
AcDbMText
 10
19.497128
 20
26.809359
 30
0.0
 40
0.5
 41
0.0
 71
     5
 72
     1
  1
\A1;11°{\H0.250000;\S+0.1°^ -0°;}
 11
0.909961
 21
0.414693
 31
0.0
  0
POINT
  5
1DBC5
100
AcDbEntity
  8
DEFPOINTS
  6
BYBLOCK
 62
     0
100
AcDbPoint
 10
20.257641
 20
26.6595
 30
0.0
  0
POINT
  5
1DBC6
100
AcDbEntity
  8
DEFPOINTS
  6
BYBLOCK
 62
     0
100
AcDbPoint
 10
19.178153
 20
23.502984
 30
0.0
  0
POINT
  5
1DBC7
100
AcDbEntity
  8
DEFPOINTS
  6
BYBLOCK
 62
     0
100
AcDbPoint
 10
22.427784
 20
24.224459
 30
0.0
  0
POINT
  5
1DBC8
100
AcDbEntity
  8
DEFPOINTS
  6
BYBLOCK
 62
     0
100
AcDbPoint
 10
23.091107
 20
22.298027
 30
0.0
  0
POINT
  5
1DBC9
100
AcDbEntity
  8
DEFPOINTS
  6
BYBLOCK
 62
     0
100
AcDbPoint
 10
21.178153
 20
20.038882
 30
0.0
  0
ENDBLK
  5
1DBCA
100
AcDbEntity
  8
0
100
AcDbBlockEnd
  0
BLOCK
  5
1DBE4
100
AcDbEntity
  8
0
100
AcDbBlockBegin
  2
*D20
 70
     1
 10
0.0
 20
0.0
 30
0.0
  3
*D20
  1

  0
LINE
  5
1DBE5
100
AcDbEntity
  8
0
  6
BYBLOCK
 62
     0
100
AcDbLine
 10
10.097711
 20
45.240579
 30
0.0
 11
11.90082
 21
48.363655
 31
0.0
  0
LINE
  5
1DBE6
100
AcDbEntity
  8
0
  6
BYBLOCK
 62
     0
100
AcDbLine
 10
13.70615
 20
38.790579
 30
0.0
 11
17.400081
 21
45.188655
 31
0.0
  0
LINE
  5
1DBE7
100
AcDbEntity
  8
0
  6
BYBLOCK
 62
     0
100
AcDbLine
 10
12.258832
 20
47.983751
 30
0.0
 11
16.892068
 21
45.308751
 31
0.0
  0
SOLID
  5
1DBE8
100
AcDbEntity
  8
0
  6
BYBLOCK
 62
     0
100
AcDbTrace
 10
12.300499
 20
48.05592
 30
0.0
 11
12.217166
 21
47.911582
 31
0.0
 12
11.82582
 22
48.233751
 32
0.0
 13
11.82582
 23
48.233751
 33
0.0
  0
SOLID
  5
1DBE9
100
AcDbEntity
  8
0
  6
BYBLOCK
 62
     0
100
AcDbTrace
 10
16.933735
 20
45.38092
 30
0.0
 11
16.850402
 21
45.236582
 31
0.0
 12
17.325081
 22
45.058751
 32
0.0
 13
17.325081
 23
45.058751
 33
0.0
  0
MTEXT
  5
1DBEA
100
AcDbEntity
  8
0
  6
BYBLOCK
 62
     0
100
AcDbMText
 10
14.77545
 20
46.992661
 30
0.0
 40
0.5
 41
0.0
 71
     5
 72
     1
  1
\A1;6.35{\H0.250000;±0.02}
 11
0.866025
 21
-0.5
 31
0.0
  0
POINT
  5
1DBEB
100
AcDbEntity
  8
DEFPOINTS
  6
BYBLOCK
 62
     0
100
AcDbPoint
 10
10.022711
 20
45.110675
 30
0.0
  0
POINT
  5
1DBEC
100
AcDbEntity
  8
DEFPOINTS
  6
BYBLOCK
 62
     0
100
AcDbPoint
 10
13.63115
 20
38.660675
 30
0.0
  0
POINT
  5
1DBED
100
AcDbEntity
  8
DEFPOINTS
  6
BYBLOCK
 62
     0
100
AcDbPoint
 10
17.325081
 20
45.058751
 30
0.0
  0
ENDBLK
  5
1DBEE
100
AcDbEntity
  8
0
100
AcDbBlockEnd
  0
BLOCK
  5
1DC08
100
AcDbEntity
  8
0
100
AcDbBlockBegin
  2
*D21
 70
     1
 10
0.0
 20
0.0
 30
0.0
  3
*D21
  1

  0
LINE
  5
1DC09
100
AcDbEntity
  8
0
  6
BYBLOCK
 62
     0
100
AcDbLine
 10
10.294121
 20
45.240579
 30
0.0
 11
8.491012
 21
48.363655
 31
0.0
  0
LINE
  5
1DC0A
100
AcDbEntity
  8
0
  6
BYBLOCK
 62
     0
100
AcDbLine
 10
6.685682
 20
38.790579
 30
0.0
 11
2.991751
 21
45.188655
 31
0.0
  0
LINE
  5
1DC0B
100
AcDbEntity
  8
0
  6
BYBLOCK
 62
     0
100
AcDbLine
 10
8.132999
 20
47.983751
 30
0.0
 11
3.499763
 21
45.308751
 31
0.0
  0
SOLID
  5
1DC0C
100
AcDbEntity
  8
0
  6
BYBLOCK
 62
     0
100
AcDbTrace
 10
8.091333
 20
48.05592
 30
0.0
 11
8.174666
 21
47.911582
 31
0.0
 12
8.566012
 22
48.233751
 32
0.0
 13
8.566012
 23
48.233751
 33
0.0
  0
SOLID
  5
1DC0D
100
AcDbEntity
  8
0
  6
BYBLOCK
 62
     0
100
AcDbTrace
 10
3.458097
 20
45.38092
 30
0.0
 11
3.54143
 21
45.236582
 31
0.0
 12
3.066751
 22
45.058751
 32
0.0
 13
3.066751
 23
45.058751
 33
0.0
  0
MTEXT
  5
1DC0E
100
AcDbEntity
  8
0
  6
BYBLOCK
 62
     0
100
AcDbMText
 10
5.616381
 20
46.992661
 30
0.0
 40
0.5
 41
0.0
 71
     5
 72
     1
  1
\A1;6.35{\H0.250000;±0.02}
 11
0.866025
 21
0.5
 31
0.0
  0
POINT
  5
1DC0F
100
AcDbEntity
  8
DEFPOINTS
  6
BYBLOCK
 62
     0
100
AcDbPoint
 10
10.369121
 20
45.110675
 30
0.0
  0
POINT
  5
1DC10
100
AcDbEntity
  8
DEFPOINTS
  6
BYBLOCK
 62
     0
100
AcDbPoint
 10
6.760682
 20
38.660675
 30
0.0
  0
POINT
  5
1DC11
100
AcDbEntity
  8
DEFPOINTS
  6
BYBLOCK
 62
     0
100
AcDbPoint
 10
3.066751
 20
45.058751
 30
0.0
  0
ENDBLK
  5
1DC12
100
AcDbEntity
  8
0
100
AcDbBlockEnd
  0
BLOCK
  5
1DC14
100
AcDbEntity
  8
0
100
AcDbBlockBegin
  2
*D22
 70
     1
 10
0.0
 20
0.0
 30
0.0
  3
*D22
  1

  0
LINE
  5
1DC15
100
AcDbEntity
  8
0
  6
BYBLOCK
 62
     0
100
AcDbLine
 10
13.70615
 20
38.790579
 30
0.0
 11
18.843813
 21
47.689272
 31
0.0
  0
LINE
  5
1DC16
100
AcDbEntity
  8
0
  6
BYBLOCK
 62
     0
100
AcDbLine
 10
6.685682
 20
38.790579
 30
0.0
 11
1.548019
 21
47.689272
 31
0.0
  0
ARC
  5
1DC17
100
AcDbEntity
  8
0
  6
BYBLOCK
 62
     0
100
AcDbCircle
 10
10.195916
 20
32.710675
 30
0.0
 40
17.145795
100
AcDbArc
 50
61.6709
 51
118.3291
  0
SOLID
  5
1DC18
100
AcDbEntity
  8
0
  6
BYBLOCK
 62
     0
100
AcDbTrace
 10
18.372811
 20
47.875797
 30
0.0
 11
18.291591
 21
47.73026
 31
0.0
 12
18.768813
 22
47.559369
 32
0.0
 13
18.768813
 23
47.559369
 33
0.0
  0
SOLID
  5
1DC19
100
AcDbEntity
  8
0
  6
BYBLOCK
 62
     0
100
AcDbTrace
 10
2.10024
 20
47.73026
 30
0.0
 11
2.01902
 21
47.875797
 31
0.0
 12
1.623019
 22
47.559369
 32
0.0
 13
1.623019
 23
47.559369
 33
0.0
  0
MTEXT
  5
1DC1A
100
AcDbEntity
  8
0
  6
BYBLOCK
 62
     0
100
AcDbMText
 10
10.195916
 20
50.256469
 30
0.0
 40
0.5
 41
0.0
 71
     5
 72
     1
  1
\A1;60°{\H0.250000;±0.2°}
  0
POINT
  5
1DC1B
100
AcDbEntity
  8
DEFPOINTS
  6
BYBLOCK
 62
     0
100
AcDbPoint
 10
13.173252
 20
49.595986
 30
0.0
  0
POINT
  5
1DC1C
100
AcDbEntity
  8
DEFPOINTS
  6
BYBLOCK
 62
     0
100
AcDbPoint
 10
6.760682
 20
38.660675
 30
0.0
  0
POINT
  5
1DC1D
100
AcDbEntity
  8
DEFPOINTS
  6
BYBLOCK
 62
     0
100
AcDbPoint
 10
10.369121
 20
33.010675
 30
0.0
  0
POINT
  5
1DC1E
100
AcDbEntity
  8
DEFPOINTS
  6
BYBLOCK
 62
     0
100
AcDbPoint
 10
13.63115
 20
38.660675
 30
0.0
  0
POINT
  5
1DC1F
100
AcDbEntity
  8
DEFPOINTS
  6
BYBLOCK
 62
     0
100
AcDbPoint
 10
10.022711
 20
33.010675
 30
0.0
  0
ENDBLK
  5
1DC20
100
AcDbEntity
  8
0
100
AcDbBlockEnd
  0
BLOCK
  5
1DC22
100
AcDbEntity
  8
0
100
AcDbBlockBegin
  2
*D23
 70
     1
 10
0.0
 20
0.0
 30
0.0
  3
*D23
  1

  0
ARC
  5
1DC23
100
AcDbEntity
  8
0
  6
BYBLOCK
 62
     0
100
AcDbCircle
 10
10.195916
 20
32.710675
 30
0.0
 40
2.52437
100
AcDbArc
 50
48.632838
 51
60.0
  0
LINE
  5
1DC24
100
AcDbEntity
  8
0
  6
BYBLOCK
 62
     0
100
AcDbLine
 10
11.864226
 20
34.605189
 30
0.0
 11
13.621624
 21
33.057624
 31
0.0
  0
ARC
  5
1DC25
100
AcDbEntity
  8
0
  6
BYBLOCK
 62
     0
100
AcDbCircle
 10
10.195916
 20
32.710675
 30
0.0
 40
2.52437
100
AcDbArc
 50
71.367162
 51
78.632838
  0
SOLID
  5
1DC26
100
AcDbEntity
  8
0
  6
BYBLOCK
 62
     0
100
AcDbTrace
 10
11.036773
 20
35.178672
 30
0.0
 11
10.968144
 21
35.026791
 31
0.0
 12
11.458101
 22
34.896844
 32
0.0
 13
11.458101
 23
34.896844
 33
0.0
  0
SOLID
  5
1DC27
100
AcDbEntity
  8
0
  6
BYBLOCK
 62
     0
100
AcDbTrace
 10
10.685205
 20
35.102604
 30
0.0
 11
10.701711
 21
35.268452
 31
0.0
 12
10.195916
 22
35.235045
 32
0.0
 13
10.195916
 23
35.235045
 33
0.0
  0
MTEXT
  5
1DC28
100
AcDbEntity
  8
0
  6
BYBLOCK
 62
     0
100
AcDbMText
 10
13.007278
 20
34.131603
 30
0.0
 40
0.5
 41
0.0
 71
     5
 72
     1
  1
\A1;30°{\H0.250000;±0.1°}
 11
0.75049
 21
-0.660882
 31
0.0
  0
POINT
  5
1DC29
100
AcDbEntity
  8
DEFPOINTS
  6
BYBLOCK
 62
     0
100
AcDbPoint
 10
10.634268
 20
35.196694
 30
0.0
  0
POINT
  5
1DC2A
100
AcDbEntity
  8
DEFPOINTS
  6
BYBLOCK
 62
     0
100
AcDbPoint
 10
10.195916
 20
45.710675
 30
0.0
  0
POINT
  5
1DC2B
100
AcDbEntity
  8
DEFPOINTS
  6
BYBLOCK
 62
     0
100
AcDbPoint
 10
12.524424
 20
36.74377
 30
0.0
  0
POINT
  5
1DC2C
100
AcDbEntity
  8
DEFPOINTS
  6
BYBLOCK
 62
     0
100
AcDbPoint
 10
10.389328
 20
33.045675
 30
0.0
  0
POINT
  5
1DC2D
100
AcDbEntity
  8
DEFPOINTS
  6
BYBLOCK
 62
     0
100
AcDbPoint
 10
10.195916
 20
32.410675
 30
0.0
  0
ENDBLK
  5
1DC2E
100
AcDbEntity
  8
0
100
AcDbBlockEnd
  0
BLOCK
  5
1DC4A
100
AcDbEntity
  8
0
100
AcDbBlockBegin
  2
*D24
 70
     1
 10
0.0
 20
0.0
 30
0.0
  3
*D24
  1

  0
LINE
  5
1DC4B
100
AcDbEntity
  8
0
  6
BYBLOCK
 62
     0
100
AcDbLine
 10
9.447082
 20
30.291776
 30
0.0
 11
10.144567
 21
32.917379
 31
0.0
  0
MTEXT
  5
1DC4C
100
AcDbEntity
  8
0
  6
BYBLOCK
 62
     0
100
AcDbMText
 10
9.280861
 20
31.224035
 30
0.0
 40
0.5
 41
0.0
 71
     5
 72
     1
  1
\A1;R0.2
 11
0.256743
 21
0.96648
 31
0.0
  0
LINE
  5
1DC4D
100
AcDbEntity
  8
0
  6
BYBLOCK
 62
     0
100
AcDbLine
 10
10.195916
 20
33.110675
 30
0.0
 11
10.144567
 21
32.917379
 31
0.0
  0
SOLID
  5
1DC4E
100
AcDbEntity
  8
0
  6
BYBLOCK
 62
     0
100
AcDbTrace
 10
9.935656
 20
32.455534
 30
0.0
 11
10.096736
 21
32.412744
 31
0.0
 12
10.144567
 22
32.917379
 32
0.0
 13
10.144567
 23
32.917379
 33
0.0
  0
POINT
  5
1DC4F
100
AcDbEntity
  8
DEFPOINTS
  6
BYBLOCK
 62
     0
100
AcDbPoint
 10
10.144567
 20
32.917379
 30
0.0
  0
POINT
  5
1DC50
100
AcDbEntity
  8
DEFPOINTS
  6
BYBLOCK
 62
     0
100
AcDbPoint
 10
10.195916
 20
33.110675
 30
0.0
  0
ENDBLK
  5
1DC51
100
AcDbEntity
  8
0
100
AcDbBlockEnd
  0
BLOCK
  5
1DDBE
100
AcDbEntity
  8
0
100
AcDbBlockBegin
  2
*D25
 70
     1
 10
0.0
 20
0.0
 30
0.0
  3
*D25
  1

  0
LINE
  5
1DDBF
100
AcDbEntity
  8
0
  6
BYBLOCK
 62
     0
100
AcDbLine
 10
74.012941
 20
32.760675
 30
0.0
 11
74.012941
 21
29.967757
 31
0.0
  0
LINE
  5
1DDC0
100
AcDbEntity
  8
0
  6
BYBLOCK
 62
     0
100
AcDbLine
 10
76.012941
 20
33.338196
 30
0.0
 11
76.012941
 21
29.967757
 31
0.0
  0
LINE
  5
1DDC1
100
AcDbEntity
  8
0
  6
BYBLOCK
 62
     0
100
AcDbLine
 10
74.512941
 20
30.117757
 30
0.0
 11
75.512941
 21
30.117757
 31
0.0
  0
SOLID
  5
1DDC2
100
AcDbEntity
  8
0
  6
BYBLOCK
 62
     0
100
AcDbTrace
 10
74.512941
 20
30.201091
 30
0.0
 11
74.512941
 21
30.034424
 31
0.0
 12
74.012941
 22
30.117757
 32
0.0
 13
74.012941
 23
30.117757
 33
0.0
  0
SOLID
  5
1DDC3
100
AcDbEntity
  8
0
  6
BYBLOCK
 62
     0
100
AcDbTrace
 10
75.512941
 20
30.201091
 30
0.0
 11
75.512941
 21
30.034424
 31
0.0
 12
76.012941
 22
30.117757
 32
0.0
 13
76.012941
 23
30.117757
 33
0.0
  0
MTEXT
  5
1DDC4
100
AcDbEntity
  8
0
  6
BYBLOCK
 62
     0
100
AcDbMText
 10
75.012941
 20
30.517757
 30
0.0
 40
0.5
 41
0.0
 71
     5
 72
     1
  1
\A1;2{\H0.250000;±0.01}
  0
POINT
  5
1DDC5
100
AcDbEntity
  8
DEFPOINTS
  6
BYBLOCK
 62
     0
100
AcDbPoint
 10
74.012941
 20
32.910675
 30
0.0
  0
POINT
  5
1DDC6
100
AcDbEntity
  8
DEFPOINTS
  6
BYBLOCK
 62
     0
100
AcDbPoint
 10
76.012941
 20
33.488196
 30
0.0
  0
POINT
  5
1DDC7
100
AcDbEntity
  8
DEFPOINTS
  6
BYBLOCK
 62
     0
100
AcDbPoint
 10
76.012941
 20
30.117757
 30
0.0
  0
ENDBLK
  5
1DDC8
100
AcDbEntity
  8
0
100
AcDbBlockEnd
  0
BLOCK
  5
1DDB3
100
AcDbEntity
  8
0
100
AcDbBlockBegin
  2
*D26
 70
     1
 10
0.0
 20
0.0
 30
0.0
  3
*D26
  1

  0
LINE
  5
1DDB4
100
AcDbEntity
  8
0
  6
BYBLOCK
 62
     0
100
AcDbLine
 10
75.012941
 20
33.049436
 30
0.0
 11
75.012941
 21
31.521317
 31
0.0
  0
LINE
  5
1DDB5
100
AcDbEntity
  8
0
  6
BYBLOCK
 62
     0
100
AcDbLine
 10
74.012941
 20
32.760675
 30
0.0
 11
74.012941
 21
31.521317
 31
0.0
  0
LINE
  5
1DDB6
100
AcDbEntity
  8
0
  6
BYBLOCK
 62
     0
100
AcDbLine
 10
75.012941
 20
31.671317
 30
0.0
 11
74.012941
 21
31.671317
 31
0.0
  0
INSERT
  5
1DDB7
100
AcDbEntity
  8
0
  6
BYBLOCK
 62
     0
100
AcDbBlockReference
  2
_DOTSMALL
 10
75.012941
 20
31.671317
 30
0.0
 41
0.5
 42
0.5
 43
0.5
  0
INSERT
  5
1DDB8
100
AcDbEntity
  8
0
  6
BYBLOCK
 62
     0
100
AcDbBlockReference
  2
_DOTSMALL
 10
74.012941
 20
31.671317
 30
0.0
 41
0.5
 42
0.5
 43
0.5
 50
180.0
  0
MTEXT
  5
1DDB9
100
AcDbEntity
  8
0
  6
BYBLOCK
 62
     0
100
AcDbMText
 10
74.512941
 20
32.071317
 30
0.0
 40
0.5
 41
0.0
 71
     5
 72
     1
  1
\A1;t
  0
POINT
  5
1DDBA
100
AcDbEntity
  8
DEFPOINTS
  6
BYBLOCK
 62
     0
100
AcDbPoint
 10
75.012941
 20
33.199436
 30
0.0
  0
POINT
  5
1DDBB
100
AcDbEntity
  8
DEFPOINTS
  6
BYBLOCK
 62
     0
100
AcDbPoint
 10
74.012941
 20
32.910675
 30
0.0
  0
POINT
  5
1DDBC
100
AcDbEntity
  8
DEFPOINTS
  6
BYBLOCK
 62
     0
100
AcDbPoint
 10
74.012941
 20
31.671317
 30
0.0
  0
ENDBLK
  5
1DDBD
100
AcDbEntity
  8
0
100
AcDbBlockEnd
  0
BLOCK
  5
1DD97
100
AcDbEntity
  8
0
100
AcDbBlockBegin
  2
_DOTSMALL
 70
     0
 10
0.0
 20
0.0
 30
0.0
  3
_DOTSMALL
  1

  0
POLYLINE
  5
1DD98
100
AcDbEntity
  8
0
  6
BYBLOCK
 62
     0
100
AcDb2dPolyline
 66
     1
 10
0.0
 20
0.0
 30
0.0
 70
     1
 40
0.5
 41
0.5
  0
VERTEX
  5
1DD99
100
AcDbEntity
  8
0
  6
BYBLOCK
 62
     0
100
AcDbVertex
100
AcDb2dVertex
 10
-0.0625
 20
0.0
 30
0.0
 42
1.0
  0
VERTEX
  5
1DD9A
100
AcDbEntity
  8
0
  6
BYBLOCK
 62
     0
100
AcDbVertex
100
AcDb2dVertex
 10
0.0625
 20
0.0
 30
0.0
 42
1.0
  0
SEQEND
  5
1DD9B
100
AcDbEntity
  8
0
  6
BYBLOCK
 62
     0
  0
ENDBLK
  5
1DD9C
100
AcDbEntity
  8
0
100
AcDbBlockEnd
  0
BLOCK
  5
1DDEC
100
AcDbEntity
  8
0
100
AcDbBlockBegin
  2
*D28
 70
     1
 10
0.0
 20
0.0
 30
0.0
  3
*D28
  1

  0
LINE
  5
1DDED
100
AcDbEntity
  8
0
  6
BYBLOCK
 62
     0
100
AcDbLine
 10
62.193437
 20
35.910675
 30
0.0
 11
65.632593
 21
35.910675
 31
0.0
  0
LINE
  5
1DDEE
100
AcDbEntity
  8
0
  6
BYBLOCK
 62
     0
100
AcDbLine
 10
60.345916
 20
32.910675
 30
0.0
 11
65.632593
 21
32.910675
 31
0.0
  0
LINE
  5
1DDEF
100
AcDbEntity
  8
0
  6
BYBLOCK
 62
     0
100
AcDbLine
 10
65.482593
 20
35.410675
 30
0.0
 11
65.482593
 21
33.410675
 31
0.0
  0
SOLID
  5
1DDF0
100
AcDbEntity
  8
0
  6
BYBLOCK
 62
     0
100
AcDbTrace
 10
65.39926
 20
35.410675
 30
0.0
 11
65.565927
 21
35.410675
 31
0.0
 12
65.482593
 22
35.910675
 32
0.0
 13
65.482593
 23
35.910675
 33
0.0
  0
SOLID
  5
1DDF1
100
AcDbEntity
  8
0
  6
BYBLOCK
 62
     0
100
AcDbTrace
 10
65.39926
 20
33.410675
 30
0.0
 11
65.565927
 21
33.410675
 31
0.0
 12
65.482593
 22
32.910675
 32
0.0
 13
65.482593
 23
32.910675
 33
0.0
  0
MTEXT
  5
1DDF2
100
AcDbEntity
  8
0
  6
BYBLOCK
 62
     0
100
AcDbMText
 10
65.082593
 20
34.410675
 30
0.0
 40
0.5
 41
0.0
 71
     5
 72
     1
  1
\A1;L1
 11
0.0
 21
1.0
 31
0.0
  0
POINT
  5
1DDF3
100
AcDbEntity
  8
DEFPOINTS
  6
BYBLOCK
 62
     0
100
AcDbPoint
 10
62.043437
 20
35.910675
 30
0.0
  0
POINT
  5
1DDF4
100
AcDbEntity
  8
DEFPOINTS
  6
BYBLOCK
 62
     0
100
AcDbPoint
 10
60.195916
 20
32.910675
 30
0.0
  0
POINT
  5
1DDF5
100
AcDbEntity
  8
DEFPOINTS
  6
BYBLOCK
 62
     0
100
AcDbPoint
 10
65.482593
 20
32.910675
 30
0.0
  0
ENDBLK
  5
1DDF6
100
AcDbEntity
  8
0
100
AcDbBlockEnd
  0
BLOCK
  5
1DECE
100
AcDbEntity
  8
0
100
AcDbBlockBegin
  2
*D29
 70
     1
 10
0.0
 20
0.0
 30
0.0
  3
*D29
  1

  0
LINE
  5
1DECF
100
AcDbEntity
  8
0
  6
BYBLOCK
 62
     0
100
AcDbLine
 10
15.021721
 20
22.862023
 30
0.0
 11
17.321631
 21
22.841597
 31
0.0
  0
LINE
  5
1DED0
100
AcDbEntity
  8
0
  6
BYBLOCK
 62
     0
100
AcDbLine
 10
21.821453
 20
22.801632
 30
0.0
 11
22.321433
 21
22.797192
 31
0.0
  0
MTEXT
  5
1DED1
100
AcDbEntity
  8
0
  6
BYBLOCK
 62
     0
100
AcDbMText
 10
15.925238
 20
23.254014
 30
0.0
 40
0.5
 41
0.0
 71
     5
 72
     1
  1
\A1;\U+22053.5
 11
0.999961
 21
-0.008881
 31
0.0
  0
LINE
  5
1DED2
100
AcDbEntity
  8
0
  6
BYBLOCK
 62
     0
100
AcDbLine
 10
21.321473
 20
22.806073
 30
0.0
 11
17.821611
 21
22.837156
 31
0.0
  0
SOLID
  5
1DED3
100
AcDbEntity
  8
0
  6
BYBLOCK
 62
     0
100
AcDbTrace
 10
21.822193
 20
22.884962
 30
0.0
 11
21.820713
 21
22.718302
 31
0.0
 12
21.321473
 22
22.806073
 32
0.0
 13
21.321473
 23
22.806073
 33
0.0
  0
SOLID
  5
1DED4
100
AcDbEntity
  8
0
  6
BYBLOCK
 62
     0
100
AcDbTrace
 10
17.322371
 20
22.924927
 30
0.0
 11
17.32089
 21
22.758267
 31
0.0
 12
17.821611
 22
22.837156
 32
0.0
 13
17.821611
 23
22.837156
 33
0.0
  0
POINT
  5
1DED5
100
AcDbEntity
  8
DEFPOINTS
  6
BYBLOCK
 62
     0
100
AcDbPoint
 10
17.821611
 20
22.837156
 30
0.0
  0
POINT
  5
1DED6
100
AcDbEntity
  8
DEFPOINTS
  6
BYBLOCK
 62
     0
100
AcDbPoint
 10
21.321473
 20
22.806073
 30
0.0
  0
ENDBLK
  5
1DED7
100
AcDbEntity
  8
0
100
AcDbBlockEnd
  0
BLOCK
  5
1DED9
100
AcDbEntity
  8
0
100
AcDbBlockBegin
  2
*D30
 70
     1
 10
0.0
 20
0.0
 30
0.0
  3
*D30
  1

  0
LINE
  5
1DEDA
100
AcDbEntity
  8
0
  6
BYBLOCK
 62
     0
100
AcDbLine
 10
23.221011
 20
22.373027
 30
0.0
 11
25.480646
 21
23.677628
 31
0.0
  0
LINE
  5
1DEDB
100
AcDbEntity
  8
0
  6
BYBLOCK
 62
     0
100
AcDbLine
 10
18.826446
 20
24.412159
 30
0.0
 11
23.499035
 21
27.10988
 31
0.0
  0
LINE
  5
1DEDC
100
AcDbEntity
  8
0
  6
BYBLOCK
 62
     0
100
AcDbLine
 10
25.100742
 20
24.035641
 30
0.0
 11
23.619131
 21
26.601867
 31
0.0
  0
SOLID
  5
1DEDD
100
AcDbEntity
  8
0
  6
BYBLOCK
 62
     0
100
AcDbTrace
 10
25.172911
 20
24.077308
 30
0.0
 11
25.028573
 21
23.993974
 31
0.0
 12
25.350742
 22
23.602628
 32
0.0
 13
25.350742
 23
23.602628
 33
0.0
  0
SOLID
  5
1DEDE
100
AcDbEntity
  8
0
  6
BYBLOCK
 62
     0
100
AcDbTrace
 10
23.6913
 20
26.643533
 30
0.0
 11
23.546962
 21
26.5602
 31
0.0
 12
23.369131
 22
27.03488
 32
0.0
 13
23.369131
 23
27.03488
 33
0.0
  0
MTEXT
  5
1DEDF
100
AcDbEntity
  8
0
  6
BYBLOCK
 62
     0
100
AcDbMText
 10
24.742431
 20
25.539587
 30
0.0
 40
0.5
 41
0.0
 71
     5
 72
     1
  1
\A1;3.96{\H0.250000;\S+0.1^ -0;}
 11
0.5
 21
-0.866025
 31
0.0
  0
POINT
  5
1DEE0
100
AcDbEntity
  8
DEFPOINTS
  6
BYBLOCK
 62
     0
100
AcDbPoint
 10
23.091107
 20
22.298027
 30
0.0
  0
POINT
  5
1DEE1
100
AcDbEntity
  8
DEFPOINTS
  6
BYBLOCK
 62
     0
100
AcDbPoint
 10
18.696542
 20
24.337159
 30
0.0
  0
POINT
  5
1DEE2
100
AcDbEntity
  8
DEFPOINTS
  6
BYBLOCK
 62
     0
100
AcDbPoint
 10
23.369131
 20
27.03488
 30
0.0
  0
ENDBLK
  5
1DEE3
100
AcDbEntity
  8
0
100
AcDbBlockEnd
  0
BLOCK
  5
1DEE5
100
AcDbEntity
  8
0
100
AcDbBlockBegin
  2
*D31
 70
     1
 10
0.0
 20
0.0
 30
0.0
  3
*D31
  1

  0
LINE
  5
1DEE6
100
AcDbEntity
  8
0
  6
BYBLOCK
 62
     0
100
AcDbLine
 10
23.863146
 20
40.83107
 30
0.0
 11
21.414033
 21
40.959422
 31
0.0
  0
LINE
  5
1DEE7
100
AcDbEntity
  8
0
  6
BYBLOCK
 62
     0
100
AcDbLine
 10
22.862941
 20
39.060675
 30
0.0
 11
21.364313
 21
39.060675
 31
0.0
  0
ARC
  5
1DEE8
100
AcDbEntity
  8
0
  6
BYBLOCK
 62
     0
100
AcDbCircle
 10
57.644289
 20
39.060675
 30
0.0
 40
36.129976
100
AcDbArc
 50
176.207082
 51
177.0
  0
LINE
  5
1DEE9
100
AcDbEntity
  8
0
  6
BYBLOCK
 62
     0
100
AcDbLine
 10
21.59345
 20
41.450693
 30
0.0
 11
21.657396
 21
42.415243
 31
0.0
  0
ARC
  5
1DEEA
100
AcDbEntity
  8
0
  6
BYBLOCK
 62
     0
100
AcDbCircle
 10
57.644289
 20
39.060675
 30
0.0
 40
36.129976
100
AcDbArc
 50
177.792918
 51
179.207082
  0
SOLID
  5
1DEEB
100
AcDbEntity
  8
0
  6
BYBLOCK
 62
     0
100
AcDbTrace
 10
21.457868
 20
40.455873
 30
0.0
 11
21.624363
 21
40.448302
 31
0.0
 12
21.563828
 22
40.951572
 32
0.0
 13
21.563828
 23
40.951572
 33
0.0
  0
SOLID
  5
1DEEC
100
AcDbEntity
  8
0
  6
BYBLOCK
 62
     0
100
AcDbTrace
 10
21.601104
 20
39.560086
 30
0.0
 11
21.434441
 21
39.56124
 31
0.0
 12
21.514313
 22
39.060675
 32
0.0
 13
21.514313
 23
39.060675
 33
0.0
  0
MTEXT
  5
1DEED
100
AcDbEntity
  8
0
  6
BYBLOCK
 62
     0
100
AcDbMText
 10
21.226299
 20
41.959428
 30
0.0
 40
0.5
 41
0.0
 71
     5
 72
     1
  1
\A1;3°
 11
0.066151
 21
0.99781
 31
0.0
  0
POINT
  5
1DEEE
100
AcDbEntity
  8
DEFPOINTS
  6
BYBLOCK
 62
     0
100
AcDbPoint
 10
21.519816
 20
39.69123
 30
0.0
  0
POINT
  5
1DEEF
100
AcDbEntity
  8
DEFPOINTS
  6
BYBLOCK
 62
     0
100
AcDbPoint
 10
24.252299
 20
40.810675
 30
0.0
  0
POINT
  5
1DEF0
100
AcDbEntity
  8
DEFPOINTS
  6
BYBLOCK
 62
     0
100
AcDbPoint
 10
23.012941
 20
39.060675
 30
0.0
  0
POINT
  5
1DEF1
100
AcDbEntity
  8
DEFPOINTS
  6
BYBLOCK
 62
     0
100
AcDbPoint
 10
27.012941
 20
39.060675
 30
0.0
  0
POINT
  5
1DEF2
100
AcDbEntity
  8
DEFPOINTS
  6
BYBLOCK
 62
     0
100
AcDbPoint
 10
24.012941
 20
40.823219
 30
0.0
  0
ENDBLK
  5
1DEF3
100
AcDbEntity
  8
0
100
AcDbBlockEnd
  0
BLOCK
  5
1DEF5
100
AcDbEntity
  8
0
100
AcDbBlockBegin
  2
*D32
 70
     1
 10
0.0
 20
0.0
 30
0.0
  3
*D32
  1

  0
LINE
  5
1DEF6
100
AcDbEntity
  8
0
  6
BYBLOCK
 62
     0
100
AcDbLine
 10
24.102299
 20
40.810675
 30
0.0
 11
19.862941
 21
40.810675
 31
0.0
  0
LINE
  5
1DEF7
100
AcDbEntity
  8
0
  6
BYBLOCK
 62
     0
100
AcDbLine
 10
24.102299
 20
37.310675
 30
0.0
 11
19.862941
 21
37.310675
 31
0.0
  0
LINE
  5
1DEF8
100
AcDbEntity
  8
0
  6
BYBLOCK
 62
     0
100
AcDbLine
 10
20.012941
 20
40.310675
 30
0.0
 11
20.012941
 21
37.810675
 31
0.0
  0
SOLID
  5
1DEF9
100
AcDbEntity
  8
0
  6
BYBLOCK
 62
     0
100
AcDbTrace
 10
19.929608
 20
40.310675
 30
0.0
 11
20.096274
 21
40.310675
 31
0.0
 12
20.012941
 22
40.810675
 32
0.0
 13
20.012941
 23
40.810675
 33
0.0
  0
SOLID
  5
1DEFA
100
AcDbEntity
  8
0
  6
BYBLOCK
 62
     0
100
AcDbTrace
 10
19.929608
 20
37.810675
 30
0.0
 11
20.096274
 21
37.810675
 31
0.0
 12
20.012941
 22
37.310675
 32
0.0
 13
20.012941
 23
37.310675
 33
0.0
  0
MTEXT
  5
1DEFB
100
AcDbEntity
  8
0
  6
BYBLOCK
 62
     0
100
AcDbMText
 10
19.571274
 20
39.060675
 30
0.0
 40
0.5
 41
0.0
 71
     5
 72
     1
  1
\A1;\U+22053.5{\H0.250000;\S+0.1^ -0;}
 11
0.0
 21
1.0
 31
0.0
  0
POINT
  5
1DEFC
100
AcDbEntity
  8
DEFPOINTS
  6
BYBLOCK
 62
     0
100
AcDbPoint
 10
24.252299
 20
40.810675
 30
0.0
  0
POINT
  5
1DEFD
100
AcDbEntity
  8
DEFPOINTS
  6
BYBLOCK
 62
     0
100
AcDbPoint
 10
24.252299
 20
37.310675
 30
0.0
  0
POINT
  5
1DEFE
100
AcDbEntity
  8
DEFPOINTS
  6
BYBLOCK
 62
     0
100
AcDbPoint
 10
20.012941
 20
37.310675
 30
0.0
  0
ENDBLK
  5
1DEFF
100
AcDbEntity
  8
0
100
AcDbBlockEnd
  0
BLOCK
  5
1DF01
100
AcDbEntity
  8
0
100
AcDbBlockBegin
  2
*D33
 70
     1
 10
0.0
 20
0.0
 30
0.0
  3
*D33
  1

  0
LINE
  5
1DF02
100
AcDbEntity
  8
0
  6
BYBLOCK
 62
     0
100
AcDbLine
 10
24.121106
 20
40.883396
 30
0.0
 11
19.497186
 21
43.446477
 31
0.0
  0
LINE
  5
1DF03
100
AcDbEntity
  8
0
  6
BYBLOCK
 62
     0
100
AcDbLine
 10
24.121106
 20
37.237953
 30
0.0
 11
19.497186
 21
34.674873
 31
0.0
  0
ARC
  5
1DF04
100
AcDbEntity
  8
0
  6
BYBLOCK
 62
     0
100
AcDbCircle
 10
27.409383
 20
39.060675
 30
0.0
 40
8.896442
100
AcDbArc
 50
154.220575
 51
205.779425
  0
SOLID
  5
1DF05
100
AcDbEntity
  8
0
  6
BYBLOCK
 62
     0
100
AcDbTrace
 10
19.324368
 20
42.968143
 30
0.0
 11
19.472351
 21
42.89147
 31
0.0
 12
19.628379
 22
43.373756
 32
0.0
 13
19.628379
 23
43.373756
 33
0.0
  0
SOLID
  5
1DF06
100
AcDbEntity
  8
0
  6
BYBLOCK
 62
     0
100
AcDbTrace
 10
19.472351
 20
35.22988
 30
0.0
 11
19.324368
 21
35.153206
 31
0.0
 12
19.628379
 22
34.747594
 32
0.0
 13
19.628379
 23
34.747594
 33
0.0
  0
MTEXT
  5
1DF07
100
AcDbEntity
  8
0
  6
BYBLOCK
 62
     0
100
AcDbMText
 10
18.071274
 20
39.060675
 30
0.0
 40
0.5
 41
0.0
 71
     5
 72
     1
  1
\A1;58°{\H0.250000;\S+1°^ -0°;}
 11
0.0
 21
1.0
 31
0.0
  0
POINT
  5
1DF08
100
AcDbEntity
  8
DEFPOINTS
  6
BYBLOCK
 62
     0
100
AcDbPoint
 10
18.639259
 20
40.554529
 30
0.0
  0
POINT
  5
1DF09
100
AcDbEntity
  8
DEFPOINTS
  6
BYBLOCK
 62
     0
100
AcDbPoint
 10
24.928131
 20
40.436055
 30
0.0
  0
POINT
  5
1DF0A
100
AcDbEntity
  8
DEFPOINTS
  6
BYBLOCK
 62
     0
100
AcDbPoint
 10
24.928131
 20
37.685295
 30
0.0
  0
POINT
  5
1DF0B
100
AcDbEntity
  8
DEFPOINTS
  6
BYBLOCK
 62
     0
100
AcDbPoint
 10
24.252299
 20
37.310675
 30
0.0
  0
POINT
  5
1DF0C
100
AcDbEntity
  8
DEFPOINTS
  6
BYBLOCK
 62
     0
100
AcDbPoint
 10
24.252299
 20
40.810675
 30
0.0
  0
ENDBLK
  5
1DF0D
100
AcDbEntity
  8
0
100
AcDbBlockEnd
  0
BLOCK
  5
1DF0F
100
AcDbEntity
  8
0
100
AcDbBlockBegin
  2
*D34
 70
     1
 10
0.0
 20
0.0
 30
0.0
  3
*D34
  1

  0
LINE
  5
1DF10
100
AcDbEntity
  8
0
  6
BYBLOCK
 62
     0
100
AcDbLine
 10
26.012941
 20
33.338196
 30
0.0
 11
26.012941
 21
31.260675
 31
0.0
  0
LINE
  5
1DF11
100
AcDbEntity
  8
0
  6
BYBLOCK
 62
     0
100
AcDbLine
 10
24.012941
 20
32.760675
 30
0.0
 11
24.012941
 21
31.260675
 31
0.0
  0
LINE
  5
1DF12
100
AcDbEntity
  8
0
  6
BYBLOCK
 62
     0
100
AcDbLine
 10
25.512941
 20
31.410675
 30
0.0
 11
24.512941
 21
31.410675
 31
0.0
  0
SOLID
  5
1DF13
100
AcDbEntity
  8
0
  6
BYBLOCK
 62
     0
100
AcDbTrace
 10
25.512941
 20
31.494008
 30
0.0
 11
25.512941
 21
31.327342
 31
0.0
 12
26.012941
 22
31.410675
 32
0.0
 13
26.012941
 23
31.410675
 33
0.0
  0
SOLID
  5
1DF14
100
AcDbEntity
  8
0
  6
BYBLOCK
 62
     0
100
AcDbTrace
 10
24.512941
 20
31.494008
 30
0.0
 11
24.512941
 21
31.327342
 31
0.0
 12
24.012941
 22
31.410675
 32
0.0
 13
24.012941
 23
31.410675
 33
0.0
  0
MTEXT
  5
1DF15
100
AcDbEntity
  8
0
  6
BYBLOCK
 62
     0
100
AcDbMText
 10
25.012941
 20
31.810675
 30
0.0
 40
0.5
 41
0.0
 71
     5
 72
     1
  1
\A1;2{\H0.250000;±0.01}
  0
POINT
  5
1DF16
100
AcDbEntity
  8
DEFPOINTS
  6
BYBLOCK
 62
     0
100
AcDbPoint
 10
26.012941
 20
33.488196
 30
0.0
  0
POINT
  5
1DF17
100
AcDbEntity
  8
DEFPOINTS
  6
BYBLOCK
 62
     0
100
AcDbPoint
 10
24.012941
 20
32.910675
 30
0.0
  0
POINT
  5
1DF18
100
AcDbEntity
  8
DEFPOINTS
  6
BYBLOCK
 62
     0
100
AcDbPoint
 10
24.012941
 20
31.410675
 30
0.0
  0
ENDBLK
  5
1DF19
100
AcDbEntity
  8
0
100
AcDbBlockEnd
  0
BLOCK
  5
1DF1B
100
AcDbEntity
  8
0
100
AcDbBlockBegin
  2
*D35
 70
     1
 10
0.0
 20
0.0
 30
0.0
  3
*D35
  1

  0
LINE
  5
1DF1C
100
AcDbEntity
  8
0
  6
BYBLOCK
 62
     0
100
AcDbLine
 10
26.062941
 20
37.810675
 30
0.0
 11
28.417595
 21
37.810675
 31
0.0
  0
LINE
  5
1DF1D
100
AcDbEntity
  8
0
  6
BYBLOCK
 62
     0
100
AcDbLine
 10
26.062941
 20
40.310675
 30
0.0
 11
28.417595
 21
40.310675
 31
0.0
  0
LINE
  5
1DF1E
100
AcDbEntity
  8
0
  6
BYBLOCK
 62
     0
100
AcDbLine
 10
28.267595
 20
38.310675
 30
0.0
 11
28.267595
 21
39.810675
 31
0.0
  0
LINE
  5
1DF1F
100
AcDbEntity
  8
0
  6
BYBLOCK
 62
     0
100
AcDbLine
 10
28.267595
 20
40.310675
 30
0.0
 11
28.267595
 21
43.694008
 31
0.0
  0
SOLID
  5
1DF20
100
AcDbEntity
  8
0
  6
BYBLOCK
 62
     0
100
AcDbTrace
 10
28.184261
 20
38.310675
 30
0.0
 11
28.350928
 21
38.310675
 31
0.0
 12
28.267595
 22
37.810675
 32
0.0
 13
28.267595
 23
37.810675
 33
0.0
  0
SOLID
  5
1DF21
100
AcDbEntity
  8
0
  6
BYBLOCK
 62
     0
100
AcDbTrace
 10
28.184261
 20
39.810675
 30
0.0
 11
28.350928
 21
39.810675
 31
0.0
 12
28.267595
 22
40.310675
 32
0.0
 13
28.267595
 23
40.310675
 33
0.0
  0
MTEXT
  5
1DF22
100
AcDbEntity
  8
0
  6
BYBLOCK
 62
     0
100
AcDbMText
 10
27.825928
 20
42.252342
 30
0.0
 40
0.5
 41
0.0
 71
     5
 72
     1
  1
\A1;\U+22052.5{\H0.250000;\S+0.05^ -0;}
 11
0.0
 21
1.0
 31
0.0
  0
POINT
  5
1DF23
100
AcDbEntity
  8
DEFPOINTS
  6
BYBLOCK
 62
     0
100
AcDbPoint
 10
25.912941
 20
37.810675
 30
0.0
  0
POINT
  5
1DF24
100
AcDbEntity
  8
DEFPOINTS
  6
BYBLOCK
 62
     0
100
AcDbPoint
 10
25.912941
 20
40.310675
 30
0.0
  0
POINT
  5
1DF25
100
AcDbEntity
  8
DEFPOINTS
  6
BYBLOCK
 62
     0
100
AcDbPoint
 10
28.267595
 20
40.310675
 30
0.0
  0
ENDBLK
  5
1DF26
100
AcDbEntity
  8
0
100
AcDbBlockEnd
  0
BLOCK
  5
1DF28
100
AcDbEntity
  8
0
100
AcDbBlockBegin
  2
*D36
 70
     1
 10
0.0
 20
0.0
 30
0.0
  3
*D36
  1

  0
LINE
  5
1DF29
100
AcDbEntity
  8
0
  6
BYBLOCK
 62
     0
100
AcDbLine
 10
22.378948
 20
24.366286
 30
0.0
 11
21.386223
 21
27.249371
 31
0.0
  0
LINE
  5
1DF2A
100
AcDbEntity
  8
0
  6
BYBLOCK
 62
     0
100
AcDbLine
 10
19.103153
 20
23.632888
 30
0.0
 11
17.925689
 21
25.672315
 31
0.0
  0
ARC
  5
1DF2B
100
AcDbEntity
  8
0
  6
BYBLOCK
 62
     0
100
AcDbCircle
 10
27.845132
 20
8.491335
 30
0.0
 40
19.688887
100
AcDbArc
 50
110.455068
 51
118.544932
  0
SOLID
  5
1DF2C
100
AcDbEntity
  8
0
  6
BYBLOCK
 62
     0
100
AcDbTrace
 10
20.936275
 20
27.017212
 30
0.0
 11
20.992533
 21
26.860327
 31
0.0
 12
21.435058
 22
27.107543
 32
0.0
 13
21.435058
 23
27.107543
 33
0.0
  0
SOLID
  5
1DF2D
100
AcDbEntity
  8
0
  6
BYBLOCK
 62
     0
100
AcDbTrace
 10
18.477588
 20
25.714201
 30
0.0
 11
18.396094
 21
25.859585
 31
0.0
 12
18.000689
 22
25.542411
 32
0.0
 13
18.000689
 23
25.542411
 33
0.0
  0
MTEXT
  5
1DF2E
100
AcDbEntity
  8
0
  6
BYBLOCK
 62
     0
100
AcDbMText
 10
19.497128
 20
26.809359
 30
0.0
 40
0.5
 41
0.0
 71
     5
 72
     1
  1
\A1;11°{\H0.250000;\S+0.1°^ -0°;}
 11
0.909961
 21
0.414693
 31
0.0
  0
POINT
  5
1DF2F
100
AcDbEntity
  8
DEFPOINTS
  6
BYBLOCK
 62
     0
100
AcDbPoint
 10
20.257641
 20
26.6595
 30
0.0
  0
POINT
  5
1DF30
100
AcDbEntity
  8
DEFPOINTS
  6
BYBLOCK
 62
     0
100
AcDbPoint
 10
19.178153
 20
23.502984
 30
0.0
  0
POINT
  5
1DF31
100
AcDbEntity
  8
DEFPOINTS
  6
BYBLOCK
 62
     0
100
AcDbPoint
 10
22.427784
 20
24.224459
 30
0.0
  0
POINT
  5
1DF32
100
AcDbEntity
  8
DEFPOINTS
  6
BYBLOCK
 62
     0
100
AcDbPoint
 10
23.091107
 20
22.298027
 30
0.0
  0
POINT
  5
1DF33
100
AcDbEntity
  8
DEFPOINTS
  6
BYBLOCK
 62
     0
100
AcDbPoint
 10
21.178153
 20
20.038882
 30
0.0
  0
ENDBLK
  5
1DF34
100
AcDbEntity
  8
0
100
AcDbBlockEnd
  0
BLOCK
  5
1DF36
100
AcDbEntity
  8
0
100
AcDbBlockBegin
  2
*D37
 70
     1
 10
0.0
 20
0.0
 30
0.0
  3
*D37
  1

  0
LINE
  5
1DF37
100
AcDbEntity
  8
0
  6
BYBLOCK
 62
     0
100
AcDbLine
 10
12.392678
 20
42.865579
 30
0.0
 11
13.90045
 21
45.477117
 31
0.0
  0
LINE
  5
1DF38
100
AcDbEntity
  8
0
  6
BYBLOCK
 62
     0
100
AcDbLine
 10
13.70615
 20
38.790579
 30
0.0
 11
16.650081
 21
43.889617
 31
0.0
  0
LINE
  5
1DF39
100
AcDbEntity
  8
0
  6
BYBLOCK
 62
     0
100
AcDbLine
 10
14.258463
 20
45.097213
 30
0.0
 11
16.142068
 21
44.009713
 31
0.0
  0
SOLID
  5
1DF3A
100
AcDbEntity
  8
0
  6
BYBLOCK
 62
     0
100
AcDbTrace
 10
14.30013
 20
45.169382
 30
0.0
 11
14.216796
 21
45.025044
 31
0.0
 12
13.82545
 22
45.347213
 32
0.0
 13
13.82545
 23
45.347213
 33
0.0
  0
SOLID
  5
1DF3B
100
AcDbEntity
  8
0
  6
BYBLOCK
 62
     0
100
AcDbTrace
 10
16.183735
 20
44.081882
 30
0.0
 11
16.100402
 21
43.937544
 31
0.0
 12
16.575081
 22
43.759713
 32
0.0
 13
16.575081
 23
43.759713
 33
0.0
  0
MTEXT
  5
1DF3C
100
AcDbEntity
  8
0
  6
BYBLOCK
 62
     0
100
AcDbMText
 10
15.400266
 20
44.899873
 30
0.0
 40
0.5
 41
0.0
 71
     5
 72
     1
  1
\A1;3.175{\H0.250000;±0.01}
 11
0.866025
 21
-0.5
 31
0.0
  0
POINT
  5
1DF3D
100
AcDbEntity
  8
DEFPOINTS
  6
BYBLOCK
 62
     0
100
AcDbPoint
 10
12.317678
 20
42.735675
 30
0.0
  0
POINT
  5
1DF3E
100
AcDbEntity
  8
DEFPOINTS
  6
BYBLOCK
 62
     0
100
AcDbPoint
 10
13.63115
 20
38.660675
 30
0.0
  0
POINT
  5
1DF3F
100
AcDbEntity
  8
DEFPOINTS
  6
BYBLOCK
 62
     0
100
AcDbPoint
 10
16.575081
 20
43.759713
 30
0.0
  0
ENDBLK
  5
1DF40
100
AcDbEntity
  8
0
100
AcDbBlockEnd
  0
BLOCK
  5
1DF42
100
AcDbEntity
  8
0
100
AcDbBlockBegin
  2
*D38
 70
     1
 10
0.0
 20
0.0
 30
0.0
  3
*D38
  1

  0
LINE
  5
1DF43
100
AcDbEntity
  8
0
  6
BYBLOCK
 62
     0
100
AcDbLine
 10
12.392678
 20
42.865579
 30
0.0
 11
13.90045
 21
45.477117
 31
0.0
  0
LINE
  5
1DF44
100
AcDbEntity
  8
0
  6
BYBLOCK
 62
     0
100
AcDbLine
 10
10.097711
 20
45.240579
 30
0.0
 11
11.15082
 21
47.064617
 31
0.0
  0
LINE
  5
1DF45
100
AcDbEntity
  8
0
  6
BYBLOCK
 62
     0
100
AcDbLine
 10
13.392438
 20
45.597213
 30
0.0
 11
11.508832
 21
46.684713
 31
0.0
  0
SOLID
  5
1DF46
100
AcDbEntity
  8
0
  6
BYBLOCK
 62
     0
100
AcDbTrace
 10
13.434104
 20
45.669382
 30
0.0
 11
13.350771
 21
45.525044
 31
0.0
 12
13.82545
 22
45.347213
 32
0.0
 13
13.82545
 23
45.347213
 33
0.0
  0
SOLID
  5
1DF47
100
AcDbEntity
  8
0
  6
BYBLOCK
 62
     0
100
AcDbTrace
 10
11.550499
 20
46.756882
 30
0.0
 11
11.467166
 21
46.612544
 31
0.0
 12
11.07582
 22
46.934713
 32
0.0
 13
11.07582
 23
46.934713
 33
0.0
  0
MTEXT
  5
1DF48
100
AcDbEntity
  8
0
  6
BYBLOCK
 62
     0
100
AcDbMText
 10
12.650635
 20
46.487373
 30
0.0
 40
0.5
 41
0.0
 71
     5
 72
     1
  1
\A1;3.175{\H0.250000;±0.01}
 11
0.866025
 21
-0.5
 31
0.0
  0
POINT
  5
1DF49
100
AcDbEntity
  8
DEFPOINTS
  6
BYBLOCK
 62
     0
100
AcDbPoint
 10
12.317678
 20
42.735675
 30
0.0
  0
POINT
  5
1DF4A
100
AcDbEntity
  8
DEFPOINTS
  6
BYBLOCK
 62
     0
100
AcDbPoint
 10
10.022711
 20
45.110675
 30
0.0
  0
POINT
  5
1DF4B
100
AcDbEntity
  8
DEFPOINTS
  6
BYBLOCK
 62
     0
100
AcDbPoint
 10
11.07582
 20
46.934713
 30
0.0
  0
ENDBLK
  5
1DF4C
100
AcDbEntity
  8
0
100
AcDbBlockEnd
  0
BLOCK
  5
1DF4E
100
AcDbEntity
  8
0
100
AcDbBlockBegin
  2
*D39
 70
     1
 10
0.0
 20
0.0
 30
0.0
  3
*D39
  1

  0
LINE
  5
1DF4F
100
AcDbEntity
  8
0
  6
BYBLOCK
 62
     0
100
AcDbLine
 10
10.097711
 20
45.240579
 30
0.0
 11
11.90082
 21
48.363655
 31
0.0
  0
LINE
  5
1DF50
100
AcDbEntity
  8
0
  6
BYBLOCK
 62
     0
100
AcDbLine
 10
13.70615
 20
38.790579
 30
0.0
 11
17.400081
 21
45.188655
 31
0.0
  0
LINE
  5
1DF51
100
AcDbEntity
  8
0
  6
BYBLOCK
 62
     0
100
AcDbLine
 10
12.258832
 20
47.983751
 30
0.0
 11
16.892068
 21
45.308751
 31
0.0
  0
SOLID
  5
1DF52
100
AcDbEntity
  8
0
  6
BYBLOCK
 62
     0
100
AcDbTrace
 10
12.300499
 20
48.05592
 30
0.0
 11
12.217166
 21
47.911582
 31
0.0
 12
11.82582
 22
48.233751
 32
0.0
 13
11.82582
 23
48.233751
 33
0.0
  0
SOLID
  5
1DF53
100
AcDbEntity
  8
0
  6
BYBLOCK
 62
     0
100
AcDbTrace
 10
16.933735
 20
45.38092
 30
0.0
 11
16.850402
 21
45.236582
 31
0.0
 12
17.325081
 22
45.058751
 32
0.0
 13
17.325081
 23
45.058751
 33
0.0
  0
MTEXT
  5
1DF54
100
AcDbEntity
  8
0
  6
BYBLOCK
 62
     0
100
AcDbMText
 10
14.77545
 20
46.992661
 30
0.0
 40
0.5
 41
0.0
 71
     5
 72
     1
  1
\A1;6.35{\H0.250000;±0.02}
 11
0.866025
 21
-0.5
 31
0.0
  0
POINT
  5
1DF55
100
AcDbEntity
  8
DEFPOINTS
  6
BYBLOCK
 62
     0
100
AcDbPoint
 10
10.022711
 20
45.110675
 30
0.0
  0
POINT
  5
1DF56
100
AcDbEntity
  8
DEFPOINTS
  6
BYBLOCK
 62
     0
100
AcDbPoint
 10
13.63115
 20
38.660675
 30
0.0
  0
POINT
  5
1DF57
100
AcDbEntity
  8
DEFPOINTS
  6
BYBLOCK
 62
     0
100
AcDbPoint
 10
17.325081
 20
45.058751
 30
0.0
  0
ENDBLK
  5
1DF58
100
AcDbEntity
  8
0
100
AcDbBlockEnd
  0
BLOCK
  5
1DF5A
100
AcDbEntity
  8
0
100
AcDbBlockBegin
  2
*D40
 70
     1
 10
0.0
 20
0.0
 30
0.0
  3
*D40
  1

  0
LINE
  5
1DF5B
100
AcDbEntity
  8
0
  6
BYBLOCK
 62
     0
100
AcDbLine
 10
7.999154
 20
42.865579
 30
0.0
 11
6.491381
 21
45.477117
 31
0.0
  0
LINE
  5
1DF5C
100
AcDbEntity
  8
0
  6
BYBLOCK
 62
     0
100
AcDbLine
 10
10.294121
 20
45.240579
 30
0.0
 11
9.241012
 21
47.064617
 31
0.0
  0
LINE
  5
1DF5D
100
AcDbEntity
  8
0
  6
BYBLOCK
 62
     0
100
AcDbLine
 10
6.999394
 20
45.597213
 30
0.0
 11
8.882999
 21
46.684713
 31
0.0
  0
SOLID
  5
1DF5E
100
AcDbEntity
  8
0
  6
BYBLOCK
 62
     0
100
AcDbTrace
 10
6.957727
 20
45.669382
 30
0.0
 11
7.041061
 21
45.525044
 31
0.0
 12
6.566381
 22
45.347213
 32
0.0
 13
6.566381
 23
45.347213
 33
0.0
  0
SOLID
  5
1DF5F
100
AcDbEntity
  8
0
  6
BYBLOCK
 62
     0
100
AcDbTrace
 10
8.841333
 20
46.756882
 30
0.0
 11
8.924666
 21
46.612544
 31
0.0
 12
9.316012
 22
46.934713
 32
0.0
 13
9.316012
 23
46.934713
 33
0.0
  0
MTEXT
  5
1DF60
100
AcDbEntity
  8
0
  6
BYBLOCK
 62
     0
100
AcDbMText
 10
7.741197
 20
46.487373
 30
0.0
 40
0.5
 41
0.0
 71
     5
 72
     1
  1
\A1;3.175{\H0.250000;±0.01}
 11
0.866025
 21
0.5
 31
0.0
  0
POINT
  5
1DF61
100
AcDbEntity
  8
DEFPOINTS
  6
BYBLOCK
 62
     0
100
AcDbPoint
 10
8.074154
 20
42.735675
 30
0.0
  0
POINT
  5
1DF62
100
AcDbEntity
  8
DEFPOINTS
  6
BYBLOCK
 62
     0
100
AcDbPoint
 10
10.369121
 20
45.110675
 30
0.0
  0
POINT
  5
1DF63
100
AcDbEntity
  8
DEFPOINTS
  6
BYBLOCK
 62
     0
100
AcDbPoint
 10
9.316012
 20
46.934713
 30
0.0
  0
ENDBLK
  5
1DF64
100
AcDbEntity
  8
0
100
AcDbBlockEnd
  0
BLOCK
  5
1DF66
100
AcDbEntity
  8
0
100
AcDbBlockBegin
  2
*D41
 70
     1
 10
0.0
 20
0.0
 30
0.0
  3
*D41
  1

  0
LINE
  5
1DF67
100
AcDbEntity
  8
0
  6
BYBLOCK
 62
     0
100
AcDbLine
 10
7.999154
 20
42.865579
 30
0.0
 11
6.491381
 21
45.477117
 31
0.0
  0
LINE
  5
1DF68
100
AcDbEntity
  8
0
  6
BYBLOCK
 62
     0
100
AcDbLine
 10
6.685682
 20
38.790579
 30
0.0
 11
3.741751
 21
43.889617
 31
0.0
  0
LINE
  5
1DF69
100
AcDbEntity
  8
0
  6
BYBLOCK
 62
     0
100
AcDbLine
 10
6.133369
 20
45.097213
 30
0.0
 11
4.249763
 21
44.009713
 31
0.0
  0
SOLID
  5
1DF6A
100
AcDbEntity
  8
0
  6
BYBLOCK
 62
     0
100
AcDbTrace
 10
6.091702
 20
45.169382
 30
0.0
 11
6.175035
 21
45.025044
 31
0.0
 12
6.566381
 22
45.347213
 32
0.0
 13
6.566381
 23
45.347213
 33
0.0
  0
SOLID
  5
1DF6B
100
AcDbEntity
  8
0
  6
BYBLOCK
 62
     0
100
AcDbTrace
 10
4.208097
 20
44.081882
 30
0.0
 11
4.29143
 21
43.937544
 31
0.0
 12
3.816751
 22
43.759713
 32
0.0
 13
3.816751
 23
43.759713
 33
0.0
  0
MTEXT
  5
1DF6C
100
AcDbEntity
  8
0
  6
BYBLOCK
 62
     0
100
AcDbMText
 10
4.991566
 20
44.899873
 30
0.0
 40
0.5
 41
0.0
 71
     5
 72
     1
  1
\A1;3.175{\H0.250000;±0.01}
 11
0.866025
 21
0.5
 31
0.0
  0
POINT
  5
1DF6D
100
AcDbEntity
  8
DEFPOINTS
  6
BYBLOCK
 62
     0
100
AcDbPoint
 10
8.074154
 20
42.735675
 30
0.0
  0
POINT
  5
1DF6E
100
AcDbEntity
  8
DEFPOINTS
  6
BYBLOCK
 62
     0
100
AcDbPoint
 10
6.760682
 20
38.660675
 30
0.0
  0
POINT
  5
1DF6F
100
AcDbEntity
  8
DEFPOINTS
  6
BYBLOCK
 62
     0
100
AcDbPoint
 10
3.816751
 20
43.759713
 30
0.0
  0
ENDBLK
  5
1DF70
100
AcDbEntity
  8
0
100
AcDbBlockEnd
  0
BLOCK
  5
1DF72
100
AcDbEntity
  8
0
100
AcDbBlockBegin
  2
*D42
 70
     1
 10
0.0
 20
0.0
 30
0.0
  3
*D42
  1

  0
LINE
  5
1DF73
100
AcDbEntity
  8
0
  6
BYBLOCK
 62
     0
100
AcDbLine
 10
10.294121
 20
45.240579
 30
0.0
 11
8.491012
 21
48.363655
 31
0.0
  0
LINE
  5
1DF74
100
AcDbEntity
  8
0
  6
BYBLOCK
 62
     0
100
AcDbLine
 10
6.685682
 20
38.790579
 30
0.0
 11
2.991751
 21
45.188655
 31
0.0
  0
LINE
  5
1DF75
100
AcDbEntity
  8
0
  6
BYBLOCK
 62
     0
100
AcDbLine
 10
8.132999
 20
47.983751
 30
0.0
 11
3.499763
 21
45.308751
 31
0.0
  0
SOLID
  5
1DF76
100
AcDbEntity
  8
0
  6
BYBLOCK
 62
     0
100
AcDbTrace
 10
8.091333
 20
48.05592
 30
0.0
 11
8.174666
 21
47.911582
 31
0.0
 12
8.566012
 22
48.233751
 32
0.0
 13
8.566012
 23
48.233751
 33
0.0
  0
SOLID
  5
1DF77
100
AcDbEntity
  8
0
  6
BYBLOCK
 62
     0
100
AcDbTrace
 10
3.458097
 20
45.38092
 30
0.0
 11
3.54143
 21
45.236582
 31
0.0
 12
3.066751
 22
45.058751
 32
0.0
 13
3.066751
 23
45.058751
 33
0.0
  0
MTEXT
  5
1DF78
100
AcDbEntity
  8
0
  6
BYBLOCK
 62
     0
100
AcDbMText
 10
5.616381
 20
46.992661
 30
0.0
 40
0.5
 41
0.0
 71
     5
 72
     1
  1
\A1;6.35{\H0.250000;±0.02}
 11
0.866025
 21
0.5
 31
0.0
  0
POINT
  5
1DF79
100
AcDbEntity
  8
DEFPOINTS
  6
BYBLOCK
 62
     0
100
AcDbPoint
 10
10.369121
 20
45.110675
 30
0.0
  0
POINT
  5
1DF7A
100
AcDbEntity
  8
DEFPOINTS
  6
BYBLOCK
 62
     0
100
AcDbPoint
 10
6.760682
 20
38.660675
 30
0.0
  0
POINT
  5
1DF7B
100
AcDbEntity
  8
DEFPOINTS
  6
BYBLOCK
 62
     0
100
AcDbPoint
 10
3.066751
 20
45.058751
 30
0.0
  0
ENDBLK
  5
1DF7C
100
AcDbEntity
  8
0
100
AcDbBlockEnd
  0
BLOCK
  5
1DF7E
100
AcDbEntity
  8
0
100
AcDbBlockBegin
  2
*D43
 70
     1
 10
0.0
 20
0.0
 30
0.0
  3
*D43
  1

  0
LINE
  5
1DF7F
100
AcDbEntity
  8
0
  6
BYBLOCK
 62
     0
100
AcDbLine
 10
13.70615
 20
38.790579
 30
0.0
 11
18.843813
 21
47.689272
 31
0.0
  0
LINE
  5
1DF80
100
AcDbEntity
  8
0
  6
BYBLOCK
 62
     0
100
AcDbLine
 10
6.685682
 20
38.790579
 30
0.0
 11
1.548019
 21
47.689272
 31
0.0
  0
ARC
  5
1DF81
100
AcDbEntity
  8
0
  6
BYBLOCK
 62
     0
100
AcDbCircle
 10
10.195916
 20
32.710675
 30
0.0
 40
17.145795
100
AcDbArc
 50
61.6709
 51
118.3291
  0
SOLID
  5
1DF82
100
AcDbEntity
  8
0
  6
BYBLOCK
 62
     0
100
AcDbTrace
 10
18.372811
 20
47.875797
 30
0.0
 11
18.291591
 21
47.73026
 31
0.0
 12
18.768813
 22
47.559369
 32
0.0
 13
18.768813
 23
47.559369
 33
0.0
  0
SOLID
  5
1DF83
100
AcDbEntity
  8
0
  6
BYBLOCK
 62
     0
100
AcDbTrace
 10
2.10024
 20
47.73026
 30
0.0
 11
2.01902
 21
47.875797
 31
0.0
 12
1.623019
 22
47.559369
 32
0.0
 13
1.623019
 23
47.559369
 33
0.0
  0
MTEXT
  5
1DF84
100
AcDbEntity
  8
0
  6
BYBLOCK
 62
     0
100
AcDbMText
 10
10.195916
 20
50.256469
 30
0.0
 40
0.5
 41
0.0
 71
     5
 72
     1
  1
\A1;60°{\H0.250000;±0.2°}
  0
POINT
  5
1DF85
100
AcDbEntity
  8
DEFPOINTS
  6
BYBLOCK
 62
     0
100
AcDbPoint
 10
13.173252
 20
49.595986
 30
0.0
  0
POINT
  5
1DF86
100
AcDbEntity
  8
DEFPOINTS
  6
BYBLOCK
 62
     0
100
AcDbPoint
 10
6.760682
 20
38.660675
 30
0.0
  0
POINT
  5
1DF87
100
AcDbEntity
  8
DEFPOINTS
  6
BYBLOCK
 62
     0
100
AcDbPoint
 10
10.369121
 20
33.010675
 30
0.0
  0
POINT
  5
1DF88
100
AcDbEntity
  8
DEFPOINTS
  6
BYBLOCK
 62
     0
100
AcDbPoint
 10
13.63115
 20
38.660675
 30
0.0
  0
POINT
  5
1DF89
100
AcDbEntity
  8
DEFPOINTS
  6
BYBLOCK
 62
     0
100
AcDbPoint
 10
10.022711
 20
33.010675
 30
0.0
  0
ENDBLK
  5
1DF8A
100
AcDbEntity
  8
0
100
AcDbBlockEnd
  0
BLOCK
  5
1DF8C
100
AcDbEntity
  8
0
100
AcDbBlockBegin
  2
*D44
 70
     1
 10
0.0
 20
0.0
 30
0.0
  3
*D44
  1

  0
ARC
  5
1DF8D
100
AcDbEntity
  8
0
  6
BYBLOCK
 62
     0
100
AcDbCircle
 10
10.195916
 20
32.710675
 30
0.0
 40
2.52437
100
AcDbArc
 50
48.632838
 51
60.0
  0
LINE
  5
1DF8E
100
AcDbEntity
  8
0
  6
BYBLOCK
 62
     0
100
AcDbLine
 10
11.864226
 20
34.605189
 30
0.0
 11
13.621624
 21
33.057624
 31
0.0
  0
ARC
  5
1DF8F
100
AcDbEntity
  8
0
  6
BYBLOCK
 62
     0
100
AcDbCircle
 10
10.195916
 20
32.710675
 30
0.0
 40
2.52437
100
AcDbArc
 50
71.367162
 51
78.632838
  0
SOLID
  5
1DF90
100
AcDbEntity
  8
0
  6
BYBLOCK
 62
     0
100
AcDbTrace
 10
11.036773
 20
35.178672
 30
0.0
 11
10.968144
 21
35.026791
 31
0.0
 12
11.458101
 22
34.896844
 32
0.0
 13
11.458101
 23
34.896844
 33
0.0
  0
SOLID
  5
1DF91
100
AcDbEntity
  8
0
  6
BYBLOCK
 62
     0
100
AcDbTrace
 10
10.685205
 20
35.102604
 30
0.0
 11
10.701711
 21
35.268452
 31
0.0
 12
10.195916
 22
35.235045
 32
0.0
 13
10.195916
 23
35.235045
 33
0.0
  0
MTEXT
  5
1DF92
100
AcDbEntity
  8
0
  6
BYBLOCK
 62
     0
100
AcDbMText
 10
13.007278
 20
34.131603
 30
0.0
 40
0.5
 41
0.0
 71
     5
 72
     1
  1
\A1;30°{\H0.250000;±0.1°}
 11
0.75049
 21
-0.660882
 31
0.0
  0
POINT
  5
1DF93
100
AcDbEntity
  8
DEFPOINTS
  6
BYBLOCK
 62
     0
100
AcDbPoint
 10
10.634268
 20
35.196694
 30
0.0
  0
POINT
  5
1DF94
100
AcDbEntity
  8
DEFPOINTS
  6
BYBLOCK
 62
     0
100
AcDbPoint
 10
10.195916
 20
45.710675
 30
0.0
  0
POINT
  5
1DF95
100
AcDbEntity
  8
DEFPOINTS
  6
BYBLOCK
 62
     0
100
AcDbPoint
 10
12.524424
 20
36.74377
 30
0.0
  0
POINT
  5
1DF96
100
AcDbEntity
  8
DEFPOINTS
  6
BYBLOCK
 62
     0
100
AcDbPoint
 10
10.389328
 20
33.045675
 30
0.0
  0
POINT
  5
1DF97
100
AcDbEntity
  8
DEFPOINTS
  6
BYBLOCK
 62
     0
100
AcDbPoint
 10
10.195916
 20
32.410675
 30
0.0
  0
ENDBLK
  5
1DF98
100
AcDbEntity
  8
0
100
AcDbBlockEnd
  0
BLOCK
  5
1DF9A
100
AcDbEntity
  8
0
100
AcDbBlockBegin
  2
*D45
 70
     1
 10
0.0
 20
0.0
 30
0.0
  3
*D45
  1

  0
LINE
  5
1DF9B
100
AcDbEntity
  8
0
  6
BYBLOCK
 62
     0
100
AcDbLine
 10
10.409424
 20
32.970675
 30
0.0
 11
14.38833
 21
32.970675
 31
0.0
  0
LINE
  5
1DF9C
100
AcDbEntity
  8
0
  6
BYBLOCK
 62
     0
100
AcDbLine
 10
10.345916
 20
32.910675
 30
0.0
 11
14.38833
 21
32.910675
 31
0.0
  0
LINE
  5
1DF9D
100
AcDbEntity
  8
0
  6
BYBLOCK
 62
     0
100
AcDbLine
 10
14.23833
 20
33.470675
 30
0.0
 11
14.23833
 21
33.970675
 31
0.0
  0
LINE
  5
1DF9E
100
AcDbEntity
  8
0
  6
BYBLOCK
 62
     0
100
AcDbLine
 10
14.23833
 20
32.410675
 30
0.0
 11
14.23833
 21
30.277342
 31
0.0
  0
LINE
  5
1DF9F
100
AcDbEntity
  8
0
  6
BYBLOCK
 62
     0
100
AcDbLine
 10
14.23833
 20
32.970675
 30
0.0
 11
14.23833
 21
32.910675
 31
0.0
  0
SOLID
  5
1DFA0
100
AcDbEntity
  8
0
  6
BYBLOCK
 62
     0
100
AcDbTrace
 10
14.154996
 20
33.470675
 30
0.0
 11
14.321663
 21
33.470675
 31
0.0
 12
14.23833
 22
32.970675
 32
0.0
 13
14.23833
 23
32.970675
 33
0.0
  0
SOLID
  5
1DFA1
100
AcDbEntity
  8
0
  6
BYBLOCK
 62
     0
100
AcDbTrace
 10
14.154996
 20
32.410675
 30
0.0
 11
14.321663
 21
32.410675
 31
0.0
 12
14.23833
 22
32.910675
 32
0.0
 13
14.23833
 23
32.910675
 33
0.0
  0
MTEXT
  5
1DFA2
100
AcDbEntity
  8
0
  6
BYBLOCK
 62
     0
100
AcDbMText
 10
13.83833
 20
31.094008
 30
0.0
 40
0.5
 41
0.0
 71
     5
 72
     1
  1
\A1;0.06
 11
0.0
 21
1.0
 31
0.0
  0
POINT
  5
1DFA3
100
AcDbEntity
  8
DEFPOINTS
  6
BYBLOCK
 62
     0
100
AcDbPoint
 10
10.259424
 20
32.970675
 30
0.0
  0
POINT
  5
1DFA4
100
AcDbEntity
  8
DEFPOINTS
  6
BYBLOCK
 62
     0
100
AcDbPoint
 10
10.195916
 20
32.910675
 30
0.0
  0
POINT
  5
1DFA5
100
AcDbEntity
  8
DEFPOINTS
  6
BYBLOCK
 62
     0
100
AcDbPoint
 10
14.23833
 20
32.910675
 30
0.0
  0
ENDBLK
  5
1DFA6
100
AcDbEntity
  8
0
100
AcDbBlockEnd
  0
BLOCK
  5
1DFA8
100
AcDbEntity
  8
0
100
AcDbBlockBegin
  2
*D46
 70
     1
 10
0.0
 20
0.0
 30
0.0
  3
*D46
  1

  0
LINE
  5
1DFA9
100
AcDbEntity
  8
0
  6
BYBLOCK
 62
     0
100
AcDbLine
 10
14.38833
 20
39.060675
 30
0.0
 11
15.88833
 21
39.060675
 31
0.0
  0
LINE
  5
1DFAA
100
AcDbEntity
  8
0
  6
BYBLOCK
 62
     0
100
AcDbLine
 10
10.345916
 20
32.910675
 30
0.0
 11
15.88833
 21
32.910675
 31
0.0
  0
LINE
  5
1DFAB
100
AcDbEntity
  8
0
  6
BYBLOCK
 62
     0
100
AcDbLine
 10
15.73833
 20
38.560675
 30
0.0
 11
15.73833
 21
33.410675
 31
0.0
  0
SOLID
  5
1DFAC
100
AcDbEntity
  8
0
  6
BYBLOCK
 62
     0
100
AcDbTrace
 10
15.654996
 20
38.560675
 30
0.0
 11
15.821663
 21
38.560675
 31
0.0
 12
15.73833
 22
39.060675
 32
0.0
 13
15.73833
 23
39.060675
 33
0.0
  0
SOLID
  5
1DFAD
100
AcDbEntity
  8
0
  6
BYBLOCK
 62
     0
100
AcDbTrace
 10
15.654996
 20
33.410675
 30
0.0
 11
15.821663
 21
33.410675
 31
0.0
 12
15.73833
 22
32.910675
 32
0.0
 13
15.73833
 23
32.910675
 33
0.0
  0
MTEXT
  5
1DFAE
100
AcDbEntity
  8
0
  6
BYBLOCK
 62
     0
100
AcDbMText
 10
15.33833
 20
35.985675
 30
0.0
 40
0.5
 41
0.0
 71
     5
 72
     1
  1
\A1;6.15
 11
0.0
 21
1.0
 31
0.0
  0
POINT
  5
1DFAF
100
AcDbEntity
  8
DEFPOINTS
  6
BYBLOCK
 62
     0
100
AcDbPoint
 10
14.23833
 20
39.060675
 30
0.0
  0
POINT
  5
1DFB0
100
AcDbEntity
  8
DEFPOINTS
  6
BYBLOCK
 62
     0
100
AcDbPoint
 10
10.195916
 20
32.910675
 30
0.0
  0
POINT
  5
1DFB1
100
AcDbEntity
  8
DEFPOINTS
  6
BYBLOCK
 62
     0
100
AcDbPoint
 10
15.73833
 20
32.910675
 30
0.0
  0
ENDBLK
  5
1DFB2
100
AcDbEntity
  8
0
100
AcDbBlockEnd
  0
BLOCK
  5
1DFB4
100
AcDbEntity
  8
0
100
AcDbBlockBegin
  2
*D47
 70
     1
 10
0.0
 20
0.0
 30
0.0
  3
*D47
  1

  0
LINE
  5
1DFB5
100
AcDbEntity
  8
0
  6
BYBLOCK
 62
     0
100
AcDbLine
 10
9.447082
 20
30.291776
 30
0.0
 11
10.144567
 21
32.917379
 31
0.0
  0
MTEXT
  5
1DFB6
100
AcDbEntity
  8
0
  6
BYBLOCK
 62
     0
100
AcDbMText
 10
9.280861
 20
31.224035
 30
0.0
 40
0.5
 41
0.0
 71
     5
 72
     1
  1
\A1;R0.2
 11
0.256743
 21
0.96648
 31
0.0
  0
LINE
  5
1DFB7
100
AcDbEntity
  8
0
  6
BYBLOCK
 62
     0
100
AcDbLine
 10
10.195916
 20
33.110675
 30
0.0
 11
10.144567
 21
32.917379
 31
0.0
  0
SOLID
  5
1DFB8
100
AcDbEntity
  8
0
  6
BYBLOCK
 62
     0
100
AcDbTrace
 10
9.935656
 20
32.455534
 30
0.0
 11
10.096736
 21
32.412744
 31
0.0
 12
10.144567
 22
32.917379
 32
0.0
 13
10.144567
 23
32.917379
 33
0.0
  0
POINT
  5
1DFB9
100
AcDbEntity
  8
DEFPOINTS
  6
BYBLOCK
 62
     0
100
AcDbPoint
 10
10.144567
 20
32.917379
 30
0.0
  0
POINT
  5
1DFBA
100
AcDbEntity
  8
DEFPOINTS
  6
BYBLOCK
 62
     0
100
AcDbPoint
 10
10.195916
 20
33.110675
 30
0.0
  0
ENDBLK
  5
1DFBB
100
AcDbEntity
  8
0
100
AcDbBlockEnd
  0
BLOCK
  5
1DFBD
100
AcDbEntity
  8
0
100
AcDbBlockBegin
  2
*D48
 70
     1
 10
0.0
 20
0.0
 30
0.0
  3
*D48
  1

  0
LINE
  5
1DFBE
100
AcDbEntity
  8
0
  6
BYBLOCK
 62
     0
100
AcDbLine
 10
26.404121
 20
36.034001
 30
0.0
 11
27.225236
 21
37.123658
 31
0.0
  0
ARC
  5
1DFBF
100
AcDbEntity
  8
0
  6
BYBLOCK
 62
     0
100
AcDbCircle
 10
26.012941
 20
35.514888
 30
0.0
 40
1.864398
100
AcDbArc
 50
37.587816
 51
53.0
  0
LINE
  5
1DFC0
100
AcDbEntity
  8
0
  6
BYBLOCK
 62
     0
100
AcDbLine
 10
27.490326
 20
36.652127
 30
0.0
 11
29.020351
 21
34.664475
 31
0.0
  0
ARC
  5
1DFC1
100
AcDbEntity
  8
0
  6
BYBLOCK
 62
     0
100
AcDbCircle
 10
26.012941
 20
35.514888
 30
0.0
 40
1.864398
100
AcDbArc
 50
68.412184
 51
74.587816
  0
SOLID
  5
1DFC2
100
AcDbEntity
  8
0
  6
BYBLOCK
 62
     0
100
AcDbTrace
 10
26.739677
 20
37.321184
 30
0.0
 11
26.658129
 21
37.175831
 31
0.0
 12
27.134963
 22
37.003862
 32
0.0
 13
27.134963
 23
37.003862
 33
0.0
  0
SOLID
  5
1DFC3
100
AcDbEntity
  8
0
  6
BYBLOCK
 62
     0
100
AcDbTrace
 10
26.497251
 20
37.229659
 30
0.0
 11
26.5196
 21
37.394821
 31
0.0
 12
26.012941
 22
37.379286
 32
0.0
 13
26.012941
 23
37.379286
 33
0.0
  0
MTEXT
  5
1DFC4
100
AcDbEntity
  8
0
  6
BYBLOCK
 62
     0
100
AcDbMText
 10
28.572306
 20
35.902292
 30
0.0
 40
0.5
 41
0.0
 71
     5
 72
     1
  1
\A1;37°{\H0.250000;±0.5°}
 11
0.609977
 21
-0.792419
 31
0.0
  0
POINT
  5
1DFC5
100
AcDbEntity
  8
DEFPOINTS
  6
BYBLOCK
 62
     0
100
AcDbPoint
 10
26.411174
 20
37.336258
 30
0.0
  0
POINT
  5
1DFC6
100
AcDbEntity
  8
DEFPOINTS
  6
BYBLOCK
 62
     0
100
AcDbPoint
 10
23.760071
 20
32.525228
 30
0.0
  0
POINT
  5
1DFC7
100
AcDbEntity
  8
DEFPOINTS
  6
BYBLOCK
 62
     0
100
AcDbPoint
 10
26.012941
 20
35.514888
 30
0.0
  0
POINT
  5
1DFC8
100
AcDbEntity
  8
DEFPOINTS
  6
BYBLOCK
 62
     0
100
AcDbPoint
 10
26.012941
 20
42.606462
 30
0.0
  0
POINT
  5
1DFC9
100
AcDbEntity
  8
DEFPOINTS
  6
BYBLOCK
 62
     0
100
AcDbPoint
 10
26.313848
 20
35.914206
 30
0.0
  0
ENDBLK
  5
1DFCA
100
AcDbEntity
  8
0
100
AcDbBlockEnd
  0
BLOCK
  5
1DFCC
100
AcDbEntity
  8
0
100
AcDbBlockBegin
  2
*D49
 70
     1
 10
0.0
 20
0.0
 30
0.0
  3
*D49
  1

  0
LINE
  5
1DFCD
100
AcDbEntity
  8
0
  6
BYBLOCK
 62
     0
100
AcDbLine
 10
33.364609
 20
9.907262
 30
0.0
 11
33.364609
 21
8.05774
 31
0.0
  0
LINE
  5
1DFCE
100
AcDbEntity
  8
0
  6
BYBLOCK
 62
     0
100
AcDbLine
 10
34.564609
 20
9.907262
 30
0.0
 11
34.564609
 21
8.05774
 31
0.0
  0
LINE
  5
1DFCF
100
AcDbEntity
  8
0
  6
BYBLOCK
 62
     0
100
AcDbLine
 10
32.864609
 20
8.35774
 30
0.0
 11
32.364609
 21
8.35774
 31
0.0
  0
LINE
  5
1DFD0
100
AcDbEntity
  8
0
  6
BYBLOCK
 62
     0
100
AcDbLine
 10
35.064609
 20
8.35774
 30
0.0
 11
37.247942
 21
8.35774
 31
0.0
  0
LINE
  5
1DFD1
100
AcDbEntity
  8
0
  6
BYBLOCK
 62
     0
100
AcDbLine
 10
33.364609
 20
8.35774
 30
0.0
 11
34.564609
 21
8.35774
 31
0.0
  0
SOLID
  5
1DFD2
100
AcDbEntity
  8
0
  6
BYBLOCK
 62
     0
100
AcDbTrace
 10
32.864609
 20
8.441074
 30
0.0
 11
32.864609
 21
8.274407
 31
0.0
 12
33.364609
 22
8.35774
 32
0.0
 13
33.364609
 23
8.35774
 33
0.0
  0
SOLID
  5
1DFD3
100
AcDbEntity
  8
0
  6
BYBLOCK
 62
     0
100
AcDbTrace
 10
35.064609
 20
8.441074
 30
0.0
 11
35.064609
 21
8.274407
 31
0.0
 12
34.564609
 22
8.35774
 32
0.0
 13
34.564609
 23
8.35774
 33
0.0
  0
MTEXT
  5
1DFD4
100
AcDbEntity
  8
0
  6
BYBLOCK
 62
     0
100
AcDbMText
 10
36.406276
 20
8.98274
 30
0.0
 40
0.65
 41
0.0
 71
     5
 72
     1
  1
\A1;1.2
  0
POINT
  5
1DFD5
100
AcDbEntity
  8
DEFPOINTS
  6
BYBLOCK
 62
     0
100
AcDbPoint
 10
33.364609
 20
10.207262
 30
0.0
  0
POINT
  5
1DFD6
100
AcDbEntity
  8
DEFPOINTS
  6
BYBLOCK
 62
     0
100
AcDbPoint
 10
34.564609
 20
10.207262
 30
0.0
  0
POINT
  5
1DFD7
100
AcDbEntity
  8
DEFPOINTS
  6
BYBLOCK
 62
     0
100
AcDbPoint
 10
34.564609
 20
8.35774
 30
0.0
  0
ENDBLK
  5
1DFD8
100
AcDbEntity
  8
0
100
AcDbBlockEnd
  0
BLOCK
  5
1DFDA
100
AcDbEntity
  8
0
100
AcDbBlockBegin
  2
*D50
 70
     1
 10
0.0
 20
0.0
 30
0.0
  3
*D50
  1

  0
LINE
  5
1DFDB
100
AcDbEntity
  8
0
  6
BYBLOCK
 62
     0
100
AcDbLine
 10
24.397876
 20
10.207262
 30
0.0
 11
25.974668
 21
10.207262
 31
0.0
  0
LINE
  5
1DFDC
100
AcDbEntity
  8
0
  6
BYBLOCK
 62
     0
100
AcDbLine
 10
24.397876
 20
13.207262
 30
0.0
 11
25.974668
 21
13.207262
 31
0.0
  0
LINE
  5
1DFDD
100
AcDbEntity
  8
0
  6
BYBLOCK
 62
     0
100
AcDbLine
 10
25.674668
 20
10.707262
 30
0.0
 11
25.674668
 21
12.707262
 31
0.0
  0
SOLID
  5
1DFDE
100
AcDbEntity
  8
0
  6
BYBLOCK
 62
     0
100
AcDbTrace
 10
25.591334
 20
10.707262
 30
0.0
 11
25.758001
 21
10.707262
 31
0.0
 12
25.674668
 22
10.207262
 32
0.0
 13
25.674668
 23
10.207262
 33
0.0
  0
SOLID
  5
1DFDF
100
AcDbEntity
  8
0
  6
BYBLOCK
 62
     0
100
AcDbTrace
 10
25.591334
 20
12.707262
 30
0.0
 11
25.758001
 21
12.707262
 31
0.0
 12
25.674668
 22
13.207262
 32
0.0
 13
25.674668
 23
13.207262
 33
0.0
  0
MTEXT
  5
1DFE0
100
AcDbEntity
  8
0
  6
BYBLOCK
 62
     0
100
AcDbMText
 10
25.049668
 20
11.707262
 30
0.0
 40
0.65
 41
0.0
 71
     5
 72
     1
  1
\A1;3
 11
0.0
 21
1.0
 31
0.0
  0
POINT
  5
1DFE1
100
AcDbEntity
  8
DEFPOINTS
  6
BYBLOCK
 62
     0
100
AcDbPoint
 10
24.097876
 20
10.207262
 30
0.0
  0
POINT
  5
1DFE2
100
AcDbEntity
  8
DEFPOINTS
  6
BYBLOCK
 62
     0
100
AcDbPoint
 10
24.097876
 20
13.207262
 30
0.0
  0
POINT
  5
1DFE3
100
AcDbEntity
  8
DEFPOINTS
  6
BYBLOCK
 62
     0
100
AcDbPoint
 10
25.674668
 20
13.207262
 30
0.0
  0
ENDBLK
  5
1DFE4
100
AcDbEntity
  8
0
100
AcDbBlockEnd
  0
BLOCK
  5
1DFE6
100
AcDbEntity
  8
0
100
AcDbBlockBegin
  2
*D51
 70
     1
 10
0.0
 20
0.0
 30
0.0
  3
*D51
  1

  0
LINE
  5
1DFE7
100
AcDbEntity
  8
0
  6
BYBLOCK
 62
     0
100
AcDbLine
 10
30.364609
 20
10.207262
 30
0.0
 11
31.9414
 21
10.207262
 31
0.0
  0
LINE
  5
1DFE8
100
AcDbEntity
  8
0
  6
BYBLOCK
 62
     0
100
AcDbLine
 10
30.364609
 20
13.207262
 30
0.0
 11
31.9414
 21
13.207262
 31
0.0
  0
LINE
  5
1DFE9
100
AcDbEntity
  8
0
  6
BYBLOCK
 62
     0
100
AcDbLine
 10
31.6414
 20
10.707262
 30
0.0
 11
31.6414
 21
12.707262
 31
0.0
  0
SOLID
  5
1DFEA
100
AcDbEntity
  8
0
  6
BYBLOCK
 62
     0
100
AcDbTrace
 10
31.558067
 20
10.707262
 30
0.0
 11
31.724734
 21
10.707262
 31
0.0
 12
31.6414
 22
10.207262
 32
0.0
 13
31.6414
 23
10.207262
 33
0.0
  0
SOLID
  5
1DFEB
100
AcDbEntity
  8
0
  6
BYBLOCK
 62
     0
100
AcDbTrace
 10
31.558067
 20
12.707262
 30
0.0
 11
31.724734
 21
12.707262
 31
0.0
 12
31.6414
 22
13.207262
 32
0.0
 13
31.6414
 23
13.207262
 33
0.0
  0
MTEXT
  5
1DFEC
100
AcDbEntity
  8
0
  6
BYBLOCK
 62
     0
100
AcDbMText
 10
31.0164
 20
11.707262
 30
0.0
 40
0.65
 41
0.0
 71
     5
 72
     1
  1
\A1;3
 11
0.0
 21
1.0
 31
0.0
  0
POINT
  5
1DFED
100
AcDbEntity
  8
DEFPOINTS
  6
BYBLOCK
 62
     0
100
AcDbPoint
 10
30.064609
 20
10.207262
 30
0.0
  0
POINT
  5
1DFEE
100
AcDbEntity
  8
DEFPOINTS
  6
BYBLOCK
 62
     0
100
AcDbPoint
 10
30.064609
 20
13.207262
 30
0.0
  0
POINT
  5
1DFEF
100
AcDbEntity
  8
DEFPOINTS
  6
BYBLOCK
 62
     0
100
AcDbPoint
 10
31.6414
 20
13.207262
 30
0.0
  0
ENDBLK
  5
1DFF0
100
AcDbEntity
  8
0
100
AcDbBlockEnd
  0
BLOCK
  5
1DFF2
100
AcDbEntity
  8
0
100
AcDbBlockBegin
  2
*D52
 70
     1
 10
0.0
 20
0.0
 30
0.0
  3
*D52
  1

  0
LINE
  5
1DFF3
100
AcDbEntity
  8
0
  6
BYBLOCK
 62
     0
100
AcDbLine
 10
24.097876
 20
9.907262
 30
0.0
 11
24.097876
 21
8.05774
 31
0.0
  0
LINE
  5
1DFF4
100
AcDbEntity
  8
0
  6
BYBLOCK
 62
     0
100
AcDbLine
 10
22.897876
 20
9.907262
 30
0.0
 11
22.897876
 21
8.05774
 31
0.0
  0
LINE
  5
1DFF5
100
AcDbEntity
  8
0
  6
BYBLOCK
 62
     0
100
AcDbLine
 10
24.597876
 20
8.35774
 30
0.0
 11
25.097876
 21
8.35774
 31
0.0
  0
LINE
  5
1DFF6
100
AcDbEntity
  8
0
  6
BYBLOCK
 62
     0
100
AcDbLine
 10
22.397876
 20
8.35774
 30
0.0
 11
20.214543
 21
8.35774
 31
0.0
  0
LINE
  5
1DFF7
100
AcDbEntity
  8
0
  6
BYBLOCK
 62
     0
100
AcDbLine
 10
24.097876
 20
8.35774
 30
0.0
 11
22.897876
 21
8.35774
 31
0.0
  0
SOLID
  5
1DFF8
100
AcDbEntity
  8
0
  6
BYBLOCK
 62
     0
100
AcDbTrace
 10
24.597876
 20
8.441074
 30
0.0
 11
24.597876
 21
8.274407
 31
0.0
 12
24.097876
 22
8.35774
 32
0.0
 13
24.097876
 23
8.35774
 33
0.0
  0
SOLID
  5
1DFF9
100
AcDbEntity
  8
0
  6
BYBLOCK
 62
     0
100
AcDbTrace
 10
22.397876
 20
8.441074
 30
0.0
 11
22.397876
 21
8.274407
 31
0.0
 12
22.897876
 22
8.35774
 32
0.0
 13
22.897876
 23
8.35774
 33
0.0
  0
MTEXT
  5
1DFFA
100
AcDbEntity
  8
0
  6
BYBLOCK
 62
     0
100
AcDbMText
 10
21.05621
 20
8.98274
 30
0.0
 40
0.65
 41
0.0
 71
     5
 72
     1
  1
\A1;1.2
  0
POINT
  5
1DFFB
100
AcDbEntity
  8
DEFPOINTS
  6
BYBLOCK
 62
     0
100
AcDbPoint
 10
24.097876
 20
10.207262
 30
0.0
  0
POINT
  5
1DFFC
100
AcDbEntity
  8
DEFPOINTS
  6
BYBLOCK
 62
     0
100
AcDbPoint
 10
22.897876
 20
10.207262
 30
0.0
  0
POINT
  5
1DFFD
100
AcDbEntity
  8
DEFPOINTS
  6
BYBLOCK
 62
     0
100
AcDbPoint
 10
22.897876
 20
8.35774
 30
0.0
  0
ENDBLK
  5
1DFFE
100
AcDbEntity
  8
0
100
AcDbBlockEnd
  0
BLOCK
  5
1E000
100
AcDbEntity
  8
0
100
AcDbBlockBegin
  2
*D53
 70
     1
 10
0.0
 20
0.0
 30
0.0
  3
*D53
  1

  0
LINE
  5
1E001
100
AcDbEntity
  8
0
  6
BYBLOCK
 62
     0
100
AcDbLine
 10
30.064609
 20
9.907262
 30
0.0
 11
30.064609
 21
8.05774
 31
0.0
  0
LINE
  5
1E002
100
AcDbEntity
  8
0
  6
BYBLOCK
 62
     0
100
AcDbLine
 10
28.864609
 20
9.907262
 30
0.0
 11
28.864609
 21
8.05774
 31
0.0
  0
LINE
  5
1E003
100
AcDbEntity
  8
0
  6
BYBLOCK
 62
     0
100
AcDbLine
 10
30.564609
 20
8.35774
 30
0.0
 11
31.064609
 21
8.35774
 31
0.0
  0
LINE
  5
1E004
100
AcDbEntity
  8
0
  6
BYBLOCK
 62
     0
100
AcDbLine
 10
28.364609
 20
8.35774
 30
0.0
 11
26.181276
 21
8.35774
 31
0.0
  0
LINE
  5
1E005
100
AcDbEntity
  8
0
  6
BYBLOCK
 62
     0
100
AcDbLine
 10
30.064609
 20
8.35774
 30
0.0
 11
28.864609
 21
8.35774
 31
0.0
  0
SOLID
  5
1E006
100
AcDbEntity
  8
0
  6
BYBLOCK
 62
     0
100
AcDbTrace
 10
30.564609
 20
8.441074
 30
0.0
 11
30.564609
 21
8.274407
 31
0.0
 12
30.064609
 22
8.35774
 32
0.0
 13
30.064609
 23
8.35774
 33
0.0
  0
SOLID
  5
1E007
100
AcDbEntity
  8
0
  6
BYBLOCK
 62
     0
100
AcDbTrace
 10
28.364609
 20
8.441074
 30
0.0
 11
28.364609
 21
8.274407
 31
0.0
 12
28.864609
 22
8.35774
 32
0.0
 13
28.864609
 23
8.35774
 33
0.0
  0
MTEXT
  5
1E008
100
AcDbEntity
  8
0
  6
BYBLOCK
 62
     0
100
AcDbMText
 10
27.022942
 20
8.98274
 30
0.0
 40
0.65
 41
0.0
 71
     5
 72
     1
  1
\A1;1.2
  0
POINT
  5
1E009
100
AcDbEntity
  8
DEFPOINTS
  6
BYBLOCK
 62
     0
100
AcDbPoint
 10
30.064609
 20
10.207262
 30
0.0
  0
POINT
  5
1E00A
100
AcDbEntity
  8
DEFPOINTS
  6
BYBLOCK
 62
     0
100
AcDbPoint
 10
28.864609
 20
10.207262
 30
0.0
  0
POINT
  5
1E00B
100
AcDbEntity
  8
DEFPOINTS
  6
BYBLOCK
 62
     0
100
AcDbPoint
 10
28.864609
 20
8.35774
 30
0.0
  0
ENDBLK
  5
1E00C
100
AcDbEntity
  8
0
100
AcDbBlockEnd
  0
BLOCK
  5
1E00E
100
AcDbEntity
  8
0
100
AcDbBlockBegin
  2
*D54
 70
     1
 10
0.0
 20
0.0
 30
0.0
  3
*D54
  1

  0
LINE
  5
1E00F
100
AcDbEntity
  8
0
  6
BYBLOCK
 62
     0
100
AcDbLine
 10
34.864609
 20
10.207262
 30
0.0
 11
36.525224
 21
10.207262
 31
0.0
  0
LINE
  5
1E010
100
AcDbEntity
  8
0
  6
BYBLOCK
 62
     0
100
AcDbLine
 10
34.864609
 20
13.707262
 30
0.0
 11
36.525224
 21
13.707262
 31
0.0
  0
LINE
  5
1E011
100
AcDbEntity
  8
0
  6
BYBLOCK
 62
     0
100
AcDbLine
 10
36.225224
 20
10.707262
 30
0.0
 11
36.225224
 21
13.207262
 31
0.0
  0
SOLID
  5
1E012
100
AcDbEntity
  8
0
  6
BYBLOCK
 62
     0
100
AcDbTrace
 10
36.14189
 20
10.707262
 30
0.0
 11
36.308557
 21
10.707262
 31
0.0
 12
36.225224
 22
10.207262
 32
0.0
 13
36.225224
 23
10.207262
 33
0.0
  0
SOLID
  5
1E013
100
AcDbEntity
  8
0
  6
BYBLOCK
 62
     0
100
AcDbTrace
 10
36.14189
 20
13.207262
 30
0.0
 11
36.308557
 21
13.207262
 31
0.0
 12
36.225224
 22
13.707262
 32
0.0
 13
36.225224
 23
13.707262
 33
0.0
  0
MTEXT
  5
1E014
100
AcDbEntity
  8
0
  6
BYBLOCK
 62
     0
100
AcDbMText
 10
35.600224
 20
11.957262
 30
0.0
 40
0.65
 41
0.0
 71
     5
 72
     1
  1
\A1;3.5
 11
0.0
 21
1.0
 31
0.0
  0
POINT
  5
1E015
100
AcDbEntity
  8
DEFPOINTS
  6
BYBLOCK
 62
     0
100
AcDbPoint
 10
34.564609
 20
10.207262
 30
0.0
  0
POINT
  5
1E016
100
AcDbEntity
  8
DEFPOINTS
  6
BYBLOCK
 62
     0
100
AcDbPoint
 10
34.564609
 20
13.707262
 30
0.0
  0
POINT
  5
1E017
100
AcDbEntity
  8
DEFPOINTS
  6
BYBLOCK
 62
     0
100
AcDbPoint
 10
36.225224
 20
13.707262
 30
0.0
  0
ENDBLK
  5
1E018
100
AcDbEntity
  8
0
100
AcDbBlockEnd
  0
BLOCK
  5
1E080
100
AcDbEntity
  8
0
100
AcDbBlockBegin
  2
*D55
 70
     1
 10
0.0
 20
0.0
 30
0.0
  3
*D55
  1

  0
LINE
  5
1E081
100
AcDbEntity
  8
0
  6
BYBLOCK
 62
     0
100
AcDbLine
 10
8.195916
 20
28.946573
 30
0.0
 11
9.977933
 21
27.917725
 31
0.0
  0
LINE
  5
1E082
100
AcDbEntity
  8
0
  6
BYBLOCK
 62
     0
100
AcDbLine
 10
8.213733
 20
28.995526
 30
0.0
 11
10.240168
 21
28.638211
 31
0.0
  0
ARC
  5
1E083
100
AcDbEntity
  8
0
  6
BYBLOCK
 62
     0
100
AcDbCircle
 10
8.066012
 20
29.021573
 30
0.0
 40
2.057696
100
AcDbArc
 50
301.87381
 51
330.0
  0
LINE
  5
1E084
100
AcDbEntity
  8
0
  6
BYBLOCK
 62
     0
100
AcDbLine
 10
9.152579
 20
27.274151
 30
0.0
 11
7.977834
 21
26.543682
 31
0.0
  0
ARC
  5
1E085
100
AcDbEntity
  8
0
  6
BYBLOCK
 62
     0
100
AcDbCircle
 10
8.066012
 20
29.021573
 30
0.0
 40
2.057696
100
AcDbArc
 50
302.086406
 51
316.043203
  0
ARC
  5
1E086
100
AcDbEntity
  8
0
  6
BYBLOCK
 62
     0
100
AcDbCircle
 10
8.066012
 20
29.021573
 30
0.0
 40
2.057696
100
AcDbArc
 50
3.956797
 51
17.913594
  0
ARC
  5
1E087
100
AcDbEntity
  8
0
  6
BYBLOCK
 62
     0
100
AcDbCircle
 10
8.066012
 20
29.021573
 30
0.0
 40
2.057696
100
AcDbArc
 50
330.0
 51
350.0
  0
SOLID
  5
1E088
100
AcDbEntity
  8
0
  6
BYBLOCK
 62
     0
100
AcDbTrace
 10
9.4807
 20
27.64342
 30
0.0
 11
9.613844
 21
27.543168
 31
0.0
 12
9.848029
 22
27.992725
 32
0.0
 13
9.848029
 23
27.992725
 33
0.0
  0
SOLID
  5
1E089
100
AcDbEntity
  8
0
  6
BYBLOCK
 62
     0
100
AcDbTrace
 10
10.20202
 20
29.15917
 30
0.0
 11
10.035585
 21
29.167956
 31
0.0
 12
10.092447
 22
28.664258
 32
0.0
 13
10.092447
 23
28.664258
 33
0.0
  0
MTEXT
  5
1E08A
100
AcDbEntity
  8
0
  6
BYBLOCK
 62
     0
100
AcDbMText
 10
8.353986
 20
27.248602
 30
0.0
 40
0.5
 41
0.0
 71
     5
 72
     1
  1
\A1;20°
 11
0.849213
 21
0.52805
 31
0.0
  0
POINT
  5
1E08B
100
AcDbEntity
  8
DEFPOINTS
  6
BYBLOCK
 62
     0
100
AcDbPoint
 10
10.037263
 20
28.43142
 30
0.0
  0
POINT
  5
1E08C
100
AcDbEntity
  8
DEFPOINTS
  6
BYBLOCK
 62
     0
100
AcDbPoint
 10
5.316381
 20
30.609073
 30
0.0
  0
POINT
  5
1E08D
100
AcDbEntity
  8
DEFPOINTS
  6
BYBLOCK
 62
     0
100
AcDbPoint
 10
7.325679
 20
29.152114
 30
0.0
  0
POINT
  5
1E08E
100
AcDbEntity
  8
DEFPOINTS
  6
BYBLOCK
 62
     0
100
AcDbPoint
 10
8.066012
 20
29.021573
 30
0.0
  0
POINT
  5
1E08F
100
AcDbEntity
  8
DEFPOINTS
  6
BYBLOCK
 62
     0
100
AcDbPoint
 10
8.066012
 20
29.021573
 30
0.0
  0
ENDBLK
  5
1E090
100
AcDbEntity
  8
0
100
AcDbBlockEnd
  0
ENDSEC
  0
SECTION
  2
ENTITIES
  0
TEXT
  5
7D5D
100
AcDbEntity
  8
TEXT
100
AcDbText
 10
7.287594
 20
0.5
 30
0.0
 40
0.6
  1
07,03,26
  7
STYLE1
100
AcDbText
  0
TEXT
  5
7D5E
100
AcDbEntity
  8
TEXT
100
AcDbText
 10
8.2
 20
1.7
 30
0.0
 40
0.6
  1
5:1
  7
STYLE1
100
AcDbText
  0
TEXT
  5
7D60
100
AcDbEntity
  8
TEXT
100
AcDbText
 10
14.5
 20
2.9
 30
0.0
 40
0.6
  1
V06006T1W06 -NC2071
  7
STYLE1
100
AcDbText
  0
LWPOLYLINE
  5
7D67
100
AcDbEntity
  8
TEXT
100
AcDbPolyline
 90
        4
 70
     1
 43
0.0
 10
0.4
 20
56.2
 10
38.4
 20
56.2
 10
38.4
 20
0.2
 10
0.4
 20
0.2
  0
LWPOLYLINE
  5
7D68
100
AcDbEntity
  8
0
100
AcDbPolyline
 90
        4
 70
     1
 43
0.0
 10
0.2
 20
56.4
 10
38.6
 20
56.4
 10
38.6
 20
0.0
 10
0.2
 20
0.0
  0
LINE
  5
7D69
100
AcDbEntity
  8
0
 62
     4
100
AcDbLine
 10
0.4
 20
1.4
 30
0.0
 11
24.8
 21
1.4
 31
0.0
  0
LINE
  5
7D6A
100
AcDbEntity
  8
0
 62
     4
100
AcDbLine
 10
0.4
 20
2.6
 30
0.0
 11
24.8
 21
2.6
 31
0.0
  0
LINE
  5
7D6B
100
AcDbEntity
  8
0
100
AcDbLine
 10
21.0
 20
1.4
 30
0.0
 11
21.0
 21
0.2
 31
0.0
  0
TEXT
  5
7D6C
100
AcDbEntity
  8
TEXT
100
AcDbText
 10
25.1
 20
1.7
 30
0.0
 40
0.6
  1
TEL:886-4-22707722 FAX:22789766
  7
STYLE1
100
AcDbText
  0
TEXT
  5
7D6D
100
AcDbEntity
  8
TEXT
100
AcDbText
 10
25.1
 20
2.7
 30
0.0
 40
0.9
  1
Nine-9 Cutting Tools
  7
STYLE1
100
AcDbText
  0
TEXT
  5
7D6E
100
AcDbEntity
  8
TEXT
100
AcDbText
 10
25.1
 20
0.5
 30
0.0
 40
0.6
  1
E-mail:n9n9@ms16.hinet.net
  7
STYLE1
100
AcDbText
  0
LINE
  5
7D6F
100
AcDbEntity
  8
0
100
AcDbLine
 10
24.8
 20
0.2
 30
0.0
 11
24.8
 21
3.8
 31
0.0
  0
LINE
  5
7D70
100
AcDbEntity
  8
0
100
AcDbLine
 10
0.4
 20
3.8
 30
0.0
 11
38.4
 21
3.8
 31
0.0
  0
LINE
  5
7D71
100
AcDbEntity
  8
0
100
AcDbLine
 10
14.2
 20
0.2
 30
0.0
 11
14.2
 21
6.2
 31
0.0
  0
TEXT
  5
7D72
100
AcDbEntity
  8
TEXT
100
AcDbText
 10
11.0
 20
0.5
 30
0.0
 40
0.6
  1
DRAWN
  7
STYLE1
100
AcDbText
  0
TEXT
  5
7D73
100
AcDbEntity
  8
TEXT
100
AcDbText
 10
15.2
 20
0.5
 30
0.0
 40
0.6
  1
tony
  7
STYLE1
100
AcDbText
  0
TEXT
  5
7D74
100
AcDbEntity
  8
TEXT
100
AcDbText
 10
18.2
 20
0.5
 30
0.0
 40
0.6
  1
APPRD
  7
STYLE1
100
AcDbText
  0
LINE
  5
7D75
100
AcDbEntity
  8
0
100
AcDbLine
 10
18.0
 20
1.4
 30
0.0
 11
18.0
 21
0.2
 31
0.0
  0
LINE
  5
7D76
100
AcDbEntity
  8
0
 62
     4
100
AcDbLine
 10
0.4
 20
6.2
 30
0.0
 11
14.2
 21
6.2
 31
0.0
  0
LINE
  5
7D77
100
AcDbEntity
  8
0
 62
     4
100
AcDbLine
 10
0.4
 20
5.0
 30
0.0
 11
14.2
 21
5.0
 31
0.0
  0
TEXT
  5
7D78
100
AcDbEntity
  8
TEXT
100
AcDbText
 10
11.0
 20
1.7
 30
0.0
 40
0.6
  1
PROJECT
  7
STYLE1
100
AcDbText
  0
LINE
  5
7D79
100
AcDbEntity
  8
0
100
AcDbLine
 10
10.8
 20
6.2
 30
0.0
 11
10.8
 21
0.2
 31
0.0
  0
TEXT
  5
7D7A
100
AcDbEntity
  8
TEXT
100
AcDbText
 10
11.0
 20
2.9
 30
0.0
 40
0.6
  1
DWG.NO
  7
STYLE1
100
AcDbText
  0
TEXT
  5
7D7B
100
AcDbEntity
  8
TEXT
100
AcDbText
 10
8.5
 20
4.1
 30
0.0
 40
0.6
  1
APPRD
  7
STYLE1
100
AcDbText
  0
TEXT
  5
7D7C
100
AcDbEntity
  8
TEXT
100
AcDbText
 10
11.5
 20
4.1
 30
0.0
 40
0.6
  1
DATE
  7
STYLE1
100
AcDbText
  0
TEXT
  5
7D7D
100
AcDbEntity
  8
TEXT
100
AcDbText
 10
0.6
 20
2.9
 30
0.0
 40
0.6
  1
MATL
  7
STYLE1
100
AcDbText
  0
TEXT
  5
7D7E
100
AcDbEntity
  8
TEXT
100
AcDbText
 10
0.6
 20
4.1
 30
0.0
 40
0.6
  1
NO.
  7
STYLE1
100
AcDbText
  0
LINE
  5
7D7F
100
AcDbEntity
  8
0
100
AcDbLine
 10
4.8
 20
0.2
 30
0.0
 11
4.8
 21
2.6
 31
0.0
  0
LINE
  5
7D80
100
AcDbEntity
  8
0
100
AcDbLine
 10
7.2
 20
0.2
 30
0.0
 11
7.2
 21
2.6
 31
0.0
  0
LINE
  5
7D81
100
AcDbEntity
  8
0
100
AcDbLine
 10
2.4
 20
6.2
 30
0.0
 11
2.4
 21
0.2
 31
0.0
  0
TEXT
  5
7D82
100
AcDbEntity
  8
TEXT
100
AcDbText
 10
3.7
 20
4.1
 30
0.0
 40
0.6
  1
CHANGED
  7
STYLE1
100
AcDbText
  0
LINE
  5
7D83
100
AcDbEntity
  8
0
100
AcDbLine
 10
8.2
 20
3.8
 30
0.0
 11
8.2
 21
6.2
 31
0.0
  0
TEXT
  5
7D84
100
AcDbEntity
  8
TEXT
100
AcDbText
 10
0.6
 20
0.5
 30
0.0
 40
0.6
  1
UNIT
  7
STYLE1
100
AcDbText
  0
TEXT
  5
7D85
100
AcDbEntity
  8
TEXT
100
AcDbText
 10
0.6
 20
1.7
 30
0.0
 40
0.6
  1
QTY
  7
STYLE1
100
AcDbText
  0
TEXT
  5
7D86
100
AcDbEntity
  8
TEXT
100
AcDbText
 10
5.0
 20
1.7
 30
0.0
 40
0.6
  1
SCALE
  7
STYLE1
100
AcDbText
  0
TEXT
  5
7D87
100
AcDbEntity
  8
TEXT
100
AcDbText
 10
3.2
 20
0.5
 30
0.0
 40
0.6
  1
MM
  7
STYLE1
100
AcDbText
  0
TEXT
  5
7D88
100
AcDbEntity
  8
TEXT
100
AcDbText
 10
5.0
 20
0.5
 30
0.0
 40
0.6
  1
DATE
  7
STYLE1
100
AcDbText
  0
TEXT
  5
7F4B
100
AcDbEntity
  8
TEXT
100
AcDbText
 10
14.4
 20
1.7
 30
0.0
 40
0.6
  1
V06006T1W06 -NC2071
  7
STYLE1
100
AcDbText
  0
TEXT
  5
11637
100
AcDbEntity
  8
TEXT
100
AcDbText
 10
272.5
 20
8.5
 30
0.0
 40
3.0
  1

  7
STYLE1
100
AcDbText
  0
TEXT
  5
1279D
100
AcDbEntity
  8
TEXT
100
AcDbText
 10
272.5
 20
8.5
 30
0.0
 40
3.0
  1

  7
STYLE1
100
AcDbText
  0
TEXT
  5
127CB
100
AcDbEntity
  8
TEXT
100
AcDbText
 10
472.5
 20
8.5
 30
0.0
 40
3.0
  1

  7
STYLE1
100
AcDbText
  0
TEXT
  5
14E7D
100
AcDbEntity
  8
TEXT
100
AcDbText
 10
472.5
 20
8.5
 30
0.0
 40
3.0
  1

  7
STYLE1
100
AcDbText
  0
TEXT
  5
14E7E
100
AcDbEntity
  8
TEXT
100
AcDbText
 10
472.5
 20
8.5
 30
0.0
 40
3.0
  1

  7
STYLE1
100
AcDbText
  0
TEXT
  5
14E7F
100
AcDbEntity
  8
TEXT
100
AcDbText
 10
672.5
 20
8.5
 30
0.0
 40
3.0
  1

  7
STYLE1
100
AcDbText
  0
TEXT
  5
14E89
100
AcDbEntity
  8
TEXT
100
AcDbText
 10
672.5
 20
8.5
 30
0.0
 40
3.0
  1

  7
STYLE1
100
AcDbText
  0
TEXT
  5
14E8A
100
AcDbEntity
  8
TEXT
100
AcDbText
 10
672.5
 20
8.5
 30
0.0
 40
3.0
  1

  7
STYLE1
100
AcDbText
  0
TEXT
  5
14E8B
100
AcDbEntity
  8
TEXT
100
AcDbText
 10
872.5
 20
8.5
 30
0.0
 40
3.0
  1

  7
STYLE1
100
AcDbText
  0
TEXT
  5
14E90
100
AcDbEntity
  8
TEXT
100
AcDbText
 10
672.5
 20
8.5
 30
0.0
 40
3.0
  1

  7
STYLE1
100
AcDbText
  0
TEXT
  5
14E91
100
AcDbEntity
  8
TEXT
100
AcDbText
 10
672.5
 20
8.5
 30
0.0
 40
3.0
  1

  7
STYLE1
100
AcDbText
  0
TEXT
  5
14E92
100
AcDbEntity
  8
TEXT
100
AcDbText
 10
872.5
 20
8.5
 30
0.0
 40
3.0
  1

  7
STYLE1
100
AcDbText
  0
TEXT
  5
15A02
100
AcDbEntity
  8
TEXT
100
AcDbText
 10
472.5
 20
8.5
 30
0.0
 40
3.0
  1

  7
STYLE1
100
AcDbText
  0
TEXT
  5
15A03
100
AcDbEntity
  8
TEXT
100
AcDbText
 10
472.5
 20
8.5
 30
0.0
 40
3.0
  1

  7
STYLE1
100
AcDbText
  0
TEXT
  5
15A04
100
AcDbEntity
  8
TEXT
100
AcDbText
 10
672.5
 20
8.5
 30
0.0
 40
3.0
  1

  7
STYLE1
100
AcDbText
  0
TEXT
  5
15A0E
100
AcDbEntity
  8
TEXT
100
AcDbText
 10
672.5
 20
8.5
 30
0.0
 40
3.0
  1

  7
STYLE1
100
AcDbText
  0
TEXT
  5
15A0F
100
AcDbEntity
  8
TEXT
100
AcDbText
 10
672.5
 20
8.5
 30
0.0
 40
3.0
  1

  7
STYLE1
100
AcDbText
  0
TEXT
  5
15A10
100
AcDbEntity
  8
TEXT
100
AcDbText
 10
872.5
 20
8.5
 30
0.0
 40
3.0
  1

  7
STYLE1
100
AcDbText
  0
TEXT
  5
15A13
100
AcDbEntity
  8
TEXT
100
AcDbText
 10
672.5
 20
8.5
 30
0.0
 40
3.0
  1

  7
STYLE1
100
AcDbText
  0
TEXT
  5
15A14
100
AcDbEntity
  8
TEXT
100
AcDbText
 10
672.5
 20
8.5
 30
0.0
 40
3.0
  1

  7
STYLE1
100
AcDbText
  0
TEXT
  5
15A15
100
AcDbEntity
  8
TEXT
100
AcDbText
 10
872.5
 20
8.5
 30
0.0
 40
3.0
  1

  7
STYLE1
100
AcDbText
  0
TEXT
  5
1817D
100
AcDbEntity
  8
TEXT
100
AcDbText
 10
372.5
 20
8.5
 30
0.0
 40
3.0
  1

  7
STYLE1
100
AcDbText
  0
TEXT
  5
1817E
100
AcDbEntity
  8
TEXT
100
AcDbText
 10
372.5
 20
8.5
 30
0.0
 40
3.0
  1

  7
STYLE1
100
AcDbText
  0
TEXT
  5
1817F
100
AcDbEntity
  8
TEXT
100
AcDbText
 10
572.5
 20
8.5
 30
0.0
 40
3.0
  1

  7
STYLE1
100
AcDbText
  0
TEXT
  5
18180
100
AcDbEntity
  8
TEXT
100
AcDbText
 10
572.5
 20
8.5
 30
0.0
 40
3.0
  1

  7
STYLE1
100
AcDbText
  0
TEXT
  5
18181
100
AcDbEntity
  8
TEXT
100
AcDbText
 10
572.5
 20
8.5
 30
0.0
 40
3.0
  1

  7
STYLE1
100
AcDbText
  0
TEXT
  5
18182
100
AcDbEntity
  8
TEXT
100
AcDbText
 10
772.5
 20
8.5
 30
0.0
 40
3.0
  1

  7
STYLE1
100
AcDbText
  0
TEXT
  5
18183
100
AcDbEntity
  8
TEXT
100
AcDbText
 10
772.5
 20
8.5
 30
0.0
 40
3.0
  1

  7
STYLE1
100
AcDbText
  0
TEXT
  5
18184
100
AcDbEntity
  8
TEXT
100
AcDbText
 10
772.5
 20
8.5
 30
0.0
 40
3.0
  1

  7
STYLE1
100
AcDbText
  0
TEXT
  5
18185
100
AcDbEntity
  8
TEXT
100
AcDbText
 10
972.5
 20
8.5
 30
0.0
 40
3.0
  1

  7
STYLE1
100
AcDbText
  0
TEXT
  5
18186
100
AcDbEntity
  8
TEXT
100
AcDbText
 10
772.5
 20
8.5
 30
0.0
 40
3.0
  1

  7
STYLE1
100
AcDbText
  0
TEXT
  5
18187
100
AcDbEntity
  8
TEXT
100
AcDbText
 10
772.5
 20
8.5
 30
0.0
 40
3.0
  1

  7
STYLE1
100
AcDbText
  0
TEXT
  5
18188
100
AcDbEntity
  8
TEXT
100
AcDbText
 10
972.5
 20
8.5
 30
0.0
 40
3.0
  1

  7
STYLE1
100
AcDbText
  0
TEXT
  5
18189
100
AcDbEntity
  8
TEXT
100
AcDbText
 10
572.5
 20
8.5
 30
0.0
 40
3.0
  1

  7
STYLE1
100
AcDbText
  0
TEXT
  5
1818A
100
AcDbEntity
  8
TEXT
100
AcDbText
 10
572.5
 20
8.5
 30
0.0
 40
3.0
  1

  7
STYLE1
100
AcDbText
  0
TEXT
  5
1818B
100
AcDbEntity
  8
TEXT
100
AcDbText
 10
772.5
 20
8.5
 30
0.0
 40
3.0
  1

  7
STYLE1
100
AcDbText
  0
TEXT
  5
1818C
100
AcDbEntity
  8
TEXT
100
AcDbText
 10
772.5
 20
8.5
 30
0.0
 40
3.0
  1

  7
STYLE1
100
AcDbText
  0
TEXT
  5
1818D
100
AcDbEntity
  8
TEXT
100
AcDbText
 10
772.5
 20
8.5
 30
0.0
 40
3.0
  1

  7
STYLE1
100
AcDbText
  0
TEXT
  5
1818E
100
AcDbEntity
  8
TEXT
100
AcDbText
 10
972.5
 20
8.5
 30
0.0
 40
3.0
  1

  7
STYLE1
100
AcDbText
  0
TEXT
  5
1818F
100
AcDbEntity
  8
TEXT
100
AcDbText
 10
772.5
 20
8.5
 30
0.0
 40
3.0
  1

  7
STYLE1
100
AcDbText
  0
TEXT
  5
18190
100
AcDbEntity
  8
TEXT
100
AcDbText
 10
772.5
 20
8.5
 30
0.0
 40
3.0
  1

  7
STYLE1
100
AcDbText
  0
TEXT
  5
18191
100
AcDbEntity
  8
TEXT
100
AcDbText
 10
972.5
 20
8.5
 30
0.0
 40
3.0
  1

  7
STYLE1
100
AcDbText
  0
TEXT
  5
190DB
100
AcDbEntity
  8
TEXT
100
AcDbText
 10
202.250955
 20
88.800782
 30
0.0
 40
3.0
  1

  7
STYLE1
100
AcDbText
  0
TEXT
  5
19107
100
AcDbEntity
  8
TEXT
100
AcDbText
 10
402.250955
 20
88.800782
 30
0.0
 40
3.0
  1

  7
STYLE1
100
AcDbText
  0
TEXT
  5
19108
100
AcDbEntity
  8
TEXT
100
AcDbText
 10
402.250955
 20
88.800782
 30
0.0
 40
3.0
  1

  7
STYLE1
100
AcDbText
  0
TEXT
  5
19109
100
AcDbEntity
  8
TEXT
100
AcDbText
 10
602.250955
 20
88.800782
 30
0.0
 40
3.0
  1

  7
STYLE1
100
AcDbText
  0
TEXT
  5
1910A
100
AcDbEntity
  8
TEXT
100
AcDbText
 10
602.250955
 20
88.800782
 30
0.0
 40
3.0
  1

  7
STYLE1
100
AcDbText
  0
TEXT
  5
1910B
100
AcDbEntity
  8
TEXT
100
AcDbText
 10
802.250955
 20
88.800782
 30
0.0
 40
3.0
  1

  7
STYLE1
100
AcDbText
  0
TEXT
  5
1910C
100
AcDbEntity
  8
TEXT
100
AcDbText
 10
402.250955
 20
88.800782
 30
0.0
 40
3.0
  1

  7
STYLE1
100
AcDbText
  0
TEXT
  5
1910D
100
AcDbEntity
  8
TEXT
100
AcDbText
 10
602.250955
 20
88.800782
 30
0.0
 40
3.0
  1

  7
STYLE1
100
AcDbText
  0
TEXT
  5
1910E
100
AcDbEntity
  8
TEXT
100
AcDbText
 10
602.250955
 20
88.800782
 30
0.0
 40
3.0
  1

  7
STYLE1
100
AcDbText
  0
TEXT
  5
1910F
100
AcDbEntity
  8
TEXT
100
AcDbText
 10
802.250955
 20
88.800782
 30
0.0
 40
3.0
  1

  7
STYLE1
100
AcDbText
  0
TEXT
  5
19110
100
AcDbEntity
  8
TEXT
100
AcDbText
 10
402.250955
 20
88.800782
 30
0.0
 40
3.0
  1

  7
STYLE1
100
AcDbText
  0
TEXT
  5
19111
100
AcDbEntity
  8
TEXT
100
AcDbText
 10
602.250955
 20
88.800782
 30
0.0
 40
3.0
  1

  7
STYLE1
100
AcDbText
  0
TEXT
  5
19112
100
AcDbEntity
  8
TEXT
100
AcDbText
 10
602.250955
 20
88.800782
 30
0.0
 40
3.0
  1

  7
STYLE1
100
AcDbText
  0
TEXT
  5
19113
100
AcDbEntity
  8
TEXT
100
AcDbText
 10
802.250955
 20
88.800782
 30
0.0
 40
3.0
  1

  7
STYLE1
100
AcDbText
  0
TEXT
  5
19114
100
AcDbEntity
  8
TEXT
100
AcDbText
 10
802.250955
 20
88.800782
 30
0.0
 40
3.0
  1

  7
STYLE1
100
AcDbText
  0
TEXT
  5
19115
100
AcDbEntity
  8
TEXT
100
AcDbText
 10
1002.250955
 20
88.800782
 30
0.0
 40
3.0
  1

  7
STYLE1
100
AcDbText
  0
TEXT
  5
19116
100
AcDbEntity
  8
TEXT
100
AcDbText
 10
602.250955
 20
88.800782
 30
0.0
 40
3.0
  1

  7
STYLE1
100
AcDbText
  0
TEXT
  5
19117
100
AcDbEntity
  8
TEXT
100
AcDbText
 10
802.250955
 20
88.800782
 30
0.0
 40
3.0
  1

  7
STYLE1
100
AcDbText
  0
TEXT
  5
19118
100
AcDbEntity
  8
TEXT
100
AcDbText
 10
802.250955
 20
88.800782
 30
0.0
 40
3.0
  1

  7
STYLE1
100
AcDbText
  0
TEXT
  5
19119
100
AcDbEntity
  8
TEXT
100
AcDbText
 10
1002.250955
 20
88.800782
 30
0.0
 40
3.0
  1

  7
STYLE1
100
AcDbText
  0
TEXT
  5
1911A
100
AcDbEntity
  8
TEXT
100
AcDbText
 10
602.250955
 20
88.800782
 30
0.0
 40
3.0
  1

  7
STYLE1
100
AcDbText
  0
TEXT
  5
1911B
100
AcDbEntity
  8
TEXT
100
AcDbText
 10
802.250955
 20
88.800782
 30
0.0
 40
3.0
  1

  7
STYLE1
100
AcDbText
  0
TEXT
  5
1911C
100
AcDbEntity
  8
TEXT
100
AcDbText
 10
802.250955
 20
88.800782
 30
0.0
 40
3.0
  1

  7
STYLE1
100
AcDbText
  0
TEXT
  5
1911D
100
AcDbEntity
  8
TEXT
100
AcDbText
 10
1002.250955
 20
88.800782
 30
0.0
 40
3.0
  1

  7
STYLE1
100
AcDbText
  0
TEXT
  5
1911E
100
AcDbEntity
  8
TEXT
100
AcDbText
 10
1002.250955
 20
88.800782
 30
0.0
 40
3.0
  1

  7
STYLE1
100
AcDbText
  0
TEXT
  5
1911F
100
AcDbEntity
  8
TEXT
100
AcDbText
 10
1202.250955
 20
88.800782
 30
0.0
 40
3.0
  1

  7
STYLE1
100
AcDbText
  0
TEXT
  5
19120
100
AcDbEntity
  8
TEXT
100
AcDbText
 10
802.250955
 20
88.800782
 30
0.0
 40
3.0
  1

  7
STYLE1
100
AcDbText
  0
TEXT
  5
19121
100
AcDbEntity
  8
TEXT
100
AcDbText
 10
1002.250955
 20
88.800782
 30
0.0
 40
3.0
  1

  7
STYLE1
100
AcDbText
  0
TEXT
  5
19122
100
AcDbEntity
  8
TEXT
100
AcDbText
 10
1002.250955
 20
88.800782
 30
0.0
 40
3.0
  1

  7
STYLE1
100
AcDbText
  0
TEXT
  5
19123
100
AcDbEntity
  8
TEXT
100
AcDbText
 10
1202.250955
 20
88.800782
 30
0.0
 40
3.0
  1

  7
STYLE1
100
AcDbText
  0
TEXT
  5
19124
100
AcDbEntity
  8
TEXT
100
AcDbText
 10
802.250955
 20
88.800782
 30
0.0
 40
3.0
  1

  7
STYLE1
100
AcDbText
  0
TEXT
  5
19125
100
AcDbEntity
  8
TEXT
100
AcDbText
 10
1002.250955
 20
88.800782
 30
0.0
 40
3.0
  1

  7
STYLE1
100
AcDbText
  0
TEXT
  5
19126
100
AcDbEntity
  8
TEXT
100
AcDbText
 10
1002.250955
 20
88.800782
 30
0.0
 40
3.0
  1

  7
STYLE1
100
AcDbText
  0
TEXT
  5
19127
100
AcDbEntity
  8
TEXT
100
AcDbText
 10
1202.250955
 20
88.800782
 30
0.0
 40
3.0
  1

  7
STYLE1
100
AcDbText
  0
TEXT
  5
19128
100
AcDbEntity
  8
TEXT
100
AcDbText
 10
1202.250955
 20
88.800782
 30
0.0
 40
3.0
  1

  7
STYLE1
100
AcDbText
  0
TEXT
  5
19129
100
AcDbEntity
  8
TEXT
100
AcDbText
 10
1402.250955
 20
88.800782
 30
0.0
 40
3.0
  1

  7
STYLE1
100
AcDbText
  0
TEXT
  5
1912A
100
AcDbEntity
  8
TEXT
100
AcDbText
 10
1002.250955
 20
88.800782
 30
0.0
 40
3.0
  1

  7
STYLE1
100
AcDbText
  0
TEXT
  5
1912B
100
AcDbEntity
  8
TEXT
100
AcDbText
 10
1202.250955
 20
88.800782
 30
0.0
 40
3.0
  1

  7
STYLE1
100
AcDbText
  0
TEXT
  5
1912C
100
AcDbEntity
  8
TEXT
100
AcDbText
 10
1202.250955
 20
88.800782
 30
0.0
 40
3.0
  1

  7
STYLE1
100
AcDbText
  0
TEXT
  5
1912D
100
AcDbEntity
  8
TEXT
100
AcDbText
 10
1402.250955
 20
88.800782
 30
0.0
 40
3.0
  1

  7
STYLE1
100
AcDbText
  0
TEXT
  5
1912E
100
AcDbEntity
  8
TEXT
100
AcDbText
 10
602.250955
 20
88.800782
 30
0.0
 40
3.0
  1

  7
STYLE1
100
AcDbText
  0
TEXT
  5
1912F
100
AcDbEntity
  8
TEXT
100
AcDbText
 10
802.250955
 20
88.800782
 30
0.0
 40
3.0
  1

  7
STYLE1
100
AcDbText
  0
TEXT
  5
19130
100
AcDbEntity
  8
TEXT
100
AcDbText
 10
802.250955
 20
88.800782
 30
0.0
 40
3.0
  1

  7
STYLE1
100
AcDbText
  0
TEXT
  5
19131
100
AcDbEntity
  8
TEXT
100
AcDbText
 10
1002.250955
 20
88.800782
 30
0.0
 40
3.0
  1

  7
STYLE1
100
AcDbText
  0
TEXT
  5
19132
100
AcDbEntity
  8
TEXT
100
AcDbText
 10
1002.250955
 20
88.800782
 30
0.0
 40
3.0
  1

  7
STYLE1
100
AcDbText
  0
TEXT
  5
19133
100
AcDbEntity
  8
TEXT
100
AcDbText
 10
1202.250955
 20
88.800782
 30
0.0
 40
3.0
  1

  7
STYLE1
100
AcDbText
  0
TEXT
  5
19134
100
AcDbEntity
  8
TEXT
100
AcDbText
 10
802.250955
 20
88.800782
 30
0.0
 40
3.0
  1

  7
STYLE1
100
AcDbText
  0
TEXT
  5
19135
100
AcDbEntity
  8
TEXT
100
AcDbText
 10
1002.250955
 20
88.800782
 30
0.0
 40
3.0
  1

  7
STYLE1
100
AcDbText
  0
TEXT
  5
19136
100
AcDbEntity
  8
TEXT
100
AcDbText
 10
1002.250955
 20
88.800782
 30
0.0
 40
3.0
  1

  7
STYLE1
100
AcDbText
  0
TEXT
  5
19137
100
AcDbEntity
  8
TEXT
100
AcDbText
 10
1202.250955
 20
88.800782
 30
0.0
 40
3.0
  1

  7
STYLE1
100
AcDbText
  0
TEXT
  5
19138
100
AcDbEntity
  8
TEXT
100
AcDbText
 10
802.250955
 20
88.800782
 30
0.0
 40
3.0
  1

  7
STYLE1
100
AcDbText
  0
TEXT
  5
19139
100
AcDbEntity
  8
TEXT
100
AcDbText
 10
1002.250955
 20
88.800782
 30
0.0
 40
3.0
  1

  7
STYLE1
100
AcDbText
  0
TEXT
  5
1913A
100
AcDbEntity
  8
TEXT
100
AcDbText
 10
1002.250955
 20
88.800782
 30
0.0
 40
3.0
  1

  7
STYLE1
100
AcDbText
  0
TEXT
  5
1913B
100
AcDbEntity
  8
TEXT
100
AcDbText
 10
1202.250955
 20
88.800782
 30
0.0
 40
3.0
  1

  7
STYLE1
100
AcDbText
  0
TEXT
  5
1913C
100
AcDbEntity
  8
TEXT
100
AcDbText
 10
1202.250955
 20
88.800782
 30
0.0
 40
3.0
  1

  7
STYLE1
100
AcDbText
  0
TEXT
  5
1913D
100
AcDbEntity
  8
TEXT
100
AcDbText
 10
1402.250955
 20
88.800782
 30
0.0
 40
3.0
  1

  7
STYLE1
100
AcDbText
  0
TEXT
  5
1913E
100
AcDbEntity
  8
TEXT
100
AcDbText
 10
1002.250955
 20
88.800782
 30
0.0
 40
3.0
  1

  7
STYLE1
100
AcDbText
  0
TEXT
  5
1913F
100
AcDbEntity
  8
TEXT
100
AcDbText
 10
1202.250955
 20
88.800782
 30
0.0
 40
3.0
  1

  7
STYLE1
100
AcDbText
  0
TEXT
  5
19140
100
AcDbEntity
  8
TEXT
100
AcDbText
 10
1202.250955
 20
88.800782
 30
0.0
 40
3.0
  1

  7
STYLE1
100
AcDbText
  0
TEXT
  5
19141
100
AcDbEntity
  8
TEXT
100
AcDbText
 10
1402.250955
 20
88.800782
 30
0.0
 40
3.0
  1

  7
STYLE1
100
AcDbText
  0
TEXT
  5
19142
100
AcDbEntity
  8
TEXT
100
AcDbText
 10
602.250955
 20
88.800782
 30
0.0
 40
3.0
  1

  7
STYLE1
100
AcDbText
  0
TEXT
  5
19143
100
AcDbEntity
  8
TEXT
100
AcDbText
 10
802.250955
 20
88.800782
 30
0.0
 40
3.0
  1

  7
STYLE1
100
AcDbText
  0
TEXT
  5
19144
100
AcDbEntity
  8
TEXT
100
AcDbText
 10
802.250955
 20
88.800782
 30
0.0
 40
3.0
  1

  7
STYLE1
100
AcDbText
  0
TEXT
  5
19145
100
AcDbEntity
  8
TEXT
100
AcDbText
 10
1002.250955
 20
88.800782
 30
0.0
 40
3.0
  1

  7
STYLE1
100
AcDbText
  0
TEXT
  5
19146
100
AcDbEntity
  8
TEXT
100
AcDbText
 10
1002.250955
 20
88.800782
 30
0.0
 40
3.0
  1

  7
STYLE1
100
AcDbText
  0
TEXT
  5
19147
100
AcDbEntity
  8
TEXT
100
AcDbText
 10
1202.250955
 20
88.800782
 30
0.0
 40
3.0
  1

  7
STYLE1
100
AcDbText
  0
TEXT
  5
19148
100
AcDbEntity
  8
TEXT
100
AcDbText
 10
802.250955
 20
88.800782
 30
0.0
 40
3.0
  1

  7
STYLE1
100
AcDbText
  0
TEXT
  5
19149
100
AcDbEntity
  8
TEXT
100
AcDbText
 10
1002.250955
 20
88.800782
 30
0.0
 40
3.0
  1

  7
STYLE1
100
AcDbText
  0
TEXT
  5
1914A
100
AcDbEntity
  8
TEXT
100
AcDbText
 10
1002.250955
 20
88.800782
 30
0.0
 40
3.0
  1

  7
STYLE1
100
AcDbText
  0
TEXT
  5
1914B
100
AcDbEntity
  8
TEXT
100
AcDbText
 10
1202.250955
 20
88.800782
 30
0.0
 40
3.0
  1

  7
STYLE1
100
AcDbText
  0
TEXT
  5
1914C
100
AcDbEntity
  8
TEXT
100
AcDbText
 10
802.250955
 20
88.800782
 30
0.0
 40
3.0
  1

  7
STYLE1
100
AcDbText
  0
TEXT
  5
1914D
100
AcDbEntity
  8
TEXT
100
AcDbText
 10
1002.250955
 20
88.800782
 30
0.0
 40
3.0
  1

  7
STYLE1
100
AcDbText
  0
TEXT
  5
1914E
100
AcDbEntity
  8
TEXT
100
AcDbText
 10
1002.250955
 20
88.800782
 30
0.0
 40
3.0
  1

  7
STYLE1
100
AcDbText
  0
TEXT
  5
1914F
100
AcDbEntity
  8
TEXT
100
AcDbText
 10
1202.250955
 20
88.800782
 30
0.0
 40
3.0
  1

  7
STYLE1
100
AcDbText
  0
TEXT
  5
19150
100
AcDbEntity
  8
TEXT
100
AcDbText
 10
1202.250955
 20
88.800782
 30
0.0
 40
3.0
  1

  7
STYLE1
100
AcDbText
  0
TEXT
  5
19151
100
AcDbEntity
  8
TEXT
100
AcDbText
 10
1402.250955
 20
88.800782
 30
0.0
 40
3.0
  1

  7
STYLE1
100
AcDbText
  0
TEXT
  5
19152
100
AcDbEntity
  8
TEXT
100
AcDbText
 10
1002.250955
 20
88.800782
 30
0.0
 40
3.0
  1

  7
STYLE1
100
AcDbText
  0
TEXT
  5
19153
100
AcDbEntity
  8
TEXT
100
AcDbText
 10
1202.250955
 20
88.800782
 30
0.0
 40
3.0
  1

  7
STYLE1
100
AcDbText
  0
TEXT
  5
19154
100
AcDbEntity
  8
TEXT
100
AcDbText
 10
1202.250955
 20
88.800782
 30
0.0
 40
3.0
  1

  7
STYLE1
100
AcDbText
  0
TEXT
  5
19155
100
AcDbEntity
  8
TEXT
100
AcDbText
 10
1402.250955
 20
88.800782
 30
0.0
 40
3.0
  1

  7
STYLE1
100
AcDbText
  0
TEXT
  5
19156
100
AcDbEntity
  8
TEXT
100
AcDbText
 10
1002.250955
 20
88.800782
 30
0.0
 40
3.0
  1

  7
STYLE1
100
AcDbText
  0
TEXT
  5
19157
100
AcDbEntity
  8
TEXT
100
AcDbText
 10
1202.250955
 20
88.800782
 30
0.0
 40
3.0
  1

  7
STYLE1
100
AcDbText
  0
TEXT
  5
19158
100
AcDbEntity
  8
TEXT
100
AcDbText
 10
1202.250955
 20
88.800782
 30
0.0
 40
3.0
  1

  7
STYLE1
100
AcDbText
  0
TEXT
  5
19159
100
AcDbEntity
  8
TEXT
100
AcDbText
 10
1402.250955
 20
88.800782
 30
0.0
 40
3.0
  1

  7
STYLE1
100
AcDbText
  0
TEXT
  5
1915A
100
AcDbEntity
  8
TEXT
100
AcDbText
 10
1402.250955
 20
88.800782
 30
0.0
 40
3.0
  1

  7
STYLE1
100
AcDbText
  0
TEXT
  5
1915B
100
AcDbEntity
  8
TEXT
100
AcDbText
 10
1602.250955
 20
88.800782
 30
0.0
 40
3.0
  1

  7
STYLE1
100
AcDbText
  0
TEXT
  5
1915C
100
AcDbEntity
  8
TEXT
100
AcDbText
 10
1202.250955
 20
88.800782
 30
0.0
 40
3.0
  1

  7
STYLE1
100
AcDbText
  0
TEXT
  5
1915D
100
AcDbEntity
  8
TEXT
100
AcDbText
 10
1402.250955
 20
88.800782
 30
0.0
 40
3.0
  1

  7
STYLE1
100
AcDbText
  0
TEXT
  5
1915E
100
AcDbEntity
  8
TEXT
100
AcDbText
 10
1402.250955
 20
88.800782
 30
0.0
 40
3.0
  1

  7
STYLE1
100
AcDbText
  0
TEXT
  5
1915F
100
AcDbEntity
  8
TEXT
100
AcDbText
 10
1602.250955
 20
88.800782
 30
0.0
 40
3.0
  1

  7
STYLE1
100
AcDbText
  0
TEXT
  5
19160
100
AcDbEntity
  8
TEXT
100
AcDbText
 10
802.250955
 20
88.800782
 30
0.0
 40
3.0
  1

  7
STYLE1
100
AcDbText
  0
TEXT
  5
19161
100
AcDbEntity
  8
TEXT
100
AcDbText
 10
1002.250955
 20
88.800782
 30
0.0
 40
3.0
  1

  7
STYLE1
100
AcDbText
  0
TEXT
  5
19162
100
AcDbEntity
  8
TEXT
100
AcDbText
 10
1002.250955
 20
88.800782
 30
0.0
 40
3.0
  1

  7
STYLE1
100
AcDbText
  0
TEXT
  5
19163
100
AcDbEntity
  8
TEXT
100
AcDbText
 10
1202.250955
 20
88.800782
 30
0.0
 40
3.0
  1

  7
STYLE1
100
AcDbText
  0
TEXT
  5
19164
100
AcDbEntity
  8
TEXT
100
AcDbText
 10
1202.250955
 20
88.800782
 30
0.0
 40
3.0
  1

  7
STYLE1
100
AcDbText
  0
TEXT
  5
19165
100
AcDbEntity
  8
TEXT
100
AcDbText
 10
1402.250955
 20
88.800782
 30
0.0
 40
3.0
  1

  7
STYLE1
100
AcDbText
  0
TEXT
  5
19166
100
AcDbEntity
  8
TEXT
100
AcDbText
 10
1002.250955
 20
88.800782
 30
0.0
 40
3.0
  1

  7
STYLE1
100
AcDbText
  0
TEXT
  5
19167
100
AcDbEntity
  8
TEXT
100
AcDbText
 10
1202.250955
 20
88.800782
 30
0.0
 40
3.0
  1

  7
STYLE1
100
AcDbText
  0
TEXT
  5
19168
100
AcDbEntity
  8
TEXT
100
AcDbText
 10
1202.250955
 20
88.800782
 30
0.0
 40
3.0
  1

  7
STYLE1
100
AcDbText
  0
TEXT
  5
19169
100
AcDbEntity
  8
TEXT
100
AcDbText
 10
1402.250955
 20
88.800782
 30
0.0
 40
3.0
  1

  7
STYLE1
100
AcDbText
  0
TEXT
  5
1916A
100
AcDbEntity
  8
TEXT
100
AcDbText
 10
1002.250955
 20
88.800782
 30
0.0
 40
3.0
  1

  7
STYLE1
100
AcDbText
  0
TEXT
  5
1916B
100
AcDbEntity
  8
TEXT
100
AcDbText
 10
1202.250955
 20
88.800782
 30
0.0
 40
3.0
  1

  7
STYLE1
100
AcDbText
  0
TEXT
  5
1916C
100
AcDbEntity
  8
TEXT
100
AcDbText
 10
1202.250955
 20
88.800782
 30
0.0
 40
3.0
  1

  7
STYLE1
100
AcDbText
  0
TEXT
  5
1916D
100
AcDbEntity
  8
TEXT
100
AcDbText
 10
1402.250955
 20
88.800782
 30
0.0
 40
3.0
  1

  7
STYLE1
100
AcDbText
  0
TEXT
  5
1916E
100
AcDbEntity
  8
TEXT
100
AcDbText
 10
1402.250955
 20
88.800782
 30
0.0
 40
3.0
  1

  7
STYLE1
100
AcDbText
  0
TEXT
  5
1916F
100
AcDbEntity
  8
TEXT
100
AcDbText
 10
1602.250955
 20
88.800782
 30
0.0
 40
3.0
  1

  7
STYLE1
100
AcDbText
  0
TEXT
  5
19170
100
AcDbEntity
  8
TEXT
100
AcDbText
 10
1202.250955
 20
88.800782
 30
0.0
 40
3.0
  1

  7
STYLE1
100
AcDbText
  0
TEXT
  5
19171
100
AcDbEntity
  8
TEXT
100
AcDbText
 10
1402.250955
 20
88.800782
 30
0.0
 40
3.0
  1

  7
STYLE1
100
AcDbText
  0
TEXT
  5
19172
100
AcDbEntity
  8
TEXT
100
AcDbText
 10
1402.250955
 20
88.800782
 30
0.0
 40
3.0
  1

  7
STYLE1
100
AcDbText
  0
TEXT
  5
19173
100
AcDbEntity
  8
TEXT
100
AcDbText
 10
1602.250955
 20
88.800782
 30
0.0
 40
3.0
  1

  7
STYLE1
100
AcDbText
  0
TEXT
  5
19174
100
AcDbEntity
  8
TEXT
100
AcDbText
 10
802.250955
 20
88.800782
 30
0.0
 40
3.0
  1

  7
STYLE1
100
AcDbText
  0
TEXT
  5
19175
100
AcDbEntity
  8
TEXT
100
AcDbText
 10
1002.250955
 20
88.800782
 30
0.0
 40
3.0
  1

  7
STYLE1
100
AcDbText
  0
TEXT
  5
19176
100
AcDbEntity
  8
TEXT
100
AcDbText
 10
1002.250955
 20
88.800782
 30
0.0
 40
3.0
  1

  7
STYLE1
100
AcDbText
  0
TEXT
  5
19177
100
AcDbEntity
  8
TEXT
100
AcDbText
 10
1202.250955
 20
88.800782
 30
0.0
 40
3.0
  1

  7
STYLE1
100
AcDbText
  0
TEXT
  5
19178
100
AcDbEntity
  8
TEXT
100
AcDbText
 10
1202.250955
 20
88.800782
 30
0.0
 40
3.0
  1

  7
STYLE1
100
AcDbText
  0
TEXT
  5
19179
100
AcDbEntity
  8
TEXT
100
AcDbText
 10
1402.250955
 20
88.800782
 30
0.0
 40
3.0
  1

  7
STYLE1
100
AcDbText
  0
TEXT
  5
1917A
100
AcDbEntity
  8
TEXT
100
AcDbText
 10
1002.250955
 20
88.800782
 30
0.0
 40
3.0
  1

  7
STYLE1
100
AcDbText
  0
TEXT
  5
1917B
100
AcDbEntity
  8
TEXT
100
AcDbText
 10
1202.250955
 20
88.800782
 30
0.0
 40
3.0
  1

  7
STYLE1
100
AcDbText
  0
TEXT
  5
1917C
100
AcDbEntity
  8
TEXT
100
AcDbText
 10
1202.250955
 20
88.800782
 30
0.0
 40
3.0
  1

  7
STYLE1
100
AcDbText
  0
TEXT
  5
1917D
100
AcDbEntity
  8
TEXT
100
AcDbText
 10
1402.250955
 20
88.800782
 30
0.0
 40
3.0
  1

  7
STYLE1
100
AcDbText
  0
TEXT
  5
1917E
100
AcDbEntity
  8
TEXT
100
AcDbText
 10
1002.250955
 20
88.800782
 30
0.0
 40
3.0
  1

  7
STYLE1
100
AcDbText
  0
TEXT
  5
1917F
100
AcDbEntity
  8
TEXT
100
AcDbText
 10
1202.250955
 20
88.800782
 30
0.0
 40
3.0
  1

  7
STYLE1
100
AcDbText
  0
TEXT
  5
19180
100
AcDbEntity
  8
TEXT
100
AcDbText
 10
1202.250955
 20
88.800782
 30
0.0
 40
3.0
  1

  7
STYLE1
100
AcDbText
  0
TEXT
  5
19181
100
AcDbEntity
  8
TEXT
100
AcDbText
 10
1402.250955
 20
88.800782
 30
0.0
 40
3.0
  1

  7
STYLE1
100
AcDbText
  0
TEXT
  5
19182
100
AcDbEntity
  8
TEXT
100
AcDbText
 10
1402.250955
 20
88.800782
 30
0.0
 40
3.0
  1

  7
STYLE1
100
AcDbText
  0
TEXT
  5
19183
100
AcDbEntity
  8
TEXT
100
AcDbText
 10
1602.250955
 20
88.800782
 30
0.0
 40
3.0
  1

  7
STYLE1
100
AcDbText
  0
TEXT
  5
19184
100
AcDbEntity
  8
TEXT
100
AcDbText
 10
1202.250955
 20
88.800782
 30
0.0
 40
3.0
  1

  7
STYLE1
100
AcDbText
  0
TEXT
  5
19185
100
AcDbEntity
  8
TEXT
100
AcDbText
 10
1402.250955
 20
88.800782
 30
0.0
 40
3.0
  1

  7
STYLE1
100
AcDbText
  0
TEXT
  5
19186
100
AcDbEntity
  8
TEXT
100
AcDbText
 10
1402.250955
 20
88.800782
 30
0.0
 40
3.0
  1

  7
STYLE1
100
AcDbText
  0
TEXT
  5
19187
100
AcDbEntity
  8
TEXT
100
AcDbText
 10
1602.250955
 20
88.800782
 30
0.0
 40
3.0
  1

  7
STYLE1
100
AcDbText
  0
TEXT
  5
19188
100
AcDbEntity
  8
TEXT
100
AcDbText
 10
1202.250955
 20
88.800782
 30
0.0
 40
3.0
  1

  7
STYLE1
100
AcDbText
  0
TEXT
  5
19189
100
AcDbEntity
  8
TEXT
100
AcDbText
 10
1402.250955
 20
88.800782
 30
0.0
 40
3.0
  1

  7
STYLE1
100
AcDbText
  0
TEXT
  5
1918A
100
AcDbEntity
  8
TEXT
100
AcDbText
 10
1402.250955
 20
88.800782
 30
0.0
 40
3.0
  1

  7
STYLE1
100
AcDbText
  0
TEXT
  5
1918B
100
AcDbEntity
  8
TEXT
100
AcDbText
 10
1602.250955
 20
88.800782
 30
0.0
 40
3.0
  1

  7
STYLE1
100
AcDbText
  0
TEXT
  5
1918C
100
AcDbEntity
  8
TEXT
100
AcDbText
 10
1602.250955
 20
88.800782
 30
0.0
 40
3.0
  1

  7
STYLE1
100
AcDbText
  0
TEXT
  5
1918D
100
AcDbEntity
  8
TEXT
100
AcDbText
 10
1802.250955
 20
88.800782
 30
0.0
 40
3.0
  1

  7
STYLE1
100
AcDbText
  0
TEXT
  5
1918E
100
AcDbEntity
  8
TEXT
100
AcDbText
 10
1402.250955
 20
88.800782
 30
0.0
 40
3.0
  1

  7
STYLE1
100
AcDbText
  0
TEXT
  5
1918F
100
AcDbEntity
  8
TEXT
100
AcDbText
 10
1602.250955
 20
88.800782
 30
0.0
 40
3.0
  1

  7
STYLE1
100
AcDbText
  0
TEXT
  5
19190
100
AcDbEntity
  8
TEXT
100
AcDbText
 10
1602.250955
 20
88.800782
 30
0.0
 40
3.0
  1

  7
STYLE1
100
AcDbText
  0
TEXT
  5
19191
100
AcDbEntity
  8
TEXT
100
AcDbText
 10
1802.250955
 20
88.800782
 30
0.0
 40
3.0
  1

  7
STYLE1
100
AcDbText
  0
TEXT
  5
19194
100
AcDbEntity
  8
TEXT
100
AcDbText
 10
402.250955
 20
88.800782
 30
0.0
 40
3.0
  1

  7
STYLE1
100
AcDbText
  0
TEXT
  5
19195
100
AcDbEntity
  8
TEXT
100
AcDbText
 10
602.250955
 20
88.800782
 30
0.0
 40
3.0
  1

  7
STYLE1
100
AcDbText
  0
TEXT
  5
19196
100
AcDbEntity
  8
TEXT
100
AcDbText
 10
602.250955
 20
88.800782
 30
0.0
 40
3.0
  1

  7
STYLE1
100
AcDbText
  0
TEXT
  5
19197
100
AcDbEntity
  8
TEXT
100
AcDbText
 10
802.250955
 20
88.800782
 30
0.0
 40
3.0
  1

  7
STYLE1
100
AcDbText
  0
TEXT
  5
19198
100
AcDbEntity
  8
TEXT
100
AcDbText
 10
802.250955
 20
88.800782
 30
0.0
 40
3.0
  1

  7
STYLE1
100
AcDbText
  0
TEXT
  5
19199
100
AcDbEntity
  8
TEXT
100
AcDbText
 10
1002.250955
 20
88.800782
 30
0.0
 40
3.0
  1

  7
STYLE1
100
AcDbText
  0
TEXT
  5
1919A
100
AcDbEntity
  8
TEXT
100
AcDbText
 10
602.250955
 20
88.800782
 30
0.0
 40
3.0
  1

  7
STYLE1
100
AcDbText
  0
TEXT
  5
1919B
100
AcDbEntity
  8
TEXT
100
AcDbText
 10
802.250955
 20
88.800782
 30
0.0
 40
3.0
  1

  7
STYLE1
100
AcDbText
  0
TEXT
  5
1919C
100
AcDbEntity
  8
TEXT
100
AcDbText
 10
802.250955
 20
88.800782
 30
0.0
 40
3.0
  1

  7
STYLE1
100
AcDbText
  0
TEXT
  5
1919D
100
AcDbEntity
  8
TEXT
100
AcDbText
 10
1002.250955
 20
88.800782
 30
0.0
 40
3.0
  1

  7
STYLE1
100
AcDbText
  0
TEXT
  5
1919F
100
AcDbEntity
  8
TEXT
100
AcDbText
 10
225.386194
 20
90.617578
 30
0.0
 40
3.0
  1

  7
STYLE1
100
AcDbText
  0
TEXT
  5
191A0
100
AcDbEntity
  8
TEXT
100
AcDbText
 10
425.386194
 20
90.617578
 30
0.0
 40
3.0
  1

  7
STYLE1
100
AcDbText
  0
TEXT
  5
191A1
100
AcDbEntity
  8
TEXT
100
AcDbText
 10
425.386194
 20
90.617578
 30
0.0
 40
3.0
  1

  7
STYLE1
100
AcDbText
  0
TEXT
  5
191A2
100
AcDbEntity
  8
TEXT
100
AcDbText
 10
625.386194
 20
90.617578
 30
0.0
 40
3.0
  1

  7
STYLE1
100
AcDbText
  0
TEXT
  5
191A3
100
AcDbEntity
  8
TEXT
100
AcDbText
 10
625.386194
 20
90.617578
 30
0.0
 40
3.0
  1

  7
STYLE1
100
AcDbText
  0
TEXT
  5
191A4
100
AcDbEntity
  8
TEXT
100
AcDbText
 10
825.386194
 20
90.617578
 30
0.0
 40
3.0
  1

  7
STYLE1
100
AcDbText
  0
TEXT
  5
191A5
100
AcDbEntity
  8
TEXT
100
AcDbText
 10
425.386194
 20
90.617578
 30
0.0
 40
3.0
  1

  7
STYLE1
100
AcDbText
  0
TEXT
  5
191A6
100
AcDbEntity
  8
TEXT
100
AcDbText
 10
625.386194
 20
90.617578
 30
0.0
 40
3.0
  1

  7
STYLE1
100
AcDbText
  0
TEXT
  5
191A7
100
AcDbEntity
  8
TEXT
100
AcDbText
 10
625.386194
 20
90.617578
 30
0.0
 40
3.0
  1

  7
STYLE1
100
AcDbText
  0
TEXT
  5
191A8
100
AcDbEntity
  8
TEXT
100
AcDbText
 10
825.386194
 20
90.617578
 30
0.0
 40
3.0
  1

  7
STYLE1
100
AcDbText
  0
TEXT
  5
191A9
100
AcDbEntity
  8
TEXT
100
AcDbText
 10
425.386194
 20
90.617578
 30
0.0
 40
3.0
  1

  7
STYLE1
100
AcDbText
  0
TEXT
  5
191AA
100
AcDbEntity
  8
TEXT
100
AcDbText
 10
625.386194
 20
90.617578
 30
0.0
 40
3.0
  1

  7
STYLE1
100
AcDbText
  0
TEXT
  5
191AB
100
AcDbEntity
  8
TEXT
100
AcDbText
 10
625.386194
 20
90.617578
 30
0.0
 40
3.0
  1

  7
STYLE1
100
AcDbText
  0
TEXT
  5
191AC
100
AcDbEntity
  8
TEXT
100
AcDbText
 10
825.386194
 20
90.617578
 30
0.0
 40
3.0
  1

  7
STYLE1
100
AcDbText
  0
TEXT
  5
191AD
100
AcDbEntity
  8
TEXT
100
AcDbText
 10
825.386194
 20
90.617578
 30
0.0
 40
3.0
  1

  7
STYLE1
100
AcDbText
  0
TEXT
  5
191AE
100
AcDbEntity
  8
TEXT
100
AcDbText
 10
1025.386194
 20
90.617578
 30
0.0
 40
3.0
  1

  7
STYLE1
100
AcDbText
  0
TEXT
  5
191AF
100
AcDbEntity
  8
TEXT
100
AcDbText
 10
625.386194
 20
90.617578
 30
0.0
 40
3.0
  1

  7
STYLE1
100
AcDbText
  0
TEXT
  5
191B0
100
AcDbEntity
  8
TEXT
100
AcDbText
 10
825.386194
 20
90.617578
 30
0.0
 40
3.0
  1

  7
STYLE1
100
AcDbText
  0
TEXT
  5
191B1
100
AcDbEntity
  8
TEXT
100
AcDbText
 10
825.386194
 20
90.617578
 30
0.0
 40
3.0
  1

  7
STYLE1
100
AcDbText
  0
TEXT
  5
191B2
100
AcDbEntity
  8
TEXT
100
AcDbText
 10
1025.386194
 20
90.617578
 30
0.0
 40
3.0
  1

  7
STYLE1
100
AcDbText
  0
TEXT
  5
191B3
100
AcDbEntity
  8
TEXT
100
AcDbText
 10
625.386194
 20
90.617578
 30
0.0
 40
3.0
  1

  7
STYLE1
100
AcDbText
  0
TEXT
  5
191B4
100
AcDbEntity
  8
TEXT
100
AcDbText
 10
825.386194
 20
90.617578
 30
0.0
 40
3.0
  1

  7
STYLE1
100
AcDbText
  0
TEXT
  5
191B5
100
AcDbEntity
  8
TEXT
100
AcDbText
 10
825.386194
 20
90.617578
 30
0.0
 40
3.0
  1

  7
STYLE1
100
AcDbText
  0
TEXT
  5
191B6
100
AcDbEntity
  8
TEXT
100
AcDbText
 10
1025.386194
 20
90.617578
 30
0.0
 40
3.0
  1

  7
STYLE1
100
AcDbText
  0
TEXT
  5
191B7
100
AcDbEntity
  8
TEXT
100
AcDbText
 10
1025.386194
 20
90.617578
 30
0.0
 40
3.0
  1

  7
STYLE1
100
AcDbText
  0
TEXT
  5
191B8
100
AcDbEntity
  8
TEXT
100
AcDbText
 10
1225.386194
 20
90.617578
 30
0.0
 40
3.0
  1

  7
STYLE1
100
AcDbText
  0
TEXT
  5
191B9
100
AcDbEntity
  8
TEXT
100
AcDbText
 10
825.386194
 20
90.617578
 30
0.0
 40
3.0
  1

  7
STYLE1
100
AcDbText
  0
TEXT
  5
191BA
100
AcDbEntity
  8
TEXT
100
AcDbText
 10
1025.386194
 20
90.617578
 30
0.0
 40
3.0
  1

  7
STYLE1
100
AcDbText
  0
TEXT
  5
191BB
100
AcDbEntity
  8
TEXT
100
AcDbText
 10
1025.386194
 20
90.617578
 30
0.0
 40
3.0
  1

  7
STYLE1
100
AcDbText
  0
TEXT
  5
191BC
100
AcDbEntity
  8
TEXT
100
AcDbText
 10
1225.386194
 20
90.617578
 30
0.0
 40
3.0
  1

  7
STYLE1
100
AcDbText
  0
TEXT
  5
191BD
100
AcDbEntity
  8
TEXT
100
AcDbText
 10
825.386194
 20
90.617578
 30
0.0
 40
3.0
  1

  7
STYLE1
100
AcDbText
  0
TEXT
  5
191BE
100
AcDbEntity
  8
TEXT
100
AcDbText
 10
1025.386194
 20
90.617578
 30
0.0
 40
3.0
  1

  7
STYLE1
100
AcDbText
  0
TEXT
  5
191BF
100
AcDbEntity
  8
TEXT
100
AcDbText
 10
1025.386194
 20
90.617578
 30
0.0
 40
3.0
  1

  7
STYLE1
100
AcDbText
  0
TEXT
  5
191C0
100
AcDbEntity
  8
TEXT
100
AcDbText
 10
1225.386194
 20
90.617578
 30
0.0
 40
3.0
  1

  7
STYLE1
100
AcDbText
  0
TEXT
  5
191C1
100
AcDbEntity
  8
TEXT
100
AcDbText
 10
1225.386194
 20
90.617578
 30
0.0
 40
3.0
  1

  7
STYLE1
100
AcDbText
  0
TEXT
  5
191C2
100
AcDbEntity
  8
TEXT
100
AcDbText
 10
1425.386194
 20
90.617578
 30
0.0
 40
3.0
  1

  7
STYLE1
100
AcDbText
  0
TEXT
  5
191C3
100
AcDbEntity
  8
TEXT
100
AcDbText
 10
1025.386194
 20
90.617578
 30
0.0
 40
3.0
  1

  7
STYLE1
100
AcDbText
  0
TEXT
  5
191C4
100
AcDbEntity
  8
TEXT
100
AcDbText
 10
1225.386194
 20
90.617578
 30
0.0
 40
3.0
  1

  7
STYLE1
100
AcDbText
  0
TEXT
  5
191C5
100
AcDbEntity
  8
TEXT
100
AcDbText
 10
1225.386194
 20
90.617578
 30
0.0
 40
3.0
  1

  7
STYLE1
100
AcDbText
  0
TEXT
  5
191C6
100
AcDbEntity
  8
TEXT
100
AcDbText
 10
1425.386194
 20
90.617578
 30
0.0
 40
3.0
  1

  7
STYLE1
100
AcDbText
  0
TEXT
  5
191C7
100
AcDbEntity
  8
TEXT
100
AcDbText
 10
625.386194
 20
90.617578
 30
0.0
 40
3.0
  1

  7
STYLE1
100
AcDbText
  0
TEXT
  5
191C8
100
AcDbEntity
  8
TEXT
100
AcDbText
 10
825.386194
 20
90.617578
 30
0.0
 40
3.0
  1

  7
STYLE1
100
AcDbText
  0
TEXT
  5
191C9
100
AcDbEntity
  8
TEXT
100
AcDbText
 10
825.386194
 20
90.617578
 30
0.0
 40
3.0
  1

  7
STYLE1
100
AcDbText
  0
TEXT
  5
191CA
100
AcDbEntity
  8
TEXT
100
AcDbText
 10
1025.386194
 20
90.617578
 30
0.0
 40
3.0
  1

  7
STYLE1
100
AcDbText
  0
TEXT
  5
191CB
100
AcDbEntity
  8
TEXT
100
AcDbText
 10
1025.386194
 20
90.617578
 30
0.0
 40
3.0
  1

  7
STYLE1
100
AcDbText
  0
TEXT
  5
191CC
100
AcDbEntity
  8
TEXT
100
AcDbText
 10
1225.386194
 20
90.617578
 30
0.0
 40
3.0
  1

  7
STYLE1
100
AcDbText
  0
TEXT
  5
191CD
100
AcDbEntity
  8
TEXT
100
AcDbText
 10
825.386194
 20
90.617578
 30
0.0
 40
3.0
  1

  7
STYLE1
100
AcDbText
  0
TEXT
  5
191CE
100
AcDbEntity
  8
TEXT
100
AcDbText
 10
1025.386194
 20
90.617578
 30
0.0
 40
3.0
  1

  7
STYLE1
100
AcDbText
  0
TEXT
  5
191CF
100
AcDbEntity
  8
TEXT
100
AcDbText
 10
1025.386194
 20
90.617578
 30
0.0
 40
3.0
  1

  7
STYLE1
100
AcDbText
  0
TEXT
  5
191D0
100
AcDbEntity
  8
TEXT
100
AcDbText
 10
1225.386194
 20
90.617578
 30
0.0
 40
3.0
  1

  7
STYLE1
100
AcDbText
  0
TEXT
  5
191D1
100
AcDbEntity
  8
TEXT
100
AcDbText
 10
825.386194
 20
90.617578
 30
0.0
 40
3.0
  1

  7
STYLE1
100
AcDbText
  0
TEXT
  5
191D2
100
AcDbEntity
  8
TEXT
100
AcDbText
 10
1025.386194
 20
90.617578
 30
0.0
 40
3.0
  1

  7
STYLE1
100
AcDbText
  0
TEXT
  5
191D3
100
AcDbEntity
  8
TEXT
100
AcDbText
 10
1025.386194
 20
90.617578
 30
0.0
 40
3.0
  1

  7
STYLE1
100
AcDbText
  0
TEXT
  5
191D4
100
AcDbEntity
  8
TEXT
100
AcDbText
 10
1225.386194
 20
90.617578
 30
0.0
 40
3.0
  1

  7
STYLE1
100
AcDbText
  0
TEXT
  5
191D5
100
AcDbEntity
  8
TEXT
100
AcDbText
 10
1225.386194
 20
90.617578
 30
0.0
 40
3.0
  1

  7
STYLE1
100
AcDbText
  0
TEXT
  5
191D6
100
AcDbEntity
  8
TEXT
100
AcDbText
 10
1425.386194
 20
90.617578
 30
0.0
 40
3.0
  1

  7
STYLE1
100
AcDbText
  0
TEXT
  5
191D7
100
AcDbEntity
  8
TEXT
100
AcDbText
 10
1025.386194
 20
90.617578
 30
0.0
 40
3.0
  1

  7
STYLE1
100
AcDbText
  0
TEXT
  5
191D8
100
AcDbEntity
  8
TEXT
100
AcDbText
 10
1225.386194
 20
90.617578
 30
0.0
 40
3.0
  1

  7
STYLE1
100
AcDbText
  0
TEXT
  5
191D9
100
AcDbEntity
  8
TEXT
100
AcDbText
 10
1225.386194
 20
90.617578
 30
0.0
 40
3.0
  1

  7
STYLE1
100
AcDbText
  0
TEXT
  5
191DA
100
AcDbEntity
  8
TEXT
100
AcDbText
 10
1425.386194
 20
90.617578
 30
0.0
 40
3.0
  1

  7
STYLE1
100
AcDbText
  0
TEXT
  5
191DB
100
AcDbEntity
  8
TEXT
100
AcDbText
 10
625.386194
 20
90.617578
 30
0.0
 40
3.0
  1

  7
STYLE1
100
AcDbText
  0
TEXT
  5
191DC
100
AcDbEntity
  8
TEXT
100
AcDbText
 10
825.386194
 20
90.617578
 30
0.0
 40
3.0
  1

  7
STYLE1
100
AcDbText
  0
TEXT
  5
191DD
100
AcDbEntity
  8
TEXT
100
AcDbText
 10
825.386194
 20
90.617578
 30
0.0
 40
3.0
  1

  7
STYLE1
100
AcDbText
  0
TEXT
  5
191DE
100
AcDbEntity
  8
TEXT
100
AcDbText
 10
1025.386194
 20
90.617578
 30
0.0
 40
3.0
  1

  7
STYLE1
100
AcDbText
  0
TEXT
  5
191DF
100
AcDbEntity
  8
TEXT
100
AcDbText
 10
1025.386194
 20
90.617578
 30
0.0
 40
3.0
  1

  7
STYLE1
100
AcDbText
  0
TEXT
  5
191E0
100
AcDbEntity
  8
TEXT
100
AcDbText
 10
1225.386194
 20
90.617578
 30
0.0
 40
3.0
  1

  7
STYLE1
100
AcDbText
  0
TEXT
  5
191E1
100
AcDbEntity
  8
TEXT
100
AcDbText
 10
825.386194
 20
90.617578
 30
0.0
 40
3.0
  1

  7
STYLE1
100
AcDbText
  0
TEXT
  5
191E2
100
AcDbEntity
  8
TEXT
100
AcDbText
 10
1025.386194
 20
90.617578
 30
0.0
 40
3.0
  1

  7
STYLE1
100
AcDbText
  0
TEXT
  5
191E3
100
AcDbEntity
  8
TEXT
100
AcDbText
 10
1025.386194
 20
90.617578
 30
0.0
 40
3.0
  1

  7
STYLE1
100
AcDbText
  0
TEXT
  5
191E4
100
AcDbEntity
  8
TEXT
100
AcDbText
 10
1225.386194
 20
90.617578
 30
0.0
 40
3.0
  1

  7
STYLE1
100
AcDbText
  0
TEXT
  5
191E5
100
AcDbEntity
  8
TEXT
100
AcDbText
 10
825.386194
 20
90.617578
 30
0.0
 40
3.0
  1

  7
STYLE1
100
AcDbText
  0
TEXT
  5
191E6
100
AcDbEntity
  8
TEXT
100
AcDbText
 10
1025.386194
 20
90.617578
 30
0.0
 40
3.0
  1

  7
STYLE1
100
AcDbText
  0
TEXT
  5
191E7
100
AcDbEntity
  8
TEXT
100
AcDbText
 10
1025.386194
 20
90.617578
 30
0.0
 40
3.0
  1

  7
STYLE1
100
AcDbText
  0
TEXT
  5
191E8
100
AcDbEntity
  8
TEXT
100
AcDbText
 10
1225.386194
 20
90.617578
 30
0.0
 40
3.0
  1

  7
STYLE1
100
AcDbText
  0
TEXT
  5
191E9
100
AcDbEntity
  8
TEXT
100
AcDbText
 10
1225.386194
 20
90.617578
 30
0.0
 40
3.0
  1

  7
STYLE1
100
AcDbText
  0
TEXT
  5
191EA
100
AcDbEntity
  8
TEXT
100
AcDbText
 10
1425.386194
 20
90.617578
 30
0.0
 40
3.0
  1

  7
STYLE1
100
AcDbText
  0
TEXT
  5
191EB
100
AcDbEntity
  8
TEXT
100
AcDbText
 10
1025.386194
 20
90.617578
 30
0.0
 40
3.0
  1

  7
STYLE1
100
AcDbText
  0
TEXT
  5
191EC
100
AcDbEntity
  8
TEXT
100
AcDbText
 10
1225.386194
 20
90.617578
 30
0.0
 40
3.0
  1

  7
STYLE1
100
AcDbText
  0
TEXT
  5
191ED
100
AcDbEntity
  8
TEXT
100
AcDbText
 10
1225.386194
 20
90.617578
 30
0.0
 40
3.0
  1

  7
STYLE1
100
AcDbText
  0
TEXT
  5
191EE
100
AcDbEntity
  8
TEXT
100
AcDbText
 10
1425.386194
 20
90.617578
 30
0.0
 40
3.0
  1

  7
STYLE1
100
AcDbText
  0
TEXT
  5
191EF
100
AcDbEntity
  8
TEXT
100
AcDbText
 10
1025.386194
 20
90.617578
 30
0.0
 40
3.0
  1

  7
STYLE1
100
AcDbText
  0
TEXT
  5
191F0
100
AcDbEntity
  8
TEXT
100
AcDbText
 10
1225.386194
 20
90.617578
 30
0.0
 40
3.0
  1

  7
STYLE1
100
AcDbText
  0
TEXT
  5
191F1
100
AcDbEntity
  8
TEXT
100
AcDbText
 10
1225.386194
 20
90.617578
 30
0.0
 40
3.0
  1

  7
STYLE1
100
AcDbText
  0
TEXT
  5
191F2
100
AcDbEntity
  8
TEXT
100
AcDbText
 10
1425.386194
 20
90.617578
 30
0.0
 40
3.0
  1

  7
STYLE1
100
AcDbText
  0
TEXT
  5
191F3
100
AcDbEntity
  8
TEXT
100
AcDbText
 10
1425.386194
 20
90.617578
 30
0.0
 40
3.0
  1

  7
STYLE1
100
AcDbText
  0
TEXT
  5
191F4
100
AcDbEntity
  8
TEXT
100
AcDbText
 10
1625.386194
 20
90.617578
 30
0.0
 40
3.0
  1

  7
STYLE1
100
AcDbText
  0
TEXT
  5
191F5
100
AcDbEntity
  8
TEXT
100
AcDbText
 10
1225.386194
 20
90.617578
 30
0.0
 40
3.0
  1

  7
STYLE1
100
AcDbText
  0
TEXT
  5
191F6
100
AcDbEntity
  8
TEXT
100
AcDbText
 10
1425.386194
 20
90.617578
 30
0.0
 40
3.0
  1

  7
STYLE1
100
AcDbText
  0
TEXT
  5
191F7
100
AcDbEntity
  8
TEXT
100
AcDbText
 10
1425.386194
 20
90.617578
 30
0.0
 40
3.0
  1

  7
STYLE1
100
AcDbText
  0
TEXT
  5
191F8
100
AcDbEntity
  8
TEXT
100
AcDbText
 10
1625.386194
 20
90.617578
 30
0.0
 40
3.0
  1

  7
STYLE1
100
AcDbText
  0
TEXT
  5
191F9
100
AcDbEntity
  8
TEXT
100
AcDbText
 10
825.386194
 20
90.617578
 30
0.0
 40
3.0
  1

  7
STYLE1
100
AcDbText
  0
TEXT
  5
191FA
100
AcDbEntity
  8
TEXT
100
AcDbText
 10
1025.386194
 20
90.617578
 30
0.0
 40
3.0
  1

  7
STYLE1
100
AcDbText
  0
TEXT
  5
191FB
100
AcDbEntity
  8
TEXT
100
AcDbText
 10
1025.386194
 20
90.617578
 30
0.0
 40
3.0
  1

  7
STYLE1
100
AcDbText
  0
TEXT
  5
191FC
100
AcDbEntity
  8
TEXT
100
AcDbText
 10
1225.386194
 20
90.617578
 30
0.0
 40
3.0
  1

  7
STYLE1
100
AcDbText
  0
TEXT
  5
191FD
100
AcDbEntity
  8
TEXT
100
AcDbText
 10
1225.386194
 20
90.617578
 30
0.0
 40
3.0
  1

  7
STYLE1
100
AcDbText
  0
TEXT
  5
191FE
100
AcDbEntity
  8
TEXT
100
AcDbText
 10
1425.386194
 20
90.617578
 30
0.0
 40
3.0
  1

  7
STYLE1
100
AcDbText
  0
TEXT
  5
191FF
100
AcDbEntity
  8
TEXT
100
AcDbText
 10
1025.386194
 20
90.617578
 30
0.0
 40
3.0
  1

  7
STYLE1
100
AcDbText
  0
TEXT
  5
19200
100
AcDbEntity
  8
TEXT
100
AcDbText
 10
1225.386194
 20
90.617578
 30
0.0
 40
3.0
  1

  7
STYLE1
100
AcDbText
  0
TEXT
  5
19201
100
AcDbEntity
  8
TEXT
100
AcDbText
 10
1225.386194
 20
90.617578
 30
0.0
 40
3.0
  1

  7
STYLE1
100
AcDbText
  0
TEXT
  5
19202
100
AcDbEntity
  8
TEXT
100
AcDbText
 10
1425.386194
 20
90.617578
 30
0.0
 40
3.0
  1

  7
STYLE1
100
AcDbText
  0
TEXT
  5
19203
100
AcDbEntity
  8
TEXT
100
AcDbText
 10
1025.386194
 20
90.617578
 30
0.0
 40
3.0
  1

  7
STYLE1
100
AcDbText
  0
TEXT
  5
19204
100
AcDbEntity
  8
TEXT
100
AcDbText
 10
1225.386194
 20
90.617578
 30
0.0
 40
3.0
  1

  7
STYLE1
100
AcDbText
  0
TEXT
  5
19205
100
AcDbEntity
  8
TEXT
100
AcDbText
 10
1225.386194
 20
90.617578
 30
0.0
 40
3.0
  1

  7
STYLE1
100
AcDbText
  0
TEXT
  5
19206
100
AcDbEntity
  8
TEXT
100
AcDbText
 10
1425.386194
 20
90.617578
 30
0.0
 40
3.0
  1

  7
STYLE1
100
AcDbText
  0
TEXT
  5
19207
100
AcDbEntity
  8
TEXT
100
AcDbText
 10
1425.386194
 20
90.617578
 30
0.0
 40
3.0
  1

  7
STYLE1
100
AcDbText
  0
TEXT
  5
19208
100
AcDbEntity
  8
TEXT
100
AcDbText
 10
1625.386194
 20
90.617578
 30
0.0
 40
3.0
  1

  7
STYLE1
100
AcDbText
  0
TEXT
  5
19209
100
AcDbEntity
  8
TEXT
100
AcDbText
 10
1225.386194
 20
90.617578
 30
0.0
 40
3.0
  1

  7
STYLE1
100
AcDbText
  0
TEXT
  5
1920A
100
AcDbEntity
  8
TEXT
100
AcDbText
 10
1425.386194
 20
90.617578
 30
0.0
 40
3.0
  1

  7
STYLE1
100
AcDbText
  0
TEXT
  5
1920B
100
AcDbEntity
  8
TEXT
100
AcDbText
 10
1425.386194
 20
90.617578
 30
0.0
 40
3.0
  1

  7
STYLE1
100
AcDbText
  0
TEXT
  5
1920C
100
AcDbEntity
  8
TEXT
100
AcDbText
 10
1625.386194
 20
90.617578
 30
0.0
 40
3.0
  1

  7
STYLE1
100
AcDbText
  0
TEXT
  5
1920D
100
AcDbEntity
  8
TEXT
100
AcDbText
 10
825.386194
 20
90.617578
 30
0.0
 40
3.0
  1

  7
STYLE1
100
AcDbText
  0
TEXT
  5
1920E
100
AcDbEntity
  8
TEXT
100
AcDbText
 10
1025.386194
 20
90.617578
 30
0.0
 40
3.0
  1

  7
STYLE1
100
AcDbText
  0
TEXT
  5
1920F
100
AcDbEntity
  8
TEXT
100
AcDbText
 10
1025.386194
 20
90.617578
 30
0.0
 40
3.0
  1

  7
STYLE1
100
AcDbText
  0
TEXT
  5
19210
100
AcDbEntity
  8
TEXT
100
AcDbText
 10
1225.386194
 20
90.617578
 30
0.0
 40
3.0
  1

  7
STYLE1
100
AcDbText
  0
TEXT
  5
19211
100
AcDbEntity
  8
TEXT
100
AcDbText
 10
1225.386194
 20
90.617578
 30
0.0
 40
3.0
  1

  7
STYLE1
100
AcDbText
  0
TEXT
  5
19212
100
AcDbEntity
  8
TEXT
100
AcDbText
 10
1425.386194
 20
90.617578
 30
0.0
 40
3.0
  1

  7
STYLE1
100
AcDbText
  0
TEXT
  5
19213
100
AcDbEntity
  8
TEXT
100
AcDbText
 10
1025.386194
 20
90.617578
 30
0.0
 40
3.0
  1

  7
STYLE1
100
AcDbText
  0
TEXT
  5
19214
100
AcDbEntity
  8
TEXT
100
AcDbText
 10
1225.386194
 20
90.617578
 30
0.0
 40
3.0
  1

  7
STYLE1
100
AcDbText
  0
TEXT
  5
19215
100
AcDbEntity
  8
TEXT
100
AcDbText
 10
1225.386194
 20
90.617578
 30
0.0
 40
3.0
  1

  7
STYLE1
100
AcDbText
  0
TEXT
  5
19216
100
AcDbEntity
  8
TEXT
100
AcDbText
 10
1425.386194
 20
90.617578
 30
0.0
 40
3.0
  1

  7
STYLE1
100
AcDbText
  0
TEXT
  5
19217
100
AcDbEntity
  8
TEXT
100
AcDbText
 10
1025.386194
 20
90.617578
 30
0.0
 40
3.0
  1

  7
STYLE1
100
AcDbText
  0
TEXT
  5
19218
100
AcDbEntity
  8
TEXT
100
AcDbText
 10
1225.386194
 20
90.617578
 30
0.0
 40
3.0
  1

  7
STYLE1
100
AcDbText
  0
TEXT
  5
19219
100
AcDbEntity
  8
TEXT
100
AcDbText
 10
1225.386194
 20
90.617578
 30
0.0
 40
3.0
  1

  7
STYLE1
100
AcDbText
  0
TEXT
  5
1921A
100
AcDbEntity
  8
TEXT
100
AcDbText
 10
1425.386194
 20
90.617578
 30
0.0
 40
3.0
  1

  7
STYLE1
100
AcDbText
  0
TEXT
  5
1921B
100
AcDbEntity
  8
TEXT
100
AcDbText
 10
1425.386194
 20
90.617578
 30
0.0
 40
3.0
  1

  7
STYLE1
100
AcDbText
  0
TEXT
  5
1921C
100
AcDbEntity
  8
TEXT
100
AcDbText
 10
1625.386194
 20
90.617578
 30
0.0
 40
3.0
  1

  7
STYLE1
100
AcDbText
  0
TEXT
  5
1921D
100
AcDbEntity
  8
TEXT
100
AcDbText
 10
1225.386194
 20
90.617578
 30
0.0
 40
3.0
  1

  7
STYLE1
100
AcDbText
  0
TEXT
  5
1921E
100
AcDbEntity
  8
TEXT
100
AcDbText
 10
1425.386194
 20
90.617578
 30
0.0
 40
3.0
  1

  7
STYLE1
100
AcDbText
  0
TEXT
  5
1921F
100
AcDbEntity
  8
TEXT
100
AcDbText
 10
1425.386194
 20
90.617578
 30
0.0
 40
3.0
  1

  7
STYLE1
100
AcDbText
  0
TEXT
  5
19220
100
AcDbEntity
  8
TEXT
100
AcDbText
 10
1625.386194
 20
90.617578
 30
0.0
 40
3.0
  1

  7
STYLE1
100
AcDbText
  0
TEXT
  5
19221
100
AcDbEntity
  8
TEXT
100
AcDbText
 10
1225.386194
 20
90.617578
 30
0.0
 40
3.0
  1

  7
STYLE1
100
AcDbText
  0
TEXT
  5
19222
100
AcDbEntity
  8
TEXT
100
AcDbText
 10
1425.386194
 20
90.617578
 30
0.0
 40
3.0
  1

  7
STYLE1
100
AcDbText
  0
TEXT
  5
19223
100
AcDbEntity
  8
TEXT
100
AcDbText
 10
1425.386194
 20
90.617578
 30
0.0
 40
3.0
  1

  7
STYLE1
100
AcDbText
  0
TEXT
  5
19224
100
AcDbEntity
  8
TEXT
100
AcDbText
 10
1625.386194
 20
90.617578
 30
0.0
 40
3.0
  1

  7
STYLE1
100
AcDbText
  0
TEXT
  5
19225
100
AcDbEntity
  8
TEXT
100
AcDbText
 10
1625.386194
 20
90.617578
 30
0.0
 40
3.0
  1

  7
STYLE1
100
AcDbText
  0
TEXT
  5
19226
100
AcDbEntity
  8
TEXT
100
AcDbText
 10
1825.386194
 20
90.617578
 30
0.0
 40
3.0
  1

  7
STYLE1
100
AcDbText
  0
TEXT
  5
19227
100
AcDbEntity
  8
TEXT
100
AcDbText
 10
1425.386194
 20
90.617578
 30
0.0
 40
3.0
  1

  7
STYLE1
100
AcDbText
  0
TEXT
  5
19228
100
AcDbEntity
  8
TEXT
100
AcDbText
 10
1625.386194
 20
90.617578
 30
0.0
 40
3.0
  1

  7
STYLE1
100
AcDbText
  0
TEXT
  5
19229
100
AcDbEntity
  8
TEXT
100
AcDbText
 10
1625.386194
 20
90.617578
 30
0.0
 40
3.0
  1

  7
STYLE1
100
AcDbText
  0
TEXT
  5
1922A
100
AcDbEntity
  8
TEXT
100
AcDbText
 10
1825.386194
 20
90.617578
 30
0.0
 40
3.0
  1

  7
STYLE1
100
AcDbText
  0
TEXT
  5
1922B
100
AcDbEntity
  8
TEXT
100
AcDbText
 10
425.386194
 20
90.617578
 30
0.0
 40
3.0
  1

  7
STYLE1
100
AcDbText
  0
TEXT
  5
1922C
100
AcDbEntity
  8
TEXT
100
AcDbText
 10
625.386194
 20
90.617578
 30
0.0
 40
3.0
  1

  7
STYLE1
100
AcDbText
  0
TEXT
  5
1922D
100
AcDbEntity
  8
TEXT
100
AcDbText
 10
625.386194
 20
90.617578
 30
0.0
 40
3.0
  1

  7
STYLE1
100
AcDbText
  0
TEXT
  5
1922E
100
AcDbEntity
  8
TEXT
100
AcDbText
 10
825.386194
 20
90.617578
 30
0.0
 40
3.0
  1

  7
STYLE1
100
AcDbText
  0
TEXT
  5
1922F
100
AcDbEntity
  8
TEXT
100
AcDbText
 10
825.386194
 20
90.617578
 30
0.0
 40
3.0
  1

  7
STYLE1
100
AcDbText
  0
TEXT
  5
19230
100
AcDbEntity
  8
TEXT
100
AcDbText
 10
1025.386194
 20
90.617578
 30
0.0
 40
3.0
  1

  7
STYLE1
100
AcDbText
  0
TEXT
  5
19231
100
AcDbEntity
  8
TEXT
100
AcDbText
 10
625.386194
 20
90.617578
 30
0.0
 40
3.0
  1

  7
STYLE1
100
AcDbText
  0
TEXT
  5
19232
100
AcDbEntity
  8
TEXT
100
AcDbText
 10
825.386194
 20
90.617578
 30
0.0
 40
3.0
  1

  7
STYLE1
100
AcDbText
  0
TEXT
  5
19233
100
AcDbEntity
  8
TEXT
100
AcDbText
 10
825.386194
 20
90.617578
 30
0.0
 40
3.0
  1

  7
STYLE1
100
AcDbText
  0
TEXT
  5
19234
100
AcDbEntity
  8
TEXT
100
AcDbText
 10
1025.386194
 20
90.617578
 30
0.0
 40
3.0
  1

  7
STYLE1
100
AcDbText
  0
TEXT
  5
19235
100
AcDbEntity
  8
TEXT
100
AcDbText
 10
224.19231
 20
89.635819
 30
0.0
 40
3.0
  1

  7
STYLE1
100
AcDbText
  0
TEXT
  5
19236
100
AcDbEntity
  8
TEXT
100
AcDbText
 10
424.19231
 20
89.635819
 30
0.0
 40
3.0
  1

  7
STYLE1
100
AcDbText
  0
TEXT
  5
19237
100
AcDbEntity
  8
TEXT
100
AcDbText
 10
424.19231
 20
89.635819
 30
0.0
 40
3.0
  1

  7
STYLE1
100
AcDbText
  0
TEXT
  5
19238
100
AcDbEntity
  8
TEXT
100
AcDbText
 10
624.19231
 20
89.635819
 30
0.0
 40
3.0
  1

  7
STYLE1
100
AcDbText
  0
TEXT
  5
19239
100
AcDbEntity
  8
TEXT
100
AcDbText
 10
624.19231
 20
89.635819
 30
0.0
 40
3.0
  1

  7
STYLE1
100
AcDbText
  0
TEXT
  5
1923A
100
AcDbEntity
  8
TEXT
100
AcDbText
 10
824.19231
 20
89.635819
 30
0.0
 40
3.0
  1

  7
STYLE1
100
AcDbText
  0
TEXT
  5
1923B
100
AcDbEntity
  8
TEXT
100
AcDbText
 10
424.19231
 20
89.635819
 30
0.0
 40
3.0
  1

  7
STYLE1
100
AcDbText
  0
TEXT
  5
1923C
100
AcDbEntity
  8
TEXT
100
AcDbText
 10
624.19231
 20
89.635819
 30
0.0
 40
3.0
  1

  7
STYLE1
100
AcDbText
  0
TEXT
  5
1923D
100
AcDbEntity
  8
TEXT
100
AcDbText
 10
624.19231
 20
89.635819
 30
0.0
 40
3.0
  1

  7
STYLE1
100
AcDbText
  0
TEXT
  5
1923E
100
AcDbEntity
  8
TEXT
100
AcDbText
 10
824.19231
 20
89.635819
 30
0.0
 40
3.0
  1

  7
STYLE1
100
AcDbText
  0
TEXT
  5
1923F
100
AcDbEntity
  8
TEXT
100
AcDbText
 10
424.19231
 20
89.635819
 30
0.0
 40
3.0
  1

  7
STYLE1
100
AcDbText
  0
TEXT
  5
19240
100
AcDbEntity
  8
TEXT
100
AcDbText
 10
624.19231
 20
89.635819
 30
0.0
 40
3.0
  1

  7
STYLE1
100
AcDbText
  0
TEXT
  5
19241
100
AcDbEntity
  8
TEXT
100
AcDbText
 10
624.19231
 20
89.635819
 30
0.0
 40
3.0
  1

  7
STYLE1
100
AcDbText
  0
TEXT
  5
19242
100
AcDbEntity
  8
TEXT
100
AcDbText
 10
824.19231
 20
89.635819
 30
0.0
 40
3.0
  1

  7
STYLE1
100
AcDbText
  0
TEXT
  5
19243
100
AcDbEntity
  8
TEXT
100
AcDbText
 10
824.19231
 20
89.635819
 30
0.0
 40
3.0
  1

  7
STYLE1
100
AcDbText
  0
TEXT
  5
19244
100
AcDbEntity
  8
TEXT
100
AcDbText
 10
1024.19231
 20
89.635819
 30
0.0
 40
3.0
  1

  7
STYLE1
100
AcDbText
  0
TEXT
  5
19245
100
AcDbEntity
  8
TEXT
100
AcDbText
 10
624.19231
 20
89.635819
 30
0.0
 40
3.0
  1

  7
STYLE1
100
AcDbText
  0
TEXT
  5
19246
100
AcDbEntity
  8
TEXT
100
AcDbText
 10
824.19231
 20
89.635819
 30
0.0
 40
3.0
  1

  7
STYLE1
100
AcDbText
  0
TEXT
  5
19247
100
AcDbEntity
  8
TEXT
100
AcDbText
 10
824.19231
 20
89.635819
 30
0.0
 40
3.0
  1

  7
STYLE1
100
AcDbText
  0
TEXT
  5
19248
100
AcDbEntity
  8
TEXT
100
AcDbText
 10
1024.19231
 20
89.635819
 30
0.0
 40
3.0
  1

  7
STYLE1
100
AcDbText
  0
TEXT
  5
19249
100
AcDbEntity
  8
TEXT
100
AcDbText
 10
624.19231
 20
89.635819
 30
0.0
 40
3.0
  1

  7
STYLE1
100
AcDbText
  0
TEXT
  5
1924A
100
AcDbEntity
  8
TEXT
100
AcDbText
 10
824.19231
 20
89.635819
 30
0.0
 40
3.0
  1

  7
STYLE1
100
AcDbText
  0
TEXT
  5
1924B
100
AcDbEntity
  8
TEXT
100
AcDbText
 10
824.19231
 20
89.635819
 30
0.0
 40
3.0
  1

  7
STYLE1
100
AcDbText
  0
TEXT
  5
1924C
100
AcDbEntity
  8
TEXT
100
AcDbText
 10
1024.19231
 20
89.635819
 30
0.0
 40
3.0
  1

  7
STYLE1
100
AcDbText
  0
TEXT
  5
1924D
100
AcDbEntity
  8
TEXT
100
AcDbText
 10
1024.19231
 20
89.635819
 30
0.0
 40
3.0
  1

  7
STYLE1
100
AcDbText
  0
TEXT
  5
1924E
100
AcDbEntity
  8
TEXT
100
AcDbText
 10
1224.19231
 20
89.635819
 30
0.0
 40
3.0
  1

  7
STYLE1
100
AcDbText
  0
TEXT
  5
1924F
100
AcDbEntity
  8
TEXT
100
AcDbText
 10
824.19231
 20
89.635819
 30
0.0
 40
3.0
  1

  7
STYLE1
100
AcDbText
  0
TEXT
  5
19250
100
AcDbEntity
  8
TEXT
100
AcDbText
 10
1024.19231
 20
89.635819
 30
0.0
 40
3.0
  1

  7
STYLE1
100
AcDbText
  0
TEXT
  5
19251
100
AcDbEntity
  8
TEXT
100
AcDbText
 10
1024.19231
 20
89.635819
 30
0.0
 40
3.0
  1

  7
STYLE1
100
AcDbText
  0
TEXT
  5
19252
100
AcDbEntity
  8
TEXT
100
AcDbText
 10
1224.19231
 20
89.635819
 30
0.0
 40
3.0
  1

  7
STYLE1
100
AcDbText
  0
TEXT
  5
19253
100
AcDbEntity
  8
TEXT
100
AcDbText
 10
824.19231
 20
89.635819
 30
0.0
 40
3.0
  1

  7
STYLE1
100
AcDbText
  0
TEXT
  5
19254
100
AcDbEntity
  8
TEXT
100
AcDbText
 10
1024.19231
 20
89.635819
 30
0.0
 40
3.0
  1

  7
STYLE1
100
AcDbText
  0
TEXT
  5
19255
100
AcDbEntity
  8
TEXT
100
AcDbText
 10
1024.19231
 20
89.635819
 30
0.0
 40
3.0
  1

  7
STYLE1
100
AcDbText
  0
TEXT
  5
19256
100
AcDbEntity
  8
TEXT
100
AcDbText
 10
1224.19231
 20
89.635819
 30
0.0
 40
3.0
  1

  7
STYLE1
100
AcDbText
  0
TEXT
  5
19257
100
AcDbEntity
  8
TEXT
100
AcDbText
 10
1224.19231
 20
89.635819
 30
0.0
 40
3.0
  1

  7
STYLE1
100
AcDbText
  0
TEXT
  5
19258
100
AcDbEntity
  8
TEXT
100
AcDbText
 10
1424.19231
 20
89.635819
 30
0.0
 40
3.0
  1

  7
STYLE1
100
AcDbText
  0
TEXT
  5
19259
100
AcDbEntity
  8
TEXT
100
AcDbText
 10
1024.19231
 20
89.635819
 30
0.0
 40
3.0
  1

  7
STYLE1
100
AcDbText
  0
TEXT
  5
1925A
100
AcDbEntity
  8
TEXT
100
AcDbText
 10
1224.19231
 20
89.635819
 30
0.0
 40
3.0
  1

  7
STYLE1
100
AcDbText
  0
TEXT
  5
1925B
100
AcDbEntity
  8
TEXT
100
AcDbText
 10
1224.19231
 20
89.635819
 30
0.0
 40
3.0
  1

  7
STYLE1
100
AcDbText
  0
TEXT
  5
1925C
100
AcDbEntity
  8
TEXT
100
AcDbText
 10
1424.19231
 20
89.635819
 30
0.0
 40
3.0
  1

  7
STYLE1
100
AcDbText
  0
TEXT
  5
1925D
100
AcDbEntity
  8
TEXT
100
AcDbText
 10
624.19231
 20
89.635819
 30
0.0
 40
3.0
  1

  7
STYLE1
100
AcDbText
  0
TEXT
  5
1925E
100
AcDbEntity
  8
TEXT
100
AcDbText
 10
824.19231
 20
89.635819
 30
0.0
 40
3.0
  1

  7
STYLE1
100
AcDbText
  0
TEXT
  5
1925F
100
AcDbEntity
  8
TEXT
100
AcDbText
 10
824.19231
 20
89.635819
 30
0.0
 40
3.0
  1

  7
STYLE1
100
AcDbText
  0
TEXT
  5
19260
100
AcDbEntity
  8
TEXT
100
AcDbText
 10
1024.19231
 20
89.635819
 30
0.0
 40
3.0
  1

  7
STYLE1
100
AcDbText
  0
TEXT
  5
19261
100
AcDbEntity
  8
TEXT
100
AcDbText
 10
1024.19231
 20
89.635819
 30
0.0
 40
3.0
  1

  7
STYLE1
100
AcDbText
  0
TEXT
  5
19262
100
AcDbEntity
  8
TEXT
100
AcDbText
 10
1224.19231
 20
89.635819
 30
0.0
 40
3.0
  1

  7
STYLE1
100
AcDbText
  0
TEXT
  5
19263
100
AcDbEntity
  8
TEXT
100
AcDbText
 10
824.19231
 20
89.635819
 30
0.0
 40
3.0
  1

  7
STYLE1
100
AcDbText
  0
TEXT
  5
19264
100
AcDbEntity
  8
TEXT
100
AcDbText
 10
1024.19231
 20
89.635819
 30
0.0
 40
3.0
  1

  7
STYLE1
100
AcDbText
  0
TEXT
  5
19265
100
AcDbEntity
  8
TEXT
100
AcDbText
 10
1024.19231
 20
89.635819
 30
0.0
 40
3.0
  1

  7
STYLE1
100
AcDbText
  0
TEXT
  5
19266
100
AcDbEntity
  8
TEXT
100
AcDbText
 10
1224.19231
 20
89.635819
 30
0.0
 40
3.0
  1

  7
STYLE1
100
AcDbText
  0
TEXT
  5
19267
100
AcDbEntity
  8
TEXT
100
AcDbText
 10
824.19231
 20
89.635819
 30
0.0
 40
3.0
  1

  7
STYLE1
100
AcDbText
  0
TEXT
  5
19268
100
AcDbEntity
  8
TEXT
100
AcDbText
 10
1024.19231
 20
89.635819
 30
0.0
 40
3.0
  1

  7
STYLE1
100
AcDbText
  0
TEXT
  5
19269
100
AcDbEntity
  8
TEXT
100
AcDbText
 10
1024.19231
 20
89.635819
 30
0.0
 40
3.0
  1

  7
STYLE1
100
AcDbText
  0
TEXT
  5
1926A
100
AcDbEntity
  8
TEXT
100
AcDbText
 10
1224.19231
 20
89.635819
 30
0.0
 40
3.0
  1

  7
STYLE1
100
AcDbText
  0
TEXT
  5
1926B
100
AcDbEntity
  8
TEXT
100
AcDbText
 10
1224.19231
 20
89.635819
 30
0.0
 40
3.0
  1

  7
STYLE1
100
AcDbText
  0
TEXT
  5
1926C
100
AcDbEntity
  8
TEXT
100
AcDbText
 10
1424.19231
 20
89.635819
 30
0.0
 40
3.0
  1

  7
STYLE1
100
AcDbText
  0
TEXT
  5
1926D
100
AcDbEntity
  8
TEXT
100
AcDbText
 10
1024.19231
 20
89.635819
 30
0.0
 40
3.0
  1

  7
STYLE1
100
AcDbText
  0
TEXT
  5
1926E
100
AcDbEntity
  8
TEXT
100
AcDbText
 10
1224.19231
 20
89.635819
 30
0.0
 40
3.0
  1

  7
STYLE1
100
AcDbText
  0
TEXT
  5
1926F
100
AcDbEntity
  8
TEXT
100
AcDbText
 10
1224.19231
 20
89.635819
 30
0.0
 40
3.0
  1

  7
STYLE1
100
AcDbText
  0
TEXT
  5
19270
100
AcDbEntity
  8
TEXT
100
AcDbText
 10
1424.19231
 20
89.635819
 30
0.0
 40
3.0
  1

  7
STYLE1
100
AcDbText
  0
TEXT
  5
19271
100
AcDbEntity
  8
TEXT
100
AcDbText
 10
624.19231
 20
89.635819
 30
0.0
 40
3.0
  1

  7
STYLE1
100
AcDbText
  0
TEXT
  5
19272
100
AcDbEntity
  8
TEXT
100
AcDbText
 10
824.19231
 20
89.635819
 30
0.0
 40
3.0
  1

  7
STYLE1
100
AcDbText
  0
TEXT
  5
19273
100
AcDbEntity
  8
TEXT
100
AcDbText
 10
824.19231
 20
89.635819
 30
0.0
 40
3.0
  1

  7
STYLE1
100
AcDbText
  0
TEXT
  5
19274
100
AcDbEntity
  8
TEXT
100
AcDbText
 10
1024.19231
 20
89.635819
 30
0.0
 40
3.0
  1

  7
STYLE1
100
AcDbText
  0
TEXT
  5
19275
100
AcDbEntity
  8
TEXT
100
AcDbText
 10
1024.19231
 20
89.635819
 30
0.0
 40
3.0
  1

  7
STYLE1
100
AcDbText
  0
TEXT
  5
19276
100
AcDbEntity
  8
TEXT
100
AcDbText
 10
1224.19231
 20
89.635819
 30
0.0
 40
3.0
  1

  7
STYLE1
100
AcDbText
  0
TEXT
  5
19277
100
AcDbEntity
  8
TEXT
100
AcDbText
 10
824.19231
 20
89.635819
 30
0.0
 40
3.0
  1

  7
STYLE1
100
AcDbText
  0
TEXT
  5
19278
100
AcDbEntity
  8
TEXT
100
AcDbText
 10
1024.19231
 20
89.635819
 30
0.0
 40
3.0
  1

  7
STYLE1
100
AcDbText
  0
TEXT
  5
19279
100
AcDbEntity
  8
TEXT
100
AcDbText
 10
1024.19231
 20
89.635819
 30
0.0
 40
3.0
  1

  7
STYLE1
100
AcDbText
  0
TEXT
  5
1927A
100
AcDbEntity
  8
TEXT
100
AcDbText
 10
1224.19231
 20
89.635819
 30
0.0
 40
3.0
  1

  7
STYLE1
100
AcDbText
  0
TEXT
  5
1927B
100
AcDbEntity
  8
TEXT
100
AcDbText
 10
824.19231
 20
89.635819
 30
0.0
 40
3.0
  1

  7
STYLE1
100
AcDbText
  0
TEXT
  5
1927C
100
AcDbEntity
  8
TEXT
100
AcDbText
 10
1024.19231
 20
89.635819
 30
0.0
 40
3.0
  1

  7
STYLE1
100
AcDbText
  0
TEXT
  5
1927D
100
AcDbEntity
  8
TEXT
100
AcDbText
 10
1024.19231
 20
89.635819
 30
0.0
 40
3.0
  1

  7
STYLE1
100
AcDbText
  0
TEXT
  5
1927E
100
AcDbEntity
  8
TEXT
100
AcDbText
 10
1224.19231
 20
89.635819
 30
0.0
 40
3.0
  1

  7
STYLE1
100
AcDbText
  0
TEXT
  5
1927F
100
AcDbEntity
  8
TEXT
100
AcDbText
 10
1224.19231
 20
89.635819
 30
0.0
 40
3.0
  1

  7
STYLE1
100
AcDbText
  0
TEXT
  5
19280
100
AcDbEntity
  8
TEXT
100
AcDbText
 10
1424.19231
 20
89.635819
 30
0.0
 40
3.0
  1

  7
STYLE1
100
AcDbText
  0
TEXT
  5
19281
100
AcDbEntity
  8
TEXT
100
AcDbText
 10
1024.19231
 20
89.635819
 30
0.0
 40
3.0
  1

  7
STYLE1
100
AcDbText
  0
TEXT
  5
19282
100
AcDbEntity
  8
TEXT
100
AcDbText
 10
1224.19231
 20
89.635819
 30
0.0
 40
3.0
  1

  7
STYLE1
100
AcDbText
  0
TEXT
  5
19283
100
AcDbEntity
  8
TEXT
100
AcDbText
 10
1224.19231
 20
89.635819
 30
0.0
 40
3.0
  1

  7
STYLE1
100
AcDbText
  0
TEXT
  5
19284
100
AcDbEntity
  8
TEXT
100
AcDbText
 10
1424.19231
 20
89.635819
 30
0.0
 40
3.0
  1

  7
STYLE1
100
AcDbText
  0
TEXT
  5
19285
100
AcDbEntity
  8
TEXT
100
AcDbText
 10
1024.19231
 20
89.635819
 30
0.0
 40
3.0
  1

  7
STYLE1
100
AcDbText
  0
TEXT
  5
19286
100
AcDbEntity
  8
TEXT
100
AcDbText
 10
1224.19231
 20
89.635819
 30
0.0
 40
3.0
  1

  7
STYLE1
100
AcDbText
  0
TEXT
  5
19287
100
AcDbEntity
  8
TEXT
100
AcDbText
 10
1224.19231
 20
89.635819
 30
0.0
 40
3.0
  1

  7
STYLE1
100
AcDbText
  0
TEXT
  5
19288
100
AcDbEntity
  8
TEXT
100
AcDbText
 10
1424.19231
 20
89.635819
 30
0.0
 40
3.0
  1

  7
STYLE1
100
AcDbText
  0
TEXT
  5
19289
100
AcDbEntity
  8
TEXT
100
AcDbText
 10
1424.19231
 20
89.635819
 30
0.0
 40
3.0
  1

  7
STYLE1
100
AcDbText
  0
TEXT
  5
1928A
100
AcDbEntity
  8
TEXT
100
AcDbText
 10
1624.19231
 20
89.635819
 30
0.0
 40
3.0
  1

  7
STYLE1
100
AcDbText
  0
TEXT
  5
1928B
100
AcDbEntity
  8
TEXT
100
AcDbText
 10
1224.19231
 20
89.635819
 30
0.0
 40
3.0
  1

  7
STYLE1
100
AcDbText
  0
TEXT
  5
1928C
100
AcDbEntity
  8
TEXT
100
AcDbText
 10
1424.19231
 20
89.635819
 30
0.0
 40
3.0
  1

  7
STYLE1
100
AcDbText
  0
TEXT
  5
1928D
100
AcDbEntity
  8
TEXT
100
AcDbText
 10
1424.19231
 20
89.635819
 30
0.0
 40
3.0
  1

  7
STYLE1
100
AcDbText
  0
TEXT
  5
1928E
100
AcDbEntity
  8
TEXT
100
AcDbText
 10
1624.19231
 20
89.635819
 30
0.0
 40
3.0
  1

  7
STYLE1
100
AcDbText
  0
TEXT
  5
1928F
100
AcDbEntity
  8
TEXT
100
AcDbText
 10
824.19231
 20
89.635819
 30
0.0
 40
3.0
  1

  7
STYLE1
100
AcDbText
  0
TEXT
  5
19290
100
AcDbEntity
  8
TEXT
100
AcDbText
 10
1024.19231
 20
89.635819
 30
0.0
 40
3.0
  1

  7
STYLE1
100
AcDbText
  0
TEXT
  5
19291
100
AcDbEntity
  8
TEXT
100
AcDbText
 10
1024.19231
 20
89.635819
 30
0.0
 40
3.0
  1

  7
STYLE1
100
AcDbText
  0
TEXT
  5
19292
100
AcDbEntity
  8
TEXT
100
AcDbText
 10
1224.19231
 20
89.635819
 30
0.0
 40
3.0
  1

  7
STYLE1
100
AcDbText
  0
TEXT
  5
19293
100
AcDbEntity
  8
TEXT
100
AcDbText
 10
1224.19231
 20
89.635819
 30
0.0
 40
3.0
  1

  7
STYLE1
100
AcDbText
  0
TEXT
  5
19294
100
AcDbEntity
  8
TEXT
100
AcDbText
 10
1424.19231
 20
89.635819
 30
0.0
 40
3.0
  1

  7
STYLE1
100
AcDbText
  0
TEXT
  5
19295
100
AcDbEntity
  8
TEXT
100
AcDbText
 10
1024.19231
 20
89.635819
 30
0.0
 40
3.0
  1

  7
STYLE1
100
AcDbText
  0
TEXT
  5
19296
100
AcDbEntity
  8
TEXT
100
AcDbText
 10
1224.19231
 20
89.635819
 30
0.0
 40
3.0
  1

  7
STYLE1
100
AcDbText
  0
TEXT
  5
19297
100
AcDbEntity
  8
TEXT
100
AcDbText
 10
1224.19231
 20
89.635819
 30
0.0
 40
3.0
  1

  7
STYLE1
100
AcDbText
  0
TEXT
  5
19298
100
AcDbEntity
  8
TEXT
100
AcDbText
 10
1424.19231
 20
89.635819
 30
0.0
 40
3.0
  1

  7
STYLE1
100
AcDbText
  0
TEXT
  5
19299
100
AcDbEntity
  8
TEXT
100
AcDbText
 10
1024.19231
 20
89.635819
 30
0.0
 40
3.0
  1

  7
STYLE1
100
AcDbText
  0
TEXT
  5
1929A
100
AcDbEntity
  8
TEXT
100
AcDbText
 10
1224.19231
 20
89.635819
 30
0.0
 40
3.0
  1

  7
STYLE1
100
AcDbText
  0
TEXT
  5
1929B
100
AcDbEntity
  8
TEXT
100
AcDbText
 10
1224.19231
 20
89.635819
 30
0.0
 40
3.0
  1

  7
STYLE1
100
AcDbText
  0
TEXT
  5
1929C
100
AcDbEntity
  8
TEXT
100
AcDbText
 10
1424.19231
 20
89.635819
 30
0.0
 40
3.0
  1

  7
STYLE1
100
AcDbText
  0
TEXT
  5
1929D
100
AcDbEntity
  8
TEXT
100
AcDbText
 10
1424.19231
 20
89.635819
 30
0.0
 40
3.0
  1

  7
STYLE1
100
AcDbText
  0
TEXT
  5
1929E
100
AcDbEntity
  8
TEXT
100
AcDbText
 10
1624.19231
 20
89.635819
 30
0.0
 40
3.0
  1

  7
STYLE1
100
AcDbText
  0
TEXT
  5
1929F
100
AcDbEntity
  8
TEXT
100
AcDbText
 10
1224.19231
 20
89.635819
 30
0.0
 40
3.0
  1

  7
STYLE1
100
AcDbText
  0
TEXT
  5
192A0
100
AcDbEntity
  8
TEXT
100
AcDbText
 10
1424.19231
 20
89.635819
 30
0.0
 40
3.0
  1

  7
STYLE1
100
AcDbText
  0
TEXT
  5
192A1
100
AcDbEntity
  8
TEXT
100
AcDbText
 10
1424.19231
 20
89.635819
 30
0.0
 40
3.0
  1

  7
STYLE1
100
AcDbText
  0
TEXT
  5
192A2
100
AcDbEntity
  8
TEXT
100
AcDbText
 10
1624.19231
 20
89.635819
 30
0.0
 40
3.0
  1

  7
STYLE1
100
AcDbText
  0
TEXT
  5
192A3
100
AcDbEntity
  8
TEXT
100
AcDbText
 10
824.19231
 20
89.635819
 30
0.0
 40
3.0
  1

  7
STYLE1
100
AcDbText
  0
TEXT
  5
192A4
100
AcDbEntity
  8
TEXT
100
AcDbText
 10
1024.19231
 20
89.635819
 30
0.0
 40
3.0
  1

  7
STYLE1
100
AcDbText
  0
TEXT
  5
192A5
100
AcDbEntity
  8
TEXT
100
AcDbText
 10
1024.19231
 20
89.635819
 30
0.0
 40
3.0
  1

  7
STYLE1
100
AcDbText
  0
TEXT
  5
192A6
100
AcDbEntity
  8
TEXT
100
AcDbText
 10
1224.19231
 20
89.635819
 30
0.0
 40
3.0
  1

  7
STYLE1
100
AcDbText
  0
TEXT
  5
192A7
100
AcDbEntity
  8
TEXT
100
AcDbText
 10
1224.19231
 20
89.635819
 30
0.0
 40
3.0
  1

  7
STYLE1
100
AcDbText
  0
TEXT
  5
192A8
100
AcDbEntity
  8
TEXT
100
AcDbText
 10
1424.19231
 20
89.635819
 30
0.0
 40
3.0
  1

  7
STYLE1
100
AcDbText
  0
TEXT
  5
192A9
100
AcDbEntity
  8
TEXT
100
AcDbText
 10
1024.19231
 20
89.635819
 30
0.0
 40
3.0
  1

  7
STYLE1
100
AcDbText
  0
TEXT
  5
192AA
100
AcDbEntity
  8
TEXT
100
AcDbText
 10
1224.19231
 20
89.635819
 30
0.0
 40
3.0
  1

  7
STYLE1
100
AcDbText
  0
TEXT
  5
192AB
100
AcDbEntity
  8
TEXT
100
AcDbText
 10
1224.19231
 20
89.635819
 30
0.0
 40
3.0
  1

  7
STYLE1
100
AcDbText
  0
TEXT
  5
192AC
100
AcDbEntity
  8
TEXT
100
AcDbText
 10
1424.19231
 20
89.635819
 30
0.0
 40
3.0
  1

  7
STYLE1
100
AcDbText
  0
TEXT
  5
192AD
100
AcDbEntity
  8
TEXT
100
AcDbText
 10
1024.19231
 20
89.635819
 30
0.0
 40
3.0
  1

  7
STYLE1
100
AcDbText
  0
TEXT
  5
192AE
100
AcDbEntity
  8
TEXT
100
AcDbText
 10
1224.19231
 20
89.635819
 30
0.0
 40
3.0
  1

  7
STYLE1
100
AcDbText
  0
TEXT
  5
192AF
100
AcDbEntity
  8
TEXT
100
AcDbText
 10
1224.19231
 20
89.635819
 30
0.0
 40
3.0
  1

  7
STYLE1
100
AcDbText
  0
TEXT
  5
192B0
100
AcDbEntity
  8
TEXT
100
AcDbText
 10
1424.19231
 20
89.635819
 30
0.0
 40
3.0
  1

  7
STYLE1
100
AcDbText
  0
TEXT
  5
192B1
100
AcDbEntity
  8
TEXT
100
AcDbText
 10
1424.19231
 20
89.635819
 30
0.0
 40
3.0
  1

  7
STYLE1
100
AcDbText
  0
TEXT
  5
192B2
100
AcDbEntity
  8
TEXT
100
AcDbText
 10
1624.19231
 20
89.635819
 30
0.0
 40
3.0
  1

  7
STYLE1
100
AcDbText
  0
TEXT
  5
192B3
100
AcDbEntity
  8
TEXT
100
AcDbText
 10
1224.19231
 20
89.635819
 30
0.0
 40
3.0
  1

  7
STYLE1
100
AcDbText
  0
TEXT
  5
192B4
100
AcDbEntity
  8
TEXT
100
AcDbText
 10
1424.19231
 20
89.635819
 30
0.0
 40
3.0
  1

  7
STYLE1
100
AcDbText
  0
TEXT
  5
192B5
100
AcDbEntity
  8
TEXT
100
AcDbText
 10
1424.19231
 20
89.635819
 30
0.0
 40
3.0
  1

  7
STYLE1
100
AcDbText
  0
TEXT
  5
192B6
100
AcDbEntity
  8
TEXT
100
AcDbText
 10
1624.19231
 20
89.635819
 30
0.0
 40
3.0
  1

  7
STYLE1
100
AcDbText
  0
TEXT
  5
192B7
100
AcDbEntity
  8
TEXT
100
AcDbText
 10
1224.19231
 20
89.635819
 30
0.0
 40
3.0
  1

  7
STYLE1
100
AcDbText
  0
TEXT
  5
192B8
100
AcDbEntity
  8
TEXT
100
AcDbText
 10
1424.19231
 20
89.635819
 30
0.0
 40
3.0
  1

  7
STYLE1
100
AcDbText
  0
TEXT
  5
192B9
100
AcDbEntity
  8
TEXT
100
AcDbText
 10
1424.19231
 20
89.635819
 30
0.0
 40
3.0
  1

  7
STYLE1
100
AcDbText
  0
TEXT
  5
192BA
100
AcDbEntity
  8
TEXT
100
AcDbText
 10
1624.19231
 20
89.635819
 30
0.0
 40
3.0
  1

  7
STYLE1
100
AcDbText
  0
TEXT
  5
192BB
100
AcDbEntity
  8
TEXT
100
AcDbText
 10
1624.19231
 20
89.635819
 30
0.0
 40
3.0
  1

  7
STYLE1
100
AcDbText
  0
TEXT
  5
192BC
100
AcDbEntity
  8
TEXT
100
AcDbText
 10
1824.19231
 20
89.635819
 30
0.0
 40
3.0
  1

  7
STYLE1
100
AcDbText
  0
TEXT
  5
192BD
100
AcDbEntity
  8
TEXT
100
AcDbText
 10
1424.19231
 20
89.635819
 30
0.0
 40
3.0
  1

  7
STYLE1
100
AcDbText
  0
TEXT
  5
192BE
100
AcDbEntity
  8
TEXT
100
AcDbText
 10
1624.19231
 20
89.635819
 30
0.0
 40
3.0
  1

  7
STYLE1
100
AcDbText
  0
TEXT
  5
192BF
100
AcDbEntity
  8
TEXT
100
AcDbText
 10
1624.19231
 20
89.635819
 30
0.0
 40
3.0
  1

  7
STYLE1
100
AcDbText
  0
TEXT
  5
192C0
100
AcDbEntity
  8
TEXT
100
AcDbText
 10
1824.19231
 20
89.635819
 30
0.0
 40
3.0
  1

  7
STYLE1
100
AcDbText
  0
TEXT
  5
192C1
100
AcDbEntity
  8
TEXT
100
AcDbText
 10
424.19231
 20
89.635819
 30
0.0
 40
3.0
  1

  7
STYLE1
100
AcDbText
  0
TEXT
  5
192C2
100
AcDbEntity
  8
TEXT
100
AcDbText
 10
624.19231
 20
89.635819
 30
0.0
 40
3.0
  1

  7
STYLE1
100
AcDbText
  0
TEXT
  5
192C3
100
AcDbEntity
  8
TEXT
100
AcDbText
 10
624.19231
 20
89.635819
 30
0.0
 40
3.0
  1

  7
STYLE1
100
AcDbText
  0
TEXT
  5
192C4
100
AcDbEntity
  8
TEXT
100
AcDbText
 10
824.19231
 20
89.635819
 30
0.0
 40
3.0
  1

  7
STYLE1
100
AcDbText
  0
TEXT
  5
192C5
100
AcDbEntity
  8
TEXT
100
AcDbText
 10
824.19231
 20
89.635819
 30
0.0
 40
3.0
  1

  7
STYLE1
100
AcDbText
  0
TEXT
  5
192C6
100
AcDbEntity
  8
TEXT
100
AcDbText
 10
1024.19231
 20
89.635819
 30
0.0
 40
3.0
  1

  7
STYLE1
100
AcDbText
  0
TEXT
  5
192C7
100
AcDbEntity
  8
TEXT
100
AcDbText
 10
624.19231
 20
89.635819
 30
0.0
 40
3.0
  1

  7
STYLE1
100
AcDbText
  0
TEXT
  5
192C8
100
AcDbEntity
  8
TEXT
100
AcDbText
 10
824.19231
 20
89.635819
 30
0.0
 40
3.0
  1

  7
STYLE1
100
AcDbText
  0
TEXT
  5
192C9
100
AcDbEntity
  8
TEXT
100
AcDbText
 10
824.19231
 20
89.635819
 30
0.0
 40
3.0
  1

  7
STYLE1
100
AcDbText
  0
TEXT
  5
192CA
100
AcDbEntity
  8
TEXT
100
AcDbText
 10
1024.19231
 20
89.635819
 30
0.0
 40
3.0
  1

  7
STYLE1
100
AcDbText
  0
TEXT
  5
192CB
100
AcDbEntity
  8
TEXT
100
AcDbText
 10
223.268294
 20
89.092683
 30
0.0
 40
3.0
  1

  7
STYLE1
100
AcDbText
  0
TEXT
  5
192CC
100
AcDbEntity
  8
TEXT
100
AcDbText
 10
423.268294
 20
89.092683
 30
0.0
 40
3.0
  1

  7
STYLE1
100
AcDbText
  0
TEXT
  5
192CD
100
AcDbEntity
  8
TEXT
100
AcDbText
 10
423.268294
 20
89.092683
 30
0.0
 40
3.0
  1

  7
STYLE1
100
AcDbText
  0
TEXT
  5
192CE
100
AcDbEntity
  8
TEXT
100
AcDbText
 10
623.268294
 20
89.092683
 30
0.0
 40
3.0
  1

  7
STYLE1
100
AcDbText
  0
TEXT
  5
192CF
100
AcDbEntity
  8
TEXT
100
AcDbText
 10
623.268294
 20
89.092683
 30
0.0
 40
3.0
  1

  7
STYLE1
100
AcDbText
  0
TEXT
  5
192D0
100
AcDbEntity
  8
TEXT
100
AcDbText
 10
823.268294
 20
89.092683
 30
0.0
 40
3.0
  1

  7
STYLE1
100
AcDbText
  0
TEXT
  5
192D1
100
AcDbEntity
  8
TEXT
100
AcDbText
 10
423.268294
 20
89.092683
 30
0.0
 40
3.0
  1

  7
STYLE1
100
AcDbText
  0
TEXT
  5
192D2
100
AcDbEntity
  8
TEXT
100
AcDbText
 10
623.268294
 20
89.092683
 30
0.0
 40
3.0
  1

  7
STYLE1
100
AcDbText
  0
TEXT
  5
192D3
100
AcDbEntity
  8
TEXT
100
AcDbText
 10
623.268294
 20
89.092683
 30
0.0
 40
3.0
  1

  7
STYLE1
100
AcDbText
  0
TEXT
  5
192D4
100
AcDbEntity
  8
TEXT
100
AcDbText
 10
823.268294
 20
89.092683
 30
0.0
 40
3.0
  1

  7
STYLE1
100
AcDbText
  0
TEXT
  5
192D5
100
AcDbEntity
  8
TEXT
100
AcDbText
 10
423.268294
 20
89.092683
 30
0.0
 40
3.0
  1

  7
STYLE1
100
AcDbText
  0
TEXT
  5
192D6
100
AcDbEntity
  8
TEXT
100
AcDbText
 10
623.268294
 20
89.092683
 30
0.0
 40
3.0
  1

  7
STYLE1
100
AcDbText
  0
TEXT
  5
192D7
100
AcDbEntity
  8
TEXT
100
AcDbText
 10
623.268294
 20
89.092683
 30
0.0
 40
3.0
  1

  7
STYLE1
100
AcDbText
  0
TEXT
  5
192D8
100
AcDbEntity
  8
TEXT
100
AcDbText
 10
823.268294
 20
89.092683
 30
0.0
 40
3.0
  1

  7
STYLE1
100
AcDbText
  0
TEXT
  5
192D9
100
AcDbEntity
  8
TEXT
100
AcDbText
 10
823.268294
 20
89.092683
 30
0.0
 40
3.0
  1

  7
STYLE1
100
AcDbText
  0
TEXT
  5
192DA
100
AcDbEntity
  8
TEXT
100
AcDbText
 10
1023.268294
 20
89.092683
 30
0.0
 40
3.0
  1

  7
STYLE1
100
AcDbText
  0
TEXT
  5
192DB
100
AcDbEntity
  8
TEXT
100
AcDbText
 10
623.268294
 20
89.092683
 30
0.0
 40
3.0
  1

  7
STYLE1
100
AcDbText
  0
TEXT
  5
192DC
100
AcDbEntity
  8
TEXT
100
AcDbText
 10
823.268294
 20
89.092683
 30
0.0
 40
3.0
  1

  7
STYLE1
100
AcDbText
  0
TEXT
  5
192DD
100
AcDbEntity
  8
TEXT
100
AcDbText
 10
823.268294
 20
89.092683
 30
0.0
 40
3.0
  1

  7
STYLE1
100
AcDbText
  0
TEXT
  5
192DE
100
AcDbEntity
  8
TEXT
100
AcDbText
 10
1023.268294
 20
89.092683
 30
0.0
 40
3.0
  1

  7
STYLE1
100
AcDbText
  0
TEXT
  5
192DF
100
AcDbEntity
  8
TEXT
100
AcDbText
 10
623.268294
 20
89.092683
 30
0.0
 40
3.0
  1

  7
STYLE1
100
AcDbText
  0
TEXT
  5
192E0
100
AcDbEntity
  8
TEXT
100
AcDbText
 10
823.268294
 20
89.092683
 30
0.0
 40
3.0
  1

  7
STYLE1
100
AcDbText
  0
TEXT
  5
192E1
100
AcDbEntity
  8
TEXT
100
AcDbText
 10
823.268294
 20
89.092683
 30
0.0
 40
3.0
  1

  7
STYLE1
100
AcDbText
  0
TEXT
  5
192E2
100
AcDbEntity
  8
TEXT
100
AcDbText
 10
1023.268294
 20
89.092683
 30
0.0
 40
3.0
  1

  7
STYLE1
100
AcDbText
  0
TEXT
  5
192E3
100
AcDbEntity
  8
TEXT
100
AcDbText
 10
1023.268294
 20
89.092683
 30
0.0
 40
3.0
  1

  7
STYLE1
100
AcDbText
  0
TEXT
  5
192E4
100
AcDbEntity
  8
TEXT
100
AcDbText
 10
1223.268294
 20
89.092683
 30
0.0
 40
3.0
  1

  7
STYLE1
100
AcDbText
  0
TEXT
  5
192E5
100
AcDbEntity
  8
TEXT
100
AcDbText
 10
823.268294
 20
89.092683
 30
0.0
 40
3.0
  1

  7
STYLE1
100
AcDbText
  0
TEXT
  5
192E6
100
AcDbEntity
  8
TEXT
100
AcDbText
 10
1023.268294
 20
89.092683
 30
0.0
 40
3.0
  1

  7
STYLE1
100
AcDbText
  0
TEXT
  5
192E7
100
AcDbEntity
  8
TEXT
100
AcDbText
 10
1023.268294
 20
89.092683
 30
0.0
 40
3.0
  1

  7
STYLE1
100
AcDbText
  0
TEXT
  5
192E8
100
AcDbEntity
  8
TEXT
100
AcDbText
 10
1223.268294
 20
89.092683
 30
0.0
 40
3.0
  1

  7
STYLE1
100
AcDbText
  0
TEXT
  5
192E9
100
AcDbEntity
  8
TEXT
100
AcDbText
 10
823.268294
 20
89.092683
 30
0.0
 40
3.0
  1

  7
STYLE1
100
AcDbText
  0
TEXT
  5
192EA
100
AcDbEntity
  8
TEXT
100
AcDbText
 10
1023.268294
 20
89.092683
 30
0.0
 40
3.0
  1

  7
STYLE1
100
AcDbText
  0
TEXT
  5
192EB
100
AcDbEntity
  8
TEXT
100
AcDbText
 10
1023.268294
 20
89.092683
 30
0.0
 40
3.0
  1

  7
STYLE1
100
AcDbText
  0
TEXT
  5
192EC
100
AcDbEntity
  8
TEXT
100
AcDbText
 10
1223.268294
 20
89.092683
 30
0.0
 40
3.0
  1

  7
STYLE1
100
AcDbText
  0
TEXT
  5
192ED
100
AcDbEntity
  8
TEXT
100
AcDbText
 10
1223.268294
 20
89.092683
 30
0.0
 40
3.0
  1

  7
STYLE1
100
AcDbText
  0
TEXT
  5
192EE
100
AcDbEntity
  8
TEXT
100
AcDbText
 10
1423.268294
 20
89.092683
 30
0.0
 40
3.0
  1

  7
STYLE1
100
AcDbText
  0
TEXT
  5
192EF
100
AcDbEntity
  8
TEXT
100
AcDbText
 10
1023.268294
 20
89.092683
 30
0.0
 40
3.0
  1

  7
STYLE1
100
AcDbText
  0
TEXT
  5
192F0
100
AcDbEntity
  8
TEXT
100
AcDbText
 10
1223.268294
 20
89.092683
 30
0.0
 40
3.0
  1

  7
STYLE1
100
AcDbText
  0
TEXT
  5
192F1
100
AcDbEntity
  8
TEXT
100
AcDbText
 10
1223.268294
 20
89.092683
 30
0.0
 40
3.0
  1

  7
STYLE1
100
AcDbText
  0
TEXT
  5
192F2
100
AcDbEntity
  8
TEXT
100
AcDbText
 10
1423.268294
 20
89.092683
 30
0.0
 40
3.0
  1

  7
STYLE1
100
AcDbText
  0
TEXT
  5
192F3
100
AcDbEntity
  8
TEXT
100
AcDbText
 10
623.268294
 20
89.092683
 30
0.0
 40
3.0
  1

  7
STYLE1
100
AcDbText
  0
TEXT
  5
192F4
100
AcDbEntity
  8
TEXT
100
AcDbText
 10
823.268294
 20
89.092683
 30
0.0
 40
3.0
  1

  7
STYLE1
100
AcDbText
  0
TEXT
  5
192F5
100
AcDbEntity
  8
TEXT
100
AcDbText
 10
823.268294
 20
89.092683
 30
0.0
 40
3.0
  1

  7
STYLE1
100
AcDbText
  0
TEXT
  5
192F6
100
AcDbEntity
  8
TEXT
100
AcDbText
 10
1023.268294
 20
89.092683
 30
0.0
 40
3.0
  1

  7
STYLE1
100
AcDbText
  0
TEXT
  5
192F7
100
AcDbEntity
  8
TEXT
100
AcDbText
 10
1023.268294
 20
89.092683
 30
0.0
 40
3.0
  1

  7
STYLE1
100
AcDbText
  0
TEXT
  5
192F8
100
AcDbEntity
  8
TEXT
100
AcDbText
 10
1223.268294
 20
89.092683
 30
0.0
 40
3.0
  1

  7
STYLE1
100
AcDbText
  0
TEXT
  5
192F9
100
AcDbEntity
  8
TEXT
100
AcDbText
 10
823.268294
 20
89.092683
 30
0.0
 40
3.0
  1

  7
STYLE1
100
AcDbText
  0
TEXT
  5
192FA
100
AcDbEntity
  8
TEXT
100
AcDbText
 10
1023.268294
 20
89.092683
 30
0.0
 40
3.0
  1

  7
STYLE1
100
AcDbText
  0
TEXT
  5
192FB
100
AcDbEntity
  8
TEXT
100
AcDbText
 10
1023.268294
 20
89.092683
 30
0.0
 40
3.0
  1

  7
STYLE1
100
AcDbText
  0
TEXT
  5
192FC
100
AcDbEntity
  8
TEXT
100
AcDbText
 10
1223.268294
 20
89.092683
 30
0.0
 40
3.0
  1

  7
STYLE1
100
AcDbText
  0
TEXT
  5
192FD
100
AcDbEntity
  8
TEXT
100
AcDbText
 10
823.268294
 20
89.092683
 30
0.0
 40
3.0
  1

  7
STYLE1
100
AcDbText
  0
TEXT
  5
192FE
100
AcDbEntity
  8
TEXT
100
AcDbText
 10
1023.268294
 20
89.092683
 30
0.0
 40
3.0
  1

  7
STYLE1
100
AcDbText
  0
TEXT
  5
192FF
100
AcDbEntity
  8
TEXT
100
AcDbText
 10
1023.268294
 20
89.092683
 30
0.0
 40
3.0
  1

  7
STYLE1
100
AcDbText
  0
TEXT
  5
19300
100
AcDbEntity
  8
TEXT
100
AcDbText
 10
1223.268294
 20
89.092683
 30
0.0
 40
3.0
  1

  7
STYLE1
100
AcDbText
  0
TEXT
  5
19301
100
AcDbEntity
  8
TEXT
100
AcDbText
 10
1223.268294
 20
89.092683
 30
0.0
 40
3.0
  1

  7
STYLE1
100
AcDbText
  0
TEXT
  5
19302
100
AcDbEntity
  8
TEXT
100
AcDbText
 10
1423.268294
 20
89.092683
 30
0.0
 40
3.0
  1

  7
STYLE1
100
AcDbText
  0
TEXT
  5
19303
100
AcDbEntity
  8
TEXT
100
AcDbText
 10
1023.268294
 20
89.092683
 30
0.0
 40
3.0
  1

  7
STYLE1
100
AcDbText
  0
TEXT
  5
19304
100
AcDbEntity
  8
TEXT
100
AcDbText
 10
1223.268294
 20
89.092683
 30
0.0
 40
3.0
  1

  7
STYLE1
100
AcDbText
  0
TEXT
  5
19305
100
AcDbEntity
  8
TEXT
100
AcDbText
 10
1223.268294
 20
89.092683
 30
0.0
 40
3.0
  1

  7
STYLE1
100
AcDbText
  0
TEXT
  5
19306
100
AcDbEntity
  8
TEXT
100
AcDbText
 10
1423.268294
 20
89.092683
 30
0.0
 40
3.0
  1

  7
STYLE1
100
AcDbText
  0
TEXT
  5
19307
100
AcDbEntity
  8
TEXT
100
AcDbText
 10
623.268294
 20
89.092683
 30
0.0
 40
3.0
  1

  7
STYLE1
100
AcDbText
  0
TEXT
  5
19308
100
AcDbEntity
  8
TEXT
100
AcDbText
 10
823.268294
 20
89.092683
 30
0.0
 40
3.0
  1

  7
STYLE1
100
AcDbText
  0
TEXT
  5
19309
100
AcDbEntity
  8
TEXT
100
AcDbText
 10
823.268294
 20
89.092683
 30
0.0
 40
3.0
  1

  7
STYLE1
100
AcDbText
  0
TEXT
  5
1930A
100
AcDbEntity
  8
TEXT
100
AcDbText
 10
1023.268294
 20
89.092683
 30
0.0
 40
3.0
  1

  7
STYLE1
100
AcDbText
  0
TEXT
  5
1930B
100
AcDbEntity
  8
TEXT
100
AcDbText
 10
1023.268294
 20
89.092683
 30
0.0
 40
3.0
  1

  7
STYLE1
100
AcDbText
  0
TEXT
  5
1930C
100
AcDbEntity
  8
TEXT
100
AcDbText
 10
1223.268294
 20
89.092683
 30
0.0
 40
3.0
  1

  7
STYLE1
100
AcDbText
  0
TEXT
  5
1930D
100
AcDbEntity
  8
TEXT
100
AcDbText
 10
823.268294
 20
89.092683
 30
0.0
 40
3.0
  1

  7
STYLE1
100
AcDbText
  0
TEXT
  5
1930E
100
AcDbEntity
  8
TEXT
100
AcDbText
 10
1023.268294
 20
89.092683
 30
0.0
 40
3.0
  1

  7
STYLE1
100
AcDbText
  0
TEXT
  5
1930F
100
AcDbEntity
  8
TEXT
100
AcDbText
 10
1023.268294
 20
89.092683
 30
0.0
 40
3.0
  1

  7
STYLE1
100
AcDbText
  0
TEXT
  5
19310
100
AcDbEntity
  8
TEXT
100
AcDbText
 10
1223.268294
 20
89.092683
 30
0.0
 40
3.0
  1

  7
STYLE1
100
AcDbText
  0
TEXT
  5
19311
100
AcDbEntity
  8
TEXT
100
AcDbText
 10
823.268294
 20
89.092683
 30
0.0
 40
3.0
  1

  7
STYLE1
100
AcDbText
  0
TEXT
  5
19312
100
AcDbEntity
  8
TEXT
100
AcDbText
 10
1023.268294
 20
89.092683
 30
0.0
 40
3.0
  1

  7
STYLE1
100
AcDbText
  0
TEXT
  5
19313
100
AcDbEntity
  8
TEXT
100
AcDbText
 10
1023.268294
 20
89.092683
 30
0.0
 40
3.0
  1

  7
STYLE1
100
AcDbText
  0
TEXT
  5
19314
100
AcDbEntity
  8
TEXT
100
AcDbText
 10
1223.268294
 20
89.092683
 30
0.0
 40
3.0
  1

  7
STYLE1
100
AcDbText
  0
TEXT
  5
19315
100
AcDbEntity
  8
TEXT
100
AcDbText
 10
1223.268294
 20
89.092683
 30
0.0
 40
3.0
  1

  7
STYLE1
100
AcDbText
  0
TEXT
  5
19316
100
AcDbEntity
  8
TEXT
100
AcDbText
 10
1423.268294
 20
89.092683
 30
0.0
 40
3.0
  1

  7
STYLE1
100
AcDbText
  0
TEXT
  5
19317
100
AcDbEntity
  8
TEXT
100
AcDbText
 10
1023.268294
 20
89.092683
 30
0.0
 40
3.0
  1

  7
STYLE1
100
AcDbText
  0
TEXT
  5
19318
100
AcDbEntity
  8
TEXT
100
AcDbText
 10
1223.268294
 20
89.092683
 30
0.0
 40
3.0
  1

  7
STYLE1
100
AcDbText
  0
TEXT
  5
19319
100
AcDbEntity
  8
TEXT
100
AcDbText
 10
1223.268294
 20
89.092683
 30
0.0
 40
3.0
  1

  7
STYLE1
100
AcDbText
  0
TEXT
  5
1931A
100
AcDbEntity
  8
TEXT
100
AcDbText
 10
1423.268294
 20
89.092683
 30
0.0
 40
3.0
  1

  7
STYLE1
100
AcDbText
  0
TEXT
  5
1931B
100
AcDbEntity
  8
TEXT
100
AcDbText
 10
1023.268294
 20
89.092683
 30
0.0
 40
3.0
  1

  7
STYLE1
100
AcDbText
  0
TEXT
  5
1931C
100
AcDbEntity
  8
TEXT
100
AcDbText
 10
1223.268294
 20
89.092683
 30
0.0
 40
3.0
  1

  7
STYLE1
100
AcDbText
  0
TEXT
  5
1931D
100
AcDbEntity
  8
TEXT
100
AcDbText
 10
1223.268294
 20
89.092683
 30
0.0
 40
3.0
  1

  7
STYLE1
100
AcDbText
  0
TEXT
  5
1931E
100
AcDbEntity
  8
TEXT
100
AcDbText
 10
1423.268294
 20
89.092683
 30
0.0
 40
3.0
  1

  7
STYLE1
100
AcDbText
  0
TEXT
  5
1931F
100
AcDbEntity
  8
TEXT
100
AcDbText
 10
1423.268294
 20
89.092683
 30
0.0
 40
3.0
  1

  7
STYLE1
100
AcDbText
  0
TEXT
  5
19320
100
AcDbEntity
  8
TEXT
100
AcDbText
 10
1623.268294
 20
89.092683
 30
0.0
 40
3.0
  1

  7
STYLE1
100
AcDbText
  0
TEXT
  5
19321
100
AcDbEntity
  8
TEXT
100
AcDbText
 10
1223.268294
 20
89.092683
 30
0.0
 40
3.0
  1

  7
STYLE1
100
AcDbText
  0
TEXT
  5
19322
100
AcDbEntity
  8
TEXT
100
AcDbText
 10
1423.268294
 20
89.092683
 30
0.0
 40
3.0
  1

  7
STYLE1
100
AcDbText
  0
TEXT
  5
19323
100
AcDbEntity
  8
TEXT
100
AcDbText
 10
1423.268294
 20
89.092683
 30
0.0
 40
3.0
  1

  7
STYLE1
100
AcDbText
  0
TEXT
  5
19324
100
AcDbEntity
  8
TEXT
100
AcDbText
 10
1623.268294
 20
89.092683
 30
0.0
 40
3.0
  1

  7
STYLE1
100
AcDbText
  0
TEXT
  5
19325
100
AcDbEntity
  8
TEXT
100
AcDbText
 10
823.268294
 20
89.092683
 30
0.0
 40
3.0
  1

  7
STYLE1
100
AcDbText
  0
TEXT
  5
19326
100
AcDbEntity
  8
TEXT
100
AcDbText
 10
1023.268294
 20
89.092683
 30
0.0
 40
3.0
  1

  7
STYLE1
100
AcDbText
  0
TEXT
  5
19327
100
AcDbEntity
  8
TEXT
100
AcDbText
 10
1023.268294
 20
89.092683
 30
0.0
 40
3.0
  1

  7
STYLE1
100
AcDbText
  0
TEXT
  5
19328
100
AcDbEntity
  8
TEXT
100
AcDbText
 10
1223.268294
 20
89.092683
 30
0.0
 40
3.0
  1

  7
STYLE1
100
AcDbText
  0
TEXT
  5
19329
100
AcDbEntity
  8
TEXT
100
AcDbText
 10
1223.268294
 20
89.092683
 30
0.0
 40
3.0
  1

  7
STYLE1
100
AcDbText
  0
TEXT
  5
1932A
100
AcDbEntity
  8
TEXT
100
AcDbText
 10
1423.268294
 20
89.092683
 30
0.0
 40
3.0
  1

  7
STYLE1
100
AcDbText
  0
TEXT
  5
1932B
100
AcDbEntity
  8
TEXT
100
AcDbText
 10
1023.268294
 20
89.092683
 30
0.0
 40
3.0
  1

  7
STYLE1
100
AcDbText
  0
TEXT
  5
1932C
100
AcDbEntity
  8
TEXT
100
AcDbText
 10
1223.268294
 20
89.092683
 30
0.0
 40
3.0
  1

  7
STYLE1
100
AcDbText
  0
TEXT
  5
1932D
100
AcDbEntity
  8
TEXT
100
AcDbText
 10
1223.268294
 20
89.092683
 30
0.0
 40
3.0
  1

  7
STYLE1
100
AcDbText
  0
TEXT
  5
1932E
100
AcDbEntity
  8
TEXT
100
AcDbText
 10
1423.268294
 20
89.092683
 30
0.0
 40
3.0
  1

  7
STYLE1
100
AcDbText
  0
TEXT
  5
1932F
100
AcDbEntity
  8
TEXT
100
AcDbText
 10
1023.268294
 20
89.092683
 30
0.0
 40
3.0
  1

  7
STYLE1
100
AcDbText
  0
TEXT
  5
19330
100
AcDbEntity
  8
TEXT
100
AcDbText
 10
1223.268294
 20
89.092683
 30
0.0
 40
3.0
  1

  7
STYLE1
100
AcDbText
  0
TEXT
  5
19331
100
AcDbEntity
  8
TEXT
100
AcDbText
 10
1223.268294
 20
89.092683
 30
0.0
 40
3.0
  1

  7
STYLE1
100
AcDbText
  0
TEXT
  5
19332
100
AcDbEntity
  8
TEXT
100
AcDbText
 10
1423.268294
 20
89.092683
 30
0.0
 40
3.0
  1

  7
STYLE1
100
AcDbText
  0
TEXT
  5
19333
100
AcDbEntity
  8
TEXT
100
AcDbText
 10
1423.268294
 20
89.092683
 30
0.0
 40
3.0
  1

  7
STYLE1
100
AcDbText
  0
TEXT
  5
19334
100
AcDbEntity
  8
TEXT
100
AcDbText
 10
1623.268294
 20
89.092683
 30
0.0
 40
3.0
  1

  7
STYLE1
100
AcDbText
  0
TEXT
  5
19335
100
AcDbEntity
  8
TEXT
100
AcDbText
 10
1223.268294
 20
89.092683
 30
0.0
 40
3.0
  1

  7
STYLE1
100
AcDbText
  0
TEXT
  5
19336
100
AcDbEntity
  8
TEXT
100
AcDbText
 10
1423.268294
 20
89.092683
 30
0.0
 40
3.0
  1

  7
STYLE1
100
AcDbText
  0
TEXT
  5
19337
100
AcDbEntity
  8
TEXT
100
AcDbText
 10
1423.268294
 20
89.092683
 30
0.0
 40
3.0
  1

  7
STYLE1
100
AcDbText
  0
TEXT
  5
19338
100
AcDbEntity
  8
TEXT
100
AcDbText
 10
1623.268294
 20
89.092683
 30
0.0
 40
3.0
  1

  7
STYLE1
100
AcDbText
  0
TEXT
  5
19339
100
AcDbEntity
  8
TEXT
100
AcDbText
 10
823.268294
 20
89.092683
 30
0.0
 40
3.0
  1

  7
STYLE1
100
AcDbText
  0
TEXT
  5
1933A
100
AcDbEntity
  8
TEXT
100
AcDbText
 10
1023.268294
 20
89.092683
 30
0.0
 40
3.0
  1

  7
STYLE1
100
AcDbText
  0
TEXT
  5
1933B
100
AcDbEntity
  8
TEXT
100
AcDbText
 10
1023.268294
 20
89.092683
 30
0.0
 40
3.0
  1

  7
STYLE1
100
AcDbText
  0
TEXT
  5
1933C
100
AcDbEntity
  8
TEXT
100
AcDbText
 10
1223.268294
 20
89.092683
 30
0.0
 40
3.0
  1

  7
STYLE1
100
AcDbText
  0
TEXT
  5
1933D
100
AcDbEntity
  8
TEXT
100
AcDbText
 10
1223.268294
 20
89.092683
 30
0.0
 40
3.0
  1

  7
STYLE1
100
AcDbText
  0
TEXT
  5
1933E
100
AcDbEntity
  8
TEXT
100
AcDbText
 10
1423.268294
 20
89.092683
 30
0.0
 40
3.0
  1

  7
STYLE1
100
AcDbText
  0
TEXT
  5
1933F
100
AcDbEntity
  8
TEXT
100
AcDbText
 10
1023.268294
 20
89.092683
 30
0.0
 40
3.0
  1

  7
STYLE1
100
AcDbText
  0
TEXT
  5
19340
100
AcDbEntity
  8
TEXT
100
AcDbText
 10
1223.268294
 20
89.092683
 30
0.0
 40
3.0
  1

  7
STYLE1
100
AcDbText
  0
TEXT
  5
19341
100
AcDbEntity
  8
TEXT
100
AcDbText
 10
1223.268294
 20
89.092683
 30
0.0
 40
3.0
  1

  7
STYLE1
100
AcDbText
  0
TEXT
  5
19342
100
AcDbEntity
  8
TEXT
100
AcDbText
 10
1423.268294
 20
89.092683
 30
0.0
 40
3.0
  1

  7
STYLE1
100
AcDbText
  0
TEXT
  5
19343
100
AcDbEntity
  8
TEXT
100
AcDbText
 10
1023.268294
 20
89.092683
 30
0.0
 40
3.0
  1

  7
STYLE1
100
AcDbText
  0
TEXT
  5
19344
100
AcDbEntity
  8
TEXT
100
AcDbText
 10
1223.268294
 20
89.092683
 30
0.0
 40
3.0
  1

  7
STYLE1
100
AcDbText
  0
TEXT
  5
19345
100
AcDbEntity
  8
TEXT
100
AcDbText
 10
1223.268294
 20
89.092683
 30
0.0
 40
3.0
  1

  7
STYLE1
100
AcDbText
  0
TEXT
  5
19346
100
AcDbEntity
  8
TEXT
100
AcDbText
 10
1423.268294
 20
89.092683
 30
0.0
 40
3.0
  1

  7
STYLE1
100
AcDbText
  0
TEXT
  5
19347
100
AcDbEntity
  8
TEXT
100
AcDbText
 10
1423.268294
 20
89.092683
 30
0.0
 40
3.0
  1

  7
STYLE1
100
AcDbText
  0
TEXT
  5
19348
100
AcDbEntity
  8
TEXT
100
AcDbText
 10
1623.268294
 20
89.092683
 30
0.0
 40
3.0
  1

  7
STYLE1
100
AcDbText
  0
TEXT
  5
19349
100
AcDbEntity
  8
TEXT
100
AcDbText
 10
1223.268294
 20
89.092683
 30
0.0
 40
3.0
  1

  7
STYLE1
100
AcDbText
  0
TEXT
  5
1934A
100
AcDbEntity
  8
TEXT
100
AcDbText
 10
1423.268294
 20
89.092683
 30
0.0
 40
3.0
  1

  7
STYLE1
100
AcDbText
  0
TEXT
  5
1934B
100
AcDbEntity
  8
TEXT
100
AcDbText
 10
1423.268294
 20
89.092683
 30
0.0
 40
3.0
  1

  7
STYLE1
100
AcDbText
  0
TEXT
  5
1934C
100
AcDbEntity
  8
TEXT
100
AcDbText
 10
1623.268294
 20
89.092683
 30
0.0
 40
3.0
  1

  7
STYLE1
100
AcDbText
  0
TEXT
  5
1934D
100
AcDbEntity
  8
TEXT
100
AcDbText
 10
1223.268294
 20
89.092683
 30
0.0
 40
3.0
  1

  7
STYLE1
100
AcDbText
  0
TEXT
  5
1934E
100
AcDbEntity
  8
TEXT
100
AcDbText
 10
1423.268294
 20
89.092683
 30
0.0
 40
3.0
  1

  7
STYLE1
100
AcDbText
  0
TEXT
  5
1934F
100
AcDbEntity
  8
TEXT
100
AcDbText
 10
1423.268294
 20
89.092683
 30
0.0
 40
3.0
  1

  7
STYLE1
100
AcDbText
  0
TEXT
  5
19350
100
AcDbEntity
  8
TEXT
100
AcDbText
 10
1623.268294
 20
89.092683
 30
0.0
 40
3.0
  1

  7
STYLE1
100
AcDbText
  0
TEXT
  5
19351
100
AcDbEntity
  8
TEXT
100
AcDbText
 10
1623.268294
 20
89.092683
 30
0.0
 40
3.0
  1

  7
STYLE1
100
AcDbText
  0
TEXT
  5
19352
100
AcDbEntity
  8
TEXT
100
AcDbText
 10
1823.268294
 20
89.092683
 30
0.0
 40
3.0
  1

  7
STYLE1
100
AcDbText
  0
TEXT
  5
19353
100
AcDbEntity
  8
TEXT
100
AcDbText
 10
1423.268294
 20
89.092683
 30
0.0
 40
3.0
  1

  7
STYLE1
100
AcDbText
  0
TEXT
  5
19354
100
AcDbEntity
  8
TEXT
100
AcDbText
 10
1623.268294
 20
89.092683
 30
0.0
 40
3.0
  1

  7
STYLE1
100
AcDbText
  0
TEXT
  5
19355
100
AcDbEntity
  8
TEXT
100
AcDbText
 10
1623.268294
 20
89.092683
 30
0.0
 40
3.0
  1

  7
STYLE1
100
AcDbText
  0
TEXT
  5
19356
100
AcDbEntity
  8
TEXT
100
AcDbText
 10
1823.268294
 20
89.092683
 30
0.0
 40
3.0
  1

  7
STYLE1
100
AcDbText
  0
TEXT
  5
19357
100
AcDbEntity
  8
TEXT
100
AcDbText
 10
423.268294
 20
89.092683
 30
0.0
 40
3.0
  1

  7
STYLE1
100
AcDbText
  0
TEXT
  5
19358
100
AcDbEntity
  8
TEXT
100
AcDbText
 10
623.268294
 20
89.092683
 30
0.0
 40
3.0
  1

  7
STYLE1
100
AcDbText
  0
TEXT
  5
19359
100
AcDbEntity
  8
TEXT
100
AcDbText
 10
623.268294
 20
89.092683
 30
0.0
 40
3.0
  1

  7
STYLE1
100
AcDbText
  0
TEXT
  5
1935A
100
AcDbEntity
  8
TEXT
100
AcDbText
 10
823.268294
 20
89.092683
 30
0.0
 40
3.0
  1

  7
STYLE1
100
AcDbText
  0
TEXT
  5
1935B
100
AcDbEntity
  8
TEXT
100
AcDbText
 10
823.268294
 20
89.092683
 30
0.0
 40
3.0
  1

  7
STYLE1
100
AcDbText
  0
TEXT
  5
1935C
100
AcDbEntity
  8
TEXT
100
AcDbText
 10
1023.268294
 20
89.092683
 30
0.0
 40
3.0
  1

  7
STYLE1
100
AcDbText
  0
TEXT
  5
1935D
100
AcDbEntity
  8
TEXT
100
AcDbText
 10
623.268294
 20
89.092683
 30
0.0
 40
3.0
  1

  7
STYLE1
100
AcDbText
  0
TEXT
  5
1935E
100
AcDbEntity
  8
TEXT
100
AcDbText
 10
823.268294
 20
89.092683
 30
0.0
 40
3.0
  1

  7
STYLE1
100
AcDbText
  0
TEXT
  5
1935F
100
AcDbEntity
  8
TEXT
100
AcDbText
 10
823.268294
 20
89.092683
 30
0.0
 40
3.0
  1

  7
STYLE1
100
AcDbText
  0
TEXT
  5
19360
100
AcDbEntity
  8
TEXT
100
AcDbText
 10
1023.268294
 20
89.092683
 30
0.0
 40
3.0
  1

  7
STYLE1
100
AcDbText
  0
LWPOLYLINE
  5
1CA0B
100
AcDbEntity
  8
BODY
 48
0.2
100
AcDbPolyline
 90
        8
 70
     1
 43
0.0
 10
14.047143
 20
23.503116
 42
0.57735
 10
14.393553
 20
23.503116
 10
17.655582
 20
29.153116
 42
0.267949
 10
17.655582
 20
29.953116
 10
14.393553
 20
35.603116
 42
0.57735
 10
14.047143
 20
35.603116
 10
10.785114
 20
29.953116
 42
0.267949
 10
10.785114
 20
29.153116
  0
LINE
  5
1CA0D
100
AcDbEntity
  8
CEN
 48
0.2
100
AcDbLine
 10
10.177934
 20
29.553116
 30
0.0
 11
18.262762
 21
29.553116
 31
0.0
  0
LINE
  5
1CA22
102
{ACAD_REACTORS
330
1E1E0
102
}
100
AcDbEntity
  8
CEN
 48
0.2
100
AcDbLine
 10
14.220348
 20
36.203116
 30
0.0
 11
14.220348
 21
22.903116
 31
0.0
  0
CIRCLE
  5
1CA23
100
AcDbEntity
  8
BODY
100
AcDbCircle
 10
14.220348
 20
29.553116
 30
0.0
 40
1.25
  0
CIRCLE
  5
1CA24
100
AcDbEntity
  8
BODY
100
AcDbCircle
 10
14.220348
 20
29.553116
 30
0.0
 40
1.75
  0
LINE
  5
1CA33
100
AcDbEntity
  8
HI
 48
0.25
100
AcDbLine
 10
28.276731
 20
27.803116
 30
0.0
 11
28.276731
 21
31.303116
 31
0.0
  0
LINE
  5
1CA34
100
AcDbEntity
  8
HI
 48
0.25
100
AcDbLine
 10
29.437373
 20
28.303116
 30
0.0
 11
29.437373
 21
30.803116
 31
0.0
  0
LINE
  5
1CA35
100
AcDbEntity
  8
HI
 48
0.25
100
AcDbLine
 10
29.937373
 20
28.303116
 30
0.0
 11
29.937373
 21
30.803116
 31
0.0
  0
LINE
  5
1CA36
100
AcDbEntity
  8
CEN
 48
0.2
100
AcDbLine
 10
27.037373
 20
29.553116
 30
0.0
 11
31.037373
 21
29.553116
 31
0.0
  0
LINE
  5
1CA3A
100
AcDbEntity
  8
HI
 48
0.25
100
AcDbLine
 10
29.437373
 20
28.303116
 30
0.0
 11
29.937373
 21
28.303116
 31
0.0
  0
ARC
  5
1CA3B
100
AcDbEntity
  8
HI
 48
0.25
100
AcDbCircle
 10
29.437373
 20
27.303116
 30
0.0
 40
1.0
100
AcDbArc
 50
90.0
 51
119.0
  0
LINE
  5
1CA3C
100
AcDbEntity
  8
HI
 48
0.25
100
AcDbLine
 10
28.952563
 20
28.177736
 30
0.0
 11
28.276731
 21
27.803116
 31
0.0
  0
LINE
  5
1CA3E
100
AcDbEntity
  8
HI
 48
0.25
100
AcDbLine
 10
28.276731
 20
27.803116
 30
0.0
 11
28.037373
 21
27.790572
 31
0.0
  0
LINE
  5
1CA3F
100
AcDbEntity
  8
HI
 48
0.25
100
AcDbLine
 10
29.937373
 20
28.303116
 30
0.0
 11
30.037373
 21
28.203116
 31
0.0
  0
LINE
  5
1CA41
100
AcDbEntity
  8
HI
 48
0.25
100
AcDbLine
 10
29.437373
 20
30.803116
 30
0.0
 11
29.937373
 21
30.803116
 31
0.0
  0
LINE
  5
1CA43
100
AcDbEntity
  8
HI
 48
0.25
100
AcDbLine
 10
28.952563
 20
30.928496
 30
0.0
 11
28.276731
 21
31.303116
 31
0.0
  0
LINE
  5
1CA44
100
AcDbEntity
  8
HI
 48
0.25
100
AcDbLine
 10
28.276731
 20
31.303116
 30
0.0
 11
28.037373
 21
31.31566
 31
0.0
  0
ARC
  5
1CA46
100
AcDbEntity
  8
HI
 48
0.25
100
AcDbCircle
 10
29.437373
 20
31.803116
 30
0.0
 40
1.0
100
AcDbArc
 50
241.0
 51
270.0
  0
LINE
  5
1CA47
100
AcDbEntity
  8
HI
 48
0.25
100
AcDbLine
 10
29.937373
 20
30.803116
 30
0.0
 11
30.037373
 21
30.903116
 31
0.0
  0
LINE
  5
1CA48
100
AcDbEntity
  8
BODY
100
AcDbLine
 10
28.037373
 20
35.703116
 30
0.0
 11
28.08541
 21
35.689245
 31
0.0
  0
LINE
  5
1CA4A
100
AcDbEntity
  8
CEN
100
AcDbLine
 10
16.34211
 20
25.878116
 30
0.0
 11
12.098586
 21
33.228116
 31
0.0
  0
LINE
  5
1CAE3
100
AcDbEntity
  8
CEN
100
AcDbLine
 10
12.098586
 20
25.878116
 30
0.0
 11
16.34211
 21
33.228116
 31
0.0
  0
DIMENSION
  5
1CE57
100
AcDbEntity
  8
DIM
100
AcDbDimension
  2
*D5
 10
28.037373
 20
21.903116
 30
0.0
 11
29.037373
 21
22.303116
 31
0.0
 12
4.024432
 22
-9.507559
 32
0.0
 70
    32
  3
STANDARD
100
AcDbAlignedDimension
 13
30.037373
 23
26.007329
 33
0.0
 14
28.037373
 24
23.403116
 34
0.0
100
AcDbRotatedDimension
1001
ACAD
1000
DSTYLE
1002
{
1070
    78
1070
     8
1070
   284
1070
     8
1070
   140
1040
0.5
1070
    47
1040
0.01
1070
    71
1070
     1
1070
    74
1070
     0
1070
   172
1070
     1
1070
    48
1040
0.01
1070
    73
1070
     0
1070
   146
1040
0.5
1070
   272
1070
     2
1070
    77
1070
     1
1070
   147
1040
0.15
1070
    42
1040
0.15
1070
    44
1040
0.15
1070
    43
1040
0.15
1070
   271
1070
     2
1070
    41
1040
0.5
1002
}
  0
DIMENSION
  5
1CEBF
100
AcDbEntity
  8
DIM
100
AcDbDimension
  2
*D6
 10
32.292027
 20
30.803116
 30
0.0
 11
32.292027
 21
29.553116
 31
0.0
 12
4.024432
 22
-9.507559
 32
0.0
 70
   160
  3
STANDARD
100
AcDbAlignedDimension
 13
29.937373
 23
28.303116
 33
0.0
 14
29.937373
 24
30.803116
 34
0.0
 50
90.0
100
AcDbRotatedDimension
1001
ACAD
1000
DSTYLE
1002
{
1070
    78
1070
     8
1070
   284
1070
     8
1070
   140
1040
0.5
1070
    47
1040
0.05
1070
    74
1070
     0
1070
   172
1070
     1
1070
    73
1070
     0
1070
   146
1040
0.5
1070
   272
1070
     2
1070
    77
1070
     1
1070
     3
1000
%%c<>
1070
   147
1040
0.15
1070
    42
1040
0.15
1070
    44
1040
0.15
1070
    43
1040
0.15
1070
   271
1070
     2
1070
    41
1040
0.5
1002
}
  0
DIMENSION
  5
1D2DC
100
AcDbEntity
  8
DIM
100
AcDbDimension
  2
*D10
 10
20.210416
 20
33.578219
 30
0.0
 11
17.660786
 21
35.512129
 31
0.0
 12
4.024432
 22
-9.507559
 32
0.0
 70
    32
  3
STANDARD
100
AcDbAlignedDimension
 13
14.047143
 23
35.603116
 33
0.0
 14
17.655582
 24
29.153116
 34
0.0
 50
330.0
100
AcDbRotatedDimension
1001
ACAD
1000
DSTYLE
1002
{
1070
    78
1070
     8
1070
   284
1070
     8
1070
   140
1040
0.5
1070
    47
1040
0.02
1070
    74
1070
     0
1070
   172
1070
     1
1070
    48
1040
0.02
1070
    73
1070
     0
1070
   146
1040
0.5
1070
   272
1070
     2
1070
    77
1070
     1
1070
   147
1040
0.15
1070
    42
1040
0.15
1070
    44
1040
0.15
1070
    43
1040
0.15
1070
   271
1070
     2
1070
    41
1040
0.5
1002
}
  0
DIMENSION
  5
1D38A
100
AcDbEntity
  8
DIM
100
AcDbDimension
  2
*D13
 10
8.129656
 20
33.752504
 30
0.0
 11
10.679286
 21
35.686414
 31
0.0
 12
4.024432
 22
-9.507559
 32
0.0
 70
    32
  3
STANDARD
100
AcDbAlignedDimension
 13
14.393553
 23
35.603116
 33
0.0
 14
10.785114
 24
29.153116
 34
0.0
 50
30.0
100
AcDbRotatedDimension
1001
ACAD
1000
DSTYLE
1002
{
1070
    78
1070
     8
1070
   284
1070
     8
1070
   140
1040
0.5
1070
    47
1040
0.02
1070
    74
1070
     0
1070
   172
1070
     1
1070
    48
1040
0.02
1070
    73
1070
     0
1070
   146
1040
0.5
1070
   272
1070
     2
1070
    77
1070
     1
1070
   147
1040
0.15
1070
    42
1040
0.15
1070
    44
1040
0.15
1070
    43
1040
0.15
1070
   271
1070
     2
1070
    41
1040
0.5
1002
}
  0
DIMENSION
  5
1D3F3
100
AcDbEntity
  8
DIM
100
AcDbDimension
  2
*D14
 10
14.047143
 20
23.503116
 30
0.0
 11
14.220348
 21
37.821816
 31
0.0
 12
4.024432
 22
-9.507559
 32
0.0
 70
   162
  3
STANDARD
100
AcDb2LineAngularDimension
 13
14.393553
 23
23.503116
 33
0.0
 14
17.655582
 24
29.153116
 34
0.0
 15
10.785114
 25
29.153116
 35
0.0
 16
11.681837
 26
37.599725
 36
0.0
1001
ACAD
1000
DSTYLE
1002
{
1070
    78
1070
     8
1070
   284
1070
     8
1070
   140
1040
0.5
1070
    47
1040
0.02
1070
    74
1070
     0
1070
   172
1070
     1
1070
    48
1040
0.02
1070
    73
1070
     0
1070
   146
1040
0.5
1070
   272
1070
     2
1070
    77
1070
     1
1070
   147
1040
0.15
1070
    42
1040
0.15
1070
    44
1040
0.15
1070
    43
1040
0.15
1070
   271
1070
     2
1070
    41
1040
0.5
1002
}
  0
DIMENSION
  5
1D45E
100
AcDbEntity
  8
DIM
100
AcDbDimension
  2
*D17
 10
14.220348
 20
23.603116
 30
0.0
 11
13.691885
 21
21.613779
 31
0.0
 12
1.047998
 22
-12.813183
 32
0.0
 70
   164
  3
STANDARD
100
AcDbRadialDimension
 15
14.168999
 25
23.40982
 35
0.0
 40
0.0
1001
ACAD
1000
DSTYLE
1002
{
1070
    78
1070
     8
1070
   288
1070
     1
1070
   284
1070
     8
1070
   140
1040
0.5
1070
    74
1070
     0
1070
   172
1070
     1
1070
    73
1070
     0
1070
   146
1040
0.5
1070
   272
1070
     2
1070
    77
1070
     1
1070
   147
1040
0.15
1070
    42
1040
0.15
1070
    44
1040
0.15
1070
    43
1040
0.15
1070
   271
1070
     2
1070
    41
1040
0.5
1002
}
  0
LINE
  5
1D462
100
AcDbEntity
  8
BODY
 48
0.2
100
AcDbLine
 10
28.08541
 20
23.416987
 30
0.0
 11
30.037373
 21
26.007329
 31
0.0
  0
LINE
  5
1D465
100
AcDbEntity
  8
BODY
100
AcDbLine
 10
30.037373
 20
26.007329
 30
0.0
 11
30.037373
 21
33.098903
 31
0.0
  0
LINE
  5
1D466
100
AcDbEntity
  8
BODY
100
AcDbLine
 10
28.08541
 20
23.416987
 30
0.0
 11
28.037373
 21
23.403116
 31
0.0
  0
LINE
  5
1D467
100
AcDbEntity
  8
BODY
 48
0.2
100
AcDbLine
 10
28.08541
 20
35.689245
 30
0.0
 11
30.037373
 21
33.098903
 31
0.0
  0
LINE
  5
1E030
100
AcDbEntity
  8
BODY
100
AcDbLine
 10
28.007373
 20
23.97555
 30
0.0
 11
28.007373
 21
35.130682
 31
0.0
  0
LINE
  5
1E031
100
AcDbEntity
  8
BODY
100
AcDbLine
 10
28.037373
 20
23.403116
 30
0.0
 11
28.007373
 21
23.97555
 31
0.0
  0
LINE
  5
1E1B3
100
AcDbEntity
  8
BODY
100
AcDbLine
 10
28.037373
 20
35.703116
 30
0.0
 11
28.007373
 21
35.130682
 31
0.0
  0
CIRCLE
  5
1E1D8
102
{ACAD_REACTORS
330
1E1E0
102
}
100
AcDbEntity
  8
BODY1
100
AcDbCircle
 10
14.220348
 20
27.003116
 30
0.0
 40
0.25
  0
HATCH
  5
1E1E0
100
AcDbEntity
  8
BODY1
100
AcDbHatch
 10
0.0
 20
0.0
 30
0.0
210
0.0
220
0.0
230
1.0
  2
ANSI31
 70
     0
 71
     1
 91
        2
 92
        7
 72
     1
 73
     1
 93
        3
 10
14.22034786112645
 20
27.25311612936542
 42
0.4142135623730972
 10
13.97034786112645
 20
27.00311612936542
 42
0.4142135623730972
 10
14.22034786112645
 20
26.75311612936542
 42
0.0
 97
        2
330
1E1D8
330
1CA22
 92
        7
 72
     1
 73
     1
 93
        3
 10
14.22034786112645
 20
26.75311612936542
 42
0.4142135623730972
 10
14.47034786112645
 20
27.00311612936542
 42
0.414213562373093
 10
14.22034786112645
 20
27.25311612936542
 42
0.0
 97
        2
330
1CA22
330
1E1D8
 75
     0
 76
     1
 52
0.0
 41
0.2
 77
     0
 78
     1
 53
45.0
 43
4.024432
 44
-9.507559
 45
-0.0176776695296637
 46
0.0176776695296637
 79
     0
 47
0.002601
 98
        2
 10
14.134195
 20
26.938269
 10
14.233085
 20
27.016304
  0
ENDSEC
  0
SECTION
  2
OBJECTS
  0
DICTIONARY
  5
C
100
AcDbDictionary
  3
ACAD_GROUP
350
D
  3
ACAD_MLINESTYLE
350
1A
  3
ACDBVARIABLEDICTIONARY
350
3B
  0
DICTIONARY
  5
D
102
{ACAD_REACTORS
330
C
102
}
100
AcDbDictionary
  0
DICTIONARY
  5
1A
102
{ACAD_REACTORS
330
C
102
}
100
AcDbDictionary
  3
STANDARD
350
1B
  0
DICTIONARY
  5
3B
102
{ACAD_REACTORS
330
C
102
}
100
AcDbDictionary
  3
DIMADEC
350
3C
  3
SORTENTS
350
5EEA
  0
MLINESTYLE
  5
1B
102
{ACAD_REACTORS
330
1A
102
}
100
AcDbMlineStyle
  2
STANDARD
 70
     0
  3

 62
   256
 51
90.0
 52
90.0
 71
     2
 49
0.5
 62
   256
  6
BYLAYER
 49
-0.5
 62
   256
  6
BYLAYER
  0
DICTIONARYVAR
  5
3C
102
{ACAD_REACTORS
330
3B
102
}
100
DictionaryVariables
280
     0
  1
2
  0
DICTIONARYVAR
  5
5EEA
102
{ACAD_REACTORS
330
3B
102
}
100
DictionaryVariables
280
     0
  1
96
  0
ENDSEC
  0
EOF
