  0
SECTION
  2
HEADER
  9
$ACADVER
  1
AC1014
  9
$ACADMAINTVER
 70
     0
  9
$DWGCODEPAGE
  3
ANSI_950
  9
$INSBASE
 10
0.0
 20
0.0
 30
0.0
  9
$EXTMIN
 10
0.493469
 20
-0.004575
 30
-0.001526
  9
$EXTMAX
 10
96.503678
 20
141.008836
 30
0.0
  9
$LIMMIN
 10
0.0
 20
0.0
  9
$LIMMAX
 10
105.0
 20
150.0
  9
$ORTHOMODE
 70
     1
  9
$REGENMODE
 70
     1
  9
$FILLMODE
 70
     1
  9
$QTEXTMODE
 70
     0
  9
$MIRRTEXT
 70
     1
  9
$DRAGMODE
 70
     2
  9
$LTSCALE
 40
6.0
  9
$OSMODE
 70
    53
  9
$ATTMODE
 70
     1
  9
$TEXTSIZE
 40
1.0
  9
$TRACEWID
 40
0.05
  9
$TEXTSTYLE
  7
STYLE1
  9
$CLAYER
  8
DIM
  9
$CELTYPE
  6
BYLAYER
  9
$CECOLOR
 62
   256
  9
$CELTSCALE
 40
1.0
  9
$DELOBJ
 70
     1
  9
$DISPSILH
 70
     0
  9
$DIMSCALE
 40
1.0
  9
$DIMASZ
 40
1.5
  9
$DIMEXO
 40
0.5
  9
$DIMDLI
 40
0.5
  9
$DIMRND
 40
0.0
  9
$DIMDLE
 40
0.0
  9
$DIMEXE
 40
0.5
  9
$DIMTP
 40
0.0
  9
$DIMTM
 40
0.0
  9
$DIMTXT
 40
1.5
  9
$DIMCEN
 40
0.09
  9
$DIMTSZ
 40
0.0
  9
$DIMTOL
 70
     0
  9
$DIMLIM
 70
     0
  9
$DIMTIH
 70
     0
  9
$DIMTOH
 70
     0
  9
$DIMSE1
 70
     0
  9
$DIMSE2
 70
     0
  9
$DIMTAD
 70
     1
  9
$DIMZIN
 70
     8
  9
$DIMBLK
  1

  9
$DIMASO
 70
     1
  9
$DIMSHO
 70
     1
  9
$DIMPOST
  1

  9
$DIMAPOST
  1

  9
$DIMALT
 70
     0
  9
$DIMALTD
 70
     2
  9
$DIMALTF
 40
25.4
  9
$DIMLFAC
 40
1.0
  9
$DIMTOFL
 70
     1
  9
$DIMTVP
 40
0.0
  9
$DIMTIX
 70
     0
  9
$DIMSOXD
 70
     0
  9
$DIMSAH
 70
     0
  9
$DIMBLK1
  1

  9
$DIMBLK2
  1

  9
$DIMSTYLE
  2
STANDARD
  9
$DIMCLRD
 70
     0
  9
$DIMCLRE
 70
     0
  9
$DIMCLRT
 70
     0
  9
$DIMTFAC
 40
0.5
  9
$DIMGAP
 40
0.65
  9
$DIMJUST
 70
     0
  9
$DIMSD1
 70
     0
  9
$DIMSD2
 70
     0
  9
$DIMTOLJ
 70
     1
  9
$DIMTZIN
 70
     8
  9
$DIMALTZ
 70
     0
  9
$DIMALTTZ
 70
     0
  9
$DIMFIT
 70
     3
  9
$DIMUPT
 70
     0
  9
$DIMUNIT
 70
     2
  9
$DIMDEC
 70
     2
  9
$DIMTDEC
 70
     2
  9
$DIMALTU
 70
     2
  9
$DIMALTTD
 70
     2
  9
$DIMTXSTY
  7
STANDARD
  9
$DIMAUNIT
 70
     0
  9
$LUNITS
 70
     2
  9
$LUPREC
 70
     4
  9
$SKETCHINC
 40
0.1
  9
$FILLETRAD
 40
0.8
  9
$AUNITS
 70
     0
  9
$AUPREC
 70
     3
  9
$MENU
  1
acad
  9
$ELEVATION
 40
0.0
  9
$PELEVATION
 40
0.0
  9
$THICKNESS
 40
0.0
  9
$LIMCHECK
 70
     0
  9
$BLIPMODE
 70
     1
  9
$CHAMFERA
 40
0.0
  9
$CHAMFERB
 40
0.0
  9
$CHAMFERC
 40
0.0
  9
$CHAMFERD
 40
0.0
  9
$SKPOLY
 70
     0
  9
$TDCREATE
 40
2450667.492824652
  9
$TDUPDATE
 40
2456157.419130312
  9
$TDINDWG
 40
3.4849019676
  9
$TDUSRTIMER
 40
3.4849019676
  9
$USRTIMER
 70
     1
  9
$ANGBASE
 50
0.0
  9
$ANGDIR
 70
     0
  9
$PDMODE
 70
     0
  9
$PDSIZE
 40
0.0
  9
$PLINEWID
 40
0.0
  9
$COORDS
 70
     0
  9
$SPLFRAME
 70
     0
  9
$SPLINETYPE
 70
     6
  9
$SPLINESEGS
 70
     8
  9
$ATTDIA
 70
     0
  9
$ATTREQ
 70
     1
  9
$HANDLING
 70
     1
  9
$HANDSEED
  5
145B0
  9
$SURFTAB1
 70
     6
  9
$SURFTAB2
 70
     6
  9
$SURFTYPE
 70
     6
  9
$SURFU
 70
     6
  9
$SURFV
 70
     6
  9
$UCSNAME
  2

  9
$UCSORG
 10
0.0
 20
0.0
 30
0.0
  9
$UCSXDIR
 10
1.0
 20
0.0
 30
0.0
  9
$UCSYDIR
 10
0.0
 20
1.0
 30
0.0
  9
$PUCSNAME
  2

  9
$PUCSORG
 10
0.0
 20
0.0
 30
0.0
  9
$PUCSXDIR
 10
1.0
 20
0.0
 30
0.0
  9
$PUCSYDIR
 10
0.0
 20
1.0
 30
0.0
  9
$USERI1
 70
     0
  9
$USERI2
 70
     0
  9
$USERI3
 70
     0
  9
$USERI4
 70
     0
  9
$USERI5
 70
     0
  9
$USERR1
 40
0.0
  9
$USERR2
 40
0.0
  9
$USERR3
 40
0.0
  9
$USERR4
 40
0.0
  9
$USERR5
 40
0.0
  9
$WORLDVIEW
 70
     1
  9
$SHADEDGE
 70
     3
  9
$SHADEDIF
 70
    70
  9
$TILEMODE
 70
     1
  9
$MAXACTVP
 70
    16
  9
$PINSBASE
 10
0.0
 20
0.0
 30
0.0
  9
$PLIMCHECK
 70
     0
  9
$PEXTMIN
 10
1.000000E+20
 20
1.000000E+20
 30
1.000000E+20
  9
$PEXTMAX
 10
-1.000000E+20
 20
-1.000000E+20
 30
-1.000000E+20
  9
$PLIMMIN
 10
0.0
 20
0.0
  9
$PLIMMAX
 10
12.0
 20
9.0
  9
$UNITMODE
 70
     0
  9
$VISRETAIN
 70
     0
  9
$PLINEGEN
 70
     0
  9
$PSLTSCALE
 70
     1
  9
$TREEDEPTH
 70
  3020
  9
$PICKSTYLE
 70
     0
  9
$CMLSTYLE
  2
STANDARD
  9
$CMLJUST
 70
     0
  9
$CMLSCALE
 40
1.0
  9
$PROXYGRAPHICS
 70
     1
  9
$MEASUREMENT
 70
     0
  0
ENDSEC
  0
SECTION
  2
CLASSES
  0
CLASS
  1
DICTIONARYVAR
  2
AcDbDictionaryVar
  3
"AutoCAD"
 90
        0
280
     0
281
     0
  0
CLASS
  1
LWPOLYLINE
  2
AcDbPolyline
  3
"AutoCAD"
 90
        0
280
     0
281
     1
  0
CLASS
  1
HATCH
  2
AcDbHatch
  3
"ACAD_SEDONA"
 90
        0
280
     0
281
     1
  0
ENDSEC
  0
SECTION
  2
TABLES
  0
TABLE
  2
VPORT
  5
8
100
AcDbSymbolTable
 70
     2
  0
VPORT
  5
145AF
100
AcDbSymbolTableRecord
100
AcDbViewportTableRecord
  2
*ACTIVE
 70
     0
 10
0.0
 20
0.0
 11
1.0
 21
1.0
 12
48.498574
 22
70.502131
 13
0.0
 23
0.0
 14
1.0
 24
1.0
 15
0.0
 25
0.0
 16
0.0
 26
0.0
 36
1.0
 17
0.0
 27
0.0
 37
0.0
 40
142.150616
 41
1.588156
 42
50.0
 43
0.0
 44
0.0
 50
0.0
 51
0.0
 71
     0
 72
   200
 73
     1
 74
     1
 75
     0
 76
     0
 77
     0
 78
     0
  0
ENDTAB
  0
TABLE
  2
LTYPE
  5
5
100
AcDbSymbolTable
 70
     3
  0
LTYPE
  5
11
100
AcDbSymbolTableRecord
100
AcDbLinetypeTableRecord
  2
BYBLOCK
 70
     0
  3

 72
    65
 73
     0
 40
0.0
  0
LTYPE
  5
12
100
AcDbSymbolTableRecord
100
AcDbLinetypeTableRecord
  2
BYLAYER
 70
     0
  3

 72
    65
 73
     0
 40
0.0
  0
LTYPE
  5
13
100
AcDbSymbolTableRecord
100
AcDbLinetypeTableRecord
  2
CONTINUOUS
 70
     0
  3
Solid line
 72
    65
 73
     0
 40
0.0
  0
LTYPE
  5
2B
100
AcDbSymbolTableRecord
100
AcDbLinetypeTableRecord
  2
CENTER
 70
     0
  3
____ _ ____ _ ____ _ ____ _ ____ _ ____ _ ____ 
 72
    65
 73
     4
 40
2.0
 49
1.25
 74
     0
 49
-0.25
 74
     0
 49
0.25
 74
     0
 49
-0.25
 74
     0
  0
LTYPE
  5
1A77
100
AcDbSymbolTableRecord
100
AcDbLinetypeTableRecord
  2
HIDDEN
 70
     0
  3
Hidden __ __ __ __ __ __ __ __ __ __ __ __ __ _
 72
    65
 73
     2
 40
0.375
 49
0.25
 74
     0
 49
-0.125
 74
     0
  0
ENDTAB
  0
TABLE
  2
LAYER
  5
2
100
AcDbSymbolTable
 70
     8
  0
LAYER
  5
E
100
AcDbSymbolTableRecord
100
AcDbLayerTableRecord
  2
0
 70
     0
 62
     7
  6
CONTINUOUS
  0
LAYER
  5
2E
100
AcDbSymbolTableRecord
100
AcDbLayerTableRecord
  2
BODY
 70
     0
 62
     7
  6
CONTINUOUS
  0
LAYER
  5
2F
100
AcDbSymbolTableRecord
100
AcDbLayerTableRecord
  2
CEN
 70
     0
 62
     4
  6
CENTER
  0
LAYER
  5
30
100
AcDbSymbolTableRecord
100
AcDbLayerTableRecord
  2
TEXT
 70
     0
 62
     4
  6
CONTINUOUS
  0
LAYER
  5
32
100
AcDbSymbolTableRecord
100
AcDbLayerTableRecord
  2
DIM
 70
     0
 62
     2
  6
CONTINUOUS
  0
LAYER
  5
33
100
AcDbSymbolTableRecord
100
AcDbLayerTableRecord
  2
DEFPOINTS
 70
     0
 62
     7
  6
CONTINUOUS
  0
LAYER
  5
34
100
AcDbSymbolTableRecord
100
AcDbLayerTableRecord
  2
HA
 70
     0
 62
     5
  6
CONTINUOUS
  0
LAYER
  5
1A74
100
AcDbSymbolTableRecord
100
AcDbLayerTableRecord
  2
HI
 70
     0
 62
     3
  6
HIDDEN
  0
ENDTAB
  0
TABLE
  2
STYLE
  5
3
100
AcDbSymbolTable
 70
     3
  0
STYLE
  5
F
100
AcDbSymbolTableRecord
100
AcDbTextStyleTableRecord
  2
STANDARD
 70
     0
 40
0.0
 41
1.0
 50
0.0
 71
     0
 42
5.0
  3
txt.shx
  4
chineset.shx
  0
STYLE
  5
29
100
AcDbSymbolTableRecord
100
AcDbTextStyleTableRecord
  2
MONOTXT
 70
     0
 40
0.0
 41
1.0
 50
0.0
 71
     0
 42
1.0
  3
monotxt
  4

  0
STYLE
  5
15F4
100
AcDbSymbolTableRecord
100
AcDbTextStyleTableRecord
  2
STYLE1
 70
     0
 40
3.0
 41
1.0
 50
0.0
 71
     0
 42
3.0
  3

  4

1001
ACAD
1000
標楷體
1071
    34881
  0
ENDTAB
  0
TABLE
  2
VIEW
  5
6
100
AcDbSymbolTable
 70
     0
  0
ENDTAB
  0
TABLE
  2
UCS
  5
7
100
AcDbSymbolTable
 70
     0
  0
ENDTAB
  0
TABLE
  2
APPID
  5
9
100
AcDbSymbolTable
 70
     1
  0
APPID
  5
10
100
AcDbSymbolTableRecord
100
AcDbRegAppTableRecord
  2
ACAD
 70
     0
  0
ENDTAB
  0
TABLE
  2
DIMSTYLE
  5
A
100
AcDbSymbolTable
 70
     2
  0
DIMSTYLE
105
191
102
{ACAD_REACTORS
330
145A6
330
1448E
330
1448F
330
14490
330
14491
330
14494
330
1449D
102
}
100
AcDbSymbolTableRecord
100
AcDbDimStyleTableRecord
  2
STANDARD
 70
     0
  3

  4

  5

  6

  7

 40
1.0
 41
1.5
 42
0.5
 43
0.5
 44
0.5
 45
0.0
 46
0.0
 47
0.0
 48
0.0
140
1.5
141
0.09
142
0.0
143
25.4
144
1.0
145
0.0
146
0.5
147
0.65
 71
     0
 72
     0
 73
     0
 74
     0
 75
     0
 76
     0
 77
     1
 78
     8
170
     0
171
     2
172
     1
173
     0
174
     0
175
     0
176
     0
177
     0
178
     0
270
     2
271
     2
272
     2
273
     2
274
     2
340
F
275
     0
280
     0
281
     0
282
     0
283
     1
284
     8
285
     0
286
     0
287
     3
288
     0
  0
DIMSTYLE
105
142BB
102
{ACAD_REACTORS
330
142C2
330
142BD
102
}
100
AcDbSymbolTableRecord
100
AcDbDimStyleTableRecord
  2
ISO-25
 70
     0
  3
%%c<>
  4

  5

  6

  7

 40
1.0
 41
2.5
 42
0.625
 43
3.75
 44
1.25
 45
0.0
 46
0.0
 47
0.0
 48
0.0
140
2.5
141
-2.0
142
0.0
143
0.0394
144
1.0
145
0.0
146
1.0
147
0.625
 71
     0
 72
     0
 73
     0
 74
     0
 75
     0
 76
     0
 77
     1
 78
     8
170
     0
171
     4
172
     1
173
     0
174
     0
175
     0
176
     0
177
     0
178
     0
270
     8
271
     2
272
     3
273
     8
274
     4
340
F
275
     0
280
     0
281
     0
282
     0
283
     1
284
     8
285
     0
286
     0
287
     0
288
     0
  0
ENDTAB
  0
TABLE
  2
BLOCK_RECORD
  5
1
100
AcDbSymbolTable
 70
    37
  0
BLOCK_RECORD
  5
17
100
AcDbSymbolTableRecord
100
AcDbBlockTableRecord
  2
*MODEL_SPACE
  0
BLOCK_RECORD
  5
14
100
AcDbSymbolTableRecord
100
AcDbBlockTableRecord
  2
*PAPER_SPACE
  0
BLOCK_RECORD
  5
13AC3
100
AcDbSymbolTableRecord
100
AcDbBlockTableRecord
  2
*D0
  0
BLOCK_RECORD
  5
13EB6
100
AcDbSymbolTableRecord
100
AcDbBlockTableRecord
  2
*D1
  0
BLOCK_RECORD
  5
14072
100
AcDbSymbolTableRecord
100
AcDbBlockTableRecord
  2
*D2
  0
BLOCK_RECORD
  5
140C2
100
AcDbSymbolTableRecord
100
AcDbBlockTableRecord
  2
*D3
  0
BLOCK_RECORD
  5
1413B
100
AcDbSymbolTableRecord
100
AcDbBlockTableRecord
  2
*D4
  0
BLOCK_RECORD
  5
14159
100
AcDbSymbolTableRecord
100
AcDbBlockTableRecord
  2
*D5
  0
BLOCK_RECORD
  5
14167
100
AcDbSymbolTableRecord
100
AcDbBlockTableRecord
  2
*D6
  0
BLOCK_RECORD
  5
14171
100
AcDbSymbolTableRecord
100
AcDbBlockTableRecord
  2
*D7
  0
BLOCK_RECORD
  5
14180
100
AcDbSymbolTableRecord
100
AcDbBlockTableRecord
  2
*D8
  0
BLOCK_RECORD
  5
141B6
100
AcDbSymbolTableRecord
100
AcDbBlockTableRecord
  2
_DOTSMALL
  0
BLOCK_RECORD
  5
14267
100
AcDbSymbolTableRecord
100
AcDbBlockTableRecord
  2
*D10
  0
BLOCK_RECORD
  5
14274
100
AcDbSymbolTableRecord
100
AcDbBlockTableRecord
  2
*D11
  0
BLOCK_RECORD
  5
142A2
100
AcDbSymbolTableRecord
100
AcDbBlockTableRecord
  2
*D12
  0
BLOCK_RECORD
  5
142AE
100
AcDbSymbolTableRecord
100
AcDbBlockTableRecord
  2
*D13
  0
BLOCK_RECORD
  5
142BC
100
AcDbSymbolTableRecord
100
AcDbBlockTableRecord
  2
A$C35510A35
  0
BLOCK_RECORD
  5
1434E
100
AcDbSymbolTableRecord
100
AcDbBlockTableRecord
  2
*D15
  0
BLOCK_RECORD
  5
1435B
100
AcDbSymbolTableRecord
100
AcDbBlockTableRecord
  2
*D16
  0
BLOCK_RECORD
  5
143BB
100
AcDbSymbolTableRecord
100
AcDbBlockTableRecord
  2
A$C05870913
  0
BLOCK_RECORD
  5
143F8
100
AcDbSymbolTableRecord
100
AcDbBlockTableRecord
  2
A$C6F8B0B7B
  0
BLOCK_RECORD
  5
14442
100
AcDbSymbolTableRecord
100
AcDbBlockTableRecord
  2
*D19
  0
BLOCK_RECORD
  5
1444E
100
AcDbSymbolTableRecord
100
AcDbBlockTableRecord
  2
*D20
  0
BLOCK_RECORD
  5
14456
100
AcDbSymbolTableRecord
100
AcDbBlockTableRecord
  2
*D21
  0
BLOCK_RECORD
  5
14462
100
AcDbSymbolTableRecord
100
AcDbBlockTableRecord
  2
*D22
  0
BLOCK_RECORD
  5
14470
100
AcDbSymbolTableRecord
100
AcDbBlockTableRecord
  2
*D23
  0
BLOCK_RECORD
  5
1447E
100
AcDbSymbolTableRecord
100
AcDbBlockTableRecord
  2
*D24
  0
BLOCK_RECORD
  5
1448B
100
AcDbSymbolTableRecord
100
AcDbBlockTableRecord
  2
A$C40B964CA
  0
BLOCK_RECORD
  5
144CD
100
AcDbSymbolTableRecord
100
AcDbBlockTableRecord
  2
*D26
  0
BLOCK_RECORD
  5
144D9
100
AcDbSymbolTableRecord
100
AcDbBlockTableRecord
  2
*D27
  0
BLOCK_RECORD
  5
144E5
100
AcDbSymbolTableRecord
100
AcDbBlockTableRecord
  2
*D28
  0
BLOCK_RECORD
  5
144F3
100
AcDbSymbolTableRecord
100
AcDbBlockTableRecord
  2
*D29
  0
BLOCK_RECORD
  5
14501
100
AcDbSymbolTableRecord
100
AcDbBlockTableRecord
  2
*D30
  0
BLOCK_RECORD
  5
14509
100
AcDbSymbolTableRecord
100
AcDbBlockTableRecord
  2
*D31
  0
BLOCK_RECORD
  5
1455A
100
AcDbSymbolTableRecord
100
AcDbBlockTableRecord
  2
*D32
  0
BLOCK_RECORD
  5
14567
100
AcDbSymbolTableRecord
100
AcDbBlockTableRecord
  2
*D33
  0
BLOCK_RECORD
  5
14574
100
AcDbSymbolTableRecord
100
AcDbBlockTableRecord
  2
*D34
  0
BLOCK_RECORD
  5
14584
100
AcDbSymbolTableRecord
100
AcDbBlockTableRecord
  2
*D35
  0
BLOCK_RECORD
  5
1459E
100
AcDbSymbolTableRecord
100
AcDbBlockTableRecord
  2
*D36
  0
ENDTAB
  0
ENDSEC
  0
SECTION
  2
BLOCKS
  0
BLOCK
  5
37
100
AcDbEntity
  8
0
100
AcDbBlockBegin
  2
*MODEL_SPACE
 70
     0
 10
0.0
 20
0.0
 30
0.0
  3
*MODEL_SPACE
  1

  0
ENDBLK
  5
38
100
AcDbEntity
  8
0
100
AcDbBlockEnd
  0
BLOCK
  5
35
100
AcDbEntity
 67
     1
  8
0
100
AcDbBlockBegin
  2
*PAPER_SPACE
 70
     0
 10
0.0
 20
0.0
 30
0.0
  3
*PAPER_SPACE
  1

  0
ENDBLK
  5
36
100
AcDbEntity
 67
     1
  8
0
100
AcDbBlockEnd
  0
BLOCK
  5
14132
100
AcDbEntity
  8
0
100
AcDbBlockBegin
  2
*D0
 70
     1
 10
0.0
 20
0.0
 30
0.0
  3
*D0
  1

  0
LINE
  5
14133
100
AcDbEntity
  8
0
  6
BYBLOCK
 62
     0
100
AcDbLine
 10
28.190641
 20
53.654787
 30
0.0
 11
28.190641
 21
64.34423
 31
0.0
  0
LINE
  5
14134
100
AcDbEntity
  8
0
  6
BYBLOCK
 62
     0
100
AcDbLine
 10
29.690641
 20
63.34423
 30
0.0
 11
41.154564
 21
63.34423
 31
0.0
  0
SOLID
  5
14135
100
AcDbEntity
  8
0
  6
BYBLOCK
 62
     0
100
AcDbTrace
 10
29.690641
 20
63.59423
 30
0.0
 11
29.690641
 21
63.09423
 31
0.0
 12
28.190641
 22
63.34423
 32
0.0
 13
28.190641
 23
63.34423
 33
0.0
  0
MTEXT
  5
14136
100
AcDbEntity
  8
0
  6
BYBLOCK
 62
     0
100
AcDbMText
 10
37.279564
 20
65.09423
 30
0.0
 40
1.5
 41
0.0
 71
     5
 72
     1
  1
\A1;\U+220520.5
  0
POINT
  5
14137
100
AcDbEntity
  8
DEFPOINTS
  6
BYBLOCK
 62
     0
100
AcDbPoint
 10
28.190641
 20
52.654787
 30
0.0
  0
POINT
  5
14138
100
AcDbEntity
  8
DEFPOINTS
  6
BYBLOCK
 62
     0
100
AcDbPoint
 10
48.690641
 20
52.654787
 30
0.0
  0
POINT
  5
14139
100
AcDbEntity
  8
DEFPOINTS
  6
BYBLOCK
 62
     0
100
AcDbPoint
 10
48.690641
 20
63.34423
 30
0.0
  0
ENDBLK
  5
1413A
100
AcDbEntity
  8
0
100
AcDbBlockEnd
  0
BLOCK
  5
1414F
100
AcDbEntity
  8
0
100
AcDbBlockBegin
  2
*D1
 70
     1
 10
0.0
 20
0.0
 30
0.0
  3
*D1
  1

  0
LINE
  5
14150
100
AcDbEntity
  8
0
  6
BYBLOCK
 62
     0
100
AcDbLine
 10
31.211953
 20
52.482884
 30
0.0
 11
31.211953
 21
59.010491
 31
0.0
  0
LINE
  5
14151
100
AcDbEntity
  8
0
  6
BYBLOCK
 62
     0
100
AcDbLine
 10
32.711953
 20
58.510491
 30
0.0
 11
42.590641
 21
58.510491
 31
0.0
  0
SOLID
  5
14152
100
AcDbEntity
  8
0
  6
BYBLOCK
 62
     0
100
AcDbTrace
 10
32.711953
 20
58.760491
 30
0.0
 11
32.711953
 21
58.260491
 31
0.0
 12
31.211953
 22
58.510491
 32
0.0
 13
31.211953
 23
58.510491
 33
0.0
  0
MTEXT
  5
14153
100
AcDbEntity
  8
0
  6
BYBLOCK
 62
     0
100
AcDbMText
 10
38.440641
 20
59.910491
 30
0.0
 40
1.5
 41
0.0
 71
     5
 72
     1
  1
\A1;\U+220514.46
  0
POINT
  5
14154
100
AcDbEntity
  8
DEFPOINTS
  6
BYBLOCK
 62
     0
100
AcDbPoint
 10
31.211953
 20
51.982884
 30
0.0
  0
POINT
  5
14155
100
AcDbEntity
  8
DEFPOINTS
  6
BYBLOCK
 62
     0
100
AcDbPoint
 10
45.669329
 20
51.982884
 30
0.0
  0
POINT
  5
14156
100
AcDbEntity
  8
DEFPOINTS
  6
BYBLOCK
 62
     0
100
AcDbPoint
 10
45.669329
 20
58.510491
 30
0.0
  0
ENDBLK
  5
14157
100
AcDbEntity
  8
0
100
AcDbBlockEnd
  0
BLOCK
  5
14073
100
AcDbEntity
  8
0
100
AcDbBlockBegin
  2
*D2
 70
     1
 10
0.0
 20
0.0
 30
0.0
  3
*D2
  1

  0
LINE
  5
14074
100
AcDbEntity
  8
0
  6
BYBLOCK
 62
     0
100
AcDbLine
 10
64.791261
 20
67.853968
 30
0.0
 11
64.791261
 21
64.271919
 31
0.0
  0
LINE
  5
14075
100
AcDbEntity
  8
0
  6
BYBLOCK
 62
     0
100
AcDbLine
 10
68.591261
 20
68.872175
 30
0.0
 11
68.591261
 21
64.271919
 31
0.0
  0
LINE
  5
14076
100
AcDbEntity
  8
0
  6
BYBLOCK
 62
     0
100
AcDbLine
 10
65.791261
 20
64.771919
 30
0.0
 11
67.591261
 21
64.771919
 31
0.0
  0
LINE
  5
14077
100
AcDbEntity
  8
0
  6
BYBLOCK
 62
     0
100
AcDbLine
 10
68.591261
 20
64.771919
 30
0.0
 11
73.391261
 21
64.771919
 31
0.0
  0
SOLID
  5
14078
100
AcDbEntity
  8
0
  6
BYBLOCK
 62
     0
100
AcDbTrace
 10
65.791261
 20
64.938586
 30
0.0
 11
65.791261
 21
64.605253
 31
0.0
 12
64.791261
 22
64.771919
 32
0.0
 13
64.791261
 23
64.771919
 33
0.0
  0
SOLID
  5
14079
100
AcDbEntity
  8
0
  6
BYBLOCK
 62
     0
100
AcDbTrace
 10
67.591261
 20
64.938586
 30
0.0
 11
67.591261
 21
64.605253
 31
0.0
 12
68.591261
 22
64.771919
 32
0.0
 13
68.591261
 23
64.771919
 33
0.0
  0
MTEXT
  5
1407A
100
AcDbEntity
  8
0
  6
BYBLOCK
 62
     0
100
AcDbMText
 10
71.491261
 20
66.046919
 30
0.0
 40
1.25
 41
0.0
 71
     5
 72
     1
  1
\A1;3.8
  0
POINT
  5
1407B
100
AcDbEntity
  8
DEFPOINTS
  6
BYBLOCK
 62
     0
100
AcDbPoint
 10
64.791261
 20
68.353968
 30
0.0
  0
POINT
  5
1407C
100
AcDbEntity
  8
DEFPOINTS
  6
BYBLOCK
 62
     0
100
AcDbPoint
 10
68.591261
 20
69.372175
 30
0.0
  0
POINT
  5
1407D
100
AcDbEntity
  8
DEFPOINTS
  6
BYBLOCK
 62
     0
100
AcDbPoint
 10
68.591261
 20
64.771919
 30
0.0
  0
ENDBLK
  5
1407E
100
AcDbEntity
  8
0
100
AcDbBlockEnd
  0
BLOCK
  5
140D5
100
AcDbEntity
  8
0
100
AcDbBlockBegin
  2
*D3
 70
     1
 10
0.0
 20
0.0
 30
0.0
  3
*D3
  1

  0
LINE
  5
140D6
100
AcDbEntity
  8
0
  6
BYBLOCK
 62
     0
100
AcDbLine
 10
25.940641
 20
46.880202
 30
0.0
 11
25.940641
 21
69.939523
 31
0.0
  0
LINE
  5
140D7
100
AcDbEntity
  8
0
  6
BYBLOCK
 62
     0
100
AcDbLine
 10
27.440641
 20
69.439523
 30
0.0
 11
41.090641
 21
69.439523
 31
0.0
  0
SOLID
  5
140D8
100
AcDbEntity
  8
0
  6
BYBLOCK
 62
     0
100
AcDbTrace
 10
27.440641
 20
69.689523
 30
0.0
 11
27.440641
 21
69.189523
 31
0.0
 12
25.940641
 22
69.439523
 32
0.0
 13
25.940641
 23
69.439523
 33
0.0
  0
MTEXT
  5
140D9
100
AcDbEntity
  8
0
  6
BYBLOCK
 62
     0
100
AcDbMText
 10
38.440641
 20
70.839523
 30
0.0
 40
1.5
 41
0.0
 71
     5
 72
     1
  1
\A1;\U+220525
  0
POINT
  5
140DA
100
AcDbEntity
  8
DEFPOINTS
  6
BYBLOCK
 62
     0
100
AcDbPoint
 10
25.940641
 20
46.380202
 30
0.0
  0
POINT
  5
140DB
100
AcDbEntity
  8
DEFPOINTS
  6
BYBLOCK
 62
     0
100
AcDbPoint
 10
50.940641
 20
46.380202
 30
0.0
  0
POINT
  5
140DC
100
AcDbEntity
  8
DEFPOINTS
  6
BYBLOCK
 62
     0
100
AcDbPoint
 10
50.940641
 20
69.439523
 30
0.0
  0
ENDBLK
  5
140DD
100
AcDbEntity
  8
0
100
AcDbBlockEnd
  0
BLOCK
  5
1413C
100
AcDbEntity
  8
0
100
AcDbBlockBegin
  2
*D4
 70
     1
 10
0.0
 20
0.0
 30
0.0
  3
*D4
  1

  0
LINE
  5
1413D
100
AcDbEntity
  8
0
  6
BYBLOCK
 62
     0
100
AcDbLine
 10
26.690641
 20
51.654787
 30
0.0
 11
20.91093
 21
51.654787
 31
0.0
  0
LINE
  5
1413E
100
AcDbEntity
  8
0
  6
BYBLOCK
 62
     0
100
AcDbLine
 10
32.823806
 20
53.904787
 30
0.0
 11
20.91093
 21
53.904787
 31
0.0
  0
LINE
  5
1413F
100
AcDbEntity
  8
0
  6
BYBLOCK
 62
     0
100
AcDbLine
 10
21.41093
 20
50.154787
 30
0.0
 11
21.41093
 21
48.654787
 31
0.0
  0
LINE
  5
14140
100
AcDbEntity
  8
0
  6
BYBLOCK
 62
     0
100
AcDbLine
 10
21.41093
 20
55.404787
 30
0.0
 11
21.41093
 21
62.704787
 31
0.0
  0
LINE
  5
14141
100
AcDbEntity
  8
0
  6
BYBLOCK
 62
     0
100
AcDbLine
 10
21.41093
 20
51.654787
 30
0.0
 11
21.41093
 21
53.904787
 31
0.0
  0
SOLID
  5
14142
100
AcDbEntity
  8
0
  6
BYBLOCK
 62
     0
100
AcDbTrace
 10
21.16093
 20
50.154787
 30
0.0
 11
21.66093
 21
50.154787
 31
0.0
 12
21.41093
 22
51.654787
 32
0.0
 13
21.41093
 23
51.654787
 33
0.0
  0
SOLID
  5
14143
100
AcDbEntity
  8
0
  6
BYBLOCK
 62
     0
100
AcDbTrace
 10
21.16093
 20
55.404787
 30
0.0
 11
21.66093
 21
55.404787
 31
0.0
 12
21.41093
 22
53.904787
 32
0.0
 13
21.41093
 23
53.904787
 33
0.0
  0
MTEXT
  5
14144
100
AcDbEntity
  8
0
  6
BYBLOCK
 62
     0
100
AcDbMText
 10
20.01093
 20
59.804787
 30
0.0
 40
1.5
 41
0.0
 71
     5
 72
     1
  1
\A1;2.25
 11
0.0
 21
1.0
 31
0.0
  0
POINT
  5
14145
100
AcDbEntity
  8
DEFPOINTS
  6
BYBLOCK
 62
     0
100
AcDbPoint
 10
27.190641
 20
51.654787
 30
0.0
  0
POINT
  5
14146
100
AcDbEntity
  8
DEFPOINTS
  6
BYBLOCK
 62
     0
100
AcDbPoint
 10
33.323806
 20
53.904787
 30
0.0
  0
POINT
  5
14147
100
AcDbEntity
  8
DEFPOINTS
  6
BYBLOCK
 62
     0
100
AcDbPoint
 10
21.41093
 20
53.904787
 30
0.0
  0
ENDBLK
  5
14148
100
AcDbEntity
  8
0
100
AcDbBlockEnd
  0
BLOCK
  5
1415A
100
AcDbEntity
  8
0
100
AcDbBlockBegin
  2
*D5
 70
     1
 10
0.0
 20
0.0
 30
0.0
  3
*D5
  1

  0
LINE
  5
1415B
100
AcDbEntity
  8
0
  6
BYBLOCK
 62
     0
100
AcDbLine
 10
27.362544
 20
48.633475
 30
0.0
 11
16.621055
 21
48.633475
 31
0.0
  0
LINE
  5
1415C
100
AcDbEntity
  8
0
  6
BYBLOCK
 62
     0
100
AcDbLine
 10
32.823806
 20
53.904787
 30
0.0
 11
16.621055
 21
53.904787
 31
0.0
  0
LINE
  5
1415D
100
AcDbEntity
  8
0
  6
BYBLOCK
 62
     0
100
AcDbLine
 10
17.121055
 20
50.133475
 30
0.0
 11
17.121055
 21
52.404787
 31
0.0
  0
LINE
  5
1415E
100
AcDbEntity
  8
0
  6
BYBLOCK
 62
     0
100
AcDbLine
 10
17.121055
 20
53.904787
 30
0.0
 11
17.121055
 21
61.204787
 31
0.0
  0
SOLID
  5
1415F
100
AcDbEntity
  8
0
  6
BYBLOCK
 62
     0
100
AcDbTrace
 10
16.871055
 20
50.133475
 30
0.0
 11
17.371055
 21
50.133475
 31
0.0
 12
17.121055
 22
48.633475
 32
0.0
 13
17.121055
 23
48.633475
 33
0.0
  0
SOLID
  5
14160
100
AcDbEntity
  8
0
  6
BYBLOCK
 62
     0
100
AcDbTrace
 10
16.871055
 20
52.404787
 30
0.0
 11
17.371055
 21
52.404787
 31
0.0
 12
17.121055
 22
53.904787
 32
0.0
 13
17.121055
 23
53.904787
 33
0.0
  0
MTEXT
  5
14161
100
AcDbEntity
  8
0
  6
BYBLOCK
 62
     0
100
AcDbMText
 10
15.721055
 20
58.304787
 30
0.0
 40
1.5
 41
0.0
 71
     5
 72
     1
  1
\A1;5.27
 11
0.0
 21
1.0
 31
0.0
  0
POINT
  5
14162
100
AcDbEntity
  8
DEFPOINTS
  6
BYBLOCK
 62
     0
100
AcDbPoint
 10
27.862544
 20
48.633475
 30
0.0
  0
POINT
  5
14163
100
AcDbEntity
  8
DEFPOINTS
  6
BYBLOCK
 62
     0
100
AcDbPoint
 10
33.323806
 20
53.904787
 30
0.0
  0
POINT
  5
14164
100
AcDbEntity
  8
DEFPOINTS
  6
BYBLOCK
 62
     0
100
AcDbPoint
 10
17.121055
 20
53.904787
 30
0.0
  0
ENDBLK
  5
14165
100
AcDbEntity
  8
0
100
AcDbBlockEnd
  0
BLOCK
  5
14411
100
AcDbEntity
  8
0
100
AcDbBlockBegin
  2
*D6
 70
     1
 10
0.0
 20
0.0
 30
0.0
  3
*D6
  1

  0
LINE
  5
14412
100
AcDbEntity
  8
0
  6
BYBLOCK
 62
     0
100
AcDbLine
 10
32.117147
 20
53.670253
 30
0.0
 11
28.904115
 21
54.909657
 31
0.0
  0
MTEXT
  5
14413
100
AcDbEntity
  8
0
  6
BYBLOCK
 62
     0
100
AcDbMText
 10
35.405946
 20
52.401623
 30
0.0
 40
1.5
 41
0.0
 71
     5
 72
     1
  1
\A1;R3{\H0.750000;±0.03}
 11
0.932993
 21
-0.359895
 31
0.0
  0
SOLID
  5
14414
100
AcDbEntity
  8
0
  6
BYBLOCK
 62
     0
100
AcDbTrace
 10
30.393578
 20
54.603062
 30
0.0
 11
30.213631
 21
54.136566
 31
0.0
 12
28.904115
 22
54.909657
 32
0.0
 13
28.904115
 23
54.909657
 33
0.0
  0
POINT
  5
14415
100
AcDbEntity
  8
DEFPOINTS
  6
BYBLOCK
 62
     0
100
AcDbPoint
 10
28.904115
 20
54.909657
 30
0.0
  0
POINT
  5
14416
100
AcDbEntity
  8
DEFPOINTS
  6
BYBLOCK
 62
     0
100
AcDbPoint
 10
31.703093
 20
53.829971
 30
0.0
  0
ENDBLK
  5
14417
100
AcDbEntity
  8
0
100
AcDbBlockEnd
  0
BLOCK
  5
14172
100
AcDbEntity
  8
0
100
AcDbBlockBegin
  2
*D7
 70
     1
 10
0.0
 20
0.0
 30
0.0
  3
*D7
  1

  0
LINE
  5
14173
100
AcDbEntity
  8
0
  6
BYBLOCK
 62
     0
100
AcDbLine
 10
31.205328
 20
95.359772
 30
0.0
 11
27.96209
 21
83.25584
 31
0.0
  0
LINE
  5
14174
100
AcDbEntity
  8
0
  6
BYBLOCK
 62
     0
100
AcDbLine
 10
38.440641
 20
85.342735
 30
0.0
 11
38.440641
 21
81.876313
 31
0.0
  0
ARC
  5
14175
100
AcDbEntity
  8
0
  6
BYBLOCK
 62
     0
100
AcDbCircle
 10
38.440641
 20
122.362328
 30
0.0
 40
39.986015
100
AcDbArc
 50
257.149469
 51
267.850531
  0
SOLID
  5
14176
100
AcDbEntity
  8
0
  6
BYBLOCK
 62
     0
100
AcDbTrace
 10
29.487251
 20
83.135166
 30
0.0
 11
29.607579
 21
83.620472
 31
0.0
 12
28.091499
 22
83.738803
 32
0.0
 13
28.091499
 23
83.738803
 33
0.0
  0
SOLID
  5
14177
100
AcDbEntity
  8
0
  6
BYBLOCK
 62
     0
100
AcDbTrace
 10
36.945594
 20
82.654404
 30
0.0
 11
36.936216
 21
82.154491
 31
0.0
 12
38.440641
 22
82.376313
 32
0.0
 13
38.440641
 23
82.376313
 33
0.0
  0
MTEXT
  5
14178
100
AcDbEntity
  8
0
  6
BYBLOCK
 62
     0
100
AcDbMText
 10
33.404156
 20
84.106421
 30
0.0
 40
1.5
 41
0.0
 71
     5
 72
     1
  1
\A1;15°
 11
0.991445
 21
-0.130526
 31
0.0
  0
POINT
  5
14179
100
AcDbEntity
  8
DEFPOINTS
  6
BYBLOCK
 62
     0
100
AcDbPoint
 10
31.497143
 20
82.98379
 30
0.0
  0
POINT
  5
1417A
100
AcDbEntity
  8
DEFPOINTS
  6
BYBLOCK
 62
     0
100
AcDbPoint
 10
31.334738
 20
95.842735
 30
0.0
  0
POINT
  5
1417B
100
AcDbEntity
  8
DEFPOINTS
  6
BYBLOCK
 62
     0
100
AcDbPoint
 10
38.440641
 20
85.842735
 30
0.0
  0
POINT
  5
1417C
100
AcDbEntity
  8
DEFPOINTS
  6
BYBLOCK
 62
     0
100
AcDbPoint
 10
38.440641
 20
105.842735
 30
0.0
  0
POINT
  5
1417D
100
AcDbEntity
  8
DEFPOINTS
  6
BYBLOCK
 62
     0
100
AcDbPoint
 10
32.130547
 20
98.812735
 30
0.0
  0
ENDBLK
  5
1417E
100
AcDbEntity
  8
0
100
AcDbBlockEnd
  0
BLOCK
  5
14181
100
AcDbEntity
  8
0
100
AcDbBlockBegin
  2
*D8
 70
     1
 10
0.0
 20
0.0
 30
0.0
  3
*D8
  1

  0
LINE
  5
14182
100
AcDbEntity
  8
0
  6
BYBLOCK
 62
     0
100
AcDbLine
 10
31.151019
 20
94.346462
 30
0.0
 11
30.321551
 21
87.59099
 31
0.0
  0
ARC
  5
14183
100
AcDbEntity
  8
0
  6
BYBLOCK
 62
     0
100
AcDbCircle
 10
38.440641
 20
153.715675
 30
0.0
 40
66.121269
100
AcDbArc
 50
264.299816
 51
268.700184
  0
SOLID
  5
14184
100
AcDbEntity
  8
0
  6
BYBLOCK
 62
     0
100
AcDbTrace
 10
31.845632
 20
87.672893
 30
0.0
 11
31.900933
 21
88.169825
 31
0.0
 12
30.382486
 22
88.087264
 32
0.0
 13
30.382486
 23
88.087264
 33
0.0
  0
SOLID
  5
14185
100
AcDbEntity
  8
0
  6
BYBLOCK
 62
     0
100
AcDbTrace
 10
36.943574
 20
87.861404
 30
0.0
 11
36.937902
 21
87.361436
 31
0.0
 12
38.440641
 22
87.594406
 32
0.0
 13
38.440641
 23
87.594406
 33
0.0
  0
MTEXT
  5
14186
100
AcDbEntity
  8
0
  6
BYBLOCK
 62
     0
100
AcDbMText
 10
34.489502
 20
89.115124
 30
0.0
 40
1.5
 41
0.0
 71
     5
 72
     1
  1
\A1;7°
 11
0.998135
 21
-0.061049
 31
0.0
  0
POINT
  5
14187
100
AcDbEntity
  8
DEFPOINTS
  6
BYBLOCK
 62
     0
100
AcDbPoint
 10
33.061103
 20
87.813605
 30
0.0
  0
POINT
  5
14188
100
AcDbEntity
  8
DEFPOINTS
  6
BYBLOCK
 62
     0
100
AcDbPoint
 10
31.211953
 20
94.842735
 30
0.0
  0
POINT
  5
14189
100
AcDbEntity
  8
DEFPOINTS
  6
BYBLOCK
 62
     0
100
AcDbPoint
 10
38.440641
 20
85.842735
 30
0.0
  0
POINT
  5
1418A
100
AcDbEntity
  8
DEFPOINTS
  6
BYBLOCK
 62
     0
100
AcDbPoint
 10
38.440641
 20
105.842735
 30
0.0
  0
POINT
  5
1418B
100
AcDbEntity
  8
DEFPOINTS
  6
BYBLOCK
 62
     0
100
AcDbPoint
 10
31.334738
 20
95.842735
 30
0.0
  0
ENDBLK
  5
1418C
100
AcDbEntity
  8
0
100
AcDbBlockEnd
  0
BLOCK
  5
141BB
100
AcDbEntity
  8
0
100
AcDbBlockBegin
  2
_DOTSMALL
 70
     0
 10
0.0
 20
0.0
 30
0.0
  3
_DOTSMALL
  1

  0
POLYLINE
  5
141B7
100
AcDbEntity
  8
0
  6
BYBLOCK
 62
     0
100
AcDb2dPolyline
 66
     1
 10
0.0
 20
0.0
 30
0.0
 70
     1
 40
0.5
 41
0.5
  0
VERTEX
  5
141B8
100
AcDbEntity
  8
0
  6
BYBLOCK
 62
     0
100
AcDbVertex
100
AcDb2dVertex
 10
-0.0625
 20
0.0
 30
0.0
 42
1.0
  0
VERTEX
  5
141B9
100
AcDbEntity
  8
0
  6
BYBLOCK
 62
     0
100
AcDbVertex
100
AcDb2dVertex
 10
0.0625
 20
0.0
 30
0.0
 42
1.0
  0
SEQEND
  5
141BA
100
AcDbEntity
  8
0
  6
BYBLOCK
 62
     0
  0
ENDBLK
  5
141BC
100
AcDbEntity
  8
0
100
AcDbBlockEnd
  0
BLOCK
  5
14268
100
AcDbEntity
  8
0
100
AcDbBlockBegin
  2
*D10
 70
     1
 10
0.0
 20
0.0
 30
0.0
  3
*D10
  1

  0
LINE
  5
14269
100
AcDbEntity
  8
0
  6
BYBLOCK
 62
     0
100
AcDbLine
 10
173.807126
 20
33.606663
 30
0.0
 11
173.807126
 21
27.486345
 31
0.0
  0
LINE
  5
1426A
100
AcDbEntity
  8
0
  6
BYBLOCK
 62
     0
100
AcDbLine
 10
175.807126
 20
33.606663
 30
0.0
 11
175.807126
 21
27.486345
 31
0.0
  0
LINE
  5
1426B
100
AcDbEntity
  8
0
  6
BYBLOCK
 62
     0
100
AcDbLine
 10
173.807126
 20
27.986345
 30
0.0
 11
175.807126
 21
27.986345
 31
0.0
  0
LINE
  5
1426C
100
AcDbEntity
  8
0
  6
BYBLOCK
 62
     0
100
AcDbLine
 10
175.807126
 20
27.986345
 30
0.0
 11
179.607126
 21
27.986345
 31
0.0
  0
INSERT
  5
1426D
100
AcDbEntity
  8
0
  6
BYBLOCK
 62
     0
100
AcDbBlockReference
  2
_DOTSMALL
 10
173.807126
 20
27.986345
 30
0.0
 41
1.5
 42
1.5
 43
1.5
 50
180.0
  0
INSERT
  5
1426E
100
AcDbEntity
  8
0
  6
BYBLOCK
 62
     0
100
AcDbBlockReference
  2
_DOTSMALL
 10
175.807126
 20
27.986345
 30
0.0
 41
1.5
 42
1.5
 43
1.5
  0
MTEXT
  5
1426F
100
AcDbEntity
  8
0
  6
BYBLOCK
 62
     0
100
AcDbMText
 10
178.457126
 20
29.386345
 30
0.0
 40
1.5
 41
0.0
 71
     5
 72
     1
  1
\A1;2
  0
POINT
  5
14270
100
AcDbEntity
  8
DEFPOINTS
  6
BYBLOCK
 62
     0
100
AcDbPoint
 10
173.807126
 20
34.106663
 30
0.0
  0
POINT
  5
14271
100
AcDbEntity
  8
DEFPOINTS
  6
BYBLOCK
 62
     0
100
AcDbPoint
 10
175.807126
 20
34.106663
 30
0.0
  0
POINT
  5
14272
100
AcDbEntity
  8
DEFPOINTS
  6
BYBLOCK
 62
     0
100
AcDbPoint
 10
175.807126
 20
27.986345
 30
0.0
  0
ENDBLK
  5
14273
100
AcDbEntity
  8
0
100
AcDbBlockEnd
  0
BLOCK
  5
14275
100
AcDbEntity
  8
0
100
AcDbBlockBegin
  2
*D11
 70
     1
 10
0.0
 20
0.0
 30
0.0
  3
*D11
  1

  0
LINE
  5
14276
100
AcDbEntity
  8
0
  6
BYBLOCK
 62
     0
100
AcDbLine
 10
176.307126
 20
34.106663
 30
0.0
 11
180.090838
 21
34.106663
 31
0.0
  0
LINE
  5
14277
100
AcDbEntity
  8
0
  6
BYBLOCK
 62
     0
100
AcDbLine
 10
176.307126
 20
37.606663
 30
0.0
 11
180.090838
 21
37.606663
 31
0.0
  0
LINE
  5
14278
100
AcDbEntity
  8
0
  6
BYBLOCK
 62
     0
100
AcDbLine
 10
179.590838
 20
34.106663
 30
0.0
 11
179.590838
 21
37.606663
 31
0.0
  0
LINE
  5
14279
100
AcDbEntity
  8
0
  6
BYBLOCK
 62
     0
100
AcDbLine
 10
179.590838
 20
37.606663
 30
0.0
 11
179.590838
 21
43.406663
 31
0.0
  0
INSERT
  5
1427A
100
AcDbEntity
  8
0
  6
BYBLOCK
 62
     0
100
AcDbBlockReference
  2
_DOTSMALL
 10
179.590838
 20
34.106663
 30
0.0
 41
1.5
 42
1.5
 43
1.5
 50
270.0
  0
INSERT
  5
1427B
100
AcDbEntity
  8
0
  6
BYBLOCK
 62
     0
100
AcDbBlockReference
  2
_DOTSMALL
 10
179.590838
 20
37.606663
 30
0.0
 41
1.5
 42
1.5
 43
1.5
 50
90.0
  0
MTEXT
  5
1427C
100
AcDbEntity
  8
0
  6
BYBLOCK
 62
     0
100
AcDbMText
 10
178.190838
 20
41.256663
 30
0.0
 40
1.5
 41
0.0
 71
     5
 72
     1
  1
\A1;3.5
 11
0.0
 21
1.0
 31
0.0
  0
POINT
  5
1427D
100
AcDbEntity
  8
DEFPOINTS
  6
BYBLOCK
 62
     0
100
AcDbPoint
 10
175.807126
 20
34.106663
 30
0.0
  0
POINT
  5
1427E
100
AcDbEntity
  8
DEFPOINTS
  6
BYBLOCK
 62
     0
100
AcDbPoint
 10
175.807126
 20
37.606663
 30
0.0
  0
POINT
  5
1427F
100
AcDbEntity
  8
DEFPOINTS
  6
BYBLOCK
 62
     0
100
AcDbPoint
 10
179.590838
 20
37.606663
 30
0.0
  0
ENDBLK
  5
14280
100
AcDbEntity
  8
0
100
AcDbBlockEnd
  0
BLOCK
  5
142AC
100
AcDbEntity
  8
0
100
AcDbBlockBegin
  2
*D12
 70
     1
 10
0.0
 20
0.0
 30
0.0
  3
*D12
  1

  0
LINE
  5
142A3
100
AcDbEntity
  8
0
  6
BYBLOCK
 62
     0
100
AcDbLine
 10
93.662749
 20
81.209676
 30
0.0
 11
96.936227
 21
81.209676
 31
0.0
  0
LINE
  5
142A4
100
AcDbEntity
  8
0
  6
BYBLOCK
 62
     0
100
AcDbLine
 10
93.662749
 20
85.709676
 30
0.0
 11
96.936227
 21
85.709676
 31
0.0
  0
LINE
  5
142A5
100
AcDbEntity
  8
0
  6
BYBLOCK
 62
     0
100
AcDbLine
 10
96.436227
 20
81.209676
 30
0.0
 11
96.436227
 21
85.709676
 31
0.0
  0
INSERT
  5
142A6
100
AcDbEntity
  8
0
  6
BYBLOCK
 62
     0
100
AcDbBlockReference
  2
_DOTSMALL
 10
96.436227
 20
81.209676
 30
0.0
 50
270.0
  0
INSERT
  5
142A7
100
AcDbEntity
  8
0
  6
BYBLOCK
 62
     0
100
AcDbBlockReference
  2
_DOTSMALL
 10
96.436227
 20
85.709676
 30
0.0
 50
90.0
  0
MTEXT
  5
142A8
100
AcDbEntity
  8
0
  6
BYBLOCK
 62
     0
100
AcDbMText
 10
95.036227
 20
83.459676
 30
0.0
 40
1.5
 41
0.0
 71
     5
 72
     1
  1
\A1;4.5
 11
0.0
 21
1.0
 31
0.0
  0
POINT
  5
142A9
100
AcDbEntity
  8
DEFPOINTS
  6
BYBLOCK
 62
     0
100
AcDbPoint
 10
93.162749
 20
81.209676
 30
0.0
  0
POINT
  5
142AA
100
AcDbEntity
  8
DEFPOINTS
  6
BYBLOCK
 62
     0
100
AcDbPoint
 10
93.162749
 20
85.709676
 30
0.0
  0
POINT
  5
142AB
100
AcDbEntity
  8
DEFPOINTS
  6
BYBLOCK
 62
     0
100
AcDbPoint
 10
96.436227
 20
85.709676
 30
0.0
  0
ENDBLK
  5
142AD
100
AcDbEntity
  8
0
100
AcDbBlockEnd
  0
BLOCK
  5
142B9
100
AcDbEntity
  8
0
100
AcDbBlockBegin
  2
*D13
 70
     1
 10
0.0
 20
0.0
 30
0.0
  3
*D13
  1

  0
LINE
  5
142AF
100
AcDbEntity
  8
0
  6
BYBLOCK
 62
     0
100
AcDbLine
 10
91.662749
 20
80.709676
 30
0.0
 11
91.662749
 21
77.357203
 31
0.0
  0
LINE
  5
142B0
100
AcDbEntity
  8
0
  6
BYBLOCK
 62
     0
100
AcDbLine
 10
93.162749
 20
80.709676
 30
0.0
 11
93.162749
 21
77.357203
 31
0.0
  0
LINE
  5
142B1
100
AcDbEntity
  8
0
  6
BYBLOCK
 62
     0
100
AcDbLine
 10
91.662749
 20
77.857203
 30
0.0
 11
93.162749
 21
77.857203
 31
0.0
  0
LINE
  5
142B2
100
AcDbEntity
  8
0
  6
BYBLOCK
 62
     0
100
AcDbLine
 10
93.162749
 20
77.857203
 30
0.0
 11
97.962749
 21
77.857203
 31
0.0
  0
INSERT
  5
142B3
100
AcDbEntity
  8
0
  6
BYBLOCK
 62
     0
100
AcDbBlockReference
  2
_DOTSMALL
 10
91.662749
 20
77.857203
 30
0.0
 50
180.0
  0
INSERT
  5
142B4
100
AcDbEntity
  8
0
  6
BYBLOCK
 62
     0
100
AcDbBlockReference
  2
_DOTSMALL
 10
93.162749
 20
77.857203
 30
0.0
  0
MTEXT
  5
142B5
100
AcDbEntity
  8
0
  6
BYBLOCK
 62
     0
100
AcDbMText
 10
96.062749
 20
79.257203
 30
0.0
 40
1.5
 41
0.0
 71
     5
 72
     1
  1
\A1;1.5
  0
POINT
  5
142B6
100
AcDbEntity
  8
DEFPOINTS
  6
BYBLOCK
 62
     0
100
AcDbPoint
 10
91.662749
 20
81.209676
 30
0.0
  0
POINT
  5
142B7
100
AcDbEntity
  8
DEFPOINTS
  6
BYBLOCK
 62
     0
100
AcDbPoint
 10
93.162749
 20
81.209676
 30
0.0
  0
POINT
  5
142B8
100
AcDbEntity
  8
DEFPOINTS
  6
BYBLOCK
 62
     0
100
AcDbPoint
 10
93.162749
 20
77.857203
 30
0.0
  0
ENDBLK
  5
142BA
100
AcDbEntity
  8
0
100
AcDbBlockEnd
  0
BLOCK
  5
142C4
100
AcDbEntity
  8
0
100
AcDbBlockBegin
  2
A$C35510A35
 70
     0
 10
0.0
 20
0.0
 30
0.0
  3
A$C35510A35
  1

  0
DIMENSION
  5
142BD
100
AcDbEntity
  8
DIM
100
AcDbDimension
  2
*D13
 10
1.625
 20
0.5
 30
0.0
 11
4.525
 21
1.9
 31
0.0
 12
-91.537749
 22
-77.357203
 32
0.0
  3
ISO-25
100
AcDbAlignedDimension
 13
0.125
 23
3.852473
 33
0.0
 14
1.625
 24
3.852473
 34
0.0
100
AcDbRotatedDimension
1001
ACAD
1000
DSTYLE
1002
{
1070
   270
1070
     2
1070
   140
1040
1.5
1070
   146
1040
0.5
1070
   272
1070
     2
1070
   173
1070
     1
1070
     3
1000

1070
   147
1040
0.65
1070
   287
1070
     3
1070
    42
1040
0.5
1070
    44
1040
0.5
1070
    43
1040
0.5
1070
   141
1040
0.09
1070
     7
1000
_DOTSMALL
1070
     6
1000
_DOTSMALL
1070
    41
1040
1.0
1002
}
  0
LINE
  5
142BE
100
AcDbEntity
  8
DIM
100
AcDbLine
 10
1.625
 20
8.352473
 30
0.0
 11
0.125
 21
8.352473
 31
0.0
  0
LINE
  5
142BF
100
AcDbEntity
  8
DIM
100
AcDbLine
 10
1.625
 20
3.852473
 30
0.0
 11
0.125
 21
3.852473
 31
0.0
  0
TEXT
  5
142C0
100
AcDbEntity
  8
TEXT
100
AcDbText
 10
1.469618
 20
3.943834
 30
0.0
 40
1.25
  1
Nine9
 50
90.0
  7
STYLE1
100
AcDbText
  0
LINE
  5
142C1
100
AcDbEntity
  8
DIM
100
AcDbLine
 10
0.125
 20
8.352473
 30
0.0
 11
0.125
 21
3.852473
 31
0.0
  0
DIMENSION
  5
142C2
100
AcDbEntity
  8
DIM
100
AcDbDimension
  2
*D12
 10
4.898478
 20
8.352473
 30
0.0
 11
3.498478
 21
6.102473
 31
0.0
 12
-91.537749
 22
-77.357203
 32
0.0
  3
ISO-25
100
AcDbAlignedDimension
 13
1.625
 23
3.852473
 33
0.0
 14
1.625
 24
8.352473
 34
0.0
 50
90.0
100
AcDbRotatedDimension
1001
ACAD
1000
DSTYLE
1002
{
1070
   270
1070
     2
1070
   140
1040
1.5
1070
   146
1040
0.5
1070
   272
1070
     2
1070
   173
1070
     1
1070
     3
1000

1070
   147
1040
0.65
1070
   287
1070
     3
1070
    42
1040
0.5
1070
    44
1040
0.5
1070
    43
1040
0.5
1070
   141
1040
0.09
1070
     7
1000
_DOTSMALL
1070
     6
1000
_DOTSMALL
1070
    41
1040
1.0
1002
}
  0
LINE
  5
142C3
100
AcDbEntity
  8
DIM
100
AcDbLine
 10
1.625
 20
8.352473
 30
0.0
 11
1.625
 21
3.852473
 31
0.0
  0
ENDBLK
  5
142C5
100
AcDbEntity
  8
0
100
AcDbBlockEnd
  0
BLOCK
  5
14368
100
AcDbEntity
  8
0
100
AcDbBlockBegin
  2
*D15
 70
     1
 10
0.0
 20
0.0
 30
0.0
  3
*D15
  1

  0
LINE
  5
14369
100
AcDbEntity
  8
0
  6
BYBLOCK
 62
     0
100
AcDbLine
 10
67.964498
 20
77.042359
 30
0.0
 11
71.237976
 21
77.042359
 31
0.0
  0
LINE
  5
1436A
100
AcDbEntity
  8
0
  6
BYBLOCK
 62
     0
100
AcDbLine
 10
67.964498
 20
80.542359
 30
0.0
 11
71.237976
 21
80.542359
 31
0.0
  0
LINE
  5
1436B
100
AcDbEntity
  8
0
  6
BYBLOCK
 62
     0
100
AcDbLine
 10
70.737976
 20
77.042359
 30
0.0
 11
70.737976
 21
80.542359
 31
0.0
  0
LINE
  5
1436C
100
AcDbEntity
  8
0
  6
BYBLOCK
 62
     0
100
AcDbLine
 10
70.737976
 20
80.542359
 30
0.0
 11
70.737976
 21
85.842359
 31
0.0
  0
INSERT
  5
1436D
100
AcDbEntity
  8
0
  6
BYBLOCK
 62
     0
100
AcDbBlockReference
  2
_DOTSMALL
 10
70.737976
 20
77.042359
 30
0.0
 50
270.0
  0
INSERT
  5
1436E
100
AcDbEntity
  8
0
  6
BYBLOCK
 62
     0
100
AcDbBlockReference
  2
_DOTSMALL
 10
70.737976
 20
80.542359
 30
0.0
 50
90.0
  0
MTEXT
  5
1436F
100
AcDbEntity
  8
0
  6
BYBLOCK
 62
     0
100
AcDbMText
 10
69.337976
 20
83.692359
 30
0.0
 40
1.5
 41
0.0
 71
     5
 72
     1
  1
\A1;3.5
 11
0.0
 21
1.0
 31
0.0
  0
POINT
  5
14370
100
AcDbEntity
  8
DEFPOINTS
  6
BYBLOCK
 62
     0
100
AcDbPoint
 10
67.464498
 20
77.042359
 30
0.0
  0
POINT
  5
14371
100
AcDbEntity
  8
DEFPOINTS
  6
BYBLOCK
 62
     0
100
AcDbPoint
 10
67.464498
 20
80.542359
 30
0.0
  0
POINT
  5
14372
100
AcDbEntity
  8
DEFPOINTS
  6
BYBLOCK
 62
     0
100
AcDbPoint
 10
70.737976
 20
80.542359
 30
0.0
  0
ENDBLK
  5
14373
100
AcDbEntity
  8
0
100
AcDbBlockEnd
  0
BLOCK
  5
14374
100
AcDbEntity
  8
0
100
AcDbBlockBegin
  2
*D16
 70
     1
 10
0.0
 20
0.0
 30
0.0
  3
*D16
  1

  0
LINE
  5
14375
100
AcDbEntity
  8
0
  6
BYBLOCK
 62
     0
100
AcDbLine
 10
65.964498
 20
76.542359
 30
0.0
 11
65.964498
 21
73.189886
 31
0.0
  0
LINE
  5
14376
100
AcDbEntity
  8
0
  6
BYBLOCK
 62
     0
100
AcDbLine
 10
67.464498
 20
76.542359
 30
0.0
 11
67.464498
 21
73.189886
 31
0.0
  0
LINE
  5
14377
100
AcDbEntity
  8
0
  6
BYBLOCK
 62
     0
100
AcDbLine
 10
65.964498
 20
73.689886
 30
0.0
 11
67.464498
 21
73.689886
 31
0.0
  0
LINE
  5
14378
100
AcDbEntity
  8
0
  6
BYBLOCK
 62
     0
100
AcDbLine
 10
67.464498
 20
73.689886
 30
0.0
 11
72.264498
 21
73.689886
 31
0.0
  0
INSERT
  5
14379
100
AcDbEntity
  8
0
  6
BYBLOCK
 62
     0
100
AcDbBlockReference
  2
_DOTSMALL
 10
65.964498
 20
73.689886
 30
0.0
 50
180.0
  0
INSERT
  5
1437A
100
AcDbEntity
  8
0
  6
BYBLOCK
 62
     0
100
AcDbBlockReference
  2
_DOTSMALL
 10
67.464498
 20
73.689886
 30
0.0
  0
MTEXT
  5
1437B
100
AcDbEntity
  8
0
  6
BYBLOCK
 62
     0
100
AcDbMText
 10
70.364498
 20
75.089886
 30
0.0
 40
1.5
 41
0.0
 71
     5
 72
     1
  1
\A1;1.5
  0
POINT
  5
1437C
100
AcDbEntity
  8
DEFPOINTS
  6
BYBLOCK
 62
     0
100
AcDbPoint
 10
65.964498
 20
77.042359
 30
0.0
  0
POINT
  5
1437D
100
AcDbEntity
  8
DEFPOINTS
  6
BYBLOCK
 62
     0
100
AcDbPoint
 10
67.464498
 20
77.042359
 30
0.0
  0
POINT
  5
1437E
100
AcDbEntity
  8
DEFPOINTS
  6
BYBLOCK
 62
     0
100
AcDbPoint
 10
67.464498
 20
73.689886
 30
0.0
  0
ENDBLK
  5
1437F
100
AcDbEntity
  8
0
100
AcDbBlockEnd
  0
BLOCK
  5
143C6
100
AcDbEntity
  8
0
100
AcDbBlockBegin
  2
A$C05870913
 70
     0
 10
0.0
 20
0.0
 30
0.0
  3
A$C05870913
  1

  0
TEXT
  5
143BC
100
AcDbEntity
  8
TEXT
100
AcDbText
 10
2.5
 20
111.5
 30
0.0
 40
2.0
  1
Low 180# 60s
  7
STYLE1
100
AcDbText
  0
TEXT
  5
143BD
100
AcDbEntity
  8
TEXT
100
AcDbText
 10
2.5
 20
107.5
 30
0.0
 40
2.0
  1
鍍TiN
  7
STYLE1
100
AcDbText
  0
TEXT
  5
143BE
100
AcDbEntity
  8
TEXT
100
AcDbText
 10
2.5
 20
103.5
 30
0.0
 40
2.0
  1
雷
  7
STYLE1
100
AcDbText
  0
LINE
  5
143BF
100
AcDbEntity
  8
0
 62
     4
100
AcDbLine
 10
0.0
 20
3.0
 30
0.0
 11
34.5
 21
3.0
 31
0.0
  0
LINE
  5
143C0
100
AcDbEntity
  8
0
 62
     4
100
AcDbLine
 10
0.0
 20
0.0
 30
0.0
 11
34.5
 21
0.0
 31
0.0
  0
TEXT
  5
143C1
100
AcDbEntity
  8
TEXT
100
AcDbText
 10
1.807811
 20
0.48948
 30
0.0
 40
1.25
  1
5
  7
STYLE1
100
AcDbText
  0
LWPOLYLINE
  5
143C2
100
AcDbEntity
  8
TEXT
100
AcDbPolyline
 90
        3
 70
     1
 43
0.0
 10
3.642731
 20
0.193615
 10
2.257091
 20
2.593615
 10
0.87145
 20
0.193615
  0
TEXT
  5
143C3
100
AcDbEntity
  8
TEXT
100
AcDbText
 10
5.357097
 20
0.819557
 30
0.0
 40
1.25
  1
製程回復噴砂
  7
STYLE1
100
AcDbText
  0
TEXT
  5
143C4
100
AcDbEntity
  8
TEXT
100
AcDbText
 10
26.261846
 20
0.819557
 30
0.0
 40
1.4
  1
10,08,25
  7
STYLE1
100
AcDbText
  0
TEXT
  5
143C5
100
AcDbEntity
  8
TEXT
100
AcDbText
 10
20.25
 20
0.819557
 30
0.0
 40
1.5
  1
kevin
  7
STYLE1
100
AcDbText
  0
ENDBLK
  5
143C7
100
AcDbEntity
  8
0
100
AcDbBlockEnd
  0
BLOCK
  5
14400
100
AcDbEntity
  8
0
100
AcDbBlockBegin
  2
A$C6F8B0B7B
 70
     0
 10
0.0
 20
0.0
 30
0.0
  3
A$C6F8B0B7B
  1

  0
TEXT
  5
143F9
100
AcDbEntity
  8
TEXT
100
AcDbText
 10
1.807811
 20
0.48948
 30
0.0
 40
1.25
  1
6
  7
STYLE1
100
AcDbText
  0
LWPOLYLINE
  5
143FA
100
AcDbEntity
  8
TEXT
100
AcDbPolyline
 90
        3
 70
     1
 43
0.0
 10
3.642731
 20
0.193615
 10
2.257091
 20
2.593615
 10
0.87145
 20
0.193615
  0
TEXT
  5
143FB
100
AcDbEntity
  8
TEXT
100
AcDbText
 10
5.357097
 20
0.819557
 30
0.0
 40
1.25
  1
加註R2公差%%P0.03
  7
STYLE1
100
AcDbText
  0
TEXT
  5
143FC
100
AcDbEntity
  8
TEXT
100
AcDbText
 10
20.25
 20
0.819557
 30
0.0
 40
1.5
  1
kevin
  7
STYLE1
100
AcDbText
  0
TEXT
  5
143FD
100
AcDbEntity
  8
TEXT
100
AcDbText
 10
26.261846
 20
0.819557
 30
0.0
 40
1.4
  1
11,10,20
  7
STYLE1
100
AcDbText
  0
LINE
  5
143FE
100
AcDbEntity
  8
0
 62
     4
100
AcDbLine
 10
0.0
 20
3.0
 30
0.0
 11
34.5
 21
3.0
 31
0.0
  0
LINE
  5
143FF
100
AcDbEntity
  8
0
 62
     4
100
AcDbLine
 10
0.0
 20
0.0
 30
0.0
 11
34.5
 21
0.0
 31
0.0
  0
ENDBLK
  5
14401
100
AcDbEntity
  8
0
100
AcDbBlockEnd
  0
BLOCK
  5
1444C
100
AcDbEntity
  8
0
100
AcDbBlockBegin
  2
*D19
 70
     1
 10
0.0
 20
0.0
 30
0.0
  3
*D19
  1

  0
LINE
  5
14443
100
AcDbEntity
  8
0
  6
BYBLOCK
 62
     0
100
AcDbLine
 10
38.188664
 20
72.541213
 30
0.0
 11
38.188664
 21
62.527575
 31
0.0
  0
LINE
  5
14444
100
AcDbEntity
  8
0
  6
BYBLOCK
 62
     0
100
AcDbLine
 10
47.438664
 20
74.791213
 30
0.0
 11
47.438664
 21
62.527575
 31
0.0
  0
LINE
  5
14445
100
AcDbEntity
  8
0
  6
BYBLOCK
 62
     0
100
AcDbLine
 10
39.688664
 20
63.027575
 30
0.0
 11
45.938664
 21
63.027575
 31
0.0
  0
SOLID
  5
14446
100
AcDbEntity
  8
0
  6
BYBLOCK
 62
     0
100
AcDbTrace
 10
39.688664
 20
63.277575
 30
0.0
 11
39.688664
 21
62.777575
 31
0.0
 12
38.188664
 22
63.027575
 32
0.0
 13
38.188664
 23
63.027575
 33
0.0
  0
SOLID
  5
14447
100
AcDbEntity
  8
0
  6
BYBLOCK
 62
     0
100
AcDbTrace
 10
45.938664
 20
63.277575
 30
0.0
 11
45.938664
 21
62.777575
 31
0.0
 12
47.438664
 22
63.027575
 32
0.0
 13
47.438664
 23
63.027575
 33
0.0
  0
MTEXT
  5
14448
100
AcDbEntity
  8
0
  6
BYBLOCK
 62
     0
100
AcDbMText
 10
42.813664
 20
64.427575
 30
0.0
 40
1.5
 41
0.0
 71
     5
 72
     1
  1
\A1;9.25
  0
POINT
  5
14449
100
AcDbEntity
  8
DEFPOINTS
  6
BYBLOCK
 62
     0
100
AcDbPoint
 10
38.188664
 20
73.041213
 30
0.0
  0
POINT
  5
1444A
100
AcDbEntity
  8
DEFPOINTS
  6
BYBLOCK
 62
     0
100
AcDbPoint
 10
47.438664
 20
75.291213
 30
0.0
  0
POINT
  5
1444B
100
AcDbEntity
  8
DEFPOINTS
  6
BYBLOCK
 62
     0
100
AcDbPoint
 10
47.438664
 20
63.027575
 30
0.0
  0
ENDBLK
  5
1444D
100
AcDbEntity
  8
0
100
AcDbBlockEnd
  0
BLOCK
  5
14454
100
AcDbEntity
  8
0
100
AcDbBlockBegin
  2
*D20
 70
     1
 10
0.0
 20
0.0
 30
0.0
  3
*D20
  1

  0
LINE
  5
1444F
100
AcDbEntity
  8
0
  6
BYBLOCK
 62
     0
100
AcDbLine
 10
37.269031
 20
85.645413
 30
0.0
 11
39.911855
 21
84.225737
 31
0.0
  0
MTEXT
  5
14450
100
AcDbEntity
  8
0
  6
BYBLOCK
 62
     0
100
AcDbMText
 10
35.815478
 20
86.426235
 30
0.0
 40
1.5
 41
0.0
 71
     5
 72
     1
  1
\A1;R1
 11
0.880941
 21
-0.473225
 31
0.0
  0
SOLID
  5
14451
100
AcDbEntity
  8
0
  6
BYBLOCK
 62
     0
100
AcDbTrace
 10
38.70875
 20
85.155811
 30
0.0
 11
38.472137
 21
84.71534
 31
0.0
 12
39.911855
 22
84.225737
 32
0.0
 13
39.911855
 23
84.225737
 33
0.0
  0
POINT
  5
14452
100
AcDbEntity
  8
DEFPOINTS
  6
BYBLOCK
 62
     0
100
AcDbPoint
 10
39.911855
 20
84.225737
 30
0.0
  0
POINT
  5
14453
100
AcDbEntity
  8
DEFPOINTS
  6
BYBLOCK
 62
     0
100
AcDbPoint
 10
39.030914
 20
84.698962
 30
0.0
  0
ENDBLK
  5
14455
100
AcDbEntity
  8
0
100
AcDbBlockEnd
  0
BLOCK
  5
14460
100
AcDbEntity
  8
0
100
AcDbBlockBegin
  2
*D21
 70
     1
 10
0.0
 20
0.0
 30
0.0
  3
*D21
  1

  0
LINE
  5
14457
100
AcDbEntity
  8
0
  6
BYBLOCK
 62
     0
100
AcDbLine
 10
38.188664
 20
72.541213
 30
0.0
 11
38.188664
 21
66.485421
 31
0.0
  0
LINE
  5
14458
100
AcDbEntity
  8
0
  6
BYBLOCK
 62
     0
100
AcDbLine
 10
46.440034
 20
75.843549
 30
0.0
 11
46.440034
 21
66.485421
 31
0.0
  0
LINE
  5
14459
100
AcDbEntity
  8
0
  6
BYBLOCK
 62
     0
100
AcDbLine
 10
39.688664
 20
66.985421
 30
0.0
 11
44.940034
 21
66.985421
 31
0.0
  0
SOLID
  5
1445A
100
AcDbEntity
  8
0
  6
BYBLOCK
 62
     0
100
AcDbTrace
 10
39.688664
 20
67.235421
 30
0.0
 11
39.688664
 21
66.735421
 31
0.0
 12
38.188664
 22
66.985421
 32
0.0
 13
38.188664
 23
66.985421
 33
0.0
  0
SOLID
  5
1445B
100
AcDbEntity
  8
0
  6
BYBLOCK
 62
     0
100
AcDbTrace
 10
44.940034
 20
67.235421
 30
0.0
 11
44.940034
 21
66.735421
 31
0.0
 12
46.440034
 22
66.985421
 32
0.0
 13
46.440034
 23
66.985421
 33
0.0
  0
MTEXT
  5
1445C
100
AcDbEntity
  8
0
  6
BYBLOCK
 62
     0
100
AcDbMText
 10
42.314349
 20
68.385421
 30
0.0
 40
1.5
 41
0.0
 71
     5
 72
     1
  1
\A1;8.25
  0
POINT
  5
1445D
100
AcDbEntity
  8
DEFPOINTS
  6
BYBLOCK
 62
     0
100
AcDbPoint
 10
38.188664
 20
73.041213
 30
0.0
  0
POINT
  5
1445E
100
AcDbEntity
  8
DEFPOINTS
  6
BYBLOCK
 62
     0
100
AcDbPoint
 10
46.440034
 20
76.343549
 30
0.0
  0
POINT
  5
1445F
100
AcDbEntity
  8
DEFPOINTS
  6
BYBLOCK
 62
     0
100
AcDbPoint
 10
46.440034
 20
66.985421
 30
0.0
  0
ENDBLK
  5
14461
100
AcDbEntity
  8
0
100
AcDbBlockEnd
  0
BLOCK
  5
1446E
100
AcDbEntity
  8
0
100
AcDbBlockBegin
  2
*D22
 70
     1
 10
0.0
 20
0.0
 30
0.0
  3
*D22
  1

  0
LINE
  5
14463
100
AcDbEntity
  8
0
  6
BYBLOCK
 62
     0
100
AcDbLine
 10
43.805499
 20
73.041213
 30
0.0
 11
55.28722
 21
73.041213
 31
0.0
  0
LINE
  5
14464
100
AcDbEntity
  8
0
  6
BYBLOCK
 62
     0
100
AcDbLine
 10
48.938664
 20
76.291213
 30
0.0
 11
55.28722
 21
76.291213
 31
0.0
  0
LINE
  5
14465
100
AcDbEntity
  8
0
  6
BYBLOCK
 62
     0
100
AcDbLine
 10
54.78722
 20
71.541213
 30
0.0
 11
54.78722
 21
70.041213
 31
0.0
  0
LINE
  5
14466
100
AcDbEntity
  8
0
  6
BYBLOCK
 62
     0
100
AcDbLine
 10
54.78722
 20
77.791213
 30
0.0
 11
54.78722
 21
85.091213
 31
0.0
  0
LINE
  5
14467
100
AcDbEntity
  8
0
  6
BYBLOCK
 62
     0
100
AcDbLine
 10
54.78722
 20
73.041213
 30
0.0
 11
54.78722
 21
76.291213
 31
0.0
  0
SOLID
  5
14468
100
AcDbEntity
  8
0
  6
BYBLOCK
 62
     0
100
AcDbTrace
 10
54.53722
 20
71.541213
 30
0.0
 11
55.03722
 21
71.541213
 31
0.0
 12
54.78722
 22
73.041213
 32
0.0
 13
54.78722
 23
73.041213
 33
0.0
  0
SOLID
  5
14469
100
AcDbEntity
  8
0
  6
BYBLOCK
 62
     0
100
AcDbTrace
 10
54.53722
 20
77.791213
 30
0.0
 11
55.03722
 21
77.791213
 31
0.0
 12
54.78722
 22
76.291213
 32
0.0
 13
54.78722
 23
76.291213
 33
0.0
  0
MTEXT
  5
1446A
100
AcDbEntity
  8
0
  6
BYBLOCK
 62
     0
100
AcDbMText
 10
53.38722
 20
82.191213
 30
0.0
 40
1.5
 41
0.0
 71
     5
 72
     1
  1
\A1;3.25
 11
0.0
 21
1.0
 31
0.0
  0
POINT
  5
1446B
100
AcDbEntity
  8
DEFPOINTS
  6
BYBLOCK
 62
     0
100
AcDbPoint
 10
43.305499
 20
73.041213
 30
0.0
  0
POINT
  5
1446C
100
AcDbEntity
  8
DEFPOINTS
  6
BYBLOCK
 62
     0
100
AcDbPoint
 10
48.438664
 20
76.291213
 30
0.0
  0
POINT
  5
1446D
100
AcDbEntity
  8
DEFPOINTS
  6
BYBLOCK
 62
     0
100
AcDbPoint
 10
54.78722
 20
76.291213
 30
0.0
  0
ENDBLK
  5
1446F
100
AcDbEntity
  8
0
100
AcDbBlockEnd
  0
BLOCK
  5
1447C
100
AcDbEntity
  8
0
100
AcDbBlockBegin
  2
*D23
 70
     1
 10
0.0
 20
0.0
 30
0.0
  3
*D23
  1

  0
LINE
  5
14471
100
AcDbEntity
  8
0
  6
BYBLOCK
 62
     0
100
AcDbLine
 10
47.886328
 20
77.289842
 30
0.0
 11
58.934942
 21
77.289842
 31
0.0
  0
LINE
  5
14472
100
AcDbEntity
  8
0
  6
BYBLOCK
 62
     0
100
AcDbLine
 10
43.805499
 20
73.041213
 30
0.0
 11
58.934942
 21
73.041213
 31
0.0
  0
LINE
  5
14473
100
AcDbEntity
  8
0
  6
BYBLOCK
 62
     0
100
AcDbLine
 10
58.434942
 20
71.541213
 30
0.0
 11
58.434942
 21
70.041213
 31
0.0
  0
LINE
  5
14474
100
AcDbEntity
  8
0
  6
BYBLOCK
 62
     0
100
AcDbLine
 10
58.434942
 20
78.789842
 30
0.0
 11
58.434942
 21
86.089842
 31
0.0
  0
LINE
  5
14475
100
AcDbEntity
  8
0
  6
BYBLOCK
 62
     0
100
AcDbLine
 10
58.434942
 20
73.041213
 30
0.0
 11
58.434942
 21
77.289842
 31
0.0
  0
SOLID
  5
14476
100
AcDbEntity
  8
0
  6
BYBLOCK
 62
     0
100
AcDbTrace
 10
58.184942
 20
71.541213
 30
0.0
 11
58.684942
 21
71.541213
 31
0.0
 12
58.434942
 22
73.041213
 32
0.0
 13
58.434942
 23
73.041213
 33
0.0
  0
SOLID
  5
14477
100
AcDbEntity
  8
0
  6
BYBLOCK
 62
     0
100
AcDbTrace
 10
58.184942
 20
78.789842
 30
0.0
 11
58.684942
 21
78.789842
 31
0.0
 12
58.434942
 22
77.289842
 32
0.0
 13
58.434942
 23
77.289842
 33
0.0
  0
MTEXT
  5
14478
100
AcDbEntity
  8
0
  6
BYBLOCK
 62
     0
100
AcDbMText
 10
57.034942
 20
83.189842
 30
0.0
 40
1.5
 41
0.0
 71
     5
 72
     1
  1
\A1;4.25
 11
0.0
 21
1.0
 31
0.0
  0
POINT
  5
14479
100
AcDbEntity
  8
DEFPOINTS
  6
BYBLOCK
 62
     0
100
AcDbPoint
 10
47.386328
 20
77.289842
 30
0.0
  0
POINT
  5
1447A
100
AcDbEntity
  8
DEFPOINTS
  6
BYBLOCK
 62
     0
100
AcDbPoint
 10
43.305499
 20
73.041213
 30
0.0
  0
POINT
  5
1447B
100
AcDbEntity
  8
DEFPOINTS
  6
BYBLOCK
 62
     0
100
AcDbPoint
 10
58.434942
 20
73.041213
 30
0.0
  0
ENDBLK
  5
1447D
100
AcDbEntity
  8
0
100
AcDbBlockEnd
  0
BLOCK
  5
14489
100
AcDbEntity
  8
0
100
AcDbBlockBegin
  2
*D24
 70
     1
 10
0.0
 20
0.0
 30
0.0
  3
*D24
  1

  0
LINE
  5
1447F
100
AcDbEntity
  8
0
  6
BYBLOCK
 62
     0
100
AcDbLine
 10
57.514305
 20
58.46474
 30
0.0
 11
57.514305
 21
54.930922
 31
0.0
  0
LINE
  5
14480
100
AcDbEntity
  8
0
  6
BYBLOCK
 62
     0
100
AcDbLine
 10
61.484305
 20
59.531177
 30
0.0
 11
61.484305
 21
54.930922
 31
0.0
  0
LINE
  5
14481
100
AcDbEntity
  8
0
  6
BYBLOCK
 62
     0
100
AcDbLine
 10
58.514305
 20
55.430922
 30
0.0
 11
60.484305
 21
55.430922
 31
0.0
  0
LINE
  5
14482
100
AcDbEntity
  8
0
  6
BYBLOCK
 62
     0
100
AcDbLine
 10
61.484305
 20
55.430922
 30
0.0
 11
67.534305
 21
55.430922
 31
0.0
  0
SOLID
  5
14483
100
AcDbEntity
  8
0
  6
BYBLOCK
 62
     0
100
AcDbTrace
 10
58.514305
 20
55.597589
 30
0.0
 11
58.514305
 21
55.264255
 31
0.0
 12
57.514305
 22
55.430922
 32
0.0
 13
57.514305
 23
55.430922
 33
0.0
  0
SOLID
  5
14484
100
AcDbEntity
  8
0
  6
BYBLOCK
 62
     0
100
AcDbTrace
 10
60.484305
 20
55.597589
 30
0.0
 11
60.484305
 21
55.264255
 31
0.0
 12
61.484305
 22
55.430922
 32
0.0
 13
61.484305
 23
55.430922
 33
0.0
  0
MTEXT
  5
14485
100
AcDbEntity
  8
0
  6
BYBLOCK
 62
     0
100
AcDbMText
 10
65.009305
 20
56.705922
 30
0.0
 40
1.25
 41
0.0
 71
     5
 72
     1
  1
\A1;3.97
  0
POINT
  5
14486
100
AcDbEntity
  8
DEFPOINTS
  6
BYBLOCK
 62
     0
100
AcDbPoint
 10
57.514305
 20
58.96474
 30
0.0
  0
POINT
  5
14487
100
AcDbEntity
  8
DEFPOINTS
  6
BYBLOCK
 62
     0
100
AcDbPoint
 10
61.484305
 20
60.031177
 30
0.0
  0
POINT
  5
14488
100
AcDbEntity
  8
DEFPOINTS
  6
BYBLOCK
 62
     0
100
AcDbPoint
 10
61.484305
 20
55.430922
 30
0.0
  0
ENDBLK
  5
1448A
100
AcDbEntity
  8
0
100
AcDbBlockEnd
  0
BLOCK
  5
144AB
100
AcDbEntity
  8
0
100
AcDbBlockBegin
  2
A$C40B964CA
 70
     0
 10
0.0
 20
0.0
 30
0.0
  3
A$C40B964CA
  1

  0
LWPOLYLINE
  5
1448C
100
AcDbEntity
  8
BODY
100
AcDbPolyline
 90
       32
 70
     1
 43
0.0
 10
8.160196
 20
10.747953
 10
5.469712
 20
13.438438
 10
5.449926
 20
13.815974
 42
0.383864
 10
4.503632
 20
14.762268
 10
4.126096
 20
14.782054
 10
2.001296
 20
16.906853
 10
1.859875
 20
16.906853
 10
1.435611
 20
17.331117
 42
-0.414214
 10
1.435611
 20
18.462488
 10
4.126096
 20
21.152973
 10
4.503632
 20
21.172758
 42
0.383864
 10
5.449926
 20
22.119052
 10
5.469712
 20
22.496589
 10
7.594511
 20
24.621388
 10
7.594511
 20
24.762809
 10
8.018775
 20
25.187073
 42
-0.414214
 10
9.150146
 20
25.187073
 10
11.84063
 20
22.496589
 10
11.860416
 20
22.119052
 42
0.383864
 10
12.80671
 20
21.172758
 10
13.184247
 20
21.152973
 10
15.309046
 20
19.028173
 10
15.450467
 20
19.028173
 10
15.874731
 20
18.603909
 42
-0.414214
 10
15.874731
 20
17.472538
 10
13.184247
 20
14.782054
 10
12.80671
 20
14.762268
 42
0.383864
 10
11.860416
 20
13.815974
 10
11.84063
 20
13.438438
 10
9.715831
 20
11.313638
 10
9.715831
 20
11.172217
 10
9.291567
 20
10.747953
 42
-0.414214
  0
LINE
  5
1448D
100
AcDbEntity
  8
CEN
100
AcDbLine
 10
3.609046
 20
10.513638
 30
0.0
 11
3.609046
 21
30.347005
 31
0.0
  0
DIMENSION
  5
1448E
100
AcDbEntity
  8
DIM
100
AcDbDimension
  2
*D21
 10
11.860416
 20
4.457847
 30
0.0
 11
7.734731
 21
5.857847
 31
0.0
 12
-34.579618
 22
-62.527574
 32
0.0
  3
STANDARD
100
AcDbAlignedDimension
 13
3.609046
 23
10.513638
 33
0.0
 14
11.860416
 24
13.815974
 34
0.0
100
AcDbRotatedDimension
  0
DIMENSION
  5
1448F
100
AcDbEntity
  8
DIM
100
AcDbDimension
  2
*D19
 10
12.859046
 20
0.5
 30
0.0
 11
8.234046
 21
1.9
 31
0.0
 12
-34.579618
 22
-62.527574
 32
0.0
  3
STANDARD
100
AcDbAlignedDimension
 13
3.609046
 23
10.513638
 33
0.0
 14
12.859046
 24
12.763638
 34
0.0
100
AcDbRotatedDimension
  0
DIMENSION
  5
14490
100
AcDbEntity
  8
DIM
100
AcDbDimension
  2
*D22
 10
20.207603
 20
13.763638
 30
0.0
 11
18.807603
 21
19.663638
 31
0.0
 12
-34.579618
 22
-62.527574
 32
0.0
  3
STANDARD
100
AcDbAlignedDimension
 13
8.725882
 23
10.513638
 33
0.0
 14
13.859046
 24
13.763638
 34
0.0
 50
90.0
100
AcDbRotatedDimension
  0
DIMENSION
  5
14491
100
AcDbEntity
  8
DIM
100
AcDbDimension
  2
*D23
 10
23.855324
 20
10.513638
 30
0.0
 11
23.855324
 21
20.662268
 31
0.0
 12
-34.579618
 22
-62.527574
 32
0.0
 70
   128
  3
STANDARD
100
AcDbAlignedDimension
 13
12.80671
 23
14.762268
 33
0.0
 14
8.725882
 24
10.513638
 34
0.0
 50
90.0
100
AcDbRotatedDimension
  0
CIRCLE
  5
14492
100
AcDbEntity
  8
BODY
100
AcDbCircle
 10
8.655171
 20
17.967513
 30
0.0
 40
3.0
  0
CIRCLE
  5
14493
100
AcDbEntity
  8
BODY
100
AcDbCircle
 10
8.655171
 20
17.967513
 30
0.0
 40
2.2
  0
DIMENSION
  5
14494
100
AcDbEntity
  8
DIM
100
AcDbDimension
  2
*D20
 10
4.451296
 20
22.171388
 30
0.0
 11
1.23586
 21
23.898661
 31
0.0
 12
-34.579618
 22
-62.527574
 32
0.0
 70
   132
  3
STANDARD
100
AcDbRadialDimension
 15
5.332238
 25
21.698163
 35
0.0
 40
0.0
1001
ACAD
1000
DSTYLE
1002
{
1070
   288
1070
     1
1070
   287
1070
     4
1002
}
  0
ARC
  5
14495
100
AcDbEntity
  8
HA
100
AcDbCircle
 10
4.451296
 20
22.171388
 30
0.0
 40
2.0
100
AcDbArc
 50
239.187057
 51
30.812943
  0
ARC
  5
14496
100
AcDbEntity
  8
HA
100
AcDbCircle
 10
4.451296
 20
13.763638
 30
0.0
 40
2.0
100
AcDbArc
 50
329.187057
 51
120.812943
  0
LINE
  5
14497
100
AcDbEntity
  8
CEN
100
AcDbLine
 10
13.859046
 20
13.763638
 30
0.0
 11
11.859046
 21
13.763638
 31
0.0
  0
ARC
  5
14498
100
AcDbEntity
  8
HA
100
AcDbCircle
 10
12.859046
 20
13.763638
 30
0.0
 40
2.0
100
AcDbArc
 50
59.187057
 51
210.812943
  0
ARC
  5
14499
100
AcDbEntity
  8
HA
100
AcDbCircle
 10
12.859046
 20
22.171388
 30
0.0
 40
2.0
100
AcDbArc
 50
149.187057
 51
300.812943
  0
LINE
  5
1449A
100
AcDbEntity
  8
CEN
100
AcDbLine
 10
12.859046
 20
14.763638
 30
0.0
 11
12.859046
 21
12.763638
 31
0.0
  0
LINE
  5
1449B
100
AcDbEntity
  8
BODY
100
AcDbLine
 10
42.911849
 20
24.35495
 30
0.0
 11
42.911849
 21
11.580076
 31
0.0
  0
LINE
  5
1449C
100
AcDbEntity
  8
BODY
100
AcDbLine
 10
38.611849
 20
11.77783
 30
0.0
 11
38.611849
 21
24.157197
 31
0.0
  0
DIMENSION
  5
1449D
100
AcDbEntity
  8
DIM
100
AcDbDimension
  2
*D24
 10
42.911849
 20
6.979821
 30
0.0
 11
46.436849
 21
8.254821
 31
0.0
 12
-18.572456
 22
-48.451101
 32
0.0
  3
STANDARD
100
AcDbAlignedDimension
 13
38.941849
 23
10.513638
 33
0.0
 14
42.911849
 24
11.580076
 34
0.0
100
AcDbRotatedDimension
1001
ACAD
1000
DSTYLE
1002
{
1070
    78
1070
     8
1070
   284
1070
     8
1070
   140
1040
1.25
1070
    74
1070
     0
1070
   172
1070
     1
1070
    73
1070
     0
1070
   146
1040
0.5
1070
   272
1070
     2
1070
    77
1070
     1
1070
   147
1040
0.65
1070
    42
1040
0.5
1070
    44
1040
0.5
1070
    43
1040
0.5
1070
   271
1070
     2
1070
    41
1040
1.0
1002
}
  0
LINE
  5
1449E
100
AcDbEntity
  8
BODY
100
AcDbLine
 10
42.911849
 20
11.580076
 30
0.0
 11
38.941849
 21
10.516318
 31
0.0
  0
LINE
  5
1449F
100
AcDbEntity
  8
BODY
100
AcDbLine
 10
38.941849
 20
11.743145
 30
0.0
 11
38.611849
 21
11.77783
 31
0.0
  0
LINE
  5
144A0
100
AcDbEntity
  8
BODY
100
AcDbLine
 10
38.941849
 20
10.516318
 30
0.0
 11
38.941849
 21
11.743145
 31
0.0
  0
LINE
  5
144A1
100
AcDbEntity
  8
HI
100
AcDbLine
 10
40.911849
 20
15.767513
 30
0.0
 11
42.911849
 21
15.767513
 31
0.0
  0
LINE
  5
144A2
100
AcDbEntity
  8
HI
100
AcDbLine
 10
40.911849
 20
20.167513
 30
0.0
 11
42.911849
 21
20.167513
 31
0.0
  0
LINE
  5
144A3
100
AcDbEntity
  8
BODY
100
AcDbLine
 10
42.911849
 20
24.35495
 30
0.0
 11
38.941849
 21
25.418709
 31
0.0
  0
LINE
  5
144A4
100
AcDbEntity
  8
BODY
100
AcDbLine
 10
38.941849
 20
24.191881
 30
0.0
 11
38.611849
 21
24.157197
 31
0.0
  0
LINE
  5
144A5
100
AcDbEntity
  8
HI
100
AcDbLine
 10
39.411849
 20
14.967513
 30
0.0
 11
39.411849
 21
20.967513
 31
0.0
  0
ARC
  5
144A6
100
AcDbEntity
  8
HI
100
AcDbCircle
 10
41.013796
 20
13.770113
 30
0.0
 40
2.0
100
AcDbArc
 50
92.921824
 51
143.22315
  0
LINE
  5
144A7
100
AcDbEntity
  8
HI
100
AcDbLine
 10
38.611849
 20
14.967513
 30
0.0
 11
39.411849
 21
14.967513
 31
0.0
  0
ARC
  5
144A8
100
AcDbEntity
  8
HI
100
AcDbCircle
 10
41.013796
 20
22.164913
 30
0.0
 40
2.0
100
AcDbArc
 50
216.77685
 51
267.078176
  0
LINE
  5
144A9
100
AcDbEntity
  8
HI
100
AcDbLine
 10
38.611849
 20
20.967513
 30
0.0
 11
39.411849
 21
20.967513
 31
0.0
  0
LINE
  5
144AA
100
AcDbEntity
  8
BODY
100
AcDbLine
 10
38.941849
 20
25.418709
 30
0.0
 11
38.941849
 21
24.191881
 31
0.0
  0
ENDBLK
  5
144AC
100
AcDbEntity
  8
0
100
AcDbBlockEnd
  0
BLOCK
  5
14516
100
AcDbEntity
  8
0
100
AcDbBlockBegin
  2
*D26
 70
     1
 10
0.0
 20
0.0
 30
0.0
  3
*D26
  1

  0
LINE
  5
14517
100
AcDbEntity
  8
0
  6
BYBLOCK
 62
     0
100
AcDbLine
 10
-44.62313
 20
53.66681
 30
0.0
 11
-44.62313
 21
47.611018
 31
0.0
  0
LINE
  5
14518
100
AcDbEntity
  8
0
  6
BYBLOCK
 62
     0
100
AcDbLine
 10
-36.37176
 20
56.969145
 30
0.0
 11
-36.37176
 21
47.611018
 31
0.0
  0
LINE
  5
14519
100
AcDbEntity
  8
0
  6
BYBLOCK
 62
     0
100
AcDbLine
 10
-43.12313
 20
48.111018
 30
0.0
 11
-37.87176
 21
48.111018
 31
0.0
  0
SOLID
  5
1451A
100
AcDbEntity
  8
0
  6
BYBLOCK
 62
     0
100
AcDbTrace
 10
-43.12313
 20
48.361018
 30
0.0
 11
-43.12313
 21
47.861018
 31
0.0
 12
-44.62313
 22
48.111018
 32
0.0
 13
-44.62313
 23
48.111018
 33
0.0
  0
SOLID
  5
1451B
100
AcDbEntity
  8
0
  6
BYBLOCK
 62
     0
100
AcDbTrace
 10
-37.87176
 20
48.361018
 30
0.0
 11
-37.87176
 21
47.861018
 31
0.0
 12
-36.37176
 22
48.111018
 32
0.0
 13
-36.37176
 23
48.111018
 33
0.0
  0
MTEXT
  5
1451C
100
AcDbEntity
  8
0
  6
BYBLOCK
 62
     0
100
AcDbMText
 10
-40.497445
 20
49.511018
 30
0.0
 40
1.5
 41
0.0
 71
     5
 72
     1
  1
\A1;8.25
  0
POINT
  5
1451D
100
AcDbEntity
  8
DEFPOINTS
  6
BYBLOCK
 62
     0
100
AcDbPoint
 10
-44.62313
 20
54.16681
 30
0.0
  0
POINT
  5
1451E
100
AcDbEntity
  8
DEFPOINTS
  6
BYBLOCK
 62
     0
100
AcDbPoint
 10
-36.37176
 20
57.469145
 30
0.0
  0
POINT
  5
1451F
100
AcDbEntity
  8
DEFPOINTS
  6
BYBLOCK
 62
     0
100
AcDbPoint
 10
-36.37176
 20
48.111018
 30
0.0
  0
ENDBLK
  5
14520
100
AcDbEntity
  8
0
100
AcDbBlockEnd
  0
BLOCK
  5
14521
100
AcDbEntity
  8
0
100
AcDbBlockBegin
  2
*D27
 70
     1
 10
0.0
 20
0.0
 30
0.0
  3
*D27
  1

  0
LINE
  5
14522
100
AcDbEntity
  8
0
  6
BYBLOCK
 62
     0
100
AcDbLine
 10
-44.62313
 20
53.66681
 30
0.0
 11
-44.62313
 21
43.653171
 31
0.0
  0
LINE
  5
14523
100
AcDbEntity
  8
0
  6
BYBLOCK
 62
     0
100
AcDbLine
 10
-35.37313
 20
55.91681
 30
0.0
 11
-35.37313
 21
43.653171
 31
0.0
  0
LINE
  5
14524
100
AcDbEntity
  8
0
  6
BYBLOCK
 62
     0
100
AcDbLine
 10
-43.12313
 20
44.153171
 30
0.0
 11
-36.87313
 21
44.153171
 31
0.0
  0
SOLID
  5
14525
100
AcDbEntity
  8
0
  6
BYBLOCK
 62
     0
100
AcDbTrace
 10
-43.12313
 20
44.403171
 30
0.0
 11
-43.12313
 21
43.903171
 31
0.0
 12
-44.62313
 22
44.153171
 32
0.0
 13
-44.62313
 23
44.153171
 33
0.0
  0
SOLID
  5
14526
100
AcDbEntity
  8
0
  6
BYBLOCK
 62
     0
100
AcDbTrace
 10
-36.87313
 20
44.403171
 30
0.0
 11
-36.87313
 21
43.903171
 31
0.0
 12
-35.37313
 22
44.153171
 32
0.0
 13
-35.37313
 23
44.153171
 33
0.0
  0
MTEXT
  5
14527
100
AcDbEntity
  8
0
  6
BYBLOCK
 62
     0
100
AcDbMText
 10
-39.99813
 20
45.553171
 30
0.0
 40
1.5
 41
0.0
 71
     5
 72
     1
  1
\A1;9.25
  0
POINT
  5
14528
100
AcDbEntity
  8
DEFPOINTS
  6
BYBLOCK
 62
     0
100
AcDbPoint
 10
-44.62313
 20
54.16681
 30
0.0
  0
POINT
  5
14529
100
AcDbEntity
  8
DEFPOINTS
  6
BYBLOCK
 62
     0
100
AcDbPoint
 10
-35.37313
 20
56.41681
 30
0.0
  0
POINT
  5
1452A
100
AcDbEntity
  8
DEFPOINTS
  6
BYBLOCK
 62
     0
100
AcDbPoint
 10
-35.37313
 20
44.153171
 30
0.0
  0
ENDBLK
  5
1452B
100
AcDbEntity
  8
0
100
AcDbBlockEnd
  0
BLOCK
  5
1452C
100
AcDbEntity
  8
0
100
AcDbBlockBegin
  2
*D28
 70
     1
 10
0.0
 20
0.0
 30
0.0
  3
*D28
  1

  0
LINE
  5
1452D
100
AcDbEntity
  8
0
  6
BYBLOCK
 62
     0
100
AcDbLine
 10
-39.006295
 20
54.16681
 30
0.0
 11
-27.524573
 21
54.16681
 31
0.0
  0
LINE
  5
1452E
100
AcDbEntity
  8
0
  6
BYBLOCK
 62
     0
100
AcDbLine
 10
-33.87313
 20
57.41681
 30
0.0
 11
-27.524573
 21
57.41681
 31
0.0
  0
LINE
  5
1452F
100
AcDbEntity
  8
0
  6
BYBLOCK
 62
     0
100
AcDbLine
 10
-28.024573
 20
52.66681
 30
0.0
 11
-28.024573
 21
51.16681
 31
0.0
  0
LINE
  5
14530
100
AcDbEntity
  8
0
  6
BYBLOCK
 62
     0
100
AcDbLine
 10
-28.024573
 20
58.91681
 30
0.0
 11
-28.024573
 21
66.21681
 31
0.0
  0
LINE
  5
14531
100
AcDbEntity
  8
0
  6
BYBLOCK
 62
     0
100
AcDbLine
 10
-28.024573
 20
54.16681
 30
0.0
 11
-28.024573
 21
57.41681
 31
0.0
  0
SOLID
  5
14532
100
AcDbEntity
  8
0
  6
BYBLOCK
 62
     0
100
AcDbTrace
 10
-28.274573
 20
52.66681
 30
0.0
 11
-27.774573
 21
52.66681
 31
0.0
 12
-28.024573
 22
54.16681
 32
0.0
 13
-28.024573
 23
54.16681
 33
0.0
  0
SOLID
  5
14533
100
AcDbEntity
  8
0
  6
BYBLOCK
 62
     0
100
AcDbTrace
 10
-28.274573
 20
58.91681
 30
0.0
 11
-27.774573
 21
58.91681
 31
0.0
 12
-28.024573
 22
57.41681
 32
0.0
 13
-28.024573
 23
57.41681
 33
0.0
  0
MTEXT
  5
14534
100
AcDbEntity
  8
0
  6
BYBLOCK
 62
     0
100
AcDbMText
 10
-29.424573
 20
63.31681
 30
0.0
 40
1.5
 41
0.0
 71
     5
 72
     1
  1
\A1;3.25
 11
0.0
 21
1.0
 31
0.0
  0
POINT
  5
14535
100
AcDbEntity
  8
DEFPOINTS
  6
BYBLOCK
 62
     0
100
AcDbPoint
 10
-39.506295
 20
54.16681
 30
0.0
  0
POINT
  5
14536
100
AcDbEntity
  8
DEFPOINTS
  6
BYBLOCK
 62
     0
100
AcDbPoint
 10
-34.37313
 20
57.41681
 30
0.0
  0
POINT
  5
14537
100
AcDbEntity
  8
DEFPOINTS
  6
BYBLOCK
 62
     0
100
AcDbPoint
 10
-28.024573
 20
57.41681
 30
0.0
  0
ENDBLK
  5
14538
100
AcDbEntity
  8
0
100
AcDbBlockEnd
  0
BLOCK
  5
14539
100
AcDbEntity
  8
0
100
AcDbBlockBegin
  2
*D29
 70
     1
 10
0.0
 20
0.0
 30
0.0
  3
*D29
  1

  0
LINE
  5
1453A
100
AcDbEntity
  8
0
  6
BYBLOCK
 62
     0
100
AcDbLine
 10
-34.925466
 20
58.415439
 30
0.0
 11
-23.876852
 21
58.415439
 31
0.0
  0
LINE
  5
1453B
100
AcDbEntity
  8
0
  6
BYBLOCK
 62
     0
100
AcDbLine
 10
-39.006295
 20
54.16681
 30
0.0
 11
-23.876852
 21
54.16681
 31
0.0
  0
LINE
  5
1453C
100
AcDbEntity
  8
0
  6
BYBLOCK
 62
     0
100
AcDbLine
 10
-24.376852
 20
52.66681
 30
0.0
 11
-24.376852
 21
51.16681
 31
0.0
  0
LINE
  5
1453D
100
AcDbEntity
  8
0
  6
BYBLOCK
 62
     0
100
AcDbLine
 10
-24.376852
 20
59.915439
 30
0.0
 11
-24.376852
 21
67.215439
 31
0.0
  0
LINE
  5
1453E
100
AcDbEntity
  8
0
  6
BYBLOCK
 62
     0
100
AcDbLine
 10
-24.376852
 20
54.16681
 30
0.0
 11
-24.376852
 21
58.415439
 31
0.0
  0
SOLID
  5
1453F
100
AcDbEntity
  8
0
  6
BYBLOCK
 62
     0
100
AcDbTrace
 10
-24.626852
 20
52.66681
 30
0.0
 11
-24.126852
 21
52.66681
 31
0.0
 12
-24.376852
 22
54.16681
 32
0.0
 13
-24.376852
 23
54.16681
 33
0.0
  0
SOLID
  5
14540
100
AcDbEntity
  8
0
  6
BYBLOCK
 62
     0
100
AcDbTrace
 10
-24.626852
 20
59.915439
 30
0.0
 11
-24.126852
 21
59.915439
 31
0.0
 12
-24.376852
 22
58.415439
 32
0.0
 13
-24.376852
 23
58.415439
 33
0.0
  0
MTEXT
  5
14541
100
AcDbEntity
  8
0
  6
BYBLOCK
 62
     0
100
AcDbMText
 10
-25.776852
 20
64.315439
 30
0.0
 40
1.5
 41
0.0
 71
     5
 72
     1
  1
\A1;4.25
 11
0.0
 21
1.0
 31
0.0
  0
POINT
  5
14542
100
AcDbEntity
  8
DEFPOINTS
  6
BYBLOCK
 62
     0
100
AcDbPoint
 10
-35.425466
 20
58.415439
 30
0.0
  0
POINT
  5
14543
100
AcDbEntity
  8
DEFPOINTS
  6
BYBLOCK
 62
     0
100
AcDbPoint
 10
-39.506295
 20
54.16681
 30
0.0
  0
POINT
  5
14544
100
AcDbEntity
  8
DEFPOINTS
  6
BYBLOCK
 62
     0
100
AcDbPoint
 10
-24.376852
 20
54.16681
 30
0.0
  0
ENDBLK
  5
14545
100
AcDbEntity
  8
0
100
AcDbBlockEnd
  0
BLOCK
  5
14546
100
AcDbEntity
  8
0
100
AcDbBlockBegin
  2
*D30
 70
     1
 10
0.0
 20
0.0
 30
0.0
  3
*D30
  1

  0
LINE
  5
14547
100
AcDbEntity
  8
0
  6
BYBLOCK
 62
     0
100
AcDbLine
 10
-45.542763
 20
66.77101
 30
0.0
 11
-42.899939
 21
65.351334
 31
0.0
  0
MTEXT
  5
14548
100
AcDbEntity
  8
0
  6
BYBLOCK
 62
     0
100
AcDbMText
 10
-46.996316
 20
67.551832
 30
0.0
 40
1.5
 41
0.0
 71
     5
 72
     1
  1
\A1;R1
 11
0.880941
 21
-0.473225
 31
0.0
  0
SOLID
  5
14549
100
AcDbEntity
  8
0
  6
BYBLOCK
 62
     0
100
AcDbTrace
 10
-44.103044
 20
66.281407
 30
0.0
 11
-44.339657
 21
65.840936
 31
0.0
 12
-42.899939
 22
65.351334
 32
0.0
 13
-42.899939
 23
65.351334
 33
0.0
  0
POINT
  5
1454A
100
AcDbEntity
  8
DEFPOINTS
  6
BYBLOCK
 62
     0
100
AcDbPoint
 10
-42.899939
 20
65.351334
 30
0.0
  0
POINT
  5
1454B
100
AcDbEntity
  8
DEFPOINTS
  6
BYBLOCK
 62
     0
100
AcDbPoint
 10
-43.78088
 20
65.824559
 30
0.0
  0
ENDBLK
  5
1454C
100
AcDbEntity
  8
0
100
AcDbBlockEnd
  0
BLOCK
  5
1454D
100
AcDbEntity
  8
0
100
AcDbBlockBegin
  2
*D31
 70
     1
 10
0.0
 20
0.0
 30
0.0
  3
*D31
  1

  0
LINE
  5
1454E
100
AcDbEntity
  8
0
  6
BYBLOCK
 62
     0
100
AcDbLine
 10
-9.290327
 20
53.66681
 30
0.0
 11
-9.290327
 21
50.132992
 31
0.0
  0
LINE
  5
1454F
100
AcDbEntity
  8
0
  6
BYBLOCK
 62
     0
100
AcDbLine
 10
-5.320327
 20
54.733247
 30
0.0
 11
-5.320327
 21
50.132992
 31
0.0
  0
LINE
  5
14550
100
AcDbEntity
  8
0
  6
BYBLOCK
 62
     0
100
AcDbLine
 10
-8.290327
 20
50.632992
 30
0.0
 11
-6.320327
 21
50.632992
 31
0.0
  0
LINE
  5
14551
100
AcDbEntity
  8
0
  6
BYBLOCK
 62
     0
100
AcDbLine
 10
-5.320327
 20
50.632992
 30
0.0
 11
0.729673
 21
50.632992
 31
0.0
  0
SOLID
  5
14552
100
AcDbEntity
  8
0
  6
BYBLOCK
 62
     0
100
AcDbTrace
 10
-8.290327
 20
50.799659
 30
0.0
 11
-8.290327
 21
50.466325
 31
0.0
 12
-9.290327
 22
50.632992
 32
0.0
 13
-9.290327
 23
50.632992
 33
0.0
  0
SOLID
  5
14553
100
AcDbEntity
  8
0
  6
BYBLOCK
 62
     0
100
AcDbTrace
 10
-6.320327
 20
50.799659
 30
0.0
 11
-6.320327
 21
50.466325
 31
0.0
 12
-5.320327
 22
50.632992
 32
0.0
 13
-5.320327
 23
50.632992
 33
0.0
  0
MTEXT
  5
14554
100
AcDbEntity
  8
0
  6
BYBLOCK
 62
     0
100
AcDbMText
 10
-1.795327
 20
51.907992
 30
0.0
 40
1.25
 41
0.0
 71
     5
 72
     1
  1
\A1;3.97
  0
POINT
  5
14555
100
AcDbEntity
  8
DEFPOINTS
  6
BYBLOCK
 62
     0
100
AcDbPoint
 10
-9.290327
 20
54.16681
 30
0.0
  0
POINT
  5
14556
100
AcDbEntity
  8
DEFPOINTS
  6
BYBLOCK
 62
     0
100
AcDbPoint
 10
-5.320327
 20
55.233247
 30
0.0
  0
POINT
  5
14557
100
AcDbEntity
  8
DEFPOINTS
  6
BYBLOCK
 62
     0
100
AcDbPoint
 10
-5.320327
 20
50.632992
 30
0.0
  0
ENDBLK
  5
14558
100
AcDbEntity
  8
0
100
AcDbBlockEnd
  0
BLOCK
  5
1455B
100
AcDbEntity
  8
0
100
AcDbBlockBegin
  2
*D32
 70
     1
 10
0.0
 20
0.0
 30
0.0
  3
*D32
  1

  0
LINE
  5
1455C
100
AcDbEntity
  8
0
  6
BYBLOCK
 62
     0
100
AcDbLine
 10
38.849335
 20
59.296082
 30
0.0
 11
38.849335
 21
53.360902
 31
0.0
  0
LINE
  5
1455D
100
AcDbEntity
  8
0
  6
BYBLOCK
 62
     0
100
AcDbLine
 10
46.103447
 20
61.70309
 30
0.0
 11
46.103447
 21
53.360902
 31
0.0
  0
LINE
  5
1455E
100
AcDbEntity
  8
0
  6
BYBLOCK
 62
     0
100
AcDbLine
 10
40.349335
 20
53.860902
 30
0.0
 11
44.603447
 21
53.860902
 31
0.0
  0
SOLID
  5
1455F
100
AcDbEntity
  8
0
  6
BYBLOCK
 62
     0
100
AcDbTrace
 10
40.349335
 20
54.110902
 30
0.0
 11
40.349335
 21
53.610902
 31
0.0
 12
38.849335
 22
53.860902
 32
0.0
 13
38.849335
 23
53.860902
 33
0.0
  0
SOLID
  5
14560
100
AcDbEntity
  8
0
  6
BYBLOCK
 62
     0
100
AcDbTrace
 10
44.603447
 20
54.110902
 30
0.0
 11
44.603447
 21
53.610902
 31
0.0
 12
46.103447
 22
53.860902
 32
0.0
 13
46.103447
 23
53.860902
 33
0.0
  0
MTEXT
  5
14561
100
AcDbEntity
  8
0
  6
BYBLOCK
 62
     0
100
AcDbMText
 10
42.476391
 20
55.260902
 30
0.0
 40
1.5
 41
0.0
 71
     5
 72
     1
  1
\A1;7.25
  0
POINT
  5
14562
100
AcDbEntity
  8
DEFPOINTS
  6
BYBLOCK
 62
     0
100
AcDbPoint
 10
38.849335
 20
59.796082
 30
0.0
  0
POINT
  5
14563
100
AcDbEntity
  8
DEFPOINTS
  6
BYBLOCK
 62
     0
100
AcDbPoint
 10
46.103447
 20
62.20309
 30
0.0
  0
POINT
  5
14564
100
AcDbEntity
  8
DEFPOINTS
  6
BYBLOCK
 62
     0
100
AcDbPoint
 10
46.103447
 20
53.860902
 30
0.0
  0
ENDBLK
  5
14565
100
AcDbEntity
  8
0
100
AcDbBlockEnd
  0
BLOCK
  5
14568
100
AcDbEntity
  8
0
100
AcDbBlockBegin
  2
*D33
 70
     1
 10
0.0
 20
0.0
 30
0.0
  3
*D33
  1

  0
LINE
  5
14569
100
AcDbEntity
  8
0
  6
BYBLOCK
 62
     0
100
AcDbLine
 10
38.849335
 20
59.296082
 30
0.0
 11
38.849335
 21
48.291322
 31
0.0
  0
LINE
  5
1456A
100
AcDbEntity
  8
0
  6
BYBLOCK
 62
     0
100
AcDbLine
 10
49.099335
 20
60.546082
 30
0.0
 11
49.099335
 21
48.291322
 31
0.0
  0
LINE
  5
1456B
100
AcDbEntity
  8
0
  6
BYBLOCK
 62
     0
100
AcDbLine
 10
40.349335
 20
48.791322
 30
0.0
 11
47.599335
 21
48.791322
 31
0.0
  0
SOLID
  5
1456C
100
AcDbEntity
  8
0
  6
BYBLOCK
 62
     0
100
AcDbTrace
 10
40.349335
 20
49.041322
 30
0.0
 11
40.349335
 21
48.541322
 31
0.0
 12
38.849335
 22
48.791322
 32
0.0
 13
38.849335
 23
48.791322
 33
0.0
  0
SOLID
  5
1456D
100
AcDbEntity
  8
0
  6
BYBLOCK
 62
     0
100
AcDbTrace
 10
47.599335
 20
49.041322
 30
0.0
 11
47.599335
 21
48.541322
 31
0.0
 12
49.099335
 22
48.791322
 32
0.0
 13
49.099335
 23
48.791322
 33
0.0
  0
MTEXT
  5
1456E
100
AcDbEntity
  8
0
  6
BYBLOCK
 62
     0
100
AcDbMText
 10
43.974335
 20
50.191322
 30
0.0
 40
1.5
 41
0.0
 71
     5
 72
     1
  1
\A1;10.25
  0
POINT
  5
1456F
100
AcDbEntity
  8
DEFPOINTS
  6
BYBLOCK
 62
     0
100
AcDbPoint
 10
38.849335
 20
59.796082
 30
0.0
  0
POINT
  5
14570
100
AcDbEntity
  8
DEFPOINTS
  6
BYBLOCK
 62
     0
100
AcDbPoint
 10
49.099335
 20
61.046082
 30
0.0
  0
POINT
  5
14571
100
AcDbEntity
  8
DEFPOINTS
  6
BYBLOCK
 62
     0
100
AcDbPoint
 10
49.099335
 20
48.791322
 30
0.0
  0
ENDBLK
  5
14572
100
AcDbEntity
  8
0
100
AcDbBlockEnd
  0
BLOCK
  5
14575
100
AcDbEntity
  8
0
100
AcDbBlockBegin
  2
*D34
 70
     1
 10
0.0
 20
0.0
 30
0.0
  3
*D34
  1

  0
LINE
  5
14576
100
AcDbEntity
  8
0
  6
BYBLOCK
 62
     0
100
AcDbLine
 10
44.466171
 20
59.796082
 30
0.0
 11
56.141146
 21
59.796082
 31
0.0
  0
LINE
  5
14577
100
AcDbEntity
  8
0
  6
BYBLOCK
 62
     0
100
AcDbLine
 10
50.599335
 20
62.046082
 30
0.0
 11
56.141146
 21
62.046082
 31
0.0
  0
LINE
  5
14578
100
AcDbEntity
  8
0
  6
BYBLOCK
 62
     0
100
AcDbLine
 10
55.641146
 20
58.296082
 30
0.0
 11
55.641146
 21
56.796082
 31
0.0
  0
LINE
  5
14579
100
AcDbEntity
  8
0
  6
BYBLOCK
 62
     0
100
AcDbLine
 10
55.641146
 20
63.546082
 30
0.0
 11
55.641146
 21
70.846082
 31
0.0
  0
LINE
  5
1457A
100
AcDbEntity
  8
0
  6
BYBLOCK
 62
     0
100
AcDbLine
 10
55.641146
 20
59.796082
 30
0.0
 11
55.641146
 21
62.046082
 31
0.0
  0
SOLID
  5
1457B
100
AcDbEntity
  8
0
  6
BYBLOCK
 62
     0
100
AcDbTrace
 10
55.391146
 20
58.296082
 30
0.0
 11
55.891146
 21
58.296082
 31
0.0
 12
55.641146
 22
59.796082
 32
0.0
 13
55.641146
 23
59.796082
 33
0.0
  0
SOLID
  5
1457C
100
AcDbEntity
  8
0
  6
BYBLOCK
 62
     0
100
AcDbTrace
 10
55.391146
 20
63.546082
 30
0.0
 11
55.891146
 21
63.546082
 31
0.0
 12
55.641146
 22
62.046082
 32
0.0
 13
55.641146
 23
62.046082
 33
0.0
  0
MTEXT
  5
1457D
100
AcDbEntity
  8
0
  6
BYBLOCK
 62
     0
100
AcDbMText
 10
54.241146
 20
67.946082
 30
0.0
 40
1.5
 41
0.0
 71
     5
 72
     1
  1
\A1;2.25
 11
0.0
 21
1.0
 31
0.0
  0
POINT
  5
1457E
100
AcDbEntity
  8
DEFPOINTS
  6
BYBLOCK
 62
     0
100
AcDbPoint
 10
43.966171
 20
59.796082
 30
0.0
  0
POINT
  5
1457F
100
AcDbEntity
  8
DEFPOINTS
  6
BYBLOCK
 62
     0
100
AcDbPoint
 10
50.099335
 20
62.046082
 30
0.0
  0
POINT
  5
14580
100
AcDbEntity
  8
DEFPOINTS
  6
BYBLOCK
 62
     0
100
AcDbPoint
 10
55.641146
 20
62.046082
 30
0.0
  0
ENDBLK
  5
14581
100
AcDbEntity
  8
0
100
AcDbBlockEnd
  0
BLOCK
  5
14592
100
AcDbEntity
  8
0
100
AcDbBlockBegin
  2
*D35
 70
     1
 10
0.0
 20
0.0
 30
0.0
  3
*D35
  1

  0
LINE
  5
14593
100
AcDbEntity
  8
0
  6
BYBLOCK
 62
     0
100
AcDbLine
 10
49.442327
 20
65.04197
 30
0.0
 11
60.053913
 21
65.04197
 31
0.0
  0
LINE
  5
14594
100
AcDbEntity
  8
0
  6
BYBLOCK
 62
     0
100
AcDbLine
 10
44.466171
 20
59.796082
 30
0.0
 11
60.053913
 21
59.796082
 31
0.0
  0
LINE
  5
14595
100
AcDbEntity
  8
0
  6
BYBLOCK
 62
     0
100
AcDbLine
 10
59.553913
 20
61.296082
 30
0.0
 11
59.553913
 21
63.54197
 31
0.0
  0
LINE
  5
14596
100
AcDbEntity
  8
0
  6
BYBLOCK
 62
     0
100
AcDbLine
 10
59.553913
 20
65.04197
 30
0.0
 11
59.553913
 21
72.34197
 31
0.0
  0
SOLID
  5
14597
100
AcDbEntity
  8
0
  6
BYBLOCK
 62
     0
100
AcDbTrace
 10
59.303913
 20
61.296082
 30
0.0
 11
59.803913
 21
61.296082
 31
0.0
 12
59.553913
 22
59.796082
 32
0.0
 13
59.553913
 23
59.796082
 33
0.0
  0
SOLID
  5
14598
100
AcDbEntity
  8
0
  6
BYBLOCK
 62
     0
100
AcDbTrace
 10
59.303913
 20
63.54197
 30
0.0
 11
59.803913
 21
63.54197
 31
0.0
 12
59.553913
 22
65.04197
 32
0.0
 13
59.553913
 23
65.04197
 33
0.0
  0
MTEXT
  5
14599
100
AcDbEntity
  8
0
  6
BYBLOCK
 62
     0
100
AcDbMText
 10
58.153913
 20
69.44197
 30
0.0
 40
1.5
 41
0.0
 71
     5
 72
     1
  1
\A1;5.25
 11
0.0
 21
1.0
 31
0.0
  0
POINT
  5
1459A
100
AcDbEntity
  8
DEFPOINTS
  6
BYBLOCK
 62
     0
100
AcDbPoint
 10
48.942327
 20
65.04197
 30
0.0
  0
POINT
  5
1459B
100
AcDbEntity
  8
DEFPOINTS
  6
BYBLOCK
 62
     0
100
AcDbPoint
 10
43.966171
 20
59.796082
 30
0.0
  0
POINT
  5
1459C
100
AcDbEntity
  8
DEFPOINTS
  6
BYBLOCK
 62
     0
100
AcDbPoint
 10
59.553913
 20
59.796082
 30
0.0
  0
ENDBLK
  5
1459D
100
AcDbEntity
  8
0
100
AcDbBlockEnd
  0
BLOCK
  5
1459F
100
AcDbEntity
  8
0
100
AcDbBlockBegin
  2
*D36
 70
     1
 10
0.0
 20
0.0
 30
0.0
  3
*D36
  1

  0
LINE
  5
145A0
100
AcDbEntity
  8
0
  6
BYBLOCK
 62
     0
100
AcDbLine
 10
36.336971
 20
73.598318
 30
0.0
 11
41.389742
 21
71.142362
 31
0.0
  0
MTEXT
  5
145A1
100
AcDbEntity
  8
0
  6
BYBLOCK
 62
     0
100
AcDbMText
 10
34.628139
 20
74.428914
 30
0.0
 40
1.5
 41
0.0
 71
     5
 72
     1
  1
\A1;R3
 11
0.899386
 21
-0.437156
 31
0.0
  0
SOLID
  5
145A2
100
AcDbEntity
  8
0
  6
BYBLOCK
 62
     0
100
AcDbTrace
 10
40.149953
 20
72.022943
 30
0.0
 11
39.931375
 21
71.57325
 31
0.0
 12
41.389742
 22
71.142362
 32
0.0
 13
41.389742
 23
71.142362
 33
0.0
  0
POINT
  5
145A3
100
AcDbEntity
  8
DEFPOINTS
  6
BYBLOCK
 62
     0
100
AcDbPoint
 10
41.389742
 20
71.142362
 30
0.0
  0
POINT
  5
145A4
100
AcDbEntity
  8
DEFPOINTS
  6
BYBLOCK
 62
     0
100
AcDbPoint
 10
38.691586
 20
72.453831
 30
0.0
  0
ENDBLK
  5
145A5
100
AcDbEntity
  8
0
100
AcDbBlockEnd
  0
ENDSEC
  0
SECTION
  2
ENTITIES
  0
TEXT
  5
133
100
AcDbEntity
  8
TEXT
100
AcDbText
 10
36.25
 20
7.25
 30
0.0
 40
1.5
  1
99401-288
  7
STYLE1
100
AcDbText
  0
TEXT
  5
1E00
100
AcDbEntity
  8
TEXT
100
AcDbText
 10
18.25
 20
1.25
 30
0.0
 40
1.5
  1
04,04,12
  7
STYLE1
100
AcDbText
  0
TEXT
  5
1E01
100
AcDbEntity
  8
TEXT
100
AcDbText
 10
8.0
 20
1.25
 30
0.0
 40
1.5
  1
MM
  7
STYLE1
100
AcDbText
  0
TEXT
  5
1E02
100
AcDbEntity
  8
TEXT
100
AcDbText
 10
20.5
 20
4.25
 30
0.0
 40
1.5
  1
2:1
  7
STYLE1
100
AcDbText
  0
TEXT
  5
1E03
100
AcDbEntity
  8
TEXT
100
AcDbText
 10
38.04484
 20
1.25
 30
0.0
 40
1.5
  1
tony
  7
STYLE1
100
AcDbText
  0
TEXT
  5
1E04
100
AcDbEntity
  8
TEXT
100
AcDbText
 10
72.5
 20
8.5
 30
0.0
 40
3.0
  1

  7
STYLE1
100
AcDbText
  0
LINE
  5
1E2C
100
AcDbEntity
  8
0
 62
     4
100
AcDbLine
 10
1.0
 20
6.5
 30
0.0
 11
62.0
 21
6.5
 31
0.0
  0
LINE
  5
1E2D
100
AcDbEntity
  8
0
 62
     4
100
AcDbLine
 10
1.0
 20
3.5
 30
0.0
 11
62.0
 21
3.5
 31
0.0
  0
LWPOLYLINE
  5
1E2E
100
AcDbEntity
  8
0
100
AcDbPolyline
 90
        4
 70
     1
 43
0.0
 10
0.5
 20
141.0
 10
96.5
 20
141.0
 10
96.5
 20
0.0
 10
0.5
 20
0.0
  0
LWPOLYLINE
  5
1E2F
100
AcDbEntity
  8
TEXT
100
AcDbPolyline
 90
        4
 70
     1
 43
0.0
 10
1.0
 20
140.5
 10
96.0
 20
140.5
 10
96.0
 20
0.5
 10
1.0
 20
0.5
  0
TEXT
  5
1E30
100
AcDbEntity
  8
TEXT
100
AcDbText
 10
62.75
 20
1.25
 30
0.0
 40
1.5
  1
E-mail:n9n9@ms16.hinet.net
  7
STYLE1
100
AcDbText
  0
TEXT
  5
1E31
100
AcDbEntity
  8
TEXT
100
AcDbText
 10
62.75
 20
6.75
 30
0.0
 40
2.25
  1
Nine-9 Cutting Tools
  7
STYLE1
100
AcDbText
  0
TEXT
  5
1E32
100
AcDbEntity
  8
TEXT
100
AcDbText
 10
62.75
 20
4.25
 30
0.0
 40
1.5
  1
TEL:886-4-22707722 FAX:22789766
  7
STYLE1
100
AcDbText
  0
LINE
  5
1E33
100
AcDbEntity
  8
0
100
AcDbLine
 10
62.0
 20
0.5
 30
0.0
 11
62.0
 21
9.5
 31
0.0
  0
LINE
  5
1E34
100
AcDbEntity
  8
0
100
AcDbLine
 10
1.0
 20
9.5
 30
0.0
 11
96.0
 21
9.5
 31
0.0
  0
TEXT
  5
1E35
100
AcDbEntity
  8
TEXT
100
AcDbText
 10
45.5
 20
1.25
 30
0.0
 40
1.5
  1
APPRD
  7
STYLE1
100
AcDbText
  0
LINE
  5
1E36
100
AcDbEntity
  8
0
100
AcDbLine
 10
45.0
 20
3.5
 30
0.0
 11
45.0
 21
0.5
 31
0.0
  0
LINE
  5
1E37
100
AcDbEntity
  8
0
100
AcDbLine
 10
52.5
 20
3.5
 30
0.0
 11
52.5
 21
0.5
 31
0.0
  0
LINE
  5
1E38
100
AcDbEntity
  8
0
100
AcDbLine
 10
35.5
 20
0.5
 30
0.0
 11
35.5
 21
15.5
 31
0.0
  0
LINE
  5
1E39
100
AcDbEntity
  8
0
 62
     4
100
AcDbLine
 10
1.0
 20
12.5
 30
0.0
 11
35.5
 21
12.5
 31
0.0
  0
LINE
  5
1E3A
100
AcDbEntity
  8
0
 62
     4
100
AcDbLine
 10
1.0
 20
15.5
 30
0.0
 11
35.5
 21
15.5
 31
0.0
  0
LINE
  5
1E3B
100
AcDbEntity
  8
0
100
AcDbLine
 10
27.0
 20
15.5
 30
0.0
 11
27.0
 21
0.5
 31
0.0
  0
TEXT
  5
1E3C
100
AcDbEntity
  8
TEXT
100
AcDbText
 10
27.5
 20
4.25
 30
0.0
 40
1.5
  1
PROJECT
  7
STYLE1
100
AcDbText
  0
TEXT
  5
1E3D
100
AcDbEntity
  8
TEXT
100
AcDbText
 10
27.5
 20
1.25
 30
0.0
 40
1.5
  1
DRAWN
  7
STYLE1
100
AcDbText
  0
TEXT
  5
1E3E
100
AcDbEntity
  8
TEXT
100
AcDbText
 10
27.5
 20
7.25
 30
0.0
 40
1.5
  1
DWG.NO
  7
STYLE1
100
AcDbText
  0
TEXT
  5
1E3F
100
AcDbEntity
  8
TEXT
100
AcDbText
 10
21.25
 20
10.25
 30
0.0
 40
1.5
  1
APPRD
  7
STYLE1
100
AcDbText
  0
TEXT
  5
1E40
100
AcDbEntity
  8
TEXT
100
AcDbText
 10
28.75
 20
10.25
 30
0.0
 40
1.5
  1
DATE
  7
STYLE1
100
AcDbText
  0
TEXT
  5
1E41
100
AcDbEntity
  8
TEXT
100
AcDbText
 10
1.5
 20
10.25
 30
0.0
 40
1.5
  1
NO.
  7
STYLE1
100
AcDbText
  0
TEXT
  5
1E42
100
AcDbEntity
  8
TEXT
100
AcDbText
 10
1.5
 20
7.25
 30
0.0
 40
1.5
  1
MATL
  7
STYLE1
100
AcDbText
  0
LINE
  5
1E43
100
AcDbEntity
  8
0
100
AcDbLine
 10
6.0
 20
15.5
 30
0.0
 11
6.0
 21
0.5
 31
0.0
  0
TEXT
  5
1E44
100
AcDbEntity
  8
TEXT
100
AcDbText
 10
9.25
 20
10.25
 30
0.0
 40
1.5
  1
CHANGED
  7
STYLE1
100
AcDbText
  0
LINE
  5
1E45
100
AcDbEntity
  8
0
100
AcDbLine
 10
20.5
 20
9.5
 30
0.0
 11
20.5
 21
15.5
 31
0.0
  0
TEXT
  5
1E46
100
AcDbEntity
  8
TEXT
100
AcDbText
 10
1.5
 20
4.25
 30
0.0
 40
1.5
  1
QTY
  7
STYLE1
100
AcDbText
  0
TEXT
  5
1E47
100
AcDbEntity
  8
TEXT
100
AcDbText
 10
1.5
 20
1.25
 30
0.0
 40
1.5
  1
UNIT
  7
STYLE1
100
AcDbText
  0
TEXT
  5
1E48
100
AcDbEntity
  8
TEXT
100
AcDbText
 10
12.5
 20
4.25
 30
0.0
 40
1.5
  1
SCALE
  7
STYLE1
100
AcDbText
  0
LINE
  5
1E49
100
AcDbEntity
  8
0
100
AcDbLine
 10
18.0
 20
0.5
 30
0.0
 11
18.0
 21
6.5
 31
0.0
  0
TEXT
  5
1E4A
100
AcDbEntity
  8
TEXT
100
AcDbText
 10
12.5
 20
1.25
 30
0.0
 40
1.5
  1
DATE
  7
STYLE1
100
AcDbText
  0
LINE
  5
1E4B
100
AcDbEntity
  8
0
100
AcDbLine
 10
12.0
 20
0.5
 30
0.0
 11
12.0
 21
6.5
 31
0.0
  0
TEXT
  5
3D99
100
AcDbEntity
  8
TEXT
100
AcDbText
 10
36.25
 20
4.25
 30
0.0
 40
1.5
  1
N9MT11T3R30-NC2071
  7
STYLE1
100
AcDbText
  0
TEXT
  5
7DC0
100
AcDbEntity
  8
TEXT
100
AcDbText
 10
272.5
 20
8.5
 30
0.0
 40
3.0
  1

  7
STYLE1
100
AcDbText
  0
TEXT
  5
B823
100
AcDbEntity
  8
TEXT
100
AcDbText
 10
272.5
 20
8.5
 30
0.0
 40
3.0
  1

  7
STYLE1
100
AcDbText
  0
TEXT
  5
B84F
100
AcDbEntity
  8
TEXT
100
AcDbText
 10
472.5
 20
8.5
 30
0.0
 40
3.0
  1

  7
STYLE1
100
AcDbText
  0
TEXT
  5
B898
100
AcDbEntity
  8
TEXT
100
AcDbText
 10
472.5
 20
8.5
 30
0.0
 40
3.0
  1

  7
STYLE1
100
AcDbText
  0
TEXT
  5
B899
100
AcDbEntity
  8
TEXT
100
AcDbText
 10
672.5
 20
8.5
 30
0.0
 40
3.0
  1

  7
STYLE1
100
AcDbText
  0
TEXT
  5
BB88
100
AcDbEntity
  8
TEXT
100
AcDbText
 10
272.5
 20
8.5
 30
0.0
 40
3.0
  1

  7
STYLE1
100
AcDbText
  0
TEXT
  5
BBB4
100
AcDbEntity
  8
TEXT
100
AcDbText
 10
472.5
 20
8.5
 30
0.0
 40
3.0
  1

  7
STYLE1
100
AcDbText
  0
TEXT
  5
BBB5
100
AcDbEntity
  8
TEXT
100
AcDbText
 10
472.5
 20
8.5
 30
0.0
 40
3.0
  1

  7
STYLE1
100
AcDbText
  0
TEXT
  5
BBB6
100
AcDbEntity
  8
TEXT
100
AcDbText
 10
672.5
 20
8.5
 30
0.0
 40
3.0
  1

  7
STYLE1
100
AcDbText
  0
TEXT
  5
13703
100
AcDbEntity
  8
TEXT
100
AcDbText
 10
185.514401
 20
13.570112
 30
0.0
 40
3.0
  1

  7
STYLE1
100
AcDbText
  0
TEXT
  5
1372F
100
AcDbEntity
  8
TEXT
100
AcDbText
 10
385.514401
 20
13.570112
 30
0.0
 40
3.0
  1

  7
STYLE1
100
AcDbText
  0
TEXT
  5
13730
100
AcDbEntity
  8
TEXT
100
AcDbText
 10
385.514401
 20
13.570112
 30
0.0
 40
3.0
  1

  7
STYLE1
100
AcDbText
  0
TEXT
  5
13731
100
AcDbEntity
  8
TEXT
100
AcDbText
 10
585.514401
 20
13.570112
 30
0.0
 40
3.0
  1

  7
STYLE1
100
AcDbText
  0
TEXT
  5
13732
100
AcDbEntity
  8
TEXT
100
AcDbText
 10
585.514401
 20
13.570112
 30
0.0
 40
3.0
  1

  7
STYLE1
100
AcDbText
  0
TEXT
  5
13733
100
AcDbEntity
  8
TEXT
100
AcDbText
 10
785.514401
 20
13.570112
 30
0.0
 40
3.0
  1

  7
STYLE1
100
AcDbText
  0
TEXT
  5
13734
100
AcDbEntity
  8
TEXT
100
AcDbText
 10
385.514401
 20
13.570112
 30
0.0
 40
3.0
  1

  7
STYLE1
100
AcDbText
  0
TEXT
  5
13735
100
AcDbEntity
  8
TEXT
100
AcDbText
 10
585.514401
 20
13.570112
 30
0.0
 40
3.0
  1

  7
STYLE1
100
AcDbText
  0
TEXT
  5
13736
100
AcDbEntity
  8
TEXT
100
AcDbText
 10
585.514401
 20
13.570112
 30
0.0
 40
3.0
  1

  7
STYLE1
100
AcDbText
  0
TEXT
  5
13737
100
AcDbEntity
  8
TEXT
100
AcDbText
 10
785.514401
 20
13.570112
 30
0.0
 40
3.0
  1

  7
STYLE1
100
AcDbText
  0
TEXT
  5
137B4
100
AcDbEntity
  8
TEXT
100
AcDbText
 10
396.655193
 20
19.707568
 30
0.0
 40
3.0
  1

  7
STYLE1
100
AcDbText
  0
TEXT
  5
137B5
100
AcDbEntity
  8
TEXT
100
AcDbText
 10
596.655193
 20
19.707568
 30
0.0
 40
3.0
  1

  7
STYLE1
100
AcDbText
  0
TEXT
  5
137B6
100
AcDbEntity
  8
TEXT
100
AcDbText
 10
596.655193
 20
19.707568
 30
0.0
 40
3.0
  1

  7
STYLE1
100
AcDbText
  0
TEXT
  5
137B7
100
AcDbEntity
  8
TEXT
100
AcDbText
 10
796.655193
 20
19.707568
 30
0.0
 40
3.0
  1

  7
STYLE1
100
AcDbText
  0
TEXT
  5
137B8
100
AcDbEntity
  8
TEXT
100
AcDbText
 10
796.655193
 20
19.707568
 30
0.0
 40
3.0
  1

  7
STYLE1
100
AcDbText
  0
TEXT
  5
137B9
100
AcDbEntity
  8
TEXT
100
AcDbText
 10
996.655193
 20
19.707568
 30
0.0
 40
3.0
  1

  7
STYLE1
100
AcDbText
  0
TEXT
  5
137BA
100
AcDbEntity
  8
TEXT
100
AcDbText
 10
596.655193
 20
19.707568
 30
0.0
 40
3.0
  1

  7
STYLE1
100
AcDbText
  0
TEXT
  5
137BB
100
AcDbEntity
  8
TEXT
100
AcDbText
 10
796.655193
 20
19.707568
 30
0.0
 40
3.0
  1

  7
STYLE1
100
AcDbText
  0
TEXT
  5
137BC
100
AcDbEntity
  8
TEXT
100
AcDbText
 10
796.655193
 20
19.707568
 30
0.0
 40
3.0
  1

  7
STYLE1
100
AcDbText
  0
TEXT
  5
137BD
100
AcDbEntity
  8
TEXT
100
AcDbText
 10
996.655193
 20
19.707568
 30
0.0
 40
3.0
  1

  7
STYLE1
100
AcDbText
  0
LINE
  5
139FC
100
AcDbEntity
  8
CEN
100
AcDbLine
 10
42.834971
 20
78.669375
 30
0.0
 11
40.834971
 21
78.669375
 31
0.0
  0
CIRCLE
  5
139FF
100
AcDbEntity
  8
BODY
100
AcDbCircle
 10
36.631096
 20
83.87325
 30
0.0
 40
3.0
  0
CIRCLE
  5
13A00
100
AcDbEntity
  8
BODY
100
AcDbCircle
 10
36.631096
 20
83.87325
 30
0.0
 40
2.2
  0
LINE
  5
13A02
100
AcDbEntity
  8
CEN
100
AcDbLine
 10
41.834971
 20
79.669375
 30
0.0
 11
41.834971
 21
77.669375
 31
0.0
  0
LWPOLYLINE
  5
1412F
100
AcDbEntity
  8
BODY
100
AcDbPolyline
 90
       32
 70
     1
 43
0.0
 10
38.813659
 20
89.405222
 10
38.839082
 20
88.920117
 42
0.383864
 10
41.677963
 20
86.081236
 10
42.163068
 20
86.055812
 10
43.284971
 20
84.93391
 10
43.426392
 20
84.93391
 10
43.850656
 20
84.509646
 42
-0.414214
 10
43.850656
 20
83.378275
 10
42.163068
 20
81.690687
 10
41.677963
 20
81.665263
 42
0.383864
 10
38.839082
 20
78.826383
 10
38.813659
 20
78.341278
 10
37.691756
 20
77.219375
 10
37.691756
 20
77.077953
 10
37.267492
 20
76.653689
 42
-0.414214
 10
36.136121
 20
76.653689
 10
34.448533
 20
78.341278
 10
34.42311
 20
78.826383
 42
0.383864
 10
31.584229
 20
81.665263
 10
31.099124
 20
81.690687
 10
29.977221
 20
82.812589
 10
29.8358
 20
82.812589
 10
29.411536
 20
83.236853
 42
-0.414214
 10
29.411536
 20
84.368224
 10
31.099124
 20
86.055812
 10
31.584229
 20
86.081236
 42
0.383864
 10
34.42311
 20
88.920117
 10
34.448533
 20
89.405222
 10
35.570436
 20
90.527124
 10
35.570436
 20
90.668546
 10
35.9947
 20
91.09281
 42
-0.414214
 10
37.126071
 20
91.09281
  0
ARC
  5
1419F
100
AcDbEntity
  8
HA
100
AcDbCircle
 10
41.834971
 20
78.669375
 30
0.0
 40
4.0
100
AcDbArc
 50
73.430838
 51
196.569162
  0
ARC
  5
141A0
100
AcDbEntity
  8
HA
100
AcDbCircle
 10
41.834971
 20
89.077124
 30
0.0
 40
4.0
100
AcDbArc
 50
163.430838
 51
286.569162
  0
ARC
  5
141A1
100
AcDbEntity
  8
HA
100
AcDbCircle
 10
31.427221
 20
89.077124
 30
0.0
 40
4.0
100
AcDbArc
 50
253.430838
 51
16.569162
  0
ARC
  5
141A2
100
AcDbEntity
  8
HA
100
AcDbCircle
 10
31.427221
 20
78.669375
 30
0.0
 40
4.0
100
AcDbArc
 50
343.430838
 51
106.569162
  0
LINE
  5
144BD
100
AcDbEntity
  8
BODY
100
AcDbLine
 10
69.906553
 20
90.260687
 30
0.0
 11
69.906553
 21
77.485813
 31
0.0
  0
LINE
  5
144BE
100
AcDbEntity
  8
BODY
100
AcDbLine
 10
65.606553
 20
77.683566
 30
0.0
 11
65.606553
 21
90.062933
 31
0.0
  0
LINE
  5
144C0
100
AcDbEntity
  8
BODY
100
AcDbLine
 10
69.906553
 20
77.485813
 30
0.0
 11
65.936553
 21
76.422054
 31
0.0
  0
LINE
  5
144C1
100
AcDbEntity
  8
BODY
100
AcDbLine
 10
65.936553
 20
77.648882
 30
0.0
 11
65.606553
 21
77.683566
 31
0.0
  0
LINE
  5
144C2
100
AcDbEntity
  8
BODY
100
AcDbLine
 10
65.936553
 20
76.422054
 30
0.0
 11
65.936553
 21
77.648882
 31
0.0
  0
LINE
  5
144C3
100
AcDbEntity
  8
HI
100
AcDbLine
 10
67.906553
 20
81.67325
 30
0.0
 11
69.906553
 21
81.67325
 31
0.0
  0
LINE
  5
144C4
100
AcDbEntity
  8
HI
100
AcDbLine
 10
67.906553
 20
86.07325
 30
0.0
 11
69.906553
 21
86.07325
 31
0.0
  0
LINE
  5
144C5
100
AcDbEntity
  8
BODY
100
AcDbLine
 10
69.906553
 20
90.260687
 30
0.0
 11
65.936553
 21
91.324445
 31
0.0
  0
LINE
  5
144C6
100
AcDbEntity
  8
BODY
100
AcDbLine
 10
65.936553
 20
90.097617
 30
0.0
 11
65.606553
 21
90.062933
 31
0.0
  0
LINE
  5
144C7
100
AcDbEntity
  8
HI
100
AcDbLine
 10
66.406553
 20
80.87325
 30
0.0
 11
66.406553
 21
86.87325
 31
0.0
  0
ARC
  5
144C8
100
AcDbEntity
  8
HI
100
AcDbCircle
 10
68.0085
 20
79.67585
 30
0.0
 40
2.0
100
AcDbArc
 50
92.921824
 51
143.22315
  0
LINE
  5
144C9
100
AcDbEntity
  8
HI
100
AcDbLine
 10
65.606553
 20
80.87325
 30
0.0
 11
66.406553
 21
80.87325
 31
0.0
  0
ARC
  5
144CA
100
AcDbEntity
  8
HI
100
AcDbCircle
 10
68.0085
 20
88.07065
 30
0.0
 40
2.0
100
AcDbArc
 50
216.77685
 51
267.078176
  0
LINE
  5
144CB
100
AcDbEntity
  8
HI
100
AcDbLine
 10
65.606553
 20
86.87325
 30
0.0
 11
66.406553
 21
86.87325
 31
0.0
  0
LINE
  5
144CC
100
AcDbEntity
  8
BODY
100
AcDbLine
 10
65.936553
 20
91.324445
 30
0.0
 11
65.936553
 21
90.097617
 31
0.0
  0
DIMENSION
  5
145A6
100
AcDbEntity
  8
DIM
100
AcDbDimension
  2
*D36
 10
31.427221
 20
89.077124
 30
0.0
 11
27.363774
 21
91.052208
 31
0.0
 12
-7.264365
 22
16.623293
 32
0.0
 70
   164
  3
STANDARD
100
AcDbRadialDimension
 15
34.125378
 25
87.765656
 35
0.0
 40
0.0
1001
ACAD
1000
DSTYLE
1002
{
1070
   288
1070
     1
1070
   287
1070
     4
1002
}
  0
ENDSEC
  0
SECTION
  2
OBJECTS
  0
DICTIONARY
  5
C
100
AcDbDictionary
  3
ACAD_GROUP
350
D
  3
ACAD_MLINESTYLE
350
1A
  3
ACDBVARIABLEDICTIONARY
350
39
  0
DICTIONARY
  5
D
102
{ACAD_REACTORS
330
C
102
}
100
AcDbDictionary
  0
DICTIONARY
  5
1A
102
{ACAD_REACTORS
330
C
102
}
100
AcDbDictionary
  3
STANDARD
350
1B
  0
DICTIONARY
  5
39
102
{ACAD_REACTORS
330
C
102
}
100
AcDbDictionary
  3
DIMADEC
350
3A
  3
SORTENTS
350
316C
  0
MLINESTYLE
  5
1B
102
{ACAD_REACTORS
330
1A
102
}
100
AcDbMlineStyle
  2
STANDARD
 70
     0
  3

 62
   256
 51
90.0
 52
90.0
 71
     2
 49
0.5
 62
   256
  6
BYLAYER
 49
-0.5
 62
   256
  6
BYLAYER
  0
DICTIONARYVAR
  5
3A
102
{ACAD_REACTORS
330
39
102
}
100
DictionaryVariables
280
     0
  1
3
  0
DICTIONARYVAR
  5
316C
102
{ACAD_REACTORS
330
39
102
}
100
DictionaryVariables
280
     0
  1
96
  0
ENDSEC
  0
EOF
