  0
SECTION
  2
HEADER
  9
$ACADVER
  1
AC1014
  9
$ACADMAINTVER
 70
     0
  9
$DWGCODEPAGE
  3
ANSI_950
  9
$INSBASE
 10
0.0
 20
0.0
 30
0.0
  9
$EXTMIN
 10
66.683265
 20
78.797967
 30
0.0
  9
$EXTMAX
 10
145.887685
 20
205.65827
 30
0.0
  9
$LIMMIN
 10
0.0
 20
0.0
  9
$LIMMAX
 10
210.0
 20
297.0
  9
$ORTHOMODE
 70
     1
  9
$REGENMODE
 70
     1
  9
$FILLMODE
 70
     1
  9
$QTEXTMODE
 70
     0
  9
$MIRRTEXT
 70
     1
  9
$DRAGMODE
 70
     2
  9
$LTSCALE
 40
6.0
  9
$OSMODE
 70
    59
  9
$ATTMODE
 70
     1
  9
$TEXTSIZE
 40
1.0
  9
$TRACEWID
 40
0.05
  9
$TEXTSTYLE
  7
STYLE1
  9
$CLAYER
  8
0
  9
$CELTYPE
  6
BYLAYER
  9
$CECOLOR
 62
   256
  9
$CELTSCALE
 40
1.0
  9
$DELOBJ
 70
     1
  9
$DISPSILH
 70
     0
  9
$DIMSCALE
 40
0.0
  9
$DIMASZ
 40
2.5
  9
$DIMEXO
 40
1.0
  9
$DIMDLI
 40
1.0
  9
$DIMRND
 40
0.0
  9
$DIMDLE
 40
0.0
  9
$DIMEXE
 40
1.0
  9
$DIMTP
 40
0.05
  9
$DIMTM
 40
0.05
  9
$DIMTXT
 40
2.5
  9
$DIMCEN
 40
0.09
  9
$DIMTSZ
 40
0.0
  9
$DIMTOL
 70
     0
  9
$DIMLIM
 70
     0
  9
$DIMTIH
 70
     0
  9
$DIMTOH
 70
     0
  9
$DIMSE1
 70
     0
  9
$DIMSE2
 70
     0
  9
$DIMTAD
 70
     1
  9
$DIMZIN
 70
     8
  9
$DIMBLK
  1

  9
$DIMASO
 70
     1
  9
$DIMSHO
 70
     1
  9
$DIMPOST
  1

  9
$DIMAPOST
  1

  9
$DIMALT
 70
     0
  9
$DIMALTD
 70
     2
  9
$DIMALTF
 40
25.4
  9
$DIMLFAC
 40
1.0
  9
$DIMTOFL
 70
     1
  9
$DIMTVP
 40
0.0
  9
$DIMTIX
 70
     0
  9
$DIMSOXD
 70
     0
  9
$DIMSAH
 70
     0
  9
$DIMBLK1
  1

  9
$DIMBLK2
  1

  9
$DIMSTYLE
  2
STANDARD
  9
$DIMCLRD
 70
     0
  9
$DIMCLRE
 70
     0
  9
$DIMCLRT
 70
     0
  9
$DIMTFAC
 40
0.5
  9
$DIMGAP
 40
1.0
  9
$DIMJUST
 70
     0
  9
$DIMSD1
 70
     0
  9
$DIMSD2
 70
     0
  9
$DIMTOLJ
 70
     1
  9
$DIMTZIN
 70
     8
  9
$DIMALTZ
 70
     0
  9
$DIMALTTZ
 70
     0
  9
$DIMFIT
 70
     3
  9
$DIMUPT
 70
     0
  9
$DIMUNIT
 70
     2
  9
$DIMDEC
 70
     2
  9
$DIMTDEC
 70
     2
  9
$DIMALTU
 70
     2
  9
$DIMALTTD
 70
     2
  9
$DIMTXSTY
  7
STANDARD
  9
$DIMAUNIT
 70
     0
  9
$LUNITS
 70
     2
  9
$LUPREC
 70
     4
  9
$SKETCHINC
 40
0.1
  9
$FILLETRAD
 40
0.7
  9
$AUNITS
 70
     0
  9
$AUPREC
 70
     3
  9
$MENU
  1
acad
  9
$ELEVATION
 40
0.0
  9
$PELEVATION
 40
0.0
  9
$THICKNESS
 40
0.0
  9
$LIMCHECK
 70
     0
  9
$BLIPMODE
 70
     1
  9
$CHAMFERA
 40
0.0
  9
$CHAMFERB
 40
0.0
  9
$CHAMFERC
 40
0.0
  9
$CHAMFERD
 40
0.0
  9
$SKPOLY
 70
     0
  9
$TDCREATE
 40
2450667.492824652
  9
$TDUPDATE
 40
2457624.811818935
  9
$TDINDWG
 40
3.6007793056
  9
$TDUSRTIMER
 40
3.6007793056
  9
$USRTIMER
 70
     1
  9
$ANGBASE
 50
0.0
  9
$ANGDIR
 70
     0
  9
$PDMODE
 70
     0
  9
$PDSIZE
 40
0.0
  9
$PLINEWID
 40
0.0
  9
$COORDS
 70
     0
  9
$SPLFRAME
 70
     0
  9
$SPLINETYPE
 70
     6
  9
$SPLINESEGS
 70
     8
  9
$ATTDIA
 70
     0
  9
$ATTREQ
 70
     1
  9
$HANDLING
 70
     1
  9
$HANDSEED
  5
165E6
  9
$SURFTAB1
 70
     6
  9
$SURFTAB2
 70
     6
  9
$SURFTYPE
 70
     6
  9
$SURFU
 70
     6
  9
$SURFV
 70
     6
  9
$UCSNAME
  2

  9
$UCSORG
 10
0.0
 20
0.0
 30
0.0
  9
$UCSXDIR
 10
1.0
 20
0.0
 30
0.0
  9
$UCSYDIR
 10
0.0
 20
1.0
 30
0.0
  9
$PUCSNAME
  2

  9
$PUCSORG
 10
0.0
 20
0.0
 30
0.0
  9
$PUCSXDIR
 10
1.0
 20
0.0
 30
0.0
  9
$PUCSYDIR
 10
0.0
 20
1.0
 30
0.0
  9
$USERI1
 70
     0
  9
$USERI2
 70
     0
  9
$USERI3
 70
     0
  9
$USERI4
 70
     0
  9
$USERI5
 70
     0
  9
$USERR1
 40
0.0
  9
$USERR2
 40
0.0
  9
$USERR3
 40
0.0
  9
$USERR4
 40
0.0
  9
$USERR5
 40
0.0
  9
$WORLDVIEW
 70
     1
  9
$SHADEDGE
 70
     3
  9
$SHADEDIF
 70
    70
  9
$TILEMODE
 70
     1
  9
$MAXACTVP
 70
    16
  9
$PINSBASE
 10
0.0
 20
0.0
 30
0.0
  9
$PLIMCHECK
 70
     0
  9
$PEXTMIN
 10
1.000000E+20
 20
1.000000E+20
 30
1.000000E+20
  9
$PEXTMAX
 10
-1.000000E+20
 20
-1.000000E+20
 30
-1.000000E+20
  9
$PLIMMIN
 10
0.0
 20
0.0
  9
$PLIMMAX
 10
12.0
 20
9.0
  9
$UNITMODE
 70
     0
  9
$VISRETAIN
 70
     0
  9
$PLINEGEN
 70
     0
  9
$PSLTSCALE
 70
     1
  9
$TREEDEPTH
 70
  3020
  9
$PICKSTYLE
 70
     0
  9
$CMLSTYLE
  2
STANDARD
  9
$CMLJUST
 70
     0
  9
$CMLSCALE
 40
1.0
  9
$PROXYGRAPHICS
 70
     1
  9
$MEASUREMENT
 70
     0
  0
ENDSEC
  0
SECTION
  2
CLASSES
  0
CLASS
  1
DICTIONARYVAR
  2
AcDbDictionaryVar
  3
"AutoCAD"
 90
        0
280
     0
281
     0
  0
CLASS
  1
LWPOLYLINE
  2
AcDbPolyline
  3
"AutoCAD"
 90
        0
280
     0
281
     1
  0
CLASS
  1
HATCH
  2
AcDbHatch
  3
"ACAD_SEDONA"
 90
        0
280
     0
281
     1
  0
ENDSEC
  0
SECTION
  2
TABLES
  0
TABLE
  2
VPORT
  5
8
100
AcDbSymbolTable
 70
     1
  0
VPORT
  5
165E0
100
AcDbSymbolTableRecord
100
AcDbViewportTableRecord
  2
*ACTIVE
 70
     0
 10
0.0
 20
0.0
 11
1.0
 21
1.0
 12
96.000321
 22
140.995011
 13
0.0
 23
0.0
 14
1.0
 24
1.0
 15
0.0
 25
0.0
 16
0.0
 26
0.0
 36
1.0
 17
0.0
 27
0.0
 37
0.0
 40
284.223883
 41
1.53446
 42
50.0
 43
0.0
 44
0.0
 50
0.0
 51
0.0
 71
     0
 72
 20000
 73
     1
 74
     1
 75
     0
 76
     0
 77
     0
 78
     0
  0
ENDTAB
  0
TABLE
  2
LTYPE
  5
5
100
AcDbSymbolTable
 70
     3
  0
LTYPE
  5
11
100
AcDbSymbolTableRecord
100
AcDbLinetypeTableRecord
  2
BYBLOCK
 70
     0
  3

 72
    65
 73
     0
 40
0.0
  0
LTYPE
  5
12
100
AcDbSymbolTableRecord
100
AcDbLinetypeTableRecord
  2
BYLAYER
 70
     0
  3

 72
    65
 73
     0
 40
0.0
  0
LTYPE
  5
13
100
AcDbSymbolTableRecord
100
AcDbLinetypeTableRecord
  2
CONTINUOUS
 70
     0
  3
Solid line
 72
    65
 73
     0
 40
0.0
  0
LTYPE
  5
2B
100
AcDbSymbolTableRecord
100
AcDbLinetypeTableRecord
  2
CENTER
 70
     0
  3
____ _ ____ _ ____ _ ____ _ ____ _ ____ _ ____ 
 72
    65
 73
     4
 40
2.0
 49
1.25
 74
     0
 49
-0.25
 74
     0
 49
0.25
 74
     0
 49
-0.25
 74
     0
  0
LTYPE
  5
160C9
100
AcDbSymbolTableRecord
100
AcDbLinetypeTableRecord
  2
HIDDEN
 70
     0
  3
Hidden __ __ __ __ __ __ __ __ __ __ __ __ __ _
 72
    65
 73
     2
 40
0.375
 49
0.25
 74
     0
 49
-0.125
 74
     0
  0
ENDTAB
  0
TABLE
  2
LAYER
  5
2
100
AcDbSymbolTable
 70
    13
  0
LAYER
  5
E
100
AcDbSymbolTableRecord
100
AcDbLayerTableRecord
  2
0
 70
     0
 62
     7
  6
CONTINUOUS
  0
LAYER
  5
2E
100
AcDbSymbolTableRecord
100
AcDbLayerTableRecord
  2
1
 70
     0
 62
     4
  6
CONTINUOUS
  0
LAYER
  5
2F
100
AcDbSymbolTableRecord
100
AcDbLayerTableRecord
  2
4
 70
     0
 62
     2
  6
CENTER
  0
LAYER
  5
30
100
AcDbSymbolTableRecord
100
AcDbLayerTableRecord
  2
6
 70
     0
 62
     5
  6
CONTINUOUS
  0
LAYER
  5
32
100
AcDbSymbolTableRecord
100
AcDbLayerTableRecord
  2
2
 70
     0
 62
     7
  6
CONTINUOUS
  0
LAYER
  5
33
100
AcDbSymbolTableRecord
100
AcDbLayerTableRecord
  2
DEFPOINTS
 70
     0
 62
     7
  6
CONTINUOUS
  0
LAYER
  5
16040
100
AcDbSymbolTableRecord
100
AcDbLayerTableRecord
  2
SK6
 70
     0
 62
     5
  6
CONTINUOUS
  0
LAYER
  5
160CA
100
AcDbSymbolTableRecord
100
AcDbLayerTableRecord
  2
HI
 70
     0
 62
     3
  6
HIDDEN
  0
LAYER
  5
162F3
100
AcDbSymbolTableRecord
100
AcDbLayerTableRecord
  2
DIM
 70
     0
 62
     2
  6
CONTINUOUS
  0
LAYER
  5
162F4
100
AcDbSymbolTableRecord
100
AcDbLayerTableRecord
  2
BODY
 70
     0
 62
     7
  6
CONTINUOUS
  0
LAYER
  5
162F5
100
AcDbSymbolTableRecord
100
AcDbLayerTableRecord
  2
CEN
 70
     0
 62
     4
  6
CENTER
  0
LAYER
  5
162F6
100
AcDbSymbolTableRecord
100
AcDbLayerTableRecord
  2
HA
 70
     0
 62
     5
  6
CONTINUOUS
  0
LAYER
  5
162F7
100
AcDbSymbolTableRecord
100
AcDbLayerTableRecord
  2
BODY1
 70
     0
 62
     1
  6
CONTINUOUS
  0
ENDTAB
  0
TABLE
  2
STYLE
  5
3
100
AcDbSymbolTable
 70
     3
  0
STYLE
  5
F
100
AcDbSymbolTableRecord
100
AcDbTextStyleTableRecord
  2
STANDARD
 70
     0
 40
0.0
 41
1.0
 50
0.0
 71
     0
 42
5.0
  3
txt
  4

  0
STYLE
  5
15F4
100
AcDbSymbolTableRecord
100
AcDbTextStyleTableRecord
  2
STYLE1
 70
     0
 40
3.0
 41
1.0
 50
0.0
 71
     0
 42
3.0
  3

  4

1001
ACAD
1000
標楷體
1071
    34881
  0
STYLE
  5
164C0
100
AcDbSymbolTableRecord
100
AcDbTextStyleTableRecord
  2
MONOTXT
 70
     0
 40
0.0
 41
1.0
 50
0.0
 71
     0
 42
1.0
  3
monotxt
  4

  0
ENDTAB
  0
TABLE
  2
VIEW
  5
6
100
AcDbSymbolTable
 70
     0
  0
ENDTAB
  0
TABLE
  2
UCS
  5
7
100
AcDbSymbolTable
 70
     0
  0
ENDTAB
  0
TABLE
  2
APPID
  5
9
100
AcDbSymbolTable
 70
     1
  0
APPID
  5
10
100
AcDbSymbolTableRecord
100
AcDbRegAppTableRecord
  2
ACAD
 70
     0
  0
ENDTAB
  0
TABLE
  2
DIMSTYLE
  5
A
100
AcDbSymbolTable
 70
     1
  0
DIMSTYLE
105
191
102
{ACAD_REACTORS
330
1651A
330
1652A
330
16545
330
16547
330
16548
102
}
100
AcDbSymbolTableRecord
100
AcDbDimStyleTableRecord
  2
STANDARD
 70
     0
  3

  4

  5

  6

  7

 40
1.0
 41
0.18
 42
0.0625
 43
0.38
 44
0.18
 45
0.0
 46
0.0
 47
0.0
 48
0.0
140
0.18
141
0.09
142
0.0
143
25.4
144
1.0
145
0.0
146
1.0
147
0.09
 71
     0
 72
     0
 73
     1
 74
     1
 75
     0
 76
     0
 77
     0
 78
     0
170
     0
171
     2
172
     0
173
     0
174
     0
175
     0
176
     0
177
     0
178
     0
270
     2
271
     4
272
     4
273
     2
274
     2
340
F
275
     0
280
     0
281
     0
282
     0
283
     1
284
     0
285
     0
286
     0
287
     3
288
     0
  0
ENDTAB
  0
TABLE
  2
BLOCK_RECORD
  5
1
100
AcDbSymbolTable
 70
    17
  0
BLOCK_RECORD
  5
17
100
AcDbSymbolTableRecord
100
AcDbBlockTableRecord
  2
*MODEL_SPACE
  0
BLOCK_RECORD
  5
14
100
AcDbSymbolTableRecord
100
AcDbBlockTableRecord
  2
*PAPER_SPACE
  0
BLOCK_RECORD
  5
162B7
100
AcDbSymbolTableRecord
100
AcDbBlockTableRecord
  2
*D0
  0
BLOCK_RECORD
  5
162C3
100
AcDbSymbolTableRecord
100
AcDbBlockTableRecord
  2
*D1
  0
BLOCK_RECORD
  5
162CF
100
AcDbSymbolTableRecord
100
AcDbBlockTableRecord
  2
*D2
  0
BLOCK_RECORD
  5
162DB
100
AcDbSymbolTableRecord
100
AcDbBlockTableRecord
  2
*D3
  0
BLOCK_RECORD
  5
162E7
100
AcDbSymbolTableRecord
100
AcDbBlockTableRecord
  2
*D4
  0
BLOCK_RECORD
  5
162F8
100
AcDbSymbolTableRecord
100
AcDbBlockTableRecord
  2
A$C338A1771
  0
BLOCK_RECORD
  5
16484
100
AcDbSymbolTableRecord
100
AcDbBlockTableRecord
  2
*D6
  0
BLOCK_RECORD
  5
16490
100
AcDbSymbolTableRecord
100
AcDbBlockTableRecord
  2
*D7
  0
BLOCK_RECORD
  5
1649C
100
AcDbSymbolTableRecord
100
AcDbBlockTableRecord
  2
*D8
  0
BLOCK_RECORD
  5
164A8
100
AcDbSymbolTableRecord
100
AcDbBlockTableRecord
  2
*D9
  0
BLOCK_RECORD
  5
164B4
100
AcDbSymbolTableRecord
100
AcDbBlockTableRecord
  2
*D10
  0
BLOCK_RECORD
  5
164C1
100
AcDbSymbolTableRecord
100
AcDbBlockTableRecord
  2
A$C79182DB0
  0
BLOCK_RECORD
  5
1655C
100
AcDbSymbolTableRecord
100
AcDbBlockTableRecord
  2
*D12
  0
BLOCK_RECORD
  5
16568
100
AcDbSymbolTableRecord
100
AcDbBlockTableRecord
  2
*D13
  0
BLOCK_RECORD
  5
16574
100
AcDbSymbolTableRecord
100
AcDbBlockTableRecord
  2
*D14
  0
BLOCK_RECORD
  5
16580
100
AcDbSymbolTableRecord
100
AcDbBlockTableRecord
  2
*D15
  0
BLOCK_RECORD
  5
1658C
100
AcDbSymbolTableRecord
100
AcDbBlockTableRecord
  2
*D16
  0
ENDTAB
  0
ENDSEC
  0
SECTION
  2
BLOCKS
  0
BLOCK
  5
37
100
AcDbEntity
  8
0
100
AcDbBlockBegin
  2
*MODEL_SPACE
 70
     0
 10
0.0
 20
0.0
 30
0.0
  3
*MODEL_SPACE
  1

  0
ENDBLK
  5
38
100
AcDbEntity
  8
0
100
AcDbBlockEnd
  0
BLOCK
  5
35
100
AcDbEntity
 67
     1
  8
0
100
AcDbBlockBegin
  2
*PAPER_SPACE
 70
     0
 10
0.0
 20
0.0
 30
0.0
  3
*PAPER_SPACE
  1

  0
ENDBLK
  5
36
100
AcDbEntity
 67
     1
  8
0
100
AcDbBlockEnd
  0
BLOCK
  5
162C1
100
AcDbEntity
  8
0
100
AcDbBlockBegin
  2
*D0
 70
     1
 10
0.0
 20
0.0
 30
0.0
  3
*D0
  1

  0
LINE
  5
162B8
100
AcDbEntity
  8
0
  6
BYBLOCK
 62
     0
100
AcDbLine
 10
39.49714
 20
216.932926
 30
0.0
 11
39.49714
 21
223.91254
 31
0.0
  0
LINE
  5
162B9
100
AcDbEntity
  8
0
  6
BYBLOCK
 62
     0
100
AcDbLine
 10
55.49714
 20
216.932926
 30
0.0
 11
55.49714
 21
223.91254
 31
0.0
  0
LINE
  5
162BA
100
AcDbEntity
  8
0
  6
BYBLOCK
 62
     0
100
AcDbLine
 10
41.49714
 20
222.91254
 30
0.0
 11
53.49714
 21
222.91254
 31
0.0
  0
SOLID
  5
162BB
100
AcDbEntity
  8
0
  6
BYBLOCK
 62
     0
100
AcDbTrace
 10
41.49714
 20
223.245874
 30
0.0
 11
41.49714
 21
222.579207
 31
0.0
 12
39.49714
 22
222.91254
 32
0.0
 13
39.49714
 23
222.91254
 33
0.0
  0
SOLID
  5
162BC
100
AcDbEntity
  8
0
  6
BYBLOCK
 62
     0
100
AcDbTrace
 10
53.49714
 20
223.245874
 30
0.0
 11
53.49714
 21
222.579207
 31
0.0
 12
55.49714
 22
222.91254
 32
0.0
 13
55.49714
 23
222.91254
 33
0.0
  0
MTEXT
  5
162BD
100
AcDbEntity
  8
0
  6
BYBLOCK
 62
     0
100
AcDbMText
 10
47.49714
 20
225.370874
 30
0.0
 40
2.5
 41
0.0
 71
     5
 72
     1
  1
\A1;\U+220516{\H1.250000;\S-0.003^ -0.008;}
  0
POINT
  5
162BE
100
AcDbEntity
  8
DEFPOINTS
  6
BYBLOCK
 62
     0
100
AcDbPoint
 10
39.49714
 20
215.932926
 30
0.0
  0
POINT
  5
162BF
100
AcDbEntity
  8
DEFPOINTS
  6
BYBLOCK
 62
     0
100
AcDbPoint
 10
55.49714
 20
215.932926
 30
0.0
  0
POINT
  5
162C0
100
AcDbEntity
  8
DEFPOINTS
  6
BYBLOCK
 62
     0
100
AcDbPoint
 10
55.49714
 20
222.91254
 30
0.0
  0
ENDBLK
  5
162C2
100
AcDbEntity
  8
0
100
AcDbBlockEnd
  0
BLOCK
  5
162CD
100
AcDbEntity
  8
0
100
AcDbBlockBegin
  2
*D1
 70
     1
 10
0.0
 20
0.0
 30
0.0
  3
*D1
  1

  0
LINE
  5
162C4
100
AcDbEntity
  8
0
  6
BYBLOCK
 62
     0
100
AcDbLine
 10
58.49714
 20
168.932926
 30
0.0
 11
72.49714
 21
168.932926
 31
0.0
  0
LINE
  5
162C5
100
AcDbEntity
  8
0
  6
BYBLOCK
 62
     0
100
AcDbLine
 10
55.99714
 20
138.432926
 30
0.0
 11
72.49714
 21
138.432926
 31
0.0
  0
LINE
  5
162C6
100
AcDbEntity
  8
0
  6
BYBLOCK
 62
     0
100
AcDbLine
 10
71.49714
 20
166.932926
 30
0.0
 11
71.49714
 21
140.432926
 31
0.0
  0
SOLID
  5
162C7
100
AcDbEntity
  8
0
  6
BYBLOCK
 62
     0
100
AcDbTrace
 10
71.163807
 20
166.932926
 30
0.0
 11
71.830473
 21
166.932926
 31
0.0
 12
71.49714
 22
168.932926
 32
0.0
 13
71.49714
 23
168.932926
 33
0.0
  0
SOLID
  5
162C8
100
AcDbEntity
  8
0
  6
BYBLOCK
 62
     0
100
AcDbTrace
 10
71.163807
 20
140.432926
 30
0.0
 11
71.830473
 21
140.432926
 31
0.0
 12
71.49714
 22
138.432926
 32
0.0
 13
71.49714
 23
138.432926
 33
0.0
  0
MTEXT
  5
162C9
100
AcDbEntity
  8
0
  6
BYBLOCK
 62
     0
100
AcDbMText
 10
69.24714
 20
153.682926
 30
0.0
 40
2.5
 41
0.0
 71
     5
 72
     1
  1
\A1;30.5{\H1.250000;±0.05}
 11
0.0
 21
1.0
 31
0.0
  0
POINT
  5
162CA
100
AcDbEntity
  8
DEFPOINTS
  6
BYBLOCK
 62
     0
100
AcDbPoint
 10
57.49714
 20
168.932926
 30
0.0
  0
POINT
  5
162CB
100
AcDbEntity
  8
DEFPOINTS
  6
BYBLOCK
 62
     0
100
AcDbPoint
 10
54.99714
 20
138.432926
 30
0.0
  0
POINT
  5
162CC
100
AcDbEntity
  8
DEFPOINTS
  6
BYBLOCK
 62
     0
100
AcDbPoint
 10
71.49714
 20
138.432926
 30
0.0
  0
ENDBLK
  5
162CE
100
AcDbEntity
  8
0
100
AcDbBlockEnd
  0
BLOCK
  5
162D9
100
AcDbEntity
  8
0
100
AcDbBlockBegin
  2
*D2
 70
     1
 10
0.0
 20
0.0
 30
0.0
  3
*D2
  1

  0
LINE
  5
162D0
100
AcDbEntity
  8
0
  6
BYBLOCK
 62
     0
100
AcDbLine
 10
82.386768
 20
239.523902
 30
0.0
 11
99.386768
 21
239.523902
 31
0.0
  0
LINE
  5
162D1
100
AcDbEntity
  8
0
  6
BYBLOCK
 62
     0
100
AcDbLine
 10
85.386768
 20
191.523902
 30
0.0
 11
99.386768
 21
191.523902
 31
0.0
  0
LINE
  5
162D2
100
AcDbEntity
  8
0
  6
BYBLOCK
 62
     0
100
AcDbLine
 10
98.386768
 20
237.523902
 30
0.0
 11
98.386768
 21
193.523902
 31
0.0
  0
SOLID
  5
162D3
100
AcDbEntity
  8
0
  6
BYBLOCK
 62
     0
100
AcDbTrace
 10
98.053434
 20
237.523902
 30
0.0
 11
98.720101
 21
237.523902
 31
0.0
 12
98.386768
 22
239.523902
 32
0.0
 13
98.386768
 23
239.523902
 33
0.0
  0
SOLID
  5
162D4
100
AcDbEntity
  8
0
  6
BYBLOCK
 62
     0
100
AcDbTrace
 10
98.053434
 20
193.523902
 30
0.0
 11
98.720101
 21
193.523902
 31
0.0
 12
98.386768
 22
191.523902
 32
0.0
 13
98.386768
 23
191.523902
 33
0.0
  0
MTEXT
  5
162D5
100
AcDbEntity
  8
0
  6
BYBLOCK
 62
     0
100
AcDbMText
 10
96.136768
 20
215.523902
 30
0.0
 40
2.5
 41
0.0
 71
     5
 72
     1
  1
\A1;48
 11
0.0
 21
1.0
 31
0.0
  0
POINT
  5
162D6
100
AcDbEntity
  8
DEFPOINTS
  6
BYBLOCK
 62
     0
100
AcDbPoint
 10
81.386768
 20
239.523902
 30
0.0
  0
POINT
  5
162D7
100
AcDbEntity
  8
DEFPOINTS
  6
BYBLOCK
 62
     0
100
AcDbPoint
 10
84.386768
 20
191.523902
 30
0.0
  0
POINT
  5
162D8
100
AcDbEntity
  8
DEFPOINTS
  6
BYBLOCK
 62
     0
100
AcDbPoint
 10
98.386768
 20
191.523902
 30
0.0
  0
ENDBLK
  5
162DA
100
AcDbEntity
  8
0
100
AcDbBlockEnd
  0
BLOCK
  5
162E5
100
AcDbEntity
  8
0
100
AcDbBlockBegin
  2
*D3
 70
     1
 10
0.0
 20
0.0
 30
0.0
  3
*D3
  1

  0
LINE
  5
162DC
100
AcDbEntity
  8
0
  6
BYBLOCK
 62
     0
100
AcDbLine
 10
55.49714
 20
216.932926
 30
0.0
 11
79.49714
 21
216.932926
 31
0.0
  0
LINE
  5
162DD
100
AcDbEntity
  8
0
  6
BYBLOCK
 62
     0
100
AcDbLine
 10
55.99714
 20
138.432926
 30
0.0
 11
79.49714
 21
138.432926
 31
0.0
  0
LINE
  5
162DE
100
AcDbEntity
  8
0
  6
BYBLOCK
 62
     0
100
AcDbLine
 10
78.49714
 20
214.932926
 30
0.0
 11
78.49714
 21
140.432926
 31
0.0
  0
SOLID
  5
162DF
100
AcDbEntity
  8
0
  6
BYBLOCK
 62
     0
100
AcDbTrace
 10
78.163807
 20
214.932926
 30
0.0
 11
78.830473
 21
214.932926
 31
0.0
 12
78.49714
 22
216.932926
 32
0.0
 13
78.49714
 23
216.932926
 33
0.0
  0
SOLID
  5
162E0
100
AcDbEntity
  8
0
  6
BYBLOCK
 62
     0
100
AcDbTrace
 10
78.163807
 20
140.432926
 30
0.0
 11
78.830473
 21
140.432926
 31
0.0
 12
78.49714
 22
138.432926
 32
0.0
 13
78.49714
 23
138.432926
 33
0.0
  0
MTEXT
  5
162E1
100
AcDbEntity
  8
0
  6
BYBLOCK
 62
     0
100
AcDbMText
 10
76.24714
 20
177.682926
 30
0.0
 40
2.5
 41
0.0
 71
     5
 72
     1
  1
\A1;78.5
 11
0.0
 21
1.0
 31
0.0
  0
POINT
  5
162E2
100
AcDbEntity
  8
DEFPOINTS
  6
BYBLOCK
 62
     0
100
AcDbPoint
 10
54.49714
 20
216.932926
 30
0.0
  0
POINT
  5
162E3
100
AcDbEntity
  8
DEFPOINTS
  6
BYBLOCK
 62
     0
100
AcDbPoint
 10
54.99714
 20
138.432926
 30
0.0
  0
POINT
  5
162E4
100
AcDbEntity
  8
DEFPOINTS
  6
BYBLOCK
 62
     0
100
AcDbPoint
 10
78.49714
 20
138.432926
 30
0.0
  0
ENDBLK
  5
162E6
100
AcDbEntity
  8
0
100
AcDbBlockEnd
  0
BLOCK
  5
162F1
100
AcDbEntity
  8
0
100
AcDbBlockBegin
  2
*D4
 70
     1
 10
0.0
 20
0.0
 30
0.0
  3
*D4
  1

  0
LINE
  5
162E8
100
AcDbEntity
  8
0
  6
BYBLOCK
 62
     0
100
AcDbLine
 10
70.61397
 20
169.050787
 30
0.0
 11
70.61397
 21
229.335378
 31
0.0
  0
LINE
  5
162E9
100
AcDbEntity
  8
0
  6
BYBLOCK
 62
     0
100
AcDbLine
 10
49.61397
 20
169.050787
 30
0.0
 11
49.61397
 21
229.335378
 31
0.0
  0
LINE
  5
162EA
100
AcDbEntity
  8
0
  6
BYBLOCK
 62
     0
100
AcDbLine
 10
68.61397
 20
228.335378
 30
0.0
 11
51.61397
 21
228.335378
 31
0.0
  0
SOLID
  5
162EB
100
AcDbEntity
  8
0
  6
BYBLOCK
 62
     0
100
AcDbTrace
 10
68.61397
 20
228.668711
 30
0.0
 11
68.61397
 21
228.002045
 31
0.0
 12
70.61397
 22
228.335378
 32
0.0
 13
70.61397
 23
228.335378
 33
0.0
  0
SOLID
  5
162EC
100
AcDbEntity
  8
0
  6
BYBLOCK
 62
     0
100
AcDbTrace
 10
51.61397
 20
228.668711
 30
0.0
 11
51.61397
 21
228.002045
 31
0.0
 12
49.61397
 22
228.335378
 32
0.0
 13
49.61397
 23
228.335378
 33
0.0
  0
MTEXT
  5
162ED
100
AcDbEntity
  8
0
  6
BYBLOCK
 62
     0
100
AcDbMText
 10
60.11397
 20
230.585378
 30
0.0
 40
2.5
 41
0.0
 71
     5
 72
     1
  1
\A1;\U+220521
  0
POINT
  5
162EE
100
AcDbEntity
  8
DEFPOINTS
  6
BYBLOCK
 62
     0
100
AcDbPoint
 10
70.61397
 20
168.050787
 30
0.0
  0
POINT
  5
162EF
100
AcDbEntity
  8
DEFPOINTS
  6
BYBLOCK
 62
     0
100
AcDbPoint
 10
49.61397
 20
168.050787
 30
0.0
  0
POINT
  5
162F0
100
AcDbEntity
  8
DEFPOINTS
  6
BYBLOCK
 62
     0
100
AcDbPoint
 10
49.61397
 20
228.335378
 30
0.0
  0
ENDBLK
  5
162F2
100
AcDbEntity
  8
0
100
AcDbBlockEnd
  0
BLOCK
  5
16339
100
AcDbEntity
  8
0
100
AcDbBlockBegin
  2
A$C338A1771
 70
     0
 10
0.0
 20
0.0
 30
0.0
  3
A$C338A1771
  1

  0
LINE
  5
162F9
100
AcDbEntity
  8
BODY
100
AcDbLine
 10
7.756841
 20
8.030478
 30
0.0
 11
7.756841
 21
12.013623
 31
0.0
  0
LINE
  5
162FA
100
AcDbEntity
  8
BODY
100
AcDbLine
 10
19.756841
 20
14.523369
 30
0.0
 11
19.756841
 21
8.030478
 31
0.0
  0
LINE
  5
162FB
100
AcDbEntity
  8
CEN
100
AcDbLine
 10
13.756841
 20
86.440049
 30
0.0
 11
13.756841
 21
0.0
 31
0.0
  0
LINE
  5
162FC
100
AcDbEntity
  8
BODY
100
AcDbLine
 10
6.656841
 20
10.5
 30
0.0
 11
6.656841
 21
2.154408
 31
0.0
  0
ARC
  5
162FD
100
AcDbEntity
  8
0
100
AcDbCircle
 10
15.096587
 20
9.0
 30
0.0
 40
10.0
100
AcDbArc
 50
135.955959
 51
180.0
  0
DIMENSION
  5
162FE
100
AcDbEntity
  8
DIM
100
AcDbDimension
  2
*D3
 10
44.756841
 20
5.940049
 30
0.0
 11
42.506841
 21
45.190049
 31
0.0
 12
-33.740299
 22
-132.492877
 32
0.0
  3
STANDARD
100
AcDbAlignedDimension
 13
20.756841
 23
84.440049
 33
0.0
 14
21.256841
 24
5.940049
 34
0.0
 50
90.0
100
AcDbRotatedDimension
1001
ACAD
1000
DSTYLE
1002
{
1070
    78
1070
     8
1070
   284
1070
     8
1070
   140
1040
2.5
1070
    47
1040
0.03
1070
    74
1070
     0
1070
   172
1070
     1
1070
    73
1070
     0
1070
   146
1040
0.5
1070
   272
1070
     2
1070
    77
1070
     1
1070
   147
1040
1.0
1070
    42
1040
1.0
1070
    44
1040
1.0
1070
    43
1040
1.0
1070
   271
1070
     2
1070
    41
1040
2.0
1002
}
  0
DIMENSION
  5
162FF
100
AcDbEntity
  8
DIM
100
AcDbDimension
  2
*D1
 10
37.756841
 20
5.940049
 30
0.0
 11
35.506841
 21
21.190049
 31
0.0
 12
-33.740299
 22
-132.492877
 32
0.0
  3
STANDARD
100
AcDbAlignedDimension
 13
23.756841
 23
36.440049
 33
0.0
 14
21.256841
 24
5.940049
 34
0.0
 50
90.0
100
AcDbRotatedDimension
1001
ACAD
1000
DSTYLE
1002
{
1070
    78
1070
     8
1070
   284
1070
     8
1070
   140
1040
2.5
1070
    47
1040
0.05
1070
    71
1070
     1
1070
    74
1070
     0
1070
   172
1070
     1
1070
    48
1040
0.05
1070
    73
1070
     0
1070
   146
1040
0.5
1070
   272
1070
     2
1070
    77
1070
     1
1070
   147
1040
1.0
1070
    42
1040
1.0
1070
    44
1040
1.0
1070
    43
1040
1.0
1070
   271
1070
     2
1070
    41
1040
2.0
1002
}
  0
LINE
  5
16300
100
AcDbEntity
  8
BODY
100
AcDbLine
 10
24.256841
 20
35.940049
 30
0.0
 11
24.256841
 21
4.117399
 31
0.0
  0
LINE
  5
16301
100
AcDbEntity
  8
BODY
100
AcDbLine
 10
3.256841
 20
35.940049
 30
0.0
 11
3.256841
 21
4.117399
 31
0.0
  0
LINE
  5
16302
100
AcDbEntity
  8
DIM
100
AcDbLine
 10
22.256841
 20
5.940049
 30
0.0
 11
0.0
 21
5.940049
 31
0.0
  0
LINE
  5
16303
100
AcDbEntity
  8
HI
100
AcDbLine
 10
7.756841
 20
1.626013
 30
0.0
 11
12.224275
 21
0.0
 31
0.0
  0
LINE
  5
16304
100
AcDbEntity
  8
BODY
100
AcDbLine
 10
7.256841
 20
1.807998
 30
0.0
 11
3.256841
 21
4.117399
 31
0.0
  0
ARC
  5
16305
100
AcDbEntity
  8
BODY1
100
AcDbCircle
 10
6.756841
 20
5.940049
 30
0.0
 40
2.0
100
AcDbArc
 50
309.1498
 51
50.8502
  0
LINE
  5
16306
100
AcDbEntity
  8
BODY
100
AcDbLine
 10
5.096587
 20
3.055221
 30
0.0
 11
5.096587
 21
9.0
 31
0.0
  0
ARC
  5
16307
100
AcDbEntity
  8
DIM
100
AcDbCircle
 10
7.8884
 20
4.119235
 30
0.0
 40
0.3
100
AcDbArc
 50
64.07857
 51
243.989936
  0
LINE
  5
16308
100
AcDbEntity
  8
BODY
100
AcDbLine
 10
7.256841
 20
1.807998
 30
0.0
 11
7.756841
 21
1.626013
 31
0.0
  0
LINE
  5
16309
100
AcDbEntity
  8
BODY
100
AcDbLine
 10
7.756841
 20
3.849619
 30
0.0
 11
7.756841
 21
1.626013
 31
0.0
  0
ARC
  5
1630A
100
AcDbEntity
  8
DIM
100
AcDbCircle
 10
7.8884
 20
7.760863
 30
0.0
 40
0.3
100
AcDbArc
 50
116.010064
 51
295.92143
  0
LINE
  5
1630B
100
AcDbEntity
  8
BODY
100
AcDbLine
 10
20.256841
 20
1.807998
 30
0.0
 11
24.256841
 21
4.117399
 31
0.0
  0
LINE
  5
1630C
100
AcDbEntity
  8
HI
100
AcDbLine
 10
19.756841
 20
1.626013
 30
0.0
 11
15.289407
 21
0.0
 31
0.0
  0
LINE
  5
1630D
100
AcDbEntity
  8
HI
100
AcDbLine
 10
12.224275
 20
0.0
 30
0.0
 11
15.289407
 21
0.0
 31
0.0
  0
ARC
  5
1630E
100
AcDbEntity
  8
BODY1
100
AcDbCircle
 10
20.756841
 20
5.940049
 30
0.0
 40
2.0
100
AcDbArc
 50
129.1498
 51
230.8502
  0
LINE
  5
1630F
100
AcDbEntity
  8
BODY
100
AcDbLine
 10
19.756841
 20
3.849619
 30
0.0
 11
19.756841
 21
1.626013
 31
0.0
  0
ARC
  5
16310
100
AcDbEntity
  8
DIM
100
AcDbCircle
 10
19.625282
 20
4.119235
 30
0.0
 40
0.3
100
AcDbArc
 50
296.010064
 51
115.92143
  0
LINE
  5
16311
100
AcDbEntity
  8
BODY
100
AcDbLine
 10
20.256841
 20
1.807998
 30
0.0
 11
19.756841
 21
1.626013
 31
0.0
  0
ARC
  5
16312
100
AcDbEntity
  8
DIM
100
AcDbCircle
 10
19.625282
 20
7.760863
 30
0.0
 40
0.3
100
AcDbArc
 50
244.07857
 51
63.989936
  0
DIMENSION
  5
16313
100
AcDbEntity
  8
DIM
100
AcDbDimension
  2
*D4
 10
3.256841
 20
96.22464
 30
0.0
 11
13.756841
 21
98.47464
 31
0.0
 12
-46.357129
 22
-132.110739
 32
0.0
  1
%%c<>
  3
STANDARD
100
AcDbAlignedDimension
 13
24.256841
 23
35.940049
 33
0.0
 14
3.256841
 24
35.940049
 34
0.0
100
AcDbRotatedDimension
1001
ACAD
1000
DSTYLE
1002
{
1070
    78
1070
     8
1070
   284
1070
     8
1070
   140
1040
2.5
1070
    47
1040
0.03
1070
    74
1070
     0
1070
   172
1070
     1
1070
    73
1070
     0
1070
   146
1040
0.5
1070
   272
1070
     2
1070
    77
1070
     1
1070
   147
1040
1.0
1070
    42
1040
1.0
1070
    44
1040
1.0
1070
    43
1040
1.0
1070
   271
1070
     2
1070
    41
1040
2.0
1002
}
  0
ARC
  5
16314
100
AcDbEntity
  8
BODY
100
AcDbCircle
 10
19.156841
 20
10.5
 30
0.0
 40
12.5
100
AcDbArc
 50
65.92074
 51
180.0
  0
LINE
  5
16315
100
AcDbEntity
  8
BODY
100
AcDbLine
 10
7.756841
 20
14.523369
 30
0.0
 11
11.517693
 21
19.894422
 31
0.0
  0
LINE
  5
16316
100
AcDbEntity
  8
BODY
100
AcDbLine
 10
6.756841
 20
84.440049
 30
0.0
 11
20.756841
 21
84.440049
 31
0.0
  0
LINE
  5
16317
100
AcDbEntity
  8
HA
100
AcDbLine
 10
5.756841
 20
81.040049
 30
0.0
 11
21.756841
 21
81.040049
 31
0.0
  0
LINE
  5
16318
100
AcDbEntity
  8
HA
100
AcDbLine
 10
5.756841
 20
83.040049
 30
0.0
 11
21.756841
 21
83.040049
 31
0.0
  0
LINE
  5
16319
100
AcDbEntity
  8
BODY
100
AcDbLine
 10
5.756841
 20
83.440049
 30
0.0
 11
21.756841
 21
83.440049
 31
0.0
  0
LINE
  5
1631A
100
AcDbEntity
  8
HA
100
AcDbLine
 10
18.812531
 20
65.440049
 30
0.0
 11
8.701151
 21
55.440049
 31
0.0
  0
LINE
  5
1631B
100
AcDbEntity
  8
HA
100
AcDbLine
 10
8.701151
 20
65.440049
 30
0.0
 11
18.812531
 21
55.440049
 31
0.0
  0
ARC
  5
1631C
100
AcDbEntity
  8
BODY
100
AcDbCircle
 10
13.756841
 20
59.240049
 30
0.0
 40
8.0
100
AcDbArc
 50
50.805033
 51
129.194967
  0
LINE
  5
1631D
100
AcDbEntity
  8
BODY
100
AcDbLine
 10
8.701151
 20
55.440049
 30
0.0
 11
18.812531
 21
55.440049
 31
0.0
  0
LINE
  5
1631E
100
AcDbEntity
  8
BODY
100
AcDbLine
 10
8.701151
 20
65.440049
 30
0.0
 11
18.812531
 21
65.440049
 31
0.0
  0
ARC
  5
1631F
100
AcDbEntity
  8
BODY
100
AcDbCircle
 10
13.756841
 20
61.640049
 30
0.0
 40
8.0
100
AcDbArc
 50
230.805033
 51
309.194967
  0
LINE
  5
16320
100
AcDbEntity
  8
BODY
100
AcDbLine
 10
5.756841
 20
37.940049
 30
0.0
 11
21.756841
 21
37.940049
 31
0.0
  0
LINE
  5
16321
100
AcDbEntity
  8
BODY
100
AcDbLine
 10
6.256841
 20
37.440049
 30
0.0
 11
21.256841
 21
37.440049
 31
0.0
  0
LINE
  5
16322
100
AcDbEntity
  8
BODY
100
AcDbLine
 10
3.756841
 20
36.440049
 30
0.0
 11
23.756841
 21
36.440049
 31
0.0
  0
LINE
  5
16323
100
AcDbEntity
  8
BODY
100
AcDbLine
 10
3.256841
 20
35.940049
 30
0.0
 11
24.256841
 21
35.940049
 31
0.0
  0
DIMENSION
  5
16324
100
AcDbEntity
  8
DIM
100
AcDbDimension
  2
*D0
 10
21.756841
 20
90.419664
 30
0.0
 11
13.756841
 21
92.877997
 31
0.0
 12
-33.740299
 22
-132.492877
 32
0.0
  3
STANDARD
100
AcDbAlignedDimension
 13
5.756841
 23
83.440049
 33
0.0
 14
21.756841
 24
83.440049
 34
0.0
100
AcDbRotatedDimension
1001
ACAD
1000
DSTYLE
1002
{
1070
    78
1070
     8
1070
   284
1070
     8
1070
   140
1040
2.5
1070
    47
1040
-0.003
1070
    71
1070
     1
1070
    74
1070
     0
1070
   172
1070
     1
1070
    48
1040
0.008
1070
    73
1070
     0
1070
   146
1040
0.5
1070
   272
1070
     3
1070
    77
1070
     1
1070
     3
1000
%%c<>
1070
   147
1040
1.0
1070
    42
1040
1.0
1070
    44
1040
1.0
1070
    43
1040
1.0
1070
   271
1070
     3
1070
    41
1040
2.0
1002
}
  0
LINE
  5
16325
100
AcDbEntity
  8
BODY
100
AcDbLine
 10
5.756841
 20
81.040049
 30
0.0
 11
5.756841
 21
37.940049
 31
0.0
  0
LINE
  5
16326
100
AcDbEntity
  8
BODY
100
AcDbLine
 10
7.756841
 20
12.013623
 30
0.0
 11
7.756841
 21
14.523369
 31
0.0
  0
LINE
  5
16327
100
AcDbEntity
  8
BODY
100
AcDbLine
 10
3.756841
 20
36.440049
 30
0.0
 11
3.256841
 21
35.940049
 31
0.0
  0
LINE
  5
16328
100
AcDbEntity
  8
BODY
100
AcDbLine
 10
6.256841
 20
37.440049
 30
0.0
 11
6.256841
 21
36.440049
 31
0.0
  0
LINE
  5
16329
100
AcDbEntity
  8
BODY
100
AcDbLine
 10
5.756841
 20
37.940049
 30
0.0
 11
6.256841
 21
37.440049
 31
0.0
  0
LINE
  5
1632A
100
AcDbEntity
  8
BODY
100
AcDbLine
 10
8.701151
 20
65.440049
 30
0.0
 11
8.701151
 21
55.440049
 31
0.0
  0
ARC
  5
1632B
100
AcDbEntity
  8
BODY
100
AcDbCircle
 10
2.928414
 20
82.040049
 30
0.0
 40
3.0
100
AcDbArc
 50
340.528779
 51
19.471221
  0
LINE
  5
1632C
100
AcDbEntity
  8
BODY
100
AcDbLine
 10
5.756841
 20
83.440049
 30
0.0
 11
6.756841
 21
84.440049
 31
0.0
  0
LINE
  5
1632D
100
AcDbEntity
  8
BODY
100
AcDbLine
 10
5.756841
 20
83.440049
 30
0.0
 11
5.756841
 21
83.040049
 31
0.0
  0
LINE
  5
1632E
100
AcDbEntity
  8
BODY
100
AcDbLine
 10
21.756841
 20
81.040049
 30
0.0
 11
21.756841
 21
37.940049
 31
0.0
  0
DIMENSION
  5
1632F
100
AcDbEntity
  8
DIM
100
AcDbDimension
  2
*D2
 10
37.756841
 20
36.440049
 30
0.0
 11
35.506841
 21
60.440049
 31
0.0
 12
-60.629927
 22
-155.083853
 32
0.0
  3
STANDARD
100
AcDbAlignedDimension
 13
20.756841
 23
84.440049
 33
0.0
 14
23.756841
 24
36.440049
 34
0.0
 50
90.0
100
AcDbRotatedDimension
1001
ACAD
1000
DSTYLE
1002
{
1070
    78
1070
     8
1070
   284
1070
     8
1070
   140
1040
2.5
1070
    47
1040
0.03
1070
    74
1070
     0
1070
   172
1070
     1
1070
    73
1070
     0
1070
   146
1040
0.5
1070
   272
1070
     2
1070
    77
1070
     1
1070
   147
1040
1.0
1070
    42
1040
1.0
1070
    44
1040
1.0
1070
    43
1040
1.0
1070
   271
1070
     2
1070
    41
1040
2.0
1002
}
  0
LINE
  5
16330
100
AcDbEntity
  8
BODY
100
AcDbLine
 10
19.756841
 20
14.523369
 30
0.0
 11
15.99599
 21
19.894422
 31
0.0
  0
ARC
  5
16331
100
AcDbEntity
  8
BODY
100
AcDbCircle
 10
13.756841
 20
18.326553
 30
0.0
 40
2.733496
100
AcDbArc
 50
35.0
 51
145.0
  0
LINE
  5
16332
100
AcDbEntity
  8
BODY
100
AcDbLine
 10
21.256841
 20
37.440049
 30
0.0
 11
21.256841
 21
36.440049
 31
0.0
  0
LINE
  5
16333
100
AcDbEntity
  8
BODY
100
AcDbLine
 10
21.756841
 20
37.940049
 30
0.0
 11
21.256841
 21
37.440049
 31
0.0
  0
LINE
  5
16334
100
AcDbEntity
  8
BODY
100
AcDbLine
 10
23.756841
 20
36.440049
 30
0.0
 11
24.256841
 21
35.940049
 31
0.0
  0
LINE
  5
16335
100
AcDbEntity
  8
BODY
100
AcDbLine
 10
18.812531
 20
65.440049
 30
0.0
 11
18.812531
 21
55.440049
 31
0.0
  0
ARC
  5
16336
100
AcDbEntity
  8
BODY
100
AcDbCircle
 10
24.585268
 20
82.040049
 30
0.0
 40
3.0
100
AcDbArc
 50
160.528779
 51
199.471221
  0
LINE
  5
16337
100
AcDbEntity
  8
BODY
100
AcDbLine
 10
21.756841
 20
83.440049
 30
0.0
 11
21.756841
 21
83.040049
 31
0.0
  0
LINE
  5
16338
100
AcDbEntity
  8
BODY
100
AcDbLine
 10
20.756841
 20
84.440049
 30
0.0
 11
21.756841
 21
83.440049
 31
0.0
  0
ENDBLK
  5
1633A
100
AcDbEntity
  8
0
100
AcDbBlockEnd
  0
BLOCK
  5
1648E
100
AcDbEntity
  8
0
100
AcDbBlockBegin
  2
*D6
 70
     1
 10
0.0
 20
0.0
 30
0.0
  3
*D6
  1

  0
LINE
  5
16485
100
AcDbEntity
  8
0
  6
BYBLOCK
 62
     0
100
AcDbLine
 10
267.104479
 20
139.018925
 30
0.0
 11
278.181703
 21
139.018925
 31
0.0
  0
LINE
  5
16486
100
AcDbEntity
  8
0
  6
BYBLOCK
 62
     0
100
AcDbLine
 10
261.785802
 20
187.018925
 30
0.0
 11
278.181703
 21
187.018925
 31
0.0
  0
LINE
  5
16487
100
AcDbEntity
  8
0
  6
BYBLOCK
 62
     0
100
AcDbLine
 10
277.181703
 20
141.018925
 30
0.0
 11
277.181703
 21
185.018925
 31
0.0
  0
SOLID
  5
16488
100
AcDbEntity
  8
0
  6
BYBLOCK
 62
     0
100
AcDbTrace
 10
276.848369
 20
141.018925
 30
0.0
 11
277.515036
 21
141.018925
 31
0.0
 12
277.181703
 22
139.018925
 32
0.0
 13
277.181703
 23
139.018925
 33
0.0
  0
SOLID
  5
16489
100
AcDbEntity
  8
0
  6
BYBLOCK
 62
     0
100
AcDbTrace
 10
276.848369
 20
185.018925
 30
0.0
 11
277.515036
 21
185.018925
 31
0.0
 12
277.181703
 22
187.018925
 32
0.0
 13
277.181703
 23
187.018925
 33
0.0
  0
MTEXT
  5
1648A
100
AcDbEntity
  8
0
  6
BYBLOCK
 62
     0
100
AcDbMText
 10
274.931703
 20
163.018925
 30
0.0
 40
2.5
 41
0.0
 71
     5
 72
     1
  1
\A1;48
 11
0.0
 21
1.0
 31
0.0
  0
POINT
  5
1648B
100
AcDbEntity
  8
DEFPOINTS
  6
BYBLOCK
 62
     0
100
AcDbPoint
 10
266.104479
 20
139.018925
 30
0.0
  0
POINT
  5
1648C
100
AcDbEntity
  8
DEFPOINTS
  6
BYBLOCK
 62
     0
100
AcDbPoint
 10
260.785802
 20
187.018925
 30
0.0
  0
POINT
  5
1648D
100
AcDbEntity
  8
DEFPOINTS
  6
BYBLOCK
 62
     0
100
AcDbPoint
 10
277.181703
 20
187.018925
 30
0.0
  0
ENDBLK
  5
1648F
100
AcDbEntity
  8
0
100
AcDbBlockEnd
  0
BLOCK
  5
1649A
100
AcDbEntity
  8
0
100
AcDbBlockBegin
  2
*D7
 70
     1
 10
0.0
 20
0.0
 30
0.0
  3
*D7
  1

  0
LINE
  5
16491
100
AcDbEntity
  8
0
  6
BYBLOCK
 62
     0
100
AcDbLine
 10
267.104479
 20
139.018925
 30
0.0
 11
267.104479
 21
198.093802
 31
0.0
  0
LINE
  5
16492
100
AcDbEntity
  8
0
  6
BYBLOCK
 62
     0
100
AcDbLine
 10
240.104479
 20
139.018925
 30
0.0
 11
240.104479
 21
198.093802
 31
0.0
  0
LINE
  5
16493
100
AcDbEntity
  8
0
  6
BYBLOCK
 62
     0
100
AcDbLine
 10
265.104479
 20
197.093802
 30
0.0
 11
242.104479
 21
197.093802
 31
0.0
  0
SOLID
  5
16494
100
AcDbEntity
  8
0
  6
BYBLOCK
 62
     0
100
AcDbTrace
 10
265.104479
 20
197.427135
 30
0.0
 11
265.104479
 21
196.760469
 31
0.0
 12
267.104479
 22
197.093802
 32
0.0
 13
267.104479
 23
197.093802
 33
0.0
  0
SOLID
  5
16495
100
AcDbEntity
  8
0
  6
BYBLOCK
 62
     0
100
AcDbTrace
 10
242.104479
 20
197.427135
 30
0.0
 11
242.104479
 21
196.760469
 31
0.0
 12
240.104479
 22
197.093802
 32
0.0
 13
240.104479
 23
197.093802
 33
0.0
  0
MTEXT
  5
16496
100
AcDbEntity
  8
0
  6
BYBLOCK
 62
     0
100
AcDbMText
 10
253.604479
 20
199.343802
 30
0.0
 40
2.5
 41
0.0
 71
     5
 72
     1
  1
\A1;\U+220527
  0
POINT
  5
16497
100
AcDbEntity
  8
DEFPOINTS
  6
BYBLOCK
 62
     0
100
AcDbPoint
 10
267.104479
 20
138.018925
 30
0.0
  0
POINT
  5
16498
100
AcDbEntity
  8
DEFPOINTS
  6
BYBLOCK
 62
     0
100
AcDbPoint
 10
240.104479
 20
138.018925
 30
0.0
  0
POINT
  5
16499
100
AcDbEntity
  8
DEFPOINTS
  6
BYBLOCK
 62
     0
100
AcDbPoint
 10
240.104479
 20
197.093802
 30
0.0
  0
ENDBLK
  5
1649B
100
AcDbEntity
  8
0
100
AcDbBlockEnd
  0
BLOCK
  5
164A6
100
AcDbEntity
  8
0
100
AcDbBlockBegin
  2
*D8
 70
     1
 10
0.0
 20
0.0
 30
0.0
  3
*D8
  1

  0
LINE
  5
1649D
100
AcDbEntity
  8
0
  6
BYBLOCK
 62
     0
100
AcDbLine
 10
261.785802
 20
187.018925
 30
0.0
 11
286.76918
 21
187.018925
 31
0.0
  0
LINE
  5
1649E
100
AcDbEntity
  8
0
  6
BYBLOCK
 62
     0
100
AcDbLine
 10
263.604479
 20
102.018925
 30
0.0
 11
286.76918
 21
102.018925
 31
0.0
  0
LINE
  5
1649F
100
AcDbEntity
  8
0
  6
BYBLOCK
 62
     0
100
AcDbLine
 10
285.76918
 20
185.018925
 30
0.0
 11
285.76918
 21
104.018925
 31
0.0
  0
SOLID
  5
164A0
100
AcDbEntity
  8
0
  6
BYBLOCK
 62
     0
100
AcDbTrace
 10
285.435847
 20
185.018925
 30
0.0
 11
286.102514
 21
185.018925
 31
0.0
 12
285.76918
 22
187.018925
 32
0.0
 13
285.76918
 23
187.018925
 33
0.0
  0
SOLID
  5
164A1
100
AcDbEntity
  8
0
  6
BYBLOCK
 62
     0
100
AcDbTrace
 10
285.435847
 20
104.018925
 30
0.0
 11
286.102514
 21
104.018925
 31
0.0
 12
285.76918
 22
102.018925
 32
0.0
 13
285.76918
 23
102.018925
 33
0.0
  0
MTEXT
  5
164A2
100
AcDbEntity
  8
0
  6
BYBLOCK
 62
     0
100
AcDbMText
 10
283.51918
 20
144.518925
 30
0.0
 40
2.5
 41
0.0
 71
     5
 72
     1
  1
\A1;85
 11
0.0
 21
1.0
 31
0.0
  0
POINT
  5
164A3
100
AcDbEntity
  8
DEFPOINTS
  6
BYBLOCK
 62
     0
100
AcDbPoint
 10
260.785802
 20
187.018925
 30
0.0
  0
POINT
  5
164A4
100
AcDbEntity
  8
DEFPOINTS
  6
BYBLOCK
 62
     0
100
AcDbPoint
 10
262.604479
 20
102.018925
 30
0.0
  0
POINT
  5
164A5
100
AcDbEntity
  8
DEFPOINTS
  6
BYBLOCK
 62
     0
100
AcDbPoint
 10
285.76918
 20
102.018925
 30
0.0
  0
ENDBLK
  5
164A7
100
AcDbEntity
  8
0
100
AcDbBlockEnd
  0
BLOCK
  5
164B2
100
AcDbEntity
  8
0
100
AcDbBlockBegin
  2
*D9
 70
     1
 10
0.0
 20
0.0
 30
0.0
  3
*D9
  1

  0
LINE
  5
164A9
100
AcDbEntity
  8
0
  6
BYBLOCK
 62
     0
100
AcDbLine
 10
263.604479
 20
102.018925
 30
0.0
 11
278.181703
 21
102.018925
 31
0.0
  0
LINE
  5
164AA
100
AcDbEntity
  8
0
  6
BYBLOCK
 62
     0
100
AcDbLine
 10
267.104479
 20
139.018925
 30
0.0
 11
278.181703
 21
139.018925
 31
0.0
  0
LINE
  5
164AB
100
AcDbEntity
  8
0
  6
BYBLOCK
 62
     0
100
AcDbLine
 10
277.181703
 20
104.018925
 30
0.0
 11
277.181703
 21
137.018925
 31
0.0
  0
SOLID
  5
164AC
100
AcDbEntity
  8
0
  6
BYBLOCK
 62
     0
100
AcDbTrace
 10
276.848369
 20
104.018925
 30
0.0
 11
277.515036
 21
104.018925
 31
0.0
 12
277.181703
 22
102.018925
 32
0.0
 13
277.181703
 23
102.018925
 33
0.0
  0
SOLID
  5
164AD
100
AcDbEntity
  8
0
  6
BYBLOCK
 62
     0
100
AcDbTrace
 10
276.848369
 20
137.018925
 30
0.0
 11
277.515036
 21
137.018925
 31
0.0
 12
277.181703
 22
139.018925
 32
0.0
 13
277.181703
 23
139.018925
 33
0.0
  0
MTEXT
  5
164AE
100
AcDbEntity
  8
0
  6
BYBLOCK
 62
     0
100
AcDbMText
 10
274.931703
 20
120.518925
 30
0.0
 40
2.5
 41
0.0
 71
     5
 72
     1
  1
\A1;37{\H1.250000;±0.05}
 11
0.0
 21
1.0
 31
0.0
  0
POINT
  5
164AF
100
AcDbEntity
  8
DEFPOINTS
  6
BYBLOCK
 62
     0
100
AcDbPoint
 10
262.604479
 20
102.018925
 30
0.0
  0
POINT
  5
164B0
100
AcDbEntity
  8
DEFPOINTS
  6
BYBLOCK
 62
     0
100
AcDbPoint
 10
266.104479
 20
139.018925
 30
0.0
  0
POINT
  5
164B1
100
AcDbEntity
  8
DEFPOINTS
  6
BYBLOCK
 62
     0
100
AcDbPoint
 10
277.181703
 20
139.018925
 30
0.0
  0
ENDBLK
  5
164B3
100
AcDbEntity
  8
0
100
AcDbBlockEnd
  0
BLOCK
  5
164BE
100
AcDbEntity
  8
0
100
AcDbBlockBegin
  2
*D10
 70
     1
 10
0.0
 20
0.0
 30
0.0
  3
*D10
  1

  0
LINE
  5
164B5
100
AcDbEntity
  8
0
  6
BYBLOCK
 62
     0
100
AcDbLine
 10
261.604479
 20
187.018925
 30
0.0
 11
261.604479
 21
192.482462
 31
0.0
  0
LINE
  5
164B6
100
AcDbEntity
  8
0
  6
BYBLOCK
 62
     0
100
AcDbLine
 10
245.604479
 20
187.018925
 30
0.0
 11
245.604479
 21
192.482462
 31
0.0
  0
LINE
  5
164B7
100
AcDbEntity
  8
0
  6
BYBLOCK
 62
     0
100
AcDbLine
 10
259.604479
 20
191.482462
 30
0.0
 11
247.604479
 21
191.482462
 31
0.0
  0
SOLID
  5
164B8
100
AcDbEntity
  8
0
  6
BYBLOCK
 62
     0
100
AcDbTrace
 10
259.604479
 20
191.815795
 30
0.0
 11
259.604479
 21
191.149128
 31
0.0
 12
261.604479
 22
191.482462
 32
0.0
 13
261.604479
 23
191.482462
 33
0.0
  0
SOLID
  5
164B9
100
AcDbEntity
  8
0
  6
BYBLOCK
 62
     0
100
AcDbTrace
 10
247.604479
 20
191.815795
 30
0.0
 11
247.604479
 21
191.149128
 31
0.0
 12
245.604479
 22
191.482462
 32
0.0
 13
245.604479
 23
191.482462
 33
0.0
  0
MTEXT
  5
164BA
100
AcDbEntity
  8
0
  6
BYBLOCK
 62
     0
100
AcDbMText
 10
253.604479
 20
193.940795
 30
0.0
 40
2.5
 41
0.0
 71
     5
 72
     1
  1
\A1;\U+220516{\H1.250000;\S-0.003^ -0.008;}
  0
POINT
  5
164BB
100
AcDbEntity
  8
DEFPOINTS
  6
BYBLOCK
 62
     0
100
AcDbPoint
 10
261.604479
 20
186.018925
 30
0.0
  0
POINT
  5
164BC
100
AcDbEntity
  8
DEFPOINTS
  6
BYBLOCK
 62
     0
100
AcDbPoint
 10
245.604479
 20
186.018925
 30
0.0
  0
POINT
  5
164BD
100
AcDbEntity
  8
DEFPOINTS
  6
BYBLOCK
 62
     0
100
AcDbPoint
 10
245.604479
 20
191.482462
 30
0.0
  0
ENDBLK
  5
164BF
100
AcDbEntity
  8
0
100
AcDbBlockEnd
  0
BLOCK
  5
1650D
100
AcDbEntity
  8
0
100
AcDbBlockBegin
  2
A$C79182DB0
 70
     0
 10
0.0
 20
0.0
 30
0.0
  3
A$C79182DB0
  1

  0
CIRCLE
  5
164C2
102
{ACAD_REACTORS
330
164C4
102
}
100
AcDbEntity
  8
2
100
AcDbCircle
 10
32.40964
 20
7.279172
 30
0.0
 40
1.25
  0
LINE
  5
164C3
102
{ACAD_REACTORS
330
164C4
102
}
100
AcDbEntity
  8
2
100
AcDbLine
 10
31.15964
 20
7.279172
 30
0.0
 11
33.65964
 21
7.279172
 31
0.0
  0
HATCH
  5
164C4
100
AcDbEntity
  8
2
100
AcDbHatch
 10
0.0
 20
0.0
 30
0.0
210
0.0
220
0.0
230
1.0
  2
ANSI31
 70
     0
 71
     1
 91
        2
 92
        7
 72
     1
 73
     1
 93
        3
 10
32.40963989536135
 20
8.529171869380235
 42
0.4142135623730951
 10
31.15963989536135
 20
7.279171869380235
 42
0.0
 10
32.40963989536135
 20
7.279171869380235
 42
0.0
 97
        3
330
164C2
330
164C3
330
164EC
 92
        7
 72
     1
 73
     1
 93
        3
 10
32.40963989536135
 20
6.029171869380235
 42
0.4142135623730951
 10
33.65963989536135
 20
7.279171869380235
 42
0.0
 10
32.40963989536135
 20
7.279171869380235
 42
0.0
 97
        3
330
164C3
330
164EC
330
164C2
 75
     0
 76
     1
 52
0.0
 41
1.0
 77
     0
 78
     1
 53
45.0
 43
-61.000939
 44
-100.935652
 45
-0.0883883476483184
 46
0.0883883476483185
 79
     0
 47
0.01145
 98
        2
 10
32.128978
 20
8.045935
 10
32.667391
 20
6.706247
  0
HATCH
  5
164C5
100
AcDbEntity
  8
2
100
AcDbHatch
 10
0.0
 20
0.0
 30
0.0
210
0.0
220
0.0
230
1.0
  2
ANSI31
 70
     0
 71
     1
 91
        2
 92
        7
 72
     1
 73
     1
 93
        3
 10
32.40963989536135
 20
46.7791718693802
 42
0.4142135623730951
 10
29.90963989536135
 20
44.2791718693802
 42
0.0
 10
32.40963989536135
 20
44.2791718693802
 42
0.0
 97
        3
330
164C7
330
164C6
330
164F1
 92
        7
 72
     1
 73
     1
 93
        3
 10
32.40963989536135
 20
41.7791718693802
 42
0.4142135623730951
 10
34.90963989536135
 20
44.2791718693802
 42
0.0
 10
32.40963989536135
 20
44.2791718693802
 42
0.0
 97
        3
330
164C6
330
164F1
330
164C7
 75
     0
 76
     1
 52
0.0
 41
2.0
 77
     0
 78
     1
 53
45.0
 43
-154.411518
 44
-172.150477
 45
-0.1767766952966369
 46
0.1767766952966369
 79
     0
 47
0.01145
 98
        2
 10
31.848315
 20
45.812698
 10
32.925141
 20
43.133322
  0
LINE
  5
164C6
102
{ACAD_REACTORS
330
164C5
102
}
100
AcDbEntity
  8
2
100
AcDbLine
 10
29.90964
 20
44.279172
 30
0.0
 11
34.90964
 21
44.279172
 31
0.0
  0
CIRCLE
  5
164C7
102
{ACAD_REACTORS
330
164C5
102
}
100
AcDbEntity
  8
2
100
AcDbCircle
 10
32.40964
 20
44.279172
 30
0.0
 40
2.5
  0
LINE
  5
164C8
100
AcDbEntity
  8
6
100
AcDbLine
 10
24.40964
 20
91.279172
 30
0.0
 11
40.40964
 21
91.279172
 31
0.0
  0
LINE
  5
164C9
100
AcDbEntity
  8
6
100
AcDbLine
 10
24.40964
 20
90.879172
 30
0.0
 11
40.40964
 21
90.879172
 31
0.0
  0
LINE
  5
164CA
100
AcDbEntity
  8
1
100
AcDbLine
 10
25.40964
 20
92.279172
 30
0.0
 11
39.40964
 21
92.279172
 31
0.0
  0
DIMENSION
  5
164CB
100
AcDbEntity
  8
2
100
AcDbDimension
  2
*D10
 10
24.40964
 20
96.742709
 30
0.0
 11
32.40964
 21
99.201042
 31
0.0
 12
-221.194839
 22
-94.739753
 32
0.0
 70
     1
  1
%%c<>
  3
STANDARD
100
AcDbAlignedDimension
 13
40.40964
 23
91.279172
 33
0.0
 14
24.40964
 24
91.279172
 34
0.0
1001
ACAD
1000
DSTYLE
1002
{
1070
    78
1070
     8
1070
   284
1070
     8
1070
   140
1040
2.5
1070
    47
1040
-0.003
1070
    71
1070
     1
1070
    74
1070
     0
1070
   172
1070
     1
1070
    48
1040
0.008
1070
    73
1070
     0
1070
   146
1040
0.5
1070
   272
1070
     3
1070
    77
1070
     1
1070
   147
1040
1.0
1070
    42
1040
1.0
1070
    44
1040
1.0
1070
    43
1040
1.0
1070
   271
1070
     3
1070
    41
1040
2.0
1002
}
  0
LINE
  5
164CC
100
AcDbEntity
  8
6
100
AcDbLine
 10
24.40964
 20
88.879172
 30
0.0
 11
40.40964
 21
88.879172
 31
0.0
  0
LINE
  5
164CD
100
AcDbEntity
  8
6
100
AcDbLine
 10
27.35395
 20
73.279172
 30
0.0
 11
37.46533
 21
73.279172
 31
0.0
  0
ARC
  5
164CE
100
AcDbEntity
  8
6
100
AcDbCircle
 10
32.40964
 20
67.079172
 30
0.0
 40
8.0
100
AcDbArc
 50
50.805033
 51
129.194967
  0
LINE
  5
164CF
100
AcDbEntity
  8
6
100
AcDbLine
 10
27.35395
 20
63.279172
 30
0.0
 11
37.46533
 21
63.279172
 31
0.0
  0
ARC
  5
164D0
100
AcDbEntity
  8
6
100
AcDbCircle
 10
32.40964
 20
69.479172
 30
0.0
 40
8.0
100
AcDbArc
 50
230.805033
 51
309.194967
  0
LINE
  5
164D1
100
AcDbEntity
  8
6
100
AcDbLine
 10
27.35395
 20
73.279172
 30
0.0
 11
37.46533
 21
63.279172
 31
0.0
  0
LINE
  5
164D2
100
AcDbEntity
  8
6
100
AcDbLine
 10
37.46533
 20
73.279172
 30
0.0
 11
27.35395
 21
63.279172
 31
0.0
  0
LINE
  5
164D3
100
AcDbEntity
  8
1
100
AcDbLine
 10
19.90964
 20
44.279172
 30
0.0
 11
44.90964
 21
44.279172
 31
0.0
  0
LINE
  5
164D4
100
AcDbEntity
  8
6
100
AcDbLine
 10
24.90964
 20
45.279172
 30
0.0
 11
39.90964
 21
45.279172
 31
0.0
  0
LINE
  5
164D5
100
AcDbEntity
  8
6
100
AcDbLine
 10
24.40964
 20
45.779172
 30
0.0
 11
40.40964
 21
45.779172
 31
0.0
  0
LINE
  5
164D6
100
AcDbEntity
  8
6
100
AcDbLine
 10
32.598347
 20
28.275368
 30
0.0
 11
32.220933
 21
28.275368
 31
0.0
  0
LINE
  5
164D7
100
AcDbEntity
  8
4
100
AcDbLine
 10
23.40964
 20
7.279172
 30
0.0
 11
41.40964
 21
7.279172
 31
0.0
  0
ARC
  5
164D8
100
AcDbEntity
  8
6
100
AcDbCircle
 10
32.40964
 20
15.0
 30
0.0
 40
15.0
100
AcDbArc
 50
240.0
 51
300.0
  0
ARC
  5
164D9
100
AcDbEntity
  8
6
100
AcDbCircle
 10
38.811143
 20
19.277274
 30
0.0
 40
15.001898
100
AcDbArc
 50
90.0
 51
180.415045
  0
LINE
  5
164DA
100
AcDbEntity
  8
6
100
AcDbLine
 10
18.90964
 20
43.279172
 30
0.0
 11
45.90964
 21
43.279172
 31
0.0
  0
DIMENSION
  5
164DB
100
AcDbEntity
  8
2
100
AcDbDimension
  2
*D7
 10
18.90964
 20
102.354049
 30
0.0
 11
32.40964
 21
104.604049
 31
0.0
 12
-221.194839
 22
-94.739753
 32
0.0
  1
%%c<>
  3
STANDARD
100
AcDbAlignedDimension
 13
45.90964
 23
43.279172
 33
0.0
 14
18.90964
 24
43.279172
 34
0.0
100
AcDbRotatedDimension
1001
ACAD
1000
DSTYLE
1002
{
1070
    78
1070
     8
1070
   284
1070
     8
1070
   140
1040
2.5
1070
    47
1040
0.03
1070
    74
1070
     0
1070
   172
1070
     1
1070
    73
1070
     0
1070
   146
1040
0.5
1070
   272
1070
     2
1070
    77
1070
     1
1070
   147
1040
1.0
1070
    42
1040
1.0
1070
    44
1040
1.0
1070
    43
1040
1.0
1070
   271
1070
     2
1070
    41
1040
2.0
1002
}
  0
TEXT
  5
164DC
100
AcDbEntity
  8
SK6
100
AcDbText
 10
1.470939
 20
117.799529
 30
0.0
 40
8.0
  1
99616-IC16-16
  7
STYLE1
100
AcDbText
  0
LINE
  5
164DD
100
AcDbEntity
  8
1
100
AcDbLine
 10
24.40964
 20
88.879172
 30
0.0
 11
24.40964
 21
45.779172
 31
0.0
  0
LINE
  5
164DE
100
AcDbEntity
  8
4
100
AcDbLine
 10
32.40964
 20
94.279172
 30
0.0
 11
32.40964
 21
0.0
 31
0.0
  0
LINE
  5
164DF
100
AcDbEntity
  8
6
100
AcDbLine
 10
25.284336
 20
22.563283
 30
0.0
 11
30.095628
 21
27.392697
 31
0.0
  0
LINE
  5
164E0
100
AcDbEntity
  8
1
100
AcDbLine
 10
18.90964
 20
43.279172
 30
0.0
 11
18.90964
 21
5.473721
 31
0.0
  0
ARC
  5
164E1
100
AcDbEntity
  8
6
100
AcDbCircle
 10
27.40964
 20
20.445954
 30
0.0
 40
3.0
100
AcDbArc
 50
135.107699
 51
180.0
  0
ARC
  5
164E2
100
AcDbEntity
  8
6
100
AcDbCircle
 10
24.776737
 20
9.821193
 30
0.0
 40
0.6
100
AcDbArc
 50
127.721795
 51
286.922472
  0
ARC
  5
164E3
100
AcDbEntity
  8
6
100
AcDbCircle
 10
24.759919
 20
4.735053
 30
0.0
 40
0.6
100
AcDbArc
 50
72.06886
 51
234.281791
  0
LINE
  5
164E4
100
AcDbEntity
  8
1
100
AcDbLine
 10
24.40964
 20
2.298294
 30
0.0
 11
18.90964
 21
5.473721
 31
0.0
  0
ARC
  5
164E5
100
AcDbEntity
  8
6
100
AcDbCircle
 10
58.345382
 20
2.720389
 30
0.0
 40
39.563042
100
AcDbArc
 50
149.63467
 51
174.649101
  0
LINE
  5
164E6
100
AcDbEntity
  8
6
100
AcDbLine
 10
23.809522
 20
12.068922
 30
0.0
 11
23.80964
 21
19.279172
 31
0.0
  0
ARC
  5
164E7
100
AcDbEntity
  8
6
100
AcDbCircle
 10
32.40964
 20
-0.220828
 30
0.0
 40
15.0
100
AcDbArc
 50
124.98355
 51
154.158067
  0
LINE
  5
164E8
100
AcDbEntity
  8
6
100
AcDbLine
 10
24.40964
 20
10.295787
 30
0.0
 11
24.40964
 21
20.445954
 31
0.0
  0
ARC
  5
164E9
100
AcDbEntity
  8
6
100
AcDbCircle
 10
23.40964
 20
7.279172
 30
0.0
 40
2.5
100
AcDbArc
 50
307.879405
 51
51.924647
  0
LINE
  5
164EA
100
AcDbEntity
  8
6
100
AcDbLine
 10
24.90964
 20
2.009619
 30
0.0
 11
24.40964
 21
2.298294
 31
0.0
  0
LINE
  5
164EB
100
AcDbEntity
  8
6
100
AcDbLine
 10
24.40964
 20
2.298294
 30
0.0
 11
24.40964
 21
4.247915
 31
0.0
  0
LINE
  5
164EC
102
{ACAD_REACTORS
330
164C4
102
}
100
AcDbEntity
  8
2
100
AcDbLine
 10
32.40964
 20
8.529172
 30
0.0
 11
32.40964
 21
6.029172
 31
0.0
  0
LINE
  5
164ED
100
AcDbEntity
  8
1
100
AcDbLine
 10
19.90964
 20
44.279172
 30
0.0
 11
18.90964
 21
43.279172
 31
0.0
  0
ARC
  5
164EE
100
AcDbEntity
  8
6
100
AcDbCircle
 10
32.220933
 20
25.275368
 30
0.0
 40
3.0
100
AcDbArc
 50
90.0
 51
135.107699
  0
LINE
  5
164EF
100
AcDbEntity
  8
1
100
AcDbLine
 10
24.40964
 20
45.779172
 30
0.0
 11
24.90964
 21
45.279172
 31
0.0
  0
LINE
  5
164F0
100
AcDbEntity
  8
1
100
AcDbLine
 10
24.90964
 20
45.279172
 30
0.0
 11
24.90964
 21
44.279172
 31
0.0
  0
LINE
  5
164F1
102
{ACAD_REACTORS
330
164C5
102
}
100
AcDbEntity
  8
2
100
AcDbLine
 10
32.40964
 20
46.779172
 30
0.0
 11
32.40964
 21
41.779172
 31
0.0
  0
LINE
  5
164F2
100
AcDbEntity
  8
6
100
AcDbLine
 10
27.35395
 20
73.279172
 30
0.0
 11
27.35395
 21
63.279172
 31
0.0
  0
LINE
  5
164F3
100
AcDbEntity
  8
1
100
AcDbLine
 10
24.40964
 20
91.279172
 30
0.0
 11
25.40964
 21
92.279172
 31
0.0
  0
LINE
  5
164F4
100
AcDbEntity
  8
1
100
AcDbLine
 10
24.40964
 20
91.279172
 30
0.0
 11
24.40964
 21
90.879172
 31
0.0
  0
ARC
  5
164F5
100
AcDbEntity
  8
1
100
AcDbCircle
 10
21.581213
 20
89.879172
 30
0.0
 40
3.0
100
AcDbArc
 50
340.528779
 51
19.471221
  0
DIMENSION
  5
164F6
100
AcDbEntity
  8
2
100
AcDbDimension
  2
*D8
 10
64.574342
 20
7.279172
 30
0.0
 11
62.324342
 21
49.779172
 31
0.0
 12
-221.194839
 22
-94.739753
 32
0.0
  3
STANDARD
100
AcDbAlignedDimension
 13
39.590963
 23
92.279172
 33
0.0
 14
41.40964
 24
7.279172
 34
0.0
 50
90.0
100
AcDbRotatedDimension
1001
ACAD
1000
DSTYLE
1002
{
1070
    78
1070
     8
1070
   284
1070
     8
1070
   140
1040
2.5
1070
    47
1040
0.03
1070
    74
1070
     0
1070
   172
1070
     1
1070
    73
1070
     0
1070
   146
1040
0.5
1070
   272
1070
     2
1070
    77
1070
     1
1070
   147
1040
1.0
1070
    42
1040
1.0
1070
    44
1040
1.0
1070
    43
1040
1.0
1070
   271
1070
     2
1070
    41
1040
2.0
1002
}
  0
LINE
  5
164F7
100
AcDbEntity
  8
1
100
AcDbLine
 10
40.40964
 20
88.879172
 30
0.0
 11
40.40964
 21
45.779172
 31
0.0
  0
DIMENSION
  5
164F8
100
AcDbEntity
  8
2
100
AcDbDimension
  2
*D6
 10
55.986864
 20
92.279172
 30
0.0
 11
53.736864
 21
68.279172
 31
0.0
 12
-221.194839
 22
-94.739753
 32
0.0
  3
STANDARD
100
AcDbAlignedDimension
 13
44.90964
 23
44.279172
 33
0.0
 14
39.590963
 24
92.279172
 34
0.0
 50
90.0
100
AcDbRotatedDimension
1001
ACAD
1000
DSTYLE
1002
{
1070
    78
1070
     8
1070
   284
1070
     8
1070
   140
1040
2.5
1070
    47
1040
0.03
1070
    74
1070
     0
1070
   172
1070
     1
1070
    73
1070
     0
1070
   146
1040
0.5
1070
   272
1070
     2
1070
    77
1070
     1
1070
   147
1040
1.0
1070
    42
1040
1.0
1070
    44
1040
1.0
1070
    43
1040
1.0
1070
   271
1070
     2
1070
    41
1040
2.0
1002
}
  0
DIMENSION
  5
164F9
100
AcDbEntity
  8
2
100
AcDbDimension
  2
*D9
 10
55.986864
 20
44.279172
 30
0.0
 11
53.736864
 21
25.779172
 31
0.0
 12
-221.194839
 22
-94.739753
 32
0.0
  3
STANDARD
100
AcDbAlignedDimension
 13
41.40964
 23
7.279172
 33
0.0
 14
44.90964
 24
44.279172
 34
0.0
 50
90.0
100
AcDbRotatedDimension
1001
ACAD
1000
DSTYLE
1002
{
1070
    78
1070
     8
1070
   284
1070
     8
1070
   140
1040
2.5
1070
    47
1040
0.05
1070
    71
1070
     1
1070
    74
1070
     0
1070
   172
1070
     1
1070
    48
1040
0.05
1070
    73
1070
     0
1070
   146
1040
0.5
1070
   272
1070
     2
1070
    77
1070
     1
1070
   147
1040
1.0
1070
    42
1040
1.0
1070
    44
1040
1.0
1070
    43
1040
1.0
1070
   271
1070
     2
1070
    41
1040
2.0
1002
}
  0
LINE
  5
164FA
100
AcDbEntity
  8
6
100
AcDbLine
 10
34.723651
 20
27.392697
 30
0.0
 11
39.534944
 21
22.563283
 31
0.0
  0
LINE
  5
164FB
100
AcDbEntity
  8
1
100
AcDbLine
 10
45.90964
 20
43.279172
 30
0.0
 11
45.90964
 21
5.473721
 31
0.0
  0
ARC
  5
164FC
100
AcDbEntity
  8
6
100
AcDbCircle
 10
37.40964
 20
20.445954
 30
0.0
 40
3.0
100
AcDbArc
 50
360.0
 51
44.892301
  0
ARC
  5
164FD
100
AcDbEntity
  8
6
100
AcDbCircle
 10
40.042543
 20
9.821193
 30
0.0
 40
0.6
100
AcDbArc
 50
253.077528
 51
52.278205
  0
LINE
  5
164FE
100
AcDbEntity
  8
1
100
AcDbLine
 10
40.40964
 20
2.298294
 30
0.0
 11
45.90964
 21
5.473721
 31
0.0
  0
ARC
  5
164FF
100
AcDbEntity
  8
6
100
AcDbCircle
 10
40.05936
 20
4.735053
 30
0.0
 40
0.6
100
AcDbArc
 50
305.718209
 51
107.93114
  0
LINE
  5
16500
100
AcDbEntity
  8
6
100
AcDbLine
 10
40.40964
 20
10.295787
 30
0.0
 11
40.40964
 21
20.445954
 31
0.0
  0
ARC
  5
16501
100
AcDbEntity
  8
6
100
AcDbCircle
 10
41.40964
 20
7.279172
 30
0.0
 40
2.5
100
AcDbArc
 50
128.075353
 51
232.120595
  0
LINE
  5
16502
100
AcDbEntity
  8
6
100
AcDbLine
 10
39.90964
 20
2.009619
 30
0.0
 11
40.40964
 21
2.298294
 31
0.0
  0
LINE
  5
16503
100
AcDbEntity
  8
6
100
AcDbLine
 10
40.40964
 20
2.298294
 30
0.0
 11
40.40964
 21
4.247915
 31
0.0
  0
LINE
  5
16504
100
AcDbEntity
  8
6
100
AcDbLine
 10
45.959548
 20
34.279172
 30
0.0
 11
38.80964
 21
34.279172
 31
0.0
  0
ARC
  5
16505
100
AcDbEntity
  8
6
100
AcDbCircle
 10
32.598347
 20
25.275368
 30
0.0
 40
3.0
100
AcDbArc
 50
44.892301
 51
90.0
  0
LINE
  5
16506
100
AcDbEntity
  8
1
100
AcDbLine
 10
39.90964
 20
45.279172
 30
0.0
 11
39.90964
 21
44.279172
 31
0.0
  0
LINE
  5
16507
100
AcDbEntity
  8
1
100
AcDbLine
 10
40.40964
 20
45.779172
 30
0.0
 11
39.90964
 21
45.279172
 31
0.0
  0
LINE
  5
16508
100
AcDbEntity
  8
1
100
AcDbLine
 10
44.90964
 20
44.279172
 30
0.0
 11
45.90964
 21
43.279172
 31
0.0
  0
LINE
  5
16509
100
AcDbEntity
  8
6
100
AcDbLine
 10
37.46533
 20
73.279172
 30
0.0
 11
37.46533
 21
63.279172
 31
0.0
  0
LINE
  5
1650A
100
AcDbEntity
  8
1
100
AcDbLine
 10
39.40964
 20
92.279172
 30
0.0
 11
40.40964
 21
91.279172
 31
0.0
  0
LINE
  5
1650B
100
AcDbEntity
  8
1
100
AcDbLine
 10
40.40964
 20
91.279172
 30
0.0
 11
40.40964
 21
90.879172
 31
0.0
  0
ARC
  5
1650C
100
AcDbEntity
  8
1
100
AcDbCircle
 10
43.238067
 20
89.879172
 30
0.0
 40
3.0
100
AcDbArc
 50
160.528779
 51
199.471221
  0
ENDBLK
  5
1650E
100
AcDbEntity
  8
0
100
AcDbBlockEnd
  0
BLOCK
  5
16598
100
AcDbEntity
  8
0
100
AcDbBlockBegin
  2
*D12
 70
     1
 10
0.0
 20
0.0
 30
0.0
  3
*D12
  1

  0
LINE
  5
16599
100
AcDbEntity
  8
0
  6
BYBLOCK
 62
     0
100
AcDbLine
 10
-30.86936
 20
162.963362
 30
0.0
 11
-30.86936
 21
168.426899
 31
0.0
  0
LINE
  5
1659A
100
AcDbEntity
  8
0
  6
BYBLOCK
 62
     0
100
AcDbLine
 10
-46.86936
 20
162.963362
 30
0.0
 11
-46.86936
 21
168.426899
 31
0.0
  0
LINE
  5
1659B
100
AcDbEntity
  8
0
  6
BYBLOCK
 62
     0
100
AcDbLine
 10
-32.86936
 20
167.426899
 30
0.0
 11
-44.86936
 21
167.426899
 31
0.0
  0
SOLID
  5
1659C
100
AcDbEntity
  8
0
  6
BYBLOCK
 62
     0
100
AcDbTrace
 10
-32.86936
 20
167.760233
 30
0.0
 11
-32.86936
 21
167.093566
 31
0.0
 12
-30.86936
 22
167.426899
 32
0.0
 13
-30.86936
 23
167.426899
 33
0.0
  0
SOLID
  5
1659D
100
AcDbEntity
  8
0
  6
BYBLOCK
 62
     0
100
AcDbTrace
 10
-44.86936
 20
167.760233
 30
0.0
 11
-44.86936
 21
167.093566
 31
0.0
 12
-46.86936
 22
167.426899
 32
0.0
 13
-46.86936
 23
167.426899
 33
0.0
  0
MTEXT
  5
1659E
100
AcDbEntity
  8
0
  6
BYBLOCK
 62
     0
100
AcDbMText
 10
-38.86936
 20
169.885233
 30
0.0
 40
2.5
 41
0.0
 71
     5
 72
     1
  1
\A1;\U+220516{\H1.250000;\S-0.003^ -0.008;}
  0
POINT
  5
1659F
100
AcDbEntity
  8
DEFPOINTS
  6
BYBLOCK
 62
     0
100
AcDbPoint
 10
-30.86936
 20
161.963362
 30
0.0
  0
POINT
  5
165A0
100
AcDbEntity
  8
DEFPOINTS
  6
BYBLOCK
 62
     0
100
AcDbPoint
 10
-46.86936
 20
161.963362
 30
0.0
  0
POINT
  5
165A1
100
AcDbEntity
  8
DEFPOINTS
  6
BYBLOCK
 62
     0
100
AcDbPoint
 10
-46.86936
 20
167.426899
 30
0.0
  0
ENDBLK
  5
165A2
100
AcDbEntity
  8
0
100
AcDbBlockEnd
  0
BLOCK
  5
165CF
100
AcDbEntity
  8
0
100
AcDbBlockBegin
  2
*D13
 70
     1
 10
0.0
 20
0.0
 30
0.0
  3
*D13
  1

  0
LINE
  5
165D0
100
AcDbEntity
  8
0
  6
BYBLOCK
 62
     0
100
AcDbLine
 10
111.121966
 20
123.077139
 30
0.0
 11
111.121966
 21
185.101022
 31
0.0
  0
LINE
  5
165D1
100
AcDbEntity
  8
0
  6
BYBLOCK
 62
     0
100
AcDbLine
 10
84.121966
 20
123.077139
 30
0.0
 11
84.121966
 21
185.101022
 31
0.0
  0
LINE
  5
165D2
100
AcDbEntity
  8
0
  6
BYBLOCK
 62
     0
100
AcDbLine
 10
109.121966
 20
184.101022
 30
0.0
 11
86.121966
 21
184.101022
 31
0.0
  0
SOLID
  5
165D3
100
AcDbEntity
  8
0
  6
BYBLOCK
 62
     0
100
AcDbTrace
 10
109.121966
 20
184.434355
 30
0.0
 11
109.121966
 21
183.767689
 31
0.0
 12
111.121966
 22
184.101022
 32
0.0
 13
111.121966
 23
184.101022
 33
0.0
  0
SOLID
  5
165D4
100
AcDbEntity
  8
0
  6
BYBLOCK
 62
     0
100
AcDbTrace
 10
86.121966
 20
184.434355
 30
0.0
 11
86.121966
 21
183.767689
 31
0.0
 12
84.121966
 22
184.101022
 32
0.0
 13
84.121966
 23
184.101022
 33
0.0
  0
MTEXT
  5
165D5
100
AcDbEntity
  8
0
  6
BYBLOCK
 62
     0
100
AcDbMText
 10
97.621966
 20
186.351022
 30
0.0
 40
2.5
 41
0.0
 71
     5
 72
     1
  1
\A1;\U+220527
  0
POINT
  5
165D6
100
AcDbEntity
  8
DEFPOINTS
  6
BYBLOCK
 62
     0
100
AcDbPoint
 10
111.121966
 20
122.077139
 30
0.0
  0
POINT
  5
165D7
100
AcDbEntity
  8
DEFPOINTS
  6
BYBLOCK
 62
     0
100
AcDbPoint
 10
84.121966
 20
122.077139
 30
0.0
  0
POINT
  5
165D8
100
AcDbEntity
  8
DEFPOINTS
  6
BYBLOCK
 62
     0
100
AcDbPoint
 10
84.121966
 20
184.101022
 30
0.0
  0
ENDBLK
  5
165D9
100
AcDbEntity
  8
0
100
AcDbBlockEnd
  0
BLOCK
  5
165AE
100
AcDbEntity
  8
0
100
AcDbBlockBegin
  2
*D14
 70
     1
 10
0.0
 20
0.0
 30
0.0
  3
*D14
  1

  0
LINE
  5
165AF
100
AcDbEntity
  8
0
  6
BYBLOCK
 62
     0
100
AcDbLine
 10
-30.688036
 20
162.963362
 30
0.0
 11
-5.704658
 21
162.963362
 31
0.0
  0
LINE
  5
165B0
100
AcDbEntity
  8
0
  6
BYBLOCK
 62
     0
100
AcDbLine
 10
-28.86936
 20
77.963362
 30
0.0
 11
-5.704658
 21
77.963362
 31
0.0
  0
LINE
  5
165B1
100
AcDbEntity
  8
0
  6
BYBLOCK
 62
     0
100
AcDbLine
 10
-6.704658
 20
160.963362
 30
0.0
 11
-6.704658
 21
79.963362
 31
0.0
  0
SOLID
  5
165B2
100
AcDbEntity
  8
0
  6
BYBLOCK
 62
     0
100
AcDbTrace
 10
-7.037991
 20
160.963362
 30
0.0
 11
-6.371325
 21
160.963362
 31
0.0
 12
-6.704658
 22
162.963362
 32
0.0
 13
-6.704658
 23
162.963362
 33
0.0
  0
SOLID
  5
165B3
100
AcDbEntity
  8
0
  6
BYBLOCK
 62
     0
100
AcDbTrace
 10
-7.037991
 20
79.963362
 30
0.0
 11
-6.371325
 21
79.963362
 31
0.0
 12
-6.704658
 22
77.963362
 32
0.0
 13
-6.704658
 23
77.963362
 33
0.0
  0
MTEXT
  5
165B4
100
AcDbEntity
  8
0
  6
BYBLOCK
 62
     0
100
AcDbMText
 10
-8.954658
 20
120.463362
 30
0.0
 40
2.5
 41
0.0
 71
     5
 72
     1
  1
\A1;85
 11
0.0
 21
1.0
 31
0.0
  0
POINT
  5
165B5
100
AcDbEntity
  8
DEFPOINTS
  6
BYBLOCK
 62
     0
100
AcDbPoint
 10
-31.688036
 20
162.963362
 30
0.0
  0
POINT
  5
165B6
100
AcDbEntity
  8
DEFPOINTS
  6
BYBLOCK
 62
     0
100
AcDbPoint
 10
-29.86936
 20
77.963362
 30
0.0
  0
POINT
  5
165B7
100
AcDbEntity
  8
DEFPOINTS
  6
BYBLOCK
 62
     0
100
AcDbPoint
 10
-6.704658
 20
77.963362
 30
0.0
  0
ENDBLK
  5
165B8
100
AcDbEntity
  8
0
100
AcDbBlockEnd
  0
BLOCK
  5
165B9
100
AcDbEntity
  8
0
100
AcDbBlockBegin
  2
*D15
 70
     1
 10
0.0
 20
0.0
 30
0.0
  3
*D15
  1

  0
LINE
  5
165BA
100
AcDbEntity
  8
0
  6
BYBLOCK
 62
     0
100
AcDbLine
 10
-25.36936
 20
114.963362
 30
0.0
 11
-14.292136
 21
114.963362
 31
0.0
  0
LINE
  5
165BB
100
AcDbEntity
  8
0
  6
BYBLOCK
 62
     0
100
AcDbLine
 10
-30.688036
 20
162.963362
 30
0.0
 11
-14.292136
 21
162.963362
 31
0.0
  0
LINE
  5
165BC
100
AcDbEntity
  8
0
  6
BYBLOCK
 62
     0
100
AcDbLine
 10
-15.292136
 20
116.963362
 30
0.0
 11
-15.292136
 21
160.963362
 31
0.0
  0
SOLID
  5
165BD
100
AcDbEntity
  8
0
  6
BYBLOCK
 62
     0
100
AcDbTrace
 10
-15.625469
 20
116.963362
 30
0.0
 11
-14.958802
 21
116.963362
 31
0.0
 12
-15.292136
 22
114.963362
 32
0.0
 13
-15.292136
 23
114.963362
 33
0.0
  0
SOLID
  5
165BE
100
AcDbEntity
  8
0
  6
BYBLOCK
 62
     0
100
AcDbTrace
 10
-15.625469
 20
160.963362
 30
0.0
 11
-14.958802
 21
160.963362
 31
0.0
 12
-15.292136
 22
162.963362
 32
0.0
 13
-15.292136
 23
162.963362
 33
0.0
  0
MTEXT
  5
165BF
100
AcDbEntity
  8
0
  6
BYBLOCK
 62
     0
100
AcDbMText
 10
-17.542136
 20
138.963362
 30
0.0
 40
2.5
 41
0.0
 71
     5
 72
     1
  1
\A1;48
 11
0.0
 21
1.0
 31
0.0
  0
POINT
  5
165C0
100
AcDbEntity
  8
DEFPOINTS
  6
BYBLOCK
 62
     0
100
AcDbPoint
 10
-26.36936
 20
114.963362
 30
0.0
  0
POINT
  5
165C1
100
AcDbEntity
  8
DEFPOINTS
  6
BYBLOCK
 62
     0
100
AcDbPoint
 10
-31.688036
 20
162.963362
 30
0.0
  0
POINT
  5
165C2
100
AcDbEntity
  8
DEFPOINTS
  6
BYBLOCK
 62
     0
100
AcDbPoint
 10
-15.292136
 20
162.963362
 30
0.0
  0
ENDBLK
  5
165C3
100
AcDbEntity
  8
0
100
AcDbBlockEnd
  0
BLOCK
  5
165C4
100
AcDbEntity
  8
0
100
AcDbBlockBegin
  2
*D16
 70
     1
 10
0.0
 20
0.0
 30
0.0
  3
*D16
  1

  0
LINE
  5
165C5
100
AcDbEntity
  8
0
  6
BYBLOCK
 62
     0
100
AcDbLine
 10
-28.86936
 20
77.963362
 30
0.0
 11
-14.292136
 21
77.963362
 31
0.0
  0
LINE
  5
165C6
100
AcDbEntity
  8
0
  6
BYBLOCK
 62
     0
100
AcDbLine
 10
-25.36936
 20
114.963362
 30
0.0
 11
-14.292136
 21
114.963362
 31
0.0
  0
LINE
  5
165C7
100
AcDbEntity
  8
0
  6
BYBLOCK
 62
     0
100
AcDbLine
 10
-15.292136
 20
79.963362
 30
0.0
 11
-15.292136
 21
112.963362
 31
0.0
  0
SOLID
  5
165C8
100
AcDbEntity
  8
0
  6
BYBLOCK
 62
     0
100
AcDbTrace
 10
-15.625469
 20
79.963362
 30
0.0
 11
-14.958802
 21
79.963362
 31
0.0
 12
-15.292136
 22
77.963362
 32
0.0
 13
-15.292136
 23
77.963362
 33
0.0
  0
SOLID
  5
165C9
100
AcDbEntity
  8
0
  6
BYBLOCK
 62
     0
100
AcDbTrace
 10
-15.625469
 20
112.963362
 30
0.0
 11
-14.958802
 21
112.963362
 31
0.0
 12
-15.292136
 22
114.963362
 32
0.0
 13
-15.292136
 23
114.963362
 33
0.0
  0
MTEXT
  5
165CA
100
AcDbEntity
  8
0
  6
BYBLOCK
 62
     0
100
AcDbMText
 10
-17.542136
 20
96.463362
 30
0.0
 40
2.5
 41
0.0
 71
     5
 72
     1
  1
\A1;37{\H1.250000;±0.05}
 11
0.0
 21
1.0
 31
0.0
  0
POINT
  5
165CB
100
AcDbEntity
  8
DEFPOINTS
  6
BYBLOCK
 62
     0
100
AcDbPoint
 10
-29.86936
 20
77.963362
 30
0.0
  0
POINT
  5
165CC
100
AcDbEntity
  8
DEFPOINTS
  6
BYBLOCK
 62
     0
100
AcDbPoint
 10
-26.36936
 20
114.963362
 30
0.0
  0
POINT
  5
165CD
100
AcDbEntity
  8
DEFPOINTS
  6
BYBLOCK
 62
     0
100
AcDbPoint
 10
-15.292136
 20
114.963362
 30
0.0
  0
ENDBLK
  5
165CE
100
AcDbEntity
  8
0
100
AcDbBlockEnd
  0
ENDSEC
  0
SECTION
  2
ENTITIES
  0
TEXT
  5
1E04
100
AcDbEntity
  8
6
100
AcDbText
 10
72.5
 20
8.5
 30
0.0
 40
3.0
  1

  7
STYLE1
100
AcDbText
  0
TEXT
  5
7DC0
100
AcDbEntity
  8
6
100
AcDbText
 10
272.5
 20
8.5
 30
0.0
 40
3.0
  1

  7
STYLE1
100
AcDbText
  0
TEXT
  5
B823
100
AcDbEntity
  8
6
100
AcDbText
 10
272.5
 20
8.5
 30
0.0
 40
3.0
  1

  7
STYLE1
100
AcDbText
  0
TEXT
  5
B84F
100
AcDbEntity
  8
6
100
AcDbText
 10
472.5
 20
8.5
 30
0.0
 40
3.0
  1

  7
STYLE1
100
AcDbText
  0
TEXT
  5
B898
100
AcDbEntity
  8
6
100
AcDbText
 10
472.5
 20
8.5
 30
0.0
 40
3.0
  1

  7
STYLE1
100
AcDbText
  0
TEXT
  5
B899
100
AcDbEntity
  8
6
100
AcDbText
 10
672.5
 20
8.5
 30
0.0
 40
3.0
  1

  7
STYLE1
100
AcDbText
  0
TEXT
  5
BB88
100
AcDbEntity
  8
6
100
AcDbText
 10
272.5
 20
8.5
 30
0.0
 40
3.0
  1

  7
STYLE1
100
AcDbText
  0
TEXT
  5
BBB4
100
AcDbEntity
  8
6
100
AcDbText
 10
472.5
 20
8.5
 30
0.0
 40
3.0
  1

  7
STYLE1
100
AcDbText
  0
TEXT
  5
BBB5
100
AcDbEntity
  8
6
100
AcDbText
 10
472.5
 20
8.5
 30
0.0
 40
3.0
  1

  7
STYLE1
100
AcDbText
  0
TEXT
  5
BBB6
100
AcDbEntity
  8
6
100
AcDbText
 10
672.5
 20
8.5
 30
0.0
 40
3.0
  1

  7
STYLE1
100
AcDbText
  0
TEXT
  5
132C2
100
AcDbEntity
  8
6
100
AcDbText
 10
272.5
 20
8.5
 30
0.0
 40
3.0
  1

  7
STYLE1
100
AcDbText
  0
TEXT
  5
132C3
100
AcDbEntity
  8
6
100
AcDbText
 10
472.5
 20
8.5
 30
0.0
 40
3.0
  1

  7
STYLE1
100
AcDbText
  0
TEXT
  5
132C4
100
AcDbEntity
  8
6
100
AcDbText
 10
472.5
 20
8.5
 30
0.0
 40
3.0
  1

  7
STYLE1
100
AcDbText
  0
TEXT
  5
132C5
100
AcDbEntity
  8
6
100
AcDbText
 10
672.5
 20
8.5
 30
0.0
 40
3.0
  1

  7
STYLE1
100
AcDbText
  0
TEXT
  5
132C6
100
AcDbEntity
  8
6
100
AcDbText
 10
672.5
 20
8.5
 30
0.0
 40
3.0
  1

  7
STYLE1
100
AcDbText
  0
TEXT
  5
132C7
100
AcDbEntity
  8
6
100
AcDbText
 10
872.5
 20
8.5
 30
0.0
 40
3.0
  1

  7
STYLE1
100
AcDbText
  0
TEXT
  5
132C8
100
AcDbEntity
  8
6
100
AcDbText
 10
472.5
 20
8.5
 30
0.0
 40
3.0
  1

  7
STYLE1
100
AcDbText
  0
TEXT
  5
132C9
100
AcDbEntity
  8
6
100
AcDbText
 10
672.5
 20
8.5
 30
0.0
 40
3.0
  1

  7
STYLE1
100
AcDbText
  0
TEXT
  5
132CA
100
AcDbEntity
  8
6
100
AcDbText
 10
672.5
 20
8.5
 30
0.0
 40
3.0
  1

  7
STYLE1
100
AcDbText
  0
TEXT
  5
132CB
100
AcDbEntity
  8
6
100
AcDbText
 10
872.5
 20
8.5
 30
0.0
 40
3.0
  1

  7
STYLE1
100
AcDbText
  0
TEXT
  5
132D1
100
AcDbEntity
  8
6
100
AcDbText
 10
472.5
 20
8.5
 30
0.0
 40
3.0
  1

  7
STYLE1
100
AcDbText
  0
TEXT
  5
132FD
100
AcDbEntity
  8
6
100
AcDbText
 10
672.5
 20
8.5
 30
0.0
 40
3.0
  1

  7
STYLE1
100
AcDbText
  0
TEXT
  5
132FE
100
AcDbEntity
  8
6
100
AcDbText
 10
672.5
 20
8.5
 30
0.0
 40
3.0
  1

  7
STYLE1
100
AcDbText
  0
TEXT
  5
132FF
100
AcDbEntity
  8
6
100
AcDbText
 10
872.5
 20
8.5
 30
0.0
 40
3.0
  1

  7
STYLE1
100
AcDbText
  0
TEXT
  5
13300
100
AcDbEntity
  8
6
100
AcDbText
 10
872.5
 20
8.5
 30
0.0
 40
3.0
  1

  7
STYLE1
100
AcDbText
  0
TEXT
  5
13301
100
AcDbEntity
  8
6
100
AcDbText
 10
1072.5
 20
8.5
 30
0.0
 40
3.0
  1

  7
STYLE1
100
AcDbText
  0
TEXT
  5
13302
100
AcDbEntity
  8
6
100
AcDbText
 10
672.5
 20
8.5
 30
0.0
 40
3.0
  1

  7
STYLE1
100
AcDbText
  0
TEXT
  5
13303
100
AcDbEntity
  8
6
100
AcDbText
 10
872.5
 20
8.5
 30
0.0
 40
3.0
  1

  7
STYLE1
100
AcDbText
  0
TEXT
  5
13304
100
AcDbEntity
  8
6
100
AcDbText
 10
872.5
 20
8.5
 30
0.0
 40
3.0
  1

  7
STYLE1
100
AcDbText
  0
TEXT
  5
13305
100
AcDbEntity
  8
6
100
AcDbText
 10
1072.5
 20
8.5
 30
0.0
 40
3.0
  1

  7
STYLE1
100
AcDbText
  0
TEXT
  5
1382A
100
AcDbEntity
  8
6
100
AcDbText
 10
272.5
 20
8.5
 30
0.0
 40
3.0
  1

  7
STYLE1
100
AcDbText
  0
TEXT
  5
1382B
100
AcDbEntity
  8
6
100
AcDbText
 10
472.5
 20
8.5
 30
0.0
 40
3.0
  1

  7
STYLE1
100
AcDbText
  0
TEXT
  5
1382C
100
AcDbEntity
  8
6
100
AcDbText
 10
472.5
 20
8.5
 30
0.0
 40
3.0
  1

  7
STYLE1
100
AcDbText
  0
TEXT
  5
1382D
100
AcDbEntity
  8
6
100
AcDbText
 10
672.5
 20
8.5
 30
0.0
 40
3.0
  1

  7
STYLE1
100
AcDbText
  0
TEXT
  5
1382E
100
AcDbEntity
  8
6
100
AcDbText
 10
672.5
 20
8.5
 30
0.0
 40
3.0
  1

  7
STYLE1
100
AcDbText
  0
TEXT
  5
1382F
100
AcDbEntity
  8
6
100
AcDbText
 10
872.5
 20
8.5
 30
0.0
 40
3.0
  1

  7
STYLE1
100
AcDbText
  0
TEXT
  5
13830
100
AcDbEntity
  8
6
100
AcDbText
 10
472.5
 20
8.5
 30
0.0
 40
3.0
  1

  7
STYLE1
100
AcDbText
  0
TEXT
  5
13831
100
AcDbEntity
  8
6
100
AcDbText
 10
672.5
 20
8.5
 30
0.0
 40
3.0
  1

  7
STYLE1
100
AcDbText
  0
TEXT
  5
13832
100
AcDbEntity
  8
6
100
AcDbText
 10
672.5
 20
8.5
 30
0.0
 40
3.0
  1

  7
STYLE1
100
AcDbText
  0
TEXT
  5
13833
100
AcDbEntity
  8
6
100
AcDbText
 10
872.5
 20
8.5
 30
0.0
 40
3.0
  1

  7
STYLE1
100
AcDbText
  0
TEXT
  5
13839
100
AcDbEntity
  8
6
100
AcDbText
 10
472.5
 20
8.5
 30
0.0
 40
3.0
  1

  7
STYLE1
100
AcDbText
  0
TEXT
  5
13865
100
AcDbEntity
  8
6
100
AcDbText
 10
672.5
 20
8.5
 30
0.0
 40
3.0
  1

  7
STYLE1
100
AcDbText
  0
TEXT
  5
13866
100
AcDbEntity
  8
6
100
AcDbText
 10
672.5
 20
8.5
 30
0.0
 40
3.0
  1

  7
STYLE1
100
AcDbText
  0
TEXT
  5
13867
100
AcDbEntity
  8
6
100
AcDbText
 10
872.5
 20
8.5
 30
0.0
 40
3.0
  1

  7
STYLE1
100
AcDbText
  0
TEXT
  5
13868
100
AcDbEntity
  8
6
100
AcDbText
 10
872.5
 20
8.5
 30
0.0
 40
3.0
  1

  7
STYLE1
100
AcDbText
  0
TEXT
  5
13869
100
AcDbEntity
  8
6
100
AcDbText
 10
1072.5
 20
8.5
 30
0.0
 40
3.0
  1

  7
STYLE1
100
AcDbText
  0
TEXT
  5
1386A
100
AcDbEntity
  8
6
100
AcDbText
 10
672.5
 20
8.5
 30
0.0
 40
3.0
  1

  7
STYLE1
100
AcDbText
  0
TEXT
  5
1386B
100
AcDbEntity
  8
6
100
AcDbText
 10
872.5
 20
8.5
 30
0.0
 40
3.0
  1

  7
STYLE1
100
AcDbText
  0
TEXT
  5
1386C
100
AcDbEntity
  8
6
100
AcDbText
 10
872.5
 20
8.5
 30
0.0
 40
3.0
  1

  7
STYLE1
100
AcDbText
  0
TEXT
  5
1386D
100
AcDbEntity
  8
6
100
AcDbText
 10
1072.5
 20
8.5
 30
0.0
 40
3.0
  1

  7
STYLE1
100
AcDbText
  0
TEXT
  5
13E29
100
AcDbEntity
  8
6
100
AcDbText
 10
272.5
 20
8.5
 30
0.0
 40
3.0
  1

  7
STYLE1
100
AcDbText
  0
TEXT
  5
13E55
100
AcDbEntity
  8
6
100
AcDbText
 10
472.5
 20
8.5
 30
0.0
 40
3.0
  1

  7
STYLE1
100
AcDbText
  0
TEXT
  5
13E56
100
AcDbEntity
  8
6
100
AcDbText
 10
472.5
 20
8.5
 30
0.0
 40
3.0
  1

  7
STYLE1
100
AcDbText
  0
TEXT
  5
13E57
100
AcDbEntity
  8
6
100
AcDbText
 10
672.5
 20
8.5
 30
0.0
 40
3.0
  1

  7
STYLE1
100
AcDbText
  0
TEXT
  5
13E58
100
AcDbEntity
  8
6
100
AcDbText
 10
672.5
 20
8.5
 30
0.0
 40
3.0
  1

  7
STYLE1
100
AcDbText
  0
TEXT
  5
13E59
100
AcDbEntity
  8
6
100
AcDbText
 10
872.5
 20
8.5
 30
0.0
 40
3.0
  1

  7
STYLE1
100
AcDbText
  0
TEXT
  5
13E5A
100
AcDbEntity
  8
6
100
AcDbText
 10
472.5
 20
8.5
 30
0.0
 40
3.0
  1

  7
STYLE1
100
AcDbText
  0
TEXT
  5
13E5B
100
AcDbEntity
  8
6
100
AcDbText
 10
672.5
 20
8.5
 30
0.0
 40
3.0
  1

  7
STYLE1
100
AcDbText
  0
TEXT
  5
13E5C
100
AcDbEntity
  8
6
100
AcDbText
 10
672.5
 20
8.5
 30
0.0
 40
3.0
  1

  7
STYLE1
100
AcDbText
  0
TEXT
  5
13E5D
100
AcDbEntity
  8
6
100
AcDbText
 10
872.5
 20
8.5
 30
0.0
 40
3.0
  1

  7
STYLE1
100
AcDbText
  0
TEXT
  5
13EAD
100
AcDbEntity
  8
6
100
AcDbText
 10
472.5
 20
8.5
 30
0.0
 40
3.0
  1

  7
STYLE1
100
AcDbText
  0
TEXT
  5
13EAE
100
AcDbEntity
  8
6
100
AcDbText
 10
672.5
 20
8.5
 30
0.0
 40
3.0
  1

  7
STYLE1
100
AcDbText
  0
TEXT
  5
13EAF
100
AcDbEntity
  8
6
100
AcDbText
 10
672.5
 20
8.5
 30
0.0
 40
3.0
  1

  7
STYLE1
100
AcDbText
  0
TEXT
  5
13EB0
100
AcDbEntity
  8
6
100
AcDbText
 10
872.5
 20
8.5
 30
0.0
 40
3.0
  1

  7
STYLE1
100
AcDbText
  0
TEXT
  5
13EB1
100
AcDbEntity
  8
6
100
AcDbText
 10
872.5
 20
8.5
 30
0.0
 40
3.0
  1

  7
STYLE1
100
AcDbText
  0
TEXT
  5
13EB2
100
AcDbEntity
  8
6
100
AcDbText
 10
1072.5
 20
8.5
 30
0.0
 40
3.0
  1

  7
STYLE1
100
AcDbText
  0
TEXT
  5
13EB3
100
AcDbEntity
  8
6
100
AcDbText
 10
672.5
 20
8.5
 30
0.0
 40
3.0
  1

  7
STYLE1
100
AcDbText
  0
TEXT
  5
13EB4
100
AcDbEntity
  8
6
100
AcDbText
 10
872.5
 20
8.5
 30
0.0
 40
3.0
  1

  7
STYLE1
100
AcDbText
  0
TEXT
  5
13EB5
100
AcDbEntity
  8
6
100
AcDbText
 10
872.5
 20
8.5
 30
0.0
 40
3.0
  1

  7
STYLE1
100
AcDbText
  0
TEXT
  5
13EB6
100
AcDbEntity
  8
6
100
AcDbText
 10
1072.5
 20
8.5
 30
0.0
 40
3.0
  1

  7
STYLE1
100
AcDbText
  0
TEXT
  5
13EB7
100
AcDbEntity
  8
6
100
AcDbText
 10
672.5
 20
8.5
 30
0.0
 40
3.0
  1

  7
STYLE1
100
AcDbText
  0
TEXT
  5
13EB8
100
AcDbEntity
  8
6
100
AcDbText
 10
872.5
 20
8.5
 30
0.0
 40
3.0
  1

  7
STYLE1
100
AcDbText
  0
TEXT
  5
13EB9
100
AcDbEntity
  8
6
100
AcDbText
 10
872.5
 20
8.5
 30
0.0
 40
3.0
  1

  7
STYLE1
100
AcDbText
  0
TEXT
  5
13EBA
100
AcDbEntity
  8
6
100
AcDbText
 10
1072.5
 20
8.5
 30
0.0
 40
3.0
  1

  7
STYLE1
100
AcDbText
  0
TEXT
  5
13EBB
100
AcDbEntity
  8
6
100
AcDbText
 10
1072.5
 20
8.5
 30
0.0
 40
3.0
  1

  7
STYLE1
100
AcDbText
  0
TEXT
  5
13EBC
100
AcDbEntity
  8
6
100
AcDbText
 10
1272.5
 20
8.5
 30
0.0
 40
3.0
  1

  7
STYLE1
100
AcDbText
  0
TEXT
  5
13EBD
100
AcDbEntity
  8
6
100
AcDbText
 10
872.5
 20
8.5
 30
0.0
 40
3.0
  1

  7
STYLE1
100
AcDbText
  0
TEXT
  5
13EBE
100
AcDbEntity
  8
6
100
AcDbText
 10
1072.5
 20
8.5
 30
0.0
 40
3.0
  1

  7
STYLE1
100
AcDbText
  0
TEXT
  5
13EBF
100
AcDbEntity
  8
6
100
AcDbText
 10
1072.5
 20
8.5
 30
0.0
 40
3.0
  1

  7
STYLE1
100
AcDbText
  0
TEXT
  5
13EC0
100
AcDbEntity
  8
6
100
AcDbText
 10
1272.5
 20
8.5
 30
0.0
 40
3.0
  1

  7
STYLE1
100
AcDbText
  0
TEXT
  5
13ED1
100
AcDbEntity
  8
6
100
AcDbText
 10
472.5
 20
8.5
 30
0.0
 40
3.0
  1

  7
STYLE1
100
AcDbText
  0
TEXT
  5
13ED2
100
AcDbEntity
  8
6
100
AcDbText
 10
672.5
 20
8.5
 30
0.0
 40
3.0
  1

  7
STYLE1
100
AcDbText
  0
TEXT
  5
13ED3
100
AcDbEntity
  8
6
100
AcDbText
 10
672.5
 20
8.5
 30
0.0
 40
3.0
  1

  7
STYLE1
100
AcDbText
  0
TEXT
  5
13ED4
100
AcDbEntity
  8
6
100
AcDbText
 10
872.5
 20
8.5
 30
0.0
 40
3.0
  1

  7
STYLE1
100
AcDbText
  0
TEXT
  5
13ED5
100
AcDbEntity
  8
6
100
AcDbText
 10
872.5
 20
8.5
 30
0.0
 40
3.0
  1

  7
STYLE1
100
AcDbText
  0
TEXT
  5
13ED6
100
AcDbEntity
  8
6
100
AcDbText
 10
1072.5
 20
8.5
 30
0.0
 40
3.0
  1

  7
STYLE1
100
AcDbText
  0
TEXT
  5
13ED7
100
AcDbEntity
  8
6
100
AcDbText
 10
672.5
 20
8.5
 30
0.0
 40
3.0
  1

  7
STYLE1
100
AcDbText
  0
TEXT
  5
13ED8
100
AcDbEntity
  8
6
100
AcDbText
 10
872.5
 20
8.5
 30
0.0
 40
3.0
  1

  7
STYLE1
100
AcDbText
  0
TEXT
  5
13ED9
100
AcDbEntity
  8
6
100
AcDbText
 10
872.5
 20
8.5
 30
0.0
 40
3.0
  1

  7
STYLE1
100
AcDbText
  0
TEXT
  5
13EDA
100
AcDbEntity
  8
6
100
AcDbText
 10
1072.5
 20
8.5
 30
0.0
 40
3.0
  1

  7
STYLE1
100
AcDbText
  0
TEXT
  5
13EDB
100
AcDbEntity
  8
6
100
AcDbText
 10
672.5
 20
8.5
 30
0.0
 40
3.0
  1

  7
STYLE1
100
AcDbText
  0
TEXT
  5
13EDC
100
AcDbEntity
  8
6
100
AcDbText
 10
872.5
 20
8.5
 30
0.0
 40
3.0
  1

  7
STYLE1
100
AcDbText
  0
TEXT
  5
13EDD
100
AcDbEntity
  8
6
100
AcDbText
 10
872.5
 20
8.5
 30
0.0
 40
3.0
  1

  7
STYLE1
100
AcDbText
  0
TEXT
  5
13EDE
100
AcDbEntity
  8
6
100
AcDbText
 10
1072.5
 20
8.5
 30
0.0
 40
3.0
  1

  7
STYLE1
100
AcDbText
  0
TEXT
  5
13EDF
100
AcDbEntity
  8
6
100
AcDbText
 10
1072.5
 20
8.5
 30
0.0
 40
3.0
  1

  7
STYLE1
100
AcDbText
  0
TEXT
  5
13EE0
100
AcDbEntity
  8
6
100
AcDbText
 10
1272.5
 20
8.5
 30
0.0
 40
3.0
  1

  7
STYLE1
100
AcDbText
  0
TEXT
  5
13EE1
100
AcDbEntity
  8
6
100
AcDbText
 10
872.5
 20
8.5
 30
0.0
 40
3.0
  1

  7
STYLE1
100
AcDbText
  0
TEXT
  5
13EE2
100
AcDbEntity
  8
6
100
AcDbText
 10
1072.5
 20
8.5
 30
0.0
 40
3.0
  1

  7
STYLE1
100
AcDbText
  0
TEXT
  5
13EE3
100
AcDbEntity
  8
6
100
AcDbText
 10
1072.5
 20
8.5
 30
0.0
 40
3.0
  1

  7
STYLE1
100
AcDbText
  0
TEXT
  5
13EE4
100
AcDbEntity
  8
6
100
AcDbText
 10
1272.5
 20
8.5
 30
0.0
 40
3.0
  1

  7
STYLE1
100
AcDbText
  0
TEXT
  5
13EFE
100
AcDbEntity
  8
6
100
AcDbText
 10
472.5
 20
8.5
 30
0.0
 40
3.0
  1

  7
STYLE1
100
AcDbText
  0
TEXT
  5
13EFF
100
AcDbEntity
  8
6
100
AcDbText
 10
672.5
 20
8.5
 30
0.0
 40
3.0
  1

  7
STYLE1
100
AcDbText
  0
TEXT
  5
13F00
100
AcDbEntity
  8
6
100
AcDbText
 10
672.5
 20
8.5
 30
0.0
 40
3.0
  1

  7
STYLE1
100
AcDbText
  0
TEXT
  5
13F01
100
AcDbEntity
  8
6
100
AcDbText
 10
872.5
 20
8.5
 30
0.0
 40
3.0
  1

  7
STYLE1
100
AcDbText
  0
TEXT
  5
13F02
100
AcDbEntity
  8
6
100
AcDbText
 10
872.5
 20
8.5
 30
0.0
 40
3.0
  1

  7
STYLE1
100
AcDbText
  0
TEXT
  5
13F03
100
AcDbEntity
  8
6
100
AcDbText
 10
1072.5
 20
8.5
 30
0.0
 40
3.0
  1

  7
STYLE1
100
AcDbText
  0
TEXT
  5
13F04
100
AcDbEntity
  8
6
100
AcDbText
 10
672.5
 20
8.5
 30
0.0
 40
3.0
  1

  7
STYLE1
100
AcDbText
  0
TEXT
  5
13F05
100
AcDbEntity
  8
6
100
AcDbText
 10
872.5
 20
8.5
 30
0.0
 40
3.0
  1

  7
STYLE1
100
AcDbText
  0
TEXT
  5
13F06
100
AcDbEntity
  8
6
100
AcDbText
 10
872.5
 20
8.5
 30
0.0
 40
3.0
  1

  7
STYLE1
100
AcDbText
  0
TEXT
  5
13F07
100
AcDbEntity
  8
6
100
AcDbText
 10
1072.5
 20
8.5
 30
0.0
 40
3.0
  1

  7
STYLE1
100
AcDbText
  0
TEXT
  5
13F08
100
AcDbEntity
  8
6
100
AcDbText
 10
672.5
 20
8.5
 30
0.0
 40
3.0
  1

  7
STYLE1
100
AcDbText
  0
TEXT
  5
13F09
100
AcDbEntity
  8
6
100
AcDbText
 10
872.5
 20
8.5
 30
0.0
 40
3.0
  1

  7
STYLE1
100
AcDbText
  0
TEXT
  5
13F0A
100
AcDbEntity
  8
6
100
AcDbText
 10
872.5
 20
8.5
 30
0.0
 40
3.0
  1

  7
STYLE1
100
AcDbText
  0
TEXT
  5
13F0B
100
AcDbEntity
  8
6
100
AcDbText
 10
1072.5
 20
8.5
 30
0.0
 40
3.0
  1

  7
STYLE1
100
AcDbText
  0
TEXT
  5
13F0C
100
AcDbEntity
  8
6
100
AcDbText
 10
1072.5
 20
8.5
 30
0.0
 40
3.0
  1

  7
STYLE1
100
AcDbText
  0
TEXT
  5
13F0D
100
AcDbEntity
  8
6
100
AcDbText
 10
1272.5
 20
8.5
 30
0.0
 40
3.0
  1

  7
STYLE1
100
AcDbText
  0
TEXT
  5
13F0E
100
AcDbEntity
  8
6
100
AcDbText
 10
872.5
 20
8.5
 30
0.0
 40
3.0
  1

  7
STYLE1
100
AcDbText
  0
TEXT
  5
13F0F
100
AcDbEntity
  8
6
100
AcDbText
 10
1072.5
 20
8.5
 30
0.0
 40
3.0
  1

  7
STYLE1
100
AcDbText
  0
TEXT
  5
13F10
100
AcDbEntity
  8
6
100
AcDbText
 10
1072.5
 20
8.5
 30
0.0
 40
3.0
  1

  7
STYLE1
100
AcDbText
  0
TEXT
  5
13F11
100
AcDbEntity
  8
6
100
AcDbText
 10
1272.5
 20
8.5
 30
0.0
 40
3.0
  1

  7
STYLE1
100
AcDbText
  0
TEXT
  5
13F12
100
AcDbEntity
  8
6
100
AcDbText
 10
872.5
 20
8.5
 30
0.0
 40
3.0
  1

  7
STYLE1
100
AcDbText
  0
TEXT
  5
13F13
100
AcDbEntity
  8
6
100
AcDbText
 10
1072.5
 20
8.5
 30
0.0
 40
3.0
  1

  7
STYLE1
100
AcDbText
  0
TEXT
  5
13F14
100
AcDbEntity
  8
6
100
AcDbText
 10
1072.5
 20
8.5
 30
0.0
 40
3.0
  1

  7
STYLE1
100
AcDbText
  0
TEXT
  5
13F15
100
AcDbEntity
  8
6
100
AcDbText
 10
1272.5
 20
8.5
 30
0.0
 40
3.0
  1

  7
STYLE1
100
AcDbText
  0
TEXT
  5
13F16
100
AcDbEntity
  8
6
100
AcDbText
 10
1272.5
 20
8.5
 30
0.0
 40
3.0
  1

  7
STYLE1
100
AcDbText
  0
TEXT
  5
13F17
100
AcDbEntity
  8
6
100
AcDbText
 10
1472.5
 20
8.5
 30
0.0
 40
3.0
  1

  7
STYLE1
100
AcDbText
  0
TEXT
  5
13F18
100
AcDbEntity
  8
6
100
AcDbText
 10
1072.5
 20
8.5
 30
0.0
 40
3.0
  1

  7
STYLE1
100
AcDbText
  0
TEXT
  5
13F19
100
AcDbEntity
  8
6
100
AcDbText
 10
1272.5
 20
8.5
 30
0.0
 40
3.0
  1

  7
STYLE1
100
AcDbText
  0
TEXT
  5
13F1A
100
AcDbEntity
  8
6
100
AcDbText
 10
1272.5
 20
8.5
 30
0.0
 40
3.0
  1

  7
STYLE1
100
AcDbText
  0
TEXT
  5
13F1B
100
AcDbEntity
  8
6
100
AcDbText
 10
1472.5
 20
8.5
 30
0.0
 40
3.0
  1

  7
STYLE1
100
AcDbText
  0
CIRCLE
  5
16511
102
{ACAD_REACTORS
330
16513
102
}
100
AcDbEntity
  8
2
100
AcDbCircle
 10
97.621966
 20
86.077139
 30
0.0
 40
1.25
  0
LINE
  5
16512
102
{ACAD_REACTORS
330
16513
102
}
100
AcDbEntity
  8
2
100
AcDbLine
 10
96.371966
 20
86.077139
 30
0.0
 11
98.871966
 21
86.077139
 31
0.0
  0
HATCH
  5
16513
100
AcDbEntity
  8
2
100
AcDbHatch
 10
0.0
 20
0.0
 30
0.0
210
0.0
220
0.0
230
1.0
  2
ANSI31
 70
     0
 71
     1
 91
        2
 92
        7
 72
     1
 73
     1
 93
        3
 10
97.62196591163524
 20
87.32713862729022
 42
0.4142135623730951
 10
96.37196591163524
 20
86.07713862729022
 42
0.0
 10
97.62196591163522
 20
86.07713862729022
 42
0.0
 97
        3
330
16511
330
16512
330
1653B
 92
        7
 72
     1
 73
     1
 93
        3
 10
97.62196591163524
 20
84.82713862729022
 42
0.4142135623730951
 10
98.87196591163524
 20
86.07713862729022
 42
0.0
 10
97.62196591163522
 20
86.07713862729022
 42
0.0
 97
        3
330
16512
330
1653B
330
16511
 75
     0
 76
     1
 52
0.0
 41
1.0
 77
     0
 78
     1
 53
45.0
 43
4.211387
 44
-22.137686
 45
-0.0883883476483184
 46
0.0883883476483185
 79
     0
 47
0.01145
 98
        2
 10
97.341304
 20
86.843902
 10
97.879717
 20
85.504214
  0
HATCH
  5
16514
100
AcDbEntity
  8
2
100
AcDbHatch
 10
0.0
 20
0.0
 30
0.0
210
0.0
220
0.0
230
1.0
  2
ANSI31
 70
     0
 71
     1
 91
        2
 92
        7
 72
     1
 73
     1
 93
        3
 10
97.62196591163524
 20
125.5771386272902
 42
0.4142135623730951
 10
95.12196591163524
 20
123.0771386272901
 42
0.0
 10
97.62196591163522
 20
123.0771386272901
 42
0.0
 97
        3
330
16516
330
16515
330
16540
 92
        7
 72
     1
 73
     1
 93
        3
 10
97.62196591163524
 20
120.5771386272902
 42
0.4142135623730951
 10
100.1219659116352
 20
123.0771386272901
 42
0.0
 10
97.62196591163522
 20
123.0771386272901
 42
0.0
 97
        3
330
16515
330
16540
330
16516
 75
     0
 76
     1
 52
0.0
 41
2.0
 77
     0
 78
     1
 53
45.0
 43
-89.199192
 44
-93.35251
 45
-0.1767766952966369
 46
0.1767766952966369
 79
     0
 47
0.01145
 98
        2
 10
97.060641
 20
124.610665
 10
98.137467
 20
121.931289
  0
LINE
  5
16515
102
{ACAD_REACTORS
330
16514
102
}
100
AcDbEntity
  8
2
100
AcDbLine
 10
95.121966
 20
123.077139
 30
0.0
 11
100.121966
 21
123.077139
 31
0.0
  0
CIRCLE
  5
16516
102
{ACAD_REACTORS
330
16514
102
}
100
AcDbEntity
  8
2
100
AcDbCircle
 10
97.621966
 20
123.077139
 30
0.0
 40
2.5
  0
LINE
  5
16517
100
AcDbEntity
  8
6
100
AcDbLine
 10
89.621966
 20
170.077139
 30
0.0
 11
105.621966
 21
170.077139
 31
0.0
  0
LINE
  5
16518
100
AcDbEntity
  8
6
100
AcDbLine
 10
89.621966
 20
169.677139
 30
0.0
 11
105.621966
 21
169.677139
 31
0.0
  0
LINE
  5
16519
100
AcDbEntity
  8
1
100
AcDbLine
 10
90.621966
 20
171.077139
 30
0.0
 11
104.621966
 21
171.077139
 31
0.0
  0
DIMENSION
  5
1651A
100
AcDbEntity
  8
2
100
AcDbDimension
  2
*D12
 10
89.621966
 20
175.540675
 30
0.0
 11
97.621966
 21
177.999009
 31
0.0
 12
136.491326
 22
8.113776
 32
0.0
 70
    33
  1
%%c<>
  3
STANDARD
100
AcDbAlignedDimension
 13
105.621966
 23
170.077139
 33
0.0
 14
89.621966
 24
170.077139
 34
0.0
1001
ACAD
1000
DSTYLE
1002
{
1070
    78
1070
     8
1070
   284
1070
     8
1070
   140
1040
2.5
1070
    47
1040
-0.003
1070
    71
1070
     1
1070
    74
1070
     0
1070
   172
1070
     1
1070
    48
1040
0.008
1070
    73
1070
     0
1070
   146
1040
0.5
1070
   272
1070
     3
1070
    77
1070
     1
1070
   147
1040
1.0
1070
    42
1040
1.0
1070
    44
1040
1.0
1070
    43
1040
1.0
1070
   271
1070
     3
1070
    41
1040
2.0
1002
}
  0
LINE
  5
1651B
100
AcDbEntity
  8
6
100
AcDbLine
 10
89.621966
 20
167.677139
 30
0.0
 11
105.621966
 21
167.677139
 31
0.0
  0
LINE
  5
1651C
100
AcDbEntity
  8
6
100
AcDbLine
 10
92.566276
 20
152.077139
 30
0.0
 11
102.677656
 21
152.077139
 31
0.0
  0
ARC
  5
1651D
100
AcDbEntity
  8
6
100
AcDbCircle
 10
97.621966
 20
145.877139
 30
0.0
 40
8.0
100
AcDbArc
 50
50.805033
 51
129.194967
  0
LINE
  5
1651E
100
AcDbEntity
  8
6
100
AcDbLine
 10
92.566276
 20
142.077139
 30
0.0
 11
102.677656
 21
142.077139
 31
0.0
  0
ARC
  5
1651F
100
AcDbEntity
  8
6
100
AcDbCircle
 10
97.621966
 20
148.277139
 30
0.0
 40
8.0
100
AcDbArc
 50
230.805033
 51
309.194967
  0
LINE
  5
16520
100
AcDbEntity
  8
6
100
AcDbLine
 10
92.566276
 20
152.077139
 30
0.0
 11
102.677656
 21
142.077139
 31
0.0
  0
LINE
  5
16521
100
AcDbEntity
  8
6
100
AcDbLine
 10
102.677656
 20
152.077139
 30
0.0
 11
92.566276
 21
142.077139
 31
0.0
  0
LINE
  5
16522
100
AcDbEntity
  8
1
100
AcDbLine
 10
85.121966
 20
123.077139
 30
0.0
 11
110.121966
 21
123.077139
 31
0.0
  0
LINE
  5
16523
100
AcDbEntity
  8
6
100
AcDbLine
 10
90.121966
 20
124.077139
 30
0.0
 11
105.121966
 21
124.077139
 31
0.0
  0
LINE
  5
16524
100
AcDbEntity
  8
6
100
AcDbLine
 10
89.621966
 20
124.577139
 30
0.0
 11
105.621966
 21
124.577139
 31
0.0
  0
LINE
  5
16525
100
AcDbEntity
  8
6
100
AcDbLine
 10
97.810673
 20
107.073335
 30
0.0
 11
97.433259
 21
107.073335
 31
0.0
  0
LINE
  5
16526
100
AcDbEntity
  8
4
100
AcDbLine
 10
88.621966
 20
86.077139
 30
0.0
 11
106.621966
 21
86.077139
 31
0.0
  0
ARC
  5
16527
100
AcDbEntity
  8
6
100
AcDbCircle
 10
97.621966
 20
93.797967
 30
0.0
 40
15.0
100
AcDbArc
 50
240.0
 51
300.0
  0
ARC
  5
16528
100
AcDbEntity
  8
6
100
AcDbCircle
 10
104.023469
 20
98.07524
 30
0.0
 40
15.001898
100
AcDbArc
 50
90.0
 51
180.415045
  0
LINE
  5
16529
100
AcDbEntity
  8
6
100
AcDbLine
 10
84.121966
 20
122.077139
 30
0.0
 11
111.121966
 21
122.077139
 31
0.0
  0
DIMENSION
  5
1652A
100
AcDbEntity
  8
2
100
AcDbDimension
  2
*D13
 10
84.121966
 20
184.101022
 30
0.0
 11
97.621966
 21
186.351022
 31
0.0
 70
    32
  1
%%c<>
  3
STANDARD
100
AcDbAlignedDimension
 13
111.121966
 23
122.077139
 33
0.0
 14
84.121966
 24
122.077139
 34
0.0
100
AcDbRotatedDimension
1001
ACAD
1000
DSTYLE
1002
{
1070
    78
1070
     8
1070
   284
1070
     8
1070
   140
1040
2.5
1070
    47
1040
0.03
1070
    74
1070
     0
1070
   172
1070
     1
1070
    73
1070
     0
1070
   146
1040
0.5
1070
   272
1070
     2
1070
    77
1070
     1
1070
   147
1040
1.0
1070
    42
1040
1.0
1070
    44
1040
1.0
1070
    43
1040
1.0
1070
   271
1070
     2
1070
    41
1040
2.0
1002
}
  0
TEXT
  5
1652B
100
AcDbEntity
  8
SK6
100
AcDbText
 10
66.683265
 20
196.597496
 30
0.0
 40
8.0
  1
99616-IC16-16F
  7
STYLE1
100
AcDbText
  0
LINE
  5
1652C
100
AcDbEntity
  8
1
100
AcDbLine
 10
89.621966
 20
167.677139
 30
0.0
 11
89.621966
 21
124.577139
 31
0.0
  0
LINE
  5
1652D
100
AcDbEntity
  8
4
100
AcDbLine
 10
97.621966
 20
173.077139
 30
0.0
 11
97.621966
 21
78.797967
 31
0.0
  0
LINE
  5
1652E
100
AcDbEntity
  8
6
100
AcDbLine
 10
90.496662
 20
101.36125
 30
0.0
 11
95.307954
 21
106.190664
 31
0.0
  0
LINE
  5
1652F
100
AcDbEntity
  8
1
100
AcDbLine
 10
84.121966
 20
122.077139
 30
0.0
 11
84.121966
 21
84.271687
 31
0.0
  0
ARC
  5
16530
100
AcDbEntity
  8
6
100
AcDbCircle
 10
92.621966
 20
99.24392
 30
0.0
 40
3.0
100
AcDbArc
 50
135.107699
 51
180.0
  0
ARC
  5
16531
100
AcDbEntity
  8
6
100
AcDbCircle
 10
89.989063
 20
88.619159
 30
0.0
 40
0.6
100
AcDbArc
 50
127.721795
 51
286.922472
  0
ARC
  5
16532
100
AcDbEntity
  8
6
100
AcDbCircle
 10
89.972245
 20
83.53302
 30
0.0
 40
0.6
100
AcDbArc
 50
72.06886
 51
234.281791
  0
LINE
  5
16533
100
AcDbEntity
  8
1
100
AcDbLine
 10
89.621966
 20
81.096261
 30
0.0
 11
84.121966
 21
84.271687
 31
0.0
  0
ARC
  5
16534
100
AcDbEntity
  8
6
100
AcDbCircle
 10
123.557708
 20
81.518356
 30
0.0
 40
39.563042
100
AcDbArc
 50
149.63467
 51
174.649101
  0
LINE
  5
16535
100
AcDbEntity
  8
6
100
AcDbLine
 10
89.021848
 20
90.866889
 30
0.0
 11
89.021966
 21
98.077139
 31
0.0
  0
ARC
  5
16536
100
AcDbEntity
  8
6
100
AcDbCircle
 10
97.621966
 20
78.577139
 30
0.0
 40
15.0
100
AcDbArc
 50
124.98355
 51
154.158067
  0
LINE
  5
16537
100
AcDbEntity
  8
6
100
AcDbLine
 10
89.621966
 20
89.093754
 30
0.0
 11
89.621966
 21
99.24392
 31
0.0
  0
ARC
  5
16538
100
AcDbEntity
  8
6
100
AcDbCircle
 10
88.621966
 20
86.077139
 30
0.0
 40
2.5
100
AcDbArc
 50
307.879405
 51
51.924647
  0
LINE
  5
16539
100
AcDbEntity
  8
6
100
AcDbLine
 10
90.121966
 20
80.807586
 30
0.0
 11
89.621966
 21
81.096261
 31
0.0
  0
LINE
  5
1653A
100
AcDbEntity
  8
6
100
AcDbLine
 10
89.621966
 20
81.096261
 30
0.0
 11
89.621966
 21
83.045881
 31
0.0
  0
LINE
  5
1653B
102
{ACAD_REACTORS
330
16513
102
}
100
AcDbEntity
  8
2
100
AcDbLine
 10
97.621966
 20
87.327139
 30
0.0
 11
97.621966
 21
84.827139
 31
0.0
  0
LINE
  5
1653C
100
AcDbEntity
  8
1
100
AcDbLine
 10
85.121966
 20
123.077139
 30
0.0
 11
84.121966
 21
122.077139
 31
0.0
  0
ARC
  5
1653D
100
AcDbEntity
  8
6
100
AcDbCircle
 10
97.433259
 20
104.073335
 30
0.0
 40
3.0
100
AcDbArc
 50
90.0
 51
135.107699
  0
LINE
  5
1653E
100
AcDbEntity
  8
1
100
AcDbLine
 10
89.621966
 20
124.577139
 30
0.0
 11
90.121966
 21
124.077139
 31
0.0
  0
LINE
  5
1653F
100
AcDbEntity
  8
1
100
AcDbLine
 10
90.121966
 20
124.077139
 30
0.0
 11
90.121966
 21
123.077139
 31
0.0
  0
LINE
  5
16540
102
{ACAD_REACTORS
330
16514
102
}
100
AcDbEntity
  8
2
100
AcDbLine
 10
97.621966
 20
125.577139
 30
0.0
 11
97.621966
 21
120.577139
 31
0.0
  0
LINE
  5
16541
100
AcDbEntity
  8
6
100
AcDbLine
 10
92.566276
 20
152.077139
 30
0.0
 11
92.566276
 21
142.077139
 31
0.0
  0
LINE
  5
16542
100
AcDbEntity
  8
1
100
AcDbLine
 10
89.621966
 20
170.077139
 30
0.0
 11
90.621966
 21
171.077139
 31
0.0
  0
LINE
  5
16543
100
AcDbEntity
  8
1
100
AcDbLine
 10
89.621966
 20
170.077139
 30
0.0
 11
89.621966
 21
169.677139
 31
0.0
  0
ARC
  5
16544
100
AcDbEntity
  8
1
100
AcDbCircle
 10
86.793539
 20
168.677139
 30
0.0
 40
3.0
100
AcDbArc
 50
340.528779
 51
19.471221
  0
DIMENSION
  5
16545
100
AcDbEntity
  8
2
100
AcDbDimension
  2
*D14
 10
129.786668
 20
86.077139
 30
0.0
 11
127.536668
 21
128.577139
 31
0.0
 12
136.491326
 22
8.113776
 32
0.0
 70
    32
  3
STANDARD
100
AcDbAlignedDimension
 13
104.803289
 23
171.077139
 33
0.0
 14
106.621966
 24
86.077139
 34
0.0
 50
90.0
100
AcDbRotatedDimension
1001
ACAD
1000
DSTYLE
1002
{
1070
    78
1070
     8
1070
   284
1070
     8
1070
   140
1040
2.5
1070
    47
1040
0.03
1070
    74
1070
     0
1070
   172
1070
     1
1070
    73
1070
     0
1070
   146
1040
0.5
1070
   272
1070
     2
1070
    77
1070
     1
1070
   147
1040
1.0
1070
    42
1040
1.0
1070
    44
1040
1.0
1070
    43
1040
1.0
1070
   271
1070
     2
1070
    41
1040
2.0
1002
}
  0
LINE
  5
16546
100
AcDbEntity
  8
1
100
AcDbLine
 10
105.621966
 20
167.677139
 30
0.0
 11
105.621966
 21
124.577139
 31
0.0
  0
DIMENSION
  5
16547
100
AcDbEntity
  8
2
100
AcDbDimension
  2
*D15
 10
121.19919
 20
171.077139
 30
0.0
 11
118.94919
 21
147.077139
 31
0.0
 12
136.491326
 22
8.113776
 32
0.0
 70
    32
  3
STANDARD
100
AcDbAlignedDimension
 13
110.121966
 23
123.077139
 33
0.0
 14
104.803289
 24
171.077139
 34
0.0
 50
90.0
100
AcDbRotatedDimension
1001
ACAD
1000
DSTYLE
1002
{
1070
    78
1070
     8
1070
   284
1070
     8
1070
   140
1040
2.5
1070
    47
1040
0.03
1070
    74
1070
     0
1070
   172
1070
     1
1070
    73
1070
     0
1070
   146
1040
0.5
1070
   272
1070
     2
1070
    77
1070
     1
1070
   147
1040
1.0
1070
    42
1040
1.0
1070
    44
1040
1.0
1070
    43
1040
1.0
1070
   271
1070
     2
1070
    41
1040
2.0
1002
}
  0
DIMENSION
  5
16548
100
AcDbEntity
  8
2
100
AcDbDimension
  2
*D16
 10
121.19919
 20
123.077139
 30
0.0
 11
118.94919
 21
104.577139
 31
0.0
 12
136.491326
 22
8.113776
 32
0.0
 70
    32
  3
STANDARD
100
AcDbAlignedDimension
 13
106.621966
 23
86.077139
 33
0.0
 14
110.121966
 24
123.077139
 34
0.0
 50
90.0
100
AcDbRotatedDimension
1001
ACAD
1000
DSTYLE
1002
{
1070
    78
1070
     8
1070
   284
1070
     8
1070
   140
1040
2.5
1070
    47
1040
0.05
1070
    71
1070
     1
1070
    74
1070
     0
1070
   172
1070
     1
1070
    48
1040
0.05
1070
    73
1070
     0
1070
   146
1040
0.5
1070
   272
1070
     2
1070
    77
1070
     1
1070
   147
1040
1.0
1070
    42
1040
1.0
1070
    44
1040
1.0
1070
    43
1040
1.0
1070
   271
1070
     2
1070
    41
1040
2.0
1002
}
  0
LINE
  5
16549
100
AcDbEntity
  8
6
100
AcDbLine
 10
99.935977
 20
106.190664
 30
0.0
 11
104.74727
 21
101.36125
 31
0.0
  0
LINE
  5
1654A
100
AcDbEntity
  8
1
100
AcDbLine
 10
111.121966
 20
122.077139
 30
0.0
 11
111.121966
 21
84.271687
 31
0.0
  0
ARC
  5
1654B
100
AcDbEntity
  8
6
100
AcDbCircle
 10
102.621966
 20
99.24392
 30
0.0
 40
3.0
100
AcDbArc
 50
360.0
 51
44.892301
  0
ARC
  5
1654C
100
AcDbEntity
  8
6
100
AcDbCircle
 10
105.254869
 20
88.619159
 30
0.0
 40
0.6
100
AcDbArc
 50
253.077528
 51
52.278205
  0
LINE
  5
1654D
100
AcDbEntity
  8
1
100
AcDbLine
 10
105.621966
 20
81.096261
 30
0.0
 11
111.121966
 21
84.271687
 31
0.0
  0
ARC
  5
1654E
100
AcDbEntity
  8
6
100
AcDbCircle
 10
105.271686
 20
83.53302
 30
0.0
 40
0.6
100
AcDbArc
 50
305.718209
 51
107.93114
  0
LINE
  5
1654F
100
AcDbEntity
  8
6
100
AcDbLine
 10
105.621966
 20
89.093754
 30
0.0
 11
105.621966
 21
99.24392
 31
0.0
  0
ARC
  5
16550
100
AcDbEntity
  8
6
100
AcDbCircle
 10
106.621966
 20
86.077139
 30
0.0
 40
2.5
100
AcDbArc
 50
128.075353
 51
232.120595
  0
LINE
  5
16551
100
AcDbEntity
  8
6
100
AcDbLine
 10
105.121966
 20
80.807586
 30
0.0
 11
105.621966
 21
81.096261
 31
0.0
  0
LINE
  5
16552
100
AcDbEntity
  8
6
100
AcDbLine
 10
105.621966
 20
81.096261
 30
0.0
 11
105.621966
 21
83.045881
 31
0.0
  0
LINE
  5
16553
100
AcDbEntity
  8
6
100
AcDbLine
 10
111.171874
 20
113.077139
 30
0.0
 11
104.021966
 21
113.077139
 31
0.0
  0
ARC
  5
16554
100
AcDbEntity
  8
6
100
AcDbCircle
 10
97.810673
 20
104.073335
 30
0.0
 40
3.0
100
AcDbArc
 50
44.892301
 51
90.0
  0
LINE
  5
16555
100
AcDbEntity
  8
1
100
AcDbLine
 10
105.121966
 20
124.077139
 30
0.0
 11
105.121966
 21
123.077139
 31
0.0
  0
LINE
  5
16556
100
AcDbEntity
  8
1
100
AcDbLine
 10
105.621966
 20
124.577139
 30
0.0
 11
105.121966
 21
124.077139
 31
0.0
  0
LINE
  5
16557
100
AcDbEntity
  8
1
100
AcDbLine
 10
110.121966
 20
123.077139
 30
0.0
 11
111.121966
 21
122.077139
 31
0.0
  0
LINE
  5
16558
100
AcDbEntity
  8
6
100
AcDbLine
 10
102.677656
 20
152.077139
 30
0.0
 11
102.677656
 21
142.077139
 31
0.0
  0
LINE
  5
16559
100
AcDbEntity
  8
1
100
AcDbLine
 10
104.621966
 20
171.077139
 30
0.0
 11
105.621966
 21
170.077139
 31
0.0
  0
LINE
  5
1655A
100
AcDbEntity
  8
1
100
AcDbLine
 10
105.621966
 20
170.077139
 30
0.0
 11
105.621966
 21
169.677139
 31
0.0
  0
ARC
  5
1655B
100
AcDbEntity
  8
1
100
AcDbCircle
 10
108.450393
 20
168.677139
 30
0.0
 40
3.0
100
AcDbArc
 50
160.528779
 51
199.471221
  0
ENDSEC
  0
SECTION
  2
OBJECTS
  0
DICTIONARY
  5
C
100
AcDbDictionary
  3
ACAD_GROUP
350
D
  3
ACAD_MLINESTYLE
350
1A
  3
ACDBVARIABLEDICTIONARY
350
39
  0
DICTIONARY
  5
D
102
{ACAD_REACTORS
330
C
102
}
100
AcDbDictionary
  0
DICTIONARY
  5
1A
102
{ACAD_REACTORS
330
C
102
}
100
AcDbDictionary
  3
STANDARD
350
1B
  0
DICTIONARY
  5
39
102
{ACAD_REACTORS
330
C
102
}
100
AcDbDictionary
  3
DIMADEC
350
3A
  3
SORTENTS
350
316C
  0
MLINESTYLE
  5
1B
102
{ACAD_REACTORS
330
1A
102
}
100
AcDbMlineStyle
  2
STANDARD
 70
     0
  3

 62
   256
 51
90.0
 52
90.0
 71
     2
 49
0.5
 62
   256
  6
BYLAYER
 49
-0.5
 62
   256
  6
BYLAYER
  0
DICTIONARYVAR
  5
3A
102
{ACAD_REACTORS
330
39
102
}
100
DictionaryVariables
280
     0
  1
3
  0
DICTIONARYVAR
  5
316C
102
{ACAD_REACTORS
330
39
102
}
100
DictionaryVariables
280
     0
  1
96
  0
ENDSEC
  0
EOF
