  0
SECTION
  2
HEADER
  9
$ACADVER
  1
AC1014
  9
$ACADMAINTVER
 70
     0
  9
$DWGCODEPAGE
  3
ANSI_950
  9
$INSBASE
 10
0.0
 20
0.0
 30
0.0
  9
$EXTMIN
 10
0.990967
 20
-0.008692
 30
0.0
  9
$EXTMAX
 10
193.00589
 20
282.007829
 30
0.0
  9
$LIMMIN
 10
0.0
 20
0.0
  9
$LIMMAX
 10
198.0
 20
285.0
  9
$ORTHOMODE
 70
     1
  9
$REGENMODE
 70
     1
  9
$FILLMODE
 70
     1
  9
$QTEXTMODE
 70
     0
  9
$MIRRTEXT
 70
     1
  9
$DRAGMODE
 70
     2
  9
$LTSCALE
 40
6.0
  9
$OSMODE
 70
    59
  9
$ATTMODE
 70
     1
  9
$TEXTSIZE
 40
2.0
  9
$TRACEWID
 40
0.05
  9
$TEXTSTYLE
  7
STYLE1
  9
$CLAYER
  8
INSERT
  9
$CELTYPE
  6
BYLAYER
  9
$CECOLOR
 62
   256
  9
$CELTSCALE
 40
1.0
  9
$DELOBJ
 70
     1
  9
$DISPSILH
 70
     0
  9
$DIMSCALE
 40
0.0
  9
$DIMASZ
 40
2.0
  9
$DIMEXO
 40
1.0
  9
$DIMDLI
 40
1.0
  9
$DIMRND
 40
0.0
  9
$DIMDLE
 40
0.0
  9
$DIMEXE
 40
1.0
  9
$DIMTP
 40
-0.005
  9
$DIMTM
 40
0.015
  9
$DIMTXT
 40
2.5
  9
$DIMCEN
 40
0.09
  9
$DIMTSZ
 40
0.0
  9
$DIMTOL
 70
     0
  9
$DIMLIM
 70
     0
  9
$DIMTIH
 70
     0
  9
$DIMTOH
 70
     0
  9
$DIMSE1
 70
     0
  9
$DIMSE2
 70
     0
  9
$DIMTAD
 70
     1
  9
$DIMZIN
 70
     8
  9
$DIMBLK
  1

  9
$DIMASO
 70
     1
  9
$DIMSHO
 70
     1
  9
$DIMPOST
  1

  9
$DIMAPOST
  1

  9
$DIMALT
 70
     0
  9
$DIMALTD
 70
     2
  9
$DIMALTF
 40
25.4
  9
$DIMLFAC
 40
1.0
  9
$DIMTOFL
 70
     1
  9
$DIMTVP
 40
0.0
  9
$DIMTIX
 70
     0
  9
$DIMSOXD
 70
     0
  9
$DIMSAH
 70
     0
  9
$DIMBLK1
  1

  9
$DIMBLK2
  1

  9
$DIMSTYLE
  2
STANDARD
  9
$DIMCLRD
 70
     0
  9
$DIMCLRE
 70
     0
  9
$DIMCLRT
 70
     0
  9
$DIMTFAC
 40
0.5
  9
$DIMGAP
 40
1.0
  9
$DIMJUST
 70
     0
  9
$DIMSD1
 70
     0
  9
$DIMSD2
 70
     0
  9
$DIMTOLJ
 70
     1
  9
$DIMTZIN
 70
     8
  9
$DIMALTZ
 70
     0
  9
$DIMALTTZ
 70
     0
  9
$DIMFIT
 70
     3
  9
$DIMUPT
 70
     0
  9
$DIMUNIT
 70
     2
  9
$DIMDEC
 70
     3
  9
$DIMTDEC
 70
     3
  9
$DIMALTU
 70
     2
  9
$DIMALTTD
 70
     2
  9
$DIMTXSTY
  7
STANDARD
  9
$DIMAUNIT
 70
     0
  9
$LUNITS
 70
     2
  9
$LUPREC
 70
     3
  9
$SKETCHINC
 40
0.1
  9
$FILLETRAD
 40
0.2
  9
$AUNITS
 70
     0
  9
$AUPREC
 70
     3
  9
$MENU
  1
acad
  9
$ELEVATION
 40
0.0
  9
$PELEVATION
 40
0.0
  9
$THICKNESS
 40
0.0
  9
$LIMCHECK
 70
     0
  9
$BLIPMODE
 70
     1
  9
$CHAMFERA
 40
0.0
  9
$CHAMFERB
 40
0.0
  9
$CHAMFERC
 40
0.0
  9
$CHAMFERD
 40
0.0
  9
$SKPOLY
 70
     0
  9
$TDCREATE
 40
2450670.354217245
  9
$TDUPDATE
 40
2456358.704299039
  9
$TDINDWG
 40
4.1585544676
  9
$TDUSRTIMER
 40
4.1585544676
  9
$USRTIMER
 70
     1
  9
$ANGBASE
 50
0.0
  9
$ANGDIR
 70
     0
  9
$PDMODE
 70
     0
  9
$PDSIZE
 40
0.0
  9
$PLINEWID
 40
0.0
  9
$COORDS
 70
     1
  9
$SPLFRAME
 70
     0
  9
$SPLINETYPE
 70
     6
  9
$SPLINESEGS
 70
     8
  9
$ATTDIA
 70
     0
  9
$ATTREQ
 70
     1
  9
$HANDLING
 70
     1
  9
$HANDSEED
  5
150A7
  9
$SURFTAB1
 70
     6
  9
$SURFTAB2
 70
     6
  9
$SURFTYPE
 70
     6
  9
$SURFU
 70
     6
  9
$SURFV
 70
     6
  9
$UCSNAME
  2

  9
$UCSORG
 10
0.0
 20
0.0
 30
0.0
  9
$UCSXDIR
 10
1.0
 20
0.0
 30
0.0
  9
$UCSYDIR
 10
0.0
 20
1.0
 30
0.0
  9
$PUCSNAME
  2

  9
$PUCSORG
 10
0.0
 20
0.0
 30
0.0
  9
$PUCSXDIR
 10
1.0
 20
0.0
 30
0.0
  9
$PUCSYDIR
 10
0.0
 20
1.0
 30
0.0
  9
$USERI1
 70
     0
  9
$USERI2
 70
     0
  9
$USERI3
 70
     0
  9
$USERI4
 70
     0
  9
$USERI5
 70
     0
  9
$USERR1
 40
0.0
  9
$USERR2
 40
0.0
  9
$USERR3
 40
0.0
  9
$USERR4
 40
0.0
  9
$USERR5
 40
0.0
  9
$WORLDVIEW
 70
     1
  9
$SHADEDGE
 70
     3
  9
$SHADEDIF
 70
    70
  9
$TILEMODE
 70
     1
  9
$MAXACTVP
 70
    16
  9
$PINSBASE
 10
0.0
 20
0.0
 30
0.0
  9
$PLIMCHECK
 70
     0
  9
$PEXTMIN
 10
1.000000E+20
 20
1.000000E+20
 30
1.000000E+20
  9
$PEXTMAX
 10
-1.000000E+20
 20
-1.000000E+20
 30
-1.000000E+20
  9
$PLIMMIN
 10
0.0
 20
0.0
  9
$PLIMMAX
 10
12.0
 20
9.0
  9
$UNITMODE
 70
     0
  9
$VISRETAIN
 70
     0
  9
$PLINEGEN
 70
     0
  9
$PSLTSCALE
 70
     1
  9
$TREEDEPTH
 70
  3020
  9
$PICKSTYLE
 70
     0
  9
$CMLSTYLE
  2
STANDARD
  9
$CMLJUST
 70
     0
  9
$CMLSCALE
 40
1.0
  9
$PROXYGRAPHICS
 70
     1
  9
$MEASUREMENT
 70
     0
  0
ENDSEC
  0
SECTION
  2
CLASSES
  0
CLASS
  1
DICTIONARYVAR
  2
AcDbDictionaryVar
  3
"AutoCAD"
 90
        0
280
     0
281
     0
  0
CLASS
  1
LWPOLYLINE
  2
AcDbPolyline
  3
"AutoCAD"
 90
        0
280
     0
281
     1
  0
CLASS
  1
HATCH
  2
AcDbHatch
  3
"ACAD_SEDONA"
 90
        0
280
     0
281
     1
  0
ENDSEC
  0
SECTION
  2
TABLES
  0
TABLE
  2
VPORT
  5
8
100
AcDbSymbolTable
 70
     2
  0
VPORT
  5
150A6
100
AcDbSymbolTableRecord
100
AcDbViewportTableRecord
  2
*ACTIVE
 70
     0
 10
0.0
 20
0.0
 11
1.0
 21
1.0
 12
96.998429
 22
140.999568
 13
0.0
 23
0.0
 14
1.0
 24
1.0
 15
0.0
 25
0.0
 16
0.0
 26
0.0
 36
1.0
 17
0.0
 27
0.0
 37
0.0
 40
284.290848
 41
1.588156
 42
50.0
 43
0.0
 44
0.0
 50
0.0
 51
0.0
 71
     0
 72
 20000
 73
     1
 74
     1
 75
     0
 76
     0
 77
     0
 78
     0
  0
ENDTAB
  0
TABLE
  2
LTYPE
  5
5
100
AcDbSymbolTable
 70
     3
  0
LTYPE
  5
11
100
AcDbSymbolTableRecord
100
AcDbLinetypeTableRecord
  2
BYBLOCK
 70
     0
  3

 72
    65
 73
     0
 40
0.0
  0
LTYPE
  5
12
100
AcDbSymbolTableRecord
100
AcDbLinetypeTableRecord
  2
BYLAYER
 70
     0
  3

 72
    65
 73
     0
 40
0.0
  0
LTYPE
  5
13
100
AcDbSymbolTableRecord
100
AcDbLinetypeTableRecord
  2
CONTINUOUS
 70
     0
  3
實線
 72
    65
 73
     0
 40
0.0
  0
LTYPE
  5
2E
100
AcDbSymbolTableRecord
100
AcDbLinetypeTableRecord
  2
CENTER
 70
     0
  3
____ _ ____ _ ____ _ ____ _ ____ _ ____ _ ____ 
 72
    65
 73
     4
 40
2.0
 49
1.25
 74
     0
 49
-0.25
 74
     0
 49
0.25
 74
     0
 49
-0.25
 74
     0
  0
LTYPE
  5
41F
100
AcDbSymbolTableRecord
100
AcDbLinetypeTableRecord
  2
HIDDEN
 70
     0
  3
Hidden __ __ __ __ __ __ __ __ __ __ __ __ __ _
 72
    65
 73
     2
 40
0.375
 49
0.25
 74
     0
 49
-0.125
 74
     0
  0
ENDTAB
  0
TABLE
  2
LAYER
  5
2
100
AcDbSymbolTable
 70
    12
  0
LAYER
  5
E
100
AcDbSymbolTableRecord
100
AcDbLayerTableRecord
  2
0
 70
     0
 62
     7
  6
CONTINUOUS
  0
LAYER
  5
31
100
AcDbSymbolTableRecord
100
AcDbLayerTableRecord
  2
BODY
 70
     0
 62
     7
  6
CONTINUOUS
  0
LAYER
  5
32
100
AcDbSymbolTableRecord
100
AcDbLayerTableRecord
  2
CEN
 70
     0
 62
     4
  6
CENTER
  0
LAYER
  5
33
100
AcDbSymbolTableRecord
100
AcDbLayerTableRecord
  2
DIM
 70
     0
 62
     2
  6
CONTINUOUS
  0
LAYER
  5
34
100
AcDbSymbolTableRecord
100
AcDbLayerTableRecord
  2
TEXT
 70
     0
 62
     4
  6
CONTINUOUS
  0
LAYER
  5
35
100
AcDbSymbolTableRecord
100
AcDbLayerTableRecord
  2
INSERT
 70
     0
 62
     6
  6
CONTINUOUS
  0
LAYER
  5
36
100
AcDbSymbolTableRecord
100
AcDbLayerTableRecord
  2
DEFPOINTS
 70
     0
 62
     7
  6
CONTINUOUS
  0
LAYER
  5
41C
100
AcDbSymbolTableRecord
100
AcDbLayerTableRecord
  2
HI
 70
     0
 62
     3
  6
HIDDEN
  0
LAYER
  5
3BEB
100
AcDbSymbolTableRecord
100
AcDbLayerTableRecord
  2
HA
 70
     0
 62
     5
  6
CONTINUOUS
  0
LAYER
  5
3EA8
100
AcDbSymbolTableRecord
100
AcDbLayerTableRecord
  2
BODY1
 70
     0
 62
     1
  6
CONTINUOUS
  0
LAYER
  5
1117D
100
AcDbSymbolTableRecord
100
AcDbLayerTableRecord
  2
LAYER_1
 70
     0
 62
   160
  6
CONTINUOUS
  0
LAYER
  5
1117E
100
AcDbSymbolTableRecord
100
AcDbLayerTableRecord
  2
SCREW
 70
     0
 62
     4
  6
CONTINUOUS
  0
ENDTAB
  0
TABLE
  2
STYLE
  5
3
100
AcDbSymbolTable
 70
     4
  0
STYLE
  5
F
100
AcDbSymbolTableRecord
100
AcDbTextStyleTableRecord
  2
STANDARD
 70
     0
 40
0.0
 41
1.0
 50
0.0
 71
     0
 42
3.5
  3
txt
  4

  0
STYLE
  5
2D
100
AcDbSymbolTableRecord
100
AcDbTextStyleTableRecord
  2
MONOTXT
 70
     0
 40
0.0
 41
1.0
 50
0.0
 71
     0
 42
2.0
  3
monotxt
  4

  0
STYLE
  5
32B1
100
AcDbSymbolTableRecord
100
AcDbTextStyleTableRecord
  2
STYLE1
 70
     0
 40
3.0
 41
1.0
 50
0.0
 71
     0
 42
3.0
  3
KAIU.TTF
  4

1001
ACAD
1000
標楷體
1071
    34881
  0
STYLE
  5
AF38
100
AcDbSymbolTableRecord
100
AcDbTextStyleTableRecord
  2
CHINA
 70
     0
 40
0.0
 41
1.0
 50
0.0
 71
     0
 42
4.0
  3
ROMANC.SHX
  4
CHINESET.SHX
  0
ENDTAB
  0
TABLE
  2
VIEW
  5
6
100
AcDbSymbolTable
 70
     0
  0
ENDTAB
  0
TABLE
  2
UCS
  5
7
100
AcDbSymbolTable
 70
     0
  0
ENDTAB
  0
TABLE
  2
APPID
  5
9
100
AcDbSymbolTable
 70
     1
  0
APPID
  5
10
100
AcDbSymbolTableRecord
100
AcDbRegAppTableRecord
  2
ACAD
 70
     0
  0
ENDTAB
  0
TABLE
  2
DIMSTYLE
  5
A
100
AcDbSymbolTable
 70
    11
  0
DIMSTYLE
105
1A2
102
{ACAD_REACTORS
330
FBAC
330
10F1A
330
FBDE
330
11875
102
}
100
AcDbSymbolTableRecord
100
AcDbDimStyleTableRecord
  2
STANDARD
 70
     0
  3

  4

  5

  6

  7

 40
1.0
 41
0.18
 42
0.0625
 43
0.38
 44
0.18
 45
0.0
 46
0.0
 47
0.0
 48
0.0
140
0.18
141
0.09
142
0.0
143
25.4
144
1.0
145
0.0
146
1.0
147
0.09
 71
     0
 72
     0
 73
     1
 74
     1
 75
     0
 76
     0
 77
     0
 78
     0
170
     0
171
     2
172
     0
173
     0
174
     0
175
     0
176
     0
177
     0
178
     0
270
     2
271
     4
272
     4
273
     2
274
     2
340
F
275
     0
280
     0
281
     0
282
     0
283
     1
284
     0
285
     0
286
     0
287
     3
288
     0
  0
DIMSTYLE
105
32B2
100
AcDbSymbolTableRecord
100
AcDbDimStyleTableRecord
  2
ISO-35
 70
     0
  3

  4

  5

  6

  7

 40
1.0
 41
3.5
 42
0.875
 43
5.25
 44
1.75
 45
0.0
 46
0.0
 47
0.0
 48
0.0
140
3.5
141
3.5
142
0.0
143
0.0394
144
1.0
145
0.0
146
1.0
147
0.875
 71
     0
 72
     0
 73
     0
 74
     0
 75
     0
 76
     0
 77
     1
 78
     8
170
     0
171
     4
172
     1
173
     0
174
     0
175
     0
176
     0
177
     0
178
     0
270
     8
271
     4
272
     4
273
     8
274
     4
340
F
275
     0
280
     0
281
     0
282
     0
283
     1
284
     0
285
     0
286
     0
287
     3
288
     0
  0
DIMSTYLE
105
32B3
100
AcDbSymbolTableRecord
100
AcDbDimStyleTableRecord
  2
ISO-5
 70
     0
  3

  4

  5

  6

  7

 40
1.0
 41
5.0
 42
1.25
 43
7.5
 44
2.5
 45
0.0
 46
0.0
 47
0.0
 48
0.0
140
5.0
141
5.0
142
0.0
143
0.0394
144
1.0
145
0.0
146
1.0
147
1.25
 71
     0
 72
     0
 73
     0
 74
     0
 75
     0
 76
     0
 77
     1
 78
     8
170
     0
171
     4
172
     1
173
     0
174
     0
175
     0
176
     0
177
     0
178
     0
270
     8
271
     4
272
     4
273
     8
274
     4
340
F
275
     0
280
     0
281
     0
282
     0
283
     1
284
     0
285
     0
286
     0
287
     3
288
     0
  0
DIMSTYLE
105
32B4
100
AcDbSymbolTableRecord
100
AcDbDimStyleTableRecord
  2
ISO-7
 70
     0
  3

  4

  5

  6

  7

 40
1.0
 41
7.0
 42
1.75
 43
10.5
 44
3.5
 45
0.0
 46
0.0
 47
0.0
 48
0.0
140
7.0
141
7.0
142
0.0
143
0.0394
144
1.0
145
0.0
146
1.0
147
1.75
 71
     0
 72
     0
 73
     0
 74
     0
 75
     0
 76
     0
 77
     1
 78
     8
170
     0
171
     4
172
     1
173
     0
174
     0
175
     0
176
     0
177
     0
178
     0
270
     8
271
     4
272
     4
273
     8
274
     4
340
F
275
     0
280
     0
281
     0
282
     0
283
     1
284
     0
285
     0
286
     0
287
     3
288
     0
  0
DIMSTYLE
105
32B5
100
AcDbSymbolTableRecord
100
AcDbDimStyleTableRecord
  2
ISO1
 70
     0
  3

  4

  5

  6

  7

 40
1.0
 41
10.0
 42
2.5
 43
15.0
 44
5.0
 45
0.0
 46
0.0
 47
0.0
 48
0.0
140
10.0
141
10.0
142
0.0
143
0.0394
144
1.0
145
0.0
146
1.0
147
2.5
 71
     0
 72
     0
 73
     0
 74
     0
 75
     0
 76
     0
 77
     1
 78
     8
170
     0
171
     4
172
     1
173
     0
174
     0
175
     0
176
     0
177
     0
178
     0
270
     8
271
     4
272
     4
273
     8
274
     4
340
F
275
     0
280
     0
281
     0
282
     0
283
     1
284
     0
285
     0
286
     0
287
     3
288
     0
  0
DIMSTYLE
105
32B6
100
AcDbSymbolTableRecord
100
AcDbDimStyleTableRecord
  2
ISO1-4
 70
     0
  3

  4

  5

  6

  7

 40
1.0
 41
14.0
 42
3.5
 43
21.0
 44
7.0
 45
0.0
 46
0.0
 47
0.0
 48
0.0
140
14.0
141
14.0
142
0.0
143
0.0394
144
1.0
145
5.6
146
1.0
147
3.5
 71
     0
 72
     0
 73
     1
 74
     0
 75
     0
 76
     0
 77
     1
 78
     8
170
     0
171
     2
172
     1
173
     0
174
     0
175
     0
176
     0
177
     0
178
     0
270
     8
271
     4
272
     4
273
     8
274
     2
340
F
275
     0
280
     0
281
     0
282
     0
283
     1
284
     0
285
     0
286
     0
287
     3
288
     0
  0
DIMSTYLE
105
32B7
100
AcDbSymbolTableRecord
100
AcDbDimStyleTableRecord
  2
ISO2
 70
     0
  3

  4

  5

  6

  7

 40
1.0
 41
20.0
 42
5.0
 43
30.0
 44
10.0
 45
0.0
 46
0.0
 47
0.0
 48
0.0
140
20.0
141
20.0
142
0.0
143
0.0394
144
1.0
145
0.0
146
1.0
147
5.0
 71
     0
 72
     0
 73
     0
 74
     0
 75
     0
 76
     0
 77
     1
 78
     8
170
     0
171
     4
172
     1
173
     0
174
     0
175
     0
176
     0
177
     0
178
     0
270
     8
271
     4
272
     4
273
     8
274
     4
340
F
275
     0
280
     0
281
     0
282
     0
283
     1
284
     0
285
     0
286
     0
287
     3
288
     0
  0
DIMSTYLE
105
32B8
100
AcDbSymbolTableRecord
100
AcDbDimStyleTableRecord
  2
ISO-4
 70
     0
  3

  4

  5

  6

  7

 40
1.0
 41
14.0
 42
3.5
 43
21.0
 44
7.0
 45
0.0
 46
0.0
 47
0.0
 48
0.0
140
14.0
141
14.0
142
0.0
143
0.0394
144
1.0
145
0.0
146
1.0
147
3.5
 71
     0
 72
     0
 73
     0
 74
     0
 75
     0
 76
     0
 77
     1
 78
     8
170
     0
171
     4
172
     1
173
     0
174
     0
175
     0
176
     0
177
     0
178
     0
270
     8
271
     4
272
     4
273
     8
274
     4
340
F
275
     0
280
     0
281
     0
282
     0
283
     1
284
     0
285
     0
286
     0
287
     3
288
     0
  0
DIMSTYLE
105
32B9
100
AcDbSymbolTableRecord
100
AcDbDimStyleTableRecord
  2
ISO-25
 70
     0
  3

  4

  5

  6

  7

 40
1.0
 41
2.5
 42
0.625
 43
3.75
 44
1.25
 45
0.0
 46
0.0
 47
0.0
 48
0.0
140
2.5
141
2.5
142
0.0
143
0.0394
144
1.0
145
0.0
146
1.0
147
0.625
 71
     0
 72
     0
 73
     0
 74
     0
 75
     0
 76
     0
 77
     1
 78
     8
170
     0
171
     4
172
     1
173
     0
174
     0
175
     0
176
     0
177
     0
178
     0
270
     8
271
     4
272
     4
273
     8
274
     4
340
F
275
     0
280
     0
281
     0
282
     0
283
     1
284
     0
285
     0
286
     0
287
     3
288
     0
  0
DIMSTYLE
105
32BA
100
AcDbSymbolTableRecord
100
AcDbDimStyleTableRecord
  2
ISO-25_WS
 70
     0
  3

  4

  5

  6

  7

 40
1.0
 41
2.5
 42
0.625
 43
3.75
 44
1.25
 45
0.0
 46
0.0
 47
0.0
 48
0.0
140
2.5
141
2.5
142
0.0
143
0.0394
144
1.0
145
0.0
146
1.0
147
0.625
 71
     0
 72
     0
 73
     0
 74
     0
 75
     0
 76
     0
 77
     1
 78
     8
170
     0
171
     4
172
     1
173
     0
174
     0
175
     0
176
     0
177
     0
178
     0
270
     2
271
     4
272
     4
273
     8
274
     4
340
F
275
     0
280
     0
281
     0
282
     0
283
     1
284
     0
285
     0
286
     0
287
     3
288
     0
  0
DIMSTYLE
105
EDE4
100
AcDbSymbolTableRecord
100
AcDbDimStyleTableRecord
  2
ISO-25圓
 70
     0
  3
%%c<>
  4

  5

  6

  7

 40
1.0
 41
2.5
 42
0.625
 43
3.75
 44
1.25
 45
0.0
 46
0.0
 47
0.0
 48
0.01
140
2.5
141
-2.0
142
0.0
143
0.0394
144
1.0
145
0.0
146
0.6
147
0.625
 71
     0
 72
     0
 73
     0
 74
     0
 75
     0
 76
     0
 77
     1
 78
     8
170
     0
171
     4
172
     1
173
     0
174
     0
175
     0
176
     0
177
     0
178
     0
270
     8
271
     2
272
     3
273
     8
274
     4
340
F
275
     0
280
     0
281
     0
282
     0
283
     1
284
     8
285
     0
286
     0
287
     3
288
     0
  0
ENDTAB
  0
TABLE
  2
BLOCK_RECORD
  5
1
100
AcDbSymbolTable
 70
     5
  0
BLOCK_RECORD
  5
17
100
AcDbSymbolTableRecord
100
AcDbBlockTableRecord
  2
*MODEL_SPACE
  0
BLOCK_RECORD
  5
14
100
AcDbSymbolTableRecord
100
AcDbBlockTableRecord
  2
*PAPER_SPACE
  0
BLOCK_RECORD
  5
FBA0
100
AcDbSymbolTableRecord
100
AcDbBlockTableRecord
  2
*D0
  0
BLOCK_RECORD
  5
FBD2
100
AcDbSymbolTableRecord
100
AcDbBlockTableRecord
  2
*D1
  0
BLOCK_RECORD
  5
10F0E
100
AcDbSymbolTableRecord
100
AcDbBlockTableRecord
  2
*D2
  0
BLOCK_RECORD
  5
11868
100
AcDbSymbolTableRecord
100
AcDbBlockTableRecord
  2
*D3
  0
BLOCK_RECORD
  5
1503A
100
AcDbSymbolTableRecord
100
AcDbBlockTableRecord
  2
A$C103B45EE
  0
ENDTAB
  0
ENDSEC
  0
SECTION
  2
BLOCKS
  0
BLOCK
  5
39
100
AcDbEntity
  8
0
100
AcDbBlockBegin
  2
*MODEL_SPACE
 70
     0
 10
0.0
 20
0.0
 30
0.0
  3
*MODEL_SPACE
  1

  0
ENDBLK
  5
3A
100
AcDbEntity
  8
0
100
AcDbBlockEnd
  0
BLOCK
  5
37
100
AcDbEntity
 67
     1
  8
0
100
AcDbBlockBegin
  2
*PAPER_SPACE
 70
     0
 10
0.0
 20
0.0
 30
0.0
  3
*PAPER_SPACE
  1

  0
ENDBLK
  5
38
100
AcDbEntity
 67
     1
  8
0
100
AcDbBlockEnd
  0
BLOCK
  5
14FE1
100
AcDbEntity
  8
0
100
AcDbBlockBegin
  2
*D0
 70
     1
 10
0.0
 20
0.0
 30
0.0
  3
*D0
  1

  0
LINE
  5
14FE2
100
AcDbEntity
  8
0
  6
BYBLOCK
 62
     0
100
AcDbLine
 10
76.550125
 20
225.686775
 30
0.0
 11
76.550125
 21
230.475552
 31
0.0
  0
LINE
  5
14FE3
100
AcDbEntity
  8
0
  6
BYBLOCK
 62
     0
100
AcDbLine
 10
86.550125
 20
225.686775
 30
0.0
 11
86.550125
 21
230.475552
 31
0.0
  0
LINE
  5
14FE4
100
AcDbEntity
  8
0
  6
BYBLOCK
 62
     0
100
AcDbLine
 10
79.050125
 20
229.475552
 30
0.0
 11
84.050125
 21
229.475552
 31
0.0
  0
SOLID
  5
14FE5
100
AcDbEntity
  8
0
  6
BYBLOCK
 62
     0
100
AcDbTrace
 10
79.050125
 20
229.892219
 30
0.0
 11
79.050125
 21
229.058886
 31
0.0
 12
76.550125
 22
229.475552
 32
0.0
 13
76.550125
 23
229.475552
 33
0.0
  0
SOLID
  5
14FE6
100
AcDbEntity
  8
0
  6
BYBLOCK
 62
     0
100
AcDbTrace
 10
84.050125
 20
229.892219
 30
0.0
 11
84.050125
 21
229.058886
 31
0.0
 12
86.550125
 22
229.475552
 32
0.0
 13
86.550125
 23
229.475552
 33
0.0
  0
MTEXT
  5
14FE7
100
AcDbEntity
  8
0
  6
BYBLOCK
 62
     0
100
AcDbMText
 10
81.550125
 20
231.725552
 30
0.0
 40
2.5
 41
0.0
 71
     5
 72
     1
  1
\A1;\U+220510
  0
POINT
  5
14FE8
100
AcDbEntity
  8
DEFPOINTS
  6
BYBLOCK
 62
     0
100
AcDbPoint
 10
76.550125
 20
224.686775
 30
0.0
  0
POINT
  5
14FE9
100
AcDbEntity
  8
DEFPOINTS
  6
BYBLOCK
 62
     0
100
AcDbPoint
 10
86.550125
 20
224.686775
 30
0.0
  0
POINT
  5
14FEA
100
AcDbEntity
  8
DEFPOINTS
  6
BYBLOCK
 62
     0
100
AcDbPoint
 10
86.550125
 20
229.475552
 30
0.0
  0
ENDBLK
  5
14FEB
100
AcDbEntity
  8
0
100
AcDbBlockEnd
  0
BLOCK
  5
14FEC
100
AcDbEntity
  8
0
100
AcDbBlockBegin
  2
*D1
 70
     1
 10
0.0
 20
0.0
 30
0.0
  3
*D1
  1

  0
LINE
  5
14FED
100
AcDbEntity
  8
0
  6
BYBLOCK
 62
     0
100
AcDbLine
 10
86.550125
 20
225.686775
 30
0.0
 11
99.073857
 21
225.686775
 31
0.0
  0
LINE
  5
14FEE
100
AcDbEntity
  8
0
  6
BYBLOCK
 62
     0
100
AcDbLine
 10
82.650125
 20
135.686775
 30
0.0
 11
99.073857
 21
135.686775
 31
0.0
  0
LINE
  5
14FEF
100
AcDbEntity
  8
0
  6
BYBLOCK
 62
     0
100
AcDbLine
 10
98.073857
 20
223.186775
 30
0.0
 11
98.073857
 21
138.186775
 31
0.0
  0
SOLID
  5
14FF0
100
AcDbEntity
  8
0
  6
BYBLOCK
 62
     0
100
AcDbTrace
 10
97.65719
 20
223.186775
 30
0.0
 11
98.490523
 21
223.186775
 31
0.0
 12
98.073857
 22
225.686775
 32
0.0
 13
98.073857
 23
225.686775
 33
0.0
  0
SOLID
  5
14FF1
100
AcDbEntity
  8
0
  6
BYBLOCK
 62
     0
100
AcDbTrace
 10
97.65719
 20
138.186775
 30
0.0
 11
98.490523
 21
138.186775
 31
0.0
 12
98.073857
 22
135.686775
 32
0.0
 13
98.073857
 23
135.686775
 33
0.0
  0
MTEXT
  5
14FF2
100
AcDbEntity
  8
0
  6
BYBLOCK
 62
     0
100
AcDbMText
 10
95.823857
 20
180.686775
 30
0.0
 40
2.5
 41
0.0
 71
     5
 72
     1
  1
\A1;90
 11
0.0
 21
1.0
 31
0.0
  0
POINT
  5
14FF3
100
AcDbEntity
  8
DEFPOINTS
  6
BYBLOCK
 62
     0
100
AcDbPoint
 10
85.550125
 20
225.686775
 30
0.0
  0
POINT
  5
14FF4
100
AcDbEntity
  8
DEFPOINTS
  6
BYBLOCK
 62
     0
100
AcDbPoint
 10
81.650125
 20
135.686775
 30
0.0
  0
POINT
  5
14FF5
100
AcDbEntity
  8
DEFPOINTS
  6
BYBLOCK
 62
     0
100
AcDbPoint
 10
98.073857
 20
135.686775
 30
0.0
  0
ENDBLK
  5
14FF6
100
AcDbEntity
  8
0
100
AcDbBlockEnd
  0
BLOCK
  5
15090
100
AcDbEntity
  8
0
100
AcDbBlockBegin
  2
*D2
 70
     1
 10
0.0
 20
0.0
 30
0.0
  3
*D2
  1

  0
LINE
  5
15091
100
AcDbEntity
  8
0
  6
BYBLOCK
 62
     0
100
AcDbLine
 10
77.672473
 20
130.713879
 30
0.0
 11
77.672473
 21
117.851519
 31
0.0
  0
LINE
  5
15092
100
AcDbEntity
  8
0
  6
BYBLOCK
 62
     0
100
AcDbLine
 10
75.172473
 20
118.851519
 30
0.0
 11
69.806595
 21
118.851519
 31
0.0
  0
SOLID
  5
15093
100
AcDbEntity
  8
0
  6
BYBLOCK
 62
     0
100
AcDbTrace
 10
75.172473
 20
119.268186
 30
0.0
 11
75.172473
 21
118.434852
 31
0.0
 12
77.672473
 22
118.851519
 32
0.0
 13
77.672473
 23
118.851519
 33
0.0
  0
MTEXT
  5
15094
100
AcDbEntity
  8
0
  6
BYBLOCK
 62
     0
100
AcDbMText
 10
71.989534
 20
121.101519
 30
0.0
 40
2.5
 41
0.0
 71
     5
 72
     1
  1
\A1;\U+220511.36
  0
POINT
  5
15095
100
AcDbEntity
  8
DEFPOINTS
  6
BYBLOCK
 62
     0
100
AcDbPoint
 10
77.672473
 20
131.713879
 30
0.0
  0
POINT
  5
15096
100
AcDbEntity
  8
DEFPOINTS
  6
BYBLOCK
 62
     0
100
AcDbPoint
 10
66.306595
 20
131.722756
 30
0.0
  0
POINT
  5
15097
100
AcDbEntity
  8
DEFPOINTS
  6
BYBLOCK
 62
     0
100
AcDbPoint
 10
66.306595
 20
118.851519
 30
0.0
  0
ENDBLK
  5
15098
100
AcDbEntity
  8
0
100
AcDbBlockEnd
  0
BLOCK
  5
147FE
100
AcDbEntity
  8
0
100
AcDbBlockBegin
  2
*D3
 70
     1
 10
0.0
 20
0.0
 30
0.0
  3
*D3
  1

  0
LINE
  5
147FF
100
AcDbEntity
  8
0
  6
BYBLOCK
 62
     0
100
AcDbLine
 10
87.667604
 20
141.372883
 30
0.0
 11
93.646232
 21
147.351511
 31
0.0
  0
ARC
  5
14800
100
AcDbEntity
  8
0
  6
BYBLOCK
 62
     0
100
AcDbCircle
 10
86.450125
 20
140.155404
 30
0.0
 40
9.176832
100
AcDbArc
 50
60.657488
 51
74.342512
  0
SOLID
  5
14801
100
AcDbEntity
  8
0
  6
BYBLOCK
 62
     0
100
AcDbTrace
 10
91.198792
 20
148.486916
 30
0.0
 11
90.695292
 21
147.822889
 31
0.0
 12
92.939125
 22
146.644404
 32
0.0
 13
92.939125
 23
146.644404
 33
0.0
  0
SOLID
  5
14802
100
AcDbEntity
  8
0
  6
BYBLOCK
 62
     0
100
AcDbTrace
 10
88.870069
 20
148.578921
 30
0.0
 11
88.983579
 21
149.404488
 31
0.0
 12
86.450125
 22
149.332236
 32
0.0
 13
86.450125
 23
149.332236
 33
0.0
  0
MTEXT
  5
14803
100
AcDbEntity
  8
0
  6
BYBLOCK
 62
     0
100
AcDbMText
 10
91.352428
 20
150.477221
 30
0.0
 40
2.5
 41
0.0
 71
     5
 72
     1
  1
\A1;45°
 11
0.903296
 21
-0.429017
 31
0.0
  0
POINT
  5
14804
100
AcDbEntity
  8
DEFPOINTS
  6
BYBLOCK
 62
     0
100
AcDbPoint
 10
88.825264
 20
149.019543
 30
0.0
  0
POINT
  5
14805
100
AcDbEntity
  8
DEFPOINTS
  6
BYBLOCK
 62
     0
100
AcDbPoint
 10
86.450125
 20
153.586775
 30
0.0
  0
POINT
  5
14806
100
AcDbEntity
  8
DEFPOINTS
  6
BYBLOCK
 62
     0
100
AcDbPoint
 10
82.21581
 20
135.921089
 30
0.0
  0
POINT
  5
14807
100
AcDbEntity
  8
DEFPOINTS
  6
BYBLOCK
 62
     0
100
AcDbPoint
 10
86.960497
 20
140.665776
 30
0.0
  0
POINT
  5
14808
100
AcDbEntity
  8
DEFPOINTS
  6
BYBLOCK
 62
     0
100
AcDbPoint
 10
86.450125
 20
141.128776
 30
0.0
  0
ENDBLK
  5
14809
100
AcDbEntity
  8
0
100
AcDbBlockEnd
  0
BLOCK
  5
15061
100
AcDbEntity
  8
0
100
AcDbBlockBegin
  2
A$C103B45EE
 70
     0
 10
0.0
 20
0.0
 30
0.0
  3
A$C103B45EE
  1

  0
CIRCLE
  5
1503B
100
AcDbEntity
  8
INSERT
100
AcDbCircle
 10
4.805
 20
4.855
 30
0.0
 40
1.75
  0
CIRCLE
  5
1503C
100
AcDbEntity
  8
INSERT
100
AcDbCircle
 10
4.805
 20
4.855
 30
0.0
 40
2.25
  0
LINE
  5
1503D
100
AcDbEntity
  8
INSERT
100
AcDbLine
 10
1.4
 20
9.01
 30
0.0
 11
8.21
 21
9.01
 31
0.0
  0
LINE
  5
1503E
100
AcDbEntity
  8
INSERT
100
AcDbLine
 10
8.21
 20
0.7
 30
0.0
 11
1.4
 21
0.7
 31
0.0
  0
LWPOLYLINE
  5
1503F
100
AcDbEntity
  8
INSERT
100
AcDbPolyline
 90
       10
 70
     1
 43
0.0
 10
1.372157
 20
1.580787
 42
0.493145
 10
1.655
 20
1.21218
 10
7.505
 20
1.21218
 42
0.414214
 10
7.79782
 20
1.505
 10
7.79782
 20
6.487027
 10
8.237843
 20
8.129212
 42
0.493145
 10
7.955
 20
8.49782
 10
2.105
 20
8.49782
 42
0.414214
 10
1.81218
 20
8.205
 10
1.81218
 20
3.222973
  0
LWPOLYLINE
  5
15040
100
AcDbEntity
  8
INSERT
100
AcDbPolyline
 90
       10
 70
     1
 43
0.0
 10
1.08238
 20
1.658433
 42
0.493145
 10
1.655
 20
0.91218
 10
7.505
 20
0.91218
 42
0.414214
 10
8.09782
 20
1.505
 10
8.09782
 20
6.447531
 10
8.527621
 20
8.051567
 42
0.493145
 10
7.955
 20
8.79782
 10
2.105
 20
8.79782
 42
0.414214
 10
1.51218
 20
8.205
 10
1.51218
 20
3.262469
  0
LWPOLYLINE
  5
15041
100
AcDbEntity
  8
INSERT
100
AcDbPolyline
 90
       10
 70
     1
 43
0.0
 10
0.882259
 20
1.712055
 42
0.493145
 10
1.655
 20
0.705
 10
7.505
 20
0.705
 42
0.414214
 10
8.305
 20
1.505
 10
8.305
 20
6.420255
 10
8.727741
 20
7.997945
 42
0.493145
 10
7.955
 20
9.005
 10
2.105
 20
9.005
 42
0.414214
 10
1.305
 20
8.205
 10
1.305
 20
3.289745
  0
LINE
  5
15042
100
AcDbEntity
  8
CEN
 48
0.2
100
AcDbLine
 10
0.0
 20
4.855
 30
0.0
 11
9.61
 21
4.855
 31
0.0
  0
LINE
  5
15043
100
AcDbEntity
  8
INSERT
100
AcDbLine
 10
0.6
 20
1.5
 30
0.0
 11
0.6
 21
8.21
 31
0.0
  0
LINE
  5
15044
100
AcDbEntity
  8
INSERT
100
AcDbLine
 10
0.727026
 20
1.067442
 30
0.0
 11
0.601498
 21
8.258936
 31
0.0
  0
LINE
  5
15045
100
AcDbEntity
  8
CEN
 48
0.2
100
AcDbLine
 10
4.805
 20
9.71
 30
0.0
 11
4.805
 21
0.0
 31
0.0
  0
LINE
  5
15046
100
AcDbEntity
  8
INSERT
100
AcDbLine
 10
1.372157
 20
1.580787
 30
0.0
 11
1.08238
 21
1.658433
 31
0.0
  0
ARC
  5
15047
100
AcDbEntity
  8
INSERT
100
AcDbCircle
 10
1.4
 20
1.5
 30
0.0
 40
0.8
100
AcDbArc
 50
180.0
 51
270.0
  0
LINE
  5
15048
100
AcDbEntity
  8
INSERT
100
AcDbLine
 10
1.08238
 20
1.658433
 30
0.0
 11
0.882259
 21
1.712055
 31
0.0
  0
LINE
  5
15049
100
AcDbEntity
  8
INSERT
100
AcDbLine
 10
1.51218
 20
3.262469
 30
0.0
 11
1.81218
 21
3.222973
 31
0.0
  0
LINE
  5
1504A
100
AcDbEntity
  8
INSERT
100
AcDbLine
 10
1.305
 20
3.289745
 30
0.0
 11
1.51218
 21
3.262469
 31
0.0
  0
LINE
  5
1504B
100
AcDbEntity
  8
INSERT
100
AcDbLine
 10
1.655
 20
0.91218
 30
0.0
 11
1.655
 21
1.21218
 31
0.0
  0
LINE
  5
1504C
100
AcDbEntity
  8
INSERT
100
AcDbLine
 10
1.655
 20
0.705
 30
0.0
 11
1.655
 21
0.91218
 31
0.0
  0
ARC
  5
1504D
100
AcDbEntity
  8
INSERT
100
AcDbCircle
 10
1.4
 20
8.21
 30
0.0
 40
0.8
100
AcDbArc
 50
90.0
 51
180.0
  0
LINE
  5
1504E
100
AcDbEntity
  8
INSERT
100
AcDbLine
 10
1.51218
 20
8.205
 30
0.0
 11
1.81218
 21
8.205
 31
0.0
  0
LINE
  5
1504F
100
AcDbEntity
  8
INSERT
100
AcDbLine
 10
2.105
 20
8.49782
 30
0.0
 11
2.105
 21
8.79782
 31
0.0
  0
LINE
  5
15050
100
AcDbEntity
  8
INSERT
100
AcDbLine
 10
1.305
 20
8.205
 30
0.0
 11
1.51218
 21
8.205
 31
0.0
  0
LINE
  5
15051
100
AcDbEntity
  8
INSERT
100
AcDbLine
 10
2.105
 20
8.79782
 30
0.0
 11
2.105
 21
9.005
 31
0.0
  0
LWPOLYLINE
  5
15052
100
AcDbEntity
  8
INSERT
100
AcDbPolyline
 90
       24
 70
     1
 43
0.0
 10
5.635345
 20
4.1716
 42
0.57735
 10
5.812014
 20
4.4776
 10
5.689333
 20
4.690091
 42
-0.278103
 10
5.693313
 20
4.900694
 10
5.840321
 20
5.134448
 42
0.590019
 10
5.667632
 20
5.447052
 10
5.370081
 20
5.447052
 42
-0.267949
 10
5.193412
 20
5.549052
 10
4.981669
 20
5.9158
 42
0.57735
 10
4.628331
 20
5.9158
 10
4.416589
 20
5.549052
 42
-0.267949
 10
4.239919
 20
5.447052
 10
3.942368
 20
5.447052
 42
0.590019
 10
3.769679
 20
5.134448
 10
3.916687
 20
4.900694
 42
-0.278103
 10
3.920667
 20
4.690091
 10
3.797986
 20
4.4776
 42
0.57735
 10
3.974655
 20
4.1716
 10
4.262518
 20
4.1716
 42
-0.257847
 10
4.435206
 20
4.076203
 10
4.632312
 20
3.762789
 42
0.552421
 10
4.977689
 20
3.762789
 10
5.174794
 20
4.076203
 42
-0.257847
 10
5.347482
 20
4.1716
  0
LINE
  5
15053
100
AcDbEntity
  8
INSERT
100
AcDbLine
 10
9.01
 20
8.21
 30
0.0
 11
9.01
 21
1.5
 31
0.0
  0
LINE
  5
15054
100
AcDbEntity
  8
INSERT
100
AcDbLine
 10
8.882974
 20
8.642558
 30
0.0
 11
9.008502
 21
1.451064
 31
0.0
  0
ARC
  5
15055
100
AcDbEntity
  8
INSERT
100
AcDbCircle
 10
8.21
 20
1.5
 30
0.0
 40
0.8
100
AcDbArc
 50
270.0
 51
0.0
  0
LINE
  5
15056
100
AcDbEntity
  8
INSERT
100
AcDbLine
 10
7.505
 20
0.91218
 30
0.0
 11
7.505
 21
1.21218
 31
0.0
  0
LINE
  5
15057
100
AcDbEntity
  8
INSERT
100
AcDbLine
 10
7.505
 20
0.705
 30
0.0
 11
7.505
 21
0.91218
 31
0.0
  0
LINE
  5
15058
100
AcDbEntity
  8
INSERT
100
AcDbLine
 10
7.79782
 20
1.505
 30
0.0
 11
8.09782
 21
1.505
 31
0.0
  0
LINE
  5
15059
100
AcDbEntity
  8
INSERT
100
AcDbLine
 10
8.09782
 20
1.505
 30
0.0
 11
8.305
 21
1.505
 31
0.0
  0
ARC
  5
1505A
100
AcDbEntity
  8
INSERT
100
AcDbCircle
 10
8.21
 20
8.21
 30
0.0
 40
0.8
100
AcDbArc
 50
0.0
 51
90.0
  0
LINE
  5
1505B
100
AcDbEntity
  8
INSERT
100
AcDbLine
 10
8.727741
 20
7.997945
 30
0.0
 11
8.527621
 21
8.051567
 31
0.0
  0
LINE
  5
1505C
100
AcDbEntity
  8
INSERT
100
AcDbLine
 10
7.79782
 20
6.487027
 30
0.0
 11
8.09782
 21
6.447531
 31
0.0
  0
LINE
  5
1505D
100
AcDbEntity
  8
INSERT
100
AcDbLine
 10
8.09782
 20
6.447531
 30
0.0
 11
8.305
 21
6.420255
 31
0.0
  0
LINE
  5
1505E
100
AcDbEntity
  8
INSERT
100
AcDbLine
 10
8.527621
 20
8.051567
 30
0.0
 11
8.237843
 21
8.129212
 31
0.0
  0
LINE
  5
1505F
100
AcDbEntity
  8
INSERT
100
AcDbLine
 10
7.955
 20
8.49782
 30
0.0
 11
7.955
 21
8.79782
 31
0.0
  0
LINE
  5
15060
100
AcDbEntity
  8
INSERT
100
AcDbLine
 10
7.955
 20
8.79782
 30
0.0
 11
7.955
 21
9.005
 31
0.0
  0
ENDBLK
  5
15062
100
AcDbEntity
  8
0
100
AcDbBlockEnd
  0
ENDSEC
  0
SECTION
  2
ENTITIES
  0
TEXT
  5
C6F4
100
AcDbEntity
  8
TEXT
100
AcDbText
 10
72.5
 20
14.5
 30
0.0
 40
2.4
  1
99616-10-N9MT0802CT2T-H-NC9076
  7
STYLE1
100
AcDbText
  0
TEXT
  5
C6F5
100
AcDbEntity
  8
TEXT
100
AcDbText
 10
37.0
 20
2.5
 30
0.0
 40
3.0
  1
13,03,18
  7
STYLE1
100
AcDbText
  0
TEXT
  5
C6F6
100
AcDbEntity
  8
TEXT
100
AcDbText
 10
41.0
 20
8.5
 30
0.0
 40
3.0
  1
1:1
  7
STYLE1
100
AcDbText
  0
LINE
  5
C6F8
100
AcDbEntity
  8
0
100
AcDbLine
 10
76.0
 20
19.0
 30
0.0
 11
76.0
 21
31.0
 31
0.0
  0
TEXT
  5
C6F9
100
AcDbEntity
  8
TEXT
100
AcDbText
 10
132.0
 20
20.5
 30
0.0
 40
3.0
  1
Screw,key 
  7
STYLE1
100
AcDbText
  0
TEXT
  5
C6FA
100
AcDbEntity
  8
TEXT
100
AcDbText
 10
86.0
 20
20.5
 30
0.0
 40
3.0
  1
Insert
  7
STYLE1
100
AcDbText
  0
LINE
  5
C6FB
100
AcDbEntity
  8
0
100
AcDbLine
 10
124.0
 20
19.0
 30
0.0
 11
124.0
 21
31.0
 31
0.0
  0
TEXT
  5
C6FC
100
AcDbEntity
  8
TEXT
100
AcDbText
 10
176.0
 20
20.5
 30
0.0
 40
3.0
  1
P.S
  7
STYLE1
100
AcDbText
  0
LINE
  5
C6FD
100
AcDbEntity
  8
0
100
AcDbLine
 10
169.0
 20
19.0
 30
0.0
 11
169.0
 21
31.0
 31
0.0
  0
LINE
  5
C6FE
100
AcDbEntity
  8
0
 62
     4
100
AcDbLine
 10
71.0
 20
31.0
 30
0.0
 11
192.0
 21
31.0
 31
0.0
  0
LINE
  5
C6FF
100
AcDbEntity
  8
0
 62
     4
100
AcDbLine
 10
71.0
 20
25.0
 30
0.0
 11
192.0
 21
25.0
 31
0.0
  0
TEXT
  5
C700
100
AcDbEntity
  8
TEXT
100
AcDbText
 10
71.5
 20
20.5
 30
0.0
 40
2.5
  1
NO
  7
STYLE1
100
AcDbText
  0
TEXT
  5
C701
100
AcDbEntity
  8
TEXT
100
AcDbText
 10
72.5
 20
26.5
 30
0.0
 40
2.5
  1
1
  7
STYLE1
100
AcDbText
  0
LWPOLYLINE
  5
C702
100
AcDbEntity
  8
TEXT
100
AcDbPolyline
 90
        4
 70
     1
 43
0.0
 10
2.0
 20
281.0
 10
192.0
 20
281.0
 10
192.0
 20
1.0
 10
2.0
 20
1.0
  0
LWPOLYLINE
  5
C703
100
AcDbEntity
  8
0
100
AcDbPolyline
 90
        4
 70
     1
 43
0.0
 10
1.0
 20
282.0
 10
193.0
 20
282.0
 10
193.0
 20
0.0
 10
1.0
 20
0.0
  0
LINE
  5
C704
100
AcDbEntity
  8
0
 62
     4
100
AcDbLine
 10
2.0
 20
7.0
 30
0.0
 11
124.0
 21
7.0
 31
0.0
  0
LINE
  5
C705
100
AcDbEntity
  8
0
 62
     4
100
AcDbLine
 10
2.0
 20
13.0
 30
0.0
 11
124.0
 21
13.0
 31
0.0
  0
LINE
  5
C706
100
AcDbEntity
  8
0
100
AcDbLine
 10
105.0
 20
7.0
 30
0.0
 11
105.0
 21
1.0
 31
0.0
  0
TEXT
  5
C707
100
AcDbEntity
  8
TEXT
100
AcDbText
 10
125.5
 20
8.5
 30
0.0
 40
3.0
  1
TEL:886-4-22707722 FAX:22789766
  7
STYLE1
100
AcDbText
  0
TEXT
  5
C708
100
AcDbEntity
  8
TEXT
100
AcDbText
 10
125.5
 20
13.5
 30
0.0
 40
4.5
  1
Nine-9 Cutting Tools
  7
STYLE1
100
AcDbText
  0
TEXT
  5
C709
100
AcDbEntity
  8
TEXT
100
AcDbText
 10
125.5
 20
2.5
 30
0.0
 40
3.0
  1
E-mail:n9n9@ms16.hinet.net
  7
STYLE1
100
AcDbText
  0
LINE
  5
C70A
100
AcDbEntity
  8
0
100
AcDbLine
 10
124.0
 20
1.0
 30
0.0
 11
124.0
 21
19.0
 31
0.0
  0
LINE
  5
C70B
100
AcDbEntity
  8
0
100
AcDbLine
 10
2.0
 20
19.0
 30
0.0
 11
192.0
 21
19.0
 31
0.0
  0
LINE
  5
C70C
100
AcDbEntity
  8
0
100
AcDbLine
 10
71.0
 20
1.0
 30
0.0
 11
71.0
 21
31.0
 31
0.0
  0
TEXT
  5
C70D
100
AcDbEntity
  8
TEXT
100
AcDbText
 10
55.0
 20
2.5
 30
0.0
 40
3.0
  1
DRAWN
  7
STYLE1
100
AcDbText
  0
TEXT
  5
C70E
100
AcDbEntity
  8
TEXT
100
AcDbText
 10
76.182381
 20
2.5
 30
0.0
 40
3.0
  1
kevin
  7
STYLE1
100
AcDbText
  0
TEXT
  5
C70F
100
AcDbEntity
  8
TEXT
100
AcDbText
 10
91.0
 20
2.5
 30
0.0
 40
3.0
  1
APPRD
  7
STYLE1
100
AcDbText
  0
LINE
  5
C710
100
AcDbEntity
  8
0
100
AcDbLine
 10
90.0
 20
7.0
 30
0.0
 11
90.0
 21
1.0
 31
0.0
  0
LINE
  5
C711
100
AcDbEntity
  8
0
 62
     4
100
AcDbLine
 10
2.0
 20
31.0
 30
0.0
 11
71.0
 21
31.0
 31
0.0
  0
LINE
  5
C712
100
AcDbEntity
  8
0
 62
     4
100
AcDbLine
 10
2.0
 20
25.0
 30
0.0
 11
71.0
 21
25.0
 31
0.0
  0
TEXT
  5
C713
100
AcDbEntity
  8
TEXT
100
AcDbText
 10
55.0
 20
8.5
 30
0.0
 40
3.0
  1
PROJECT
  7
STYLE1
100
AcDbText
  0
LINE
  5
C714
100
AcDbEntity
  8
0
100
AcDbLine
 10
54.0
 20
31.0
 30
0.0
 11
54.0
 21
1.0
 31
0.0
  0
TEXT
  5
C715
100
AcDbEntity
  8
TEXT
100
AcDbText
 10
55.0
 20
14.5
 30
0.0
 40
3.0
  1
DWG.NO
  7
STYLE1
100
AcDbText
  0
TEXT
  5
C716
100
AcDbEntity
  8
TEXT
100
AcDbText
 10
42.5
 20
20.5
 30
0.0
 40
3.0
  1
APPRD
  7
STYLE1
100
AcDbText
  0
TEXT
  5
C717
100
AcDbEntity
  8
TEXT
100
AcDbText
 10
57.5
 20
20.5
 30
0.0
 40
3.0
  1
DATE
  7
STYLE1
100
AcDbText
  0
TEXT
  5
C718
100
AcDbEntity
  8
TEXT
100
AcDbText
 10
3.0
 20
14.5
 30
0.0
 40
3.0
  1
MATL
  7
STYLE1
100
AcDbText
  0
TEXT
  5
C719
100
AcDbEntity
  8
TEXT
100
AcDbText
 10
3.0
 20
20.5
 30
0.0
 40
3.0
  1
NO.
  7
STYLE1
100
AcDbText
  0
LINE
  5
C71A
100
AcDbEntity
  8
0
100
AcDbLine
 10
24.0
 20
1.0
 30
0.0
 11
24.0
 21
13.0
 31
0.0
  0
LINE
  5
C71B
100
AcDbEntity
  8
0
100
AcDbLine
 10
36.0
 20
1.0
 30
0.0
 11
36.0
 21
13.0
 31
0.0
  0
LINE
  5
C71C
100
AcDbEntity
  8
0
100
AcDbLine
 10
12.0
 20
31.0
 30
0.0
 11
12.0
 21
1.0
 31
0.0
  0
TEXT
  5
C71D
100
AcDbEntity
  8
TEXT
100
AcDbText
 10
18.5
 20
20.5
 30
0.0
 40
3.0
  1
CHANGED
  7
STYLE1
100
AcDbText
  0
LINE
  5
C71E
100
AcDbEntity
  8
0
100
AcDbLine
 10
41.0
 20
19.0
 30
0.0
 11
41.0
 21
31.0
 31
0.0
  0
TEXT
  5
C71F
100
AcDbEntity
  8
TEXT
100
AcDbText
 10
3.0
 20
2.5
 30
0.0
 40
3.0
  1
UNIT
  7
STYLE1
100
AcDbText
  0
TEXT
  5
C720
100
AcDbEntity
  8
TEXT
100
AcDbText
 10
3.0
 20
8.5
 30
0.0
 40
3.0
  1
QTY
  7
STYLE1
100
AcDbText
  0
TEXT
  5
C721
100
AcDbEntity
  8
TEXT
100
AcDbText
 10
25.0
 20
8.5
 30
0.0
 40
3.0
  1
SCALE
  7
STYLE1
100
AcDbText
  0
TEXT
  5
C722
100
AcDbEntity
  8
TEXT
100
AcDbText
 10
16.0
 20
2.5
 30
0.0
 40
3.0
  1
MM
  7
STYLE1
100
AcDbText
  0
TEXT
  5
C723
100
AcDbEntity
  8
TEXT
100
AcDbText
 10
25.0
 20
2.5
 30
0.0
 40
3.0
  1
DATE
  7
STYLE1
100
AcDbText
  0
TEXT
  5
EFC8
100
AcDbEntity
  8
TEXT
100
AcDbText
 10
76.967034
 20
26.5
 30
0.0
 40
2.8
  1
N9MT0802CT2T-H-NC9076 x1
  7
STYLE1
100
AcDbText
  0
TEXT
  5
EFCA
100
AcDbEntity
  8
TEXT
100
AcDbText
 10
124.967034
 20
26.5
 30
0.0
 40
3.0
  1
(M3.0)NS-30055(T8)
  7
STYLE1
100
AcDbText
  0
LINE
  5
F457
100
AcDbEntity
  8
BODY
100
AcDbLine
 10
67.992431
 20
216.133837
 30
0.0
 11
75.992431
 21
216.133837
 31
0.0
  0
LINE
  5
F458
100
AcDbEntity
  8
BODY
100
AcDbLine
 10
66.992431
 20
215.133837
 30
0.0
 11
66.992431
 21
214.462993
 31
0.0
  0
LINE
  5
F459
100
AcDbEntity
  8
BODY
100
AcDbLine
 10
76.992431
 20
215.133837
 30
0.0
 11
76.992431
 21
214.462993
 31
0.0
  0
LINE
  5
FA9C
100
AcDbEntity
  8
BODY
100
AcDbLine
 10
66.992431
 20
215.133837
 30
0.0
 11
67.992431
 21
216.133837
 31
0.0
  0
LINE
  5
FA9D
100
AcDbEntity
  8
BODY
100
AcDbLine
 10
75.992431
 20
216.133837
 30
0.0
 11
76.992431
 21
215.133837
 31
0.0
  0
LINE
  5
FA9E
100
AcDbEntity
  8
BODY
100
AcDbLine
 10
66.992431
 20
215.133837
 30
0.0
 11
76.992431
 21
215.133837
 31
0.0
  0
ARC
  5
FAA1
100
AcDbEntity
  8
BODY
100
AcDbCircle
 10
78.242431
 20
213.633837
 30
0.0
 40
1.5
100
AcDbArc
 50
146.44269
 51
213.55731
  0
LINE
  5
FAA2
100
AcDbEntity
  8
HA
100
AcDbLine
 10
76.992431
 20
214.462993
 30
0.0
 11
66.992431
 21
214.462993
 31
0.0
  0
LINE
  5
FAA3
100
AcDbEntity
  8
HA
100
AcDbLine
 10
76.992431
 20
212.804681
 30
0.0
 11
66.992431
 21
212.804681
 31
0.0
  0
LINE
  5
FAA4
100
AcDbEntity
  8
BODY
100
AcDbLine
 10
76.992431
 20
212.804681
 30
0.0
 11
76.992431
 21
144.133837
 31
0.0
  0
ARC
  5
FAA5
100
AcDbEntity
  8
BODY
100
AcDbCircle
 10
65.742431
 20
213.633837
 30
0.0
 40
1.5
100
AcDbArc
 50
326.44269
 51
33.55731
  0
LINE
  5
FAA6
100
AcDbEntity
  8
BODY
100
AcDbLine
 10
66.992431
 20
212.804681
 30
0.0
 11
66.992431
 21
144.133837
 31
0.0
  0
DIMENSION
  5
FBAC
100
AcDbEntity
  8
DIM
100
AcDbDimension
  2
*D0
 10
76.992431
 20
219.922615
 30
0.0
 11
71.992431
 21
222.172615
 31
0.0
 12
-9.557694
 22
-9.552938
 32
0.0
 70
    32
  3
STANDARD
100
AcDbAlignedDimension
 13
66.992431
 23
215.133837
 33
0.0
 14
76.992431
 24
215.133837
 34
0.0
100
AcDbRotatedDimension
1001
ACAD
1000
DSTYLE
1002
{
1070
    78
1070
     8
1070
   284
1070
     8
1070
   140
1040
2.5
1070
    47
1040
-0.005
1070
    74
1070
     0
1070
   172
1070
     1
1070
    48
1040
0.015
1070
    73
1070
     0
1070
   146
1040
0.5
1070
   272
1070
     3
1070
    77
1070
     1
1070
     3
1000
%%C<>
1070
   147
1040
1.0
1070
    42
1040
1.0
1070
    44
1040
1.0
1070
    43
1040
1.0
1070
   271
1070
     3
1070
    41
1040
2.5
1002
}
  0
DIMENSION
  5
FBDE
100
AcDbEntity
  8
DIM
100
AcDbDimension
  2
*D1
 10
88.516162
 20
126.133837
 30
0.0
 11
86.266162
 21
171.133837
 31
0.0
 12
-9.557694
 22
-9.552938
 32
0.0
 70
    32
  3
STANDARD
100
AcDbAlignedDimension
 13
75.992431
 23
216.133837
 33
0.0
 14
72.092431
 24
126.133837
 34
0.0
 50
90.0
100
AcDbRotatedDimension
1001
ACAD
1000
DSTYLE
1002
{
1070
    78
1070
     8
1070
   284
1070
     8
1070
   140
1040
2.5
1070
    47
1040
0.05
1070
    74
1070
     0
1070
   172
1070
     1
1070
    48
1040
0.05
1070
    73
1070
     0
1070
   146
1040
0.5
1070
   272
1070
     2
1070
    77
1070
     1
1070
   147
1040
1.0
1070
    42
1040
1.0
1070
    44
1040
1.0
1070
    43
1040
1.0
1070
   271
1070
     2
1070
    41
1040
2.5
1002
}
  0
TEXT
  5
10445
100
AcDbEntity
  8
TEXT
100
AcDbText
 10
72.5
 20
8.5
 30
0.0
 40
2.2
  1
BC10-CT-10-N9MT0802CT2T-H-NC9076
  7
STYLE1
100
AcDbText
  0
LINE
  5
10446
100
AcDbEntity
  8
BODY
100
AcDbLine
 10
69.992431
 20
128.355062
 30
0.0
 11
67.092431
 21
131.575838
 31
0.0
  0
LINE
  5
10447
100
AcDbEntity
  8
BODY
100
AcDbLine
 10
73.992431
 20
128.355062
 30
0.0
 11
76.892431
 21
131.575838
 31
0.0
  0
LINE
  5
10448
100
AcDbEntity
  8
BODY
100
AcDbLine
 10
73.992431
 20
128.355062
 30
0.0
 11
69.992431
 21
128.355062
 31
0.0
  0
DIMENSION
  5
10F1A
100
AcDbEntity
  8
DIM
100
AcDbDimension
  2
*D2
 10
66.306595
 20
118.851519
 30
0.0
 11
71.989534
 21
118.851519
 31
0.0
 70
   160
  1
%%c11.36
  3
STANDARD
100
AcDbAlignedDimension
 13
77.672473
 23
131.713879
 33
0.0
 14
66.306595
 24
131.722756
 34
0.0
100
AcDbRotatedDimension
1001
ACAD
1000
DSTYLE
1002
{
1070
    78
1070
     8
1070
   284
1070
     8
1070
   140
1040
2.5
1070
    47
1040
0.05
1070
    74
1070
     0
1070
   172
1070
     1
1070
    48
1040
0.05
1070
    73
1070
     0
1070
   146
1040
0.5
1070
   272
1070
     2
1070
    77
1070
     1
1070
    76
1070
     1
1070
   282
1070
     1
1070
     3
1000
%%C<>
1070
   147
1040
1.0
1070
    42
1040
1.0
1070
    44
1040
1.0
1070
    43
1040
1.0
1070
   271
1070
     2
1070
    41
1040
2.5
1002
}
  0
ARC
  5
1106E
100
AcDbEntity
  8
INSERT
100
AcDbCircle
 10
72.092431
 20
136.42321
 30
0.0
 40
1.0
100
AcDbArc
 50
8.130102
 51
171.869898
  0
LINE
  5
115F9
100
AcDbEntity
  8
CEN
100
AcDbLine
 10
71.992431
 20
218.133837
 30
0.0
 11
71.992431
 21
124.133837
 31
0.0
  0
LINE
  5
116E3
100
AcDbEntity
  8
BODY
100
AcDbLine
 10
115.081426
 20
212.804681
 30
0.0
 11
115.081426
 21
144.133837
 31
0.0
  0
LINE
  5
116E4
100
AcDbEntity
  8
BODY
100
AcDbLine
 10
125.081426
 20
212.804681
 30
0.0
 11
125.081426
 21
144.133837
 31
0.0
  0
LINE
  5
116E5
100
AcDbEntity
  8
CEN
100
AcDbLine
 10
120.081426
 20
218.133837
 30
0.0
 11
120.081426
 21
124.133837
 31
0.0
  0
LINE
  5
116E6
100
AcDbEntity
  8
BODY
100
AcDbLine
 10
122.19155
 20
128.477367
 30
0.0
 11
124.981426
 21
131.575838
 31
0.0
  0
LINE
  5
116E7
100
AcDbEntity
  8
BODY
100
AcDbLine
 10
122.19155
 20
128.477367
 30
0.0
 11
121.389039
 21
135.013291
 31
0.0
  0
LWPOLYLINE
  5
116E8
102
{ACAD_REACTORS
330
117AD
102
}
100
AcDbEntity
  8
INSERT
100
AcDbPolyline
 90
        4
 70
     1
 43
0.0
 10
121.389039
 20
135.013291
 10
122.200306
 20
128.406057
 10
120.081426
 20
126.133837
 10
118.7834
 20
136.705413
  0
LINE
  5
116E9
100
AcDbEntity
  8
CEN
100
AcDbLine
 10
116.202242
 20
130.85747
 30
0.0
 11
124.454931
 21
132.312642
 31
0.0
  0
LINE
  5
116EB
100
AcDbEntity
  8
HI
 48
0.3
100
AcDbLine
 10
120.626986
 20
133.178316
 30
0.0
 11
121.599682
 21
133.297748
 31
0.0
  0
LWPOLYLINE
  5
116EC
100
AcDbEntity
  8
TEXT
100
AcDbPolyline
 90
        3
 70
     0
 43
0.0
 10
120.545018
 20
126.32114
 10
122.365967
 20
127.056852
 10
122.278009
 20
127.773213
  0
LINE
  5
116ED
100
AcDbEntity
  8
HI
 48
0.3
100
AcDbLine
 10
121.016968
 20
130.002168
 30
0.0
 11
121.989664
 21
130.1216
 31
0.0
  0
LINE
  5
116EE
100
AcDbEntity
  8
HI
 48
0.3
100
AcDbLine
 10
119.798021
 20
128.441987
 30
0.0
 11
121.016968
 21
130.002168
 31
0.0
  0
LINE
  5
116EF
100
AcDbEntity
  8
HI
 48
0.3
100
AcDbLine
 10
119.066805
 20
134.397264
 30
0.0
 11
120.626986
 21
133.178316
 31
0.0
  0
LINE
  5
116F0
100
AcDbEntity
  8
HI
 48
0.3
100
AcDbLine
 10
120.626986
 20
133.178316
 30
0.0
 11
121.016968
 21
130.002168
 31
0.0
  0
LINE
  5
116F2
100
AcDbEntity
  8
BODY
100
AcDbLine
 10
118.980465
 20
136.577438
 30
0.0
 11
121.389039
 21
135.013291
 31
0.0
  0
LWPOLYLINE
  5
116F3
100
AcDbEntity
  8
TEXT
100
AcDbPolyline
 90
        3
 70
     0
 43
0.0
 10
119.278534
 20
136.635827
 10
121.223378
 20
136.362497
 10
121.311336
 20
135.646136
  0
LINE
  5
116F5
100
AcDbEntity
  8
HA
100
AcDbLine
 10
125.081426
 20
214.462993
 30
0.0
 11
115.081426
 21
214.462993
 31
0.0
  0
LINE
  5
116F6
100
AcDbEntity
  8
HA
100
AcDbLine
 10
125.081426
 20
212.804681
 30
0.0
 11
115.081426
 21
212.804681
 31
0.0
  0
LINE
  5
116F7
100
AcDbEntity
  8
BODY
100
AcDbLine
 10
115.081426
 20
215.133837
 30
0.0
 11
125.081426
 21
215.133837
 31
0.0
  0
LINE
  5
116F8
100
AcDbEntity
  8
BODY
100
AcDbLine
 10
124.081426
 20
216.133837
 30
0.0
 11
125.081426
 21
215.133837
 31
0.0
  0
LINE
  5
116F9
100
AcDbEntity
  8
BODY
100
AcDbLine
 10
116.081426
 20
216.133837
 30
0.0
 11
124.081426
 21
216.133837
 31
0.0
  0
ARC
  5
116FA
100
AcDbEntity
  8
BODY
100
AcDbCircle
 10
113.831426
 20
213.633837
 30
0.0
 40
1.5
100
AcDbArc
 50
326.44269
 51
33.55731
  0
LINE
  5
116FB
100
AcDbEntity
  8
BODY
100
AcDbLine
 10
115.081426
 20
215.133837
 30
0.0
 11
116.081426
 21
216.133837
 31
0.0
  0
LINE
  5
116FC
100
AcDbEntity
  8
BODY
100
AcDbLine
 10
115.081426
 20
215.133837
 30
0.0
 11
115.081426
 21
214.462993
 31
0.0
  0
ARC
  5
116FD
100
AcDbEntity
  8
BODY
100
AcDbCircle
 10
126.331426
 20
213.633837
 30
0.0
 40
1.5
100
AcDbArc
 50
146.44269
 51
213.55731
  0
LINE
  5
116FE
100
AcDbEntity
  8
BODY
100
AcDbLine
 10
125.081426
 20
215.133837
 30
0.0
 11
125.081426
 21
214.462993
 31
0.0
  0
LINE
  5
117AC
100
AcDbEntity
  8
BODY
100
AcDbLine
 10
118.814747
 20
137.927101
 30
0.0
 11
115.181426
 21
141.560422
 31
0.0
  0
HATCH
  5
117AD
100
AcDbEntity
  8
INSERT
100
AcDbHatch
 10
0.0
 20
0.0
 30
0.0
210
0.0
220
0.0
230
1.0
  2
ANSI31
 70
     0
 71
     1
 91
        1
 92
        1
 93
        4
 72
     1
 10
121.389039
 20
135.013291
 11
122.200306
 21
128.406057
 72
     1
 10
122.200306
 20
128.406057
 11
120.081426
 21
126.133837
 72
     1
 10
120.081426
 20
126.133837
 11
118.7834
 21
136.705413
 72
     1
 10
118.7834
 20
136.705413
 11
121.389039
 21
135.013291
 97
        1
330
116E8
 75
     0
 76
     1
 52
0.0
 41
1.0
 77
     0
 78
     1
 53
45.0
 43
-23.320775
 44
-9.552938
 45
-0.0883883476483184
 46
0.0883883476483185
 79
     0
 98
        1
 10
-23.320775
 20
-9.552938
  0
LINE
  5
11844
100
AcDbEntity
  8
BODY
100
AcDbLine
 10
76.992431
 20
144.133837
 30
0.0
 11
66.992431
 21
144.133837
 31
0.0
  0
LINE
  5
11845
100
AcDbEntity
  8
BODY
100
AcDbLine
 10
67.092431
 20
144.033837
 30
0.0
 11
67.092431
 21
131.575838
 31
0.0
  0
LINE
  5
11846
100
AcDbEntity
  8
BODY
100
AcDbLine
 10
76.892431
 20
144.033837
 30
0.0
 11
76.892431
 21
131.575838
 31
0.0
  0
LINE
  5
11847
100
AcDbEntity
  8
BODY
100
AcDbLine
 10
66.992431
 20
144.133837
 30
0.0
 11
67.092431
 21
144.033837
 31
0.0
  0
LINE
  5
11848
100
AcDbEntity
  8
BODY
100
AcDbLine
 10
76.992431
 20
144.133837
 30
0.0
 11
76.892431
 21
144.033837
 31
0.0
  0
LINE
  5
1184A
100
AcDbEntity
  8
HA
100
AcDbLine
 10
76.892431
 20
138.133837
 30
0.0
 11
67.092431
 21
138.133837
 31
0.0
  0
SPLINE
  5
1184C
100
AcDbEntity
  8
BODY
100
AcDbSpline
210
0.0
220
0.0
230
-1.0
 70
     8
 71
     3
 72
     9
 73
     5
 74
     3
 42
0.0000001
 43
0.0000001
 44
0.0000000001
 40
0.0
 40
0.0
 40
0.0
 40
0.0
 40
6.037118821150676
 40
12.07423764230135
 40
12.07423764230135
 40
12.07423764230135
 40
12.07423764230135
 10
76.89243065652219
 20
138.1338370721175
 30
0.0
 10
75.25909732318885
 20
139.8971297067
 30
0.0
 10
71.99243065652216
 20
143.4237149758649
 30
0.0
 10
68.7257639898555
 20
139.8971297067
 30
0.0
 10
67.09243065652215
 20
138.1338370721175
 30
0.0
 11
76.89243065652219
 21
138.1338370721175
 31
0.0
 11
71.99243065652217
 21
141.6604223412825
 31
0.0
 11
67.09243065652215
 21
138.1338370721175
 31
0.0
  0
LINE
  5
1184E
100
AcDbEntity
  8
BODY
100
AcDbLine
 10
67.092431
 20
144.033837
 30
0.0
 11
76.892431
 21
144.033837
 31
0.0
  0
LINE
  5
11850
100
AcDbEntity
  8
BODY
100
AcDbLine
 10
115.081426
 20
144.133837
 30
0.0
 11
125.081426
 21
144.133837
 31
0.0
  0
LINE
  5
11851
100
AcDbEntity
  8
BODY
100
AcDbLine
 10
124.981426
 20
144.033837
 30
0.0
 11
124.981426
 21
131.575838
 31
0.0
  0
LINE
  5
11852
100
AcDbEntity
  8
BODY
100
AcDbLine
 10
125.081426
 20
144.133837
 30
0.0
 11
124.981426
 21
144.033837
 31
0.0
  0
LINE
  5
11853
100
AcDbEntity
  8
BODY
100
AcDbLine
 10
124.981426
 20
144.033837
 30
0.0
 11
115.181426
 21
144.033837
 31
0.0
  0
LINE
  5
11864
100
AcDbEntity
  8
BODY
100
AcDbLine
 10
115.081426
 20
144.133837
 30
0.0
 11
115.181426
 21
144.033837
 31
0.0
  0
LINE
  5
11865
100
AcDbEntity
  8
BODY
100
AcDbLine
 10
115.181426
 20
144.033837
 30
0.0
 11
115.181426
 21
141.560422
 31
0.0
  0
DIMENSION
  5
11875
100
AcDbEntity
  8
DIM
100
AcDbDimension
  2
*D3
 10
76.892431
 20
131.575838
 30
0.0
 11
80.829446
 21
138.891866
 31
0.0
 12
-9.557694
 22
-9.552938
 32
0.0
 70
   162
  3
STANDARD
100
AcDb2LineAngularDimension
 13
72.658116
 23
126.368152
 33
0.0
 14
77.402803
 24
131.112838
 34
0.0
 15
76.892431
 25
144.033837
 35
0.0
 16
79.267569
 26
139.466605
 36
0.0
1001
ACAD
1000
DSTYLE
1002
{
1070
    78
1070
     8
1070
   288
1070
     1
1070
   284
1070
     8
1070
   140
1040
2.5
1070
    47
1040
0.05
1070
    74
1070
     0
1070
   172
1070
     1
1070
    48
1040
0.05
1070
    73
1070
     0
1070
   146
1040
0.5
1070
   272
1070
     2
1070
    77
1070
     1
1070
   147
1040
1.0
1070
    42
1040
1.0
1070
    44
1040
1.0
1070
    43
1040
1.0
1070
   271
1070
     2
1070
    41
1040
2.5
1002
}
  0
LINE
  5
12B5A
100
AcDbEntity
  8
BODY
100
AcDbLine
 10
118.980465
 20
136.577438
 30
0.0
 11
118.814747
 21
137.927101
 31
0.0
  0
INSERT
  5
15063
100
AcDbEntity
  8
INSERT
100
AcDbBlockReference
  2
A$C103B45EE
 10
72.127786
 20
124.883227
 30
0.0
 50
45.0
  0
ENDSEC
  0
SECTION
  2
OBJECTS
  0
DICTIONARY
  5
C
100
AcDbDictionary
  3
ACAD_GROUP
350
D
  3
ACAD_MLINESTYLE
350
1A
  3
ACDBVARIABLEDICTIONARY
350
3B
  0
DICTIONARY
  5
D
102
{ACAD_REACTORS
330
C
102
}
100
AcDbDictionary
  0
DICTIONARY
  5
1A
102
{ACAD_REACTORS
330
C
102
}
100
AcDbDictionary
  3
STANDARD
350
1B
  0
DICTIONARY
  5
3B
102
{ACAD_REACTORS
330
C
102
}
100
AcDbDictionary
  3
DIMADEC
350
3C
  3
SORTENTS
350
5EEA
  0
MLINESTYLE
  5
1B
102
{ACAD_REACTORS
330
1A
102
}
100
AcDbMlineStyle
  2
STANDARD
 70
     0
  3

 62
   256
 51
90.0
 52
90.0
 71
     2
 49
0.5
 62
   256
  6
BYLAYER
 49
-0.5
 62
   256
  6
BYLAYER
  0
DICTIONARYVAR
  5
3C
102
{ACAD_REACTORS
330
3B
102
}
100
DictionaryVariables
280
     0
  1
2
  0
DICTIONARYVAR
  5
5EEA
102
{ACAD_REACTORS
330
3B
102
}
100
DictionaryVariables
280
     0
  1
96
  0
ENDSEC
  0
EOF
