  0
SECTION
  2
HEADER
  9
$ACADVER
  1
AC1014
  9
$ACADMAINTVER
 70
     0
  9
$DWGCODEPAGE
  3
ANSI_950
  9
$INSBASE
 10
0.0
 20
0.0
 30
0.0
  9
$EXTMIN
 10
72.073875
 20
136.08083
 30
0.0
  9
$EXTMAX
 10
144.153119
 20
210.521021
 30
0.0
  9
$LIMMIN
 10
0.0
 20
0.0
  9
$LIMMAX
 10
210.0
 20
297.0
  9
$ORTHOMODE
 70
     0
  9
$REGENMODE
 70
     1
  9
$FILLMODE
 70
     1
  9
$QTEXTMODE
 70
     0
  9
$MIRRTEXT
 70
     1
  9
$DRAGMODE
 70
     2
  9
$LTSCALE
 40
6.0
  9
$OSMODE
 70
    59
  9
$ATTMODE
 70
     1
  9
$TEXTSIZE
 40
1.0
  9
$TRACEWID
 40
0.05
  9
$TEXTSTYLE
  7
STYLE1
  9
$CLAYER
  8
2
  9
$CELTYPE
  6
BYLAYER
  9
$CECOLOR
 62
   256
  9
$CELTSCALE
 40
1.0
  9
$DELOBJ
 70
     1
  9
$DISPSILH
 70
     0
  9
$DIMSCALE
 40
1.0
  9
$DIMASZ
 40
2.5
  9
$DIMEXO
 40
1.0
  9
$DIMDLI
 40
8.0
  9
$DIMRND
 40
0.0
  9
$DIMDLE
 40
0.0
  9
$DIMEXE
 40
1.0
  9
$DIMTP
 40
0.0
  9
$DIMTM
 40
0.0
  9
$DIMTXT
 40
2.5
  9
$DIMCEN
 40
0.0
  9
$DIMTSZ
 40
0.0
  9
$DIMTOL
 70
     0
  9
$DIMLIM
 70
     0
  9
$DIMTIH
 70
     0
  9
$DIMTOH
 70
     0
  9
$DIMSE1
 70
     0
  9
$DIMSE2
 70
     0
  9
$DIMTAD
 70
     1
  9
$DIMZIN
 70
     8
  9
$DIMBLK
  1

  9
$DIMASO
 70
     1
  9
$DIMSHO
 70
     1
  9
$DIMPOST
  1

  9
$DIMAPOST
  1

  9
$DIMALT
 70
     0
  9
$DIMALTD
 70
     2
  9
$DIMALTF
 40
25.4
  9
$DIMLFAC
 40
1.0
  9
$DIMTOFL
 70
     1
  9
$DIMTVP
 40
0.0
  9
$DIMTIX
 70
     0
  9
$DIMSOXD
 70
     0
  9
$DIMSAH
 70
     0
  9
$DIMBLK1
  1

  9
$DIMBLK2
  1

  9
$DIMSTYLE
  2
STANDARD
  9
$DIMCLRD
 70
     0
  9
$DIMCLRE
 70
     0
  9
$DIMCLRT
 70
     0
  9
$DIMTFAC
 40
0.5
  9
$DIMGAP
 40
1.0
  9
$DIMJUST
 70
     0
  9
$DIMSD1
 70
     0
  9
$DIMSD2
 70
     0
  9
$DIMTOLJ
 70
     1
  9
$DIMTZIN
 70
     8
  9
$DIMALTZ
 70
     0
  9
$DIMALTTZ
 70
     0
  9
$DIMFIT
 70
     3
  9
$DIMUPT
 70
     0
  9
$DIMUNIT
 70
     2
  9
$DIMDEC
 70
     2
  9
$DIMTDEC
 70
     2
  9
$DIMALTU
 70
     2
  9
$DIMALTTD
 70
     2
  9
$DIMTXSTY
  7
STANDARD
  9
$DIMAUNIT
 70
     0
  9
$LUNITS
 70
     2
  9
$LUPREC
 70
     4
  9
$SKETCHINC
 40
0.1
  9
$FILLETRAD
 40
0.7
  9
$AUNITS
 70
     0
  9
$AUPREC
 70
     3
  9
$MENU
  1
acad
  9
$ELEVATION
 40
0.0
  9
$PELEVATION
 40
0.0
  9
$THICKNESS
 40
0.0
  9
$LIMCHECK
 70
     0
  9
$BLIPMODE
 70
     1
  9
$CHAMFERA
 40
0.0
  9
$CHAMFERB
 40
0.0
  9
$CHAMFERC
 40
0.0
  9
$CHAMFERD
 40
0.0
  9
$SKPOLY
 70
     0
  9
$TDCREATE
 40
2450667.492824652
  9
$TDUPDATE
 40
2457624.781583287
  9
$TDINDWG
 40
3.6024814005
  9
$TDUSRTIMER
 40
3.6024814005
  9
$USRTIMER
 70
     1
  9
$ANGBASE
 50
0.0
  9
$ANGDIR
 70
     0
  9
$PDMODE
 70
     0
  9
$PDSIZE
 40
0.0
  9
$PLINEWID
 40
0.0
  9
$COORDS
 70
     0
  9
$SPLFRAME
 70
     0
  9
$SPLINETYPE
 70
     6
  9
$SPLINESEGS
 70
     8
  9
$ATTDIA
 70
     0
  9
$ATTREQ
 70
     1
  9
$HANDLING
 70
     1
  9
$HANDSEED
  5
16FDB
  9
$SURFTAB1
 70
     6
  9
$SURFTAB2
 70
     6
  9
$SURFTYPE
 70
     6
  9
$SURFU
 70
     6
  9
$SURFV
 70
     6
  9
$UCSNAME
  2

  9
$UCSORG
 10
0.0
 20
0.0
 30
0.0
  9
$UCSXDIR
 10
1.0
 20
0.0
 30
0.0
  9
$UCSYDIR
 10
0.0
 20
1.0
 30
0.0
  9
$PUCSNAME
  2

  9
$PUCSORG
 10
0.0
 20
0.0
 30
0.0
  9
$PUCSXDIR
 10
1.0
 20
0.0
 30
0.0
  9
$PUCSYDIR
 10
0.0
 20
1.0
 30
0.0
  9
$USERI1
 70
     0
  9
$USERI2
 70
     0
  9
$USERI3
 70
     0
  9
$USERI4
 70
     0
  9
$USERI5
 70
     0
  9
$USERR1
 40
0.0
  9
$USERR2
 40
0.0
  9
$USERR3
 40
0.0
  9
$USERR4
 40
0.0
  9
$USERR5
 40
0.0
  9
$WORLDVIEW
 70
     1
  9
$SHADEDGE
 70
     3
  9
$SHADEDIF
 70
    70
  9
$TILEMODE
 70
     1
  9
$MAXACTVP
 70
    16
  9
$PINSBASE
 10
0.0
 20
0.0
 30
0.0
  9
$PLIMCHECK
 70
     0
  9
$PEXTMIN
 10
1.000000E+20
 20
1.000000E+20
 30
1.000000E+20
  9
$PEXTMAX
 10
-1.000000E+20
 20
-1.000000E+20
 30
-1.000000E+20
  9
$PLIMMIN
 10
0.0
 20
0.0
  9
$PLIMMAX
 10
12.0
 20
9.0
  9
$UNITMODE
 70
     0
  9
$VISRETAIN
 70
     0
  9
$PLINEGEN
 70
     0
  9
$PSLTSCALE
 70
     1
  9
$TREEDEPTH
 70
  3020
  9
$PICKSTYLE
 70
     0
  9
$CMLSTYLE
  2
STANDARD
  9
$CMLJUST
 70
     0
  9
$CMLSCALE
 40
1.0
  9
$PROXYGRAPHICS
 70
     1
  9
$MEASUREMENT
 70
     0
  0
ENDSEC
  0
SECTION
  2
CLASSES
  0
CLASS
  1
DICTIONARYVAR
  2
AcDbDictionaryVar
  3
"AutoCAD"
 90
        0
280
     0
281
     0
  0
CLASS
  1
LWPOLYLINE
  2
AcDbPolyline
  3
"AutoCAD"
 90
        0
280
     0
281
     1
  0
CLASS
  1
HATCH
  2
AcDbHatch
  3
"ACAD_SEDONA"
 90
        0
280
     0
281
     1
  0
ENDSEC
  0
SECTION
  2
TABLES
  0
TABLE
  2
VPORT
  5
8
100
AcDbSymbolTable
 70
     1
  0
VPORT
  5
16FD6
100
AcDbSymbolTableRecord
100
AcDbViewportTableRecord
  2
*ACTIVE
 70
     0
 10
0.0
 20
0.0
 11
1.0
 21
1.0
 12
96.001869
 22
140.992635
 13
0.0
 23
0.0
 14
1.0
 24
1.0
 15
0.0
 25
0.0
 16
0.0
 26
0.0
 36
1.0
 17
0.0
 27
0.0
 37
0.0
 40
284.228213
 41
1.53446
 42
50.0
 43
0.0
 44
0.0
 50
0.0
 51
0.0
 71
     0
 72
 20000
 73
     1
 74
     1
 75
     0
 76
     0
 77
     0
 78
     0
  0
ENDTAB
  0
TABLE
  2
LTYPE
  5
5
100
AcDbSymbolTable
 70
     3
  0
LTYPE
  5
11
100
AcDbSymbolTableRecord
100
AcDbLinetypeTableRecord
  2
BYBLOCK
 70
     0
  3

 72
    65
 73
     0
 40
0.0
  0
LTYPE
  5
12
100
AcDbSymbolTableRecord
100
AcDbLinetypeTableRecord
  2
BYLAYER
 70
     0
  3

 72
    65
 73
     0
 40
0.0
  0
LTYPE
  5
13
100
AcDbSymbolTableRecord
100
AcDbLinetypeTableRecord
  2
CONTINUOUS
 70
     0
  3
Solid line
 72
    65
 73
     0
 40
0.0
  0
LTYPE
  5
2B
100
AcDbSymbolTableRecord
100
AcDbLinetypeTableRecord
  2
CENTER
 70
     0
  3
____ _ ____ _ ____ _ ____ _ ____ _ ____ _ ____ 
 72
    65
 73
     4
 40
2.0
 49
1.25
 74
     0
 49
-0.25
 74
     0
 49
0.25
 74
     0
 49
-0.25
 74
     0
  0
LTYPE
  5
16548
100
AcDbSymbolTableRecord
100
AcDbLinetypeTableRecord
  2
HIDDEN
 70
     0
  3
Hidden __ __ __ __ __ __ __ __ __ __ __ __ __ _
 72
    65
 73
     2
 40
0.375
 49
0.25
 74
     0
 49
-0.125
 74
     0
  0
ENDTAB
  0
TABLE
  2
LAYER
  5
2
100
AcDbSymbolTable
 70
     8
  0
LAYER
  5
E
100
AcDbSymbolTableRecord
100
AcDbLayerTableRecord
  2
0
 70
     0
 62
     7
  6
CONTINUOUS
  0
LAYER
  5
2E
100
AcDbSymbolTableRecord
100
AcDbLayerTableRecord
  2
1
 70
     0
 62
     4
  6
CONTINUOUS
  0
LAYER
  5
2F
100
AcDbSymbolTableRecord
100
AcDbLayerTableRecord
  2
4
 70
     0
 62
     2
  6
CENTER
  0
LAYER
  5
30
100
AcDbSymbolTableRecord
100
AcDbLayerTableRecord
  2
6
 70
     0
 62
     5
  6
CONTINUOUS
  0
LAYER
  5
32
100
AcDbSymbolTableRecord
100
AcDbLayerTableRecord
  2
2
 70
     0
 62
     7
  6
CONTINUOUS
  0
LAYER
  5
33
100
AcDbSymbolTableRecord
100
AcDbLayerTableRecord
  2
DEFPOINTS
 70
     0
 62
     7
  6
CONTINUOUS
  0
LAYER
  5
15D42
100
AcDbSymbolTableRecord
100
AcDbLayerTableRecord
  2
CUT
 70
     0
 62
     1
  6
CONTINUOUS
  0
LAYER
  5
16FCA
100
AcDbSymbolTableRecord
100
AcDbLayerTableRecord
  2
SK6
 70
     0
 62
     5
  6
CONTINUOUS
  0
ENDTAB
  0
TABLE
  2
STYLE
  5
3
100
AcDbSymbolTable
 70
     2
  0
STYLE
  5
F
100
AcDbSymbolTableRecord
100
AcDbTextStyleTableRecord
  2
STANDARD
 70
     0
 40
0.0
 41
1.0
 50
0.0
 71
     0
 42
5.0
  3
txt
  4

  0
STYLE
  5
15F4
100
AcDbSymbolTableRecord
100
AcDbTextStyleTableRecord
  2
STYLE1
 70
     0
 40
3.0
 41
1.0
 50
0.0
 71
     0
 42
3.0
  3

  4

1001
ACAD
1000
標楷體
1071
    34881
  0
ENDTAB
  0
TABLE
  2
VIEW
  5
6
100
AcDbSymbolTable
 70
     0
  0
ENDTAB
  0
TABLE
  2
UCS
  5
7
100
AcDbSymbolTable
 70
     0
  0
ENDTAB
  0
TABLE
  2
APPID
  5
9
100
AcDbSymbolTable
 70
     1
  0
APPID
  5
10
100
AcDbSymbolTableRecord
100
AcDbRegAppTableRecord
  2
ACAD
 70
     0
  0
ENDTAB
  0
TABLE
  2
DIMSTYLE
  5
A
100
AcDbSymbolTable
 70
     1
  0
DIMSTYLE
105
191
102
{ACAD_REACTORS
330
16DFB
330
16DFF
330
16E00
330
16E01
330
16E02
330
16E03
330
16FB6
102
}
100
AcDbSymbolTableRecord
100
AcDbDimStyleTableRecord
  2
STANDARD
 70
     0
  3

  4

  5

  6

  7

 40
1.0
 41
0.18
 42
0.0625
 43
0.38
 44
0.18
 45
0.0
 46
0.0
 47
0.0
 48
0.0
140
0.18
141
0.09
142
0.0
143
25.4
144
1.0
145
0.0
146
1.0
147
0.09
 71
     0
 72
     0
 73
     1
 74
     1
 75
     0
 76
     0
 77
     0
 78
     0
170
     0
171
     2
172
     0
173
     0
174
     0
175
     0
176
     0
177
     0
178
     0
270
     2
271
     4
272
     4
273
     2
274
     2
340
F
275
     0
280
     0
281
     0
282
     0
283
     1
284
     0
285
     0
286
     0
287
     3
288
     0
  0
ENDTAB
  0
TABLE
  2
BLOCK_RECORD
  5
1
100
AcDbSymbolTable
 70
     9
  0
BLOCK_RECORD
  5
17
100
AcDbSymbolTableRecord
100
AcDbBlockTableRecord
  2
*MODEL_SPACE
  0
BLOCK_RECORD
  5
14
100
AcDbSymbolTableRecord
100
AcDbBlockTableRecord
  2
*PAPER_SPACE
  0
BLOCK_RECORD
  5
164A9
100
AcDbSymbolTableRecord
100
AcDbBlockTableRecord
  2
_DOTSMALL
  0
BLOCK_RECORD
  5
16E7F
100
AcDbSymbolTableRecord
100
AcDbBlockTableRecord
  2
*D1
  0
BLOCK_RECORD
  5
16E97
100
AcDbSymbolTableRecord
100
AcDbBlockTableRecord
  2
*D2
  0
BLOCK_RECORD
  5
16EA3
100
AcDbSymbolTableRecord
100
AcDbBlockTableRecord
  2
*D3
  0
BLOCK_RECORD
  5
16EB0
100
AcDbSymbolTableRecord
100
AcDbBlockTableRecord
  2
*D4
  0
BLOCK_RECORD
  5
16EBC
100
AcDbSymbolTableRecord
100
AcDbBlockTableRecord
  2
*D5
  0
BLOCK_RECORD
  5
16EC8
100
AcDbSymbolTableRecord
100
AcDbBlockTableRecord
  2
*D6
  0
BLOCK_RECORD
  5
16FA8
100
AcDbSymbolTableRecord
100
AcDbBlockTableRecord
  2
*D7
  0
BLOCK_RECORD
  5
16FCB
100
AcDbSymbolTableRecord
100
AcDbBlockTableRecord
  2
A$C6066541E
  0
ENDTAB
  0
ENDSEC
  0
SECTION
  2
BLOCKS
  0
BLOCK
  5
37
100
AcDbEntity
  8
0
100
AcDbBlockBegin
  2
*MODEL_SPACE
 70
     0
 10
0.0
 20
0.0
 30
0.0
  3
*MODEL_SPACE
  1

  0
ENDBLK
  5
38
100
AcDbEntity
  8
0
100
AcDbBlockEnd
  0
BLOCK
  5
35
100
AcDbEntity
 67
     1
  8
0
100
AcDbBlockBegin
  2
*PAPER_SPACE
 70
     0
 10
0.0
 20
0.0
 30
0.0
  3
*PAPER_SPACE
  1

  0
ENDBLK
  5
36
100
AcDbEntity
 67
     1
  8
0
100
AcDbBlockEnd
  0
BLOCK
  5
164AE
100
AcDbEntity
  8
0
100
AcDbBlockBegin
  2
_DOTSMALL
 70
     0
 10
0.0
 20
0.0
 30
0.0
  3
_DOTSMALL
  1

  0
POLYLINE
  5
164AA
100
AcDbEntity
  8
0
  6
BYBLOCK
 62
     0
100
AcDb2dPolyline
 66
     1
 10
0.0
 20
0.0
 30
0.0
 70
     1
 40
0.5
 41
0.5
  0
VERTEX
  5
164AB
100
AcDbEntity
  8
0
  6
BYBLOCK
 62
     0
100
AcDbVertex
100
AcDb2dVertex
 10
-0.0625
 20
0.0
 30
0.0
 42
1.0
  0
VERTEX
  5
164AC
100
AcDbEntity
  8
0
  6
BYBLOCK
 62
     0
100
AcDbVertex
100
AcDb2dVertex
 10
0.0625
 20
0.0
 30
0.0
 42
1.0
  0
SEQEND
  5
164AD
100
AcDbEntity
  8
0
  6
BYBLOCK
 62
     0
  0
ENDBLK
  5
164AF
100
AcDbEntity
  8
0
100
AcDbBlockEnd
  0
BLOCK
  5
16F65
100
AcDbEntity
  8
0
100
AcDbBlockBegin
  2
*D1
 70
     1
 10
0.0
 20
0.0
 30
0.0
  3
*D1
  1

  0
LINE
  5
16F66
100
AcDbEntity
  8
0
  6
BYBLOCK
 62
     0
100
AcDbLine
 10
35.250286
 20
161.444572
 30
0.0
 11
37.750286
 21
161.444572
 31
0.0
  0
LINE
  5
16F67
100
AcDbEntity
  8
0
  6
BYBLOCK
 62
     0
100
AcDbLine
 10
23.750286
 20
161.444572
 30
0.0
 11
-2.624714
 21
161.444572
 31
0.0
  0
LINE
  5
16F68
100
AcDbEntity
  8
0
  6
BYBLOCK
 62
     0
100
AcDbLine
 10
32.750286
 20
161.444572
 30
0.0
 11
26.250286
 21
161.444572
 31
0.0
  0
SOLID
  5
16F69
100
AcDbEntity
  8
0
  6
BYBLOCK
 62
     0
100
AcDbTrace
 10
35.250286
 20
161.861239
 30
0.0
 11
35.250286
 21
161.027906
 31
0.0
 12
32.750286
 22
161.444572
 32
0.0
 13
32.750286
 23
161.444572
 33
0.0
  0
SOLID
  5
16F6A
100
AcDbEntity
  8
0
  6
BYBLOCK
 62
     0
100
AcDbTrace
 10
23.750286
 20
161.861239
 30
0.0
 11
23.750286
 21
161.027906
 31
0.0
 12
26.250286
 22
161.444572
 32
0.0
 13
26.250286
 23
161.444572
 33
0.0
  0
MTEXT
  5
16F6B
100
AcDbEntity
  8
0
  6
BYBLOCK
 62
     0
100
AcDbMText
 10
9.312786
 20
163.902906
 30
0.0
 40
2.5
 41
0.0
 71
     5
 72
     1
  1
\A1;\U+22056.5{\H1.250000;\S-0.002^ -0.007;}(h5)
  0
POINT
  5
16F6C
100
AcDbEntity
  8
DEFPOINTS
  6
BYBLOCK
 62
     0
100
AcDbPoint
 10
32.750286
 20
161.444572
 30
0.0
  0
POINT
  5
16F6D
100
AcDbEntity
  8
DEFPOINTS
  6
BYBLOCK
 62
     0
100
AcDbPoint
 10
26.250286
 20
161.444572
 30
0.0
  0
POINT
  5
16F6E
100
AcDbEntity
  8
DEFPOINTS
  6
BYBLOCK
 62
     0
100
AcDbPoint
 10
26.250286
 20
161.444572
 30
0.0
  0
ENDBLK
  5
16F6F
100
AcDbEntity
  8
0
100
AcDbBlockEnd
  0
BLOCK
  5
16F9D
100
AcDbEntity
  8
0
100
AcDbBlockBegin
  2
*D2
 70
     1
 10
0.0
 20
0.0
 30
0.0
  3
*D2
  1

  0
LINE
  5
16F9E
100
AcDbEntity
  8
0
  6
BYBLOCK
 62
     0
100
AcDbLine
 10
36.050286
 20
158.194572
 30
0.0
 11
54.392271
 21
158.194572
 31
0.0
  0
LINE
  5
16F9F
100
AcDbEntity
  8
0
  6
BYBLOCK
 62
     0
100
AcDbLine
 10
33.250286
 20
164.194572
 30
0.0
 11
54.392271
 21
164.194572
 31
0.0
  0
LINE
  5
16FA0
100
AcDbEntity
  8
0
  6
BYBLOCK
 62
     0
100
AcDbLine
 10
53.392271
 20
158.194572
 30
0.0
 11
53.392271
 21
164.194572
 31
0.0
  0
INSERT
  5
16FA1
100
AcDbEntity
  8
0
  6
BYBLOCK
 62
     0
100
AcDbBlockReference
  2
_DOTSMALL
 10
53.392271
 20
158.194572
 30
0.0
 41
2.5
 42
2.5
 43
2.5
 50
270.0
  0
INSERT
  5
16FA2
100
AcDbEntity
  8
0
  6
BYBLOCK
 62
     0
100
AcDbBlockReference
  2
_DOTSMALL
 10
53.392271
 20
164.194572
 30
0.0
 41
2.5
 42
2.5
 43
2.5
 50
90.0
  0
MTEXT
  5
16FA3
100
AcDbEntity
  8
0
  6
BYBLOCK
 62
     0
100
AcDbMText
 10
51.142271
 20
161.194572
 30
0.0
 40
2.5
 41
0.0
 71
     5
 72
     1
  1
\A1;6
 11
0.0
 21
1.0
 31
0.0
  0
POINT
  5
16FA4
100
AcDbEntity
  8
DEFPOINTS
  6
BYBLOCK
 62
     0
100
AcDbPoint
 10
35.050286
 20
158.194572
 30
0.0
  0
POINT
  5
16FA5
100
AcDbEntity
  8
DEFPOINTS
  6
BYBLOCK
 62
     0
100
AcDbPoint
 10
32.250286
 20
164.194572
 30
0.0
  0
POINT
  5
16FA6
100
AcDbEntity
  8
DEFPOINTS
  6
BYBLOCK
 62
     0
100
AcDbPoint
 10
53.392271
 20
164.194572
 30
0.0
  0
ENDBLK
  5
16FA7
100
AcDbEntity
  8
0
100
AcDbBlockEnd
  0
BLOCK
  5
16F86
100
AcDbEntity
  8
0
100
AcDbBlockBegin
  2
*D3
 70
     1
 10
0.0
 20
0.0
 30
0.0
  3
*D3
  1

  0
LINE
  5
16F87
100
AcDbEntity
  8
0
  6
BYBLOCK
 62
     0
100
AcDbLine
 10
35.000286
 20
158.194572
 30
0.0
 11
54.392271
 21
158.194572
 31
0.0
  0
LINE
  5
16F88
100
AcDbEntity
  8
0
  6
BYBLOCK
 62
     0
100
AcDbLine
 10
35.500286
 20
154.694572
 30
0.0
 11
54.392271
 21
154.694572
 31
0.0
  0
LINE
  5
16F89
100
AcDbEntity
  8
0
  6
BYBLOCK
 62
     0
100
AcDbLine
 10
53.392271
 20
158.194572
 30
0.0
 11
53.392271
 21
154.694572
 31
0.0
  0
LINE
  5
16F8A
100
AcDbEntity
  8
0
  6
BYBLOCK
 62
     0
100
AcDbLine
 10
53.392271
 20
154.694572
 30
0.0
 11
53.392271
 21
145.194572
 31
0.0
  0
INSERT
  5
16F8B
100
AcDbEntity
  8
0
  6
BYBLOCK
 62
     0
100
AcDbBlockReference
  2
_DOTSMALL
 10
53.392271
 20
158.194572
 30
0.0
 41
2.5
 42
2.5
 43
2.5
 50
90.0
  0
INSERT
  5
16F8C
100
AcDbEntity
  8
0
  6
BYBLOCK
 62
     0
100
AcDbBlockReference
  2
_DOTSMALL
 10
53.392271
 20
154.694572
 30
0.0
 41
2.5
 42
2.5
 43
2.5
 50
270.0
  0
MTEXT
  5
16F8D
100
AcDbEntity
  8
0
  6
BYBLOCK
 62
     0
100
AcDbMText
 10
51.142271
 20
148.694572
 30
0.0
 40
2.5
 41
0.0
 71
     5
 72
     1
  1
\A1;3.5
 11
0.0
 21
1.0
 31
0.0
  0
POINT
  5
16F8E
100
AcDbEntity
  8
DEFPOINTS
  6
BYBLOCK
 62
     0
100
AcDbPoint
 10
34.000286
 20
158.194572
 30
0.0
  0
POINT
  5
16F8F
100
AcDbEntity
  8
DEFPOINTS
  6
BYBLOCK
 62
     0
100
AcDbPoint
 10
34.500286
 20
154.694572
 30
0.0
  0
POINT
  5
16F90
100
AcDbEntity
  8
DEFPOINTS
  6
BYBLOCK
 62
     0
100
AcDbPoint
 10
53.392271
 20
154.694572
 30
0.0
  0
ENDBLK
  5
16F91
100
AcDbEntity
  8
0
100
AcDbBlockEnd
  0
BLOCK
  5
16F7B
100
AcDbEntity
  8
0
100
AcDbBlockBegin
  2
*D4
 70
     1
 10
0.0
 20
0.0
 30
0.0
  3
*D4
  1

  0
LINE
  5
16F7C
100
AcDbEntity
  8
0
  6
BYBLOCK
 62
     0
100
AcDbLine
 10
30.600286
 20
133.194572
 30
0.0
 11
63.277737
 21
133.194572
 31
0.0
  0
LINE
  5
16F7D
100
AcDbEntity
  8
0
  6
BYBLOCK
 62
     0
100
AcDbLine
 10
35.000286
 20
158.194572
 30
0.0
 11
63.277737
 21
158.194572
 31
0.0
  0
LINE
  5
16F7E
100
AcDbEntity
  8
0
  6
BYBLOCK
 62
     0
100
AcDbLine
 10
62.277737
 20
135.694572
 30
0.0
 11
62.277737
 21
155.694572
 31
0.0
  0
SOLID
  5
16F7F
100
AcDbEntity
  8
0
  6
BYBLOCK
 62
     0
100
AcDbTrace
 10
61.86107
 20
135.694572
 30
0.0
 11
62.694404
 21
135.694572
 31
0.0
 12
62.277737
 22
133.194572
 32
0.0
 13
62.277737
 23
133.194572
 33
0.0
  0
SOLID
  5
16F80
100
AcDbEntity
  8
0
  6
BYBLOCK
 62
     0
100
AcDbTrace
 10
61.86107
 20
155.694572
 30
0.0
 11
62.694404
 21
155.694572
 31
0.0
 12
62.277737
 22
158.194572
 32
0.0
 13
62.277737
 23
158.194572
 33
0.0
  0
MTEXT
  5
16F81
100
AcDbEntity
  8
0
  6
BYBLOCK
 62
     0
100
AcDbMText
 10
60.027737
 20
145.694572
 30
0.0
 40
2.5
 41
0.0
 71
     5
 72
     1
  1
\A1;25
 11
0.0
 21
1.0
 31
0.0
  0
POINT
  5
16F82
100
AcDbEntity
  8
DEFPOINTS
  6
BYBLOCK
 62
     0
100
AcDbPoint
 10
29.600286
 20
133.194572
 30
0.0
  0
POINT
  5
16F83
100
AcDbEntity
  8
DEFPOINTS
  6
BYBLOCK
 62
     0
100
AcDbPoint
 10
34.000286
 20
158.194572
 30
0.0
  0
POINT
  5
16F84
100
AcDbEntity
  8
DEFPOINTS
  6
BYBLOCK
 62
     0
100
AcDbPoint
 10
62.277737
 20
158.194572
 30
0.0
  0
ENDBLK
  5
16F85
100
AcDbEntity
  8
0
100
AcDbBlockEnd
  0
BLOCK
  5
16F70
100
AcDbEntity
  8
0
100
AcDbBlockBegin
  2
*D5
 70
     1
 10
0.0
 20
0.0
 30
0.0
  3
*D5
  1

  0
LINE
  5
16F71
100
AcDbEntity
  8
0
  6
BYBLOCK
 62
     0
100
AcDbLine
 10
32.500286
 20
172.694572
 30
0.0
 11
69.454531
 21
172.694572
 31
0.0
  0
LINE
  5
16F72
100
AcDbEntity
  8
0
  6
BYBLOCK
 62
     0
100
AcDbLine
 10
30.600286
 20
133.194572
 30
0.0
 11
69.454531
 21
133.194572
 31
0.0
  0
LINE
  5
16F73
100
AcDbEntity
  8
0
  6
BYBLOCK
 62
     0
100
AcDbLine
 10
68.454531
 20
170.194572
 30
0.0
 11
68.454531
 21
135.694572
 31
0.0
  0
SOLID
  5
16F74
100
AcDbEntity
  8
0
  6
BYBLOCK
 62
     0
100
AcDbTrace
 10
68.037864
 20
170.194572
 30
0.0
 11
68.871198
 21
170.194572
 31
0.0
 12
68.454531
 22
172.694572
 32
0.0
 13
68.454531
 23
172.694572
 33
0.0
  0
SOLID
  5
16F75
100
AcDbEntity
  8
0
  6
BYBLOCK
 62
     0
100
AcDbTrace
 10
68.037864
 20
135.694572
 30
0.0
 11
68.871198
 21
135.694572
 31
0.0
 12
68.454531
 22
133.194572
 32
0.0
 13
68.454531
 23
133.194572
 33
0.0
  0
MTEXT
  5
16F76
100
AcDbEntity
  8
0
  6
BYBLOCK
 62
     0
100
AcDbMText
 10
66.204531
 20
152.944572
 30
0.0
 40
2.5
 41
0.0
 71
     5
 72
     1
  1
\A1;39.5
 11
0.0
 21
1.0
 31
0.0
  0
POINT
  5
16F77
100
AcDbEntity
  8
DEFPOINTS
  6
BYBLOCK
 62
     0
100
AcDbPoint
 10
31.500286
 20
172.694572
 30
0.0
  0
POINT
  5
16F78
100
AcDbEntity
  8
DEFPOINTS
  6
BYBLOCK
 62
     0
100
AcDbPoint
 10
29.600286
 20
133.194572
 30
0.0
  0
POINT
  5
16F79
100
AcDbEntity
  8
DEFPOINTS
  6
BYBLOCK
 62
     0
100
AcDbPoint
 10
68.454531
 20
133.194572
 30
0.0
  0
ENDBLK
  5
16F7A
100
AcDbEntity
  8
0
100
AcDbBlockEnd
  0
BLOCK
  5
16F92
100
AcDbEntity
  8
0
100
AcDbBlockBegin
  2
*D6
 70
     1
 10
0.0
 20
0.0
 30
0.0
  3
*D6
  1

  0
LINE
  5
16F93
100
AcDbEntity
  8
0
  6
BYBLOCK
 62
     0
100
AcDbLine
 10
32.500286
 20
172.694572
 30
0.0
 11
63.277737
 21
172.694572
 31
0.0
  0
LINE
  5
16F94
100
AcDbEntity
  8
0
  6
BYBLOCK
 62
     0
100
AcDbLine
 10
36.050286
 20
158.194572
 30
0.0
 11
63.277737
 21
158.194572
 31
0.0
  0
LINE
  5
16F95
100
AcDbEntity
  8
0
  6
BYBLOCK
 62
     0
100
AcDbLine
 10
62.277737
 20
170.194572
 30
0.0
 11
62.277737
 21
160.694572
 31
0.0
  0
SOLID
  5
16F96
100
AcDbEntity
  8
0
  6
BYBLOCK
 62
     0
100
AcDbTrace
 10
61.86107
 20
170.194572
 30
0.0
 11
62.694404
 21
170.194572
 31
0.0
 12
62.277737
 22
172.694572
 32
0.0
 13
62.277737
 23
172.694572
 33
0.0
  0
SOLID
  5
16F97
100
AcDbEntity
  8
0
  6
BYBLOCK
 62
     0
100
AcDbTrace
 10
61.86107
 20
160.694572
 30
0.0
 11
62.694404
 21
160.694572
 31
0.0
 12
62.277737
 22
158.194572
 32
0.0
 13
62.277737
 23
158.194572
 33
0.0
  0
MTEXT
  5
16F98
100
AcDbEntity
  8
0
  6
BYBLOCK
 62
     0
100
AcDbMText
 10
60.027737
 20
165.444572
 30
0.0
 40
2.5
 41
0.0
 71
     5
 72
     1
  1
\A1;14.5
 11
0.0
 21
1.0
 31
0.0
  0
POINT
  5
16F99
100
AcDbEntity
  8
DEFPOINTS
  6
BYBLOCK
 62
     0
100
AcDbPoint
 10
31.500286
 20
172.694572
 30
0.0
  0
POINT
  5
16F9A
100
AcDbEntity
  8
DEFPOINTS
  6
BYBLOCK
 62
     0
100
AcDbPoint
 10
35.050286
 20
158.194572
 30
0.0
  0
POINT
  5
16F9B
100
AcDbEntity
  8
DEFPOINTS
  6
BYBLOCK
 62
     0
100
AcDbPoint
 10
62.277737
 20
158.194572
 30
0.0
  0
ENDBLK
  5
16F9C
100
AcDbEntity
  8
0
100
AcDbBlockEnd
  0
BLOCK
  5
16FA9
100
AcDbEntity
  8
0
100
AcDbBlockBegin
  2
*D7
 70
     1
 10
0.0
 20
0.0
 30
0.0
  3
*D7
  1

  0
LINE
  5
16FAA
100
AcDbEntity
  8
0
  6
BYBLOCK
 62
     0
100
AcDbLine
 10
33.500286
 20
171.694572
 30
0.0
 11
54.392271
 21
171.694572
 31
0.0
  0
LINE
  5
16FAB
100
AcDbEntity
  8
0
  6
BYBLOCK
 62
     0
100
AcDbLine
 10
32.500286
 20
172.694572
 30
0.0
 11
54.392271
 21
172.694572
 31
0.0
  0
LINE
  5
16FAC
100
AcDbEntity
  8
0
  6
BYBLOCK
 62
     0
100
AcDbLine
 10
53.392271
 20
169.194572
 30
0.0
 11
53.392271
 21
166.694572
 31
0.0
  0
LINE
  5
16FAD
100
AcDbEntity
  8
0
  6
BYBLOCK
 62
     0
100
AcDbLine
 10
53.392271
 20
175.194572
 30
0.0
 11
53.392271
 21
180.527906
 31
0.0
  0
LINE
  5
16FAE
100
AcDbEntity
  8
0
  6
BYBLOCK
 62
     0
100
AcDbLine
 10
53.392271
 20
171.694572
 30
0.0
 11
53.392271
 21
172.694572
 31
0.0
  0
SOLID
  5
16FAF
100
AcDbEntity
  8
0
  6
BYBLOCK
 62
     0
100
AcDbTrace
 10
52.975604
 20
169.194572
 30
0.0
 11
53.808937
 21
169.194572
 31
0.0
 12
53.392271
 22
171.694572
 32
0.0
 13
53.392271
 23
171.694572
 33
0.0
  0
SOLID
  5
16FB0
100
AcDbEntity
  8
0
  6
BYBLOCK
 62
     0
100
AcDbTrace
 10
52.975604
 20
175.194572
 30
0.0
 11
53.808937
 21
175.194572
 31
0.0
 12
53.392271
 22
172.694572
 32
0.0
 13
53.392271
 23
172.694572
 33
0.0
  0
MTEXT
  5
16FB1
100
AcDbEntity
  8
0
  6
BYBLOCK
 62
     0
100
AcDbMText
 10
51.142271
 20
179.111239
 30
0.0
 40
2.5
 41
0.0
 71
     5
 72
     1
  1
\A1;1
 11
0.0
 21
1.0
 31
0.0
  0
POINT
  5
16FB2
100
AcDbEntity
  8
DEFPOINTS
  6
BYBLOCK
 62
     0
100
AcDbPoint
 10
32.500286
 20
171.694572
 30
0.0
  0
POINT
  5
16FB3
100
AcDbEntity
  8
DEFPOINTS
  6
BYBLOCK
 62
     0
100
AcDbPoint
 10
31.500286
 20
172.694572
 30
0.0
  0
POINT
  5
16FB4
100
AcDbEntity
  8
DEFPOINTS
  6
BYBLOCK
 62
     0
100
AcDbPoint
 10
53.392271
 20
172.694572
 30
0.0
  0
ENDBLK
  5
16FB5
100
AcDbEntity
  8
0
100
AcDbBlockEnd
  0
BLOCK
  5
16FCD
100
AcDbEntity
  8
0
100
AcDbBlockBegin
  2
A$C6066541E
 70
     0
 10
0.0
 20
0.0
 30
0.0
  3
A$C6066541E
  1

  0
TEXT
  5
16FCC
100
AcDbEntity
  8
SK6
100
AcDbText
 10
1.244641
 20
3.06527
 30
0.0
 40
8.0
  1
99616-10-M5
  7
STYLE1
100
AcDbText
  0
ENDBLK
  5
16FCE
100
AcDbEntity
  8
0
100
AcDbBlockEnd
  0
ENDSEC
  0
SECTION
  2
ENTITIES
  0
TEXT
  5
1E04
100
AcDbEntity
  8
6
100
AcDbText
 10
72.5
 20
8.5
 30
0.0
 40
3.0
  1

  7
STYLE1
100
AcDbText
  0
TEXT
  5
7DC0
100
AcDbEntity
  8
6
100
AcDbText
 10
272.5
 20
8.5
 30
0.0
 40
3.0
  1

  7
STYLE1
100
AcDbText
  0
TEXT
  5
B823
100
AcDbEntity
  8
6
100
AcDbText
 10
272.5
 20
8.5
 30
0.0
 40
3.0
  1

  7
STYLE1
100
AcDbText
  0
TEXT
  5
B84F
100
AcDbEntity
  8
6
100
AcDbText
 10
472.5
 20
8.5
 30
0.0
 40
3.0
  1

  7
STYLE1
100
AcDbText
  0
TEXT
  5
B898
100
AcDbEntity
  8
6
100
AcDbText
 10
472.5
 20
8.5
 30
0.0
 40
3.0
  1

  7
STYLE1
100
AcDbText
  0
TEXT
  5
B899
100
AcDbEntity
  8
6
100
AcDbText
 10
672.5
 20
8.5
 30
0.0
 40
3.0
  1

  7
STYLE1
100
AcDbText
  0
TEXT
  5
BB88
100
AcDbEntity
  8
6
100
AcDbText
 10
272.5
 20
8.5
 30
0.0
 40
3.0
  1

  7
STYLE1
100
AcDbText
  0
TEXT
  5
BBB4
100
AcDbEntity
  8
6
100
AcDbText
 10
472.5
 20
8.5
 30
0.0
 40
3.0
  1

  7
STYLE1
100
AcDbText
  0
TEXT
  5
BBB5
100
AcDbEntity
  8
6
100
AcDbText
 10
472.5
 20
8.5
 30
0.0
 40
3.0
  1

  7
STYLE1
100
AcDbText
  0
TEXT
  5
BBB6
100
AcDbEntity
  8
6
100
AcDbText
 10
672.5
 20
8.5
 30
0.0
 40
3.0
  1

  7
STYLE1
100
AcDbText
  0
TEXT
  5
132C2
100
AcDbEntity
  8
6
100
AcDbText
 10
272.5
 20
8.5
 30
0.0
 40
3.0
  1

  7
STYLE1
100
AcDbText
  0
TEXT
  5
132C3
100
AcDbEntity
  8
6
100
AcDbText
 10
472.5
 20
8.5
 30
0.0
 40
3.0
  1

  7
STYLE1
100
AcDbText
  0
TEXT
  5
132C4
100
AcDbEntity
  8
6
100
AcDbText
 10
472.5
 20
8.5
 30
0.0
 40
3.0
  1

  7
STYLE1
100
AcDbText
  0
TEXT
  5
132C5
100
AcDbEntity
  8
6
100
AcDbText
 10
672.5
 20
8.5
 30
0.0
 40
3.0
  1

  7
STYLE1
100
AcDbText
  0
TEXT
  5
132C6
100
AcDbEntity
  8
6
100
AcDbText
 10
672.5
 20
8.5
 30
0.0
 40
3.0
  1

  7
STYLE1
100
AcDbText
  0
TEXT
  5
132C7
100
AcDbEntity
  8
6
100
AcDbText
 10
872.5
 20
8.5
 30
0.0
 40
3.0
  1

  7
STYLE1
100
AcDbText
  0
TEXT
  5
132C8
100
AcDbEntity
  8
6
100
AcDbText
 10
472.5
 20
8.5
 30
0.0
 40
3.0
  1

  7
STYLE1
100
AcDbText
  0
TEXT
  5
132C9
100
AcDbEntity
  8
6
100
AcDbText
 10
672.5
 20
8.5
 30
0.0
 40
3.0
  1

  7
STYLE1
100
AcDbText
  0
TEXT
  5
132CA
100
AcDbEntity
  8
6
100
AcDbText
 10
672.5
 20
8.5
 30
0.0
 40
3.0
  1

  7
STYLE1
100
AcDbText
  0
TEXT
  5
132CB
100
AcDbEntity
  8
6
100
AcDbText
 10
872.5
 20
8.5
 30
0.0
 40
3.0
  1

  7
STYLE1
100
AcDbText
  0
TEXT
  5
132D1
100
AcDbEntity
  8
6
100
AcDbText
 10
472.5
 20
8.5
 30
0.0
 40
3.0
  1

  7
STYLE1
100
AcDbText
  0
TEXT
  5
132FD
100
AcDbEntity
  8
6
100
AcDbText
 10
672.5
 20
8.5
 30
0.0
 40
3.0
  1

  7
STYLE1
100
AcDbText
  0
TEXT
  5
132FE
100
AcDbEntity
  8
6
100
AcDbText
 10
672.5
 20
8.5
 30
0.0
 40
3.0
  1

  7
STYLE1
100
AcDbText
  0
TEXT
  5
132FF
100
AcDbEntity
  8
6
100
AcDbText
 10
872.5
 20
8.5
 30
0.0
 40
3.0
  1

  7
STYLE1
100
AcDbText
  0
TEXT
  5
13300
100
AcDbEntity
  8
6
100
AcDbText
 10
872.5
 20
8.5
 30
0.0
 40
3.0
  1

  7
STYLE1
100
AcDbText
  0
TEXT
  5
13301
100
AcDbEntity
  8
6
100
AcDbText
 10
1072.5
 20
8.5
 30
0.0
 40
3.0
  1

  7
STYLE1
100
AcDbText
  0
TEXT
  5
13302
100
AcDbEntity
  8
6
100
AcDbText
 10
672.5
 20
8.5
 30
0.0
 40
3.0
  1

  7
STYLE1
100
AcDbText
  0
TEXT
  5
13303
100
AcDbEntity
  8
6
100
AcDbText
 10
872.5
 20
8.5
 30
0.0
 40
3.0
  1

  7
STYLE1
100
AcDbText
  0
TEXT
  5
13304
100
AcDbEntity
  8
6
100
AcDbText
 10
872.5
 20
8.5
 30
0.0
 40
3.0
  1

  7
STYLE1
100
AcDbText
  0
TEXT
  5
13305
100
AcDbEntity
  8
6
100
AcDbText
 10
1072.5
 20
8.5
 30
0.0
 40
3.0
  1

  7
STYLE1
100
AcDbText
  0
TEXT
  5
1382A
100
AcDbEntity
  8
6
100
AcDbText
 10
272.5
 20
8.5
 30
0.0
 40
3.0
  1

  7
STYLE1
100
AcDbText
  0
TEXT
  5
1382B
100
AcDbEntity
  8
6
100
AcDbText
 10
472.5
 20
8.5
 30
0.0
 40
3.0
  1

  7
STYLE1
100
AcDbText
  0
TEXT
  5
1382C
100
AcDbEntity
  8
6
100
AcDbText
 10
472.5
 20
8.5
 30
0.0
 40
3.0
  1

  7
STYLE1
100
AcDbText
  0
TEXT
  5
1382D
100
AcDbEntity
  8
6
100
AcDbText
 10
672.5
 20
8.5
 30
0.0
 40
3.0
  1

  7
STYLE1
100
AcDbText
  0
TEXT
  5
1382E
100
AcDbEntity
  8
6
100
AcDbText
 10
672.5
 20
8.5
 30
0.0
 40
3.0
  1

  7
STYLE1
100
AcDbText
  0
TEXT
  5
1382F
100
AcDbEntity
  8
6
100
AcDbText
 10
872.5
 20
8.5
 30
0.0
 40
3.0
  1

  7
STYLE1
100
AcDbText
  0
TEXT
  5
13830
100
AcDbEntity
  8
6
100
AcDbText
 10
472.5
 20
8.5
 30
0.0
 40
3.0
  1

  7
STYLE1
100
AcDbText
  0
TEXT
  5
13831
100
AcDbEntity
  8
6
100
AcDbText
 10
672.5
 20
8.5
 30
0.0
 40
3.0
  1

  7
STYLE1
100
AcDbText
  0
TEXT
  5
13832
100
AcDbEntity
  8
6
100
AcDbText
 10
672.5
 20
8.5
 30
0.0
 40
3.0
  1

  7
STYLE1
100
AcDbText
  0
TEXT
  5
13833
100
AcDbEntity
  8
6
100
AcDbText
 10
872.5
 20
8.5
 30
0.0
 40
3.0
  1

  7
STYLE1
100
AcDbText
  0
TEXT
  5
13839
100
AcDbEntity
  8
6
100
AcDbText
 10
472.5
 20
8.5
 30
0.0
 40
3.0
  1

  7
STYLE1
100
AcDbText
  0
TEXT
  5
13865
100
AcDbEntity
  8
6
100
AcDbText
 10
672.5
 20
8.5
 30
0.0
 40
3.0
  1

  7
STYLE1
100
AcDbText
  0
TEXT
  5
13866
100
AcDbEntity
  8
6
100
AcDbText
 10
672.5
 20
8.5
 30
0.0
 40
3.0
  1

  7
STYLE1
100
AcDbText
  0
TEXT
  5
13867
100
AcDbEntity
  8
6
100
AcDbText
 10
872.5
 20
8.5
 30
0.0
 40
3.0
  1

  7
STYLE1
100
AcDbText
  0
TEXT
  5
13868
100
AcDbEntity
  8
6
100
AcDbText
 10
872.5
 20
8.5
 30
0.0
 40
3.0
  1

  7
STYLE1
100
AcDbText
  0
TEXT
  5
13869
100
AcDbEntity
  8
6
100
AcDbText
 10
1072.5
 20
8.5
 30
0.0
 40
3.0
  1

  7
STYLE1
100
AcDbText
  0
TEXT
  5
1386A
100
AcDbEntity
  8
6
100
AcDbText
 10
672.5
 20
8.5
 30
0.0
 40
3.0
  1

  7
STYLE1
100
AcDbText
  0
TEXT
  5
1386B
100
AcDbEntity
  8
6
100
AcDbText
 10
872.5
 20
8.5
 30
0.0
 40
3.0
  1

  7
STYLE1
100
AcDbText
  0
TEXT
  5
1386C
100
AcDbEntity
  8
6
100
AcDbText
 10
872.5
 20
8.5
 30
0.0
 40
3.0
  1

  7
STYLE1
100
AcDbText
  0
TEXT
  5
1386D
100
AcDbEntity
  8
6
100
AcDbText
 10
1072.5
 20
8.5
 30
0.0
 40
3.0
  1

  7
STYLE1
100
AcDbText
  0
TEXT
  5
13E29
100
AcDbEntity
  8
6
100
AcDbText
 10
272.5
 20
8.5
 30
0.0
 40
3.0
  1

  7
STYLE1
100
AcDbText
  0
TEXT
  5
13E55
100
AcDbEntity
  8
6
100
AcDbText
 10
472.5
 20
8.5
 30
0.0
 40
3.0
  1

  7
STYLE1
100
AcDbText
  0
TEXT
  5
13E56
100
AcDbEntity
  8
6
100
AcDbText
 10
472.5
 20
8.5
 30
0.0
 40
3.0
  1

  7
STYLE1
100
AcDbText
  0
TEXT
  5
13E57
100
AcDbEntity
  8
6
100
AcDbText
 10
672.5
 20
8.5
 30
0.0
 40
3.0
  1

  7
STYLE1
100
AcDbText
  0
TEXT
  5
13E58
100
AcDbEntity
  8
6
100
AcDbText
 10
672.5
 20
8.5
 30
0.0
 40
3.0
  1

  7
STYLE1
100
AcDbText
  0
TEXT
  5
13E59
100
AcDbEntity
  8
6
100
AcDbText
 10
872.5
 20
8.5
 30
0.0
 40
3.0
  1

  7
STYLE1
100
AcDbText
  0
TEXT
  5
13E5A
100
AcDbEntity
  8
6
100
AcDbText
 10
472.5
 20
8.5
 30
0.0
 40
3.0
  1

  7
STYLE1
100
AcDbText
  0
TEXT
  5
13E5B
100
AcDbEntity
  8
6
100
AcDbText
 10
672.5
 20
8.5
 30
0.0
 40
3.0
  1

  7
STYLE1
100
AcDbText
  0
TEXT
  5
13E5C
100
AcDbEntity
  8
6
100
AcDbText
 10
672.5
 20
8.5
 30
0.0
 40
3.0
  1

  7
STYLE1
100
AcDbText
  0
TEXT
  5
13E5D
100
AcDbEntity
  8
6
100
AcDbText
 10
872.5
 20
8.5
 30
0.0
 40
3.0
  1

  7
STYLE1
100
AcDbText
  0
TEXT
  5
13EAD
100
AcDbEntity
  8
6
100
AcDbText
 10
472.5
 20
8.5
 30
0.0
 40
3.0
  1

  7
STYLE1
100
AcDbText
  0
TEXT
  5
13EAE
100
AcDbEntity
  8
6
100
AcDbText
 10
672.5
 20
8.5
 30
0.0
 40
3.0
  1

  7
STYLE1
100
AcDbText
  0
TEXT
  5
13EAF
100
AcDbEntity
  8
6
100
AcDbText
 10
672.5
 20
8.5
 30
0.0
 40
3.0
  1

  7
STYLE1
100
AcDbText
  0
TEXT
  5
13EB0
100
AcDbEntity
  8
6
100
AcDbText
 10
872.5
 20
8.5
 30
0.0
 40
3.0
  1

  7
STYLE1
100
AcDbText
  0
TEXT
  5
13EB1
100
AcDbEntity
  8
6
100
AcDbText
 10
872.5
 20
8.5
 30
0.0
 40
3.0
  1

  7
STYLE1
100
AcDbText
  0
TEXT
  5
13EB2
100
AcDbEntity
  8
6
100
AcDbText
 10
1072.5
 20
8.5
 30
0.0
 40
3.0
  1

  7
STYLE1
100
AcDbText
  0
TEXT
  5
13EB3
100
AcDbEntity
  8
6
100
AcDbText
 10
672.5
 20
8.5
 30
0.0
 40
3.0
  1

  7
STYLE1
100
AcDbText
  0
TEXT
  5
13EB4
100
AcDbEntity
  8
6
100
AcDbText
 10
872.5
 20
8.5
 30
0.0
 40
3.0
  1

  7
STYLE1
100
AcDbText
  0
TEXT
  5
13EB5
100
AcDbEntity
  8
6
100
AcDbText
 10
872.5
 20
8.5
 30
0.0
 40
3.0
  1

  7
STYLE1
100
AcDbText
  0
TEXT
  5
13EB6
100
AcDbEntity
  8
6
100
AcDbText
 10
1072.5
 20
8.5
 30
0.0
 40
3.0
  1

  7
STYLE1
100
AcDbText
  0
TEXT
  5
13EB7
100
AcDbEntity
  8
6
100
AcDbText
 10
672.5
 20
8.5
 30
0.0
 40
3.0
  1

  7
STYLE1
100
AcDbText
  0
TEXT
  5
13EB8
100
AcDbEntity
  8
6
100
AcDbText
 10
872.5
 20
8.5
 30
0.0
 40
3.0
  1

  7
STYLE1
100
AcDbText
  0
TEXT
  5
13EB9
100
AcDbEntity
  8
6
100
AcDbText
 10
872.5
 20
8.5
 30
0.0
 40
3.0
  1

  7
STYLE1
100
AcDbText
  0
TEXT
  5
13EBA
100
AcDbEntity
  8
6
100
AcDbText
 10
1072.5
 20
8.5
 30
0.0
 40
3.0
  1

  7
STYLE1
100
AcDbText
  0
TEXT
  5
13EBB
100
AcDbEntity
  8
6
100
AcDbText
 10
1072.5
 20
8.5
 30
0.0
 40
3.0
  1

  7
STYLE1
100
AcDbText
  0
TEXT
  5
13EBC
100
AcDbEntity
  8
6
100
AcDbText
 10
1272.5
 20
8.5
 30
0.0
 40
3.0
  1

  7
STYLE1
100
AcDbText
  0
TEXT
  5
13EBD
100
AcDbEntity
  8
6
100
AcDbText
 10
872.5
 20
8.5
 30
0.0
 40
3.0
  1

  7
STYLE1
100
AcDbText
  0
TEXT
  5
13EBE
100
AcDbEntity
  8
6
100
AcDbText
 10
1072.5
 20
8.5
 30
0.0
 40
3.0
  1

  7
STYLE1
100
AcDbText
  0
TEXT
  5
13EBF
100
AcDbEntity
  8
6
100
AcDbText
 10
1072.5
 20
8.5
 30
0.0
 40
3.0
  1

  7
STYLE1
100
AcDbText
  0
TEXT
  5
13EC0
100
AcDbEntity
  8
6
100
AcDbText
 10
1272.5
 20
8.5
 30
0.0
 40
3.0
  1

  7
STYLE1
100
AcDbText
  0
TEXT
  5
13ED1
100
AcDbEntity
  8
6
100
AcDbText
 10
472.5
 20
8.5
 30
0.0
 40
3.0
  1

  7
STYLE1
100
AcDbText
  0
TEXT
  5
13ED2
100
AcDbEntity
  8
6
100
AcDbText
 10
672.5
 20
8.5
 30
0.0
 40
3.0
  1

  7
STYLE1
100
AcDbText
  0
TEXT
  5
13ED3
100
AcDbEntity
  8
6
100
AcDbText
 10
672.5
 20
8.5
 30
0.0
 40
3.0
  1

  7
STYLE1
100
AcDbText
  0
TEXT
  5
13ED4
100
AcDbEntity
  8
6
100
AcDbText
 10
872.5
 20
8.5
 30
0.0
 40
3.0
  1

  7
STYLE1
100
AcDbText
  0
TEXT
  5
13ED5
100
AcDbEntity
  8
6
100
AcDbText
 10
872.5
 20
8.5
 30
0.0
 40
3.0
  1

  7
STYLE1
100
AcDbText
  0
TEXT
  5
13ED6
100
AcDbEntity
  8
6
100
AcDbText
 10
1072.5
 20
8.5
 30
0.0
 40
3.0
  1

  7
STYLE1
100
AcDbText
  0
TEXT
  5
13ED7
100
AcDbEntity
  8
6
100
AcDbText
 10
672.5
 20
8.5
 30
0.0
 40
3.0
  1

  7
STYLE1
100
AcDbText
  0
TEXT
  5
13ED8
100
AcDbEntity
  8
6
100
AcDbText
 10
872.5
 20
8.5
 30
0.0
 40
3.0
  1

  7
STYLE1
100
AcDbText
  0
TEXT
  5
13ED9
100
AcDbEntity
  8
6
100
AcDbText
 10
872.5
 20
8.5
 30
0.0
 40
3.0
  1

  7
STYLE1
100
AcDbText
  0
TEXT
  5
13EDA
100
AcDbEntity
  8
6
100
AcDbText
 10
1072.5
 20
8.5
 30
0.0
 40
3.0
  1

  7
STYLE1
100
AcDbText
  0
TEXT
  5
13EDB
100
AcDbEntity
  8
6
100
AcDbText
 10
672.5
 20
8.5
 30
0.0
 40
3.0
  1

  7
STYLE1
100
AcDbText
  0
TEXT
  5
13EDC
100
AcDbEntity
  8
6
100
AcDbText
 10
872.5
 20
8.5
 30
0.0
 40
3.0
  1

  7
STYLE1
100
AcDbText
  0
TEXT
  5
13EDD
100
AcDbEntity
  8
6
100
AcDbText
 10
872.5
 20
8.5
 30
0.0
 40
3.0
  1

  7
STYLE1
100
AcDbText
  0
TEXT
  5
13EDE
100
AcDbEntity
  8
6
100
AcDbText
 10
1072.5
 20
8.5
 30
0.0
 40
3.0
  1

  7
STYLE1
100
AcDbText
  0
TEXT
  5
13EDF
100
AcDbEntity
  8
6
100
AcDbText
 10
1072.5
 20
8.5
 30
0.0
 40
3.0
  1

  7
STYLE1
100
AcDbText
  0
TEXT
  5
13EE0
100
AcDbEntity
  8
6
100
AcDbText
 10
1272.5
 20
8.5
 30
0.0
 40
3.0
  1

  7
STYLE1
100
AcDbText
  0
TEXT
  5
13EE1
100
AcDbEntity
  8
6
100
AcDbText
 10
872.5
 20
8.5
 30
0.0
 40
3.0
  1

  7
STYLE1
100
AcDbText
  0
TEXT
  5
13EE2
100
AcDbEntity
  8
6
100
AcDbText
 10
1072.5
 20
8.5
 30
0.0
 40
3.0
  1

  7
STYLE1
100
AcDbText
  0
TEXT
  5
13EE3
100
AcDbEntity
  8
6
100
AcDbText
 10
1072.5
 20
8.5
 30
0.0
 40
3.0
  1

  7
STYLE1
100
AcDbText
  0
TEXT
  5
13EE4
100
AcDbEntity
  8
6
100
AcDbText
 10
1272.5
 20
8.5
 30
0.0
 40
3.0
  1

  7
STYLE1
100
AcDbText
  0
TEXT
  5
13EFE
100
AcDbEntity
  8
6
100
AcDbText
 10
472.5
 20
8.5
 30
0.0
 40
3.0
  1

  7
STYLE1
100
AcDbText
  0
TEXT
  5
13EFF
100
AcDbEntity
  8
6
100
AcDbText
 10
672.5
 20
8.5
 30
0.0
 40
3.0
  1

  7
STYLE1
100
AcDbText
  0
TEXT
  5
13F00
100
AcDbEntity
  8
6
100
AcDbText
 10
672.5
 20
8.5
 30
0.0
 40
3.0
  1

  7
STYLE1
100
AcDbText
  0
TEXT
  5
13F01
100
AcDbEntity
  8
6
100
AcDbText
 10
872.5
 20
8.5
 30
0.0
 40
3.0
  1

  7
STYLE1
100
AcDbText
  0
TEXT
  5
13F02
100
AcDbEntity
  8
6
100
AcDbText
 10
872.5
 20
8.5
 30
0.0
 40
3.0
  1

  7
STYLE1
100
AcDbText
  0
TEXT
  5
13F03
100
AcDbEntity
  8
6
100
AcDbText
 10
1072.5
 20
8.5
 30
0.0
 40
3.0
  1

  7
STYLE1
100
AcDbText
  0
TEXT
  5
13F04
100
AcDbEntity
  8
6
100
AcDbText
 10
672.5
 20
8.5
 30
0.0
 40
3.0
  1

  7
STYLE1
100
AcDbText
  0
TEXT
  5
13F05
100
AcDbEntity
  8
6
100
AcDbText
 10
872.5
 20
8.5
 30
0.0
 40
3.0
  1

  7
STYLE1
100
AcDbText
  0
TEXT
  5
13F06
100
AcDbEntity
  8
6
100
AcDbText
 10
872.5
 20
8.5
 30
0.0
 40
3.0
  1

  7
STYLE1
100
AcDbText
  0
TEXT
  5
13F07
100
AcDbEntity
  8
6
100
AcDbText
 10
1072.5
 20
8.5
 30
0.0
 40
3.0
  1

  7
STYLE1
100
AcDbText
  0
TEXT
  5
13F08
100
AcDbEntity
  8
6
100
AcDbText
 10
672.5
 20
8.5
 30
0.0
 40
3.0
  1

  7
STYLE1
100
AcDbText
  0
TEXT
  5
13F09
100
AcDbEntity
  8
6
100
AcDbText
 10
872.5
 20
8.5
 30
0.0
 40
3.0
  1

  7
STYLE1
100
AcDbText
  0
TEXT
  5
13F0A
100
AcDbEntity
  8
6
100
AcDbText
 10
872.5
 20
8.5
 30
0.0
 40
3.0
  1

  7
STYLE1
100
AcDbText
  0
TEXT
  5
13F0B
100
AcDbEntity
  8
6
100
AcDbText
 10
1072.5
 20
8.5
 30
0.0
 40
3.0
  1

  7
STYLE1
100
AcDbText
  0
TEXT
  5
13F0C
100
AcDbEntity
  8
6
100
AcDbText
 10
1072.5
 20
8.5
 30
0.0
 40
3.0
  1

  7
STYLE1
100
AcDbText
  0
TEXT
  5
13F0D
100
AcDbEntity
  8
6
100
AcDbText
 10
1272.5
 20
8.5
 30
0.0
 40
3.0
  1

  7
STYLE1
100
AcDbText
  0
TEXT
  5
13F0E
100
AcDbEntity
  8
6
100
AcDbText
 10
872.5
 20
8.5
 30
0.0
 40
3.0
  1

  7
STYLE1
100
AcDbText
  0
TEXT
  5
13F0F
100
AcDbEntity
  8
6
100
AcDbText
 10
1072.5
 20
8.5
 30
0.0
 40
3.0
  1

  7
STYLE1
100
AcDbText
  0
TEXT
  5
13F10
100
AcDbEntity
  8
6
100
AcDbText
 10
1072.5
 20
8.5
 30
0.0
 40
3.0
  1

  7
STYLE1
100
AcDbText
  0
TEXT
  5
13F11
100
AcDbEntity
  8
6
100
AcDbText
 10
1272.5
 20
8.5
 30
0.0
 40
3.0
  1

  7
STYLE1
100
AcDbText
  0
TEXT
  5
13F12
100
AcDbEntity
  8
6
100
AcDbText
 10
872.5
 20
8.5
 30
0.0
 40
3.0
  1

  7
STYLE1
100
AcDbText
  0
TEXT
  5
13F13
100
AcDbEntity
  8
6
100
AcDbText
 10
1072.5
 20
8.5
 30
0.0
 40
3.0
  1

  7
STYLE1
100
AcDbText
  0
TEXT
  5
13F14
100
AcDbEntity
  8
6
100
AcDbText
 10
1072.5
 20
8.5
 30
0.0
 40
3.0
  1

  7
STYLE1
100
AcDbText
  0
TEXT
  5
13F15
100
AcDbEntity
  8
6
100
AcDbText
 10
1272.5
 20
8.5
 30
0.0
 40
3.0
  1

  7
STYLE1
100
AcDbText
  0
TEXT
  5
13F16
100
AcDbEntity
  8
6
100
AcDbText
 10
1272.5
 20
8.5
 30
0.0
 40
3.0
  1

  7
STYLE1
100
AcDbText
  0
TEXT
  5
13F17
100
AcDbEntity
  8
6
100
AcDbText
 10
1472.5
 20
8.5
 30
0.0
 40
3.0
  1

  7
STYLE1
100
AcDbText
  0
TEXT
  5
13F18
100
AcDbEntity
  8
6
100
AcDbText
 10
1072.5
 20
8.5
 30
0.0
 40
3.0
  1

  7
STYLE1
100
AcDbText
  0
TEXT
  5
13F19
100
AcDbEntity
  8
6
100
AcDbText
 10
1272.5
 20
8.5
 30
0.0
 40
3.0
  1

  7
STYLE1
100
AcDbText
  0
TEXT
  5
13F1A
100
AcDbEntity
  8
6
100
AcDbText
 10
1272.5
 20
8.5
 30
0.0
 40
3.0
  1

  7
STYLE1
100
AcDbText
  0
TEXT
  5
13F1B
100
AcDbEntity
  8
6
100
AcDbText
 10
1472.5
 20
8.5
 30
0.0
 40
3.0
  1

  7
STYLE1
100
AcDbText
  0
DIMENSION
  5
16DFB
100
AcDbEntity
  8
2
100
AcDbDimension
  2
*D1
 10
100.948875
 20
166.33083
 30
0.0
 11
84.011375
 21
168.789163
 31
0.0
 12
74.698589
 22
4.886257
 32
0.0
 70
    32
  1
%%c<>(h5)
  3
STANDARD
100
AcDbAlignedDimension
 13
107.448875
 23
166.33083
 33
0.0
 14
100.948875
 24
166.33083
 34
0.0
100
AcDbRotatedDimension
1001
ACAD
1000
DSTYLE
1002
{
1070
    78
1070
     8
1070
   284
1070
     8
1070
   140
1040
2.5
1070
    47
1040
-0.002
1070
    71
1070
     1
1070
    74
1070
     0
1070
   172
1070
     1
1070
    48
1040
0.007
1070
    73
1070
     0
1070
   146
1040
0.5
1070
   272
1070
     3
1070
    77
1070
     1
1070
   147
1040
1.0
1070
    42
1040
1.0
1070
    44
1040
1.0
1070
    43
1040
1.0
1070
   271
1070
     3
1070
    41
1040
2.5
1002
}
  0
DIMENSION
  5
16DFF
100
AcDbEntity
  8
2
100
AcDbDimension
  2
*D2
 10
128.090859
 20
169.08083
 30
0.0
 11
125.840859
 21
166.08083
 31
0.0
 12
74.698589
 22
4.886257
 32
0.0
 70
    32
  3
STANDARD
100
AcDbAlignedDimension
 13
109.748875
 23
163.08083
 33
0.0
 14
106.948875
 24
169.08083
 34
0.0
 50
90.0
100
AcDbRotatedDimension
1001
ACAD
1000
DSTYLE
1002
{
1070
    78
1070
     8
1070
   284
1070
     8
1070
   140
1040
2.5
1070
    47
1040
-0.005
1070
    74
1070
     0
1070
   172
1070
     1
1070
    48
1040
0.015
1070
    73
1070
     0
1070
   146
1040
0.5
1070
   272
1070
     2
1070
    77
1070
     1
1070
   173
1070
     1
1070
   147
1040
1.0
1070
    42
1040
1.0
1070
    44
1040
1.0
1070
    43
1040
1.0
1070
   271
1070
     2
1070
     7
1000
_DOTSMALL
1070
     6
1000
_DOTSMALL
1070
    41
1040
2.5
1002
}
  0
DIMENSION
  5
16E00
100
AcDbEntity
  8
2
100
AcDbDimension
  2
*D3
 10
128.090859
 20
159.58083
 30
0.0
 11
125.840859
 21
153.58083
 31
0.0
 12
74.698589
 22
4.886257
 32
0.0
 70
    32
  3
STANDARD
100
AcDbAlignedDimension
 13
108.698875
 23
163.08083
 33
0.0
 14
109.198875
 24
159.58083
 34
0.0
 50
90.0
100
AcDbRotatedDimension
1001
ACAD
1000
DSTYLE
1002
{
1070
    78
1070
     8
1070
   284
1070
     8
1070
   140
1040
2.5
1070
    47
1040
0.05
1070
    74
1070
     0
1070
   172
1070
     1
1070
    48
1040
0.05
1070
    73
1070
     0
1070
   146
1040
0.5
1070
   272
1070
     2
1070
    77
1070
     1
1070
   173
1070
     1
1070
   147
1040
1.0
1070
    42
1040
1.0
1070
    44
1040
1.0
1070
    43
1040
1.0
1070
   271
1070
     2
1070
     7
1000
_DOTSMALL
1070
     6
1000
_DOTSMALL
1070
    41
1040
2.5
1002
}
  0
DIMENSION
  5
16E01
100
AcDbEntity
  8
2
100
AcDbDimension
  2
*D4
 10
136.976326
 20
163.08083
 30
0.0
 11
134.726326
 21
150.58083
 31
0.0
 12
74.698589
 22
4.886257
 32
0.0
 70
    32
  3
STANDARD
100
AcDbAlignedDimension
 13
104.298875
 23
138.08083
 33
0.0
 14
108.698875
 24
163.08083
 34
0.0
 50
90.0
100
AcDbRotatedDimension
1001
ACAD
1000
DSTYLE
1002
{
1070
    78
1070
     8
1070
   284
1070
     8
1070
   140
1040
2.5
1070
    47
1040
0.05
1070
    74
1070
     0
1070
   172
1070
     1
1070
    48
1040
0.05
1070
    73
1070
     0
1070
   146
1040
0.5
1070
   272
1070
     2
1070
    77
1070
     1
1070
   147
1040
1.0
1070
    42
1040
1.0
1070
    44
1040
1.0
1070
    43
1040
1.0
1070
   271
1070
     2
1070
    41
1040
2.5
1002
}
  0
DIMENSION
  5
16E02
100
AcDbEntity
  8
2
100
AcDbDimension
  2
*D5
 10
143.153119
 20
138.08083
 30
0.0
 11
140.903119
 21
157.83083
 31
0.0
 12
74.698589
 22
4.886257
 32
0.0
 70
    32
  3
STANDARD
100
AcDbAlignedDimension
 13
106.198875
 23
177.58083
 33
0.0
 14
104.298875
 24
138.08083
 34
0.0
 50
90.0
100
AcDbRotatedDimension
1001
ACAD
1000
DSTYLE
1002
{
1070
    78
1070
     8
1070
   284
1070
     8
1070
   140
1040
2.5
1070
    47
1040
0.05
1070
    74
1070
     0
1070
   172
1070
     1
1070
    48
1040
0.05
1070
    73
1070
     0
1070
   146
1040
0.5
1070
   272
1070
     2
1070
    77
1070
     1
1070
   147
1040
1.0
1070
    42
1040
1.0
1070
    44
1040
1.0
1070
    43
1040
1.0
1070
   271
1070
     2
1070
   141
1040
0.0
1070
    41
1040
2.5
1002
}
  0
DIMENSION
  5
16E03
100
AcDbEntity
  8
2
100
AcDbDimension
  2
*D6
 10
136.976326
 20
163.08083
 30
0.0
 11
134.726326
 21
170.33083
 31
0.0
 12
74.698589
 22
4.886257
 32
0.0
 70
    32
  3
STANDARD
100
AcDbAlignedDimension
 13
106.198875
 23
177.58083
 33
0.0
 14
109.748875
 24
163.08083
 34
0.0
 50
90.0
100
AcDbRotatedDimension
1001
ACAD
1000
DSTYLE
1002
{
1070
    78
1070
     8
1070
   284
1070
     8
1070
   140
1040
2.5
1070
    47
1040
-0.005
1070
    74
1070
     0
1070
   172
1070
     1
1070
    48
1040
0.015
1070
    73
1070
     0
1070
   146
1040
0.5
1070
   272
1070
     2
1070
    77
1070
     1
1070
   147
1040
1.0
1070
    42
1040
1.0
1070
    44
1040
1.0
1070
    43
1040
1.0
1070
   271
1070
     2
1070
    41
1040
2.5
1002
}
  0
LINE
  5
16E04
100
AcDbEntity
  8
4
100
AcDbLine
 10
104.198875
 20
176.58083
 30
0.0
 11
104.198875
 21
136.08083
 31
0.0
  0
LINE
  5
16E09
100
AcDbEntity
  8
1
100
AcDbLine
 10
108.198875
 20
152.58083
 30
0.0
 11
108.198875
 21
159.58083
 31
0.0
  0
LINE
  5
16E0B
100
AcDbEntity
  8
1
100
AcDbLine
 10
100.198875
 20
152.58083
 30
0.0
 11
100.198875
 21
159.58083
 31
0.0
  0
LINE
  5
16E0D
100
AcDbEntity
  8
1
100
AcDbLine
 10
107.537136
 20
141.788344
 30
0.0
 11
109.198875
 21
143.633892
 31
0.0
  0
SPLINE
  5
16E10
100
AcDbEntity
  8
6
100
AcDbSpline
210
0.0
220
0.0
230
-1.0
 70
     8
 71
     3
 72
     9
 73
     5
 74
     3
 42
0.0000001
 43
0.0000001
 44
0.0000000001
 40
0.0
 40
0.0
 40
0.0
 40
0.0
 40
5.602109702813931
 40
11.20421940562786
 40
11.20421940562786
 40
11.20421940562786
 40
11.20421940562786
 10
99.19887483123876
 20
151.0808298116183
 30
0.0
 10
100.8655414979054
 20
152.3441224462008
 30
0.0
 10
104.1988748312387
 20
154.8707077153659
 30
0.0
 10
107.532208164572
 20
152.3441224462009
 30
0.0
 10
109.1988748312387
 20
151.0808298116183
 30
0.0
 11
99.19887483123876
 21
151.0808298116183
 31
0.0
 11
104.1988748312387
 21
153.6074150807834
 31
0.0
 11
109.1988748312387
 21
151.0808298116183
 31
0.0
  0
SPLINE
  5
16E11
100
AcDbEntity
  8
6
100
AcDbSpline
210
0.0
220
0.0
230
-1.0
 70
     8
 71
     3
 72
     9
 73
     5
 74
     3
 42
0.0000001
 43
0.0000001
 44
0.0000000001
 40
0.0
 40
0.0
 40
0.0
 40
0.0
 40
5.02765273718279
 40
10.05530547436558
 40
10.05530547436558
 40
10.05530547436558
 40
10.05530547436558
 10
99.19887483123876
 20
151.0808298116183
 30
0.0
 10
100.8655414979054
 20
151.3441224462008
 30
0.0
 10
104.1988748312387
 20
151.8707077153658
 30
0.0
 10
107.5322081645721
 20
151.3441224462008
 30
0.0
 10
109.1988748312387
 20
151.0808298116183
 30
0.0
 11
99.19887483123876
 21
151.0808298116183
 31
0.0
 11
104.1988748312387
 21
151.6074150807833
 31
0.0
 11
109.1988748312387
 21
151.0808298116183
 31
0.0
  0
LINE
  5
16E12
100
AcDbEntity
  8
1
100
AcDbLine
 10
99.198875
 20
152.58083
 30
0.0
 11
99.198875
 21
143.633892
 31
0.0
  0
LINE
  5
16E13
100
AcDbEntity
  8
1
100
AcDbLine
 10
100.860614
 20
141.788344
 30
0.0
 11
99.198875
 21
143.633892
 31
0.0
  0
LINE
  5
16E18
100
AcDbEntity
  8
1
100
AcDbLine
 10
100.198875
 20
152.58083
 30
0.0
 11
99.198875
 21
152.58083
 31
0.0
  0
LINE
  5
16E1B
100
AcDbEntity
  8
1
100
AcDbLine
 10
109.198875
 20
152.58083
 30
0.0
 11
109.198875
 21
143.633892
 31
0.0
  0
LINE
  5
16E1C
100
AcDbEntity
  8
1
100
AcDbLine
 10
108.198875
 20
152.58083
 30
0.0
 11
109.198875
 21
152.58083
 31
0.0
  0
LINE
  5
16E1E
100
AcDbEntity
  8
1
100
AcDbLine
 10
99.698875
 20
163.08083
 30
0.0
 11
108.698875
 21
163.08083
 31
0.0
  0
LINE
  5
16E1F
100
AcDbEntity
  8
4
100
AcDbLine
 10
104.198875
 20
179.58083
 30
0.0
 11
104.198875
 21
161.622627
 31
0.0
  0
LINE
  5
16E20
100
AcDbEntity
  8
1
100
AcDbLine
 10
107.448875
 20
168.58083
 30
0.0
 11
107.448875
 21
164.08083
 31
0.0
  0
LINE
  5
16E21
100
AcDbEntity
  8
1
100
AcDbLine
 10
100.948875
 20
168.58083
 30
0.0
 11
100.948875
 21
164.08083
 31
0.0
  0
LINE
  5
16E22
100
AcDbEntity
  8
1
100
AcDbLine
 10
99.698875
 20
163.08083
 30
0.0
 11
99.198875
 21
162.58083
 31
0.0
  0
LINE
  5
16E23
100
AcDbEntity
  8
1
100
AcDbLine
 10
99.198875
 20
162.58083
 30
0.0
 11
99.198875
 21
159.58083
 31
0.0
  0
LINE
  5
16E24
100
AcDbEntity
  8
1
100
AcDbLine
 10
100.198875
 20
159.58083
 30
0.0
 11
99.198875
 21
159.58083
 31
0.0
  0
ARC
  5
16E25
100
AcDbEntity
  8
1
100
AcDbCircle
 10
107.348875
 20
163.109697
 30
0.0
 40
0.2
100
AcDbArc
 50
180.0
 51
300.0
  0
ARC
  5
16E26
100
AcDbEntity
  8
1
100
AcDbCircle
 10
101.048875
 20
163.109697
 30
0.0
 40
0.2
100
AcDbArc
 50
240.0
 51
0.0
  0
LINE
  5
16E2B
100
AcDbEntity
  8
1
100
AcDbLine
 10
100.948875
 20
164.08083
 30
0.0
 11
107.448875
 21
164.08083
 31
0.0
  0
LINE
  5
16E2C
100
AcDbEntity
  8
1
100
AcDbLine
 10
100.948875
 20
164.08083
 30
0.0
 11
101.131718
 21
163.897987
 31
0.0
  0
ARC
  5
16E2D
100
AcDbEntity
  8
1
100
AcDbCircle
 10
100.848875
 20
163.615144
 30
0.0
 40
0.4
100
AcDbArc
 50
0.0
 51
45.0
  0
LINE
  5
16E2E
100
AcDbEntity
  8
1
100
AcDbLine
 10
101.248875
 20
163.615144
 30
0.0
 11
101.248875
 21
163.109697
 31
0.0
  0
LINE
  5
16E2F
100
AcDbEntity
  8
1
100
AcDbLine
 10
100.698875
 20
163.08083
 30
0.0
 11
100.948875
 21
162.936492
 31
0.0
  0
ARC
  5
16E30
100
AcDbEntity
  8
1
100
AcDbCircle
 10
107.548875
 20
163.615144
 30
0.0
 40
0.4
100
AcDbArc
 50
135.0
 51
180.0
  0
ARC
  5
16E31
100
AcDbEntity
  8
1
100
AcDbCircle
 10
107.548875
 20
163.615144
 30
0.0
 40
0.4
100
AcDbArc
 50
135.0
 51
180.0
  0
LINE
  5
16E32
100
AcDbEntity
  8
1
100
AcDbLine
 10
107.148875
 20
163.615144
 30
0.0
 11
107.148875
 21
163.109697
 31
0.0
  0
LINE
  5
16E33
100
AcDbEntity
  8
1
100
AcDbLine
 10
107.698875
 20
163.08083
 30
0.0
 11
107.448875
 21
162.936492
 31
0.0
  0
LINE
  5
16E34
100
AcDbEntity
  8
1
100
AcDbLine
 10
107.148875
 20
163.615144
 30
0.0
 11
107.148875
 21
163.18083
 31
0.0
  0
LINE
  5
16E35
100
AcDbEntity
  8
1
100
AcDbLine
 10
107.448875
 20
164.08083
 30
0.0
 11
107.266032
 21
163.897987
 31
0.0
  0
LINE
  5
16E36
100
AcDbEntity
  8
1
100
AcDbLine
 10
107.448875
 20
164.08083
 30
0.0
 11
107.266032
 21
163.897987
 31
0.0
  0
LINE
  5
16E37
100
AcDbEntity
  8
1
100
AcDbLine
 10
107.198875
 20
176.58083
 30
0.0
 11
107.198875
 21
171.58083
 31
0.0
  0
LINE
  5
16E38
100
AcDbEntity
  8
1
100
AcDbLine
 10
106.598875
 20
177.18083
 30
0.0
 11
106.598875
 21
170.966251
 31
0.0
  0
LINE
  5
16E39
100
AcDbEntity
  8
1
100
AcDbLine
 10
101.798875
 20
177.18083
 30
0.0
 11
101.798875
 21
170.966251
 31
0.0
  0
LINE
  5
16E3A
100
AcDbEntity
  8
1
100
AcDbLine
 10
101.198875
 20
176.58083
 30
0.0
 11
101.198875
 21
171.58083
 31
0.0
  0
LINE
  5
16E3B
100
AcDbEntity
  8
1
100
AcDbLine
 10
100.948875
 20
168.58083
 30
0.0
 11
107.448875
 21
168.58083
 31
0.0
  0
LINE
  5
16E3C
100
AcDbEntity
  8
1
100
AcDbLine
 10
101.198875
 20
171.58083
 30
0.0
 11
107.198875
 21
171.58083
 31
0.0
  0
LINE
  5
16E3D
100
AcDbEntity
  8
1
100
AcDbLine
 10
101.448875
 20
169.08083
 30
0.0
 11
106.948875
 21
169.08083
 31
0.0
  0
LINE
  5
16E3E
100
AcDbEntity
  8
1
100
AcDbLine
 10
101.448875
 20
169.08083
 30
0.0
 11
100.948875
 21
168.58083
 31
0.0
  0
LINE
  5
16E3F
100
AcDbEntity
  8
1
100
AcDbLine
 10
101.698875
 20
171.08083
 30
0.0
 11
101.198875
 21
171.58083
 31
0.0
  0
ARC
  5
16E40
100
AcDbEntity
  8
1
100
AcDbCircle
 10
101.148875
 20
170.499882
 30
0.0
 40
0.8
100
AcDbArc
 50
0.0
 51
46.567463
  0
LINE
  5
16E41
100
AcDbEntity
  8
1
100
AcDbLine
 10
101.948875
 20
169.82245
 30
0.0
 11
101.948875
 21
170.499882
 31
0.0
  0
ARC
  5
16E42
100
AcDbEntity
  8
1
100
AcDbCircle
 10
101.148875
 20
169.82245
 30
0.0
 40
0.8
100
AcDbArc
 50
292.024313
 51
0.0
  0
LINE
  5
16E43
100
AcDbEntity
  8
1
100
AcDbLine
 10
106.698875
 20
171.08083
 30
0.0
 11
107.198875
 21
171.58083
 31
0.0
  0
LINE
  5
16E44
100
AcDbEntity
  8
1
100
AcDbLine
 10
106.948875
 20
169.08083
 30
0.0
 11
107.448875
 21
168.58083
 31
0.0
  0
LINE
  5
16E45
100
AcDbEntity
  8
1
100
AcDbLine
 10
106.448875
 20
169.82245
 30
0.0
 11
106.448875
 21
170.499882
 31
0.0
  0
ARC
  5
16E46
100
AcDbEntity
  8
1
100
AcDbCircle
 10
107.248875
 20
169.82245
 30
0.0
 40
0.8
100
AcDbArc
 50
180.0
 51
247.975687
  0
ARC
  5
16E47
100
AcDbEntity
  8
1
100
AcDbCircle
 10
107.248875
 20
170.499882
 30
0.0
 40
0.8
100
AcDbArc
 50
133.432537
 51
180.0
  0
LINE
  5
16E4B
100
AcDbEntity
  8
1
100
AcDbLine
 10
102.198875
 20
177.58083
 30
0.0
 11
106.198875
 21
177.58083
 31
0.0
  0
LINE
  5
16E4C
100
AcDbEntity
  8
1
100
AcDbLine
 10
101.198875
 20
176.58083
 30
0.0
 11
107.198875
 21
176.58083
 31
0.0
  0
LINE
  5
16E50
100
AcDbEntity
  8
1
100
AcDbLine
 10
102.198875
 20
177.58083
 30
0.0
 11
101.198875
 21
176.58083
 31
0.0
  0
LINE
  5
16E53
100
AcDbEntity
  8
1
100
AcDbLine
 10
106.198875
 20
177.58083
 30
0.0
 11
107.198875
 21
176.58083
 31
0.0
  0
LINE
  5
16E54
100
AcDbEntity
  8
1
100
AcDbLine
 10
108.698875
 20
163.08083
 30
0.0
 11
109.198875
 21
162.58083
 31
0.0
  0
LINE
  5
16E55
100
AcDbEntity
  8
1
100
AcDbLine
 10
109.198875
 20
162.58083
 30
0.0
 11
109.198875
 21
159.58083
 31
0.0
  0
LINE
  5
16E56
100
AcDbEntity
  8
1
100
AcDbLine
 10
108.198875
 20
159.58083
 30
0.0
 11
109.198875
 21
159.58083
 31
0.0
  0
MTEXT
  5
16F63
102
{ACAD_REACTORS
330
16F64
102
}
100
AcDbEntity
  8
2
100
AcDbMText
 10
92.022335
 20
179.913951
 30
0.0
 40
2.5
 41
0.0
 71
     6
 72
     1
  1
\A1;M6
  0
LEADER
  5
16F64
100
AcDbEntity
  8
2
100
AcDbLeader
  3
STANDARD
 73
     0
 75
     1
 40
2.5
 41
4.166667
 76
     3
 10
101.198875
 20
174.215964
 30
0.0
 10
95.522335
 20
177.663951
 30
0.0
 10
93.022335
 20
177.663951
 30
0.0
 77
   256
340
16F63
1001
ACAD
1000
DSTYLE
1002
{
1070
    78
1070
     8
1070
   284
1070
     8
1070
   140
1040
2.5
1070
    74
1070
     0
1070
   172
1070
     1
1070
    73
1070
     0
1070
   146
1040
0.5
1070
   272
1070
     2
1070
    77
1070
     1
1070
   147
1040
1.0
1070
    42
1040
1.0
1070
    44
1040
1.0
1070
    43
1040
8.0
1070
   271
1070
     2
1070
   141
1040
0.0
1070
    41
1040
2.5
1002
}
  0
DIMENSION
  5
16FB6
100
AcDbEntity
  8
2
100
AcDbDimension
  2
*D7
 10
128.090859
 20
177.58083
 30
0.0
 11
125.840859
 21
183.997496
 31
0.0
 12
74.698589
 22
4.886257
 32
0.0
 70
    32
  3
STANDARD
100
AcDbAlignedDimension
 13
107.198875
 23
176.58083
 33
0.0
 14
106.198875
 24
177.58083
 34
0.0
 50
90.0
100
AcDbRotatedDimension
1001
ACAD
1000
DSTYLE
1002
{
1070
    78
1070
     8
1070
   284
1070
     8
1070
   140
1040
2.5
1070
    74
1070
     0
1070
   172
1070
     1
1070
    73
1070
     0
1070
   146
1040
0.5
1070
   272
1070
     2
1070
    77
1070
     1
1070
   147
1040
1.0
1070
    42
1040
1.0
1070
    44
1040
1.0
1070
    43
1040
8.0
1070
   271
1070
     2
1070
   141
1040
0.0
1070
    41
1040
2.5
1002
}
  0
LINE
  5
16FB7
102
{ACAD_REACTORS
330
16FB9
102
}
100
AcDbEntity
  8
2
100
AcDbLine
 10
103.048875
 20
143.625516
 30
0.0
 11
105.548875
 21
143.625516
 31
0.0
  0
CIRCLE
  5
16FB8
102
{ACAD_REACTORS
330
16FB9
102
}
100
AcDbEntity
  8
2
100
AcDbCircle
 10
104.298875
 20
143.625516
 30
0.0
 40
1.25
  0
HATCH
  5
16FB9
100
AcDbEntity
  8
2
100
AcDbHatch
 10
0.0
 20
0.0
 30
0.0
210
0.0
220
0.0
230
1.0
  2
ANSI31
 70
     0
 71
     1
 91
        2
 92
        7
 72
     1
 73
     1
 93
        3
 10
104.2988748312387
 20
144.8755163133801
 42
0.4142135623730951
 10
103.0488748312387
 20
143.62551631338
 42
0.0
 10
104.2988748312387
 20
143.62551631338
 42
0.0
 97
        3
330
16FB8
330
16FB7
330
16FBA
 92
        7
 72
     1
 73
     1
 93
        3
 10
104.2988748312387
 20
142.3755163133801
 42
0.4142135623730951
 10
105.5488748312387
 20
143.62551631338
 42
0.0
 10
104.2988748312387
 20
143.62551631338
 42
0.0
 97
        3
330
16FB7
330
16FBA
330
16FB8
 75
     0
 76
     1
 52
0.0
 41
1.0
 77
     0
 78
     1
 53
45.0
 43
10.888296
 44
35.410692
 45
-0.0883883476483184
 46
0.0883883476483185
 79
     0
 47
0.01145
 98
        2
 10
104.018213
 20
144.392279
 10
104.556626
 20
143.052591
  0
LINE
  5
16FBA
102
{ACAD_REACTORS
330
16FB9
102
}
100
AcDbEntity
  8
2
100
AcDbLine
 10
104.298875
 20
144.875516
 30
0.0
 11
104.298875
 21
142.375516
 31
0.0
  0
ARC
  5
16FBB
100
AcDbEntity
  8
1
100
AcDbCircle
 10
104.198875
 20
144.794128
 30
0.0
 40
4.492074
100
AcDbArc
 50
222.0
 51
318.0
  0
ARC
  5
16FBD
100
AcDbEntity
  8
6
100
AcDbCircle
 10
104.298875
 20
148.370203
 30
0.0
 40
1.5
100
AcDbArc
 50
347.230953
 51
192.769047
  0
LINE
  5
16FBE
100
AcDbEntity
  8
6
100
AcDbLine
 10
105.761778
 20
148.03867
 30
0.0
 11
109.198875
 21
144.601574
 31
0.0
  0
LINE
  5
16FBF
100
AcDbEntity
  8
6
100
AcDbLine
 10
102.835971
 20
148.03867
 30
0.0
 11
99.198875
 21
144.401574
 31
0.0
  0
HATCH
  5
16FC0
100
AcDbEntity
  8
2
100
AcDbHatch
 10
0.0
 20
0.0
 30
0.0
210
0.0
220
0.0
230
1.0
  2
ANSI31
 70
     0
 71
     1
 91
        2
 92
        7
 72
     1
 73
     1
 93
        3
 10
104.1988748312387
 20
164.3308298116183
 42
0.4142135623730951
 10
102.9488748312387
 20
163.0808298116183
 42
0.0
 10
104.1988748312387
 20
163.0808298116183
 42
0.0
 97
        3
330
16FC1
330
16FC2
330
16FC3
 92
        7
 72
     1
 73
     1
 93
        3
 10
104.1988748312387
 20
161.8308298116183
 42
0.4142135623730951
 10
105.4488748312387
 20
163.0808298116183
 42
0.0
 10
104.1988748312387
 20
163.0808298116183
 42
0.0
 97
        3
330
16FC2
330
16FC3
330
16FC1
 75
     0
 76
     1
 52
0.0
 41
1.0
 77
     0
 78
     1
 53
45.0
 43
10.788296
 44
54.866005
 45
-0.0883883476483184
 46
0.0883883476483185
 79
     0
 47
0.01145
 98
        2
 10
103.918213
 20
163.847593
 10
104.456626
 20
162.507905
  0
CIRCLE
  5
16FC1
102
{ACAD_REACTORS
330
16FC0
102
}
100
AcDbEntity
  8
2
100
AcDbCircle
 10
104.198875
 20
163.08083
 30
0.0
 40
1.25
  0
LINE
  5
16FC2
102
{ACAD_REACTORS
330
16FC0
102
}
100
AcDbEntity
  8
2
100
AcDbLine
 10
102.948875
 20
163.08083
 30
0.0
 11
105.448875
 21
163.08083
 31
0.0
  0
LINE
  5
16FC3
102
{ACAD_REACTORS
330
16FC0
102
}
100
AcDbEntity
  8
2
100
AcDbLine
 10
104.198875
 20
164.33083
 30
0.0
 11
104.198875
 21
161.83083
 31
0.0
  0
TEXT
  5
16FD0
100
AcDbEntity
  8
SK6
100
AcDbText
 10
74.723019
 20
201.460247
 30
0.0
 40
8.0
  1
99616-10-M6
  7
STYLE1
100
AcDbText
  0
ENDSEC
  0
SECTION
  2
OBJECTS
  0
DICTIONARY
  5
C
100
AcDbDictionary
  3
ACAD_GROUP
350
D
  3
ACAD_MLINESTYLE
350
1A
  3
ACDBVARIABLEDICTIONARY
350
39
  0
DICTIONARY
  5
D
102
{ACAD_REACTORS
330
C
102
}
100
AcDbDictionary
  0
DICTIONARY
  5
1A
102
{ACAD_REACTORS
330
C
102
}
100
AcDbDictionary
  3
STANDARD
350
1B
  0
DICTIONARY
  5
39
102
{ACAD_REACTORS
330
C
102
}
100
AcDbDictionary
  3
DIMADEC
350
3A
  3
SORTENTS
350
316C
  0
MLINESTYLE
  5
1B
102
{ACAD_REACTORS
330
1A
102
}
100
AcDbMlineStyle
  2
STANDARD
 70
     0
  3

 62
   256
 51
90.0
 52
90.0
 71
     2
 49
0.5
 62
   256
  6
BYLAYER
 49
-0.5
 62
   256
  6
BYLAYER
  0
DICTIONARYVAR
  5
3A
102
{ACAD_REACTORS
330
39
102
}
100
DictionaryVariables
280
     0
  1
3
  0
DICTIONARYVAR
  5
316C
102
{ACAD_REACTORS
330
39
102
}
100
DictionaryVariables
280
     0
  1
96
  0
ENDSEC
  0
EOF
