  0
SECTION
  2
HEADER
  9
$ACADVER
  1
AC1014
  9
$ACADMAINTVER
 70
     0
  9
$DWGCODEPAGE
  3
ANSI_950
  9
$INSBASE
 10
0.0
 20
0.0
 30
0.0
  9
$EXTMIN
 10
74.412527
 20
7.559196
 30
0.0
  9
$EXTMAX
 10
157.5
 20
305.633406
 30
0.0
  9
$LIMMIN
 10
0.0
 20
0.0
  9
$LIMMAX
 10
210.0
 20
297.0
  9
$ORTHOMODE
 70
     0
  9
$REGENMODE
 70
     1
  9
$FILLMODE
 70
     1
  9
$QTEXTMODE
 70
     0
  9
$MIRRTEXT
 70
     1
  9
$DRAGMODE
 70
     2
  9
$LTSCALE
 40
6.0
  9
$OSMODE
 70
    59
  9
$ATTMODE
 70
     1
  9
$TEXTSIZE
 40
1.5
  9
$TRACEWID
 40
0.05
  9
$TEXTSTYLE
  7
STYLE1
  9
$CLAYER
  8
CUT
  9
$CELTYPE
  6
BYLAYER
  9
$CECOLOR
 62
   256
  9
$CELTSCALE
 40
1.0
  9
$DELOBJ
 70
     1
  9
$DISPSILH
 70
     0
  9
$DIMSCALE
 40
1.0
  9
$DIMASZ
 40
2.5
  9
$DIMEXO
 40
1.0
  9
$DIMDLI
 40
1.0
  9
$DIMRND
 40
0.0
  9
$DIMDLE
 40
0.0
  9
$DIMEXE
 40
1.0
  9
$DIMTP
 40
0.05
  9
$DIMTM
 40
0.05
  9
$DIMTXT
 40
2.5
  9
$DIMCEN
 40
0.09
  9
$DIMTSZ
 40
0.0
  9
$DIMTOL
 70
     0
  9
$DIMLIM
 70
     0
  9
$DIMTIH
 70
     0
  9
$DIMTOH
 70
     0
  9
$DIMSE1
 70
     0
  9
$DIMSE2
 70
     0
  9
$DIMTAD
 70
     1
  9
$DIMZIN
 70
     8
  9
$DIMBLK
  1

  9
$DIMASO
 70
     1
  9
$DIMSHO
 70
     1
  9
$DIMPOST
  1

  9
$DIMAPOST
  1

  9
$DIMALT
 70
     0
  9
$DIMALTD
 70
     2
  9
$DIMALTF
 40
25.4
  9
$DIMLFAC
 40
1.0
  9
$DIMTOFL
 70
     1
  9
$DIMTVP
 40
0.0
  9
$DIMTIX
 70
     0
  9
$DIMSOXD
 70
     0
  9
$DIMSAH
 70
     0
  9
$DIMBLK1
  1

  9
$DIMBLK2
  1

  9
$DIMSTYLE
  2
STANDARD
  9
$DIMCLRD
 70
     0
  9
$DIMCLRE
 70
     0
  9
$DIMCLRT
 70
     0
  9
$DIMTFAC
 40
0.5
  9
$DIMGAP
 40
1.0
  9
$DIMJUST
 70
     0
  9
$DIMSD1
 70
     0
  9
$DIMSD2
 70
     0
  9
$DIMTOLJ
 70
     1
  9
$DIMTZIN
 70
     8
  9
$DIMALTZ
 70
     0
  9
$DIMALTTZ
 70
     0
  9
$DIMFIT
 70
     3
  9
$DIMUPT
 70
     0
  9
$DIMUNIT
 70
     2
  9
$DIMDEC
 70
     2
  9
$DIMTDEC
 70
     2
  9
$DIMALTU
 70
     2
  9
$DIMALTTD
 70
     2
  9
$DIMTXSTY
  7
STANDARD
  9
$DIMAUNIT
 70
     0
  9
$LUNITS
 70
     2
  9
$LUPREC
 70
     2
  9
$SKETCHINC
 40
0.1
  9
$FILLETRAD
 40
1.5
  9
$AUNITS
 70
     0
  9
$AUPREC
 70
     2
  9
$MENU
  1
acad
  9
$ELEVATION
 40
0.0
  9
$PELEVATION
 40
0.0
  9
$THICKNESS
 40
0.0
  9
$LIMCHECK
 70
     0
  9
$BLIPMODE
 70
     1
  9
$CHAMFERA
 40
0.0
  9
$CHAMFERB
 40
0.0
  9
$CHAMFERC
 40
0.0
  9
$CHAMFERD
 40
0.0
  9
$SKPOLY
 70
     0
  9
$TDCREATE
 40
2450670.354217245
  9
$TDUPDATE
 40
2457763.429027453
  9
$TDINDWG
 40
6.4527646991
  9
$TDUSRTIMER
 40
6.4527646991
  9
$USRTIMER
 70
     1
  9
$ANGBASE
 50
0.0
  9
$ANGDIR
 70
     0
  9
$PDMODE
 70
     0
  9
$PDSIZE
 40
0.0
  9
$PLINEWID
 40
0.0
  9
$COORDS
 70
     1
  9
$SPLFRAME
 70
     0
  9
$SPLINETYPE
 70
     6
  9
$SPLINESEGS
 70
     8
  9
$ATTDIA
 70
     0
  9
$ATTREQ
 70
     1
  9
$HANDLING
 70
     1
  9
$HANDSEED
  5
22B86
  9
$SURFTAB1
 70
     6
  9
$SURFTAB2
 70
     6
  9
$SURFTYPE
 70
     6
  9
$SURFU
 70
     6
  9
$SURFV
 70
     6
  9
$UCSNAME
  2

  9
$UCSORG
 10
0.0
 20
0.0
 30
0.0
  9
$UCSXDIR
 10
1.0
 20
0.0
 30
0.0
  9
$UCSYDIR
 10
0.0
 20
1.0
 30
0.0
  9
$PUCSNAME
  2

  9
$PUCSORG
 10
0.0
 20
0.0
 30
0.0
  9
$PUCSXDIR
 10
1.0
 20
0.0
 30
0.0
  9
$PUCSYDIR
 10
0.0
 20
1.0
 30
0.0
  9
$USERI1
 70
     0
  9
$USERI2
 70
     0
  9
$USERI3
 70
     0
  9
$USERI4
 70
     0
  9
$USERI5
 70
     0
  9
$USERR1
 40
0.0
  9
$USERR2
 40
0.0
  9
$USERR3
 40
0.0
  9
$USERR4
 40
0.0
  9
$USERR5
 40
0.0
  9
$WORLDVIEW
 70
     1
  9
$SHADEDGE
 70
     3
  9
$SHADEDIF
 70
    70
  9
$TILEMODE
 70
     1
  9
$MAXACTVP
 70
    16
  9
$PINSBASE
 10
0.0
 20
0.0
 30
0.0
  9
$PLIMCHECK
 70
     0
  9
$PEXTMIN
 10
1.000000E+20
 20
1.000000E+20
 30
1.000000E+20
  9
$PEXTMAX
 10
-1.000000E+20
 20
-1.000000E+20
 30
-1.000000E+20
  9
$PLIMMIN
 10
0.0
 20
0.0
  9
$PLIMMAX
 10
12.0
 20
9.0
  9
$UNITMODE
 70
     0
  9
$VISRETAIN
 70
     0
  9
$PLINEGEN
 70
     0
  9
$PSLTSCALE
 70
     1
  9
$TREEDEPTH
 70
  3020
  9
$PICKSTYLE
 70
     0
  9
$CMLSTYLE
  2
STANDARD
  9
$CMLJUST
 70
     0
  9
$CMLSCALE
 40
1.0
  9
$PROXYGRAPHICS
 70
     1
  9
$MEASUREMENT
 70
     0
  0
ENDSEC
  0
SECTION
  2
CLASSES
  0
CLASS
  1
DICTIONARYVAR
  2
AcDbDictionaryVar
  3
"AutoCAD"
 90
        0
280
     0
281
     0
  0
CLASS
  1
LWPOLYLINE
  2
AcDbPolyline
  3
"AutoCAD"
 90
        0
280
     0
281
     1
  0
CLASS
  1
HATCH
  2
AcDbHatch
  3
"ACAD_SEDONA"
 90
        0
280
     0
281
     1
  0
ENDSEC
  0
SECTION
  2
TABLES
  0
TABLE
  2
VPORT
  5
8
100
AcDbSymbolTable
 70
     1
  0
VPORT
  5
22B80
100
AcDbSymbolTableRecord
100
AcDbViewportTableRecord
  2
*ACTIVE
 70
     0
 10
0.0
 20
0.0
 11
1.0
 21
1.0
 12
105.0
 22
152.826031
 13
0.0
 23
0.0
 14
1.0
 24
1.0
 15
0.0
 25
0.0
 16
0.0
 26
0.0
 36
1.0
 17
0.0
 27
0.0
 37
0.0
 40
307.988256
 41
1.405612
 42
50.0
 43
0.0
 44
0.0
 50
0.0
 51
0.0
 71
     0
 72
   300
 73
     1
 74
     1
 75
     0
 76
     0
 77
     0
 78
     0
  0
ENDTAB
  0
TABLE
  2
LTYPE
  5
5
100
AcDbSymbolTable
 70
     3
  0
LTYPE
  5
11
100
AcDbSymbolTableRecord
100
AcDbLinetypeTableRecord
  2
BYBLOCK
 70
     0
  3

 72
    65
 73
     0
 40
0.0
  0
LTYPE
  5
12
100
AcDbSymbolTableRecord
100
AcDbLinetypeTableRecord
  2
BYLAYER
 70
     0
  3

 72
    65
 73
     0
 40
0.0
  0
LTYPE
  5
13
100
AcDbSymbolTableRecord
100
AcDbLinetypeTableRecord
  2
CONTINUOUS
 70
     0
  3
實線
 72
    65
 73
     0
 40
0.0
  0
LTYPE
  5
2E
100
AcDbSymbolTableRecord
100
AcDbLinetypeTableRecord
  2
CENTER
 70
     0
  3
____ _ ____ _ ____ _ ____ _ ____ _ ____ _ ____ 
 72
    65
 73
     4
 40
2.0
 49
1.25
 74
     0
 49
-0.25
 74
     0
 49
0.25
 74
     0
 49
-0.25
 74
     0
  0
LTYPE
  5
224FB
100
AcDbSymbolTableRecord
100
AcDbLinetypeTableRecord
  2
HIDDEN
 70
     0
  3
Hidden __ __ __ __ __ __ __ __ __ __ __ __ __ _
 72
    65
 73
     2
 40
0.375
 49
0.25
 74
     0
 49
-0.125
 74
     0
  0
ENDTAB
  0
TABLE
  2
LAYER
  5
2
100
AcDbSymbolTable
 70
     9
  0
LAYER
  5
E
100
AcDbSymbolTableRecord
100
AcDbLayerTableRecord
  2
0
 70
     0
 62
     7
  6
CONTINUOUS
  0
LAYER
  5
31
100
AcDbSymbolTableRecord
100
AcDbLayerTableRecord
  2
1
 70
     0
 62
     4
  6
CONTINUOUS
  0
LAYER
  5
32
100
AcDbSymbolTableRecord
100
AcDbLayerTableRecord
  2
4
 70
     0
 62
     2
  6
CENTER
  0
LAYER
  5
33
100
AcDbSymbolTableRecord
100
AcDbLayerTableRecord
  2
2
 70
     0
 62
     7
  6
CONTINUOUS
  0
LAYER
  5
34
100
AcDbSymbolTableRecord
100
AcDbLayerTableRecord
  2
SK2
 70
     0
 62
     7
  6
CONTINUOUS
  0
LAYER
  5
35
100
AcDbSymbolTableRecord
100
AcDbLayerTableRecord
  2
CUT
 70
     0
 62
     1
  6
CONTINUOUS
  0
LAYER
  5
36
100
AcDbSymbolTableRecord
100
AcDbLayerTableRecord
  2
DEFPOINTS
 70
     0
 62
     7
  6
CONTINUOUS
  0
LAYER
  5
3BEB
100
AcDbSymbolTableRecord
100
AcDbLayerTableRecord
  2
6
 70
     0
 62
     5
  6
CONTINUOUS
  0
LAYER
  5
22452
100
AcDbSymbolTableRecord
100
AcDbLayerTableRecord
  2
SK6
 70
     0
 62
     5
  6
CONTINUOUS
  0
ENDTAB
  0
TABLE
  2
STYLE
  5
3
100
AcDbSymbolTable
 70
     3
  0
STYLE
  5
F
100
AcDbSymbolTableRecord
100
AcDbTextStyleTableRecord
  2
STANDARD
 70
     0
 40
0.0
 41
1.0
 50
0.0
 71
     0
 42
3.5
  3
txt
  4

  0
STYLE
  5
2D
100
AcDbSymbolTableRecord
100
AcDbTextStyleTableRecord
  2
MONOTXT
 70
     0
 40
0.0
 41
1.0
 50
0.0
 71
     0
 42
1.5
  3
monotxt
  4

  0
STYLE
  5
32B1
100
AcDbSymbolTableRecord
100
AcDbTextStyleTableRecord
  2
STYLE1
 70
     0
 40
3.0
 41
1.0
 50
0.0
 71
     0
 42
3.0
  3

  4

1001
ACAD
1000
標楷體
1071
    34881
  0
ENDTAB
  0
TABLE
  2
VIEW
  5
6
100
AcDbSymbolTable
 70
     0
  0
ENDTAB
  0
TABLE
  2
UCS
  5
7
100
AcDbSymbolTable
 70
     0
  0
ENDTAB
  0
TABLE
  2
APPID
  5
9
100
AcDbSymbolTable
 70
     1
  0
APPID
  5
10
100
AcDbSymbolTableRecord
100
AcDbRegAppTableRecord
  2
ACAD
 70
     0
  0
ENDTAB
  0
TABLE
  2
DIMSTYLE
  5
A
100
AcDbSymbolTable
 70
     1
  0
DIMSTYLE
105
1A2
102
{ACAD_REACTORS
330
21586
330
21587
330
21611
330
2160A
330
21628
330
2162B
330
220AE
330
21588
102
}
100
AcDbSymbolTableRecord
100
AcDbDimStyleTableRecord
  2
STANDARD
 70
     0
  3

  4

  5

  6

  7

 40
1.0
 41
0.18
 42
0.0625
 43
0.38
 44
0.18
 45
0.0
 46
0.0
 47
0.0
 48
0.0
140
0.18
141
0.09
142
0.0
143
25.4
144
1.0
145
0.0
146
1.0
147
0.09
 71
     0
 72
     0
 73
     1
 74
     1
 75
     0
 76
     0
 77
     0
 78
     0
170
     0
171
     2
172
     0
173
     0
174
     0
175
     0
176
     0
177
     0
178
     0
270
     2
271
     4
272
     4
273
     2
274
     2
340
F
275
     0
280
     0
281
     0
282
     0
283
     1
284
     0
285
     0
286
     0
287
     3
288
     0
  0
ENDTAB
  0
TABLE
  2
BLOCK_RECORD
  5
1
100
AcDbSymbolTable
 70
     8
  0
BLOCK_RECORD
  5
17
100
AcDbSymbolTableRecord
100
AcDbBlockTableRecord
  2
*MODEL_SPACE
  0
BLOCK_RECORD
  5
14
100
AcDbSymbolTableRecord
100
AcDbBlockTableRecord
  2
*PAPER_SPACE
  0
BLOCK_RECORD
  5
21641
100
AcDbSymbolTableRecord
100
AcDbBlockTableRecord
  2
*D0
  0
BLOCK_RECORD
  5
2164D
100
AcDbSymbolTableRecord
100
AcDbBlockTableRecord
  2
*D1
  0
BLOCK_RECORD
  5
21659
100
AcDbSymbolTableRecord
100
AcDbBlockTableRecord
  2
*D2
  0
BLOCK_RECORD
  5
2167F
100
AcDbSymbolTableRecord
100
AcDbBlockTableRecord
  2
*D3
  0
BLOCK_RECORD
  5
2168B
100
AcDbSymbolTableRecord
100
AcDbBlockTableRecord
  2
*D4
  0
BLOCK_RECORD
  5
21697
100
AcDbSymbolTableRecord
100
AcDbBlockTableRecord
  2
*D5
  0
BLOCK_RECORD
  5
216A3
100
AcDbSymbolTableRecord
100
AcDbBlockTableRecord
  2
*D6
  0
BLOCK_RECORD
  5
220A2
100
AcDbSymbolTableRecord
100
AcDbBlockTableRecord
  2
*D7
  0
ENDTAB
  0
ENDSEC
  0
SECTION
  2
BLOCKS
  0
BLOCK
  5
39
100
AcDbEntity
  8
0
100
AcDbBlockBegin
  2
*MODEL_SPACE
 70
     0
 10
0.0
 20
0.0
 30
0.0
  3
*MODEL_SPACE
  1

  0
ENDBLK
  5
3A
100
AcDbEntity
  8
0
100
AcDbBlockEnd
  0
BLOCK
  5
37
100
AcDbEntity
 67
     1
  8
0
100
AcDbBlockBegin
  2
*PAPER_SPACE
 70
     0
 10
0.0
 20
0.0
 30
0.0
  3
*PAPER_SPACE
  1

  0
ENDBLK
  5
38
100
AcDbEntity
 67
     1
  8
0
100
AcDbBlockEnd
  0
BLOCK
  5
2286B
100
AcDbEntity
  8
0
100
AcDbBlockBegin
  2
*D0
 70
     1
 10
0.0
 20
0.0
 30
0.0
  3
*D0
  1

  0
LINE
  5
2286C
100
AcDbEntity
  8
0
  6
BYBLOCK
 62
     0
100
AcDbLine
 10
120.0
 20
276.559196
 30
0.0
 11
157.5
 21
276.559196
 31
0.0
  0
LINE
  5
2286D
100
AcDbEntity
  8
0
  6
BYBLOCK
 62
     0
100
AcDbLine
 10
112.85
 20
20.559196
 30
0.0
 11
157.5
 21
20.559196
 31
0.0
  0
LINE
  5
2286E
100
AcDbEntity
  8
0
  6
BYBLOCK
 62
     0
100
AcDbLine
 10
156.5
 20
274.059196
 30
0.0
 11
156.5
 21
23.059196
 31
0.0
  0
SOLID
  5
2286F
100
AcDbEntity
  8
0
  6
BYBLOCK
 62
     0
100
AcDbTrace
 10
156.083333
 20
274.059196
 30
0.0
 11
156.916667
 21
274.059196
 31
0.0
 12
156.5
 22
276.559196
 32
0.0
 13
156.5
 23
276.559196
 33
0.0
  0
SOLID
  5
22870
100
AcDbEntity
  8
0
  6
BYBLOCK
 62
     0
100
AcDbTrace
 10
156.083333
 20
23.059196
 30
0.0
 11
156.916667
 21
23.059196
 31
0.0
 12
156.5
 22
20.559196
 32
0.0
 13
156.5
 23
20.559196
 33
0.0
  0
MTEXT
  5
22871
100
AcDbEntity
  8
0
  6
BYBLOCK
 62
     0
100
AcDbMText
 10
154.25
 20
148.559196
 30
0.0
 40
2.5
 41
0.0
 71
     5
 72
     1
  1
\A1;256
 11
0.0
 21
1.0
 31
0.0
  0
POINT
  5
22872
100
AcDbEntity
  8
DEFPOINTS
  6
BYBLOCK
 62
     0
100
AcDbPoint
 10
119.0
 20
276.559196
 30
0.0
  0
POINT
  5
22873
100
AcDbEntity
  8
DEFPOINTS
  6
BYBLOCK
 62
     0
100
AcDbPoint
 10
111.85
 20
20.559196
 30
0.0
  0
POINT
  5
22874
100
AcDbEntity
  8
DEFPOINTS
  6
BYBLOCK
 62
     0
100
AcDbPoint
 10
156.5
 20
20.559196
 30
0.0
  0
ENDBLK
  5
22875
100
AcDbEntity
  8
0
100
AcDbBlockEnd
  0
BLOCK
  5
2288E
100
AcDbEntity
  8
0
100
AcDbBlockBegin
  2
*D1
 70
     1
 10
0.0
 20
0.0
 30
0.0
  3
*D1
  1

  0
LINE
  5
2288F
100
AcDbEntity
  8
0
  6
BYBLOCK
 62
     0
100
AcDbLine
 10
127.0
 20
218.559196
 30
0.0
 11
150.5
 21
218.559196
 31
0.0
  0
LINE
  5
22890
100
AcDbEntity
  8
0
  6
BYBLOCK
 62
     0
100
AcDbLine
 10
112.85
 20
20.559196
 30
0.0
 11
150.5
 21
20.559196
 31
0.0
  0
LINE
  5
22891
100
AcDbEntity
  8
0
  6
BYBLOCK
 62
     0
100
AcDbLine
 10
149.5
 20
216.059196
 30
0.0
 11
149.5
 21
23.059196
 31
0.0
  0
SOLID
  5
22892
100
AcDbEntity
  8
0
  6
BYBLOCK
 62
     0
100
AcDbTrace
 10
149.083333
 20
216.059196
 30
0.0
 11
149.916667
 21
216.059196
 31
0.0
 12
149.5
 22
218.559196
 32
0.0
 13
149.5
 23
218.559196
 33
0.0
  0
SOLID
  5
22893
100
AcDbEntity
  8
0
  6
BYBLOCK
 62
     0
100
AcDbTrace
 10
149.083333
 20
23.059196
 30
0.0
 11
149.916667
 21
23.059196
 31
0.0
 12
149.5
 22
20.559196
 32
0.0
 13
149.5
 23
20.559196
 33
0.0
  0
MTEXT
  5
22894
100
AcDbEntity
  8
0
  6
BYBLOCK
 62
     0
100
AcDbMText
 10
147.25
 20
119.559196
 30
0.0
 40
2.5
 41
0.0
 71
     5
 72
     1
  1
\A1;198
 11
0.0
 21
1.0
 31
0.0
  0
POINT
  5
22895
100
AcDbEntity
  8
DEFPOINTS
  6
BYBLOCK
 62
     0
100
AcDbPoint
 10
126.0
 20
218.559196
 30
0.0
  0
POINT
  5
22896
100
AcDbEntity
  8
DEFPOINTS
  6
BYBLOCK
 62
     0
100
AcDbPoint
 10
111.85
 20
20.559196
 30
0.0
  0
POINT
  5
22897
100
AcDbEntity
  8
DEFPOINTS
  6
BYBLOCK
 62
     0
100
AcDbPoint
 10
149.5
 20
20.559196
 30
0.0
  0
ENDBLK
  5
22898
100
AcDbEntity
  8
0
100
AcDbBlockEnd
  0
BLOCK
  5
228BA
100
AcDbEntity
  8
0
100
AcDbBlockBegin
  2
*D2
 70
     1
 10
0.0
 20
0.0
 30
0.0
  3
*D2
  1

  0
LINE
  5
228BB
100
AcDbEntity
  8
0
  6
BYBLOCK
 62
     0
100
AcDbLine
 10
112.85
 20
20.559196
 30
0.0
 11
143.5
 21
20.559196
 31
0.0
  0
LINE
  5
228BC
100
AcDbEntity
  8
0
  6
BYBLOCK
 62
     0
100
AcDbLine
 10
118.75
 20
201.809196
 30
0.0
 11
143.5
 21
201.809196
 31
0.0
  0
LINE
  5
228BD
100
AcDbEntity
  8
0
  6
BYBLOCK
 62
     0
100
AcDbLine
 10
142.5
 20
23.059196
 30
0.0
 11
142.5
 21
199.309196
 31
0.0
  0
SOLID
  5
228BE
100
AcDbEntity
  8
0
  6
BYBLOCK
 62
     0
100
AcDbTrace
 10
142.083333
 20
23.059196
 30
0.0
 11
142.916667
 21
23.059196
 31
0.0
 12
142.5
 22
20.559196
 32
0.0
 13
142.5
 23
20.559196
 33
0.0
  0
SOLID
  5
228BF
100
AcDbEntity
  8
0
  6
BYBLOCK
 62
     0
100
AcDbTrace
 10
142.083333
 20
199.309196
 30
0.0
 11
142.916667
 21
199.309196
 31
0.0
 12
142.5
 22
201.809196
 32
0.0
 13
142.5
 23
201.809196
 33
0.0
  0
MTEXT
  5
228C0
100
AcDbEntity
  8
0
  6
BYBLOCK
 62
     0
100
AcDbMText
 10
140.25
 20
111.184196
 30
0.0
 40
2.5
 41
0.0
 71
     5
 72
     1
  1
\A1;181.25
 11
0.0
 21
1.0
 31
0.0
  0
POINT
  5
228C1
100
AcDbEntity
  8
DEFPOINTS
  6
BYBLOCK
 62
     0
100
AcDbPoint
 10
111.85
 20
20.559196
 30
0.0
  0
POINT
  5
228C2
100
AcDbEntity
  8
DEFPOINTS
  6
BYBLOCK
 62
     0
100
AcDbPoint
 10
117.75
 20
201.809196
 30
0.0
  0
POINT
  5
228C3
100
AcDbEntity
  8
DEFPOINTS
  6
BYBLOCK
 62
     0
100
AcDbPoint
 10
142.5
 20
201.809196
 30
0.0
  0
ENDBLK
  5
228C4
100
AcDbEntity
  8
0
100
AcDbBlockEnd
  0
BLOCK
  5
228AF
100
AcDbEntity
  8
0
100
AcDbBlockBegin
  2
*D3
 70
     1
 10
0.0
 20
0.0
 30
0.0
  3
*D3
  1

  0
LINE
  5
228B0
100
AcDbEntity
  8
0
  6
BYBLOCK
 62
     0
100
AcDbLine
 10
83.5
 20
219.059196
 30
0.0
 11
83.5
 21
289.384514
 31
0.0
  0
LINE
  5
228B1
100
AcDbEntity
  8
0
  6
BYBLOCK
 62
     0
100
AcDbLine
 10
126.5
 20
219.059196
 30
0.0
 11
126.5
 21
289.384514
 31
0.0
  0
LINE
  5
228B2
100
AcDbEntity
  8
0
  6
BYBLOCK
 62
     0
100
AcDbLine
 10
86.0
 20
288.384514
 30
0.0
 11
124.0
 21
288.384514
 31
0.0
  0
SOLID
  5
228B3
100
AcDbEntity
  8
0
  6
BYBLOCK
 62
     0
100
AcDbTrace
 10
86.0
 20
288.80118
 30
0.0
 11
86.0
 21
287.967847
 31
0.0
 12
83.5
 22
288.384514
 32
0.0
 13
83.5
 23
288.384514
 33
0.0
  0
SOLID
  5
228B4
100
AcDbEntity
  8
0
  6
BYBLOCK
 62
     0
100
AcDbTrace
 10
124.0
 20
288.80118
 30
0.0
 11
124.0
 21
287.967847
 31
0.0
 12
126.5
 22
288.384514
 32
0.0
 13
126.5
 23
288.384514
 33
0.0
  0
MTEXT
  5
228B5
100
AcDbEntity
  8
0
  6
BYBLOCK
 62
     0
100
AcDbMText
 10
105.0
 20
290.634514
 30
0.0
 40
2.5
 41
0.0
 71
     5
 72
     1
  1
\A1;\U+220543{\H1.250000;±0.05}
  0
POINT
  5
228B6
100
AcDbEntity
  8
DEFPOINTS
  6
BYBLOCK
 62
     0
100
AcDbPoint
 10
83.5
 20
218.059196
 30
0.0
  0
POINT
  5
228B7
100
AcDbEntity
  8
DEFPOINTS
  6
BYBLOCK
 62
     0
100
AcDbPoint
 10
126.5
 20
218.059196
 30
0.0
  0
POINT
  5
228B8
100
AcDbEntity
  8
DEFPOINTS
  6
BYBLOCK
 62
     0
100
AcDbPoint
 10
126.5
 20
288.384514
 30
0.0
  0
ENDBLK
  5
228B9
100
AcDbEntity
  8
0
100
AcDbBlockEnd
  0
BLOCK
  5
225F1
100
AcDbEntity
  8
0
100
AcDbBlockBegin
  2
*D4
 70
     1
 10
0.0
 20
0.0
 30
0.0
  3
*D4
  1

  0
LINE
  5
225F2
100
AcDbEntity
  8
0
  6
BYBLOCK
 62
     0
100
AcDbLine
 10
89.0
 20
216.559196
 30
0.0
 11
89.0
 21
223.384514
 31
0.0
  0
LINE
  5
225F3
100
AcDbEntity
  8
0
  6
BYBLOCK
 62
     0
100
AcDbLine
 10
121.0
 20
216.559196
 30
0.0
 11
121.0
 21
223.384514
 31
0.0
  0
LINE
  5
225F4
100
AcDbEntity
  8
0
  6
BYBLOCK
 62
     0
100
AcDbLine
 10
91.5
 20
222.384514
 30
0.0
 11
118.5
 21
222.384514
 31
0.0
  0
SOLID
  5
225F5
100
AcDbEntity
  8
0
  6
BYBLOCK
 62
     0
100
AcDbTrace
 10
91.5
 20
222.80118
 30
0.0
 11
91.5
 21
221.967847
 31
0.0
 12
89.0
 22
222.384514
 32
0.0
 13
89.0
 23
222.384514
 33
0.0
  0
SOLID
  5
225F6
100
AcDbEntity
  8
0
  6
BYBLOCK
 62
     0
100
AcDbTrace
 10
118.5
 20
222.80118
 30
0.0
 11
118.5
 21
221.967847
 31
0.0
 12
121.0
 22
222.384514
 32
0.0
 13
121.0
 23
222.384514
 33
0.0
  0
MTEXT
  5
225F7
100
AcDbEntity
  8
0
  6
BYBLOCK
 62
     0
100
AcDbMText
 10
105.0
 20
224.842847
 30
0.0
 40
2.5
 41
0.0
 71
     5
 72
     1
  1
\A1;\U+220532{\H1.250000;\S-0.005^ -0.015;}
  0
POINT
  5
225F8
100
AcDbEntity
  8
DEFPOINTS
  6
BYBLOCK
 62
     0
100
AcDbPoint
 10
89.0
 20
215.559196
 30
0.0
  0
POINT
  5
225F9
100
AcDbEntity
  8
DEFPOINTS
  6
BYBLOCK
 62
     0
100
AcDbPoint
 10
121.0
 20
215.559196
 30
0.0
  0
POINT
  5
225FA
100
AcDbEntity
  8
DEFPOINTS
  6
BYBLOCK
 62
     0
100
AcDbPoint
 10
121.0
 20
222.384514
 30
0.0
  0
ENDBLK
  5
225FB
100
AcDbEntity
  8
0
100
AcDbBlockEnd
  0
BLOCK
  5
22899
100
AcDbEntity
  8
0
100
AcDbBlockBegin
  2
*D5
 70
     1
 10
0.0
 20
0.0
 30
0.0
  3
*D5
  1

  0
LINE
  5
2289A
100
AcDbEntity
  8
0
  6
BYBLOCK
 62
     0
100
AcDbLine
 10
120.0
 20
276.559196
 30
0.0
 11
150.5
 21
276.559196
 31
0.0
  0
LINE
  5
2289B
100
AcDbEntity
  8
0
  6
BYBLOCK
 62
     0
100
AcDbLine
 10
127.0
 20
218.559196
 30
0.0
 11
150.5
 21
218.559196
 31
0.0
  0
LINE
  5
2289C
100
AcDbEntity
  8
0
  6
BYBLOCK
 62
     0
100
AcDbLine
 10
149.5
 20
274.059196
 30
0.0
 11
149.5
 21
221.059196
 31
0.0
  0
SOLID
  5
2289D
100
AcDbEntity
  8
0
  6
BYBLOCK
 62
     0
100
AcDbTrace
 10
149.083333
 20
274.059196
 30
0.0
 11
149.916667
 21
274.059196
 31
0.0
 12
149.5
 22
276.559196
 32
0.0
 13
149.5
 23
276.559196
 33
0.0
  0
SOLID
  5
2289E
100
AcDbEntity
  8
0
  6
BYBLOCK
 62
     0
100
AcDbTrace
 10
149.083333
 20
221.059196
 30
0.0
 11
149.916667
 21
221.059196
 31
0.0
 12
149.5
 22
218.559196
 32
0.0
 13
149.5
 23
218.559196
 33
0.0
  0
MTEXT
  5
2289F
100
AcDbEntity
  8
0
  6
BYBLOCK
 62
     0
100
AcDbMText
 10
147.25
 20
247.559196
 30
0.0
 40
2.5
 41
0.0
 71
     5
 72
     1
  1
\A1;58
 11
0.0
 21
1.0
 31
0.0
  0
POINT
  5
228A0
100
AcDbEntity
  8
DEFPOINTS
  6
BYBLOCK
 62
     0
100
AcDbPoint
 10
119.0
 20
276.559196
 30
0.0
  0
POINT
  5
228A1
100
AcDbEntity
  8
DEFPOINTS
  6
BYBLOCK
 62
     0
100
AcDbPoint
 10
126.0
 20
218.559196
 30
0.0
  0
POINT
  5
228A2
100
AcDbEntity
  8
DEFPOINTS
  6
BYBLOCK
 62
     0
100
AcDbPoint
 10
149.5
 20
218.559196
 30
0.0
  0
ENDBLK
  5
228A3
100
AcDbEntity
  8
0
100
AcDbBlockEnd
  0
BLOCK
  5
228A4
100
AcDbEntity
  8
0
100
AcDbBlockBegin
  2
*D6
 70
     1
 10
0.0
 20
0.0
 30
0.0
  3
*D6
  1

  0
LINE
  5
228A5
100
AcDbEntity
  8
0
  6
BYBLOCK
 62
     0
100
AcDbLine
 10
127.0
 20
218.559196
 30
0.0
 11
143.5
 21
218.559196
 31
0.0
  0
LINE
  5
228A6
100
AcDbEntity
  8
0
  6
BYBLOCK
 62
     0
100
AcDbLine
 10
127.5
 20
210.559196
 30
0.0
 11
143.5
 21
210.559196
 31
0.0
  0
LINE
  5
228A7
100
AcDbEntity
  8
0
  6
BYBLOCK
 62
     0
100
AcDbLine
 10
142.5
 20
216.059196
 30
0.0
 11
142.5
 21
213.059196
 31
0.0
  0
SOLID
  5
228A8
100
AcDbEntity
  8
0
  6
BYBLOCK
 62
     0
100
AcDbTrace
 10
142.083333
 20
216.059196
 30
0.0
 11
142.916667
 21
216.059196
 31
0.0
 12
142.5
 22
218.559196
 32
0.0
 13
142.5
 23
218.559196
 33
0.0
  0
SOLID
  5
228A9
100
AcDbEntity
  8
0
  6
BYBLOCK
 62
     0
100
AcDbTrace
 10
142.083333
 20
213.059196
 30
0.0
 11
142.916667
 21
213.059196
 31
0.0
 12
142.5
 22
210.559196
 32
0.0
 13
142.5
 23
210.559196
 33
0.0
  0
MTEXT
  5
228AA
100
AcDbEntity
  8
0
  6
BYBLOCK
 62
     0
100
AcDbMText
 10
140.25
 20
214.559196
 30
0.0
 40
2.5
 41
0.0
 71
     5
 72
     1
  1
\A1;8
 11
0.0
 21
1.0
 31
0.0
  0
POINT
  5
228AB
100
AcDbEntity
  8
DEFPOINTS
  6
BYBLOCK
 62
     0
100
AcDbPoint
 10
126.0
 20
218.559196
 30
0.0
  0
POINT
  5
228AC
100
AcDbEntity
  8
DEFPOINTS
  6
BYBLOCK
 62
     0
100
AcDbPoint
 10
126.5
 20
210.559196
 30
0.0
  0
POINT
  5
228AD
100
AcDbEntity
  8
DEFPOINTS
  6
BYBLOCK
 62
     0
100
AcDbPoint
 10
142.5
 20
210.559196
 30
0.0
  0
ENDBLK
  5
228AE
100
AcDbEntity
  8
0
100
AcDbBlockEnd
  0
BLOCK
  5
22845
100
AcDbEntity
  8
0
100
AcDbBlockBegin
  2
*D7
 70
     1
 10
0.0
 20
0.0
 30
0.0
  3
*D7
  1

  0
LINE
  5
22846
100
AcDbEntity
  8
0
  6
BYBLOCK
 62
     0
100
AcDbLine
 10
91.5
 20
20.289475
 30
0.0
 11
91.5
 21
7.559196
 31
0.0
  0
LINE
  5
22847
100
AcDbEntity
  8
0
  6
BYBLOCK
 62
     0
100
AcDbLine
 10
118.5
 20
20.046345
 30
0.0
 11
118.5
 21
7.559196
 31
0.0
  0
LINE
  5
22848
100
AcDbEntity
  8
0
  6
BYBLOCK
 62
     0
100
AcDbLine
 10
94.0
 20
8.559196
 30
0.0
 11
116.0
 21
8.559196
 31
0.0
  0
SOLID
  5
22849
100
AcDbEntity
  8
0
  6
BYBLOCK
 62
     0
100
AcDbTrace
 10
94.0
 20
8.975863
 30
0.0
 11
94.0
 21
8.14253
 31
0.0
 12
91.5
 22
8.559196
 32
0.0
 13
91.5
 23
8.559196
 33
0.0
  0
SOLID
  5
2284A
100
AcDbEntity
  8
0
  6
BYBLOCK
 62
     0
100
AcDbTrace
 10
116.0
 20
8.975863
 30
0.0
 11
116.0
 21
8.14253
 31
0.0
 12
118.5
 22
8.559196
 32
0.0
 13
118.5
 23
8.559196
 33
0.0
  0
MTEXT
  5
2284B
100
AcDbEntity
  8
0
  6
BYBLOCK
 62
     0
100
AcDbMText
 10
105.0
 20
10.809196
 30
0.0
 40
2.5
 41
0.0
 71
     5
 72
     1
  1
\A1;\U+220527
  0
POINT
  5
2284C
100
AcDbEntity
  8
DEFPOINTS
  6
BYBLOCK
 62
     0
100
AcDbPoint
 10
91.5
 20
21.289475
 30
0.0
  0
POINT
  5
2284D
100
AcDbEntity
  8
DEFPOINTS
  6
BYBLOCK
 62
     0
100
AcDbPoint
 10
118.5
 20
21.046345
 30
0.0
  0
POINT
  5
2284E
100
AcDbEntity
  8
DEFPOINTS
  6
BYBLOCK
 62
     0
100
AcDbPoint
 10
118.5
 20
8.559196
 30
0.0
  0
ENDBLK
  5
2284F
100
AcDbEntity
  8
0
100
AcDbBlockEnd
  0
ENDSEC
  0
SECTION
  2
ENTITIES
  0
TEXT
  5
11637
100
AcDbEntity
  8
SK2
100
AcDbText
 10
272.5
 20
8.5
 30
0.0
 40
3.0
  1

  7
STYLE1
100
AcDbText
  0
TEXT
  5
1279D
100
AcDbEntity
  8
SK2
100
AcDbText
 10
272.5
 20
8.5
 30
0.0
 40
3.0
  1

  7
STYLE1
100
AcDbText
  0
TEXT
  5
127CB
100
AcDbEntity
  8
SK2
100
AcDbText
 10
472.5
 20
8.5
 30
0.0
 40
3.0
  1

  7
STYLE1
100
AcDbText
  0
TEXT
  5
1921A
100
AcDbEntity
  8
SK2
100
AcDbText
 10
170.5
 20
26.5
 30
0.0
 40
2.5
  1

  7
STYLE1
100
AcDbText
  0
TEXT
  5
1AB58
100
AcDbEntity
  8
SK2
100
AcDbText
 10
872.5
 20
8.5
 30
0.0
 40
3.0
  1

  7
STYLE1
100
AcDbText
  0
TEXT
  5
1AB59
100
AcDbEntity
  8
SK2
100
AcDbText
 10
872.5
 20
8.5
 30
0.0
 40
3.0
  1

  7
STYLE1
100
AcDbText
  0
TEXT
  5
1AB5A
100
AcDbEntity
  8
SK2
100
AcDbText
 10
1072.5
 20
8.5
 30
0.0
 40
3.0
  1

  7
STYLE1
100
AcDbText
  0
TEXT
  5
1AB5B
100
AcDbEntity
  8
SK2
100
AcDbText
 10
5072.5
 20
8.5
 30
0.0
 40
3.0
  1

  7
STYLE1
100
AcDbText
  0
TEXT
  5
1B34E
100
AcDbEntity
  8
SK2
100
AcDbText
 10
672.5
 20
8.5
 30
0.0
 40
3.0
  1

  7
STYLE1
100
AcDbText
  0
TEXT
  5
1B399
100
AcDbEntity
  8
SK2
100
AcDbText
 10
672.5
 20
8.5
 30
0.0
 40
3.0
  1

  7
STYLE1
100
AcDbText
  0
TEXT
  5
1B39A
100
AcDbEntity
  8
SK2
100
AcDbText
 10
672.5
 20
8.5
 30
0.0
 40
3.0
  1

  7
STYLE1
100
AcDbText
  0
TEXT
  5
1B39B
100
AcDbEntity
  8
SK2
100
AcDbText
 10
872.5
 20
8.5
 30
0.0
 40
3.0
  1

  7
STYLE1
100
AcDbText
  0
TEXT
  5
1B39C
100
AcDbEntity
  8
SK2
100
AcDbText
 10
872.5
 20
8.5
 30
0.0
 40
3.0
  1

  7
STYLE1
100
AcDbText
  0
TEXT
  5
1B39D
100
AcDbEntity
  8
SK2
100
AcDbText
 10
872.5
 20
8.5
 30
0.0
 40
3.0
  1

  7
STYLE1
100
AcDbText
  0
TEXT
  5
1B39E
100
AcDbEntity
  8
SK2
100
AcDbText
 10
1072.5
 20
8.5
 30
0.0
 40
3.0
  1

  7
STYLE1
100
AcDbText
  0
TEXT
  5
1B39F
100
AcDbEntity
  8
SK2
100
AcDbText
 10
1072.5
 20
8.5
 30
0.0
 40
3.0
  1

  7
STYLE1
100
AcDbText
  0
TEXT
  5
1B3A0
100
AcDbEntity
  8
SK2
100
AcDbText
 10
1072.5
 20
8.5
 30
0.0
 40
3.0
  1

  7
STYLE1
100
AcDbText
  0
TEXT
  5
1B3A1
100
AcDbEntity
  8
SK2
100
AcDbText
 10
1272.5
 20
8.5
 30
0.0
 40
3.0
  1

  7
STYLE1
100
AcDbText
  0
TEXT
  5
1B3A2
100
AcDbEntity
  8
SK2
100
AcDbText
 10
1072.5
 20
8.5
 30
0.0
 40
3.0
  1

  7
STYLE1
100
AcDbText
  0
TEXT
  5
1B3A3
100
AcDbEntity
  8
SK2
100
AcDbText
 10
1072.5
 20
8.5
 30
0.0
 40
3.0
  1

  7
STYLE1
100
AcDbText
  0
TEXT
  5
1B3A4
100
AcDbEntity
  8
SK2
100
AcDbText
 10
1272.5
 20
8.5
 30
0.0
 40
3.0
  1

  7
STYLE1
100
AcDbText
  0
TEXT
  5
1B3A6
100
AcDbEntity
  8
SK2
100
AcDbText
 10
672.5
 20
8.5
 30
0.0
 40
3.0
  1

  7
STYLE1
100
AcDbText
  0
TEXT
  5
1B3A7
100
AcDbEntity
  8
SK2
100
AcDbText
 10
672.5
 20
8.5
 30
0.0
 40
3.0
  1

  7
STYLE1
100
AcDbText
  0
TEXT
  5
1B3A8
100
AcDbEntity
  8
SK2
100
AcDbText
 10
872.5
 20
8.5
 30
0.0
 40
3.0
  1

  7
STYLE1
100
AcDbText
  0
TEXT
  5
1B3A9
100
AcDbEntity
  8
SK2
100
AcDbText
 10
872.5
 20
8.5
 30
0.0
 40
3.0
  1

  7
STYLE1
100
AcDbText
  0
TEXT
  5
1B3AA
100
AcDbEntity
  8
SK2
100
AcDbText
 10
872.5
 20
8.5
 30
0.0
 40
3.0
  1

  7
STYLE1
100
AcDbText
  0
TEXT
  5
1B3AB
100
AcDbEntity
  8
SK2
100
AcDbText
 10
1072.5
 20
8.5
 30
0.0
 40
3.0
  1

  7
STYLE1
100
AcDbText
  0
TEXT
  5
1B3AC
100
AcDbEntity
  8
SK2
100
AcDbText
 10
1072.5
 20
8.5
 30
0.0
 40
3.0
  1

  7
STYLE1
100
AcDbText
  0
TEXT
  5
1B3AD
100
AcDbEntity
  8
SK2
100
AcDbText
 10
1072.5
 20
8.5
 30
0.0
 40
3.0
  1

  7
STYLE1
100
AcDbText
  0
TEXT
  5
1B3AE
100
AcDbEntity
  8
SK2
100
AcDbText
 10
1272.5
 20
8.5
 30
0.0
 40
3.0
  1

  7
STYLE1
100
AcDbText
  0
TEXT
  5
1B3AF
100
AcDbEntity
  8
SK2
100
AcDbText
 10
1072.5
 20
8.5
 30
0.0
 40
3.0
  1

  7
STYLE1
100
AcDbText
  0
TEXT
  5
1B3B0
100
AcDbEntity
  8
SK2
100
AcDbText
 10
1072.5
 20
8.5
 30
0.0
 40
3.0
  1

  7
STYLE1
100
AcDbText
  0
TEXT
  5
1B3B1
100
AcDbEntity
  8
SK2
100
AcDbText
 10
1272.5
 20
8.5
 30
0.0
 40
3.0
  1

  7
STYLE1
100
AcDbText
  0
TEXT
  5
1B8FA
100
AcDbEntity
  8
SK2
100
AcDbText
 10
472.5
 20
8.5
 30
0.0
 40
3.0
  1

  7
STYLE1
100
AcDbText
  0
TEXT
  5
1B8FB
100
AcDbEntity
  8
SK2
100
AcDbText
 10
472.5
 20
8.5
 30
0.0
 40
3.0
  1

  7
STYLE1
100
AcDbText
  0
TEXT
  5
1B8FC
100
AcDbEntity
  8
SK2
100
AcDbText
 10
672.5
 20
8.5
 30
0.0
 40
3.0
  1

  7
STYLE1
100
AcDbText
  0
TEXT
  5
1B8FD
100
AcDbEntity
  8
SK2
100
AcDbText
 10
370.5
 20
26.5
 30
0.0
 40
2.5
  1

  7
STYLE1
100
AcDbText
  0
TEXT
  5
1B93A
100
AcDbEntity
  8
SK2
100
AcDbText
 10
1072.5
 20
8.5
 30
0.0
 40
3.0
  1

  7
STYLE1
100
AcDbText
  0
TEXT
  5
1B93B
100
AcDbEntity
  8
SK2
100
AcDbText
 10
1072.5
 20
8.5
 30
0.0
 40
3.0
  1

  7
STYLE1
100
AcDbText
  0
TEXT
  5
1B93C
100
AcDbEntity
  8
SK2
100
AcDbText
 10
1272.5
 20
8.5
 30
0.0
 40
3.0
  1

  7
STYLE1
100
AcDbText
  0
TEXT
  5
1B93D
100
AcDbEntity
  8
SK2
100
AcDbText
 10
5272.5
 20
8.5
 30
0.0
 40
3.0
  1

  7
STYLE1
100
AcDbText
  0
TEXT
  5
1B93E
100
AcDbEntity
  8
SK2
100
AcDbText
 10
872.5
 20
8.5
 30
0.0
 40
3.0
  1

  7
STYLE1
100
AcDbText
  0
TEXT
  5
1B93F
100
AcDbEntity
  8
SK2
100
AcDbText
 10
872.5
 20
8.5
 30
0.0
 40
3.0
  1

  7
STYLE1
100
AcDbText
  0
TEXT
  5
1B940
100
AcDbEntity
  8
SK2
100
AcDbText
 10
872.5
 20
8.5
 30
0.0
 40
3.0
  1

  7
STYLE1
100
AcDbText
  0
TEXT
  5
1B941
100
AcDbEntity
  8
SK2
100
AcDbText
 10
1072.5
 20
8.5
 30
0.0
 40
3.0
  1

  7
STYLE1
100
AcDbText
  0
TEXT
  5
1B942
100
AcDbEntity
  8
SK2
100
AcDbText
 10
1072.5
 20
8.5
 30
0.0
 40
3.0
  1

  7
STYLE1
100
AcDbText
  0
TEXT
  5
1B943
100
AcDbEntity
  8
SK2
100
AcDbText
 10
1072.5
 20
8.5
 30
0.0
 40
3.0
  1

  7
STYLE1
100
AcDbText
  0
TEXT
  5
1B944
100
AcDbEntity
  8
SK2
100
AcDbText
 10
1272.5
 20
8.5
 30
0.0
 40
3.0
  1

  7
STYLE1
100
AcDbText
  0
TEXT
  5
1B945
100
AcDbEntity
  8
SK2
100
AcDbText
 10
1272.5
 20
8.5
 30
0.0
 40
3.0
  1

  7
STYLE1
100
AcDbText
  0
TEXT
  5
1B946
100
AcDbEntity
  8
SK2
100
AcDbText
 10
1272.5
 20
8.5
 30
0.0
 40
3.0
  1

  7
STYLE1
100
AcDbText
  0
TEXT
  5
1B947
100
AcDbEntity
  8
SK2
100
AcDbText
 10
1472.5
 20
8.5
 30
0.0
 40
3.0
  1

  7
STYLE1
100
AcDbText
  0
TEXT
  5
1B948
100
AcDbEntity
  8
SK2
100
AcDbText
 10
1272.5
 20
8.5
 30
0.0
 40
3.0
  1

  7
STYLE1
100
AcDbText
  0
TEXT
  5
1B949
100
AcDbEntity
  8
SK2
100
AcDbText
 10
1272.5
 20
8.5
 30
0.0
 40
3.0
  1

  7
STYLE1
100
AcDbText
  0
TEXT
  5
1B94A
100
AcDbEntity
  8
SK2
100
AcDbText
 10
1472.5
 20
8.5
 30
0.0
 40
3.0
  1

  7
STYLE1
100
AcDbText
  0
TEXT
  5
1B94B
100
AcDbEntity
  8
SK2
100
AcDbText
 10
872.5
 20
8.5
 30
0.0
 40
3.0
  1

  7
STYLE1
100
AcDbText
  0
TEXT
  5
1B94C
100
AcDbEntity
  8
SK2
100
AcDbText
 10
872.5
 20
8.5
 30
0.0
 40
3.0
  1

  7
STYLE1
100
AcDbText
  0
TEXT
  5
1B94D
100
AcDbEntity
  8
SK2
100
AcDbText
 10
1072.5
 20
8.5
 30
0.0
 40
3.0
  1

  7
STYLE1
100
AcDbText
  0
TEXT
  5
1B94E
100
AcDbEntity
  8
SK2
100
AcDbText
 10
1072.5
 20
8.5
 30
0.0
 40
3.0
  1

  7
STYLE1
100
AcDbText
  0
TEXT
  5
1B94F
100
AcDbEntity
  8
SK2
100
AcDbText
 10
1072.5
 20
8.5
 30
0.0
 40
3.0
  1

  7
STYLE1
100
AcDbText
  0
TEXT
  5
1B950
100
AcDbEntity
  8
SK2
100
AcDbText
 10
1272.5
 20
8.5
 30
0.0
 40
3.0
  1

  7
STYLE1
100
AcDbText
  0
TEXT
  5
1B951
100
AcDbEntity
  8
SK2
100
AcDbText
 10
1272.5
 20
8.5
 30
0.0
 40
3.0
  1

  7
STYLE1
100
AcDbText
  0
TEXT
  5
1B952
100
AcDbEntity
  8
SK2
100
AcDbText
 10
1272.5
 20
8.5
 30
0.0
 40
3.0
  1

  7
STYLE1
100
AcDbText
  0
TEXT
  5
1B953
100
AcDbEntity
  8
SK2
100
AcDbText
 10
1472.5
 20
8.5
 30
0.0
 40
3.0
  1

  7
STYLE1
100
AcDbText
  0
TEXT
  5
1B954
100
AcDbEntity
  8
SK2
100
AcDbText
 10
1272.5
 20
8.5
 30
0.0
 40
3.0
  1

  7
STYLE1
100
AcDbText
  0
TEXT
  5
1B955
100
AcDbEntity
  8
SK2
100
AcDbText
 10
1272.5
 20
8.5
 30
0.0
 40
3.0
  1

  7
STYLE1
100
AcDbText
  0
TEXT
  5
1B956
100
AcDbEntity
  8
SK2
100
AcDbText
 10
1472.5
 20
8.5
 30
0.0
 40
3.0
  1

  7
STYLE1
100
AcDbText
  0
TEXT
  5
1BDB1
100
AcDbEntity
  8
SK2
100
AcDbText
 10
472.5
 20
8.5
 30
0.0
 40
3.0
  1

  7
STYLE1
100
AcDbText
  0
TEXT
  5
1BDB2
100
AcDbEntity
  8
SK2
100
AcDbText
 10
472.5
 20
8.5
 30
0.0
 40
3.0
  1

  7
STYLE1
100
AcDbText
  0
TEXT
  5
1BDB3
100
AcDbEntity
  8
SK2
100
AcDbText
 10
672.5
 20
8.5
 30
0.0
 40
3.0
  1

  7
STYLE1
100
AcDbText
  0
TEXT
  5
1BDB4
100
AcDbEntity
  8
SK2
100
AcDbText
 10
370.5
 20
26.5
 30
0.0
 40
2.5
  1

  7
STYLE1
100
AcDbText
  0
TEXT
  5
1BDF1
100
AcDbEntity
  8
SK2
100
AcDbText
 10
1072.5
 20
8.5
 30
0.0
 40
3.0
  1

  7
STYLE1
100
AcDbText
  0
TEXT
  5
1BDF2
100
AcDbEntity
  8
SK2
100
AcDbText
 10
1072.5
 20
8.5
 30
0.0
 40
3.0
  1

  7
STYLE1
100
AcDbText
  0
TEXT
  5
1BDF3
100
AcDbEntity
  8
SK2
100
AcDbText
 10
1272.5
 20
8.5
 30
0.0
 40
3.0
  1

  7
STYLE1
100
AcDbText
  0
TEXT
  5
1BDF4
100
AcDbEntity
  8
SK2
100
AcDbText
 10
5272.5
 20
8.5
 30
0.0
 40
3.0
  1

  7
STYLE1
100
AcDbText
  0
TEXT
  5
1BDF5
100
AcDbEntity
  8
SK2
100
AcDbText
 10
872.5
 20
8.5
 30
0.0
 40
3.0
  1

  7
STYLE1
100
AcDbText
  0
TEXT
  5
1BDF6
100
AcDbEntity
  8
SK2
100
AcDbText
 10
872.5
 20
8.5
 30
0.0
 40
3.0
  1

  7
STYLE1
100
AcDbText
  0
TEXT
  5
1BDF7
100
AcDbEntity
  8
SK2
100
AcDbText
 10
872.5
 20
8.5
 30
0.0
 40
3.0
  1

  7
STYLE1
100
AcDbText
  0
TEXT
  5
1BDF8
100
AcDbEntity
  8
SK2
100
AcDbText
 10
1072.5
 20
8.5
 30
0.0
 40
3.0
  1

  7
STYLE1
100
AcDbText
  0
TEXT
  5
1BDF9
100
AcDbEntity
  8
SK2
100
AcDbText
 10
1072.5
 20
8.5
 30
0.0
 40
3.0
  1

  7
STYLE1
100
AcDbText
  0
TEXT
  5
1BDFA
100
AcDbEntity
  8
SK2
100
AcDbText
 10
1072.5
 20
8.5
 30
0.0
 40
3.0
  1

  7
STYLE1
100
AcDbText
  0
TEXT
  5
1BDFB
100
AcDbEntity
  8
SK2
100
AcDbText
 10
1272.5
 20
8.5
 30
0.0
 40
3.0
  1

  7
STYLE1
100
AcDbText
  0
TEXT
  5
1BDFC
100
AcDbEntity
  8
SK2
100
AcDbText
 10
1272.5
 20
8.5
 30
0.0
 40
3.0
  1

  7
STYLE1
100
AcDbText
  0
TEXT
  5
1BDFD
100
AcDbEntity
  8
SK2
100
AcDbText
 10
1272.5
 20
8.5
 30
0.0
 40
3.0
  1

  7
STYLE1
100
AcDbText
  0
TEXT
  5
1BDFE
100
AcDbEntity
  8
SK2
100
AcDbText
 10
1472.5
 20
8.5
 30
0.0
 40
3.0
  1

  7
STYLE1
100
AcDbText
  0
TEXT
  5
1BDFF
100
AcDbEntity
  8
SK2
100
AcDbText
 10
1272.5
 20
8.5
 30
0.0
 40
3.0
  1

  7
STYLE1
100
AcDbText
  0
TEXT
  5
1BE00
100
AcDbEntity
  8
SK2
100
AcDbText
 10
1272.5
 20
8.5
 30
0.0
 40
3.0
  1

  7
STYLE1
100
AcDbText
  0
TEXT
  5
1BE01
100
AcDbEntity
  8
SK2
100
AcDbText
 10
1472.5
 20
8.5
 30
0.0
 40
3.0
  1

  7
STYLE1
100
AcDbText
  0
TEXT
  5
1BE02
100
AcDbEntity
  8
SK2
100
AcDbText
 10
872.5
 20
8.5
 30
0.0
 40
3.0
  1

  7
STYLE1
100
AcDbText
  0
TEXT
  5
1BE03
100
AcDbEntity
  8
SK2
100
AcDbText
 10
872.5
 20
8.5
 30
0.0
 40
3.0
  1

  7
STYLE1
100
AcDbText
  0
TEXT
  5
1BE04
100
AcDbEntity
  8
SK2
100
AcDbText
 10
1072.5
 20
8.5
 30
0.0
 40
3.0
  1

  7
STYLE1
100
AcDbText
  0
TEXT
  5
1BE05
100
AcDbEntity
  8
SK2
100
AcDbText
 10
1072.5
 20
8.5
 30
0.0
 40
3.0
  1

  7
STYLE1
100
AcDbText
  0
TEXT
  5
1BE06
100
AcDbEntity
  8
SK2
100
AcDbText
 10
1072.5
 20
8.5
 30
0.0
 40
3.0
  1

  7
STYLE1
100
AcDbText
  0
TEXT
  5
1BE07
100
AcDbEntity
  8
SK2
100
AcDbText
 10
1272.5
 20
8.5
 30
0.0
 40
3.0
  1

  7
STYLE1
100
AcDbText
  0
TEXT
  5
1BE08
100
AcDbEntity
  8
SK2
100
AcDbText
 10
1272.5
 20
8.5
 30
0.0
 40
3.0
  1

  7
STYLE1
100
AcDbText
  0
TEXT
  5
1BE09
100
AcDbEntity
  8
SK2
100
AcDbText
 10
1272.5
 20
8.5
 30
0.0
 40
3.0
  1

  7
STYLE1
100
AcDbText
  0
TEXT
  5
1BE0A
100
AcDbEntity
  8
SK2
100
AcDbText
 10
1472.5
 20
8.5
 30
0.0
 40
3.0
  1

  7
STYLE1
100
AcDbText
  0
TEXT
  5
1BE0B
100
AcDbEntity
  8
SK2
100
AcDbText
 10
1272.5
 20
8.5
 30
0.0
 40
3.0
  1

  7
STYLE1
100
AcDbText
  0
TEXT
  5
1BE0C
100
AcDbEntity
  8
SK2
100
AcDbText
 10
1272.5
 20
8.5
 30
0.0
 40
3.0
  1

  7
STYLE1
100
AcDbText
  0
TEXT
  5
1BE0D
100
AcDbEntity
  8
SK2
100
AcDbText
 10
1472.5
 20
8.5
 30
0.0
 40
3.0
  1

  7
STYLE1
100
AcDbText
  0
DIMENSION
  5
21586
100
AcDbEntity
  8
2
100
AcDbDimension
  2
*D0
 10
156.5
 20
20.559196
 30
0.0
 11
154.25
 21
148.559196
 31
0.0
 70
    32
  3
STANDARD
100
AcDbAlignedDimension
 13
119.0
 23
276.559196
 33
0.0
 14
111.85
 24
20.559196
 34
0.0
 50
90.0
100
AcDbRotatedDimension
1001
ACAD
1000
DSTYLE
1002
{
1070
    78
1070
     8
1070
   284
1070
     8
1070
   140
1040
2.5
1070
    47
1040
0.05
1070
    74
1070
     0
1070
   172
1070
     1
1070
    48
1040
0.05
1070
    73
1070
     0
1070
   146
1040
0.5
1070
   272
1070
     2
1070
    77
1070
     1
1070
   147
1040
1.0
1070
    42
1040
1.0
1070
    44
1040
1.0
1070
    43
1040
1.0
1070
   271
1070
     2
1070
    41
1040
2.5
1002
}
  0
DIMENSION
  5
21587
100
AcDbEntity
  8
2
100
AcDbDimension
  2
*D1
 10
149.5
 20
20.559196
 30
0.0
 11
147.25
 21
119.559196
 31
0.0
 70
    32
  3
STANDARD
100
AcDbAlignedDimension
 13
126.0
 23
218.559196
 33
0.0
 14
111.85
 24
20.559196
 34
0.0
 50
90.0
100
AcDbRotatedDimension
1001
ACAD
1000
DSTYLE
1002
{
1070
    78
1070
     8
1070
   284
1070
     8
1070
   140
1040
2.5
1070
    47
1040
0.05
1070
    74
1070
     0
1070
   172
1070
     1
1070
    48
1040
0.05
1070
    73
1070
     0
1070
   146
1040
0.5
1070
   272
1070
     2
1070
    77
1070
     1
1070
   147
1040
1.0
1070
    42
1040
1.0
1070
    44
1040
1.0
1070
    43
1040
1.0
1070
   271
1070
     2
1070
    41
1040
2.5
1002
}
  0
DIMENSION
  5
21588
100
AcDbEntity
  8
2
100
AcDbDimension
  2
*D2
 10
142.5
 20
201.809196
 30
0.0
 11
140.25
 21
111.184196
 31
0.0
 70
    32
  3
STANDARD
100
AcDbAlignedDimension
 13
111.85
 23
20.559196
 33
0.0
 14
117.75
 24
201.809196
 34
0.0
 50
90.0
100
AcDbRotatedDimension
1001
ACAD
1000
DSTYLE
1002
{
1070
    78
1070
     8
1070
   284
1070
     8
1070
   140
1040
2.5
1070
    47
1040
0.05
1070
    74
1070
     0
1070
   172
1070
     1
1070
    48
1040
0.05
1070
    73
1070
     0
1070
   146
1040
0.5
1070
   272
1070
     2
1070
    77
1070
     1
1070
   147
1040
1.0
1070
    42
1040
1.0
1070
    44
1040
1.0
1070
    43
1040
1.0
1070
   271
1070
     2
1070
    41
1040
2.5
1002
}
  0
LINE
  5
21589
100
AcDbEntity
  8
4
100
AcDbLine
 10
105.0
 20
15.559196
 30
0.0
 11
105.0
 21
278.559196
 31
0.0
  0
LINE
  5
21606
100
AcDbEntity
  8
6
100
AcDbLine
 10
89.0
 20
274.059196
 30
0.0
 11
97.254033
 21
274.059196
 31
0.0
  0
LINE
  5
21607
100
AcDbEntity
  8
6
100
AcDbLine
 10
89.0
 20
270.859196
 30
0.0
 11
97.254033
 21
270.859196
 31
0.0
  0
LINE
  5
21608
100
AcDbEntity
  8
1
100
AcDbLine
 10
91.0
 20
276.559196
 30
0.0
 11
119.0
 21
276.559196
 31
0.0
  0
LINE
  5
21609
100
AcDbEntity
  8
6
100
AcDbLine
 10
89.0
 20
274.559196
 30
0.0
 11
97.254033
 21
274.559196
 31
0.0
  0
DIMENSION
  5
2160A
100
AcDbEntity
  8
2
100
AcDbDimension
  2
*D4
 10
121.0
 20
281.384514
 30
0.0
 11
105.0
 21
224.842847
 31
0.0
 12
0.0
 22
59.0
 32
0.0
 70
    32
  3
STANDARD
100
AcDbAlignedDimension
 13
89.0
 23
274.559196
 33
0.0
 14
121.0
 24
274.559196
 34
0.0
100
AcDbRotatedDimension
1001
ACAD
1000
DSTYLE
1002
{
1070
    78
1070
     8
1070
   284
1070
     8
1070
   140
1040
2.5
1070
    47
1040
-0.005
1070
    71
1070
     1
1070
    74
1070
     0
1070
   172
1070
     1
1070
    48
1040
0.015
1070
    73
1070
     0
1070
   146
1040
0.5
1070
   272
1070
     3
1070
    77
1070
     1
1070
     3
1000
%%C<>
1070
   147
1040
1.0
1070
    42
1040
1.0
1070
    44
1040
1.0
1070
    43
1040
1.0
1070
   271
1070
     3
1070
    41
1040
2.5
1002
}
  0
LINE
  5
2160C
100
AcDbEntity
  8
1
100
AcDbLine
 10
83.5
 20
218.059196
 30
0.0
 11
126.5
 21
218.059196
 31
0.0
  0
LINE
  5
2160D
100
AcDbEntity
  8
6
100
AcDbLine
 10
89.0
 20
220.559196
 30
0.0
 11
121.0
 21
220.559196
 31
0.0
  0
LINE
  5
2160E
100
AcDbEntity
  8
6
100
AcDbLine
 10
89.15
 20
220.409196
 30
0.0
 11
120.85
 21
220.409196
 31
0.0
  0
LINE
  5
2160F
100
AcDbEntity
  8
1
100
AcDbLine
 10
83.5
 20
210.559196
 30
0.0
 11
126.5
 21
210.559196
 31
0.0
  0
LINE
  5
21610
100
AcDbEntity
  8
1
100
AcDbLine
 10
84.0
 20
218.559196
 30
0.0
 11
126.0
 21
218.559196
 31
0.0
  0
DIMENSION
  5
21611
100
AcDbEntity
  8
2
100
AcDbDimension
  2
*D3
 10
126.5
 20
288.384514
 30
0.0
 11
105.0
 21
290.634514
 31
0.0
 70
    32
  3
STANDARD
100
AcDbAlignedDimension
 13
83.5
 23
218.059196
 33
0.0
 14
126.5
 24
218.059196
 34
0.0
100
AcDbRotatedDimension
1001
ACAD
1000
DSTYLE
1002
{
1070
    78
1070
     8
1070
   284
1070
     8
1070
   140
1040
2.5
1070
    47
1040
0.05
1070
    71
1070
     1
1070
    74
1070
     0
1070
   172
1070
     1
1070
    48
1040
0.05
1070
    73
1070
     0
1070
   146
1040
0.5
1070
   272
1070
     2
1070
    77
1070
     1
1070
     3
1000
%%C<>
1070
   147
1040
1.0
1070
    42
1040
1.0
1070
    44
1040
1.0
1070
    43
1040
1.0
1070
   271
1070
     2
1070
    41
1040
2.5
1002
}
  0
LINE
  5
21614
100
AcDbEntity
  8
1
100
AcDbLine
 10
89.0
 20
270.859196
 30
0.0
 11
89.0
 21
220.559196
 31
0.0
  0
LINE
  5
21616
100
AcDbEntity
  8
1
100
AcDbLine
 10
83.5
 20
210.559196
 30
0.0
 11
83.5
 21
218.059196
 31
0.0
  0
LINE
  5
2161B
100
AcDbEntity
  8
1
100
AcDbLine
 10
89.15
 20
220.409196
 30
0.0
 11
89.0
 21
220.559196
 31
0.0
  0
LINE
  5
2161E
100
AcDbEntity
  8
1
100
AcDbLine
 10
84.0
 20
218.559196
 30
0.0
 11
83.5
 21
218.059196
 31
0.0
  0
LINE
  5
2161F
100
AcDbEntity
  8
1
100
AcDbLine
 10
89.15
 20
220.409196
 30
0.0
 11
89.15
 21
218.559196
 31
0.0
  0
ARC
  5
21625
100
AcDbEntity
  8
1
100
AcDbCircle
 10
85.333939
 20
272.459196
 30
0.0
 40
4.0
100
AcDbArc
 50
336.421822
 51
23.578178
  0
LINE
  5
21626
100
AcDbEntity
  8
1
100
AcDbLine
 10
89.0
 20
274.559196
 30
0.0
 11
91.0
 21
276.559196
 31
0.0
  0
LINE
  5
21627
100
AcDbEntity
  8
1
100
AcDbLine
 10
89.0
 20
274.559196
 30
0.0
 11
89.0
 21
274.059196
 31
0.0
  0
DIMENSION
  5
21628
100
AcDbEntity
  8
2
100
AcDbDimension
  2
*D5
 10
149.5
 20
218.559196
 30
0.0
 11
147.25
 21
247.559196
 31
0.0
 70
    32
  3
STANDARD
100
AcDbAlignedDimension
 13
119.0
 23
276.559196
 33
0.0
 14
126.0
 24
218.559196
 34
0.0
 50
90.0
100
AcDbRotatedDimension
1001
ACAD
1000
DSTYLE
1002
{
1070
    78
1070
     8
1070
   284
1070
     8
1070
   140
1040
2.5
1070
    47
1040
0.05
1070
    74
1070
     0
1070
   172
1070
     1
1070
    48
1040
0.05
1070
    73
1070
     0
1070
   146
1040
0.5
1070
   272
1070
     2
1070
    77
1070
     1
1070
   147
1040
1.0
1070
    42
1040
1.0
1070
    44
1040
1.0
1070
    43
1040
1.0
1070
   271
1070
     2
1070
    41
1040
2.5
1002
}
  0
LINE
  5
21629
100
AcDbEntity
  8
1
100
AcDbLine
 10
121.0
 20
270.859196
 30
0.0
 11
121.0
 21
220.559196
 31
0.0
  0
LINE
  5
2162A
100
AcDbEntity
  8
1
100
AcDbLine
 10
126.5
 20
210.559196
 30
0.0
 11
126.5
 21
218.059196
 31
0.0
  0
DIMENSION
  5
2162B
100
AcDbEntity
  8
2
100
AcDbDimension
  2
*D6
 10
142.5
 20
210.559196
 30
0.0
 11
140.25
 21
214.559196
 31
0.0
 70
    32
  3
STANDARD
100
AcDbAlignedDimension
 13
126.0
 23
218.559196
 33
0.0
 14
126.5
 24
210.559196
 34
0.0
 50
90.0
100
AcDbRotatedDimension
1001
ACAD
1000
DSTYLE
1002
{
1070
    78
1070
     8
1070
   284
1070
     8
1070
   140
1040
2.5
1070
    47
1040
0.05
1070
    74
1070
     0
1070
   172
1070
     1
1070
    48
1040
0.05
1070
    73
1070
     0
1070
   146
1040
0.5
1070
   272
1070
     2
1070
    77
1070
     1
1070
   147
1040
1.0
1070
    42
1040
1.0
1070
    44
1040
1.0
1070
    43
1040
1.0
1070
   271
1070
     2
1070
    41
1040
2.5
1002
}
  0
LINE
  5
2162E
100
AcDbEntity
  8
1
100
AcDbLine
 10
126.0
 20
218.559196
 30
0.0
 11
126.5
 21
218.059196
 31
0.0
  0
LINE
  5
2162F
100
AcDbEntity
  8
1
100
AcDbLine
 10
120.85
 20
220.409196
 30
0.0
 11
120.85
 21
218.559196
 31
0.0
  0
LINE
  5
21630
100
AcDbEntity
  8
1
100
AcDbLine
 10
120.85
 20
220.409196
 30
0.0
 11
121.0
 21
220.559196
 31
0.0
  0
LINE
  5
21632
100
AcDbEntity
  8
1
100
AcDbLine
 10
119.0
 20
276.559196
 30
0.0
 11
121.0
 21
274.559196
 31
0.0
  0
LINE
  5
21633
100
AcDbEntity
  8
1
100
AcDbLine
 10
121.0
 20
274.559196
 30
0.0
 11
121.0
 21
274.059196
 31
0.0
  0
ARC
  5
21634
100
AcDbEntity
  8
1
100
AcDbCircle
 10
124.666061
 20
272.459196
 30
0.0
 40
4.0
100
AcDbArc
 50
156.421822
 51
203.578178
  0
LINE
  5
21C41
100
AcDbEntity
  8
1
100
AcDbLine
 10
92.0
 20
35.559196
 30
0.0
 11
118.0
 21
35.559196
 31
0.0
  0
LINE
  5
21CA2
100
AcDbEntity
  8
1
100
AcDbLine
 10
92.25
 20
201.809196
 30
0.0
 11
117.75
 21
201.809196
 31
0.0
  0
LINE
  5
2208A
100
AcDbEntity
  8
6
100
AcDbLine
 10
97.254033
 20
221.559196
 30
0.0
 11
112.745967
 21
221.559196
 31
0.0
  0
LINE
  5
2208D
100
AcDbEntity
  8
6
100
AcDbLine
 10
97.254033
 20
221.559196
 30
0.0
 11
97.254033
 21
276.559196
 31
0.0
  0
LINE
  5
2208E
100
AcDbEntity
  8
6
100
AcDbLine
 10
112.745967
 20
221.559196
 30
0.0
 11
112.745967
 21
276.559196
 31
0.0
  0
LINE
  5
2208F
100
AcDbEntity
  8
6
100
AcDbLine
 10
112.745967
 20
270.859196
 30
0.0
 11
121.0
 21
270.859196
 31
0.0
  0
LINE
  5
22090
100
AcDbEntity
  8
6
100
AcDbLine
 10
112.745967
 20
274.059196
 30
0.0
 11
121.0
 21
274.059196
 31
0.0
  0
LINE
  5
22091
100
AcDbEntity
  8
6
100
AcDbLine
 10
112.745967
 20
274.559196
 30
0.0
 11
121.0
 21
274.559196
 31
0.0
  0
LINE
  5
22092
100
AcDbEntity
  8
6
100
AcDbLine
 10
97.254033
 20
276.559196
 30
0.0
 11
112.745967
 21
221.559196
 31
0.0
  0
LINE
  5
22093
100
AcDbEntity
  8
6
100
AcDbLine
 10
97.254033
 20
221.559196
 30
0.0
 11
112.745967
 21
276.559196
 31
0.0
  0
DIMENSION
  5
220AE
100
AcDbEntity
  8
2
100
AcDbDimension
  2
*D7
 10
118.5
 20
8.559196
 30
0.0
 11
105.0
 21
10.809196
 31
0.0
 70
    32
  3
STANDARD
100
AcDbAlignedDimension
 13
91.5
 23
21.289475
 33
0.0
 14
118.5
 24
21.046345
 34
0.0
100
AcDbRotatedDimension
1001
ACAD
1000
DSTYLE
1002
{
1070
    78
1070
     8
1070
   284
1070
     8
1070
   140
1040
2.5
1070
    47
1040
0.05
1070
    74
1070
     0
1070
   172
1070
     1
1070
    48
1040
0.05
1070
    73
1070
     0
1070
   146
1040
0.5
1070
   272
1070
     2
1070
    77
1070
     1
1070
     3
1000
%%C<>
1070
   147
1040
1.0
1070
    42
1040
1.0
1070
    44
1040
1.0
1070
    43
1040
1.0
1070
   271
1070
     2
1070
    41
1040
2.5
1002
}
  0
TEXT
  5
22458
100
AcDbEntity
  8
SK6
100
AcDbText
 10
74.412527
 20
296.572632
 30
0.0
 40
8.0
  1
99307-27150
  7
STYLE1
100
AcDbText
  0
CIRCLE
  5
224E3
102
{ACAD_REACTORS
330
224ED
102
}
100
AcDbEntity
  8
2
100
AcDbCircle
 10
105.0
 20
218.559196
 30
0.0
 40
2.5
  0
LINE
  5
224E4
102
{ACAD_REACTORS
330
224ED
102
}
100
AcDbEntity
  8
2
100
AcDbLine
 10
102.5
 20
218.559196
 30
0.0
 11
107.5
 21
218.559196
 31
0.0
  0
LINE
  5
224E6
102
{ACAD_REACTORS
330
224ED
102
}
100
AcDbEntity
  8
2
100
AcDbLine
 10
105.0
 20
221.059196
 30
0.0
 11
105.0
 21
216.059196
 31
0.0
  0
HATCH
  5
224ED
100
AcDbEntity
  8
2
100
AcDbHatch
 10
0.0
 20
0.0
 30
0.0
210
0.0
220
0.0
230
1.0
  2
ANSI31
 70
     0
 71
     1
 91
        2
 92
        7
 72
     1
 73
     1
 93
        3
 10
105.0
 20
216.0591964116871
 42
0.4142135623730951
 10
107.4999999999999
 20
218.5591964116871
 42
0.0
 10
105.0
 20
218.5591964116871
 42
0.0
 97
        3
330
224E4
330
224E6
330
224E3
 92
        7
 72
     1
 73
     1
 93
        3
 10
105.0
 20
218.5591964116871
 42
0.0
 10
105.0
 20
221.0591964116871
 42
0.4142135623730951
 10
102.4999999999999
 20
218.5591964116871
 42
0.0
 97
        3
330
224E3
330
224E4
330
224E6
 75
     0
 76
     1
 52
0.0
 41
1.0
 77
     0
 78
     1
 53
45.0
 43
0.0
 44
14.0
 45
-0.0883883476483184
 46
0.0883883476483185
 79
     0
 47
0.011439
 98
        2
 10
105.873704
 20
217.625899
 10
104.145634
 20
219.353175
  0
LINE
  5
22521
100
AcDbEntity
  8
1
100
AcDbLine
 10
92.0
 20
21.316918
 30
0.0
 11
92.0
 21
35.559196
 31
0.0
  0
LINE
  5
22522
100
AcDbEntity
  8
1
100
AcDbLine
 10
118.0
 20
21.316918
 30
0.0
 11
118.0
 21
35.559196
 31
0.0
  0
LINE
  5
22523
100
AcDbEntity
  8
1
100
AcDbLine
 10
92.25
 20
35.559196
 30
0.0
 11
92.25
 21
201.809196
 31
0.0
  0
LINE
  5
22524
100
AcDbEntity
  8
1
100
AcDbLine
 10
117.75
 20
35.559196
 30
0.0
 11
117.75
 21
201.809196
 31
0.0
  0
LINE
  5
226B4
100
AcDbEntity
  8
1
100
AcDbLine
 10
92.0
 20
21.316918
 30
0.0
 11
105.0
 21
20.862948
 31
0.0
  0
LINE
  5
226B5
100
AcDbEntity
  8
1
100
AcDbLine
 10
118.0
 20
21.316918
 30
0.0
 11
105.0
 21
20.862948
 31
0.0
  0
LINE
  5
2282E
100
AcDbEntity
  8
6
100
AcDbLine
 10
113.021046
 20
26.473445
 30
0.0
 11
118.0
 21
26.821608
 31
0.0
  0
HATCH
  5
2282F
100
AcDbEntity
  8
2
100
AcDbHatch
 10
0.0
 20
0.0
 30
0.0
210
0.0
220
0.0
230
1.0
  2
ANSI31
 70
     0
 71
     1
 91
        2
 92
        7
 72
     1
 73
     1
 93
        4
 10
115.1417121982492
 20
24.77724368408257
 42
0.3939104756149438
 10
113.9789077904294
 20
23.53028862125778
 42
0.0174550649282173
 10
113.9819527276046
 20
23.44309302907763
 42
0.0
 10
115.2289077904294
 20
23.53028862125778
 42
0.0
 97
        3
330
22830
330
22831
330
22834
 92
        7
 72
     1
 73
     1
 93
        4
 10
115.3161033826095
 20
22.283333558433
 42
0.3939104756149438
 10
116.4789077904293
 20
23.53028862125778
 42
0.017455064928218
 10
116.4758628532541
 20
23.61748421343794
 42
0.0
 10
115.2289077904294
 20
23.53028862125778
 42
0.0
 97
        3
330
22831
330
22834
330
22830
 75
     0
 76
     1
 52
4.0
 41
1.0
 77
     0
 78
     1
 53
49.0
 43
20.054212
 44
-14.443001
 45
-0.0943386975278465
 46
0.0820073786238134
 79
     0
 47
0.008494
 98
        2
 10
114.994687
 20
23.888577
 10
115.559614
 20
23.119174
  0
CIRCLE
  5
22830
102
{ACAD_REACTORS
330
2282F
102
}
100
AcDbEntity
  8
2
100
AcDbCircle
 10
115.228908
 20
23.530289
 30
0.0
 40
1.25
  0
LINE
  5
22831
102
{ACAD_REACTORS
330
2282F
102
}
100
AcDbEntity
  8
2
100
AcDbLine
 10
113.981953
 20
23.443093
 30
0.0
 11
116.475863
 21
23.617484
 31
0.0
  0
LINE
  5
22832
100
AcDbEntity
  8
6
100
AcDbLine
 10
112.007119
 20
25.307056
 30
0.0
 11
112.300055
 21
21.117871
 31
0.0
  0
LINE
  5
22834
102
{ACAD_REACTORS
330
2282F
102
}
100
AcDbEntity
  8
2
100
AcDbLine
 10
115.141712
 20
24.777244
 30
0.0
 11
115.316103
 21
22.283334
 31
0.0
  0
ARC
  5
22850
100
AcDbEntity
  8
6
100
AcDbCircle
 10
112.357816
 20
26.026091
 30
0.0
 40
0.8
100
AcDbArc
 50
34.0
 51
244.0
  0
LINE
  5
22876
100
AcDbEntity
  8
1
100
AcDbLine
 10
83.5
 20
210.559196
 30
0.0
 11
92.25
 21
201.809196
 31
0.0
  0
LINE
  5
22877
100
AcDbEntity
  8
1
100
AcDbLine
 10
126.5
 20
210.559196
 30
0.0
 11
117.75
 21
201.809196
 31
0.0
  0
LINE
  5
229AE
100
AcDbEntity
  8
6
100
AcDbLine
 10
100.420062
 20
21.022883
 30
0.0
 11
102.635075
 21
29.289424
 31
0.0
  0
LINE
  5
229AF
100
AcDbEntity
  8
6
100
AcDbLine
 10
103.890369
 20
31.610543
 30
0.0
 11
107.921993
 21
31.610543
 31
0.0
  0
LINE
  5
229B0
100
AcDbEntity
  8
6
100
AcDbLine
 10
111.888339
 20
21.103494
 30
0.0
 11
109.370882
 21
30.498771
 31
0.0
  0
LINE
  5
229B2
102
{ACAD_REACTORS
330
229B4
102
}
100
AcDbEntity
  8
2
100
AcDbLine
 10
105.29
 20
26.108619
 30
0.0
 11
107.79
 21
26.108619
 31
0.0
  0
CIRCLE
  5
229B3
102
{ACAD_REACTORS
330
229B4
102
}
100
AcDbEntity
  8
2
100
AcDbCircle
 10
106.54
 20
26.108619
 30
0.0
 40
1.25
  0
HATCH
  5
229B4
100
AcDbEntity
  8
2
100
AcDbHatch
 10
0.0
 20
0.0
 30
0.0
210
0.0
220
0.0
230
1.0
  2
ANSI31
 70
     0
 71
     1
 91
        2
 92
        7
 72
     1
 73
     1
 93
        3
 10
106.54
 20
27.35861890495927
 42
0.4142135623730951
 10
105.29
 20
26.10861890495927
 42
0.0
 10
106.54
 20
26.10861890495927
 42
0.0
 97
        3
330
229B3
330
229B2
330
229B5
 92
        7
 72
     1
 73
     1
 93
        3
 10
106.54
 20
24.85861890495927
 42
0.4142135623730951
 10
107.79
 20
26.10861890495927
 42
0.0
 10
106.54
 20
26.10861890495927
 42
0.0
 97
        3
330
229B2
330
229B5
330
229B3
 75
     0
 76
     1
 52
0.0
 41
1.0
 77
     0
 78
     1
 53
45.0
 43
8.948262
 44
-5.133119
 45
-0.0883883476483184
 46
0.0883883476483185
 79
     0
 47
0.008494
 98
        2
 10
106.331343
 20
26.482372
 10
106.841222
 20
25.675436
  0
LINE
  5
229B5
102
{ACAD_REACTORS
330
229B4
102
}
100
AcDbEntity
  8
2
100
AcDbLine
 10
106.54
 20
27.358619
 30
0.0
 11
106.54
 21
24.858619
 31
0.0
  0
CIRCLE
  5
22A02
102
{ACAD_REACTORS
330
22A04
102
}
100
AcDbEntity
  8
2
100
AcDbCircle
 10
95.578908
 20
23.530289
 30
0.0
 40
1.25
  0
LINE
  5
22A03
102
{ACAD_REACTORS
330
22A04
102
}
100
AcDbEntity
  8
2
100
AcDbLine
 10
94.331953
 20
23.443093
 30
0.0
 11
96.825863
 21
23.617484
 31
0.0
  0
HATCH
  5
22A04
100
AcDbEntity
  8
2
100
AcDbHatch
 10
0.0
 20
0.0
 30
0.0
210
0.0
220
0.0
230
1.0
  2
ANSI31
 70
     0
 71
     1
 91
        2
 92
        7
 72
     1
 73
     1
 93
        4
 10
95.49171219824929
 20
24.77724368408255
 42
0.3939104756149469
 10
94.32890779042942
 20
23.53028862125777
 42
0.0174550649282173
 10
94.33195272760464
 20
23.44309302907761
 42
0.0
 10
95.57890779042942
 20
23.53028862125777
 42
0.0
 97
        3
330
22A02
330
22A03
330
22A06
 92
        7
 72
     1
 73
     1
 93
        4
 10
95.66610338260959
 20
22.28333355843299
 42
0.3939104756149399
 10
96.82890779042942
 20
23.53028862125777
 42
0.017455064928218
 10
96.8258628532542
 20
23.61748421343793
 42
0.0
 10
95.57890779042944
 20
23.53028862125777
 42
0.0
 97
        3
330
22A03
330
22A06
330
22A02
 75
     0
 76
     1
 52
4.0
 41
1.0
 77
     0
 78
     1
 53
49.0
 43
0.404212
 44
-14.443001
 45
-0.0943386975278465
 46
0.0820073786238134
 79
     0
 47
0.008494
 98
        2
 10
95.344687
 20
23.888577
 10
95.909614
 20
23.119174
  0
LINE
  5
22A05
100
AcDbEntity
  8
6
100
AcDbLine
 10
92.0
 20
26.377572
 30
0.0
 11
97.355675
 21
26.752078
 31
0.0
  0
LINE
  5
22A06
102
{ACAD_REACTORS
330
22A04
102
}
100
AcDbEntity
  8
2
100
AcDbLine
 10
95.491712
 20
24.777244
 30
0.0
 11
95.666103
 21
22.283334
 31
0.0
  0
LINE
  5
22A07
100
AcDbEntity
  8
6
100
AcDbLine
 10
98.522064
 20
25.738151
 30
0.0
 11
98.847949
 21
21.077782
 31
0.0
  0
ARC
  5
22A08
100
AcDbEntity
  8
6
100
AcDbCircle
 10
98.07471
 20
26.401381
 30
0.0
 40
0.8
100
AcDbArc
 50
304.0
 51
154.0
  0
TEXT
  5
22AD9
100
AcDbEntity
  8
SK2
100
AcDbText
 10
431.663068
 20
19.298325
 30
0.0
 40
3.0
  1

  7
STYLE1
100
AcDbText
  0
TEXT
  5
22ADA
100
AcDbEntity
  8
SK2
100
AcDbText
 10
431.663068
 20
19.298325
 30
0.0
 40
3.0
  1

  7
STYLE1
100
AcDbText
  0
TEXT
  5
22ADB
100
AcDbEntity
  8
SK2
100
AcDbText
 10
631.663068
 20
19.298325
 30
0.0
 40
3.0
  1

  7
STYLE1
100
AcDbText
  0
TEXT
  5
22ADC
100
AcDbEntity
  8
SK2
100
AcDbText
 10
329.663068
 20
37.298325
 30
0.0
 40
2.5
  1

  7
STYLE1
100
AcDbText
  0
TEXT
  5
22ADD
100
AcDbEntity
  8
SK2
100
AcDbText
 10
1031.663068
 20
19.298325
 30
0.0
 40
3.0
  1

  7
STYLE1
100
AcDbText
  0
TEXT
  5
22ADE
100
AcDbEntity
  8
SK2
100
AcDbText
 10
1031.663068
 20
19.298325
 30
0.0
 40
3.0
  1

  7
STYLE1
100
AcDbText
  0
TEXT
  5
22ADF
100
AcDbEntity
  8
SK2
100
AcDbText
 10
1231.663068
 20
19.298325
 30
0.0
 40
3.0
  1

  7
STYLE1
100
AcDbText
  0
TEXT
  5
22AE0
100
AcDbEntity
  8
SK2
100
AcDbText
 10
5231.663068
 20
19.298325
 30
0.0
 40
3.0
  1

  7
STYLE1
100
AcDbText
  0
TEXT
  5
22AE1
100
AcDbEntity
  8
SK2
100
AcDbText
 10
831.663068
 20
19.298325
 30
0.0
 40
3.0
  1

  7
STYLE1
100
AcDbText
  0
TEXT
  5
22AE2
100
AcDbEntity
  8
SK2
100
AcDbText
 10
831.663068
 20
19.298325
 30
0.0
 40
3.0
  1

  7
STYLE1
100
AcDbText
  0
TEXT
  5
22AE3
100
AcDbEntity
  8
SK2
100
AcDbText
 10
831.663068
 20
19.298325
 30
0.0
 40
3.0
  1

  7
STYLE1
100
AcDbText
  0
TEXT
  5
22AE4
100
AcDbEntity
  8
SK2
100
AcDbText
 10
1031.663068
 20
19.298325
 30
0.0
 40
3.0
  1

  7
STYLE1
100
AcDbText
  0
TEXT
  5
22AE5
100
AcDbEntity
  8
SK2
100
AcDbText
 10
1031.663068
 20
19.298325
 30
0.0
 40
3.0
  1

  7
STYLE1
100
AcDbText
  0
TEXT
  5
22AE6
100
AcDbEntity
  8
SK2
100
AcDbText
 10
1031.663068
 20
19.298325
 30
0.0
 40
3.0
  1

  7
STYLE1
100
AcDbText
  0
TEXT
  5
22AE7
100
AcDbEntity
  8
SK2
100
AcDbText
 10
1231.663068
 20
19.298325
 30
0.0
 40
3.0
  1

  7
STYLE1
100
AcDbText
  0
TEXT
  5
22AE8
100
AcDbEntity
  8
SK2
100
AcDbText
 10
1231.663068
 20
19.298325
 30
0.0
 40
3.0
  1

  7
STYLE1
100
AcDbText
  0
TEXT
  5
22AE9
100
AcDbEntity
  8
SK2
100
AcDbText
 10
1231.663068
 20
19.298325
 30
0.0
 40
3.0
  1

  7
STYLE1
100
AcDbText
  0
TEXT
  5
22AEA
100
AcDbEntity
  8
SK2
100
AcDbText
 10
1431.663068
 20
19.298325
 30
0.0
 40
3.0
  1

  7
STYLE1
100
AcDbText
  0
TEXT
  5
22AEB
100
AcDbEntity
  8
SK2
100
AcDbText
 10
1231.663068
 20
19.298325
 30
0.0
 40
3.0
  1

  7
STYLE1
100
AcDbText
  0
TEXT
  5
22AEC
100
AcDbEntity
  8
SK2
100
AcDbText
 10
1231.663068
 20
19.298325
 30
0.0
 40
3.0
  1

  7
STYLE1
100
AcDbText
  0
TEXT
  5
22AED
100
AcDbEntity
  8
SK2
100
AcDbText
 10
1431.663068
 20
19.298325
 30
0.0
 40
3.0
  1

  7
STYLE1
100
AcDbText
  0
TEXT
  5
22AEE
100
AcDbEntity
  8
SK2
100
AcDbText
 10
831.663068
 20
19.298325
 30
0.0
 40
3.0
  1

  7
STYLE1
100
AcDbText
  0
TEXT
  5
22AEF
100
AcDbEntity
  8
SK2
100
AcDbText
 10
831.663068
 20
19.298325
 30
0.0
 40
3.0
  1

  7
STYLE1
100
AcDbText
  0
TEXT
  5
22AF0
100
AcDbEntity
  8
SK2
100
AcDbText
 10
1031.663068
 20
19.298325
 30
0.0
 40
3.0
  1

  7
STYLE1
100
AcDbText
  0
TEXT
  5
22AF1
100
AcDbEntity
  8
SK2
100
AcDbText
 10
1031.663068
 20
19.298325
 30
0.0
 40
3.0
  1

  7
STYLE1
100
AcDbText
  0
TEXT
  5
22AF2
100
AcDbEntity
  8
SK2
100
AcDbText
 10
1031.663068
 20
19.298325
 30
0.0
 40
3.0
  1

  7
STYLE1
100
AcDbText
  0
TEXT
  5
22AF3
100
AcDbEntity
  8
SK2
100
AcDbText
 10
1231.663068
 20
19.298325
 30
0.0
 40
3.0
  1

  7
STYLE1
100
AcDbText
  0
TEXT
  5
22AF4
100
AcDbEntity
  8
SK2
100
AcDbText
 10
1231.663068
 20
19.298325
 30
0.0
 40
3.0
  1

  7
STYLE1
100
AcDbText
  0
TEXT
  5
22AF5
100
AcDbEntity
  8
SK2
100
AcDbText
 10
1231.663068
 20
19.298325
 30
0.0
 40
3.0
  1

  7
STYLE1
100
AcDbText
  0
TEXT
  5
22AF6
100
AcDbEntity
  8
SK2
100
AcDbText
 10
1431.663068
 20
19.298325
 30
0.0
 40
3.0
  1

  7
STYLE1
100
AcDbText
  0
TEXT
  5
22AF7
100
AcDbEntity
  8
SK2
100
AcDbText
 10
1231.663068
 20
19.298325
 30
0.0
 40
3.0
  1

  7
STYLE1
100
AcDbText
  0
TEXT
  5
22AF8
100
AcDbEntity
  8
SK2
100
AcDbText
 10
1231.663068
 20
19.298325
 30
0.0
 40
3.0
  1

  7
STYLE1
100
AcDbText
  0
TEXT
  5
22AF9
100
AcDbEntity
  8
SK2
100
AcDbText
 10
1431.663068
 20
19.298325
 30
0.0
 40
3.0
  1

  7
STYLE1
100
AcDbText
  0
TEXT
  5
22AFA
100
AcDbEntity
  8
SK2
100
AcDbText
 10
631.663068
 20
19.298325
 30
0.0
 40
3.0
  1

  7
STYLE1
100
AcDbText
  0
TEXT
  5
22AFB
100
AcDbEntity
  8
SK2
100
AcDbText
 10
631.663068
 20
19.298325
 30
0.0
 40
3.0
  1

  7
STYLE1
100
AcDbText
  0
TEXT
  5
22AFC
100
AcDbEntity
  8
SK2
100
AcDbText
 10
831.663068
 20
19.298325
 30
0.0
 40
3.0
  1

  7
STYLE1
100
AcDbText
  0
TEXT
  5
22AFD
100
AcDbEntity
  8
SK2
100
AcDbText
 10
529.663068
 20
37.298325
 30
0.0
 40
2.5
  1

  7
STYLE1
100
AcDbText
  0
TEXT
  5
22AFE
100
AcDbEntity
  8
SK2
100
AcDbText
 10
1231.663068
 20
19.298325
 30
0.0
 40
3.0
  1

  7
STYLE1
100
AcDbText
  0
TEXT
  5
22AFF
100
AcDbEntity
  8
SK2
100
AcDbText
 10
1231.663068
 20
19.298325
 30
0.0
 40
3.0
  1

  7
STYLE1
100
AcDbText
  0
TEXT
  5
22B00
100
AcDbEntity
  8
SK2
100
AcDbText
 10
1431.663068
 20
19.298325
 30
0.0
 40
3.0
  1

  7
STYLE1
100
AcDbText
  0
TEXT
  5
22B01
100
AcDbEntity
  8
SK2
100
AcDbText
 10
5431.663068
 20
19.298325
 30
0.0
 40
3.0
  1

  7
STYLE1
100
AcDbText
  0
TEXT
  5
22B02
100
AcDbEntity
  8
SK2
100
AcDbText
 10
1031.663068
 20
19.298325
 30
0.0
 40
3.0
  1

  7
STYLE1
100
AcDbText
  0
TEXT
  5
22B03
100
AcDbEntity
  8
SK2
100
AcDbText
 10
1031.663068
 20
19.298325
 30
0.0
 40
3.0
  1

  7
STYLE1
100
AcDbText
  0
TEXT
  5
22B04
100
AcDbEntity
  8
SK2
100
AcDbText
 10
1031.663068
 20
19.298325
 30
0.0
 40
3.0
  1

  7
STYLE1
100
AcDbText
  0
TEXT
  5
22B05
100
AcDbEntity
  8
SK2
100
AcDbText
 10
1231.663068
 20
19.298325
 30
0.0
 40
3.0
  1

  7
STYLE1
100
AcDbText
  0
TEXT
  5
22B06
100
AcDbEntity
  8
SK2
100
AcDbText
 10
1231.663068
 20
19.298325
 30
0.0
 40
3.0
  1

  7
STYLE1
100
AcDbText
  0
TEXT
  5
22B07
100
AcDbEntity
  8
SK2
100
AcDbText
 10
1231.663068
 20
19.298325
 30
0.0
 40
3.0
  1

  7
STYLE1
100
AcDbText
  0
TEXT
  5
22B08
100
AcDbEntity
  8
SK2
100
AcDbText
 10
1431.663068
 20
19.298325
 30
0.0
 40
3.0
  1

  7
STYLE1
100
AcDbText
  0
TEXT
  5
22B09
100
AcDbEntity
  8
SK2
100
AcDbText
 10
1431.663068
 20
19.298325
 30
0.0
 40
3.0
  1

  7
STYLE1
100
AcDbText
  0
TEXT
  5
22B0A
100
AcDbEntity
  8
SK2
100
AcDbText
 10
1431.663068
 20
19.298325
 30
0.0
 40
3.0
  1

  7
STYLE1
100
AcDbText
  0
TEXT
  5
22B0B
100
AcDbEntity
  8
SK2
100
AcDbText
 10
1631.663068
 20
19.298325
 30
0.0
 40
3.0
  1

  7
STYLE1
100
AcDbText
  0
TEXT
  5
22B0C
100
AcDbEntity
  8
SK2
100
AcDbText
 10
1431.663068
 20
19.298325
 30
0.0
 40
3.0
  1

  7
STYLE1
100
AcDbText
  0
TEXT
  5
22B0D
100
AcDbEntity
  8
SK2
100
AcDbText
 10
1431.663068
 20
19.298325
 30
0.0
 40
3.0
  1

  7
STYLE1
100
AcDbText
  0
TEXT
  5
22B0E
100
AcDbEntity
  8
SK2
100
AcDbText
 10
1631.663068
 20
19.298325
 30
0.0
 40
3.0
  1

  7
STYLE1
100
AcDbText
  0
TEXT
  5
22B0F
100
AcDbEntity
  8
SK2
100
AcDbText
 10
1031.663068
 20
19.298325
 30
0.0
 40
3.0
  1

  7
STYLE1
100
AcDbText
  0
TEXT
  5
22B10
100
AcDbEntity
  8
SK2
100
AcDbText
 10
1031.663068
 20
19.298325
 30
0.0
 40
3.0
  1

  7
STYLE1
100
AcDbText
  0
TEXT
  5
22B11
100
AcDbEntity
  8
SK2
100
AcDbText
 10
1231.663068
 20
19.298325
 30
0.0
 40
3.0
  1

  7
STYLE1
100
AcDbText
  0
TEXT
  5
22B12
100
AcDbEntity
  8
SK2
100
AcDbText
 10
1231.663068
 20
19.298325
 30
0.0
 40
3.0
  1

  7
STYLE1
100
AcDbText
  0
TEXT
  5
22B13
100
AcDbEntity
  8
SK2
100
AcDbText
 10
1231.663068
 20
19.298325
 30
0.0
 40
3.0
  1

  7
STYLE1
100
AcDbText
  0
TEXT
  5
22B14
100
AcDbEntity
  8
SK2
100
AcDbText
 10
1431.663068
 20
19.298325
 30
0.0
 40
3.0
  1

  7
STYLE1
100
AcDbText
  0
TEXT
  5
22B15
100
AcDbEntity
  8
SK2
100
AcDbText
 10
1431.663068
 20
19.298325
 30
0.0
 40
3.0
  1

  7
STYLE1
100
AcDbText
  0
TEXT
  5
22B16
100
AcDbEntity
  8
SK2
100
AcDbText
 10
1431.663068
 20
19.298325
 30
0.0
 40
3.0
  1

  7
STYLE1
100
AcDbText
  0
TEXT
  5
22B17
100
AcDbEntity
  8
SK2
100
AcDbText
 10
1631.663068
 20
19.298325
 30
0.0
 40
3.0
  1

  7
STYLE1
100
AcDbText
  0
TEXT
  5
22B18
100
AcDbEntity
  8
SK2
100
AcDbText
 10
1431.663068
 20
19.298325
 30
0.0
 40
3.0
  1

  7
STYLE1
100
AcDbText
  0
TEXT
  5
22B19
100
AcDbEntity
  8
SK2
100
AcDbText
 10
1431.663068
 20
19.298325
 30
0.0
 40
3.0
  1

  7
STYLE1
100
AcDbText
  0
TEXT
  5
22B1A
100
AcDbEntity
  8
SK2
100
AcDbText
 10
1631.663068
 20
19.298325
 30
0.0
 40
3.0
  1

  7
STYLE1
100
AcDbText
  0
TEXT
  5
22B1B
100
AcDbEntity
  8
SK2
100
AcDbText
 10
631.663068
 20
19.298325
 30
0.0
 40
3.0
  1

  7
STYLE1
100
AcDbText
  0
TEXT
  5
22B1C
100
AcDbEntity
  8
SK2
100
AcDbText
 10
631.663068
 20
19.298325
 30
0.0
 40
3.0
  1

  7
STYLE1
100
AcDbText
  0
TEXT
  5
22B1D
100
AcDbEntity
  8
SK2
100
AcDbText
 10
831.663068
 20
19.298325
 30
0.0
 40
3.0
  1

  7
STYLE1
100
AcDbText
  0
TEXT
  5
22B1E
100
AcDbEntity
  8
SK2
100
AcDbText
 10
529.663068
 20
37.298325
 30
0.0
 40
2.5
  1

  7
STYLE1
100
AcDbText
  0
TEXT
  5
22B1F
100
AcDbEntity
  8
SK2
100
AcDbText
 10
1231.663068
 20
19.298325
 30
0.0
 40
3.0
  1

  7
STYLE1
100
AcDbText
  0
TEXT
  5
22B20
100
AcDbEntity
  8
SK2
100
AcDbText
 10
1231.663068
 20
19.298325
 30
0.0
 40
3.0
  1

  7
STYLE1
100
AcDbText
  0
TEXT
  5
22B21
100
AcDbEntity
  8
SK2
100
AcDbText
 10
1431.663068
 20
19.298325
 30
0.0
 40
3.0
  1

  7
STYLE1
100
AcDbText
  0
TEXT
  5
22B22
100
AcDbEntity
  8
SK2
100
AcDbText
 10
5431.663068
 20
19.298325
 30
0.0
 40
3.0
  1

  7
STYLE1
100
AcDbText
  0
TEXT
  5
22B23
100
AcDbEntity
  8
SK2
100
AcDbText
 10
1031.663068
 20
19.298325
 30
0.0
 40
3.0
  1

  7
STYLE1
100
AcDbText
  0
TEXT
  5
22B24
100
AcDbEntity
  8
SK2
100
AcDbText
 10
1031.663068
 20
19.298325
 30
0.0
 40
3.0
  1

  7
STYLE1
100
AcDbText
  0
TEXT
  5
22B25
100
AcDbEntity
  8
SK2
100
AcDbText
 10
1031.663068
 20
19.298325
 30
0.0
 40
3.0
  1

  7
STYLE1
100
AcDbText
  0
TEXT
  5
22B26
100
AcDbEntity
  8
SK2
100
AcDbText
 10
1231.663068
 20
19.298325
 30
0.0
 40
3.0
  1

  7
STYLE1
100
AcDbText
  0
TEXT
  5
22B27
100
AcDbEntity
  8
SK2
100
AcDbText
 10
1231.663068
 20
19.298325
 30
0.0
 40
3.0
  1

  7
STYLE1
100
AcDbText
  0
TEXT
  5
22B28
100
AcDbEntity
  8
SK2
100
AcDbText
 10
1231.663068
 20
19.298325
 30
0.0
 40
3.0
  1

  7
STYLE1
100
AcDbText
  0
TEXT
  5
22B29
100
AcDbEntity
  8
SK2
100
AcDbText
 10
1431.663068
 20
19.298325
 30
0.0
 40
3.0
  1

  7
STYLE1
100
AcDbText
  0
TEXT
  5
22B2A
100
AcDbEntity
  8
SK2
100
AcDbText
 10
1431.663068
 20
19.298325
 30
0.0
 40
3.0
  1

  7
STYLE1
100
AcDbText
  0
TEXT
  5
22B2B
100
AcDbEntity
  8
SK2
100
AcDbText
 10
1431.663068
 20
19.298325
 30
0.0
 40
3.0
  1

  7
STYLE1
100
AcDbText
  0
TEXT
  5
22B2C
100
AcDbEntity
  8
SK2
100
AcDbText
 10
1631.663068
 20
19.298325
 30
0.0
 40
3.0
  1

  7
STYLE1
100
AcDbText
  0
TEXT
  5
22B2D
100
AcDbEntity
  8
SK2
100
AcDbText
 10
1431.663068
 20
19.298325
 30
0.0
 40
3.0
  1

  7
STYLE1
100
AcDbText
  0
TEXT
  5
22B2E
100
AcDbEntity
  8
SK2
100
AcDbText
 10
1431.663068
 20
19.298325
 30
0.0
 40
3.0
  1

  7
STYLE1
100
AcDbText
  0
TEXT
  5
22B2F
100
AcDbEntity
  8
SK2
100
AcDbText
 10
1631.663068
 20
19.298325
 30
0.0
 40
3.0
  1

  7
STYLE1
100
AcDbText
  0
TEXT
  5
22B30
100
AcDbEntity
  8
SK2
100
AcDbText
 10
1031.663068
 20
19.298325
 30
0.0
 40
3.0
  1

  7
STYLE1
100
AcDbText
  0
TEXT
  5
22B31
100
AcDbEntity
  8
SK2
100
AcDbText
 10
1031.663068
 20
19.298325
 30
0.0
 40
3.0
  1

  7
STYLE1
100
AcDbText
  0
TEXT
  5
22B32
100
AcDbEntity
  8
SK2
100
AcDbText
 10
1231.663068
 20
19.298325
 30
0.0
 40
3.0
  1

  7
STYLE1
100
AcDbText
  0
TEXT
  5
22B33
100
AcDbEntity
  8
SK2
100
AcDbText
 10
1231.663068
 20
19.298325
 30
0.0
 40
3.0
  1

  7
STYLE1
100
AcDbText
  0
TEXT
  5
22B34
100
AcDbEntity
  8
SK2
100
AcDbText
 10
1231.663068
 20
19.298325
 30
0.0
 40
3.0
  1

  7
STYLE1
100
AcDbText
  0
TEXT
  5
22B35
100
AcDbEntity
  8
SK2
100
AcDbText
 10
1431.663068
 20
19.298325
 30
0.0
 40
3.0
  1

  7
STYLE1
100
AcDbText
  0
TEXT
  5
22B36
100
AcDbEntity
  8
SK2
100
AcDbText
 10
1431.663068
 20
19.298325
 30
0.0
 40
3.0
  1

  7
STYLE1
100
AcDbText
  0
TEXT
  5
22B37
100
AcDbEntity
  8
SK2
100
AcDbText
 10
1431.663068
 20
19.298325
 30
0.0
 40
3.0
  1

  7
STYLE1
100
AcDbText
  0
TEXT
  5
22B38
100
AcDbEntity
  8
SK2
100
AcDbText
 10
1631.663068
 20
19.298325
 30
0.0
 40
3.0
  1

  7
STYLE1
100
AcDbText
  0
TEXT
  5
22B39
100
AcDbEntity
  8
SK2
100
AcDbText
 10
1431.663068
 20
19.298325
 30
0.0
 40
3.0
  1

  7
STYLE1
100
AcDbText
  0
TEXT
  5
22B3A
100
AcDbEntity
  8
SK2
100
AcDbText
 10
1431.663068
 20
19.298325
 30
0.0
 40
3.0
  1

  7
STYLE1
100
AcDbText
  0
TEXT
  5
22B3B
100
AcDbEntity
  8
SK2
100
AcDbText
 10
1631.663068
 20
19.298325
 30
0.0
 40
3.0
  1

  7
STYLE1
100
AcDbText
  0
ARC
  5
22B5C
100
AcDbEntity
  8
6
100
AcDbCircle
 10
107.921993
 20
30.110543
 30
0.0
 40
1.5
100
AcDbArc
 50
15.0
 51
90.0
  0
ARC
  5
22B6D
100
AcDbEntity
  8
6
100
AcDbCircle
 10
103.890369
 20
30.110543
 30
0.0
 40
1.5
100
AcDbArc
 50
90.0
 51
213.189685
  0
ENDSEC
  0
SECTION
  2
OBJECTS
  0
DICTIONARY
  5
C
100
AcDbDictionary
  3
ACAD_GROUP
350
D
  3
ACAD_MLINESTYLE
350
1A
  3
ACDBVARIABLEDICTIONARY
350
3B
  0
DICTIONARY
  5
D
102
{ACAD_REACTORS
330
C
102
}
100
AcDbDictionary
  0
DICTIONARY
  5
1A
102
{ACAD_REACTORS
330
C
102
}
100
AcDbDictionary
  3
STANDARD
350
1B
  0
DICTIONARY
  5
3B
102
{ACAD_REACTORS
330
C
102
}
100
AcDbDictionary
  3
DIMADEC
350
3C
  3
SORTENTS
350
5EEA
  0
MLINESTYLE
  5
1B
102
{ACAD_REACTORS
330
1A
102
}
100
AcDbMlineStyle
  2
STANDARD
 70
     0
  3

 62
   256
 51
90.0
 52
90.0
 71
     2
 49
0.5
 62
   256
  6
BYLAYER
 49
-0.5
 62
   256
  6
BYLAYER
  0
DICTIONARYVAR
  5
3C
102
{ACAD_REACTORS
330
3B
102
}
100
DictionaryVariables
280
     0
  1
2
  0
DICTIONARYVAR
  5
5EEA
102
{ACAD_REACTORS
330
3B
102
}
100
DictionaryVariables
280
     0
  1
96
  0
ENDSEC
  0
EOF
