  0
SECTION
  2
HEADER
  9
$ACADVER
  1
AC1014
  9
$ACADMAINTVER
 70
     0
  9
$DWGCODEPAGE
  3
ANSI_950
  9
$INSBASE
 10
0.0
 20
0.0
 30
0.0
  9
$EXTMIN
 10
74.412527
 20
7.559196
 30
0.0
  9
$EXTMAX
 10
157.5
 20
346.633406
 30
0.0
  9
$LIMMIN
 10
0.0
 20
0.0
  9
$LIMMAX
 10
210.0
 20
297.0
  9
$ORTHOMODE
 70
     1
  9
$REGENMODE
 70
     1
  9
$FILLMODE
 70
     1
  9
$QTEXTMODE
 70
     0
  9
$MIRRTEXT
 70
     1
  9
$DRAGMODE
 70
     2
  9
$LTSCALE
 40
6.0
  9
$OSMODE
 70
    59
  9
$ATTMODE
 70
     1
  9
$TEXTSIZE
 40
1.5
  9
$TRACEWID
 40
0.05
  9
$TEXTSTYLE
  7
MONOTXT
  9
$CLAYER
  8
1
  9
$CELTYPE
  6
BYLAYER
  9
$CECOLOR
 62
   256
  9
$CELTSCALE
 40
1.0
  9
$DELOBJ
 70
     1
  9
$DISPSILH
 70
     0
  9
$DIMSCALE
 40
1.0
  9
$DIMASZ
 40
2.5
  9
$DIMEXO
 40
1.0
  9
$DIMDLI
 40
1.0
  9
$DIMRND
 40
0.0
  9
$DIMDLE
 40
0.0
  9
$DIMEXE
 40
1.0
  9
$DIMTP
 40
0.05
  9
$DIMTM
 40
0.05
  9
$DIMTXT
 40
2.5
  9
$DIMCEN
 40
0.09
  9
$DIMTSZ
 40
0.0
  9
$DIMTOL
 70
     0
  9
$DIMLIM
 70
     0
  9
$DIMTIH
 70
     0
  9
$DIMTOH
 70
     0
  9
$DIMSE1
 70
     0
  9
$DIMSE2
 70
     0
  9
$DIMTAD
 70
     1
  9
$DIMZIN
 70
     8
  9
$DIMBLK
  1

  9
$DIMASO
 70
     1
  9
$DIMSHO
 70
     1
  9
$DIMPOST
  1

  9
$DIMAPOST
  1

  9
$DIMALT
 70
     0
  9
$DIMALTD
 70
     2
  9
$DIMALTF
 40
25.4
  9
$DIMLFAC
 40
1.0
  9
$DIMTOFL
 70
     1
  9
$DIMTVP
 40
0.0
  9
$DIMTIX
 70
     0
  9
$DIMSOXD
 70
     0
  9
$DIMSAH
 70
     0
  9
$DIMBLK1
  1

  9
$DIMBLK2
  1

  9
$DIMSTYLE
  2
STANDARD
  9
$DIMCLRD
 70
     0
  9
$DIMCLRE
 70
     0
  9
$DIMCLRT
 70
     0
  9
$DIMTFAC
 40
0.5
  9
$DIMGAP
 40
1.0
  9
$DIMJUST
 70
     0
  9
$DIMSD1
 70
     0
  9
$DIMSD2
 70
     0
  9
$DIMTOLJ
 70
     1
  9
$DIMTZIN
 70
     8
  9
$DIMALTZ
 70
     0
  9
$DIMALTTZ
 70
     0
  9
$DIMFIT
 70
     3
  9
$DIMUPT
 70
     0
  9
$DIMUNIT
 70
     2
  9
$DIMDEC
 70
     2
  9
$DIMTDEC
 70
     2
  9
$DIMALTU
 70
     2
  9
$DIMALTTD
 70
     2
  9
$DIMTXSTY
  7
STANDARD
  9
$DIMAUNIT
 70
     0
  9
$LUNITS
 70
     2
  9
$LUPREC
 70
     2
  9
$SKETCHINC
 40
0.1
  9
$FILLETRAD
 40
0.3
  9
$AUNITS
 70
     0
  9
$AUPREC
 70
     2
  9
$MENU
  1
acad
  9
$ELEVATION
 40
0.0
  9
$PELEVATION
 40
0.0
  9
$THICKNESS
 40
0.0
  9
$LIMCHECK
 70
     0
  9
$BLIPMODE
 70
     1
  9
$CHAMFERA
 40
0.0
  9
$CHAMFERB
 40
0.0
  9
$CHAMFERC
 40
0.0
  9
$CHAMFERD
 40
0.0
  9
$SKPOLY
 70
     0
  9
$TDCREATE
 40
2450670.354217245
  9
$TDUPDATE
 40
2457624.853000208
  9
$TDINDWG
 40
6.3702160764
  9
$TDUSRTIMER
 40
6.3702160764
  9
$USRTIMER
 70
     1
  9
$ANGBASE
 50
0.0
  9
$ANGDIR
 70
     0
  9
$PDMODE
 70
     0
  9
$PDSIZE
 40
0.0
  9
$PLINEWID
 40
0.0
  9
$COORDS
 70
     1
  9
$SPLFRAME
 70
     0
  9
$SPLINETYPE
 70
     6
  9
$SPLINESEGS
 70
     8
  9
$ATTDIA
 70
     0
  9
$ATTREQ
 70
     1
  9
$HANDLING
 70
     1
  9
$HANDSEED
  5
22606
  9
$SURFTAB1
 70
     6
  9
$SURFTAB2
 70
     6
  9
$SURFTYPE
 70
     6
  9
$SURFU
 70
     6
  9
$SURFV
 70
     6
  9
$UCSNAME
  2

  9
$UCSORG
 10
0.0
 20
0.0
 30
0.0
  9
$UCSXDIR
 10
1.0
 20
0.0
 30
0.0
  9
$UCSYDIR
 10
0.0
 20
1.0
 30
0.0
  9
$PUCSNAME
  2

  9
$PUCSORG
 10
0.0
 20
0.0
 30
0.0
  9
$PUCSXDIR
 10
1.0
 20
0.0
 30
0.0
  9
$PUCSYDIR
 10
0.0
 20
1.0
 30
0.0
  9
$USERI1
 70
     0
  9
$USERI2
 70
     0
  9
$USERI3
 70
     0
  9
$USERI4
 70
     0
  9
$USERI5
 70
     0
  9
$USERR1
 40
0.0
  9
$USERR2
 40
0.0
  9
$USERR3
 40
0.0
  9
$USERR4
 40
0.0
  9
$USERR5
 40
0.0
  9
$WORLDVIEW
 70
     1
  9
$SHADEDGE
 70
     3
  9
$SHADEDIF
 70
    70
  9
$TILEMODE
 70
     1
  9
$MAXACTVP
 70
    16
  9
$PINSBASE
 10
0.0
 20
0.0
 30
0.0
  9
$PLIMCHECK
 70
     0
  9
$PEXTMIN
 10
1.000000E+20
 20
1.000000E+20
 30
1.000000E+20
  9
$PEXTMAX
 10
-1.000000E+20
 20
-1.000000E+20
 30
-1.000000E+20
  9
$PLIMMIN
 10
0.0
 20
0.0
  9
$PLIMMAX
 10
12.0
 20
9.0
  9
$UNITMODE
 70
     0
  9
$VISRETAIN
 70
     0
  9
$PLINEGEN
 70
     0
  9
$PSLTSCALE
 70
     1
  9
$TREEDEPTH
 70
  3020
  9
$PICKSTYLE
 70
     0
  9
$CMLSTYLE
  2
STANDARD
  9
$CMLJUST
 70
     0
  9
$CMLSCALE
 40
1.0
  9
$PROXYGRAPHICS
 70
     1
  9
$MEASUREMENT
 70
     0
  0
ENDSEC
  0
SECTION
  2
CLASSES
  0
CLASS
  1
DICTIONARYVAR
  2
AcDbDictionaryVar
  3
"AutoCAD"
 90
        0
280
     0
281
     0
  0
CLASS
  1
LWPOLYLINE
  2
AcDbPolyline
  3
"AutoCAD"
 90
        0
280
     0
281
     1
  0
CLASS
  1
HATCH
  2
AcDbHatch
  3
"ACAD_SEDONA"
 90
        0
280
     0
281
     1
  0
ENDSEC
  0
SECTION
  2
TABLES
  0
TABLE
  2
VPORT
  5
8
100
AcDbSymbolTable
 70
     1
  0
VPORT
  5
22600
100
AcDbSymbolTableRecord
100
AcDbViewportTableRecord
  2
*ACTIVE
 70
     0
 10
0.0
 20
0.0
 11
1.0
 21
1.0
 12
105.0
 22
173.327797
 13
0.0
 23
0.0
 14
1.0
 24
1.0
 15
0.0
 25
0.0
 16
0.0
 26
0.0
 36
1.0
 17
0.0
 27
0.0
 37
0.0
 40
349.497034
 41
1.508892
 42
50.0
 43
0.0
 44
0.0
 50
0.0
 51
0.0
 71
     0
 72
   300
 73
     1
 74
     1
 75
     0
 76
     0
 77
     0
 78
     0
  0
ENDTAB
  0
TABLE
  2
LTYPE
  5
5
100
AcDbSymbolTable
 70
     3
  0
LTYPE
  5
11
100
AcDbSymbolTableRecord
100
AcDbLinetypeTableRecord
  2
BYBLOCK
 70
     0
  3

 72
    65
 73
     0
 40
0.0
  0
LTYPE
  5
12
100
AcDbSymbolTableRecord
100
AcDbLinetypeTableRecord
  2
BYLAYER
 70
     0
  3

 72
    65
 73
     0
 40
0.0
  0
LTYPE
  5
13
100
AcDbSymbolTableRecord
100
AcDbLinetypeTableRecord
  2
CONTINUOUS
 70
     0
  3
實線
 72
    65
 73
     0
 40
0.0
  0
LTYPE
  5
2E
100
AcDbSymbolTableRecord
100
AcDbLinetypeTableRecord
  2
CENTER
 70
     0
  3
____ _ ____ _ ____ _ ____ _ ____ _ ____ _ ____ 
 72
    65
 73
     4
 40
2.0
 49
1.25
 74
     0
 49
-0.25
 74
     0
 49
0.25
 74
     0
 49
-0.25
 74
     0
  0
LTYPE
  5
224FB
100
AcDbSymbolTableRecord
100
AcDbLinetypeTableRecord
  2
HIDDEN
 70
     0
  3
Hidden __ __ __ __ __ __ __ __ __ __ __ __ __ _
 72
    65
 73
     2
 40
0.375
 49
0.25
 74
     0
 49
-0.125
 74
     0
  0
ENDTAB
  0
TABLE
  2
LAYER
  5
2
100
AcDbSymbolTable
 70
    13
  0
LAYER
  5
E
100
AcDbSymbolTableRecord
100
AcDbLayerTableRecord
  2
0
 70
     0
 62
     7
  6
CONTINUOUS
  0
LAYER
  5
31
100
AcDbSymbolTableRecord
100
AcDbLayerTableRecord
  2
1
 70
     0
 62
     4
  6
CONTINUOUS
  0
LAYER
  5
32
100
AcDbSymbolTableRecord
100
AcDbLayerTableRecord
  2
4
 70
     0
 62
     2
  6
CENTER
  0
LAYER
  5
33
100
AcDbSymbolTableRecord
100
AcDbLayerTableRecord
  2
2
 70
     0
 62
     7
  6
CONTINUOUS
  0
LAYER
  5
34
100
AcDbSymbolTableRecord
100
AcDbLayerTableRecord
  2
SK2
 70
     0
 62
     7
  6
CONTINUOUS
  0
LAYER
  5
35
100
AcDbSymbolTableRecord
100
AcDbLayerTableRecord
  2
CUT
 70
     0
 62
     1
  6
CONTINUOUS
  0
LAYER
  5
36
100
AcDbSymbolTableRecord
100
AcDbLayerTableRecord
  2
DEFPOINTS
 70
     0
 62
     7
  6
CONTINUOUS
  0
LAYER
  5
3BEB
100
AcDbSymbolTableRecord
100
AcDbLayerTableRecord
  2
6
 70
     0
 62
     5
  6
CONTINUOUS
  0
LAYER
  5
22452
100
AcDbSymbolTableRecord
100
AcDbLayerTableRecord
  2
SK6
 70
     0
 62
     5
  6
CONTINUOUS
  0
LAYER
  5
224F7
100
AcDbSymbolTableRecord
100
AcDbLayerTableRecord
  2
BODY
 70
     0
 62
     7
  6
CONTINUOUS
  0
LAYER
  5
224F8
100
AcDbSymbolTableRecord
100
AcDbLayerTableRecord
  2
CEN
 70
     0
 62
     4
  6
CENTER
  0
LAYER
  5
224F9
100
AcDbSymbolTableRecord
100
AcDbLayerTableRecord
  2
HA
 70
     0
 62
     5
  6
CONTINUOUS
  0
LAYER
  5
224FA
100
AcDbSymbolTableRecord
100
AcDbLayerTableRecord
  2
HI
 70
     0
 62
     3
  6
HIDDEN
  0
ENDTAB
  0
TABLE
  2
STYLE
  5
3
100
AcDbSymbolTable
 70
     3
  0
STYLE
  5
F
100
AcDbSymbolTableRecord
100
AcDbTextStyleTableRecord
  2
STANDARD
 70
     0
 40
0.0
 41
1.0
 50
0.0
 71
     0
 42
3.5
  3
txt
  4

  0
STYLE
  5
2D
100
AcDbSymbolTableRecord
100
AcDbTextStyleTableRecord
  2
MONOTXT
 70
     0
 40
0.0
 41
1.0
 50
0.0
 71
     0
 42
1.5
  3
monotxt
  4

  0
STYLE
  5
32B1
100
AcDbSymbolTableRecord
100
AcDbTextStyleTableRecord
  2
STYLE1
 70
     0
 40
3.0
 41
1.0
 50
0.0
 71
     0
 42
3.0
  3
KAIU.TTF
  4

1001
ACAD
1000
@DFKai-SB
1071
    34881
  0
ENDTAB
  0
TABLE
  2
VIEW
  5
6
100
AcDbSymbolTable
 70
     0
  0
ENDTAB
  0
TABLE
  2
UCS
  5
7
100
AcDbSymbolTable
 70
     0
  0
ENDTAB
  0
TABLE
  2
APPID
  5
9
100
AcDbSymbolTable
 70
     1
  0
APPID
  5
10
100
AcDbSymbolTableRecord
100
AcDbRegAppTableRecord
  2
ACAD
 70
     0
  0
ENDTAB
  0
TABLE
  2
DIMSTYLE
  5
A
100
AcDbSymbolTable
 70
     1
  0
DIMSTYLE
105
1A2
102
{ACAD_REACTORS
330
21586
330
21587
330
21611
330
2160A
330
21628
330
2162B
330
220AE
330
21588
102
}
100
AcDbSymbolTableRecord
100
AcDbDimStyleTableRecord
  2
STANDARD
 70
     0
  3

  4

  5

  6

  7

 40
1.0
 41
0.18
 42
0.0625
 43
0.38
 44
0.18
 45
0.0
 46
0.0
 47
0.0
 48
0.0
140
0.18
141
0.09
142
0.0
143
25.4
144
1.0
145
0.0
146
1.0
147
0.09
 71
     0
 72
     0
 73
     1
 74
     1
 75
     0
 76
     0
 77
     0
 78
     0
170
     0
171
     2
172
     0
173
     0
174
     0
175
     0
176
     0
177
     0
178
     0
270
     2
271
     4
272
     4
273
     2
274
     2
340
F
275
     0
280
     0
281
     0
282
     0
283
     1
284
     0
285
     0
286
     0
287
     3
288
     0
  0
ENDTAB
  0
TABLE
  2
BLOCK_RECORD
  5
1
100
AcDbSymbolTable
 70
    10
  0
BLOCK_RECORD
  5
17
100
AcDbSymbolTableRecord
100
AcDbBlockTableRecord
  2
*MODEL_SPACE
  0
BLOCK_RECORD
  5
14
100
AcDbSymbolTableRecord
100
AcDbBlockTableRecord
  2
*PAPER_SPACE
  0
BLOCK_RECORD
  5
21641
100
AcDbSymbolTableRecord
100
AcDbBlockTableRecord
  2
*D0
  0
BLOCK_RECORD
  5
2164D
100
AcDbSymbolTableRecord
100
AcDbBlockTableRecord
  2
*D1
  0
BLOCK_RECORD
  5
21659
100
AcDbSymbolTableRecord
100
AcDbBlockTableRecord
  2
*D2
  0
BLOCK_RECORD
  5
2167F
100
AcDbSymbolTableRecord
100
AcDbBlockTableRecord
  2
*D3
  0
BLOCK_RECORD
  5
2168B
100
AcDbSymbolTableRecord
100
AcDbBlockTableRecord
  2
*D4
  0
BLOCK_RECORD
  5
21697
100
AcDbSymbolTableRecord
100
AcDbBlockTableRecord
  2
*D5
  0
BLOCK_RECORD
  5
216A3
100
AcDbSymbolTableRecord
100
AcDbBlockTableRecord
  2
*D6
  0
BLOCK_RECORD
  5
220A2
100
AcDbSymbolTableRecord
100
AcDbBlockTableRecord
  2
*D7
  0
ENDTAB
  0
ENDSEC
  0
SECTION
  2
BLOCKS
  0
BLOCK
  5
39
100
AcDbEntity
  8
0
100
AcDbBlockBegin
  2
*MODEL_SPACE
 70
     0
 10
0.0
 20
0.0
 30
0.0
  3
*MODEL_SPACE
  1

  0
ENDBLK
  5
3A
100
AcDbEntity
  8
0
100
AcDbBlockEnd
  0
BLOCK
  5
37
100
AcDbEntity
 67
     1
  8
0
100
AcDbBlockBegin
  2
*PAPER_SPACE
 70
     0
 10
0.0
 20
0.0
 30
0.0
  3
*PAPER_SPACE
  1

  0
ENDBLK
  5
38
100
AcDbEntity
 67
     1
  8
0
100
AcDbBlockEnd
  0
BLOCK
  5
225BF
100
AcDbEntity
  8
0
100
AcDbBlockBegin
  2
*D0
 70
     1
 10
0.0
 20
0.0
 30
0.0
  3
*D0
  1

  0
LINE
  5
225C0
100
AcDbEntity
  8
0
  6
BYBLOCK
 62
     0
100
AcDbLine
 10
120.0
 20
317.559196
 30
0.0
 11
157.5
 21
317.559196
 31
0.0
  0
LINE
  5
225C1
100
AcDbEntity
  8
0
  6
BYBLOCK
 62
     0
100
AcDbLine
 10
112.85
 20
20.559196
 30
0.0
 11
157.5
 21
20.559196
 31
0.0
  0
LINE
  5
225C2
100
AcDbEntity
  8
0
  6
BYBLOCK
 62
     0
100
AcDbLine
 10
156.5
 20
315.059196
 30
0.0
 11
156.5
 21
23.059196
 31
0.0
  0
SOLID
  5
225C3
100
AcDbEntity
  8
0
  6
BYBLOCK
 62
     0
100
AcDbTrace
 10
156.083333
 20
315.059196
 30
0.0
 11
156.916667
 21
315.059196
 31
0.0
 12
156.5
 22
317.559196
 32
0.0
 13
156.5
 23
317.559196
 33
0.0
  0
SOLID
  5
225C4
100
AcDbEntity
  8
0
  6
BYBLOCK
 62
     0
100
AcDbTrace
 10
156.083333
 20
23.059196
 30
0.0
 11
156.916667
 21
23.059196
 31
0.0
 12
156.5
 22
20.559196
 32
0.0
 13
156.5
 23
20.559196
 33
0.0
  0
MTEXT
  5
225C5
100
AcDbEntity
  8
0
  6
BYBLOCK
 62
     0
100
AcDbMText
 10
154.25
 20
169.059196
 30
0.0
 40
2.5
 41
0.0
 71
     5
 72
     1
  1
\A1;297
 11
0.0
 21
1.0
 31
0.0
  0
POINT
  5
225C6
100
AcDbEntity
  8
DEFPOINTS
  6
BYBLOCK
 62
     0
100
AcDbPoint
 10
119.0
 20
317.559196
 30
0.0
  0
POINT
  5
225C7
100
AcDbEntity
  8
DEFPOINTS
  6
BYBLOCK
 62
     0
100
AcDbPoint
 10
111.85
 20
20.559196
 30
0.0
  0
POINT
  5
225C8
100
AcDbEntity
  8
DEFPOINTS
  6
BYBLOCK
 62
     0
100
AcDbPoint
 10
156.5
 20
20.559196
 30
0.0
  0
ENDBLK
  5
225C9
100
AcDbEntity
  8
0
100
AcDbBlockEnd
  0
BLOCK
  5
225CA
100
AcDbEntity
  8
0
100
AcDbBlockBegin
  2
*D1
 70
     1
 10
0.0
 20
0.0
 30
0.0
  3
*D1
  1

  0
LINE
  5
225CB
100
AcDbEntity
  8
0
  6
BYBLOCK
 62
     0
100
AcDbLine
 10
125.0
 20
259.559196
 30
0.0
 11
150.5
 21
259.559196
 31
0.0
  0
LINE
  5
225CC
100
AcDbEntity
  8
0
  6
BYBLOCK
 62
     0
100
AcDbLine
 10
112.85
 20
20.559196
 30
0.0
 11
150.5
 21
20.559196
 31
0.0
  0
LINE
  5
225CD
100
AcDbEntity
  8
0
  6
BYBLOCK
 62
     0
100
AcDbLine
 10
149.5
 20
257.059196
 30
0.0
 11
149.5
 21
23.059196
 31
0.0
  0
SOLID
  5
225CE
100
AcDbEntity
  8
0
  6
BYBLOCK
 62
     0
100
AcDbTrace
 10
149.083333
 20
257.059196
 30
0.0
 11
149.916667
 21
257.059196
 31
0.0
 12
149.5
 22
259.559196
 32
0.0
 13
149.5
 23
259.559196
 33
0.0
  0
SOLID
  5
225CF
100
AcDbEntity
  8
0
  6
BYBLOCK
 62
     0
100
AcDbTrace
 10
149.083333
 20
23.059196
 30
0.0
 11
149.916667
 21
23.059196
 31
0.0
 12
149.5
 22
20.559196
 32
0.0
 13
149.5
 23
20.559196
 33
0.0
  0
MTEXT
  5
225D0
100
AcDbEntity
  8
0
  6
BYBLOCK
 62
     0
100
AcDbMText
 10
147.25
 20
140.059196
 30
0.0
 40
2.5
 41
0.0
 71
     5
 72
     1
  1
\A1;239
 11
0.0
 21
1.0
 31
0.0
  0
POINT
  5
225D1
100
AcDbEntity
  8
DEFPOINTS
  6
BYBLOCK
 62
     0
100
AcDbPoint
 10
124.0
 20
259.559196
 30
0.0
  0
POINT
  5
225D2
100
AcDbEntity
  8
DEFPOINTS
  6
BYBLOCK
 62
     0
100
AcDbPoint
 10
111.85
 20
20.559196
 30
0.0
  0
POINT
  5
225D3
100
AcDbEntity
  8
DEFPOINTS
  6
BYBLOCK
 62
     0
100
AcDbPoint
 10
149.5
 20
20.559196
 30
0.0
  0
ENDBLK
  5
225D4
100
AcDbEntity
  8
0
100
AcDbBlockEnd
  0
BLOCK
  5
225F1
100
AcDbEntity
  8
0
100
AcDbBlockBegin
  2
*D2
 70
     1
 10
0.0
 20
0.0
 30
0.0
  3
*D2
  1

  0
LINE
  5
225F2
100
AcDbEntity
  8
0
  6
BYBLOCK
 62
     0
100
AcDbLine
 10
112.85
 20
20.559196
 30
0.0
 11
143.5
 21
20.559196
 31
0.0
  0
LINE
  5
225F3
100
AcDbEntity
  8
0
  6
BYBLOCK
 62
     0
100
AcDbLine
 10
115.5
 20
245.785694
 30
0.0
 11
143.5
 21
245.785694
 31
0.0
  0
LINE
  5
225F4
100
AcDbEntity
  8
0
  6
BYBLOCK
 62
     0
100
AcDbLine
 10
142.5
 20
23.059196
 30
0.0
 11
142.5
 21
243.285694
 31
0.0
  0
SOLID
  5
225F5
100
AcDbEntity
  8
0
  6
BYBLOCK
 62
     0
100
AcDbTrace
 10
142.083333
 20
23.059196
 30
0.0
 11
142.916667
 21
23.059196
 31
0.0
 12
142.5
 22
20.559196
 32
0.0
 13
142.5
 23
20.559196
 33
0.0
  0
SOLID
  5
225F6
100
AcDbEntity
  8
0
  6
BYBLOCK
 62
     0
100
AcDbTrace
 10
142.083333
 20
243.285694
 30
0.0
 11
142.916667
 21
243.285694
 31
0.0
 12
142.5
 22
245.785694
 32
0.0
 13
142.5
 23
245.785694
 33
0.0
  0
MTEXT
  5
225F7
100
AcDbEntity
  8
0
  6
BYBLOCK
 62
     0
100
AcDbMText
 10
140.25
 20
133.172445
 30
0.0
 40
2.5
 41
0.0
 71
     5
 72
     1
  1
\A1;225.23
 11
0.0
 21
1.0
 31
0.0
  0
POINT
  5
225F8
100
AcDbEntity
  8
DEFPOINTS
  6
BYBLOCK
 62
     0
100
AcDbPoint
 10
111.85
 20
20.559196
 30
0.0
  0
POINT
  5
225F9
100
AcDbEntity
  8
DEFPOINTS
  6
BYBLOCK
 62
     0
100
AcDbPoint
 10
114.5
 20
245.785694
 30
0.0
  0
POINT
  5
225FA
100
AcDbEntity
  8
DEFPOINTS
  6
BYBLOCK
 62
     0
100
AcDbPoint
 10
142.5
 20
245.785694
 30
0.0
  0
ENDBLK
  5
225FB
100
AcDbEntity
  8
0
100
AcDbBlockEnd
  0
BLOCK
  5
225B4
100
AcDbEntity
  8
0
100
AcDbBlockBegin
  2
*D3
 70
     1
 10
0.0
 20
0.0
 30
0.0
  3
*D3
  1

  0
LINE
  5
225B5
100
AcDbEntity
  8
0
  6
BYBLOCK
 62
     0
100
AcDbLine
 10
85.5
 20
260.059196
 30
0.0
 11
85.5
 21
330.384514
 31
0.0
  0
LINE
  5
225B6
100
AcDbEntity
  8
0
  6
BYBLOCK
 62
     0
100
AcDbLine
 10
124.5
 20
260.059196
 30
0.0
 11
124.5
 21
330.384514
 31
0.0
  0
LINE
  5
225B7
100
AcDbEntity
  8
0
  6
BYBLOCK
 62
     0
100
AcDbLine
 10
88.0
 20
329.384514
 30
0.0
 11
122.0
 21
329.384514
 31
0.0
  0
SOLID
  5
225B8
100
AcDbEntity
  8
0
  6
BYBLOCK
 62
     0
100
AcDbTrace
 10
88.0
 20
329.80118
 30
0.0
 11
88.0
 21
328.967847
 31
0.0
 12
85.5
 22
329.384514
 32
0.0
 13
85.5
 23
329.384514
 33
0.0
  0
SOLID
  5
225B9
100
AcDbEntity
  8
0
  6
BYBLOCK
 62
     0
100
AcDbTrace
 10
122.0
 20
329.80118
 30
0.0
 11
122.0
 21
328.967847
 31
0.0
 12
124.5
 22
329.384514
 32
0.0
 13
124.5
 23
329.384514
 33
0.0
  0
MTEXT
  5
225BA
100
AcDbEntity
  8
0
  6
BYBLOCK
 62
     0
100
AcDbMText
 10
105.0
 20
331.634514
 30
0.0
 40
2.5
 41
0.0
 71
     5
 72
     1
  1
\A1;\U+220539{\H1.250000;±0.05}
  0
POINT
  5
225BB
100
AcDbEntity
  8
DEFPOINTS
  6
BYBLOCK
 62
     0
100
AcDbPoint
 10
85.5
 20
259.059196
 30
0.0
  0
POINT
  5
225BC
100
AcDbEntity
  8
DEFPOINTS
  6
BYBLOCK
 62
     0
100
AcDbPoint
 10
124.5
 20
259.059196
 30
0.0
  0
POINT
  5
225BD
100
AcDbEntity
  8
DEFPOINTS
  6
BYBLOCK
 62
     0
100
AcDbPoint
 10
124.5
 20
329.384514
 30
0.0
  0
ENDBLK
  5
225BE
100
AcDbEntity
  8
0
100
AcDbBlockEnd
  0
BLOCK
  5
225A9
100
AcDbEntity
  8
0
100
AcDbBlockBegin
  2
*D4
 70
     1
 10
0.0
 20
0.0
 30
0.0
  3
*D4
  1

  0
LINE
  5
225AA
100
AcDbEntity
  8
0
  6
BYBLOCK
 62
     0
100
AcDbLine
 10
89.0
 20
316.559196
 30
0.0
 11
89.0
 21
323.384514
 31
0.0
  0
LINE
  5
225AB
100
AcDbEntity
  8
0
  6
BYBLOCK
 62
     0
100
AcDbLine
 10
121.0
 20
316.559196
 30
0.0
 11
121.0
 21
323.384514
 31
0.0
  0
LINE
  5
225AC
100
AcDbEntity
  8
0
  6
BYBLOCK
 62
     0
100
AcDbLine
 10
91.5
 20
322.384514
 30
0.0
 11
118.5
 21
322.384514
 31
0.0
  0
SOLID
  5
225AD
100
AcDbEntity
  8
0
  6
BYBLOCK
 62
     0
100
AcDbTrace
 10
91.5
 20
322.80118
 30
0.0
 11
91.5
 21
321.967847
 31
0.0
 12
89.0
 22
322.384514
 32
0.0
 13
89.0
 23
322.384514
 33
0.0
  0
SOLID
  5
225AE
100
AcDbEntity
  8
0
  6
BYBLOCK
 62
     0
100
AcDbTrace
 10
118.5
 20
322.80118
 30
0.0
 11
118.5
 21
321.967847
 31
0.0
 12
121.0
 22
322.384514
 32
0.0
 13
121.0
 23
322.384514
 33
0.0
  0
MTEXT
  5
225AF
100
AcDbEntity
  8
0
  6
BYBLOCK
 62
     0
100
AcDbMText
 10
105.0
 20
324.842847
 30
0.0
 40
2.5
 41
0.0
 71
     5
 72
     1
  1
\A1;\U+220532{\H1.250000;\S-0.005^ -0.015;}
  0
POINT
  5
225B0
100
AcDbEntity
  8
DEFPOINTS
  6
BYBLOCK
 62
     0
100
AcDbPoint
 10
89.0
 20
315.559196
 30
0.0
  0
POINT
  5
225B1
100
AcDbEntity
  8
DEFPOINTS
  6
BYBLOCK
 62
     0
100
AcDbPoint
 10
121.0
 20
315.559196
 30
0.0
  0
POINT
  5
225B2
100
AcDbEntity
  8
DEFPOINTS
  6
BYBLOCK
 62
     0
100
AcDbPoint
 10
121.0
 20
322.384514
 30
0.0
  0
ENDBLK
  5
225B3
100
AcDbEntity
  8
0
100
AcDbBlockEnd
  0
BLOCK
  5
21698
100
AcDbEntity
  8
0
100
AcDbBlockBegin
  2
*D5
 70
     1
 10
0.0
 20
0.0
 30
0.0
  3
*D5
  1

  0
LINE
  5
21699
100
AcDbEntity
  8
0
  6
BYBLOCK
 62
     0
100
AcDbLine
 10
303.423793
 20
308.091059
 30
0.0
 11
333.923793
 21
308.091059
 31
0.0
  0
LINE
  5
2169A
100
AcDbEntity
  8
0
  6
BYBLOCK
 62
     0
100
AcDbLine
 10
308.423793
 20
250.091059
 30
0.0
 11
333.923793
 21
250.091059
 31
0.0
  0
LINE
  5
2169B
100
AcDbEntity
  8
0
  6
BYBLOCK
 62
     0
100
AcDbLine
 10
332.923793
 20
305.591059
 30
0.0
 11
332.923793
 21
252.591059
 31
0.0
  0
SOLID
  5
2169C
100
AcDbEntity
  8
0
  6
BYBLOCK
 62
     0
100
AcDbTrace
 10
332.507126
 20
305.591059
 30
0.0
 11
333.34046
 21
305.591059
 31
0.0
 12
332.923793
 22
308.091059
 32
0.0
 13
332.923793
 23
308.091059
 33
0.0
  0
SOLID
  5
2169D
100
AcDbEntity
  8
0
  6
BYBLOCK
 62
     0
100
AcDbTrace
 10
332.507126
 20
252.591059
 30
0.0
 11
333.34046
 21
252.591059
 31
0.0
 12
332.923793
 22
250.091059
 32
0.0
 13
332.923793
 23
250.091059
 33
0.0
  0
MTEXT
  5
2169E
100
AcDbEntity
  8
0
  6
BYBLOCK
 62
     0
100
AcDbMText
 10
330.673793
 20
279.091059
 30
0.0
 40
2.5
 41
0.0
 71
     5
 72
     1
  1
\A1;58
 11
0.0
 21
1.0
 31
0.0
  0
POINT
  5
2169F
100
AcDbEntity
  8
DEFPOINTS
  6
BYBLOCK
 62
     0
100
AcDbPoint
 10
302.423793
 20
308.091059
 30
0.0
  0
POINT
  5
216A0
100
AcDbEntity
  8
DEFPOINTS
  6
BYBLOCK
 62
     0
100
AcDbPoint
 10
307.423793
 20
250.091059
 30
0.0
  0
POINT
  5
216A1
100
AcDbEntity
  8
DEFPOINTS
  6
BYBLOCK
 62
     0
100
AcDbPoint
 10
332.923793
 20
250.091059
 30
0.0
  0
ENDBLK
  5
216A2
100
AcDbEntity
  8
0
100
AcDbBlockEnd
  0
BLOCK
  5
216A4
100
AcDbEntity
  8
0
100
AcDbBlockBegin
  2
*D6
 70
     1
 10
0.0
 20
0.0
 30
0.0
  3
*D6
  1

  0
LINE
  5
216A5
100
AcDbEntity
  8
0
  6
BYBLOCK
 62
     0
100
AcDbLine
 10
308.423793
 20
250.091059
 30
0.0
 11
326.923793
 21
250.091059
 31
0.0
  0
LINE
  5
216A6
100
AcDbEntity
  8
0
  6
BYBLOCK
 62
     0
100
AcDbLine
 10
308.923793
 20
242.091059
 30
0.0
 11
326.923793
 21
242.091059
 31
0.0
  0
LINE
  5
216A7
100
AcDbEntity
  8
0
  6
BYBLOCK
 62
     0
100
AcDbLine
 10
325.923793
 20
247.591059
 30
0.0
 11
325.923793
 21
244.591059
 31
0.0
  0
SOLID
  5
216A8
100
AcDbEntity
  8
0
  6
BYBLOCK
 62
     0
100
AcDbTrace
 10
325.507126
 20
247.591059
 30
0.0
 11
326.34046
 21
247.591059
 31
0.0
 12
325.923793
 22
250.091059
 32
0.0
 13
325.923793
 23
250.091059
 33
0.0
  0
SOLID
  5
216A9
100
AcDbEntity
  8
0
  6
BYBLOCK
 62
     0
100
AcDbTrace
 10
325.507126
 20
244.591059
 30
0.0
 11
326.34046
 21
244.591059
 31
0.0
 12
325.923793
 22
242.091059
 32
0.0
 13
325.923793
 23
242.091059
 33
0.0
  0
MTEXT
  5
216AA
100
AcDbEntity
  8
0
  6
BYBLOCK
 62
     0
100
AcDbMText
 10
323.673793
 20
246.091059
 30
0.0
 40
2.5
 41
0.0
 71
     5
 72
     1
  1
\A1;8
 11
0.0
 21
1.0
 31
0.0
  0
POINT
  5
216AB
100
AcDbEntity
  8
DEFPOINTS
  6
BYBLOCK
 62
     0
100
AcDbPoint
 10
307.423793
 20
250.091059
 30
0.0
  0
POINT
  5
216AC
100
AcDbEntity
  8
DEFPOINTS
  6
BYBLOCK
 62
     0
100
AcDbPoint
 10
307.923793
 20
242.091059
 30
0.0
  0
POINT
  5
216AD
100
AcDbEntity
  8
DEFPOINTS
  6
BYBLOCK
 62
     0
100
AcDbPoint
 10
325.923793
 20
242.091059
 30
0.0
  0
ENDBLK
  5
216AE
100
AcDbEntity
  8
0
100
AcDbBlockEnd
  0
BLOCK
  5
2256C
100
AcDbEntity
  8
0
100
AcDbBlockBegin
  2
*D7
 70
     1
 10
0.0
 20
0.0
 30
0.0
  3
*D7
  1

  0
LINE
  5
2256D
100
AcDbEntity
  8
0
  6
BYBLOCK
 62
     0
100
AcDbLine
 10
95.0
 20
20.289475
 30
0.0
 11
95.0
 21
7.559196
 31
0.0
  0
LINE
  5
2256E
100
AcDbEntity
  8
0
  6
BYBLOCK
 62
     0
100
AcDbLine
 10
115.0
 20
20.289475
 30
0.0
 11
115.0
 21
7.559196
 31
0.0
  0
LINE
  5
2256F
100
AcDbEntity
  8
0
  6
BYBLOCK
 62
     0
100
AcDbLine
 10
97.5
 20
8.559196
 30
0.0
 11
112.5
 21
8.559196
 31
0.0
  0
SOLID
  5
22570
100
AcDbEntity
  8
0
  6
BYBLOCK
 62
     0
100
AcDbTrace
 10
97.5
 20
8.975863
 30
0.0
 11
97.5
 21
8.14253
 31
0.0
 12
95.0
 22
8.559196
 32
0.0
 13
95.0
 23
8.559196
 33
0.0
  0
SOLID
  5
22571
100
AcDbEntity
  8
0
  6
BYBLOCK
 62
     0
100
AcDbTrace
 10
112.5
 20
8.975863
 30
0.0
 11
112.5
 21
8.14253
 31
0.0
 12
115.0
 22
8.559196
 32
0.0
 13
115.0
 23
8.559196
 33
0.0
  0
MTEXT
  5
22572
100
AcDbEntity
  8
0
  6
BYBLOCK
 62
     0
100
AcDbMText
 10
105.0
 20
10.809196
 30
0.0
 40
2.5
 41
0.0
 71
     5
 72
     1
  1
\A1;\U+220520
  0
POINT
  5
22573
100
AcDbEntity
  8
DEFPOINTS
  6
BYBLOCK
 62
     0
100
AcDbPoint
 10
95.0
 20
21.289475
 30
0.0
  0
POINT
  5
22574
100
AcDbEntity
  8
DEFPOINTS
  6
BYBLOCK
 62
     0
100
AcDbPoint
 10
115.0
 20
21.289475
 30
0.0
  0
POINT
  5
22575
100
AcDbEntity
  8
DEFPOINTS
  6
BYBLOCK
 62
     0
100
AcDbPoint
 10
115.0
 20
8.559196
 30
0.0
  0
ENDBLK
  5
22576
100
AcDbEntity
  8
0
100
AcDbBlockEnd
  0
ENDSEC
  0
SECTION
  2
ENTITIES
  0
TEXT
  5
11637
100
AcDbEntity
  8
SK2
100
AcDbText
 10
272.5
 20
8.5
 30
0.0
 40
3.0
  1

  7
STYLE1
100
AcDbText
  0
TEXT
  5
1279D
100
AcDbEntity
  8
SK2
100
AcDbText
 10
272.5
 20
8.5
 30
0.0
 40
3.0
  1

  7
STYLE1
100
AcDbText
  0
TEXT
  5
127CB
100
AcDbEntity
  8
SK2
100
AcDbText
 10
472.5
 20
8.5
 30
0.0
 40
3.0
  1

  7
STYLE1
100
AcDbText
  0
TEXT
  5
1921A
100
AcDbEntity
  8
SK2
100
AcDbText
 10
170.5
 20
26.5
 30
0.0
 40
2.5
  1

  7
STYLE1
100
AcDbText
  0
TEXT
  5
1AB58
100
AcDbEntity
  8
SK2
100
AcDbText
 10
872.5
 20
8.5
 30
0.0
 40
3.0
  1

  7
STYLE1
100
AcDbText
  0
TEXT
  5
1AB59
100
AcDbEntity
  8
SK2
100
AcDbText
 10
872.5
 20
8.5
 30
0.0
 40
3.0
  1

  7
STYLE1
100
AcDbText
  0
TEXT
  5
1AB5A
100
AcDbEntity
  8
SK2
100
AcDbText
 10
1072.5
 20
8.5
 30
0.0
 40
3.0
  1

  7
STYLE1
100
AcDbText
  0
TEXT
  5
1AB5B
100
AcDbEntity
  8
SK2
100
AcDbText
 10
5072.5
 20
8.5
 30
0.0
 40
3.0
  1

  7
STYLE1
100
AcDbText
  0
TEXT
  5
1B34E
100
AcDbEntity
  8
SK2
100
AcDbText
 10
672.5
 20
8.5
 30
0.0
 40
3.0
  1

  7
STYLE1
100
AcDbText
  0
TEXT
  5
1B399
100
AcDbEntity
  8
SK2
100
AcDbText
 10
672.5
 20
8.5
 30
0.0
 40
3.0
  1

  7
STYLE1
100
AcDbText
  0
TEXT
  5
1B39A
100
AcDbEntity
  8
SK2
100
AcDbText
 10
672.5
 20
8.5
 30
0.0
 40
3.0
  1

  7
STYLE1
100
AcDbText
  0
TEXT
  5
1B39B
100
AcDbEntity
  8
SK2
100
AcDbText
 10
872.5
 20
8.5
 30
0.0
 40
3.0
  1

  7
STYLE1
100
AcDbText
  0
TEXT
  5
1B39C
100
AcDbEntity
  8
SK2
100
AcDbText
 10
872.5
 20
8.5
 30
0.0
 40
3.0
  1

  7
STYLE1
100
AcDbText
  0
TEXT
  5
1B39D
100
AcDbEntity
  8
SK2
100
AcDbText
 10
872.5
 20
8.5
 30
0.0
 40
3.0
  1

  7
STYLE1
100
AcDbText
  0
TEXT
  5
1B39E
100
AcDbEntity
  8
SK2
100
AcDbText
 10
1072.5
 20
8.5
 30
0.0
 40
3.0
  1

  7
STYLE1
100
AcDbText
  0
TEXT
  5
1B39F
100
AcDbEntity
  8
SK2
100
AcDbText
 10
1072.5
 20
8.5
 30
0.0
 40
3.0
  1

  7
STYLE1
100
AcDbText
  0
TEXT
  5
1B3A0
100
AcDbEntity
  8
SK2
100
AcDbText
 10
1072.5
 20
8.5
 30
0.0
 40
3.0
  1

  7
STYLE1
100
AcDbText
  0
TEXT
  5
1B3A1
100
AcDbEntity
  8
SK2
100
AcDbText
 10
1272.5
 20
8.5
 30
0.0
 40
3.0
  1

  7
STYLE1
100
AcDbText
  0
TEXT
  5
1B3A2
100
AcDbEntity
  8
SK2
100
AcDbText
 10
1072.5
 20
8.5
 30
0.0
 40
3.0
  1

  7
STYLE1
100
AcDbText
  0
TEXT
  5
1B3A3
100
AcDbEntity
  8
SK2
100
AcDbText
 10
1072.5
 20
8.5
 30
0.0
 40
3.0
  1

  7
STYLE1
100
AcDbText
  0
TEXT
  5
1B3A4
100
AcDbEntity
  8
SK2
100
AcDbText
 10
1272.5
 20
8.5
 30
0.0
 40
3.0
  1

  7
STYLE1
100
AcDbText
  0
TEXT
  5
1B3A6
100
AcDbEntity
  8
SK2
100
AcDbText
 10
672.5
 20
8.5
 30
0.0
 40
3.0
  1

  7
STYLE1
100
AcDbText
  0
TEXT
  5
1B3A7
100
AcDbEntity
  8
SK2
100
AcDbText
 10
672.5
 20
8.5
 30
0.0
 40
3.0
  1

  7
STYLE1
100
AcDbText
  0
TEXT
  5
1B3A8
100
AcDbEntity
  8
SK2
100
AcDbText
 10
872.5
 20
8.5
 30
0.0
 40
3.0
  1

  7
STYLE1
100
AcDbText
  0
TEXT
  5
1B3A9
100
AcDbEntity
  8
SK2
100
AcDbText
 10
872.5
 20
8.5
 30
0.0
 40
3.0
  1

  7
STYLE1
100
AcDbText
  0
TEXT
  5
1B3AA
100
AcDbEntity
  8
SK2
100
AcDbText
 10
872.5
 20
8.5
 30
0.0
 40
3.0
  1

  7
STYLE1
100
AcDbText
  0
TEXT
  5
1B3AB
100
AcDbEntity
  8
SK2
100
AcDbText
 10
1072.5
 20
8.5
 30
0.0
 40
3.0
  1

  7
STYLE1
100
AcDbText
  0
TEXT
  5
1B3AC
100
AcDbEntity
  8
SK2
100
AcDbText
 10
1072.5
 20
8.5
 30
0.0
 40
3.0
  1

  7
STYLE1
100
AcDbText
  0
TEXT
  5
1B3AD
100
AcDbEntity
  8
SK2
100
AcDbText
 10
1072.5
 20
8.5
 30
0.0
 40
3.0
  1

  7
STYLE1
100
AcDbText
  0
TEXT
  5
1B3AE
100
AcDbEntity
  8
SK2
100
AcDbText
 10
1272.5
 20
8.5
 30
0.0
 40
3.0
  1

  7
STYLE1
100
AcDbText
  0
TEXT
  5
1B3AF
100
AcDbEntity
  8
SK2
100
AcDbText
 10
1072.5
 20
8.5
 30
0.0
 40
3.0
  1

  7
STYLE1
100
AcDbText
  0
TEXT
  5
1B3B0
100
AcDbEntity
  8
SK2
100
AcDbText
 10
1072.5
 20
8.5
 30
0.0
 40
3.0
  1

  7
STYLE1
100
AcDbText
  0
TEXT
  5
1B3B1
100
AcDbEntity
  8
SK2
100
AcDbText
 10
1272.5
 20
8.5
 30
0.0
 40
3.0
  1

  7
STYLE1
100
AcDbText
  0
TEXT
  5
1B8FA
100
AcDbEntity
  8
SK2
100
AcDbText
 10
472.5
 20
8.5
 30
0.0
 40
3.0
  1

  7
STYLE1
100
AcDbText
  0
TEXT
  5
1B8FB
100
AcDbEntity
  8
SK2
100
AcDbText
 10
472.5
 20
8.5
 30
0.0
 40
3.0
  1

  7
STYLE1
100
AcDbText
  0
TEXT
  5
1B8FC
100
AcDbEntity
  8
SK2
100
AcDbText
 10
672.5
 20
8.5
 30
0.0
 40
3.0
  1

  7
STYLE1
100
AcDbText
  0
TEXT
  5
1B8FD
100
AcDbEntity
  8
SK2
100
AcDbText
 10
370.5
 20
26.5
 30
0.0
 40
2.5
  1

  7
STYLE1
100
AcDbText
  0
TEXT
  5
1B93A
100
AcDbEntity
  8
SK2
100
AcDbText
 10
1072.5
 20
8.5
 30
0.0
 40
3.0
  1

  7
STYLE1
100
AcDbText
  0
TEXT
  5
1B93B
100
AcDbEntity
  8
SK2
100
AcDbText
 10
1072.5
 20
8.5
 30
0.0
 40
3.0
  1

  7
STYLE1
100
AcDbText
  0
TEXT
  5
1B93C
100
AcDbEntity
  8
SK2
100
AcDbText
 10
1272.5
 20
8.5
 30
0.0
 40
3.0
  1

  7
STYLE1
100
AcDbText
  0
TEXT
  5
1B93D
100
AcDbEntity
  8
SK2
100
AcDbText
 10
5272.5
 20
8.5
 30
0.0
 40
3.0
  1

  7
STYLE1
100
AcDbText
  0
TEXT
  5
1B93E
100
AcDbEntity
  8
SK2
100
AcDbText
 10
872.5
 20
8.5
 30
0.0
 40
3.0
  1

  7
STYLE1
100
AcDbText
  0
TEXT
  5
1B93F
100
AcDbEntity
  8
SK2
100
AcDbText
 10
872.5
 20
8.5
 30
0.0
 40
3.0
  1

  7
STYLE1
100
AcDbText
  0
TEXT
  5
1B940
100
AcDbEntity
  8
SK2
100
AcDbText
 10
872.5
 20
8.5
 30
0.0
 40
3.0
  1

  7
STYLE1
100
AcDbText
  0
TEXT
  5
1B941
100
AcDbEntity
  8
SK2
100
AcDbText
 10
1072.5
 20
8.5
 30
0.0
 40
3.0
  1

  7
STYLE1
100
AcDbText
  0
TEXT
  5
1B942
100
AcDbEntity
  8
SK2
100
AcDbText
 10
1072.5
 20
8.5
 30
0.0
 40
3.0
  1

  7
STYLE1
100
AcDbText
  0
TEXT
  5
1B943
100
AcDbEntity
  8
SK2
100
AcDbText
 10
1072.5
 20
8.5
 30
0.0
 40
3.0
  1

  7
STYLE1
100
AcDbText
  0
TEXT
  5
1B944
100
AcDbEntity
  8
SK2
100
AcDbText
 10
1272.5
 20
8.5
 30
0.0
 40
3.0
  1

  7
STYLE1
100
AcDbText
  0
TEXT
  5
1B945
100
AcDbEntity
  8
SK2
100
AcDbText
 10
1272.5
 20
8.5
 30
0.0
 40
3.0
  1

  7
STYLE1
100
AcDbText
  0
TEXT
  5
1B946
100
AcDbEntity
  8
SK2
100
AcDbText
 10
1272.5
 20
8.5
 30
0.0
 40
3.0
  1

  7
STYLE1
100
AcDbText
  0
TEXT
  5
1B947
100
AcDbEntity
  8
SK2
100
AcDbText
 10
1472.5
 20
8.5
 30
0.0
 40
3.0
  1

  7
STYLE1
100
AcDbText
  0
TEXT
  5
1B948
100
AcDbEntity
  8
SK2
100
AcDbText
 10
1272.5
 20
8.5
 30
0.0
 40
3.0
  1

  7
STYLE1
100
AcDbText
  0
TEXT
  5
1B949
100
AcDbEntity
  8
SK2
100
AcDbText
 10
1272.5
 20
8.5
 30
0.0
 40
3.0
  1

  7
STYLE1
100
AcDbText
  0
TEXT
  5
1B94A
100
AcDbEntity
  8
SK2
100
AcDbText
 10
1472.5
 20
8.5
 30
0.0
 40
3.0
  1

  7
STYLE1
100
AcDbText
  0
TEXT
  5
1B94B
100
AcDbEntity
  8
SK2
100
AcDbText
 10
872.5
 20
8.5
 30
0.0
 40
3.0
  1

  7
STYLE1
100
AcDbText
  0
TEXT
  5
1B94C
100
AcDbEntity
  8
SK2
100
AcDbText
 10
872.5
 20
8.5
 30
0.0
 40
3.0
  1

  7
STYLE1
100
AcDbText
  0
TEXT
  5
1B94D
100
AcDbEntity
  8
SK2
100
AcDbText
 10
1072.5
 20
8.5
 30
0.0
 40
3.0
  1

  7
STYLE1
100
AcDbText
  0
TEXT
  5
1B94E
100
AcDbEntity
  8
SK2
100
AcDbText
 10
1072.5
 20
8.5
 30
0.0
 40
3.0
  1

  7
STYLE1
100
AcDbText
  0
TEXT
  5
1B94F
100
AcDbEntity
  8
SK2
100
AcDbText
 10
1072.5
 20
8.5
 30
0.0
 40
3.0
  1

  7
STYLE1
100
AcDbText
  0
TEXT
  5
1B950
100
AcDbEntity
  8
SK2
100
AcDbText
 10
1272.5
 20
8.5
 30
0.0
 40
3.0
  1

  7
STYLE1
100
AcDbText
  0
TEXT
  5
1B951
100
AcDbEntity
  8
SK2
100
AcDbText
 10
1272.5
 20
8.5
 30
0.0
 40
3.0
  1

  7
STYLE1
100
AcDbText
  0
TEXT
  5
1B952
100
AcDbEntity
  8
SK2
100
AcDbText
 10
1272.5
 20
8.5
 30
0.0
 40
3.0
  1

  7
STYLE1
100
AcDbText
  0
TEXT
  5
1B953
100
AcDbEntity
  8
SK2
100
AcDbText
 10
1472.5
 20
8.5
 30
0.0
 40
3.0
  1

  7
STYLE1
100
AcDbText
  0
TEXT
  5
1B954
100
AcDbEntity
  8
SK2
100
AcDbText
 10
1272.5
 20
8.5
 30
0.0
 40
3.0
  1

  7
STYLE1
100
AcDbText
  0
TEXT
  5
1B955
100
AcDbEntity
  8
SK2
100
AcDbText
 10
1272.5
 20
8.5
 30
0.0
 40
3.0
  1

  7
STYLE1
100
AcDbText
  0
TEXT
  5
1B956
100
AcDbEntity
  8
SK2
100
AcDbText
 10
1472.5
 20
8.5
 30
0.0
 40
3.0
  1

  7
STYLE1
100
AcDbText
  0
TEXT
  5
1BDB1
100
AcDbEntity
  8
SK2
100
AcDbText
 10
472.5
 20
8.5
 30
0.0
 40
3.0
  1

  7
STYLE1
100
AcDbText
  0
TEXT
  5
1BDB2
100
AcDbEntity
  8
SK2
100
AcDbText
 10
472.5
 20
8.5
 30
0.0
 40
3.0
  1

  7
STYLE1
100
AcDbText
  0
TEXT
  5
1BDB3
100
AcDbEntity
  8
SK2
100
AcDbText
 10
672.5
 20
8.5
 30
0.0
 40
3.0
  1

  7
STYLE1
100
AcDbText
  0
TEXT
  5
1BDB4
100
AcDbEntity
  8
SK2
100
AcDbText
 10
370.5
 20
26.5
 30
0.0
 40
2.5
  1

  7
STYLE1
100
AcDbText
  0
TEXT
  5
1BDF1
100
AcDbEntity
  8
SK2
100
AcDbText
 10
1072.5
 20
8.5
 30
0.0
 40
3.0
  1

  7
STYLE1
100
AcDbText
  0
TEXT
  5
1BDF2
100
AcDbEntity
  8
SK2
100
AcDbText
 10
1072.5
 20
8.5
 30
0.0
 40
3.0
  1

  7
STYLE1
100
AcDbText
  0
TEXT
  5
1BDF3
100
AcDbEntity
  8
SK2
100
AcDbText
 10
1272.5
 20
8.5
 30
0.0
 40
3.0
  1

  7
STYLE1
100
AcDbText
  0
TEXT
  5
1BDF4
100
AcDbEntity
  8
SK2
100
AcDbText
 10
5272.5
 20
8.5
 30
0.0
 40
3.0
  1

  7
STYLE1
100
AcDbText
  0
TEXT
  5
1BDF5
100
AcDbEntity
  8
SK2
100
AcDbText
 10
872.5
 20
8.5
 30
0.0
 40
3.0
  1

  7
STYLE1
100
AcDbText
  0
TEXT
  5
1BDF6
100
AcDbEntity
  8
SK2
100
AcDbText
 10
872.5
 20
8.5
 30
0.0
 40
3.0
  1

  7
STYLE1
100
AcDbText
  0
TEXT
  5
1BDF7
100
AcDbEntity
  8
SK2
100
AcDbText
 10
872.5
 20
8.5
 30
0.0
 40
3.0
  1

  7
STYLE1
100
AcDbText
  0
TEXT
  5
1BDF8
100
AcDbEntity
  8
SK2
100
AcDbText
 10
1072.5
 20
8.5
 30
0.0
 40
3.0
  1

  7
STYLE1
100
AcDbText
  0
TEXT
  5
1BDF9
100
AcDbEntity
  8
SK2
100
AcDbText
 10
1072.5
 20
8.5
 30
0.0
 40
3.0
  1

  7
STYLE1
100
AcDbText
  0
TEXT
  5
1BDFA
100
AcDbEntity
  8
SK2
100
AcDbText
 10
1072.5
 20
8.5
 30
0.0
 40
3.0
  1

  7
STYLE1
100
AcDbText
  0
TEXT
  5
1BDFB
100
AcDbEntity
  8
SK2
100
AcDbText
 10
1272.5
 20
8.5
 30
0.0
 40
3.0
  1

  7
STYLE1
100
AcDbText
  0
TEXT
  5
1BDFC
100
AcDbEntity
  8
SK2
100
AcDbText
 10
1272.5
 20
8.5
 30
0.0
 40
3.0
  1

  7
STYLE1
100
AcDbText
  0
TEXT
  5
1BDFD
100
AcDbEntity
  8
SK2
100
AcDbText
 10
1272.5
 20
8.5
 30
0.0
 40
3.0
  1

  7
STYLE1
100
AcDbText
  0
TEXT
  5
1BDFE
100
AcDbEntity
  8
SK2
100
AcDbText
 10
1472.5
 20
8.5
 30
0.0
 40
3.0
  1

  7
STYLE1
100
AcDbText
  0
TEXT
  5
1BDFF
100
AcDbEntity
  8
SK2
100
AcDbText
 10
1272.5
 20
8.5
 30
0.0
 40
3.0
  1

  7
STYLE1
100
AcDbText
  0
TEXT
  5
1BE00
100
AcDbEntity
  8
SK2
100
AcDbText
 10
1272.5
 20
8.5
 30
0.0
 40
3.0
  1

  7
STYLE1
100
AcDbText
  0
TEXT
  5
1BE01
100
AcDbEntity
  8
SK2
100
AcDbText
 10
1472.5
 20
8.5
 30
0.0
 40
3.0
  1

  7
STYLE1
100
AcDbText
  0
TEXT
  5
1BE02
100
AcDbEntity
  8
SK2
100
AcDbText
 10
872.5
 20
8.5
 30
0.0
 40
3.0
  1

  7
STYLE1
100
AcDbText
  0
TEXT
  5
1BE03
100
AcDbEntity
  8
SK2
100
AcDbText
 10
872.5
 20
8.5
 30
0.0
 40
3.0
  1

  7
STYLE1
100
AcDbText
  0
TEXT
  5
1BE04
100
AcDbEntity
  8
SK2
100
AcDbText
 10
1072.5
 20
8.5
 30
0.0
 40
3.0
  1

  7
STYLE1
100
AcDbText
  0
TEXT
  5
1BE05
100
AcDbEntity
  8
SK2
100
AcDbText
 10
1072.5
 20
8.5
 30
0.0
 40
3.0
  1

  7
STYLE1
100
AcDbText
  0
TEXT
  5
1BE06
100
AcDbEntity
  8
SK2
100
AcDbText
 10
1072.5
 20
8.5
 30
0.0
 40
3.0
  1

  7
STYLE1
100
AcDbText
  0
TEXT
  5
1BE07
100
AcDbEntity
  8
SK2
100
AcDbText
 10
1272.5
 20
8.5
 30
0.0
 40
3.0
  1

  7
STYLE1
100
AcDbText
  0
TEXT
  5
1BE08
100
AcDbEntity
  8
SK2
100
AcDbText
 10
1272.5
 20
8.5
 30
0.0
 40
3.0
  1

  7
STYLE1
100
AcDbText
  0
TEXT
  5
1BE09
100
AcDbEntity
  8
SK2
100
AcDbText
 10
1272.5
 20
8.5
 30
0.0
 40
3.0
  1

  7
STYLE1
100
AcDbText
  0
TEXT
  5
1BE0A
100
AcDbEntity
  8
SK2
100
AcDbText
 10
1472.5
 20
8.5
 30
0.0
 40
3.0
  1

  7
STYLE1
100
AcDbText
  0
TEXT
  5
1BE0B
100
AcDbEntity
  8
SK2
100
AcDbText
 10
1272.5
 20
8.5
 30
0.0
 40
3.0
  1

  7
STYLE1
100
AcDbText
  0
TEXT
  5
1BE0C
100
AcDbEntity
  8
SK2
100
AcDbText
 10
1272.5
 20
8.5
 30
0.0
 40
3.0
  1

  7
STYLE1
100
AcDbText
  0
TEXT
  5
1BE0D
100
AcDbEntity
  8
SK2
100
AcDbText
 10
1472.5
 20
8.5
 30
0.0
 40
3.0
  1

  7
STYLE1
100
AcDbText
  0
DIMENSION
  5
21586
100
AcDbEntity
  8
2
100
AcDbDimension
  2
*D0
 10
156.5
 20
20.559196
 30
0.0
 11
154.25
 21
169.059196
 31
0.0
 70
    32
  3
STANDARD
100
AcDbAlignedDimension
 13
119.0
 23
317.559196
 33
0.0
 14
111.85
 24
20.559196
 34
0.0
 50
90.0
100
AcDbRotatedDimension
1001
ACAD
1000
DSTYLE
1002
{
1070
    78
1070
     8
1070
   284
1070
     8
1070
   140
1040
2.5
1070
    47
1040
0.05
1070
    74
1070
     0
1070
   172
1070
     1
1070
    48
1040
0.05
1070
    73
1070
     0
1070
   146
1040
0.5
1070
   272
1070
     2
1070
    77
1070
     1
1070
   147
1040
1.0
1070
    42
1040
1.0
1070
    44
1040
1.0
1070
    43
1040
1.0
1070
   271
1070
     2
1070
    41
1040
2.5
1002
}
  0
DIMENSION
  5
21587
100
AcDbEntity
  8
2
100
AcDbDimension
  2
*D1
 10
149.5
 20
20.559196
 30
0.0
 11
147.25
 21
140.059196
 31
0.0
 70
    32
  3
STANDARD
100
AcDbAlignedDimension
 13
124.0
 23
259.559196
 33
0.0
 14
111.85
 24
20.559196
 34
0.0
 50
90.0
100
AcDbRotatedDimension
1001
ACAD
1000
DSTYLE
1002
{
1070
    78
1070
     8
1070
   284
1070
     8
1070
   140
1040
2.5
1070
    47
1040
0.05
1070
    74
1070
     0
1070
   172
1070
     1
1070
    48
1040
0.05
1070
    73
1070
     0
1070
   146
1040
0.5
1070
   272
1070
     2
1070
    77
1070
     1
1070
   147
1040
1.0
1070
    42
1040
1.0
1070
    44
1040
1.0
1070
    43
1040
1.0
1070
   271
1070
     2
1070
    41
1040
2.5
1002
}
  0
DIMENSION
  5
21588
100
AcDbEntity
  8
2
100
AcDbDimension
  2
*D2
 10
142.5
 20
245.785694
 30
0.0
 11
140.25
 21
133.172445
 31
0.0
 70
    32
  3
STANDARD
100
AcDbAlignedDimension
 13
111.85
 23
20.559196
 33
0.0
 14
114.5
 24
245.785694
 34
0.0
 50
90.0
100
AcDbRotatedDimension
1001
ACAD
1000
DSTYLE
1002
{
1070
    78
1070
     8
1070
   284
1070
     8
1070
   140
1040
2.5
1070
    47
1040
0.05
1070
    74
1070
     0
1070
   172
1070
     1
1070
    48
1040
0.05
1070
    73
1070
     0
1070
   146
1040
0.5
1070
   272
1070
     2
1070
    77
1070
     1
1070
   147
1040
1.0
1070
    42
1040
1.0
1070
    44
1040
1.0
1070
    43
1040
1.0
1070
   271
1070
     2
1070
    41
1040
2.5
1002
}
  0
LINE
  5
21589
100
AcDbEntity
  8
4
100
AcDbLine
 10
105.0
 20
15.559196
 30
0.0
 11
105.0
 21
319.559196
 31
0.0
  0
LINE
  5
21606
100
AcDbEntity
  8
6
100
AcDbLine
 10
89.0
 20
315.059196
 30
0.0
 11
97.254033
 21
315.059196
 31
0.0
  0
LINE
  5
21607
100
AcDbEntity
  8
6
100
AcDbLine
 10
89.0
 20
311.859196
 30
0.0
 11
97.254033
 21
311.859196
 31
0.0
  0
LINE
  5
21608
100
AcDbEntity
  8
1
100
AcDbLine
 10
91.0
 20
317.559196
 30
0.0
 11
119.0
 21
317.559196
 31
0.0
  0
LINE
  5
21609
100
AcDbEntity
  8
6
100
AcDbLine
 10
89.0
 20
315.559196
 30
0.0
 11
97.254033
 21
315.559196
 31
0.0
  0
DIMENSION
  5
2160A
100
AcDbEntity
  8
2
100
AcDbDimension
  2
*D4
 10
121.0
 20
322.384514
 30
0.0
 11
105.0
 21
324.842847
 31
0.0
 70
    32
  3
STANDARD
100
AcDbAlignedDimension
 13
89.0
 23
315.559196
 33
0.0
 14
121.0
 24
315.559196
 34
0.0
100
AcDbRotatedDimension
1001
ACAD
1000
DSTYLE
1002
{
1070
    78
1070
     8
1070
   284
1070
     8
1070
   140
1040
2.5
1070
    47
1040
-0.005
1070
    71
1070
     1
1070
    74
1070
     0
1070
   172
1070
     1
1070
    48
1040
0.015
1070
    73
1070
     0
1070
   146
1040
0.5
1070
   272
1070
     3
1070
    77
1070
     1
1070
     3
1000
%%C<>
1070
   147
1040
1.0
1070
    42
1040
1.0
1070
    44
1040
1.0
1070
    43
1040
1.0
1070
   271
1070
     3
1070
    41
1040
2.5
1002
}
  0
LINE
  5
2160C
100
AcDbEntity
  8
1
100
AcDbLine
 10
85.5
 20
259.059196
 30
0.0
 11
124.5
 21
259.059196
 31
0.0
  0
LINE
  5
2160D
100
AcDbEntity
  8
6
100
AcDbLine
 10
89.0
 20
261.559196
 30
0.0
 11
121.0
 21
261.559196
 31
0.0
  0
LINE
  5
2160E
100
AcDbEntity
  8
6
100
AcDbLine
 10
89.15
 20
261.409196
 30
0.0
 11
120.85
 21
261.409196
 31
0.0
  0
LINE
  5
2160F
100
AcDbEntity
  8
1
100
AcDbLine
 10
85.5
 20
251.559196
 30
0.0
 11
124.5
 21
251.559196
 31
0.0
  0
LINE
  5
21610
100
AcDbEntity
  8
1
100
AcDbLine
 10
86.0
 20
259.559196
 30
0.0
 11
124.0
 21
259.559196
 31
0.0
  0
DIMENSION
  5
21611
100
AcDbEntity
  8
2
100
AcDbDimension
  2
*D3
 10
124.5
 20
329.384514
 30
0.0
 11
105.0
 21
331.634514
 31
0.0
 70
    32
  3
STANDARD
100
AcDbAlignedDimension
 13
85.5
 23
259.059196
 33
0.0
 14
124.5
 24
259.059196
 34
0.0
100
AcDbRotatedDimension
1001
ACAD
1000
DSTYLE
1002
{
1070
    78
1070
     8
1070
   284
1070
     8
1070
   140
1040
2.5
1070
    47
1040
0.05
1070
    71
1070
     1
1070
    74
1070
     0
1070
   172
1070
     1
1070
    48
1040
0.05
1070
    73
1070
     0
1070
   146
1040
0.5
1070
   272
1070
     2
1070
    77
1070
     1
1070
     3
1000
%%C<>
1070
   147
1040
1.0
1070
    42
1040
1.0
1070
    44
1040
1.0
1070
    43
1040
1.0
1070
   271
1070
     2
1070
    41
1040
2.5
1002
}
  0
LINE
  5
21614
100
AcDbEntity
  8
1
100
AcDbLine
 10
89.0
 20
311.859196
 30
0.0
 11
89.0
 21
261.559196
 31
0.0
  0
LINE
  5
21616
100
AcDbEntity
  8
1
100
AcDbLine
 10
85.5
 20
251.559196
 30
0.0
 11
85.5
 21
259.059196
 31
0.0
  0
LINE
  5
2161B
100
AcDbEntity
  8
1
100
AcDbLine
 10
89.15
 20
261.409196
 30
0.0
 11
89.0
 21
261.559196
 31
0.0
  0
LINE
  5
2161E
100
AcDbEntity
  8
1
100
AcDbLine
 10
86.0
 20
259.559196
 30
0.0
 11
85.5
 21
259.059196
 31
0.0
  0
LINE
  5
2161F
100
AcDbEntity
  8
1
100
AcDbLine
 10
89.15
 20
261.409196
 30
0.0
 11
89.15
 21
259.559196
 31
0.0
  0
ARC
  5
21625
100
AcDbEntity
  8
1
100
AcDbCircle
 10
85.333939
 20
313.459196
 30
0.0
 40
4.0
100
AcDbArc
 50
336.421822
 51
23.578178
  0
LINE
  5
21626
100
AcDbEntity
  8
1
100
AcDbLine
 10
89.0
 20
315.559196
 30
0.0
 11
91.0
 21
317.559196
 31
0.0
  0
LINE
  5
21627
100
AcDbEntity
  8
1
100
AcDbLine
 10
89.0
 20
315.559196
 30
0.0
 11
89.0
 21
315.059196
 31
0.0
  0
DIMENSION
  5
21628
100
AcDbEntity
  8
2
100
AcDbDimension
  2
*D5
 10
149.5
 20
259.559196
 30
0.0
 11
147.25
 21
233.559196
 31
0.0
 12
-183.423793
 22
9.468137
 32
0.0
 70
    32
  3
STANDARD
100
AcDbAlignedDimension
 13
119.0
 23
317.559196
 33
0.0
 14
124.0
 24
259.559196
 34
0.0
 50
90.0
100
AcDbRotatedDimension
1001
ACAD
1000
DSTYLE
1002
{
1070
    78
1070
     8
1070
   284
1070
     8
1070
   140
1040
2.5
1070
    47
1040
0.05
1070
    74
1070
     0
1070
   172
1070
     1
1070
    48
1040
0.05
1070
    73
1070
     0
1070
   146
1040
0.5
1070
   272
1070
     2
1070
    77
1070
     1
1070
   147
1040
1.0
1070
    42
1040
1.0
1070
    44
1040
1.0
1070
    43
1040
1.0
1070
   271
1070
     2
1070
    41
1040
2.5
1002
}
  0
LINE
  5
21629
100
AcDbEntity
  8
1
100
AcDbLine
 10
121.0
 20
311.859196
 30
0.0
 11
121.0
 21
261.559196
 31
0.0
  0
LINE
  5
2162A
100
AcDbEntity
  8
1
100
AcDbLine
 10
124.5
 20
251.559196
 30
0.0
 11
124.5
 21
259.059196
 31
0.0
  0
DIMENSION
  5
2162B
100
AcDbEntity
  8
2
100
AcDbDimension
  2
*D6
 10
142.5
 20
251.559196
 30
0.0
 11
140.25
 21
200.559196
 31
0.0
 12
-183.423793
 22
9.468137
 32
0.0
 70
    32
  3
STANDARD
100
AcDbAlignedDimension
 13
124.0
 23
259.559196
 33
0.0
 14
124.5
 24
251.559196
 34
0.0
 50
90.0
100
AcDbRotatedDimension
1001
ACAD
1000
DSTYLE
1002
{
1070
    78
1070
     8
1070
   284
1070
     8
1070
   140
1040
2.5
1070
    47
1040
0.05
1070
    74
1070
     0
1070
   172
1070
     1
1070
    48
1040
0.05
1070
    73
1070
     0
1070
   146
1040
0.5
1070
   272
1070
     2
1070
    77
1070
     1
1070
   147
1040
1.0
1070
    42
1040
1.0
1070
    44
1040
1.0
1070
    43
1040
1.0
1070
   271
1070
     2
1070
    41
1040
2.5
1002
}
  0
LINE
  5
2162E
100
AcDbEntity
  8
1
100
AcDbLine
 10
124.0
 20
259.559196
 30
0.0
 11
124.5
 21
259.059196
 31
0.0
  0
LINE
  5
2162F
100
AcDbEntity
  8
1
100
AcDbLine
 10
120.85
 20
261.409196
 30
0.0
 11
120.85
 21
259.559196
 31
0.0
  0
LINE
  5
21630
100
AcDbEntity
  8
1
100
AcDbLine
 10
120.85
 20
261.409196
 30
0.0
 11
121.0
 21
261.559196
 31
0.0
  0
LINE
  5
21632
100
AcDbEntity
  8
1
100
AcDbLine
 10
119.0
 20
317.559196
 30
0.0
 11
121.0
 21
315.559196
 31
0.0
  0
LINE
  5
21633
100
AcDbEntity
  8
1
100
AcDbLine
 10
121.0
 20
315.559196
 30
0.0
 11
121.0
 21
315.059196
 31
0.0
  0
ARC
  5
21634
100
AcDbEntity
  8
1
100
AcDbCircle
 10
124.666061
 20
313.459196
 30
0.0
 40
4.0
100
AcDbArc
 50
156.421822
 51
203.578178
  0
LINE
  5
21C41
100
AcDbEntity
  8
1
100
AcDbLine
 10
95.25
 20
35.559196
 30
0.0
 11
114.75
 21
35.559196
 31
0.0
  0
LINE
  5
21C88
100
AcDbEntity
  8
6
100
AcDbLine
 10
103.952537
 20
31.76112
 30
0.0
 11
108.347463
 21
31.76112
 31
0.0
  0
ARC
  5
21C89
100
AcDbEntity
  8
6
100
AcDbCircle
 10
103.952537
 20
30.26112
 30
0.0
 40
1.5
100
AcDbArc
 50
90.0
 51
221.68548
  0
ARC
  5
21C8B
100
AcDbEntity
  8
6
100
AcDbCircle
 10
108.347463
 20
30.26112
 30
0.0
 40
1.5
100
AcDbArc
 50
15.0
 51
90.0
  0
LINE
  5
21C8C
100
AcDbEntity
  8
6
100
AcDbLine
 10
112.311038
 20
21.264412
 30
0.0
 11
109.796352
 21
30.649349
 31
0.0
  0
LINE
  5
2208A
100
AcDbEntity
  8
6
100
AcDbLine
 10
97.254033
 20
262.559196
 30
0.0
 11
112.745967
 21
262.559196
 31
0.0
  0
LINE
  5
2208D
100
AcDbEntity
  8
6
100
AcDbLine
 10
97.254033
 20
262.559196
 30
0.0
 11
97.254033
 21
317.559196
 31
0.0
  0
LINE
  5
2208E
100
AcDbEntity
  8
6
100
AcDbLine
 10
112.745967
 20
262.559196
 30
0.0
 11
112.745967
 21
317.559196
 31
0.0
  0
LINE
  5
2208F
100
AcDbEntity
  8
6
100
AcDbLine
 10
112.745967
 20
311.859196
 30
0.0
 11
121.0
 21
311.859196
 31
0.0
  0
LINE
  5
22090
100
AcDbEntity
  8
6
100
AcDbLine
 10
112.745967
 20
315.059196
 30
0.0
 11
121.0
 21
315.059196
 31
0.0
  0
LINE
  5
22091
100
AcDbEntity
  8
6
100
AcDbLine
 10
112.745967
 20
315.559196
 30
0.0
 11
121.0
 21
315.559196
 31
0.0
  0
LINE
  5
22092
100
AcDbEntity
  8
6
100
AcDbLine
 10
97.254033
 20
317.559196
 30
0.0
 11
112.745967
 21
262.559196
 31
0.0
  0
LINE
  5
22093
100
AcDbEntity
  8
6
100
AcDbLine
 10
97.254033
 20
262.559196
 30
0.0
 11
112.745967
 21
317.559196
 31
0.0
  0
DIMENSION
  5
220AE
100
AcDbEntity
  8
2
100
AcDbDimension
  2
*D7
 10
115.0
 20
8.559196
 30
0.0
 11
105.0
 21
10.809196
 31
0.0
 70
    32
  3
STANDARD
100
AcDbAlignedDimension
 13
95.0
 23
21.289475
 33
0.0
 14
115.0
 24
21.289475
 34
0.0
100
AcDbRotatedDimension
1001
ACAD
1000
DSTYLE
1002
{
1070
    78
1070
     8
1070
   284
1070
     8
1070
   140
1040
2.5
1070
    47
1040
0.05
1070
    74
1070
     0
1070
   172
1070
     1
1070
    48
1040
0.05
1070
    73
1070
     0
1070
   146
1040
0.5
1070
   272
1070
     2
1070
    77
1070
     1
1070
     3
1000
%%C<>
1070
   147
1040
1.0
1070
    42
1040
1.0
1070
    44
1040
1.0
1070
    43
1040
1.0
1070
   271
1070
     2
1070
    41
1040
2.5
1002
}
  0
LINE
  5
22432
100
AcDbEntity
  8
6
100
AcDbLine
 10
102.832327
 20
29.263559
 30
0.0
 11
100.647417
 21
21.109366
 31
0.0
  0
CIRCLE
  5
2243A
102
{ACAD_REACTORS
330
2244B
102
}
100
AcDbEntity
  8
2
100
AcDbCircle
 10
97.612124
 20
23.37132
 30
0.0
 40
1.25
  0
LINE
  5
2243B
102
{ACAD_REACTORS
330
2244B
102
}
100
AcDbEntity
  8
2
100
AcDbLine
 10
96.362124
 20
23.37132
 30
0.0
 11
98.862124
 21
23.37132
 31
0.0
  0
LINE
  5
2243D
102
{ACAD_REACTORS
330
2244B
102
}
100
AcDbEntity
  8
2
100
AcDbLine
 10
97.612124
 20
24.62132
 30
0.0
 11
97.612124
 21
22.12132
 31
0.0
  0
HATCH
  5
2244B
100
AcDbEntity
  8
2
100
AcDbHatch
 10
0.0
 20
0.0
 30
0.0
210
0.0
220
0.0
230
1.0
  2
ANSI31
 70
     0
 71
     1
 91
        2
 92
        7
 72
     1
 73
     1
 93
        3
 10
97.6121240801946
 20
24.62132049188171
 42
0.4142135623730951
 10
96.3621240801946
 20
23.37132049188171
 42
0.0
 10
97.6121240801946
 20
23.37132049188171
 42
0.0
 97
        3
330
2243A
330
2243B
330
2243D
 92
        7
 72
     1
 73
     1
 93
        3
 10
97.6121240801946
 20
22.12132049188171
 42
0.4142135623730951
 10
98.8621240801946
 20
23.37132049188171
 42
0.0
 10
97.6121240801946
 20
23.37132049188171
 42
0.0
 97
        3
330
2243B
330
2243D
330
2243A
 75
     0
 76
     1
 52
0.0
 41
1.0
 77
     0
 78
     1
 53
45.0
 43
0.020386
 44
-7.870417
 45
-0.0883883476483184
 46
0.0883883476483185
 79
     0
 47
0.008494
 98
        2
 10
97.403467
 20
23.745074
 10
97.913346
 20
22.938138
  0
HATCH
  5
2244C
100
AcDbEntity
  8
2
100
AcDbHatch
 10
0.0
 20
0.0
 30
0.0
210
0.0
220
0.0
230
1.0
  2
ANSI31
 70
     0
 71
     1
 91
        2
 92
        7
 72
     1
 73
     1
 93
        3
 10
106.4999999999999
 20
27.19112020033381
 42
0.4142135623730951
 10
105.2499999999999
 20
25.94112020033381
 42
0.0
 10
106.4999999999999
 20
25.94112020033381
 42
0.0
 97
        3
330
2244E
330
2244F
330
2244D
 92
        7
 72
     1
 73
     1
 93
        3
 10
106.4999999999999
 20
24.69112020033381
 42
0.4142135623730951
 10
107.75
 20
25.94112020033381
 42
0.0
 10
106.4999999999999
 20
25.94112020033381
 42
0.0
 97
        3
330
2244F
330
2244D
330
2244E
 75
     0
 76
     1
 52
0.0
 41
1.0
 77
     0
 78
     1
 53
45.0
 43
8.908262
 44
-5.300618
 45
-0.0883883476483184
 46
0.0883883476483185
 79
     0
 47
0.008494
 98
        2
 10
106.291343
 20
26.314874
 10
106.801222
 20
25.507938
  0
LINE
  5
2244D
102
{ACAD_REACTORS
330
2244C
102
}
100
AcDbEntity
  8
2
100
AcDbLine
 10
106.5
 20
27.19112
 30
0.0
 11
106.5
 21
24.69112
 31
0.0
  0
CIRCLE
  5
2244E
102
{ACAD_REACTORS
330
2244C
102
}
100
AcDbEntity
  8
2
100
AcDbCircle
 10
106.5
 20
25.94112
 30
0.0
 40
1.25
  0
LINE
  5
2244F
102
{ACAD_REACTORS
330
2244C
102
}
100
AcDbEntity
  8
2
100
AcDbLine
 10
105.25
 20
25.94112
 30
0.0
 11
107.75
 21
25.94112
 31
0.0
  0
TEXT
  5
22458
100
AcDbEntity
  8
SK6
100
AcDbText
 10
74.412527
 20
337.572632
 30
0.0
 40
8.0
  1
99307-20200
  7
STYLE1
100
AcDbText
  0
CIRCLE
  5
224E3
102
{ACAD_REACTORS
330
224ED
102
}
100
AcDbEntity
  8
2
100
AcDbCircle
 10
105.0
 20
259.559196
 30
0.0
 40
2.5
  0
LINE
  5
224E4
102
{ACAD_REACTORS
330
224ED
102
}
100
AcDbEntity
  8
2
100
AcDbLine
 10
102.5
 20
259.559196
 30
0.0
 11
107.5
 21
259.559196
 31
0.0
  0
LINE
  5
224E6
102
{ACAD_REACTORS
330
224ED
102
}
100
AcDbEntity
  8
2
100
AcDbLine
 10
105.0
 20
262.059196
 30
0.0
 11
105.0
 21
257.059196
 31
0.0
  0
HATCH
  5
224ED
100
AcDbEntity
  8
2
100
AcDbHatch
 10
0.0
 20
0.0
 30
0.0
210
0.0
220
0.0
230
1.0
  2
ANSI31
 70
     0
 71
     1
 91
        2
 92
        7
 72
     1
 73
     1
 93
        3
 10
105.0
 20
257.0591964116871
 42
0.4142135623730951
 10
107.4999999999999
 20
259.5591964116871
 42
0.0
 10
105.0
 20
259.5591964116871
 42
0.0
 97
        3
330
224E4
330
224E6
330
224E3
 92
        7
 72
     1
 73
     1
 93
        3
 10
105.0
 20
259.559196411687
 42
0.0
 10
105.0
 20
262.0591964116871
 42
0.4142135623730951
 10
102.4999999999999
 20
259.5591964116871
 42
0.0
 97
        3
330
224E3
330
224E4
330
224E6
 75
     0
 76
     1
 52
0.0
 41
1.0
 77
     0
 78
     1
 53
45.0
 43
0.0
 44
55.0
 45
-0.0883883476483184
 46
0.0883883476483185
 79
     0
 47
0.011439
 98
        2
 10
105.873704
 20
258.625899
 10
104.145634
 20
260.353175
  0
LINE
  5
22521
100
AcDbEntity
  8
1
100
AcDbLine
 10
95.25
 20
21.392232
 30
0.0
 11
95.25
 21
35.559196
 31
0.0
  0
LINE
  5
22522
100
AcDbEntity
  8
1
100
AcDbLine
 10
114.75
 20
21.392232
 30
0.0
 11
114.75
 21
35.559196
 31
0.0
  0
LINE
  5
22523
100
AcDbEntity
  8
1
100
AcDbLine
 10
95.5
 20
35.559196
 30
0.0
 11
95.5
 21
245.785694
 31
0.0
  0
LINE
  5
22524
100
AcDbEntity
  8
1
100
AcDbLine
 10
114.5
 20
35.559196
 30
0.0
 11
114.5
 21
245.785694
 31
0.0
  0
LINE
  5
22536
100
AcDbEntity
  8
6
100
AcDbLine
 10
100.202903
 20
25.038014
 30
0.0
 11
99.998792
 21
21.143359
 31
0.0
  0
LINE
  5
22537
100
AcDbEntity
  8
6
100
AcDbLine
 10
95.25
 20
25.998545
 30
0.0
 11
99.540497
 21
25.77369
 31
0.0
  0
LINE
  5
2254F
100
AcDbEntity
  8
1
100
AcDbLine
 10
95.25
 20
21.392232
 30
0.0
 11
105.0
 21
20.881256
 31
0.0
  0
LINE
  5
2255F
100
AcDbEntity
  8
1
100
AcDbLine
 10
114.75
 20
21.392232
 30
0.0
 11
105.0
 21
20.881256
 31
0.0
  0
ARC
  5
22577
100
AcDbEntity
  8
6
100
AcDbCircle
 10
99.924248
 20
25.453166
 30
0.0
 40
0.5
100
AcDbArc
 50
303.869898
 51
140.130102
  0
LINE
  5
225E3
100
AcDbEntity
  8
1
100
AcDbLine
 10
85.5
 20
251.559196
 30
0.0
 11
95.5
 21
245.785694
 31
0.0
  0
LINE
  5
225EF
100
AcDbEntity
  8
1
100
AcDbLine
 10
124.5
 20
251.559196
 30
0.0
 11
114.5
 21
245.785694
 31
0.0
  0
LINE
  5
225F0
100
AcDbEntity
  8
1
100
AcDbLine
 10
95.5
 20
245.785694
 30
0.0
 11
114.5
 21
245.785694
 31
0.0
  0
ENDSEC
  0
SECTION
  2
OBJECTS
  0
DICTIONARY
  5
C
100
AcDbDictionary
  3
ACAD_GROUP
350
D
  3
ACAD_MLINESTYLE
350
1A
  3
ACDBVARIABLEDICTIONARY
350
3B
  0
DICTIONARY
  5
D
102
{ACAD_REACTORS
330
C
102
}
100
AcDbDictionary
  0
DICTIONARY
  5
1A
102
{ACAD_REACTORS
330
C
102
}
100
AcDbDictionary
  3
STANDARD
350
1B
  0
DICTIONARY
  5
3B
102
{ACAD_REACTORS
330
C
102
}
100
AcDbDictionary
  3
DIMADEC
350
3C
  3
SORTENTS
350
5EEA
  0
MLINESTYLE
  5
1B
102
{ACAD_REACTORS
330
1A
102
}
100
AcDbMlineStyle
  2
STANDARD
 70
     0
  3

 62
   256
 51
90.0
 52
90.0
 71
     2
 49
0.5
 62
   256
  6
BYLAYER
 49
-0.5
 62
   256
  6
BYLAYER
  0
DICTIONARYVAR
  5
3C
102
{ACAD_REACTORS
330
3B
102
}
100
DictionaryVariables
280
     0
  1
2
  0
DICTIONARYVAR
  5
5EEA
102
{ACAD_REACTORS
330
3B
102
}
100
DictionaryVariables
280
     0
  1
96
  0
ENDSEC
  0
EOF
