  0
SECTION
  2
HEADER
  9
$ACADVER
  1
AC1014
  9
$ACADMAINTVER
 70
     0
  9
$DWGCODEPAGE
  3
ANSI_950
  9
$INSBASE
 10
0.0
 20
0.0
 30
0.0
  9
$EXTMIN
 10
74.412527
 20
7.559196
 30
0.0
  9
$EXTMAX
 10
157.5
 20
291.633406
 30
0.0
  9
$LIMMIN
 10
0.0
 20
0.0
  9
$LIMMAX
 10
210.0
 20
297.0
  9
$ORTHOMODE
 70
     1
  9
$REGENMODE
 70
     1
  9
$FILLMODE
 70
     1
  9
$QTEXTMODE
 70
     0
  9
$MIRRTEXT
 70
     1
  9
$DRAGMODE
 70
     2
  9
$LTSCALE
 40
6.0
  9
$OSMODE
 70
    59
  9
$ATTMODE
 70
     1
  9
$TEXTSIZE
 40
1.5
  9
$TRACEWID
 40
0.05
  9
$TEXTSTYLE
  7
MONOTXT
  9
$CLAYER
  8
0
  9
$CELTYPE
  6
BYLAYER
  9
$CECOLOR
 62
   256
  9
$CELTSCALE
 40
1.0
  9
$DELOBJ
 70
     1
  9
$DISPSILH
 70
     0
  9
$DIMSCALE
 40
1.0
  9
$DIMASZ
 40
2.5
  9
$DIMEXO
 40
1.0
  9
$DIMDLI
 40
1.0
  9
$DIMRND
 40
0.0
  9
$DIMDLE
 40
0.0
  9
$DIMEXE
 40
1.0
  9
$DIMTP
 40
0.05
  9
$DIMTM
 40
0.05
  9
$DIMTXT
 40
2.5
  9
$DIMCEN
 40
0.09
  9
$DIMTSZ
 40
0.0
  9
$DIMTOL
 70
     0
  9
$DIMLIM
 70
     0
  9
$DIMTIH
 70
     0
  9
$DIMTOH
 70
     0
  9
$DIMSE1
 70
     0
  9
$DIMSE2
 70
     0
  9
$DIMTAD
 70
     1
  9
$DIMZIN
 70
     8
  9
$DIMBLK
  1

  9
$DIMASO
 70
     1
  9
$DIMSHO
 70
     1
  9
$DIMPOST
  1

  9
$DIMAPOST
  1

  9
$DIMALT
 70
     0
  9
$DIMALTD
 70
     2
  9
$DIMALTF
 40
25.4
  9
$DIMLFAC
 40
1.0
  9
$DIMTOFL
 70
     1
  9
$DIMTVP
 40
0.0
  9
$DIMTIX
 70
     0
  9
$DIMSOXD
 70
     0
  9
$DIMSAH
 70
     0
  9
$DIMBLK1
  1

  9
$DIMBLK2
  1

  9
$DIMSTYLE
  2
STANDARD
  9
$DIMCLRD
 70
     0
  9
$DIMCLRE
 70
     0
  9
$DIMCLRT
 70
     0
  9
$DIMTFAC
 40
0.5
  9
$DIMGAP
 40
1.0
  9
$DIMJUST
 70
     0
  9
$DIMSD1
 70
     0
  9
$DIMSD2
 70
     0
  9
$DIMTOLJ
 70
     1
  9
$DIMTZIN
 70
     8
  9
$DIMALTZ
 70
     0
  9
$DIMALTTZ
 70
     0
  9
$DIMFIT
 70
     3
  9
$DIMUPT
 70
     0
  9
$DIMUNIT
 70
     2
  9
$DIMDEC
 70
     2
  9
$DIMTDEC
 70
     2
  9
$DIMALTU
 70
     2
  9
$DIMALTTD
 70
     2
  9
$DIMTXSTY
  7
STANDARD
  9
$DIMAUNIT
 70
     0
  9
$LUNITS
 70
     2
  9
$LUPREC
 70
     2
  9
$SKETCHINC
 40
0.1
  9
$FILLETRAD
 40
0.2
  9
$AUNITS
 70
     0
  9
$AUPREC
 70
     2
  9
$MENU
  1
acad
  9
$ELEVATION
 40
0.0
  9
$PELEVATION
 40
0.0
  9
$THICKNESS
 40
0.0
  9
$LIMCHECK
 70
     0
  9
$BLIPMODE
 70
     1
  9
$CHAMFERA
 40
0.0
  9
$CHAMFERB
 40
0.0
  9
$CHAMFERC
 40
0.0
  9
$CHAMFERD
 40
0.0
  9
$SKPOLY
 70
     0
  9
$TDCREATE
 40
2450670.354217245
  9
$TDUPDATE
 40
2457624.812873264
  9
$TDINDWG
 40
6.3300891319
  9
$TDUSRTIMER
 40
6.3300891319
  9
$USRTIMER
 70
     1
  9
$ANGBASE
 50
0.0
  9
$ANGDIR
 70
     0
  9
$PDMODE
 70
     0
  9
$PDSIZE
 40
0.0
  9
$PLINEWID
 40
0.0
  9
$COORDS
 70
     1
  9
$SPLFRAME
 70
     0
  9
$SPLINETYPE
 70
     6
  9
$SPLINESEGS
 70
     8
  9
$ATTDIA
 70
     0
  9
$ATTREQ
 70
     1
  9
$HANDLING
 70
     1
  9
$HANDSEED
  5
22525
  9
$SURFTAB1
 70
     6
  9
$SURFTAB2
 70
     6
  9
$SURFTYPE
 70
     6
  9
$SURFU
 70
     6
  9
$SURFV
 70
     6
  9
$UCSNAME
  2

  9
$UCSORG
 10
0.0
 20
0.0
 30
0.0
  9
$UCSXDIR
 10
1.0
 20
0.0
 30
0.0
  9
$UCSYDIR
 10
0.0
 20
1.0
 30
0.0
  9
$PUCSNAME
  2

  9
$PUCSORG
 10
0.0
 20
0.0
 30
0.0
  9
$PUCSXDIR
 10
1.0
 20
0.0
 30
0.0
  9
$PUCSYDIR
 10
0.0
 20
1.0
 30
0.0
  9
$USERI1
 70
     0
  9
$USERI2
 70
     0
  9
$USERI3
 70
     0
  9
$USERI4
 70
     0
  9
$USERI5
 70
     0
  9
$USERR1
 40
0.0
  9
$USERR2
 40
0.0
  9
$USERR3
 40
0.0
  9
$USERR4
 40
0.0
  9
$USERR5
 40
0.0
  9
$WORLDVIEW
 70
     1
  9
$SHADEDGE
 70
     3
  9
$SHADEDIF
 70
    70
  9
$TILEMODE
 70
     1
  9
$MAXACTVP
 70
    16
  9
$PINSBASE
 10
0.0
 20
0.0
 30
0.0
  9
$PLIMCHECK
 70
     0
  9
$PEXTMIN
 10
1.000000E+20
 20
1.000000E+20
 30
1.000000E+20
  9
$PEXTMAX
 10
-1.000000E+20
 20
-1.000000E+20
 30
-1.000000E+20
  9
$PLIMMIN
 10
0.0
 20
0.0
  9
$PLIMMAX
 10
12.0
 20
9.0
  9
$UNITMODE
 70
     0
  9
$VISRETAIN
 70
     0
  9
$PLINEGEN
 70
     0
  9
$PSLTSCALE
 70
     1
  9
$TREEDEPTH
 70
  3020
  9
$PICKSTYLE
 70
     0
  9
$CMLSTYLE
  2
STANDARD
  9
$CMLJUST
 70
     0
  9
$CMLSCALE
 40
1.0
  9
$PROXYGRAPHICS
 70
     1
  9
$MEASUREMENT
 70
     0
  0
ENDSEC
  0
SECTION
  2
CLASSES
  0
CLASS
  1
DICTIONARYVAR
  2
AcDbDictionaryVar
  3
"AutoCAD"
 90
        0
280
     0
281
     0
  0
CLASS
  1
LWPOLYLINE
  2
AcDbPolyline
  3
"AutoCAD"
 90
        0
280
     0
281
     1
  0
CLASS
  1
HATCH
  2
AcDbHatch
  3
"ACAD_SEDONA"
 90
        0
280
     0
281
     1
  0
ENDSEC
  0
SECTION
  2
TABLES
  0
TABLE
  2
VPORT
  5
8
100
AcDbSymbolTable
 70
     1
  0
VPORT
  5
2251F
100
AcDbSymbolTableRecord
100
AcDbViewportTableRecord
  2
*ACTIVE
 70
     0
 10
0.0
 20
0.0
 11
1.0
 21
1.0
 12
224.070451
 22
148.5
 13
0.0
 23
0.0
 14
1.0
 24
1.0
 15
0.0
 25
0.0
 16
0.0
 26
0.0
 36
1.0
 17
0.0
 27
0.0
 37
0.0
 40
297.0
 41
1.508892
 42
50.0
 43
0.0
 44
0.0
 50
0.0
 51
0.0
 71
     0
 72
   300
 73
     1
 74
     1
 75
     0
 76
     0
 77
     0
 78
     0
  0
ENDTAB
  0
TABLE
  2
LTYPE
  5
5
100
AcDbSymbolTable
 70
     3
  0
LTYPE
  5
11
100
AcDbSymbolTableRecord
100
AcDbLinetypeTableRecord
  2
BYBLOCK
 70
     0
  3

 72
    65
 73
     0
 40
0.0
  0
LTYPE
  5
12
100
AcDbSymbolTableRecord
100
AcDbLinetypeTableRecord
  2
BYLAYER
 70
     0
  3

 72
    65
 73
     0
 40
0.0
  0
LTYPE
  5
13
100
AcDbSymbolTableRecord
100
AcDbLinetypeTableRecord
  2
CONTINUOUS
 70
     0
  3
實線
 72
    65
 73
     0
 40
0.0
  0
LTYPE
  5
2E
100
AcDbSymbolTableRecord
100
AcDbLinetypeTableRecord
  2
CENTER
 70
     0
  3
____ _ ____ _ ____ _ ____ _ ____ _ ____ _ ____ 
 72
    65
 73
     4
 40
2.0
 49
1.25
 74
     0
 49
-0.25
 74
     0
 49
0.25
 74
     0
 49
-0.25
 74
     0
  0
LTYPE
  5
224FB
100
AcDbSymbolTableRecord
100
AcDbLinetypeTableRecord
  2
HIDDEN
 70
     0
  3
Hidden __ __ __ __ __ __ __ __ __ __ __ __ __ _
 72
    65
 73
     2
 40
0.375
 49
0.25
 74
     0
 49
-0.125
 74
     0
  0
ENDTAB
  0
TABLE
  2
LAYER
  5
2
100
AcDbSymbolTable
 70
    13
  0
LAYER
  5
E
100
AcDbSymbolTableRecord
100
AcDbLayerTableRecord
  2
0
 70
     0
 62
     7
  6
CONTINUOUS
  0
LAYER
  5
31
100
AcDbSymbolTableRecord
100
AcDbLayerTableRecord
  2
1
 70
     0
 62
     4
  6
CONTINUOUS
  0
LAYER
  5
32
100
AcDbSymbolTableRecord
100
AcDbLayerTableRecord
  2
4
 70
     0
 62
     2
  6
CENTER
  0
LAYER
  5
33
100
AcDbSymbolTableRecord
100
AcDbLayerTableRecord
  2
2
 70
     0
 62
     7
  6
CONTINUOUS
  0
LAYER
  5
34
100
AcDbSymbolTableRecord
100
AcDbLayerTableRecord
  2
SK2
 70
     0
 62
     7
  6
CONTINUOUS
  0
LAYER
  5
35
100
AcDbSymbolTableRecord
100
AcDbLayerTableRecord
  2
CUT
 70
     0
 62
     1
  6
CONTINUOUS
  0
LAYER
  5
36
100
AcDbSymbolTableRecord
100
AcDbLayerTableRecord
  2
DEFPOINTS
 70
     0
 62
     7
  6
CONTINUOUS
  0
LAYER
  5
3BEB
100
AcDbSymbolTableRecord
100
AcDbLayerTableRecord
  2
6
 70
     0
 62
     5
  6
CONTINUOUS
  0
LAYER
  5
22452
100
AcDbSymbolTableRecord
100
AcDbLayerTableRecord
  2
SK6
 70
     0
 62
     5
  6
CONTINUOUS
  0
LAYER
  5
224F7
100
AcDbSymbolTableRecord
100
AcDbLayerTableRecord
  2
BODY
 70
     0
 62
     7
  6
CONTINUOUS
  0
LAYER
  5
224F8
100
AcDbSymbolTableRecord
100
AcDbLayerTableRecord
  2
CEN
 70
     0
 62
     4
  6
CENTER
  0
LAYER
  5
224F9
100
AcDbSymbolTableRecord
100
AcDbLayerTableRecord
  2
HA
 70
     0
 62
     5
  6
CONTINUOUS
  0
LAYER
  5
224FA
100
AcDbSymbolTableRecord
100
AcDbLayerTableRecord
  2
HI
 70
     0
 62
     3
  6
HIDDEN
  0
ENDTAB
  0
TABLE
  2
STYLE
  5
3
100
AcDbSymbolTable
 70
     3
  0
STYLE
  5
F
100
AcDbSymbolTableRecord
100
AcDbTextStyleTableRecord
  2
STANDARD
 70
     0
 40
0.0
 41
1.0
 50
0.0
 71
     0
 42
3.5
  3
txt
  4

  0
STYLE
  5
2D
100
AcDbSymbolTableRecord
100
AcDbTextStyleTableRecord
  2
MONOTXT
 70
     0
 40
0.0
 41
1.0
 50
0.0
 71
     0
 42
1.5
  3
monotxt
  4

  0
STYLE
  5
32B1
100
AcDbSymbolTableRecord
100
AcDbTextStyleTableRecord
  2
STYLE1
 70
     0
 40
3.0
 41
1.0
 50
0.0
 71
     0
 42
3.0
  3
KAIU.TTF
  4

1001
ACAD
1000
@DFKai-SB
1071
    34881
  0
ENDTAB
  0
TABLE
  2
VIEW
  5
6
100
AcDbSymbolTable
 70
     0
  0
ENDTAB
  0
TABLE
  2
UCS
  5
7
100
AcDbSymbolTable
 70
     0
  0
ENDTAB
  0
TABLE
  2
APPID
  5
9
100
AcDbSymbolTable
 70
     1
  0
APPID
  5
10
100
AcDbSymbolTableRecord
100
AcDbRegAppTableRecord
  2
ACAD
 70
     0
  0
ENDTAB
  0
TABLE
  2
DIMSTYLE
  5
A
100
AcDbSymbolTable
 70
     1
  0
DIMSTYLE
105
1A2
102
{ACAD_REACTORS
330
21586
330
21587
330
21611
330
2160A
330
21628
330
2162B
330
220AE
330
21588
102
}
100
AcDbSymbolTableRecord
100
AcDbDimStyleTableRecord
  2
STANDARD
 70
     0
  3

  4

  5

  6

  7

 40
1.0
 41
0.18
 42
0.0625
 43
0.38
 44
0.18
 45
0.0
 46
0.0
 47
0.0
 48
0.0
140
0.18
141
0.09
142
0.0
143
25.4
144
1.0
145
0.0
146
1.0
147
0.09
 71
     0
 72
     0
 73
     1
 74
     1
 75
     0
 76
     0
 77
     0
 78
     0
170
     0
171
     2
172
     0
173
     0
174
     0
175
     0
176
     0
177
     0
178
     0
270
     2
271
     4
272
     4
273
     2
274
     2
340
F
275
     0
280
     0
281
     0
282
     0
283
     1
284
     0
285
     0
286
     0
287
     3
288
     0
  0
ENDTAB
  0
TABLE
  2
BLOCK_RECORD
  5
1
100
AcDbSymbolTable
 70
     8
  0
BLOCK_RECORD
  5
17
100
AcDbSymbolTableRecord
100
AcDbBlockTableRecord
  2
*MODEL_SPACE
  0
BLOCK_RECORD
  5
14
100
AcDbSymbolTableRecord
100
AcDbBlockTableRecord
  2
*PAPER_SPACE
  0
BLOCK_RECORD
  5
21641
100
AcDbSymbolTableRecord
100
AcDbBlockTableRecord
  2
*D0
  0
BLOCK_RECORD
  5
2164D
100
AcDbSymbolTableRecord
100
AcDbBlockTableRecord
  2
*D1
  0
BLOCK_RECORD
  5
21659
100
AcDbSymbolTableRecord
100
AcDbBlockTableRecord
  2
*D2
  0
BLOCK_RECORD
  5
2167F
100
AcDbSymbolTableRecord
100
AcDbBlockTableRecord
  2
*D3
  0
BLOCK_RECORD
  5
2168B
100
AcDbSymbolTableRecord
100
AcDbBlockTableRecord
  2
*D4
  0
BLOCK_RECORD
  5
21697
100
AcDbSymbolTableRecord
100
AcDbBlockTableRecord
  2
*D5
  0
BLOCK_RECORD
  5
216A3
100
AcDbSymbolTableRecord
100
AcDbBlockTableRecord
  2
*D6
  0
BLOCK_RECORD
  5
220A2
100
AcDbSymbolTableRecord
100
AcDbBlockTableRecord
  2
*D7
  0
ENDTAB
  0
ENDSEC
  0
SECTION
  2
BLOCKS
  0
BLOCK
  5
39
100
AcDbEntity
  8
0
100
AcDbBlockBegin
  2
*MODEL_SPACE
 70
     0
 10
0.0
 20
0.0
 30
0.0
  3
*MODEL_SPACE
  1

  0
ENDBLK
  5
3A
100
AcDbEntity
  8
0
100
AcDbBlockEnd
  0
BLOCK
  5
37
100
AcDbEntity
 67
     1
  8
0
100
AcDbBlockBegin
  2
*PAPER_SPACE
 70
     0
 10
0.0
 20
0.0
 30
0.0
  3
*PAPER_SPACE
  1

  0
ENDBLK
  5
38
100
AcDbEntity
 67
     1
  8
0
100
AcDbBlockEnd
  0
BLOCK
  5
21CB9
100
AcDbEntity
  8
0
100
AcDbBlockBegin
  2
*D0
 70
     1
 10
0.0
 20
0.0
 30
0.0
  3
*D0
  1

  0
LINE
  5
21CBA
100
AcDbEntity
  8
0
  6
BYBLOCK
 62
     0
100
AcDbLine
 10
290.883576
 20
308.091059
 30
0.0
 11
328.383576
 21
308.091059
 31
0.0
  0
LINE
  5
21CBB
100
AcDbEntity
  8
0
  6
BYBLOCK
 62
     0
100
AcDbLine
 10
283.733576
 20
66.091059
 30
0.0
 11
328.383576
 21
66.091059
 31
0.0
  0
LINE
  5
21CBC
100
AcDbEntity
  8
0
  6
BYBLOCK
 62
     0
100
AcDbLine
 10
327.383576
 20
305.591059
 30
0.0
 11
327.383576
 21
68.591059
 31
0.0
  0
SOLID
  5
21CBD
100
AcDbEntity
  8
0
  6
BYBLOCK
 62
     0
100
AcDbTrace
 10
326.966909
 20
305.591059
 30
0.0
 11
327.800242
 21
305.591059
 31
0.0
 12
327.383576
 22
308.091059
 32
0.0
 13
327.383576
 23
308.091059
 33
0.0
  0
SOLID
  5
21CBE
100
AcDbEntity
  8
0
  6
BYBLOCK
 62
     0
100
AcDbTrace
 10
326.966909
 20
68.591059
 30
0.0
 11
327.800242
 21
68.591059
 31
0.0
 12
327.383576
 22
66.091059
 32
0.0
 13
327.383576
 23
66.091059
 33
0.0
  0
MTEXT
  5
21CBF
100
AcDbEntity
  8
0
  6
BYBLOCK
 62
     0
100
AcDbMText
 10
325.133576
 20
187.091059
 30
0.0
 40
2.5
 41
0.0
 71
     5
 72
     1
  1
\A1;242
 11
0.0
 21
1.0
 31
0.0
  0
POINT
  5
21CC0
100
AcDbEntity
  8
DEFPOINTS
  6
BYBLOCK
 62
     0
100
AcDbPoint
 10
289.883576
 20
308.091059
 30
0.0
  0
POINT
  5
21CC1
100
AcDbEntity
  8
DEFPOINTS
  6
BYBLOCK
 62
     0
100
AcDbPoint
 10
282.733576
 20
66.091059
 30
0.0
  0
POINT
  5
21CC2
100
AcDbEntity
  8
DEFPOINTS
  6
BYBLOCK
 62
     0
100
AcDbPoint
 10
327.383576
 20
66.091059
 30
0.0
  0
ENDBLK
  5
21CC3
100
AcDbEntity
  8
0
100
AcDbBlockEnd
  0
BLOCK
  5
21CAE
100
AcDbEntity
  8
0
100
AcDbBlockBegin
  2
*D1
 70
     1
 10
0.0
 20
0.0
 30
0.0
  3
*D1
  1

  0
LINE
  5
21CAF
100
AcDbEntity
  8
0
  6
BYBLOCK
 62
     0
100
AcDbLine
 10
295.883576
 20
250.091059
 30
0.0
 11
321.383576
 21
250.091059
 31
0.0
  0
LINE
  5
21CB0
100
AcDbEntity
  8
0
  6
BYBLOCK
 62
     0
100
AcDbLine
 10
283.733576
 20
66.091059
 30
0.0
 11
321.383576
 21
66.091059
 31
0.0
  0
LINE
  5
21CB1
100
AcDbEntity
  8
0
  6
BYBLOCK
 62
     0
100
AcDbLine
 10
320.383576
 20
247.591059
 30
0.0
 11
320.383576
 21
68.591059
 31
0.0
  0
SOLID
  5
21CB2
100
AcDbEntity
  8
0
  6
BYBLOCK
 62
     0
100
AcDbTrace
 10
319.966909
 20
247.591059
 30
0.0
 11
320.800242
 21
247.591059
 31
0.0
 12
320.383576
 22
250.091059
 32
0.0
 13
320.383576
 23
250.091059
 33
0.0
  0
SOLID
  5
21CB3
100
AcDbEntity
  8
0
  6
BYBLOCK
 62
     0
100
AcDbTrace
 10
319.966909
 20
68.591059
 30
0.0
 11
320.800242
 21
68.591059
 31
0.0
 12
320.383576
 22
66.091059
 32
0.0
 13
320.383576
 23
66.091059
 33
0.0
  0
MTEXT
  5
21CB4
100
AcDbEntity
  8
0
  6
BYBLOCK
 62
     0
100
AcDbMText
 10
318.133576
 20
158.091059
 30
0.0
 40
2.5
 41
0.0
 71
     5
 72
     1
  1
\A1;184
 11
0.0
 21
1.0
 31
0.0
  0
POINT
  5
21CB5
100
AcDbEntity
  8
DEFPOINTS
  6
BYBLOCK
 62
     0
100
AcDbPoint
 10
294.883576
 20
250.091059
 30
0.0
  0
POINT
  5
21CB6
100
AcDbEntity
  8
DEFPOINTS
  6
BYBLOCK
 62
     0
100
AcDbPoint
 10
282.733576
 20
66.091059
 30
0.0
  0
POINT
  5
21CB7
100
AcDbEntity
  8
DEFPOINTS
  6
BYBLOCK
 62
     0
100
AcDbPoint
 10
320.383576
 20
66.091059
 30
0.0
  0
ENDBLK
  5
21CB8
100
AcDbEntity
  8
0
100
AcDbBlockEnd
  0
BLOCK
  5
21CA3
100
AcDbEntity
  8
0
100
AcDbBlockBegin
  2
*D2
 70
     1
 10
0.0
 20
0.0
 30
0.0
  3
*D2
  1

  0
LINE
  5
21CA4
100
AcDbEntity
  8
0
  6
BYBLOCK
 62
     0
100
AcDbLine
 10
283.733576
 20
66.091059
 30
0.0
 11
314.383576
 21
66.091059
 31
0.0
  0
LINE
  5
21CA5
100
AcDbEntity
  8
0
  6
BYBLOCK
 62
     0
100
AcDbLine
 10
285.883576
 20
236.028882
 30
0.0
 11
314.383576
 21
236.028882
 31
0.0
  0
LINE
  5
21CA6
100
AcDbEntity
  8
0
  6
BYBLOCK
 62
     0
100
AcDbLine
 10
313.383576
 20
68.591059
 30
0.0
 11
313.383576
 21
233.528882
 31
0.0
  0
SOLID
  5
21CA7
100
AcDbEntity
  8
0
  6
BYBLOCK
 62
     0
100
AcDbTrace
 10
312.966909
 20
68.591059
 30
0.0
 11
313.800242
 21
68.591059
 31
0.0
 12
313.383576
 22
66.091059
 32
0.0
 13
313.383576
 23
66.091059
 33
0.0
  0
SOLID
  5
21CA8
100
AcDbEntity
  8
0
  6
BYBLOCK
 62
     0
100
AcDbTrace
 10
312.966909
 20
233.528882
 30
0.0
 11
313.800242
 21
233.528882
 31
0.0
 12
313.383576
 22
236.028882
 32
0.0
 13
313.383576
 23
236.028882
 33
0.0
  0
MTEXT
  5
21CA9
100
AcDbEntity
  8
0
  6
BYBLOCK
 62
     0
100
AcDbMText
 10
311.133576
 20
151.059971
 30
0.0
 40
2.5
 41
0.0
 71
     5
 72
     1
  1
\A1;169.94
 11
0.0
 21
1.0
 31
0.0
  0
POINT
  5
21CAA
100
AcDbEntity
  8
DEFPOINTS
  6
BYBLOCK
 62
     0
100
AcDbPoint
 10
282.733576
 20
66.091059
 30
0.0
  0
POINT
  5
21CAB
100
AcDbEntity
  8
DEFPOINTS
  6
BYBLOCK
 62
     0
100
AcDbPoint
 10
284.883576
 20
236.028882
 30
0.0
  0
POINT
  5
21CAC
100
AcDbEntity
  8
DEFPOINTS
  6
BYBLOCK
 62
     0
100
AcDbPoint
 10
313.383576
 20
236.028882
 30
0.0
  0
ENDBLK
  5
21CAD
100
AcDbEntity
  8
0
100
AcDbBlockEnd
  0
BLOCK
  5
22464
100
AcDbEntity
  8
0
100
AcDbBlockBegin
  2
*D3
 70
     1
 10
0.0
 20
0.0
 30
0.0
  3
*D3
  1

  0
LINE
  5
22465
100
AcDbEntity
  8
0
  6
BYBLOCK
 62
     0
100
AcDbLine
 10
85.5
 20
213.5
 30
0.0
 11
85.5
 21
283.825317
 31
0.0
  0
LINE
  5
22466
100
AcDbEntity
  8
0
  6
BYBLOCK
 62
     0
100
AcDbLine
 10
124.5
 20
213.5
 30
0.0
 11
124.5
 21
283.825317
 31
0.0
  0
LINE
  5
22467
100
AcDbEntity
  8
0
  6
BYBLOCK
 62
     0
100
AcDbLine
 10
88.0
 20
282.825317
 30
0.0
 11
122.0
 21
282.825317
 31
0.0
  0
SOLID
  5
22468
100
AcDbEntity
  8
0
  6
BYBLOCK
 62
     0
100
AcDbTrace
 10
88.0
 20
283.241984
 30
0.0
 11
88.0
 21
282.408651
 31
0.0
 12
85.5
 22
282.825317
 32
0.0
 13
85.5
 23
282.825317
 33
0.0
  0
SOLID
  5
22469
100
AcDbEntity
  8
0
  6
BYBLOCK
 62
     0
100
AcDbTrace
 10
122.0
 20
283.241984
 30
0.0
 11
122.0
 21
282.408651
 31
0.0
 12
124.5
 22
282.825317
 32
0.0
 13
124.5
 23
282.825317
 33
0.0
  0
MTEXT
  5
2246A
100
AcDbEntity
  8
0
  6
BYBLOCK
 62
     0
100
AcDbMText
 10
105.0
 20
285.075317
 30
0.0
 40
2.5
 41
0.0
 71
     5
 72
     1
  1
\A1;\U+220539{\H1.250000;±0.05}
  0
POINT
  5
2246B
100
AcDbEntity
  8
DEFPOINTS
  6
BYBLOCK
 62
     0
100
AcDbPoint
 10
85.5
 20
212.5
 30
0.0
  0
POINT
  5
2246C
100
AcDbEntity
  8
DEFPOINTS
  6
BYBLOCK
 62
     0
100
AcDbPoint
 10
124.5
 20
212.5
 30
0.0
  0
POINT
  5
2246D
100
AcDbEntity
  8
DEFPOINTS
  6
BYBLOCK
 62
     0
100
AcDbPoint
 10
124.5
 20
282.825317
 30
0.0
  0
ENDBLK
  5
2246E
100
AcDbEntity
  8
0
100
AcDbBlockEnd
  0
BLOCK
  5
22459
100
AcDbEntity
  8
0
100
AcDbBlockBegin
  2
*D4
 70
     1
 10
0.0
 20
0.0
 30
0.0
  3
*D4
  1

  0
LINE
  5
2245A
100
AcDbEntity
  8
0
  6
BYBLOCK
 62
     0
100
AcDbLine
 10
89.0
 20
270.0
 30
0.0
 11
89.0
 21
276.825317
 31
0.0
  0
LINE
  5
2245B
100
AcDbEntity
  8
0
  6
BYBLOCK
 62
     0
100
AcDbLine
 10
121.0
 20
270.0
 30
0.0
 11
121.0
 21
276.825317
 31
0.0
  0
LINE
  5
2245C
100
AcDbEntity
  8
0
  6
BYBLOCK
 62
     0
100
AcDbLine
 10
91.5
 20
275.825317
 30
0.0
 11
118.5
 21
275.825317
 31
0.0
  0
SOLID
  5
2245D
100
AcDbEntity
  8
0
  6
BYBLOCK
 62
     0
100
AcDbTrace
 10
91.5
 20
276.241984
 30
0.0
 11
91.5
 21
275.408651
 31
0.0
 12
89.0
 22
275.825317
 32
0.0
 13
89.0
 23
275.825317
 33
0.0
  0
SOLID
  5
2245E
100
AcDbEntity
  8
0
  6
BYBLOCK
 62
     0
100
AcDbTrace
 10
118.5
 20
276.241984
 30
0.0
 11
118.5
 21
275.408651
 31
0.0
 12
121.0
 22
275.825317
 32
0.0
 13
121.0
 23
275.825317
 33
0.0
  0
MTEXT
  5
2245F
100
AcDbEntity
  8
0
  6
BYBLOCK
 62
     0
100
AcDbMText
 10
105.0
 20
278.283651
 30
0.0
 40
2.5
 41
0.0
 71
     5
 72
     1
  1
\A1;\U+220532{\H1.250000;\S-0.005^ -0.015;}
  0
POINT
  5
22460
100
AcDbEntity
  8
DEFPOINTS
  6
BYBLOCK
 62
     0
100
AcDbPoint
 10
89.0
 20
269.0
 30
0.0
  0
POINT
  5
22461
100
AcDbEntity
  8
DEFPOINTS
  6
BYBLOCK
 62
     0
100
AcDbPoint
 10
121.0
 20
269.0
 30
0.0
  0
POINT
  5
22462
100
AcDbEntity
  8
DEFPOINTS
  6
BYBLOCK
 62
     0
100
AcDbPoint
 10
121.0
 20
275.825317
 30
0.0
  0
ENDBLK
  5
22463
100
AcDbEntity
  8
0
100
AcDbBlockEnd
  0
BLOCK
  5
21698
100
AcDbEntity
  8
0
100
AcDbBlockBegin
  2
*D5
 70
     1
 10
0.0
 20
0.0
 30
0.0
  3
*D5
  1

  0
LINE
  5
21699
100
AcDbEntity
  8
0
  6
BYBLOCK
 62
     0
100
AcDbLine
 10
303.423793
 20
308.091059
 30
0.0
 11
333.923793
 21
308.091059
 31
0.0
  0
LINE
  5
2169A
100
AcDbEntity
  8
0
  6
BYBLOCK
 62
     0
100
AcDbLine
 10
308.423793
 20
250.091059
 30
0.0
 11
333.923793
 21
250.091059
 31
0.0
  0
LINE
  5
2169B
100
AcDbEntity
  8
0
  6
BYBLOCK
 62
     0
100
AcDbLine
 10
332.923793
 20
305.591059
 30
0.0
 11
332.923793
 21
252.591059
 31
0.0
  0
SOLID
  5
2169C
100
AcDbEntity
  8
0
  6
BYBLOCK
 62
     0
100
AcDbTrace
 10
332.507126
 20
305.591059
 30
0.0
 11
333.34046
 21
305.591059
 31
0.0
 12
332.923793
 22
308.091059
 32
0.0
 13
332.923793
 23
308.091059
 33
0.0
  0
SOLID
  5
2169D
100
AcDbEntity
  8
0
  6
BYBLOCK
 62
     0
100
AcDbTrace
 10
332.507126
 20
252.591059
 30
0.0
 11
333.34046
 21
252.591059
 31
0.0
 12
332.923793
 22
250.091059
 32
0.0
 13
332.923793
 23
250.091059
 33
0.0
  0
MTEXT
  5
2169E
100
AcDbEntity
  8
0
  6
BYBLOCK
 62
     0
100
AcDbMText
 10
330.673793
 20
279.091059
 30
0.0
 40
2.5
 41
0.0
 71
     5
 72
     1
  1
\A1;58
 11
0.0
 21
1.0
 31
0.0
  0
POINT
  5
2169F
100
AcDbEntity
  8
DEFPOINTS
  6
BYBLOCK
 62
     0
100
AcDbPoint
 10
302.423793
 20
308.091059
 30
0.0
  0
POINT
  5
216A0
100
AcDbEntity
  8
DEFPOINTS
  6
BYBLOCK
 62
     0
100
AcDbPoint
 10
307.423793
 20
250.091059
 30
0.0
  0
POINT
  5
216A1
100
AcDbEntity
  8
DEFPOINTS
  6
BYBLOCK
 62
     0
100
AcDbPoint
 10
332.923793
 20
250.091059
 30
0.0
  0
ENDBLK
  5
216A2
100
AcDbEntity
  8
0
100
AcDbBlockEnd
  0
BLOCK
  5
216A4
100
AcDbEntity
  8
0
100
AcDbBlockBegin
  2
*D6
 70
     1
 10
0.0
 20
0.0
 30
0.0
  3
*D6
  1

  0
LINE
  5
216A5
100
AcDbEntity
  8
0
  6
BYBLOCK
 62
     0
100
AcDbLine
 10
308.423793
 20
250.091059
 30
0.0
 11
326.923793
 21
250.091059
 31
0.0
  0
LINE
  5
216A6
100
AcDbEntity
  8
0
  6
BYBLOCK
 62
     0
100
AcDbLine
 10
308.923793
 20
242.091059
 30
0.0
 11
326.923793
 21
242.091059
 31
0.0
  0
LINE
  5
216A7
100
AcDbEntity
  8
0
  6
BYBLOCK
 62
     0
100
AcDbLine
 10
325.923793
 20
247.591059
 30
0.0
 11
325.923793
 21
244.591059
 31
0.0
  0
SOLID
  5
216A8
100
AcDbEntity
  8
0
  6
BYBLOCK
 62
     0
100
AcDbTrace
 10
325.507126
 20
247.591059
 30
0.0
 11
326.34046
 21
247.591059
 31
0.0
 12
325.923793
 22
250.091059
 32
0.0
 13
325.923793
 23
250.091059
 33
0.0
  0
SOLID
  5
216A9
100
AcDbEntity
  8
0
  6
BYBLOCK
 62
     0
100
AcDbTrace
 10
325.507126
 20
244.591059
 30
0.0
 11
326.34046
 21
244.591059
 31
0.0
 12
325.923793
 22
242.091059
 32
0.0
 13
325.923793
 23
242.091059
 33
0.0
  0
MTEXT
  5
216AA
100
AcDbEntity
  8
0
  6
BYBLOCK
 62
     0
100
AcDbMText
 10
323.673793
 20
246.091059
 30
0.0
 40
2.5
 41
0.0
 71
     5
 72
     1
  1
\A1;8
 11
0.0
 21
1.0
 31
0.0
  0
POINT
  5
216AB
100
AcDbEntity
  8
DEFPOINTS
  6
BYBLOCK
 62
     0
100
AcDbPoint
 10
307.423793
 20
250.091059
 30
0.0
  0
POINT
  5
216AC
100
AcDbEntity
  8
DEFPOINTS
  6
BYBLOCK
 62
     0
100
AcDbPoint
 10
307.923793
 20
242.091059
 30
0.0
  0
POINT
  5
216AD
100
AcDbEntity
  8
DEFPOINTS
  6
BYBLOCK
 62
     0
100
AcDbPoint
 10
325.923793
 20
242.091059
 30
0.0
  0
ENDBLK
  5
216AE
100
AcDbEntity
  8
0
100
AcDbBlockEnd
  0
BLOCK
  5
224D2
100
AcDbEntity
  8
0
100
AcDbBlockBegin
  2
*D7
 70
     1
 10
0.0
 20
0.0
 30
0.0
  3
*D7
  1

  0
LINE
  5
224D3
100
AcDbEntity
  8
0
  6
BYBLOCK
 62
     0
100
AcDbLine
 10
95.5
 20
20.097606
 30
0.0
 11
95.5
 21
7.559196
 31
0.0
  0
LINE
  5
224D4
100
AcDbEntity
  8
0
  6
BYBLOCK
 62
     0
100
AcDbLine
 10
114.5
 20
20.097606
 30
0.0
 11
114.5
 21
7.559196
 31
0.0
  0
LINE
  5
224D5
100
AcDbEntity
  8
0
  6
BYBLOCK
 62
     0
100
AcDbLine
 10
98.0
 20
8.559196
 30
0.0
 11
112.0
 21
8.559196
 31
0.0
  0
SOLID
  5
224D6
100
AcDbEntity
  8
0
  6
BYBLOCK
 62
     0
100
AcDbTrace
 10
98.0
 20
8.975863
 30
0.0
 11
98.0
 21
8.14253
 31
0.0
 12
95.5
 22
8.559196
 32
0.0
 13
95.5
 23
8.559196
 33
0.0
  0
SOLID
  5
224D7
100
AcDbEntity
  8
0
  6
BYBLOCK
 62
     0
100
AcDbTrace
 10
112.0
 20
8.975863
 30
0.0
 11
112.0
 21
8.14253
 31
0.0
 12
114.5
 22
8.559196
 32
0.0
 13
114.5
 23
8.559196
 33
0.0
  0
MTEXT
  5
224D8
100
AcDbEntity
  8
0
  6
BYBLOCK
 62
     0
100
AcDbMText
 10
105.0
 20
10.809196
 30
0.0
 40
2.5
 41
0.0
 71
     5
 72
     1
  1
\A1;\U+220519
  0
POINT
  5
224D9
100
AcDbEntity
  8
DEFPOINTS
  6
BYBLOCK
 62
     0
100
AcDbPoint
 10
95.5
 20
21.097606
 30
0.0
  0
POINT
  5
224DA
100
AcDbEntity
  8
DEFPOINTS
  6
BYBLOCK
 62
     0
100
AcDbPoint
 10
114.5
 20
21.097606
 30
0.0
  0
POINT
  5
224DB
100
AcDbEntity
  8
DEFPOINTS
  6
BYBLOCK
 62
     0
100
AcDbPoint
 10
114.5
 20
8.559196
 30
0.0
  0
ENDBLK
  5
224DC
100
AcDbEntity
  8
0
100
AcDbBlockEnd
  0
ENDSEC
  0
SECTION
  2
ENTITIES
  0
TEXT
  5
11637
100
AcDbEntity
  8
SK2
100
AcDbText
 10
272.5
 20
8.5
 30
0.0
 40
3.0
  1

  7
STYLE1
100
AcDbText
  0
TEXT
  5
1279D
100
AcDbEntity
  8
SK2
100
AcDbText
 10
272.5
 20
8.5
 30
0.0
 40
3.0
  1

  7
STYLE1
100
AcDbText
  0
TEXT
  5
127CB
100
AcDbEntity
  8
SK2
100
AcDbText
 10
472.5
 20
8.5
 30
0.0
 40
3.0
  1

  7
STYLE1
100
AcDbText
  0
TEXT
  5
1921A
100
AcDbEntity
  8
SK2
100
AcDbText
 10
170.5
 20
26.5
 30
0.0
 40
2.5
  1

  7
STYLE1
100
AcDbText
  0
TEXT
  5
1AB58
100
AcDbEntity
  8
SK2
100
AcDbText
 10
872.5
 20
8.5
 30
0.0
 40
3.0
  1

  7
STYLE1
100
AcDbText
  0
TEXT
  5
1AB59
100
AcDbEntity
  8
SK2
100
AcDbText
 10
872.5
 20
8.5
 30
0.0
 40
3.0
  1

  7
STYLE1
100
AcDbText
  0
TEXT
  5
1AB5A
100
AcDbEntity
  8
SK2
100
AcDbText
 10
1072.5
 20
8.5
 30
0.0
 40
3.0
  1

  7
STYLE1
100
AcDbText
  0
TEXT
  5
1AB5B
100
AcDbEntity
  8
SK2
100
AcDbText
 10
5072.5
 20
8.5
 30
0.0
 40
3.0
  1

  7
STYLE1
100
AcDbText
  0
TEXT
  5
1B34E
100
AcDbEntity
  8
SK2
100
AcDbText
 10
672.5
 20
8.5
 30
0.0
 40
3.0
  1

  7
STYLE1
100
AcDbText
  0
TEXT
  5
1B399
100
AcDbEntity
  8
SK2
100
AcDbText
 10
672.5
 20
8.5
 30
0.0
 40
3.0
  1

  7
STYLE1
100
AcDbText
  0
TEXT
  5
1B39A
100
AcDbEntity
  8
SK2
100
AcDbText
 10
672.5
 20
8.5
 30
0.0
 40
3.0
  1

  7
STYLE1
100
AcDbText
  0
TEXT
  5
1B39B
100
AcDbEntity
  8
SK2
100
AcDbText
 10
872.5
 20
8.5
 30
0.0
 40
3.0
  1

  7
STYLE1
100
AcDbText
  0
TEXT
  5
1B39C
100
AcDbEntity
  8
SK2
100
AcDbText
 10
872.5
 20
8.5
 30
0.0
 40
3.0
  1

  7
STYLE1
100
AcDbText
  0
TEXT
  5
1B39D
100
AcDbEntity
  8
SK2
100
AcDbText
 10
872.5
 20
8.5
 30
0.0
 40
3.0
  1

  7
STYLE1
100
AcDbText
  0
TEXT
  5
1B39E
100
AcDbEntity
  8
SK2
100
AcDbText
 10
1072.5
 20
8.5
 30
0.0
 40
3.0
  1

  7
STYLE1
100
AcDbText
  0
TEXT
  5
1B39F
100
AcDbEntity
  8
SK2
100
AcDbText
 10
1072.5
 20
8.5
 30
0.0
 40
3.0
  1

  7
STYLE1
100
AcDbText
  0
TEXT
  5
1B3A0
100
AcDbEntity
  8
SK2
100
AcDbText
 10
1072.5
 20
8.5
 30
0.0
 40
3.0
  1

  7
STYLE1
100
AcDbText
  0
TEXT
  5
1B3A1
100
AcDbEntity
  8
SK2
100
AcDbText
 10
1272.5
 20
8.5
 30
0.0
 40
3.0
  1

  7
STYLE1
100
AcDbText
  0
TEXT
  5
1B3A2
100
AcDbEntity
  8
SK2
100
AcDbText
 10
1072.5
 20
8.5
 30
0.0
 40
3.0
  1

  7
STYLE1
100
AcDbText
  0
TEXT
  5
1B3A3
100
AcDbEntity
  8
SK2
100
AcDbText
 10
1072.5
 20
8.5
 30
0.0
 40
3.0
  1

  7
STYLE1
100
AcDbText
  0
TEXT
  5
1B3A4
100
AcDbEntity
  8
SK2
100
AcDbText
 10
1272.5
 20
8.5
 30
0.0
 40
3.0
  1

  7
STYLE1
100
AcDbText
  0
TEXT
  5
1B3A6
100
AcDbEntity
  8
SK2
100
AcDbText
 10
672.5
 20
8.5
 30
0.0
 40
3.0
  1

  7
STYLE1
100
AcDbText
  0
TEXT
  5
1B3A7
100
AcDbEntity
  8
SK2
100
AcDbText
 10
672.5
 20
8.5
 30
0.0
 40
3.0
  1

  7
STYLE1
100
AcDbText
  0
TEXT
  5
1B3A8
100
AcDbEntity
  8
SK2
100
AcDbText
 10
872.5
 20
8.5
 30
0.0
 40
3.0
  1

  7
STYLE1
100
AcDbText
  0
TEXT
  5
1B3A9
100
AcDbEntity
  8
SK2
100
AcDbText
 10
872.5
 20
8.5
 30
0.0
 40
3.0
  1

  7
STYLE1
100
AcDbText
  0
TEXT
  5
1B3AA
100
AcDbEntity
  8
SK2
100
AcDbText
 10
872.5
 20
8.5
 30
0.0
 40
3.0
  1

  7
STYLE1
100
AcDbText
  0
TEXT
  5
1B3AB
100
AcDbEntity
  8
SK2
100
AcDbText
 10
1072.5
 20
8.5
 30
0.0
 40
3.0
  1

  7
STYLE1
100
AcDbText
  0
TEXT
  5
1B3AC
100
AcDbEntity
  8
SK2
100
AcDbText
 10
1072.5
 20
8.5
 30
0.0
 40
3.0
  1

  7
STYLE1
100
AcDbText
  0
TEXT
  5
1B3AD
100
AcDbEntity
  8
SK2
100
AcDbText
 10
1072.5
 20
8.5
 30
0.0
 40
3.0
  1

  7
STYLE1
100
AcDbText
  0
TEXT
  5
1B3AE
100
AcDbEntity
  8
SK2
100
AcDbText
 10
1272.5
 20
8.5
 30
0.0
 40
3.0
  1

  7
STYLE1
100
AcDbText
  0
TEXT
  5
1B3AF
100
AcDbEntity
  8
SK2
100
AcDbText
 10
1072.5
 20
8.5
 30
0.0
 40
3.0
  1

  7
STYLE1
100
AcDbText
  0
TEXT
  5
1B3B0
100
AcDbEntity
  8
SK2
100
AcDbText
 10
1072.5
 20
8.5
 30
0.0
 40
3.0
  1

  7
STYLE1
100
AcDbText
  0
TEXT
  5
1B3B1
100
AcDbEntity
  8
SK2
100
AcDbText
 10
1272.5
 20
8.5
 30
0.0
 40
3.0
  1

  7
STYLE1
100
AcDbText
  0
TEXT
  5
1B8FA
100
AcDbEntity
  8
SK2
100
AcDbText
 10
472.5
 20
8.5
 30
0.0
 40
3.0
  1

  7
STYLE1
100
AcDbText
  0
TEXT
  5
1B8FB
100
AcDbEntity
  8
SK2
100
AcDbText
 10
472.5
 20
8.5
 30
0.0
 40
3.0
  1

  7
STYLE1
100
AcDbText
  0
TEXT
  5
1B8FC
100
AcDbEntity
  8
SK2
100
AcDbText
 10
672.5
 20
8.5
 30
0.0
 40
3.0
  1

  7
STYLE1
100
AcDbText
  0
TEXT
  5
1B8FD
100
AcDbEntity
  8
SK2
100
AcDbText
 10
370.5
 20
26.5
 30
0.0
 40
2.5
  1

  7
STYLE1
100
AcDbText
  0
TEXT
  5
1B93A
100
AcDbEntity
  8
SK2
100
AcDbText
 10
1072.5
 20
8.5
 30
0.0
 40
3.0
  1

  7
STYLE1
100
AcDbText
  0
TEXT
  5
1B93B
100
AcDbEntity
  8
SK2
100
AcDbText
 10
1072.5
 20
8.5
 30
0.0
 40
3.0
  1

  7
STYLE1
100
AcDbText
  0
TEXT
  5
1B93C
100
AcDbEntity
  8
SK2
100
AcDbText
 10
1272.5
 20
8.5
 30
0.0
 40
3.0
  1

  7
STYLE1
100
AcDbText
  0
TEXT
  5
1B93D
100
AcDbEntity
  8
SK2
100
AcDbText
 10
5272.5
 20
8.5
 30
0.0
 40
3.0
  1

  7
STYLE1
100
AcDbText
  0
TEXT
  5
1B93E
100
AcDbEntity
  8
SK2
100
AcDbText
 10
872.5
 20
8.5
 30
0.0
 40
3.0
  1

  7
STYLE1
100
AcDbText
  0
TEXT
  5
1B93F
100
AcDbEntity
  8
SK2
100
AcDbText
 10
872.5
 20
8.5
 30
0.0
 40
3.0
  1

  7
STYLE1
100
AcDbText
  0
TEXT
  5
1B940
100
AcDbEntity
  8
SK2
100
AcDbText
 10
872.5
 20
8.5
 30
0.0
 40
3.0
  1

  7
STYLE1
100
AcDbText
  0
TEXT
  5
1B941
100
AcDbEntity
  8
SK2
100
AcDbText
 10
1072.5
 20
8.5
 30
0.0
 40
3.0
  1

  7
STYLE1
100
AcDbText
  0
TEXT
  5
1B942
100
AcDbEntity
  8
SK2
100
AcDbText
 10
1072.5
 20
8.5
 30
0.0
 40
3.0
  1

  7
STYLE1
100
AcDbText
  0
TEXT
  5
1B943
100
AcDbEntity
  8
SK2
100
AcDbText
 10
1072.5
 20
8.5
 30
0.0
 40
3.0
  1

  7
STYLE1
100
AcDbText
  0
TEXT
  5
1B944
100
AcDbEntity
  8
SK2
100
AcDbText
 10
1272.5
 20
8.5
 30
0.0
 40
3.0
  1

  7
STYLE1
100
AcDbText
  0
TEXT
  5
1B945
100
AcDbEntity
  8
SK2
100
AcDbText
 10
1272.5
 20
8.5
 30
0.0
 40
3.0
  1

  7
STYLE1
100
AcDbText
  0
TEXT
  5
1B946
100
AcDbEntity
  8
SK2
100
AcDbText
 10
1272.5
 20
8.5
 30
0.0
 40
3.0
  1

  7
STYLE1
100
AcDbText
  0
TEXT
  5
1B947
100
AcDbEntity
  8
SK2
100
AcDbText
 10
1472.5
 20
8.5
 30
0.0
 40
3.0
  1

  7
STYLE1
100
AcDbText
  0
TEXT
  5
1B948
100
AcDbEntity
  8
SK2
100
AcDbText
 10
1272.5
 20
8.5
 30
0.0
 40
3.0
  1

  7
STYLE1
100
AcDbText
  0
TEXT
  5
1B949
100
AcDbEntity
  8
SK2
100
AcDbText
 10
1272.5
 20
8.5
 30
0.0
 40
3.0
  1

  7
STYLE1
100
AcDbText
  0
TEXT
  5
1B94A
100
AcDbEntity
  8
SK2
100
AcDbText
 10
1472.5
 20
8.5
 30
0.0
 40
3.0
  1

  7
STYLE1
100
AcDbText
  0
TEXT
  5
1B94B
100
AcDbEntity
  8
SK2
100
AcDbText
 10
872.5
 20
8.5
 30
0.0
 40
3.0
  1

  7
STYLE1
100
AcDbText
  0
TEXT
  5
1B94C
100
AcDbEntity
  8
SK2
100
AcDbText
 10
872.5
 20
8.5
 30
0.0
 40
3.0
  1

  7
STYLE1
100
AcDbText
  0
TEXT
  5
1B94D
100
AcDbEntity
  8
SK2
100
AcDbText
 10
1072.5
 20
8.5
 30
0.0
 40
3.0
  1

  7
STYLE1
100
AcDbText
  0
TEXT
  5
1B94E
100
AcDbEntity
  8
SK2
100
AcDbText
 10
1072.5
 20
8.5
 30
0.0
 40
3.0
  1

  7
STYLE1
100
AcDbText
  0
TEXT
  5
1B94F
100
AcDbEntity
  8
SK2
100
AcDbText
 10
1072.5
 20
8.5
 30
0.0
 40
3.0
  1

  7
STYLE1
100
AcDbText
  0
TEXT
  5
1B950
100
AcDbEntity
  8
SK2
100
AcDbText
 10
1272.5
 20
8.5
 30
0.0
 40
3.0
  1

  7
STYLE1
100
AcDbText
  0
TEXT
  5
1B951
100
AcDbEntity
  8
SK2
100
AcDbText
 10
1272.5
 20
8.5
 30
0.0
 40
3.0
  1

  7
STYLE1
100
AcDbText
  0
TEXT
  5
1B952
100
AcDbEntity
  8
SK2
100
AcDbText
 10
1272.5
 20
8.5
 30
0.0
 40
3.0
  1

  7
STYLE1
100
AcDbText
  0
TEXT
  5
1B953
100
AcDbEntity
  8
SK2
100
AcDbText
 10
1472.5
 20
8.5
 30
0.0
 40
3.0
  1

  7
STYLE1
100
AcDbText
  0
TEXT
  5
1B954
100
AcDbEntity
  8
SK2
100
AcDbText
 10
1272.5
 20
8.5
 30
0.0
 40
3.0
  1

  7
STYLE1
100
AcDbText
  0
TEXT
  5
1B955
100
AcDbEntity
  8
SK2
100
AcDbText
 10
1272.5
 20
8.5
 30
0.0
 40
3.0
  1

  7
STYLE1
100
AcDbText
  0
TEXT
  5
1B956
100
AcDbEntity
  8
SK2
100
AcDbText
 10
1472.5
 20
8.5
 30
0.0
 40
3.0
  1

  7
STYLE1
100
AcDbText
  0
TEXT
  5
1BDB1
100
AcDbEntity
  8
SK2
100
AcDbText
 10
472.5
 20
8.5
 30
0.0
 40
3.0
  1

  7
STYLE1
100
AcDbText
  0
TEXT
  5
1BDB2
100
AcDbEntity
  8
SK2
100
AcDbText
 10
472.5
 20
8.5
 30
0.0
 40
3.0
  1

  7
STYLE1
100
AcDbText
  0
TEXT
  5
1BDB3
100
AcDbEntity
  8
SK2
100
AcDbText
 10
672.5
 20
8.5
 30
0.0
 40
3.0
  1

  7
STYLE1
100
AcDbText
  0
TEXT
  5
1BDB4
100
AcDbEntity
  8
SK2
100
AcDbText
 10
370.5
 20
26.5
 30
0.0
 40
2.5
  1

  7
STYLE1
100
AcDbText
  0
TEXT
  5
1BDF1
100
AcDbEntity
  8
SK2
100
AcDbText
 10
1072.5
 20
8.5
 30
0.0
 40
3.0
  1

  7
STYLE1
100
AcDbText
  0
TEXT
  5
1BDF2
100
AcDbEntity
  8
SK2
100
AcDbText
 10
1072.5
 20
8.5
 30
0.0
 40
3.0
  1

  7
STYLE1
100
AcDbText
  0
TEXT
  5
1BDF3
100
AcDbEntity
  8
SK2
100
AcDbText
 10
1272.5
 20
8.5
 30
0.0
 40
3.0
  1

  7
STYLE1
100
AcDbText
  0
TEXT
  5
1BDF4
100
AcDbEntity
  8
SK2
100
AcDbText
 10
5272.5
 20
8.5
 30
0.0
 40
3.0
  1

  7
STYLE1
100
AcDbText
  0
TEXT
  5
1BDF5
100
AcDbEntity
  8
SK2
100
AcDbText
 10
872.5
 20
8.5
 30
0.0
 40
3.0
  1

  7
STYLE1
100
AcDbText
  0
TEXT
  5
1BDF6
100
AcDbEntity
  8
SK2
100
AcDbText
 10
872.5
 20
8.5
 30
0.0
 40
3.0
  1

  7
STYLE1
100
AcDbText
  0
TEXT
  5
1BDF7
100
AcDbEntity
  8
SK2
100
AcDbText
 10
872.5
 20
8.5
 30
0.0
 40
3.0
  1

  7
STYLE1
100
AcDbText
  0
TEXT
  5
1BDF8
100
AcDbEntity
  8
SK2
100
AcDbText
 10
1072.5
 20
8.5
 30
0.0
 40
3.0
  1

  7
STYLE1
100
AcDbText
  0
TEXT
  5
1BDF9
100
AcDbEntity
  8
SK2
100
AcDbText
 10
1072.5
 20
8.5
 30
0.0
 40
3.0
  1

  7
STYLE1
100
AcDbText
  0
TEXT
  5
1BDFA
100
AcDbEntity
  8
SK2
100
AcDbText
 10
1072.5
 20
8.5
 30
0.0
 40
3.0
  1

  7
STYLE1
100
AcDbText
  0
TEXT
  5
1BDFB
100
AcDbEntity
  8
SK2
100
AcDbText
 10
1272.5
 20
8.5
 30
0.0
 40
3.0
  1

  7
STYLE1
100
AcDbText
  0
TEXT
  5
1BDFC
100
AcDbEntity
  8
SK2
100
AcDbText
 10
1272.5
 20
8.5
 30
0.0
 40
3.0
  1

  7
STYLE1
100
AcDbText
  0
TEXT
  5
1BDFD
100
AcDbEntity
  8
SK2
100
AcDbText
 10
1272.5
 20
8.5
 30
0.0
 40
3.0
  1

  7
STYLE1
100
AcDbText
  0
TEXT
  5
1BDFE
100
AcDbEntity
  8
SK2
100
AcDbText
 10
1472.5
 20
8.5
 30
0.0
 40
3.0
  1

  7
STYLE1
100
AcDbText
  0
TEXT
  5
1BDFF
100
AcDbEntity
  8
SK2
100
AcDbText
 10
1272.5
 20
8.5
 30
0.0
 40
3.0
  1

  7
STYLE1
100
AcDbText
  0
TEXT
  5
1BE00
100
AcDbEntity
  8
SK2
100
AcDbText
 10
1272.5
 20
8.5
 30
0.0
 40
3.0
  1

  7
STYLE1
100
AcDbText
  0
TEXT
  5
1BE01
100
AcDbEntity
  8
SK2
100
AcDbText
 10
1472.5
 20
8.5
 30
0.0
 40
3.0
  1

  7
STYLE1
100
AcDbText
  0
TEXT
  5
1BE02
100
AcDbEntity
  8
SK2
100
AcDbText
 10
872.5
 20
8.5
 30
0.0
 40
3.0
  1

  7
STYLE1
100
AcDbText
  0
TEXT
  5
1BE03
100
AcDbEntity
  8
SK2
100
AcDbText
 10
872.5
 20
8.5
 30
0.0
 40
3.0
  1

  7
STYLE1
100
AcDbText
  0
TEXT
  5
1BE04
100
AcDbEntity
  8
SK2
100
AcDbText
 10
1072.5
 20
8.5
 30
0.0
 40
3.0
  1

  7
STYLE1
100
AcDbText
  0
TEXT
  5
1BE05
100
AcDbEntity
  8
SK2
100
AcDbText
 10
1072.5
 20
8.5
 30
0.0
 40
3.0
  1

  7
STYLE1
100
AcDbText
  0
TEXT
  5
1BE06
100
AcDbEntity
  8
SK2
100
AcDbText
 10
1072.5
 20
8.5
 30
0.0
 40
3.0
  1

  7
STYLE1
100
AcDbText
  0
TEXT
  5
1BE07
100
AcDbEntity
  8
SK2
100
AcDbText
 10
1272.5
 20
8.5
 30
0.0
 40
3.0
  1

  7
STYLE1
100
AcDbText
  0
TEXT
  5
1BE08
100
AcDbEntity
  8
SK2
100
AcDbText
 10
1272.5
 20
8.5
 30
0.0
 40
3.0
  1

  7
STYLE1
100
AcDbText
  0
TEXT
  5
1BE09
100
AcDbEntity
  8
SK2
100
AcDbText
 10
1272.5
 20
8.5
 30
0.0
 40
3.0
  1

  7
STYLE1
100
AcDbText
  0
TEXT
  5
1BE0A
100
AcDbEntity
  8
SK2
100
AcDbText
 10
1472.5
 20
8.5
 30
0.0
 40
3.0
  1

  7
STYLE1
100
AcDbText
  0
TEXT
  5
1BE0B
100
AcDbEntity
  8
SK2
100
AcDbText
 10
1272.5
 20
8.5
 30
0.0
 40
3.0
  1

  7
STYLE1
100
AcDbText
  0
TEXT
  5
1BE0C
100
AcDbEntity
  8
SK2
100
AcDbText
 10
1272.5
 20
8.5
 30
0.0
 40
3.0
  1

  7
STYLE1
100
AcDbText
  0
TEXT
  5
1BE0D
100
AcDbEntity
  8
SK2
100
AcDbText
 10
1472.5
 20
8.5
 30
0.0
 40
3.0
  1

  7
STYLE1
100
AcDbText
  0
DIMENSION
  5
21586
100
AcDbEntity
  8
2
100
AcDbDimension
  2
*D0
 10
156.5
 20
20.559196
 30
0.0
 11
154.25
 21
141.559196
 31
0.0
 12
-170.883576
 22
-45.531863
 32
0.0
 70
    32
  3
STANDARD
100
AcDbAlignedDimension
 13
119.0
 23
262.559196
 33
0.0
 14
111.85
 24
20.559196
 34
0.0
 50
90.0
100
AcDbRotatedDimension
1001
ACAD
1000
DSTYLE
1002
{
1070
    78
1070
     8
1070
   284
1070
     8
1070
   140
1040
2.5
1070
    47
1040
0.05
1070
    74
1070
     0
1070
   172
1070
     1
1070
    48
1040
0.05
1070
    73
1070
     0
1070
   146
1040
0.5
1070
   272
1070
     2
1070
    77
1070
     1
1070
   147
1040
1.0
1070
    42
1040
1.0
1070
    44
1040
1.0
1070
    43
1040
1.0
1070
   271
1070
     2
1070
    41
1040
2.5
1002
}
  0
DIMENSION
  5
21587
100
AcDbEntity
  8
2
100
AcDbDimension
  2
*D1
 10
149.5
 20
20.559196
 30
0.0
 11
147.25
 21
112.559196
 31
0.0
 12
-170.883576
 22
-45.531863
 32
0.0
 70
    32
  3
STANDARD
100
AcDbAlignedDimension
 13
124.0
 23
204.559196
 33
0.0
 14
111.85
 24
20.559196
 34
0.0
 50
90.0
100
AcDbRotatedDimension
1001
ACAD
1000
DSTYLE
1002
{
1070
    78
1070
     8
1070
   284
1070
     8
1070
   140
1040
2.5
1070
    47
1040
0.05
1070
    74
1070
     0
1070
   172
1070
     1
1070
    48
1040
0.05
1070
    73
1070
     0
1070
   146
1040
0.5
1070
   272
1070
     2
1070
    77
1070
     1
1070
   147
1040
1.0
1070
    42
1040
1.0
1070
    44
1040
1.0
1070
    43
1040
1.0
1070
   271
1070
     2
1070
    41
1040
2.5
1002
}
  0
DIMENSION
  5
21588
100
AcDbEntity
  8
2
100
AcDbDimension
  2
*D2
 10
142.5
 20
190.497019
 30
0.0
 11
140.25
 21
105.528107
 31
0.0
 12
-170.883576
 22
-45.531863
 32
0.0
 70
    32
  3
STANDARD
100
AcDbAlignedDimension
 13
111.85
 23
20.559196
 33
0.0
 14
114.0
 24
190.497019
 34
0.0
 50
90.0
100
AcDbRotatedDimension
1001
ACAD
1000
DSTYLE
1002
{
1070
    78
1070
     8
1070
   284
1070
     8
1070
   140
1040
2.5
1070
    47
1040
0.05
1070
    74
1070
     0
1070
   172
1070
     1
1070
    48
1040
0.05
1070
    73
1070
     0
1070
   146
1040
0.5
1070
   272
1070
     2
1070
    77
1070
     1
1070
   147
1040
1.0
1070
    42
1040
1.0
1070
    44
1040
1.0
1070
    43
1040
1.0
1070
   271
1070
     2
1070
    41
1040
2.5
1002
}
  0
LINE
  5
21589
100
AcDbEntity
  8
4
100
AcDbLine
 10
105.0
 20
15.559196
 30
0.0
 11
105.0
 21
264.559196
 31
0.0
  0
LINE
  5
21606
100
AcDbEntity
  8
6
100
AcDbLine
 10
89.0
 20
260.059196
 30
0.0
 11
97.254033
 21
260.059196
 31
0.0
  0
LINE
  5
21607
100
AcDbEntity
  8
6
100
AcDbLine
 10
89.0
 20
256.859196
 30
0.0
 11
97.254033
 21
256.859196
 31
0.0
  0
LINE
  5
21608
100
AcDbEntity
  8
1
100
AcDbLine
 10
91.0
 20
262.559196
 30
0.0
 11
119.0
 21
262.559196
 31
0.0
  0
LINE
  5
21609
100
AcDbEntity
  8
6
100
AcDbLine
 10
89.0
 20
260.559196
 30
0.0
 11
97.254033
 21
260.559196
 31
0.0
  0
DIMENSION
  5
2160A
100
AcDbEntity
  8
2
100
AcDbDimension
  2
*D4
 10
121.0
 20
267.384514
 30
0.0
 11
105.0
 21
269.842847
 31
0.0
 12
0.0
 22
-8.440804
 32
0.0
 70
    32
  3
STANDARD
100
AcDbAlignedDimension
 13
89.0
 23
260.559196
 33
0.0
 14
121.0
 24
260.559196
 34
0.0
100
AcDbRotatedDimension
1001
ACAD
1000
DSTYLE
1002
{
1070
    78
1070
     8
1070
   284
1070
     8
1070
   140
1040
2.5
1070
    47
1040
-0.005
1070
    71
1070
     1
1070
    74
1070
     0
1070
   172
1070
     1
1070
    48
1040
0.015
1070
    73
1070
     0
1070
   146
1040
0.5
1070
   272
1070
     3
1070
    77
1070
     1
1070
     3
1000
%%C<>
1070
   147
1040
1.0
1070
    42
1040
1.0
1070
    44
1040
1.0
1070
    43
1040
1.0
1070
   271
1070
     3
1070
    41
1040
2.5
1002
}
  0
LINE
  5
2160C
100
AcDbEntity
  8
1
100
AcDbLine
 10
85.5
 20
204.059196
 30
0.0
 11
124.5
 21
204.059196
 31
0.0
  0
LINE
  5
2160D
100
AcDbEntity
  8
6
100
AcDbLine
 10
89.0
 20
206.559196
 30
0.0
 11
121.0
 21
206.559196
 31
0.0
  0
LINE
  5
2160E
100
AcDbEntity
  8
6
100
AcDbLine
 10
89.15
 20
206.409196
 30
0.0
 11
120.85
 21
206.409196
 31
0.0
  0
LINE
  5
2160F
100
AcDbEntity
  8
1
100
AcDbLine
 10
85.5
 20
196.559196
 30
0.0
 11
124.5
 21
196.559196
 31
0.0
  0
LINE
  5
21610
100
AcDbEntity
  8
1
100
AcDbLine
 10
86.0
 20
204.559196
 30
0.0
 11
124.0
 21
204.559196
 31
0.0
  0
DIMENSION
  5
21611
100
AcDbEntity
  8
2
100
AcDbDimension
  2
*D3
 10
124.5
 20
274.384514
 30
0.0
 11
105.0
 21
276.634514
 31
0.0
 12
0.0
 22
-8.440804
 32
0.0
 70
    32
  3
STANDARD
100
AcDbAlignedDimension
 13
85.5
 23
204.059196
 33
0.0
 14
124.5
 24
204.059196
 34
0.0
100
AcDbRotatedDimension
1001
ACAD
1000
DSTYLE
1002
{
1070
    78
1070
     8
1070
   284
1070
     8
1070
   140
1040
2.5
1070
    47
1040
0.05
1070
    71
1070
     1
1070
    74
1070
     0
1070
   172
1070
     1
1070
    48
1040
0.05
1070
    73
1070
     0
1070
   146
1040
0.5
1070
   272
1070
     2
1070
    77
1070
     1
1070
     3
1000
%%C<>
1070
   147
1040
1.0
1070
    42
1040
1.0
1070
    44
1040
1.0
1070
    43
1040
1.0
1070
   271
1070
     2
1070
    41
1040
2.5
1002
}
  0
LINE
  5
21614
100
AcDbEntity
  8
1
100
AcDbLine
 10
89.0
 20
256.859196
 30
0.0
 11
89.0
 21
206.559196
 31
0.0
  0
LINE
  5
21616
100
AcDbEntity
  8
1
100
AcDbLine
 10
85.5
 20
196.559196
 30
0.0
 11
85.5
 21
204.059196
 31
0.0
  0
LINE
  5
2161B
100
AcDbEntity
  8
1
100
AcDbLine
 10
89.15
 20
206.409196
 30
0.0
 11
89.0
 21
206.559196
 31
0.0
  0
LINE
  5
2161E
100
AcDbEntity
  8
1
100
AcDbLine
 10
86.0
 20
204.559196
 30
0.0
 11
85.5
 21
204.059196
 31
0.0
  0
LINE
  5
2161F
100
AcDbEntity
  8
1
100
AcDbLine
 10
89.15
 20
206.409196
 30
0.0
 11
89.15
 21
204.559196
 31
0.0
  0
ARC
  5
21625
100
AcDbEntity
  8
1
100
AcDbCircle
 10
85.333939
 20
258.459196
 30
0.0
 40
4.0
100
AcDbArc
 50
336.421822
 51
23.578178
  0
LINE
  5
21626
100
AcDbEntity
  8
1
100
AcDbLine
 10
89.0
 20
260.559196
 30
0.0
 11
91.0
 21
262.559196
 31
0.0
  0
LINE
  5
21627
100
AcDbEntity
  8
1
100
AcDbLine
 10
89.0
 20
260.559196
 30
0.0
 11
89.0
 21
260.059196
 31
0.0
  0
DIMENSION
  5
21628
100
AcDbEntity
  8
2
100
AcDbDimension
  2
*D5
 10
149.5
 20
204.559196
 30
0.0
 11
147.25
 21
233.559196
 31
0.0
 12
-183.423793
 22
-45.531863
 32
0.0
 70
    32
  3
STANDARD
100
AcDbAlignedDimension
 13
119.0
 23
262.559196
 33
0.0
 14
124.0
 24
204.559196
 34
0.0
 50
90.0
100
AcDbRotatedDimension
1001
ACAD
1000
DSTYLE
1002
{
1070
    78
1070
     8
1070
   284
1070
     8
1070
   140
1040
2.5
1070
    47
1040
0.05
1070
    74
1070
     0
1070
   172
1070
     1
1070
    48
1040
0.05
1070
    73
1070
     0
1070
   146
1040
0.5
1070
   272
1070
     2
1070
    77
1070
     1
1070
   147
1040
1.0
1070
    42
1040
1.0
1070
    44
1040
1.0
1070
    43
1040
1.0
1070
   271
1070
     2
1070
    41
1040
2.5
1002
}
  0
LINE
  5
21629
100
AcDbEntity
  8
1
100
AcDbLine
 10
121.0
 20
256.859196
 30
0.0
 11
121.0
 21
206.559196
 31
0.0
  0
LINE
  5
2162A
100
AcDbEntity
  8
1
100
AcDbLine
 10
124.5
 20
196.559196
 30
0.0
 11
124.5
 21
204.059196
 31
0.0
  0
DIMENSION
  5
2162B
100
AcDbEntity
  8
2
100
AcDbDimension
  2
*D6
 10
142.5
 20
196.559196
 30
0.0
 11
140.25
 21
200.559196
 31
0.0
 12
-183.423793
 22
-45.531863
 32
0.0
 70
    32
  3
STANDARD
100
AcDbAlignedDimension
 13
124.0
 23
204.559196
 33
0.0
 14
124.5
 24
196.559196
 34
0.0
 50
90.0
100
AcDbRotatedDimension
1001
ACAD
1000
DSTYLE
1002
{
1070
    78
1070
     8
1070
   284
1070
     8
1070
   140
1040
2.5
1070
    47
1040
0.05
1070
    74
1070
     0
1070
   172
1070
     1
1070
    48
1040
0.05
1070
    73
1070
     0
1070
   146
1040
0.5
1070
   272
1070
     2
1070
    77
1070
     1
1070
   147
1040
1.0
1070
    42
1040
1.0
1070
    44
1040
1.0
1070
    43
1040
1.0
1070
   271
1070
     2
1070
    41
1040
2.5
1002
}
  0
LINE
  5
2162E
100
AcDbEntity
  8
1
100
AcDbLine
 10
124.0
 20
204.559196
 30
0.0
 11
124.5
 21
204.059196
 31
0.0
  0
LINE
  5
2162F
100
AcDbEntity
  8
1
100
AcDbLine
 10
120.85
 20
206.409196
 30
0.0
 11
120.85
 21
204.559196
 31
0.0
  0
LINE
  5
21630
100
AcDbEntity
  8
1
100
AcDbLine
 10
120.85
 20
206.409196
 30
0.0
 11
121.0
 21
206.559196
 31
0.0
  0
LINE
  5
21632
100
AcDbEntity
  8
1
100
AcDbLine
 10
119.0
 20
262.559196
 30
0.0
 11
121.0
 21
260.559196
 31
0.0
  0
LINE
  5
21633
100
AcDbEntity
  8
1
100
AcDbLine
 10
121.0
 20
260.559196
 30
0.0
 11
121.0
 21
260.059196
 31
0.0
  0
ARC
  5
21634
100
AcDbEntity
  8
1
100
AcDbCircle
 10
124.666061
 20
258.459196
 30
0.0
 40
4.0
100
AcDbArc
 50
156.421822
 51
203.578178
  0
LINE
  5
21C41
100
AcDbEntity
  8
1
100
AcDbLine
 10
95.75
 20
35.559196
 30
0.0
 11
114.25
 21
35.559196
 31
0.0
  0
LINE
  5
21C42
100
AcDbEntity
  8
1
100
AcDbLine
 10
95.75
 20
21.195123
 30
0.0
 11
95.75
 21
35.559196
 31
0.0
  0
LINE
  5
21C43
100
AcDbEntity
  8
1
100
AcDbLine
 10
114.25
 20
21.195123
 30
0.0
 11
114.25
 21
35.559196
 31
0.0
  0
LINE
  5
21C44
100
AcDbEntity
  8
1
100
AcDbLine
 10
114.0
 20
35.559196
 30
0.0
 11
114.0
 21
190.497019
 31
0.0
  0
LINE
  5
21C45
100
AcDbEntity
  8
1
100
AcDbLine
 10
96.0
 20
35.559196
 30
0.0
 11
96.0
 21
190.497019
 31
0.0
  0
LINE
  5
21C74
100
AcDbEntity
  8
1
100
AcDbLine
 10
105.0
 20
20.710351
 30
0.0
 11
114.25
 21
21.195123
 31
0.0
  0
LINE
  5
21C7A
100
AcDbEntity
  8
1
100
AcDbLine
 10
105.0
 20
20.710351
 30
0.0
 11
95.75
 21
21.195123
 31
0.0
  0
LINE
  5
21C88
100
AcDbEntity
  8
6
100
AcDbLine
 10
103.952537
 20
31.76112
 30
0.0
 11
108.347463
 21
31.76112
 31
0.0
  0
ARC
  5
21C89
100
AcDbEntity
  8
6
100
AcDbCircle
 10
103.952537
 20
30.26112
 30
0.0
 40
1.5
100
AcDbArc
 50
90.0
 51
221.68548
  0
ARC
  5
21C8B
100
AcDbEntity
  8
6
100
AcDbCircle
 10
108.347463
 20
30.26112
 30
0.0
 40
1.5
100
AcDbArc
 50
15.0
 51
90.0
  0
LINE
  5
21C8C
100
AcDbEntity
  8
6
100
AcDbLine
 10
112.356198
 20
21.095873
 30
0.0
 11
109.796352
 21
30.649349
 31
0.0
  0
LINE
  5
21C94
100
AcDbEntity
  8
1
100
AcDbLine
 10
85.5
 20
196.559196
 30
0.0
 11
96.0
 21
190.497019
 31
0.0
  0
LINE
  5
21C95
100
AcDbEntity
  8
1
100
AcDbLine
 10
124.5
 20
196.559196
 30
0.0
 11
114.0
 21
190.497019
 31
0.0
  0
LINE
  5
21CA2
100
AcDbEntity
  8
1
100
AcDbLine
 10
96.0
 20
190.497019
 30
0.0
 11
114.0
 21
190.497019
 31
0.0
  0
LINE
  5
2208A
100
AcDbEntity
  8
6
100
AcDbLine
 10
97.254033
 20
207.559196
 30
0.0
 11
112.745967
 21
207.559196
 31
0.0
  0
LINE
  5
2208D
100
AcDbEntity
  8
6
100
AcDbLine
 10
97.254033
 20
207.559196
 30
0.0
 11
97.254033
 21
262.559196
 31
0.0
  0
LINE
  5
2208E
100
AcDbEntity
  8
6
100
AcDbLine
 10
112.745967
 20
207.559196
 30
0.0
 11
112.745967
 21
262.559196
 31
0.0
  0
LINE
  5
2208F
100
AcDbEntity
  8
6
100
AcDbLine
 10
112.745967
 20
256.859196
 30
0.0
 11
121.0
 21
256.859196
 31
0.0
  0
LINE
  5
22090
100
AcDbEntity
  8
6
100
AcDbLine
 10
112.745967
 20
260.059196
 30
0.0
 11
121.0
 21
260.059196
 31
0.0
  0
LINE
  5
22091
100
AcDbEntity
  8
6
100
AcDbLine
 10
112.745967
 20
260.559196
 30
0.0
 11
121.0
 21
260.559196
 31
0.0
  0
LINE
  5
22092
100
AcDbEntity
  8
6
100
AcDbLine
 10
97.254033
 20
262.559196
 30
0.0
 11
112.745967
 21
207.559196
 31
0.0
  0
LINE
  5
22093
100
AcDbEntity
  8
6
100
AcDbLine
 10
97.254033
 20
207.559196
 30
0.0
 11
112.745967
 21
262.559196
 31
0.0
  0
DIMENSION
  5
220AE
100
AcDbEntity
  8
2
100
AcDbDimension
  2
*D7
 10
114.5
 20
8.559196
 30
0.0
 11
105.0
 21
10.809196
 31
0.0
 70
    32
  3
STANDARD
100
AcDbAlignedDimension
 13
95.5
 23
21.097606
 33
0.0
 14
114.5
 24
21.097606
 34
0.0
100
AcDbRotatedDimension
1001
ACAD
1000
DSTYLE
1002
{
1070
    78
1070
     8
1070
   284
1070
     8
1070
   140
1040
2.5
1070
    47
1040
0.05
1070
    74
1070
     0
1070
   172
1070
     1
1070
    48
1040
0.05
1070
    73
1070
     0
1070
   146
1040
0.5
1070
   272
1070
     2
1070
    77
1070
     1
1070
     3
1000
%%C<>
1070
   147
1040
1.0
1070
    42
1040
1.0
1070
    44
1040
1.0
1070
    43
1040
1.0
1070
   271
1070
     2
1070
    41
1040
2.5
1002
}
  0
LINE
  5
22432
100
AcDbEntity
  8
6
100
AcDbLine
 10
102.832327
 20
29.263559
 30
0.0
 11
100.602258
 21
20.940827
 31
0.0
  0
LINE
  5
22434
100
AcDbEntity
  8
6
100
AcDbLine
 10
95.898877
 20
24.892398
 30
0.0
 11
99.036313
 21
24.727972
 31
0.0
  0
LINE
  5
22435
100
AcDbEntity
  8
6
100
AcDbLine
 10
99.659218
 20
24.036166
 30
0.0
 11
99.500026
 21
20.998592
 31
0.0
  0
ARC
  5
22437
100
AcDbEntity
  8
6
100
AcDbCircle
 10
99.483476
 20
24.504263
 30
0.0
 40
0.5
100
AcDbArc
 50
290.578178
 51
153.421822
  0
CIRCLE
  5
2243A
102
{ACAD_REACTORS
330
2244B
102
}
100
AcDbEntity
  8
2
100
AcDbCircle
 10
97.591738
 20
22.800934
 30
0.0
 40
1.25
  0
LINE
  5
2243B
102
{ACAD_REACTORS
330
2244B
102
}
100
AcDbEntity
  8
2
100
AcDbLine
 10
96.341738
 20
22.800934
 30
0.0
 11
98.841738
 21
22.800934
 31
0.0
  0
LINE
  5
2243D
102
{ACAD_REACTORS
330
2244B
102
}
100
AcDbEntity
  8
2
100
AcDbLine
 10
97.591738
 20
24.050934
 30
0.0
 11
97.591738
 21
21.550934
 31
0.0
  0
HATCH
  5
2244B
100
AcDbEntity
  8
2
100
AcDbHatch
 10
0.0
 20
0.0
 30
0.0
210
0.0
220
0.0
230
1.0
  2
ANSI31
 70
     0
 71
     1
 91
        2
 92
        7
 72
     1
 73
     1
 93
        3
 10
97.59173788379573
 20
24.05093429548259
 42
0.4142135623730951
 10
96.34173788379573
 20
22.80093429548259
 42
0.0
 10
97.59173788379575
 20
22.80093429548259
 42
0.0
 97
        3
330
2243A
330
2243B
330
2243D
 92
        7
 72
     1
 73
     1
 93
        3
 10
97.59173788379573
 20
21.55093429548259
 42
0.4142135623730951
 10
98.84173788379573
 20
22.80093429548259
 42
0.0
 10
97.59173788379575
 20
22.80093429548259
 42
0.0
 97
        3
330
2243B
330
2243D
330
2243A
 75
     0
 76
     1
 52
0.0
 41
1.0
 77
     0
 78
     1
 53
45.0
 43
0.0
 44
-8.440804
 45
-0.0883883476483184
 46
0.0883883476483185
 79
     0
 47
0.008494
 98
        2
 10
97.383081
 20
23.174688
 10
97.89296
 20
22.367752
  0
HATCH
  5
2244C
100
AcDbEntity
  8
2
100
AcDbHatch
 10
0.0
 20
0.0
 30
0.0
210
0.0
220
0.0
230
1.0
  2
ANSI31
 70
     0
 71
     1
 91
        2
 92
        7
 72
     1
 73
     1
 93
        3
 10
106.4999999999999
 20
27.19112020033381
 42
0.4142135623730951
 10
105.2499999999999
 20
25.94112020033381
 42
0.0
 10
106.4999999999999
 20
25.94112020033381
 42
0.0
 97
        3
330
2244E
330
2244F
330
2244D
 92
        7
 72
     1
 73
     1
 93
        3
 10
106.4999999999999
 20
24.69112020033381
 42
0.4142135623730951
 10
107.75
 20
25.94112020033381
 42
0.0
 10
106.4999999999999
 20
25.94112020033381
 42
0.0
 97
        3
330
2244F
330
2244D
330
2244E
 75
     0
 76
     1
 52
0.0
 41
1.0
 77
     0
 78
     1
 53
45.0
 43
8.908262
 44
-5.300618
 45
-0.0883883476483184
 46
0.0883883476483185
 79
     0
 47
0.008494
 98
        2
 10
106.291343
 20
26.314874
 10
106.801222
 20
25.507938
  0
LINE
  5
2244D
102
{ACAD_REACTORS
330
2244C
102
}
100
AcDbEntity
  8
2
100
AcDbLine
 10
106.5
 20
27.19112
 30
0.0
 11
106.5
 21
24.69112
 31
0.0
  0
CIRCLE
  5
2244E
102
{ACAD_REACTORS
330
2244C
102
}
100
AcDbEntity
  8
2
100
AcDbCircle
 10
106.5
 20
25.94112
 30
0.0
 40
1.25
  0
LINE
  5
2244F
102
{ACAD_REACTORS
330
2244C
102
}
100
AcDbEntity
  8
2
100
AcDbLine
 10
105.25
 20
25.94112
 30
0.0
 11
107.75
 21
25.94112
 31
0.0
  0
TEXT
  5
22458
100
AcDbEntity
  8
SK6
100
AcDbText
 10
74.412527
 20
282.572632
 30
0.0
 40
8.0
  1
99307-19150
  7
STYLE1
100
AcDbText
  0
CIRCLE
  5
224E3
102
{ACAD_REACTORS
330
224ED
102
}
100
AcDbEntity
  8
2
100
AcDbCircle
 10
105.0
 20
204.559196
 30
0.0
 40
2.5
  0
LINE
  5
224E4
102
{ACAD_REACTORS
330
224ED
102
}
100
AcDbEntity
  8
2
100
AcDbLine
 10
102.5
 20
204.559196
 30
0.0
 11
107.5
 21
204.559196
 31
0.0
  0
LINE
  5
224E6
102
{ACAD_REACTORS
330
224ED
102
}
100
AcDbEntity
  8
2
100
AcDbLine
 10
105.0
 20
207.059196
 30
0.0
 11
105.0
 21
202.059196
 31
0.0
  0
HATCH
  5
224ED
100
AcDbEntity
  8
2
100
AcDbHatch
 10
0.0
 20
0.0
 30
0.0
210
0.0
220
0.0
230
1.0
  2
ANSI31
 70
     0
 71
     1
 91
        2
 92
        7
 72
     1
 73
     1
 93
        3
 10
107.4999999999999
 20
204.5591964116871
 42
0.0
 10
105.0
 20
204.5591964116871
 42
0.0
 10
105.0
 20
202.0591964116871
 42
0.4142135623730951
 97
        3
330
224E4
330
224E6
330
224E3
 92
        7
 72
     1
 73
     1
 93
        3
 10
105.0
 20
207.0591964116871
 42
0.4142135623730951
 10
102.4999999999999
 20
204.5591964116871
 42
0.0
 10
105.0
 20
204.5591964116871
 42
0.0
 97
        3
330
224E3
330
224E4
330
224E6
 75
     0
 76
     1
 52
0.0
 41
1.0
 77
     0
 78
     1
 53
45.0
 43
0.0
 44
0.0
 45
-0.0883883476483184
 46
0.0883883476483185
 79
     0
 47
0.011439
 98
        2
 10
105.873704
 20
203.625899
 10
104.145634
 20
205.353175
  0
ENDSEC
  0
SECTION
  2
OBJECTS
  0
DICTIONARY
  5
C
100
AcDbDictionary
  3
ACAD_GROUP
350
D
  3
ACAD_MLINESTYLE
350
1A
  3
ACDBVARIABLEDICTIONARY
350
3B
  0
DICTIONARY
  5
D
102
{ACAD_REACTORS
330
C
102
}
100
AcDbDictionary
  0
DICTIONARY
  5
1A
102
{ACAD_REACTORS
330
C
102
}
100
AcDbDictionary
  3
STANDARD
350
1B
  0
DICTIONARY
  5
3B
102
{ACAD_REACTORS
330
C
102
}
100
AcDbDictionary
  3
DIMADEC
350
3C
  3
SORTENTS
350
5EEA
  0
MLINESTYLE
  5
1B
102
{ACAD_REACTORS
330
1A
102
}
100
AcDbMlineStyle
  2
STANDARD
 70
     0
  3

 62
   256
 51
90.0
 52
90.0
 71
     2
 49
0.5
 62
   256
  6
BYLAYER
 49
-0.5
 62
   256
  6
BYLAYER
  0
DICTIONARYVAR
  5
3C
102
{ACAD_REACTORS
330
3B
102
}
100
DictionaryVariables
280
     0
  1
2
  0
DICTIONARYVAR
  5
5EEA
102
{ACAD_REACTORS
330
3B
102
}
100
DictionaryVariables
280
     0
  1
96
  0
ENDSEC
  0
EOF
